  0
SECTION
  2
HEADER
  9
$ACADVER
  1
AC1018
  9
$ACADMAINTVER
 70
     2
  9
$DWGCODEPAGE
  3
ANSI_1252
  9
$INSBASE
 10
0.0
 20
0.0
 30
0.0
  9
$EXTMIN
 10
0.0
 20
-0.0000000000000568
 30
0.0
  9
$EXTMAX
 10
594.0
 20
840.0
 30
0.0
  9
$LIMMIN
 10
0.0
 20
0.0
  9
$LIMMAX
 10
594.0
 20
840.0
  9
$ORTHOMODE
 70
     0
  9
$REGENMODE
 70
     1
  9
$FILLMODE
 70
     1
  9
$QTEXTMODE
 70
     0
  9
$MIRRTEXT
 70
     1
  9
$LTSCALE
 40
20.0
  9
$ATTMODE
 70
     1
  9
$TEXTSIZE
 40
3.5
  9
$TRACEWID
 40
1.0
  9
$TEXTSTYLE
  7
STANDARD
  9
$CLAYER
  8
VOLL
  9
$CELTYPE
  6
ByLayer
  9
$CECOLOR
 62
   256
  9
$CELTSCALE
 40
1.0
  9
$DISPSILH
 70
     0
  9
$DIMSCALE
 40
2.0
  9
$DIMASZ
 40
3.5
  9
$DIMEXO
 40
1.0
  9
$DIMDLI
 40
7.0
  9
$DIMRND
 40
0.0
  9
$DIMDLE
 40
0.0
  9
$DIMEXE
 40
1.0
  9
$DIMTP
 40
0.0
  9
$DIMTM
 40
0.0
  9
$DIMTXT
 40
3.5
  9
$DIMCEN
 40
1.5
  9
$DIMTSZ
 40
0.0
  9
$DIMTOL
 70
     0
  9
$DIMLIM
 70
     0
  9
$DIMTIH
 70
     0
  9
$DIMTOH
 70
     0
  9
$DIMSE1
 70
     0
  9
$DIMSE2
 70
     0
  9
$DIMTAD
 70
     1
  9
$DIMZIN
 70
     8
  9
$DIMBLK
  1

  9
$DIMASO
 70
     1
  9
$DIMSHO
 70
     0
  9
$DIMPOST
  1

  9
$DIMAPOST
  1

  9
$DIMALT
 70
     0
  9
$DIMALTD
 70
     2
  9
$DIMALTF
 40
25.4
  9
$DIMLFAC
 40
1.0
  9
$DIMTOFL
 70
     1
  9
$DIMTVP
 40
0.0
  9
$DIMTIX
 70
     0
  9
$DIMSOXD
 70
     0
  9
$DIMSAH
 70
     0
  9
$DIMBLK1
  1

  9
$DIMBLK2
  1

  9
$DIMSTYLE
  2
Standard
  9
$DIMCLRD
 70
     0
  9
$DIMCLRE
 70
     0
  9
$DIMCLRT
 70
     1
  9
$DIMTFAC
 40
0.5142857142857144
  9
$DIMGAP
 40
1.5
  9
$DIMJUST
 70
     0
  9
$DIMSD1
 70
     0
  9
$DIMSD2
 70
     0
  9
$DIMTOLJ
 70
     1
  9
$DIMTZIN
 70
     8
  9
$DIMALTZ
 70
     8
  9
$DIMALTTZ
 70
     8
  9
$DIMUPT
 70
     0
  9
$DIMDEC
 70
     2
  9
$DIMTDEC
 70
     2
  9
$DIMALTU
 70
     2
  9
$DIMALTTD
 70
     2
  9
$DIMTXSTY
  7
STANDARD
  9
$DIMAUNIT
 70
     0
  9
$DIMADEC
 70
     2
  9
$DIMALTRND
 40
0.0
  9
$DIMAZIN
 70
     2
  9
$DIMDSEP
 70
    46
  9
$DIMATFIT
 70
     3
  9
$DIMFRAC
 70
     0
  9
$DIMLDRBLK
  1

  9
$DIMLUNIT
 70
     2
  9
$DIMLWD
 70
    -2
  9
$DIMLWE
 70
    -2
  9
$DIMTMOVE
 70
     0
  9
$LUNITS
 70
     2
  9
$LUPREC
 70
     2
  9
$SKETCHINC
 40
1.0
  9
$FILLETRAD
 40
3.0
  9
$AUNITS
 70
     0
  9
$AUPREC
 70
     0
  9
$MENU
  1
ACAD
  9
$ELEVATION
 40
0.0
  9
$PELEVATION
 40
0.0
  9
$THICKNESS
 40
0.0
  9
$LIMCHECK
 70
     0
  9
$CHAMFERA
 40
0.0
  9
$CHAMFERB
 40
0.0
  9
$CHAMFERC
 40
0.0
  9
$CHAMFERD
 40
0.0
  9
$SKPOLY
 70
     0
  9
$TDCREATE
 40
2455397.825393172
  9
$TDUCREATE
 40
2455397.783726505
  9
$TDUPDATE
 40
2455545.457557732
  9
$TDUUPDATE
 40
2455545.415891065
  9
$TDINDWG
 40
0.1125312847
  9
$TDUSRTIMER
 40
0.1125312847
  9
$USRTIMER
 70
     1
  9
$ANGBASE
 50
0.0
  9
$ANGDIR
 70
     0
  9
$PDMODE
 70
     0
  9
$PDSIZE
 40
0.0
  9
$PLINEWID
 40
0.0
  9
$SPLFRAME
 70
     0
  9
$SPLINETYPE
 70
     6
  9
$SPLINESEGS
 70
     8
  9
$HANDSEED
  5
11FF
  9
$SURFTAB1
 70
     6
  9
$SURFTAB2
 70
     6
  9
$SURFTYPE
 70
     6
  9
$SURFU
 70
     6
  9
$SURFV
 70
     6
  9
$UCSBASE
  2

  9
$UCSNAME
  2

  9
$UCSORG
 10
0.0
 20
0.0
 30
0.0
  9
$UCSXDIR
 10
1.0
 20
0.0
 30
0.0
  9
$UCSYDIR
 10
0.0
 20
1.0
 30
0.0
  9
$UCSORTHOREF
  2

  9
$UCSORTHOVIEW
 70
     0
  9
$UCSORGTOP
 10
0.0
 20
0.0
 30
0.0
  9
$UCSORGBOTTOM
 10
0.0
 20
0.0
 30
0.0
  9
$UCSORGLEFT
 10
0.0
 20
0.0
 30
0.0
  9
$UCSORGRIGHT
 10
0.0
 20
0.0
 30
0.0
  9
$UCSORGFRONT
 10
0.0
 20
0.0
 30
0.0
  9
$UCSORGBACK
 10
0.0
 20
0.0
 30
0.0
  9
$PUCSBASE
  2

  9
$PUCSNAME
  2

  9
$PUCSORG
 10
0.0
 20
0.0
 30
0.0
  9
$PUCSXDIR
 10
1.0
 20
0.0
 30
0.0
  9
$PUCSYDIR
 10
0.0
 20
1.0
 30
0.0
  9
$PUCSORTHOREF
  2

  9
$PUCSORTHOVIEW
 70
     0
  9
$PUCSORGTOP
 10
0.0
 20
0.0
 30
0.0
  9
$PUCSORGBOTTOM
 10
0.0
 20
0.0
 30
0.0
  9
$PUCSORGLEFT
 10
0.0
 20
0.0
 30
0.0
  9
$PUCSORGRIGHT
 10
0.0
 20
0.0
 30
0.0
  9
$PUCSORGFRONT
 10
0.0
 20
0.0
 30
0.0
  9
$PUCSORGBACK
 10
0.0
 20
0.0
 30
0.0
  9
$USERI1
 70
     0
  9
$USERI2
 70
     0
  9
$USERI3
 70
     0
  9
$USERI4
 70
     0
  9
$USERI5
 70
     0
  9
$USERR1
 40
0.0
  9
$USERR2
 40
0.0
  9
$USERR3
 40
0.0
  9
$USERR4
 40
0.0
  9
$USERR5
 40
0.0
  9
$WORLDVIEW
 70
     1
  9
$SHADEDGE
 70
     3
  9
$SHADEDIF
 70
    70
  9
$TILEMODE
 70
     1
  9
$MAXACTVP
 70
    16
  9
$PINSBASE
 10
0.0
 20
0.0
 30
0.0
  9
$PLIMCHECK
 70
     0
  9
$PEXTMIN
 10
1.000000000000000E+20
 20
1.000000000000000E+20
 30
1.000000000000000E+20
  9
$PEXTMAX
 10
-1.000000000000000E+20
 20
-1.000000000000000E+20
 30
-1.000000000000000E+20
  9
$PLIMMIN
 10
0.0
 20
0.0
  9
$PLIMMAX
 10
12.0
 20
9.0
  9
$UNITMODE
 70
     0
  9
$VISRETAIN
 70
     0
  9
$PLINEGEN
 70
     0
  9
$PSLTSCALE
 70
     0
  9
$TREEDEPTH
 70
  3020
  9
$CMLSTYLE
  2
Standard
  9
$CMLJUST
 70
     0
  9
$CMLSCALE
 40
1.0
  9
$PROXYGRAPHICS
 70
     1
  9
$MEASUREMENT
 70
     0
  9
$CELWEIGHT
370
    -1
  9
$ENDCAPS
280
     0
  9
$JOINSTYLE
280
     0
  9
$LWDISPLAY
290
     0
  9
$INSUNITS
 70
     0
  9
$HYPERLINKBASE
  1

  9
$STYLESHEET
  1
monochrome 1.ctb
  9
$XEDIT
290
     1
  9
$CEPSNTYPE
380
     0
  9
$PSTYLEMODE
290
     1
  9
$FINGERPRINTGUID
  2
{D68B0D0D-A558-11D7-B632-000102183313}
  9
$VERSIONGUID
  2
{16B0FD5B-65F5-4CA1-8B31-980FCE8742C3}
  9
$EXTNAMES
290
     1
  9
$PSVPSCALE
 40
0.0
  9
$OLESTARTUP
290
     0
  9
$SORTENTS
280
   127
  9
$INDEXCTL
280
     0
  9
$HIDETEXT
280
     0
  9
$XCLIPFRAME
290
     0
  9
$HALOGAP
280
     0
  9
$OBSCOLOR
 70
   257
  9
$OBSLTYPE
280
     0
  9
$INTERSECTIONDISPLAY
280
     0
  9
$INTERSECTIONCOLOR
 70
   257
  9
$DIMASSOC
280
     1
  9
$PROJECTNAME
  1

  0
ENDSEC
  0
SECTION
  2
CLASSES
  0
CLASS
  1
ACDBDICTIONARYWDFLT
  2
AcDbDictionaryWithDefault
  3
ObjectDBX Classes
 90
        0
 91
        1
280
     0
281
     0
  0
CLASS
  1
DICTIONARYVAR
  2
AcDbDictionaryVar
  3
ObjectDBX Classes
 90
        0
 91
        2
280
     0
281
     0
  0
ENDSEC
  0
SECTION
  2
TABLES
  0
TABLE
  2
VPORT
  5
8
330
0
100
AcDbSymbolTable
 70
     2
  0
VPORT
  5
11FE
330
8
100
AcDbSymbolTableRecord
100
AcDbViewportTableRecord
  2
*Active
 70
     0
 10
0.0
 20
0.0
 11
1.0
 21
1.0
 12
297.0000145226395
 22
420.0000205370655
 13
0.0
 23
0.0
 14
1.0
 24
1.0
 15
10.0
 25
10.0
 16
0.0
 26
0.0
 36
1.0
 17
0.0
 27
0.0
 37
0.0
 40
846.8893844088409
 41
1.336927223719676
 42
50.0
 43
0.0
 44
0.0
 50
0.0
 51
0.0
 71
     0
 72
  1500
 73
     1
 74
     0
 75
     0
 76
     0
 77
     0
 78
     0
281
     0
 65
     1
110
0.0
120
0.0
130
0.0
111
1.0
121
0.0
131
0.0
112
0.0
122
1.0
132
0.0
 79
     0
146
0.0
  0
ENDTAB
  0
TABLE
  2
LTYPE
  5
5
330
0
100
AcDbSymbolTable
 70
     3
  0
LTYPE
  5
13
330
5
100
AcDbSymbolTableRecord
100
AcDbLinetypeTableRecord
  2
ByBlock
 70
     0
  3

 72
    65
 73
     0
 40
0.0
  0
LTYPE
  5
14
330
5
100
AcDbSymbolTableRecord
100
AcDbLinetypeTableRecord
  2
ByLayer
 70
     0
  3

 72
    65
 73
     0
 40
0.0
  0
LTYPE
  5
15
330
5
100
AcDbSymbolTableRecord
100
AcDbLinetypeTableRecord
  2
Continuous
 70
     0
  3
Solid line
 72
    65
 73
     0
 40
0.0
  0
LTYPE
  5
25
330
5
100
AcDbSymbolTableRecord
100
AcDbLinetypeTableRecord
  2
STRICHPUNKT
 70
     0
  3
__ . __ . __ . __ . __ . __ . __ . __ . __ . __
 72
    65
 73
     4
 40
1.0
 49
0.5
 74
     0
 49
-0.25
 74
     0
 49
0.0
 74
     0
 49
-0.25
 74
     0
  0
LTYPE
  5
34
330
5
100
AcDbSymbolTableRecord
100
AcDbLinetypeTableRecord
  2
AUSGEZOGEN
 70
     0
  3
Ausgezogene Linie
 72
    65
 73
     0
 40
0.0
  0
ENDTAB
  0
TABLE
  2
LAYER
  5
2
330
0
100
AcDbSymbolTable
 70
     9
  0
LAYER
  5
10
330
2
100
AcDbSymbolTableRecord
100
AcDbLayerTableRecord
  2
0
 70
     0
 62
     7
  6
Continuous
370
    -3
390
F
  0
LAYER
  5
2B
330
2
100
AcDbSymbolTableRecord
100
AcDbLayerTableRecord
  2
VOLL
 70
     0
 62
     1
  6
Continuous
370
    -3
390
F
  0
LAYER
  5
2C
330
2
100
AcDbSymbolTableRecord
100
AcDbLayerTableRecord
  2
HILF
 70
     0
 62
     2
  6
Continuous
370
    -3
390
F
  0
LAYER
  5
2D
330
2
100
AcDbSymbolTableRecord
100
AcDbLayerTableRecord
  2
MITTEL
 70
     0
 62
     2
  6
STRICHPUNKT
370
    -3
390
F
  0
LAYER
  5
2F
330
2
100
AcDbSymbolTableRecord
100
AcDbLayerTableRecord
  2
BEM
 70
     0
 62
     7
  6
Continuous
370
    -3
390
F
  0
LAYER
  5
30
330
2
100
AcDbSymbolTableRecord
100
AcDbLayerTableRecord
  2
STEMPEL
 70
     0
 62
     3
  6
Continuous
370
    -3
390
F
  0
LAYER
  5
33
330
2
100
AcDbSymbolTableRecord
100
AcDbLayerTableRecord
  2
TEXT
 70
     0
 62
     7
  6
Continuous
370
    -3
390
F
  0
LAYER
  5
1DD
330
2
100
AcDbSymbolTableRecord
100
AcDbLayerTableRecord
  2
DEFPOINTS
 70
     0
 62
     7
  6
AUSGEZOGEN
290
     0
370
    -3
390
F
  0
LAYER
  5
1DE
330
2
100
AcDbSymbolTableRecord
100
AcDbLayerTableRecord
  2
SCHRAFF
 70
     0
 62
     7
  6
AUSGEZOGEN
370
    -3
390
F
  0
ENDTAB
  0
TABLE
  2
STYLE
  5
3
330
0
100
AcDbSymbolTable
 70
     2
  0
STYLE
  5
11
330
3
100
AcDbSymbolTableRecord
100
AcDbTextStyleTableRecord
  2
STANDARD
 70
     0
 40
0.0
 41
0.8
 50
0.0
 71
     0
 42
3.5
  3
simplex.shx
  4

  0
STYLE
  5
24
330
3
100
AcDbSymbolTableRecord
100
AcDbTextStyleTableRecord
  2
GREEKS
 70
     0
 40
0.0
 41
0.8
 50
0.0
 71
     0
 42
2.5
  3
SIMPLEX.shx
  4

  0
ENDTAB
  0
TABLE
  2
VIEW
  5
6
330
0
100
AcDbSymbolTable
 70
     0
  0
ENDTAB
  0
TABLE
  2
UCS
  5
7
330
0
100
AcDbSymbolTable
 70
     0
  0
ENDTAB
  0
TABLE
  2
APPID
  5
9
330
0
100
AcDbSymbolTable
 70
     1
  0
APPID
  5
12
330
9
100
AcDbSymbolTableRecord
100
AcDbRegAppTableRecord
  2
ACAD
 70
     0
  0
ENDTAB
  0
TABLE
  2
DIMSTYLE
  5
A
330
0
100
AcDbSymbolTable
 70
     1
100
AcDbDimStyleTable
 71
     1
340
A2
  0
DIMSTYLE
105
A2
102
{ACAD_REACTORS
330
D43
330
D4C
330
EFF
330
FB8
330
FB9
330
1024
330
10CF
330
10D6
330
10E0
102
}
330
A
100
AcDbSymbolTableRecord
100
AcDbDimStyleTableRecord
  2
Standard
 70
     0
340
11
  0
ENDTAB
  0
TABLE
  2
BLOCK_RECORD
  5
1
330
0
100
AcDbSymbolTable
 70
    11
  0
BLOCK_RECORD
  5
1E
102
{ACAD_XDICTIONARY
360
DB
102
}
330
1
100
AcDbSymbolTableRecord
100
AcDbBlockTableRecord
  2
*Model_Space
340
21
  0
BLOCK_RECORD
  5
1A
102
{ACAD_XDICTIONARY
360
DD
102
}
330
1
100
AcDbSymbolTableRecord
100
AcDbBlockTableRecord
  2
*Paper_Space
340
1D
  0
BLOCK_RECORD
  5
22
330
1
100
AcDbSymbolTableRecord
100
AcDbBlockTableRecord
  2
LOGO
340
0
102
{BLKREFS
331
56
102
}
  0
BLOCK_RECORD
  5
23
330
1
100
AcDbSymbolTableRecord
100
AcDbBlockTableRecord
  2
LORO
340
0
102
{BLKREFS
331
9B
102
}
  0
BLOCK_RECORD
  5
E7F
330
1
100
AcDbSymbolTableRecord
100
AcDbBlockTableRecord
  2
*D2
340
0
  0
BLOCK_RECORD
  5
E99
330
1
100
AcDbSymbolTableRecord
100
AcDbBlockTableRecord
  2
*D3
340
0
  0
BLOCK_RECORD
  5
F00
330
1
100
AcDbSymbolTableRecord
100
AcDbBlockTableRecord
  2
*D4
340
0
  0
BLOCK_RECORD
  5
FBA
330
1
100
AcDbSymbolTableRecord
100
AcDbBlockTableRecord
  2
*D5
340
0
  0
BLOCK_RECORD
  5
FC6
330
1
100
AcDbSymbolTableRecord
100
AcDbBlockTableRecord
  2
*D6
340
0
  0
BLOCK_RECORD
  5
1025
330
1
100
AcDbSymbolTableRecord
100
AcDbBlockTableRecord
  2
*D7
340
0
  0
BLOCK_RECORD
  5
10EC
330
1
100
AcDbSymbolTableRecord
100
AcDbBlockTableRecord
  2
*D8
340
0
  0
BLOCK_RECORD
  5
10F8
330
1
100
AcDbSymbolTableRecord
100
AcDbBlockTableRecord
  2
*D9
340
0
  0
BLOCK_RECORD
  5
1104
330
1
100
AcDbSymbolTableRecord
100
AcDbBlockTableRecord
  2
*D10
340
0
  0
ENDTAB
  0
ENDSEC
  0
SECTION
  2
BLOCKS
  0
BLOCK
  5
37
330
1E
100
AcDbEntity
  8
0
100
AcDbBlockBegin
  2
*Model_Space
 70
     0
 10
0.0
 20
0.0
 30
0.0
  3
*Model_Space
  1

  0
ENDBLK
  5
38
330
1E
100
AcDbEntity
  8
0
100
AcDbBlockEnd
  0
BLOCK
  5
35
330
1A
100
AcDbEntity
 67
     1
  8
0
100
AcDbBlockBegin
  2
*Paper_Space
 70
     0
 10
0.0
 20
0.0
 30
0.0
  3
*Paper_Space
  1

  0
ENDBLK
  5
36
330
1A
100
AcDbEntity
 67
     1
  8
0
100
AcDbBlockEnd
  0
BLOCK
  5
39
330
22
100
AcDbEntity
  8
0
100
AcDbBlockBegin
  2
LOGO
 70
     0
 10
0.0
 20
0.0
 30
0.0
  3
LOGO
  1

  0
ARC
  5
3A
330
22
100
AcDbEntity
  8
0
100
AcDbCircle
 10
11.59973089678112
 20
-9.271599258481501
 30
0.0
 40
4.5
100
AcDbArc
 50
270.0
 51
231.0575587310159
  0
LINE
  5
3B
330
22
100
AcDbEntity
  8
0
100
AcDbLine
 10
3.599730896781125
 20
-4.771599258481529
 30
0.0
 11
3.599730896781153
 21
-11.77159925848133
 31
0.0
  0
LINE
  5
3C
330
22
100
AcDbEntity
  8
0
100
AcDbLine
 10
2.599730896781125
 20
-4.771599258481529
 30
0.0
 11
2.599730896781153
 21
-11.77159925848133
 31
0.0
  0
CIRCLE
  5
3D
330
22
100
AcDbEntity
  8
0
100
AcDbCircle
 10
11.59973089678112
 20
-9.271599258481501
 30
0.0
 40
3.5
  0
ARC
  5
3E
330
22
100
AcDbEntity
  8
0
100
AcDbCircle
 10
31.59973089678115
 20
-9.271599258481472
 30
0.0
 40
4.5
100
AcDbArc
 50
270.0
 51
231.0575587310182
  0
LINE
  5
3F
330
22
100
AcDbEntity
  8
0
100
AcDbLine
 10
17.59973089678112
 20
-4.771599258481472
 30
0.0
 11
17.59973089678115
 21
-13.77159925848147
 31
0.0
  0
ARC
  5
40
330
22
100
AcDbEntity
  8
0
100
AcDbCircle
 10
22.59973089678116
 20
-7.271599258481472
 30
0.0
 40
2.5
100
AcDbArc
 50
293.1161887722295
 51
90.0
  0
CIRCLE
  5
41
330
22
100
AcDbEntity
  8
0
100
AcDbCircle
 10
31.59973089678115
 20
-9.271599258481472
 30
0.0
 40
3.5
  0
ARC
  5
42
330
22
100
AcDbEntity
  8
0
100
AcDbCircle
 10
4.599730896781153
 20
-11.77159925848133
 30
0.0
 40
1.0
100
AcDbArc
 50
180.0
 51
270.0
  0
ARC
  5
43
330
22
100
AcDbEntity
  8
0
100
AcDbCircle
 10
4.599730896781153
 20
-11.77159925848133
 30
0.0
 40
2.0
100
AcDbArc
 50
179.9999999999992
 51
270.0
  0
LINE
  5
44
330
22
100
AcDbEntity
  8
0
100
AcDbLine
 10
11.59973089678115
 20
-13.77159925848144
 30
0.0
 11
4.599730896781153
 21
-13.77159925848147
 31
0.0
  0
LINE
  5
45
330
22
100
AcDbEntity
  8
0
100
AcDbLine
 10
8.771303772034769
 20
-12.77159925848136
 30
0.0
 11
4.599730896781153
 21
-12.77159925848133
 31
0.0
  0
LINE
  5
46
330
22
100
AcDbEntity
  8
0
100
AcDbLine
 10
31.59973089678115
 20
-13.77159925848147
 30
0.0
 11
23.6715276665056
 21
-13.77159925848144
 31
0.0
  0
LINE
  5
47
330
22
100
AcDbEntity
  8
0
100
AcDbLine
 10
23.56565672307022
 20
-9.51278021337896
 30
0.0
 11
24.4388546544846
 21
-12.77159925848144
 31
0.0
  0
LINE
  5
48
330
22
100
AcDbEntity
  8
0
100
AcDbLine
 10
22.59973089678116
 20
-9.771599258481472
 30
0.0
 11
18.59973089678112
 21
-9.771599258481472
 31
0.0
  0
LINE
  5
49
330
22
100
AcDbEntity
  8
0
100
AcDbLine
 10
18.59973089678115
 20
-13.77159925848144
 30
0.0
 11
17.59973089678115
 21
-13.77159925848144
 31
0.0
  0
LINE
  5
4A
330
22
100
AcDbEntity
  8
0
100
AcDbLine
 10
18.59973089678115
 20
-9.771599258481472
 30
0.0
 11
18.59973089678115
 21
-13.77159925848144
 31
0.0
  0
LINE
  5
4B
330
22
100
AcDbEntity
  8
0
100
AcDbLine
 10
22.59973089678116
 20
-9.771599258481472
 30
0.0
 11
23.67152766650562
 21
-13.77159925848147
 31
0.0
  0
ARC
  5
4C
330
22
100
AcDbEntity
  8
0
100
AcDbCircle
 10
22.59973089678116
 20
-7.271599258481472
 30
0.0
 40
2.5
100
AcDbArc
 50
270.0
 51
270.0000000000007
  0
LINE
  5
4D
330
22
100
AcDbEntity
  8
0
100
AcDbLine
 10
28.77130377203494
 20
-12.77159925848147
 30
0.0
 11
24.43885465448463
 21
-12.77159925848144
 31
0.0
  0
LINE
  5
4E
330
22
100
AcDbEntity
  8
0
100
AcDbLine
 10
3.599730896781125
 20
-4.771599258481472
 30
0.0
 11
2.599730896781125
 21
-4.771599258481472
 31
0.0
  0
LINE
  5
4F
330
22
100
AcDbEntity
  8
0
100
AcDbLine
 10
22.59973089678116
 20
-8.771599258481472
 30
0.0
 11
18.59973089678115
 21
-8.771599258481472
 31
0.0
  0
LINE
  5
50
330
22
100
AcDbEntity
  8
0
100
AcDbLine
 10
22.59973089678116
 20
-5.771599258481472
 30
0.0
 11
18.59973089678115
 21
-5.771599258481472
 31
0.0
  0
LINE
  5
51
330
22
100
AcDbEntity
  8
0
100
AcDbLine
 10
22.59973089678116
 20
-4.771599258481472
 30
0.0
 11
17.59973089678115
 21
-4.771599258481472
 31
0.0
  0
LINE
  5
52
330
22
100
AcDbEntity
  8
0
100
AcDbLine
 10
18.59973089678115
 20
-5.771599258481472
 30
0.0
 11
18.59973089678115
 21
-8.771599258481472
 31
0.0
  0
ARC
  5
53
330
22
100
AcDbEntity
  8
0
100
AcDbCircle
 10
22.59973089678116
 20
-7.271599258481472
 30
0.0
 40
1.5
100
AcDbArc
 50
270.0
 51
90.0
  0
ENDBLK
  5
54
330
22
100
AcDbEntity
  8
0
100
AcDbBlockEnd
  0
BLOCK
  5
55
330
23
100
AcDbEntity
  8
0
100
AcDbBlockBegin
  2
LORO
 70
     0
 10
0.0
 20
0.0
 30
0.0
  3
LORO
  1

  0
INSERT
  5
56
330
23
100
AcDbEntity
  8
STEMPEL
100
AcDbBlockReference
  2
LOGO
 10
-1.748032802467321
 20
3.771489518552062
 30
0.0
  0
ENDBLK
  5
57
330
23
100
AcDbEntity
  8
0
100
AcDbBlockEnd
  0
BLOCK
  5
E8A
330
E7F
100
AcDbEntity
  8
0
100
AcDbBlockBegin
  2
*D2
 70
     1
 10
0.0
 20
0.0
 30
0.0
  3
*D2
  1

  0
LINE
  5
F15
330
E7F
100
AcDbEntity
  8
BEM
 62
     0
370
    -2
100
AcDbLine
 10
138.3694886365716
 20
575.8412260529706
 30
0.0
 11
138.3694886365716
 21
604.8832228678691
 31
0.0
  0
LINE
  5
F16
330
E7F
100
AcDbEntity
  8
BEM
 62
     0
370
    -2
100
AcDbLine
 10
358.3694886365719
 20
575.8412260529706
 30
0.0
 11
358.3694886365719
 21
604.8832228678691
 31
0.0
  0
LINE
  5
F17
330
E7F
100
AcDbEntity
  8
BEM
 62
     0
370
    -2
100
AcDbLine
 10
145.3694886365716
 20
602.8832228678691
 30
0.0
 11
351.3694886365719
 21
602.8832228678691
 31
0.0
  0
SOLID
  5
F18
330
E7F
100
AcDbEntity
  8
BEM
 62
     0
100
AcDbTrace
 10
145.3694886365716
 20
604.0498895345357
 30
0.0
 11
145.3694886365716
 21
601.7165562012024
 31
0.0
 12
138.3694886365716
 22
602.8832228678691
 32
0.0
 13
138.3694886365716
 23
602.8832228678691
 33
0.0
  0
SOLID
  5
F19
330
E7F
100
AcDbEntity
  8
BEM
 62
     0
100
AcDbTrace
 10
351.3694886365719
 20
604.0498895345357
 30
0.0
 11
351.3694886365719
 21
601.7165562012024
 31
0.0
 12
358.3694886365719
 22
602.8832228678691
 32
0.0
 13
358.3694886365719
 23
602.8832228678691
 33
0.0
  0
MTEXT
  5
F1A
330
E7F
100
AcDbEntity
  8
BEM
 62
     1
100
AcDbMText
 10
248.3694886365718
 20
609.3832228678691
 30
0.0
 40
7.0
 41
0.0
 71
     5
 72
     1
  1
\A1;%%c220
 73
     1
 44
1.0
  0
POINT
  5
F1B
330
E7F
100
AcDbEntity
  8
DEFPOINTS
 62
     0
100
AcDbPoint
 10
138.3694886365716
 20
573.8412260529705
 30
0.0
  0
POINT
  5
F1C
330
E7F
100
AcDbEntity
  8
DEFPOINTS
 62
     0
100
AcDbPoint
 10
358.3694886365719
 20
573.8412260529705
 30
0.0
  0
POINT
  5
F1D
330
E7F
100
AcDbEntity
  8
DEFPOINTS
 62
     0
100
AcDbPoint
 10
358.3694886365719
 20
602.8832228678691
 30
0.0
  0
ENDBLK
  5
E8B
330
E7F
100
AcDbEntity
  8
0
100
AcDbBlockEnd
  0
BLOCK
  5
EA4
330
E99
100
AcDbEntity
  8
0
100
AcDbBlockBegin
  2
*D3
 70
     1
 10
0.0
 20
0.0
 30
0.0
  3
*D3
  1

  0
LINE
  5
1012
330
E99
100
AcDbEntity
  8
BEM
 62
     0
370
    -2
100
AcDbLine
 10
104.3694886365716
 20
483.841284020286
 30
0.0
 11
67.13370919226427
 21
483.841284020286
 31
0.0
  0
LINE
  5
1013
330
E99
100
AcDbEntity
  8
BEM
 62
     0
370
    -2
100
AcDbLine
 10
166.3694886365716
 20
593.8412840202852
 30
0.0
 11
67.13370919226429
 21
593.8412840202852
 31
0.0
  0
LINE
  5
1014
330
E99
100
AcDbEntity
  8
BEM
 62
     0
370
    -2
100
AcDbLine
 10
69.13370919226427
 20
490.8412840202861
 30
0.0
 11
69.13370919226429
 21
586.8412840202852
 31
0.0
  0
SOLID
  5
1015
330
E99
100
AcDbEntity
  8
BEM
 62
     0
100
AcDbTrace
 10
67.9670425255976
 20
490.8412840202861
 30
0.0
 11
70.30037585893095
 21
490.8412840202861
 31
0.0
 12
69.13370919226427
 22
483.841284020286
 32
0.0
 13
69.13370919226427
 23
483.841284020286
 33
0.0
  0
SOLID
  5
1016
330
E99
100
AcDbEntity
  8
BEM
 62
     0
100
AcDbTrace
 10
67.96704252559762
 20
586.8412840202852
 30
0.0
 11
70.30037585893096
 21
586.8412840202852
 31
0.0
 12
69.13370919226429
 22
593.8412840202852
 32
0.0
 13
69.13370919226429
 23
593.8412840202852
 33
0.0
  0
MTEXT
  5
1017
330
E99
100
AcDbEntity
  8
BEM
 62
     1
100
AcDbMText
 10
62.6337091922642
 20
538.8412840202857
 30
0.0
 40
7.0
 41
0.0
 71
     5
 72
     1
  1
\A1;110
 11
0.0000000000000001
 21
1.0
 31
0.0
 73
     1
 44
1.0
  0
POINT
  5
1018
330
E99
100
AcDbEntity
  8
DEFPOINTS
 62
     0
100
AcDbPoint
 10
106.3694886365716
 20
483.841284020286
 30
0.0
  0
POINT
  5
1019
330
E99
100
AcDbEntity
  8
DEFPOINTS
 62
     0
100
AcDbPoint
 10
168.3694886365716
 20
593.8412840202852
 30
0.0
  0
POINT
  5
101A
330
E99
100
AcDbEntity
  8
DEFPOINTS
 62
     0
100
AcDbPoint
 10
69.13370919226429
 20
593.8412840202852
 30
0.0
  0
ENDBLK
  5
EA5
330
E99
100
AcDbEntity
  8
0
100
AcDbBlockEnd
  0
BLOCK
  5
F0A
330
F00
100
AcDbEntity
  8
0
100
AcDbBlockBegin
  2
*D4
 70
     1
 10
0.0
 20
0.0
 30
0.0
  3
*D4
  1

  0
LINE
  5
1000
330
F00
100
AcDbEntity
  8
BEM
 62
     0
370
    -2
100
AcDbLine
 10
98.37659541775819
 20
474.9626043638469
 30
0.0
 11
98.37659541775821
 21
618.6566914796688
 31
0.0
  0
LINE
  5
1001
330
F00
100
AcDbEntity
  8
BEM
 62
     0
370
    -2
100
AcDbLine
 10
398.375460061686
 20
474.949526157546
 30
0.0
 11
398.375460061686
 21
618.6566914796688
 31
0.0
  0
LINE
  5
1002
330
F00
100
AcDbEntity
  8
BEM
 62
     0
370
    -2
100
AcDbLine
 10
105.3765954177582
 20
616.6566914796687
 30
0.0
 11
391.375460061686
 21
616.6566914796687
 31
0.0
  0
SOLID
  5
1003
330
F00
100
AcDbEntity
  8
BEM
 62
     0
100
AcDbTrace
 10
105.3765954177582
 20
617.8233581463354
 30
0.0
 11
105.3765954177582
 21
615.4900248130021
 31
0.0
 12
98.37659541775821
 22
616.6566914796687
 32
0.0
 13
98.37659541775821
 23
616.6566914796687
 33
0.0
  0
SOLID
  5
1004
330
F00
100
AcDbEntity
  8
BEM
 62
     0
100
AcDbTrace
 10
391.375460061686
 20
617.8233581463354
 30
0.0
 11
391.375460061686
 21
615.4900248130021
 31
0.0
 12
398.375460061686
 22
616.6566914796687
 32
0.0
 13
398.375460061686
 23
616.6566914796687
 33
0.0
  0
MTEXT
  5
1005
330
F00
100
AcDbEntity
  8
BEM
 62
     1
100
AcDbMText
 10
248.3760277397221
 20
623.1566914796688
 30
0.0
 40
7.0
 41
0.0
 71
     5
 72
     1
  1
\A1;%%c300
 73
     1
 44
1.0
  0
POINT
  5
1006
330
F00
100
AcDbEntity
  8
DEFPOINTS
 62
     0
100
AcDbPoint
 10
98.37659541775819
 20
472.9626043638469
 30
0.0
  0
POINT
  5
1007
330
F00
100
AcDbEntity
  8
DEFPOINTS
 62
     0
100
AcDbPoint
 10
398.375460061686
 20
472.9495261575459
 30
0.0
  0
POINT
  5
1008
330
F00
100
AcDbEntity
  8
DEFPOINTS
 62
     0
100
AcDbPoint
 10
398.375460061686
 20
616.6566914796687
 30
0.0
  0
ENDBLK
  5
F0B
330
F00
100
AcDbEntity
  8
0
100
AcDbBlockEnd
  0
BLOCK
  5
FC4
330
FBA
100
AcDbEntity
  8
0
100
AcDbBlockBegin
  2
*D5
 70
     1
 10
0.0
 20
0.0
 30
0.0
  3
*D5
  1

  0
LINE
  5
FD2
330
FBA
100
AcDbEntity
  8
BEM
 62
     0
370
    -2
100
AcDbLine
 10
197.5694886365717
 20
213.8412840202871
 30
0.0
 11
197.5694886365717
 21
185.8640845175752
 31
0.0
  0
LINE
  5
FD3
330
FBA
100
AcDbEntity
  8
BEM
 62
     0
370
    -2
100
AcDbLine
 10
299.1694886365717
 20
213.8412840202867
 30
0.0
 11
299.1694886365717
 21
185.8640845175752
 31
0.0
  0
LINE
  5
FD4
330
FBA
100
AcDbEntity
  8
BEM
 62
     0
370
    -2
100
AcDbLine
 10
204.5694886365717
 20
187.8640845175752
 30
0.0
 11
292.1694886365717
 21
187.8640845175752
 31
0.0
  0
SOLID
  5
FD5
330
FBA
100
AcDbEntity
  8
BEM
 62
     0
100
AcDbTrace
 10
204.5694886365717
 20
189.0307511842418
 30
0.0
 11
204.5694886365717
 21
186.6974178509085
 31
0.0
 12
197.5694886365717
 22
187.8640845175752
 32
0.0
 13
197.5694886365717
 23
187.8640845175752
 33
0.0
  0
SOLID
  5
FD6
330
FBA
100
AcDbEntity
  8
BEM
 62
     0
100
AcDbTrace
 10
292.1694886365717
 20
189.0307511842418
 30
0.0
 11
292.1694886365717
 21
186.6974178509085
 31
0.0
 12
299.1694886365717
 22
187.8640845175752
 32
0.0
 13
299.1694886365717
 23
187.8640845175752
 33
0.0
  0
MTEXT
  5
FD7
330
FBA
100
AcDbEntity
  8
BEM
 62
     1
100
AcDbMText
 10
248.3694886365717
 20
194.3640845175752
 30
0.0
 40
7.0
 41
0.0
 71
     5
 72
     1
  1
\A1;%%c101.6
 73
     1
 44
1.0
  0
POINT
  5
FD8
330
FBA
100
AcDbEntity
  8
DEFPOINTS
 62
     0
100
AcDbPoint
 10
197.5694886365717
 20
215.8412840202871
 30
0.0
  0
POINT
  5
FD9
330
FBA
100
AcDbEntity
  8
DEFPOINTS
 62
     0
100
AcDbPoint
 10
299.1694886365717
 20
215.8412840202867
 30
0.0
  0
POINT
  5
FDA
330
FBA
100
AcDbEntity
  8
DEFPOINTS
 62
     0
100
AcDbPoint
 10
299.1694886365717
 20
187.8640845175752
 30
0.0
  0
ENDBLK
  5
FC5
330
FBA
100
AcDbEntity
  8
0
100
AcDbBlockEnd
  0
BLOCK
  5
FD0
330
FC6
100
AcDbEntity
  8
0
100
AcDbBlockBegin
  2
*D6
 70
     1
 10
0.0
 20
0.0
 30
0.0
  3
*D6
  1

  0
LINE
  5
1009
330
FC6
100
AcDbEntity
  8
BEM
 62
     0
370
    -2
100
AcDbLine
 10
96.36948863657165
 20
477.8412840202869
 30
0.0
 11
67.13370919226434
 21
477.8412840202869
 31
0.0
  0
LINE
  5
100A
330
FC6
100
AcDbEntity
  8
BEM
 62
     0
370
    -2
100
AcDbLine
 10
196.2693979447791
 20
207.8412840202869
 30
0.0
 11
67.13370919226427
 21
207.841284020287
 31
0.0
  0
LINE
  5
100B
330
FC6
100
AcDbEntity
  8
BEM
 62
     0
370
    -2
100
AcDbLine
 10
69.13370919226434
 20
470.8412840202869
 30
0.0
 11
69.13370919226429
 21
214.8412840202869
 31
0.0
  0
SOLID
  5
100C
330
FC6
100
AcDbEntity
  8
BEM
 62
     0
100
AcDbTrace
 10
67.96704252559767
 20
470.8412840202869
 30
0.0
 11
70.30037585893102
 21
470.8412840202869
 31
0.0
 12
69.13370919226434
 22
477.8412840202869
 32
0.0
 13
69.13370919226434
 23
477.8412840202869
 33
0.0
  0
SOLID
  5
100D
330
FC6
100
AcDbEntity
  8
BEM
 62
     0
100
AcDbTrace
 10
67.96704252559762
 20
214.8412840202869
 30
0.0
 11
70.30037585893096
 21
214.8412840202869
 31
0.0
 12
69.13370919226429
 22
207.841284020287
 32
0.0
 13
69.13370919226429
 23
207.841284020287
 33
0.0
  0
MTEXT
  5
100E
330
FC6
100
AcDbEntity
  8
BEM
 62
     1
100
AcDbMText
 10
62.63370919226427
 20
342.8412840202869
 30
0.0
 40
7.0
 41
0.0
 71
     5
 72
     1
  1
\A1;270
 11
0.0000000000000001
 21
1.0
 31
0.0
 73
     1
 44
1.0
  0
POINT
  5
100F
330
FC6
100
AcDbEntity
  8
DEFPOINTS
 62
     0
100
AcDbPoint
 10
98.36948863657164
 20
477.8412840202869
 30
0.0
  0
POINT
  5
1010
330
FC6
100
AcDbEntity
  8
DEFPOINTS
 62
     0
100
AcDbPoint
 10
198.2693979447791
 20
207.8412840202869
 30
0.0
  0
POINT
  5
1011
330
FC6
100
AcDbEntity
  8
DEFPOINTS
 62
     0
100
AcDbPoint
 10
69.13370919226429
 20
207.841284020287
 30
0.0
  0
ENDBLK
  5
FD1
330
FC6
100
AcDbEntity
  8
0
100
AcDbBlockEnd
  0
BLOCK
  5
102F
330
1025
100
AcDbEntity
  8
0
100
AcDbBlockBegin
  2
*D7
 70
     1
 10
0.0
 20
0.0
 30
0.0
  3
*D7
  1

  0
LINE
  5
1031
330
1025
100
AcDbEntity
  8
BEM
 62
     0
370
    -2
100
AcDbLine
 10
164.1301060917639
 20
518.8412840202858
 30
0.0
 11
83.14023894295132
 21
518.8412840202858
 31
0.0
  0
LINE
  5
1032
330
1025
100
AcDbEntity
  8
BEM
 62
     0
370
    -2
100
AcDbLine
 10
104.3694886365716
 20
483.841284020286
 30
0.0
 11
83.14023894295132
 21
483.841284020286
 31
0.0
  0
LINE
  5
1033
330
1025
100
AcDbEntity
  8
BEM
 62
     0
370
    -2
100
AcDbLine
 10
85.14023894295133
 20
511.8412840202859
 30
0.0
 11
85.14023894295133
 21
490.8412840202861
 31
0.0
  0
SOLID
  5
1034
330
1025
100
AcDbEntity
  8
BEM
 62
     0
100
AcDbTrace
 10
83.97357227628466
 20
511.8412840202859
 30
0.0
 11
86.306905609618
 21
511.8412840202859
 31
0.0
 12
85.14023894295133
 22
518.8412840202858
 32
0.0
 13
85.14023894295133
 23
518.8412840202858
 33
0.0
  0
SOLID
  5
1035
330
1025
100
AcDbEntity
  8
BEM
 62
     0
100
AcDbTrace
 10
83.97357227628466
 20
490.8412840202861
 30
0.0
 11
86.306905609618
 21
490.8412840202861
 31
0.0
 12
85.14023894295133
 22
483.841284020286
 32
0.0
 13
85.14023894295133
 23
483.841284020286
 33
0.0
  0
MTEXT
  5
1036
330
1025
100
AcDbEntity
  8
BEM
 62
     1
100
AcDbMText
 10
78.64023894295124
 20
501.3412840202859
 30
0.0
 40
7.0
 41
0.0
 71
     5
 72
     1
  1
\A1;35
 11
0.0000000000000001
 21
1.0
 31
0.0
 73
     1
 44
1.0
  0
POINT
  5
1037
330
1025
100
AcDbEntity
  8
DEFPOINTS
 62
     0
100
AcDbPoint
 10
166.1301060917639
 20
518.8412840202858
 30
0.0
  0
POINT
  5
1038
330
1025
100
AcDbEntity
  8
DEFPOINTS
 62
     0
100
AcDbPoint
 10
106.3694886365716
 20
483.841284020286
 30
0.0
  0
POINT
  5
1039
330
1025
100
AcDbEntity
  8
DEFPOINTS
 62
     0
100
AcDbPoint
 10
85.14023894295133
 20
483.841284020286
 30
0.0
  0
ENDBLK
  5
1030
330
1025
100
AcDbEntity
  8
0
100
AcDbBlockEnd
  0
BLOCK
  5
10F6
330
10EC
100
AcDbEntity
  8
0
100
AcDbBlockBegin
  2
*D8
 70
     1
 10
0.0
 20
0.0
 30
0.0
  3
*D8
  1

  0
LINE
  5
1110
330
10EC
100
AcDbEntity
  8
BEM
 62
     0
370
    -2
100
AcDbLine
 10
168.3694886365721
 20
312.8412840202872
 30
0.0
 11
168.3694886365721
 21
291.9252330578361
 31
0.0
  0
LINE
  5
1111
330
10EC
100
AcDbEntity
  8
BEM
 62
     0
370
    -2
100
AcDbLine
 10
328.3694886365721
 20
312.8412840202866
 30
0.0
 11
328.3694886365721
 21
291.9252330578361
 31
0.0
  0
LINE
  5
1112
330
10EC
100
AcDbEntity
  8
BEM
 62
     0
370
    -2
100
AcDbLine
 10
175.3694886365721
 20
293.9252330578361
 30
0.0
 11
321.3694886365721
 21
293.9252330578361
 31
0.0
  0
SOLID
  5
1113
330
10EC
100
AcDbEntity
  8
BEM
 62
     0
100
AcDbTrace
 10
175.3694886365721
 20
295.0918997245028
 30
0.0
 11
175.3694886365721
 21
292.7585663911695
 31
0.0
 12
168.3694886365721
 22
293.9252330578361
 32
0.0
 13
168.3694886365721
 23
293.9252330578361
 33
0.0
  0
SOLID
  5
1114
330
10EC
100
AcDbEntity
  8
BEM
 62
     0
100
AcDbTrace
 10
321.3694886365721
 20
295.0918997245028
 30
0.0
 11
321.3694886365721
 21
292.7585663911695
 31
0.0
 12
328.3694886365721
 22
293.9252330578361
 32
0.0
 13
328.3694886365721
 23
293.9252330578361
 33
0.0
  0
MTEXT
  5
1115
330
10EC
100
AcDbEntity
  8
BEM
 62
     1
100
AcDbMText
 10
248.3694886365721
 20
300.4252330578361
 30
0.0
 40
7.0
 41
0.0
 71
     5
 72
     1
  1
\A1;%%c160
 73
     1
 44
1.0
  0
POINT
  5
1116
330
10EC
100
AcDbEntity
  8
DEFPOINTS
 62
     0
100
AcDbPoint
 10
168.3694886365721
 20
314.8412840202872
 30
0.0
  0
POINT
  5
1117
330
10EC
100
AcDbEntity
  8
DEFPOINTS
 62
     0
100
AcDbPoint
 10
328.3694886365721
 20
314.8412840202866
 30
0.0
  0
POINT
  5
1118
330
10EC
100
AcDbEntity
  8
DEFPOINTS
 62
     0
100
AcDbPoint
 10
328.3694886365721
 20
293.9252330578361
 30
0.0
  0
ENDBLK
  5
10F7
330
10EC
100
AcDbEntity
  8
0
100
AcDbBlockEnd
  0
BLOCK
  5
1102
330
10F8
100
AcDbEntity
  8
0
100
AcDbBlockBegin
  2
*D9
 70
     1
 10
0.0
 20
0.0
 30
0.0
  3
*D9
  1

  0
LINE
  5
1119
330
10F8
100
AcDbEntity
  8
BEM
 62
     0
370
    -2
100
AcDbLine
 10
102.4979157613183
 20
474.841284020287
 30
0.0
 11
83.33191062326358
 21
474.841284020287
 31
0.0
  0
LINE
  5
111A
330
10F8
100
AcDbEntity
  8
BEM
 62
     0
370
    -2
100
AcDbLine
 10
166.3694886365721
 20
314.8412840202872
 30
0.0
 11
83.33191062326354
 21
314.8412840202873
 31
0.0
  0
LINE
  5
111B
330
10F8
100
AcDbEntity
  8
BEM
 62
     0
370
    -2
100
AcDbLine
 10
85.33191062326357
 20
467.8412840202871
 30
0.0
 11
85.33191062326356
 21
321.8412840202873
 31
0.0
  0
SOLID
  5
111C
330
10F8
100
AcDbEntity
  8
BEM
 62
     0
100
AcDbTrace
 10
84.1652439565969
 20
467.8412840202871
 30
0.0
 11
86.49857728993024
 21
467.8412840202871
 31
0.0
 12
85.33191062326357
 22
474.841284020287
 32
0.0
 13
85.33191062326357
 23
474.841284020287
 33
0.0
  0
SOLID
  5
111D
330
10F8
100
AcDbEntity
  8
BEM
 62
     0
100
AcDbTrace
 10
84.16524395659688
 20
321.8412840202873
 30
0.0
 11
86.49857728993023
 21
321.8412840202873
 31
0.0
 12
85.33191062326356
 22
314.8412840202873
 32
0.0
 13
85.33191062326356
 23
314.8412840202873
 33
0.0
  0
MTEXT
  5
111E
330
10F8
100
AcDbEntity
  8
BEM
 62
     1
100
AcDbMText
 10
78.83191062326351
 20
394.8412840202871
 30
0.0
 40
7.0
 41
0.0
 71
     5
 72
     1
  1
\A1;160
 11
0.0000000000000001
 21
1.0
 31
0.0
 73
     1
 44
1.0
  0
POINT
  5
111F
330
10F8
100
AcDbEntity
  8
DEFPOINTS
 62
     0
100
AcDbPoint
 10
104.4979157613183
 20
474.841284020287
 30
0.0
  0
POINT
  5
1120
330
10F8
100
AcDbEntity
  8
DEFPOINTS
 62
     0
100
AcDbPoint
 10
168.3694886365721
 20
314.8412840202872
 30
0.0
  0
POINT
  5
1121
330
10F8
100
AcDbEntity
  8
DEFPOINTS
 62
     0
100
AcDbPoint
 10
85.33191062326356
 20
314.8412840202873
 30
0.0
  0
ENDBLK
  5
1103
330
10F8
100
AcDbEntity
  8
0
100
AcDbBlockEnd
  0
BLOCK
  5
110E
330
1104
100
AcDbEntity
  8
0
100
AcDbBlockBegin
  2
*D10
 70
     1
 10
0.0
 20
0.0
 30
0.0
  3
*D10
  1

  0
LINE
  5
1122
330
1104
100
AcDbEntity
  8
BEM
 62
     0
370
    -2
100
AcDbLine
 10
153.369488636572
 20
472.8412840202873
 30
0.0
 11
153.369488636572
 21
430.3688841755872
 31
0.0
  0
LINE
  5
1123
330
1104
100
AcDbEntity
  8
BEM
 62
     0
370
    -2
100
AcDbLine
 10
343.369488636572
 20
472.8412840202859
 30
0.0
 11
343.369488636572
 21
430.3688841755872
 31
0.0
  0
LINE
  5
1124
330
1104
100
AcDbEntity
  8
BEM
 62
     0
370
    -2
100
AcDbLine
 10
160.3694886365721
 20
432.3688841755872
 30
0.0
 11
336.369488636572
 21
432.3688841755872
 31
0.0
  0
SOLID
  5
1125
330
1104
100
AcDbEntity
  8
BEM
 62
     0
100
AcDbTrace
 10
160.3694886365721
 20
433.5355508422539
 30
0.0
 11
160.3694886365721
 21
431.2022175089206
 31
0.0
 12
153.369488636572
 22
432.3688841755872
 32
0.0
 13
153.369488636572
 23
432.3688841755872
 33
0.0
  0
SOLID
  5
1126
330
1104
100
AcDbEntity
  8
BEM
 62
     0
100
AcDbTrace
 10
336.369488636572
 20
433.5355508422539
 30
0.0
 11
336.369488636572
 21
431.2022175089206
 31
0.0
 12
343.369488636572
 22
432.3688841755872
 32
0.0
 13
343.369488636572
 23
432.3688841755872
 33
0.0
  0
MTEXT
  5
1127
330
1104
100
AcDbEntity
  8
BEM
 62
     1
100
AcDbMText
 10
248.3694886365721
 20
438.8688841755872
 30
0.0
 40
7.0
 41
0.0
 71
     5
 72
     1
  1
\A1;%%c190
 73
     1
 44
1.0
  0
POINT
  5
1128
330
1104
100
AcDbEntity
  8
DEFPOINTS
 62
     0
100
AcDbPoint
 10
153.369488636572
 20
474.8412840202872
 30
0.0
  0
POINT
  5
1129
330
1104
100
AcDbEntity
  8
DEFPOINTS
 62
     0
100
AcDbPoint
 10
343.369488636572
 20
474.8412840202859
 30
0.0
  0
POINT
  5
112A
330
1104
100
AcDbEntity
  8
DEFPOINTS
 62
     0
100
AcDbPoint
 10
343.369488636572
 20
432.3688841755872
 30
0.0
  0
ENDBLK
  5
110F
330
1104
100
AcDbEntity
  8
0
100
AcDbBlockEnd
  0
ENDSEC
  0
SECTION
  2
ENTITIES
  0
LINE
  5
58
330
1E
100
AcDbEntity
  8
STEMPEL
100
AcDbLine
 10
484.0
 20
830.0000000000002
 30
0.0
 11
484.0
 21
470.0000000000001
 31
0.0
  0
LINE
  5
59
330
1E
100
AcDbEntity
  8
STEMPEL
100
AcDbLine
 10
484.0
 20
470.0000000000001
 30
0.0
 11
584.0
 21
470.0000000000001
 31
0.0
  0
LINE
  5
5A
330
1E
100
AcDbEntity
  8
STEMPEL
100
AcDbLine
 10
484.0000000000001
 20
566.0000000000002
 30
0.0
 11
584.0000000000001
 21
566.0
 31
0.0
  0
LINE
  5
5B
330
1E
100
AcDbEntity
  8
STEMPEL
100
AcDbLine
 10
484.0
 20
650.0
 30
0.0
 11
584.0
 21
650.0
 31
0.0
  0
LINE
  5
5C
330
1E
100
AcDbEntity
  8
STEMPEL
100
AcDbLine
 10
484.0000000000003
 20
752.0000000000002
 30
0.0
 11
554.0
 21
752.0000000000002
 31
0.0
  0
LINE
  5
5D
330
1E
100
AcDbEntity
  8
STEMPEL
100
AcDbLine
 10
564.0
 20
566.0
 30
0.0
 11
564.0
 21
470.0000000000001
 31
0.0
  0
LINE
  5
5E
330
1E
100
AcDbEntity
  8
STEMPEL
100
AcDbLine
 10
554.0
 20
830.0000000000002
 30
0.0
 11
554.0
 21
566.0
 31
0.0
  0
LINE
  5
5F
330
1E
100
AcDbEntity
  8
STEMPEL
100
AcDbLine
 10
514.0
 20
830.0000000000002
 30
0.0
 11
514.0
 21
566.0000000000002
 31
0.0
  0
LINE
  5
60
330
1E
100
AcDbEntity
  8
VOLL
100
AcDbLine
 10
484.0
 20
484.0000000000001
 30
0.0
 11
584.0
 21
484.0
 31
0.0
  0
LINE
  5
61
330
1E
100
AcDbEntity
  8
VOLL
100
AcDbLine
 10
484.0000000000001
 20
524.0000000000001
 30
0.0
 11
584.0000000000001
 21
524.0
 31
0.0
  0
LINE
  5
62
330
1E
100
AcDbEntity
  8
VOLL
100
AcDbLine
 10
484.0000000000001
 20
544.0000000000002
 30
0.0
 11
584.0000000000001
 21
544.0
 31
0.0
  0
LINE
  5
63
330
1E
100
AcDbEntity
  8
VOLL
100
AcDbLine
 10
514.0
 20
584.0000000000002
 30
0.0
 11
554.0
 21
584.0000000000002
 31
0.0
  0
LINE
  5
64
330
1E
100
AcDbEntity
  8
VOLL
100
AcDbLine
 10
484.0000000000002
 20
610.0000000000002
 30
0.0
 11
554.0
 21
610.0
 31
0.0
  0
LINE
  5
65
330
1E
100
AcDbEntity
  8
HILF
100
AcDbLine
 10
494.0
 20
470.0000000000001
 30
0.0
 11
494.0
 21
566.0000000000002
 31
0.0
  0
LINE
  5
66
330
1E
100
AcDbEntity
  8
HILF
100
AcDbLine
 10
504.0
 20
470.0000000000001
 30
0.0
 11
504.0
 21
566.0000000000002
 31
0.0
  0
LINE
  5
67
330
1E
100
AcDbEntity
  8
HILF
100
AcDbLine
 10
514.0
 20
470.0000000000001
 30
0.0
 11
514.0
 21
566.0000000000002
 31
0.0
  0
LINE
  5
68
330
1E
100
AcDbEntity
  8
HILF
100
AcDbLine
 10
524.0
 20
470.0000000000001
 30
0.0
 11
524.0
 21
566.0000000000002
 31
0.0
  0
LINE
  5
69
330
1E
100
AcDbEntity
  8
HILF
100
AcDbLine
 10
534.0
 20
470.0000000000001
 30
0.0
 11
534.0
 21
566.0000000000002
 31
0.0
  0
LINE
  5
6A
330
1E
100
AcDbEntity
  8
HILF
100
AcDbLine
 10
544.0
 20
470.0000000000001
 30
0.0
 11
544.0
 21
566.0000000000002
 31
0.0
  0
LINE
  5
6B
330
1E
100
AcDbEntity
  8
HILF
100
AcDbLine
 10
554.0
 20
470.0000000000001
 30
0.0
 11
554.0
 21
566.0000000000002
 31
0.0
  0
LINE
  5
6C
330
1E
100
AcDbEntity
  8
HILF
100
AcDbLine
 10
524.0
 20
566.0000000000002
 30
0.0
 11
524.0
 21
650.0
 31
0.0
  0
LINE
  5
6D
330
1E
100
AcDbEntity
  8
HILF
100
AcDbLine
 10
534.0
 20
566.0000000000002
 30
0.0
 11
534.0
 21
650.0
 31
0.0
  0
LINE
  5
6E
330
1E
100
AcDbEntity
  8
HILF
100
AcDbLine
 10
544.0
 20
566.0000000000002
 30
0.0
 11
544.0
 21
650.0
 31
0.0
  0
LINE
  5
6F
330
1E
100
AcDbEntity
  8
HILF
100
AcDbLine
 10
509.9624175243587
 20
654.7736801096948
 30
0.0
 11
509.9624175243587
 21
746.6297842514811
 31
0.0
  0
LINE
  5
70
330
1E
100
AcDbEntity
  8
HILF
100
AcDbLine
 10
524.0
 20
654.7736801096948
 30
0.0
 11
524.0
 21
746.6297842514811
 31
0.0
  0
LINE
  5
71
330
1E
100
AcDbEntity
  8
HILF
100
AcDbLine
 10
534.0
 20
654.7736801096948
 30
0.0
 11
534.0
 21
746.6297842514811
 31
0.0
  0
LINE
  5
72
330
1E
100
AcDbEntity
  8
HILF
100
AcDbLine
 10
544.0
 20
654.7736801096948
 30
0.0
 11
544.0
 21
746.6297842514811
 31
0.0
  0
LINE
  5
73
330
1E
100
AcDbEntity
  8
VOLL
100
AcDbLine
 10
534.0
 20
752.0000000000002
 30
0.0
 11
534.0
 21
830.0000000000002
 31
0.0
  0
LINE
  5
74
330
1E
100
AcDbEntity
  8
HILF
100
AcDbLine
 10
510.2201636304418
 20
756.7238616296995
 30
0.0
 11
510.2201636304418
 21
824.858883932673
 31
0.0
  0
LINE
  5
75
330
1E
100
AcDbEntity
  8
HILF
100
AcDbLine
 10
579.1060174197169
 20
654.7736801096948
 30
0.0
 11
579.1060174197169
 21
824.858883932673
 31
0.0
  0
TEXT
  5
76
330
1E
100
AcDbEntity
  8
TEXT
100
AcDbText
 10
575.3261810501587
 20
492.3998239263297
 30
0.0
 40
4.0
  1
Änderung
 50
90.0
 41
0.8
  7
GREEKS
 72
     1
 11
575.3261810501587
 21
503.1426810691868
 31
0.0
100
AcDbText
  0
TEXT
  5
78
330
1E
100
AcDbEntity
  8
TEXT
100
AcDbText
 10
491.5379104912911
 20
573.5163572150376
 30
0.0
 40
5.0
  1
Maßstab
 50
90.0
 41
0.8
  7
GREEKS
100
AcDbText
  0
TEXT
  5
79
330
1E
100
AcDbEntity
  8
TEXT
100
AcDbText
 10
491.4510671988221
 20
654.8779403809009
 30
0.0
 40
5.0
  1
Benennung
 50
90.0
 41
0.8
  7
GREEKS
100
AcDbText
  0
TEXT
  5
7A
330
1E
100
AcDbEntity
  8
TEXT
100
AcDbText
 10
491.6867965462863
 20
756.1787549576343
 30
0.0
 40
5.0
  1
Zeichnungs Nr.
 50
90.0
 41
0.8
  7
GREEKS
100
AcDbText
  0
TEXT
  5
7B
330
1E
100
AcDbEntity
  8
TEXT
100
AcDbText
 10
563.1543942980694
 20
654.7422383911359
 30
0.0
 40
5.0
  1
Bauvorhaben
 50
90.0
 41
0.8
  7
GREEKS
100
AcDbText
  0
TEXT
  5
7C
330
1E
100
AcDbEntity
  8
TEXT
100
AcDbText
 10
520.8188176290003
 20
756.7238616296995
 30
0.0
 40
5.0
  1
Ersatz für:
 50
90.0
 41
0.8
  7
GREEKS
100
AcDbText
  0
TEXT
  5
7D
330
1E
100
AcDbEntity
  8
TEXT
100
AcDbText
 10
580.3453415397281
 20
478.2664110704577
 30
0.0
 40
4.0
  1
Index
 50
180.0
 41
0.8
  7
GREEKS
100
AcDbText
  0
TEXT
  5
7E
330
1E
100
AcDbEntity
  8
TEXT
100
AcDbText
 10
575.3284373066019
 20
529.8990113186978
 30
0.0
 40
4.0
  1
Tag
 50
90.0
 41
0.8
  7
GREEKS
 72
     1
 11
575.3284373066019
 21
533.6323446520311
 31
0.0
100
AcDbText
  0
TEXT
  5
7F
330
1E
100
AcDbEntity
  8
TEXT
100
AcDbText
 10
575.4067578303359
 20
548.9795678138292
 30
0.0
 40
4.0
  1
Name
 50
90.0
 41
0.8
  7
GREEKS
 72
     1
 11
575.4067578303359
 21
555.3033773376387
 31
0.0
100
AcDbText
  0
TEXT
  5
80
330
1E
100
AcDbEntity
  8
TEXT
100
AcDbText
 10
520.6811949877008
 20
592.3311673153651
 30
0.0
 40
4.0
  1
Tag
 50
90.0
 41
0.8
  7
GREEKS
100
AcDbText
  0
TEXT
  5
81
330
1E
100
AcDbEntity
  8
TEXT
100
AcDbText
 10
520.6903890808478
 20
622.4626584226296
 30
0.0
 40
4.0
  1
Name
 50
90.0
 41
0.8
  7
GREEKS
100
AcDbText
  0
TEXT
  5
82
330
1E
100
AcDbEntity
  8
TEXT
100
AcDbText
 10
530.3700963038204
 20
567.5836127167615
 30
0.0
 40
4.0
  1
Gez.
 50
90.0
 41
0.8
  7
GREEKS
100
AcDbText
  0
TEXT
  5
83
330
1E
100
AcDbEntity
  8
TEXT
100
AcDbText
 10
540.3107370857163
 20
567.5515086571672
 30
0.0
 40
4.0
  1
Gepr.
 50
90.0
 41
0.8
  7
GREEKS
100
AcDbText
  0
TEXT
  5
84
330
1E
100
AcDbEntity
  8
TEXT
100
AcDbText
 10
550.470536103502
 20
567.6006777387303
 30
0.0
 40
4.0
  1
Norm.
 50
90.0
 41
0.8
  7
GREEKS
100
AcDbText
  0
TEXT
  5
85
330
1E
100
AcDbEntity
  8
TEXT
100
AcDbText
 10
541.925838221214
 20
757.2400861497007
 30
0.0
 40
5.0
  1
ersetzt durch:
 50
90.0
 41
0.8
  7
GREEKS
100
AcDbText
  0
TEXT
  5
86
330
1E
100
AcDbEntity
  8
TEXT
100
AcDbText
 10
521.0331740347627
 20
568.8693027807324
 30
0.0
 40
4.0
  1
2010
 50
90.0
 41
0.8
  7
GREEKS
100
AcDbText
  0
LINE
  5
87
330
1E
100
AcDbEntity
  8
HILF
100
AcDbLine
 10
594.0
 20
-0.0000000000000568
 30
0.0
 11
594.0
 21
840.0
 31
0.0
  0
LINE
  5
88
330
1E
100
AcDbEntity
  8
HILF
100
AcDbLine
 10
594.0
 20
840.0
 30
0.0
 11
0.0
 21
840.0
 31
0.0
  0
LINE
  5
89
330
1E
100
AcDbEntity
  8
HILF
100
AcDbLine
 10
0.0
 20
840.0
 30
0.0
 11
0.0
 21
0.0
 31
0.0
  0
LINE
  5
8B
330
1E
100
AcDbEntity
  8
STEMPEL
100
AcDbLine
 10
10.0
 20
830.0
 30
0.0
 11
10.0
 21
39.99999999999995
 31
0.0
  0
LINE
  5
8D
330
1E
100
AcDbEntity
  8
STEMPEL
100
AcDbLine
 10
584.0
 20
39.99999999999995
 30
0.0
 11
584.0
 21
830.0
 31
0.0
  0
LINE
  5
8E
330
1E
100
AcDbEntity
  8
STEMPEL
100
AcDbLine
 10
584.0
 20
830.0
 30
0.0
 11
10.0
 21
830.0
 31
0.0
  0
TEXT
  5
8F
330
1E
100
AcDbEntity
  8
TEXT
 62
     1
100
AcDbText
 10
506.6265692434746
 20
655.0390572473189
 30
0.0
 40
7.0
  1
Drainlet Notablauf DN100
 50
90.0
 41
0.7
  7
GREEKS
100
AcDbText
  0
TEXT
  5
90
330
1E
100
AcDbEntity
  8
TEXT
 62
     1
100
AcDbText
 10
506.6265692434746
 20
767.7294755517469
 30
0.0
 40
7.0
  1
21712100W
 50
90.0
 41
0.8
  7
GREEKS
 72
     1
 11
506.6265692434746
 21
790.1294755517469
 31
0.0
100
AcDbText
  0
TEXT
  5
91
330
1E
100
AcDbEntity
  8
TEXT
100
AcDbText
 10
491.16010388621
 20
618.5090226415829
 30
0.0
 40
5.0
  1
Zul.Abw.
 50
90.0
 41
0.8
  7
GREEKS
100
AcDbText
  0
TEXT
  5
93
330
1E
100
AcDbEntity
  8
TEXT
100
AcDbText
 10
530.8491412387978
 20
590.7660475607107
 30
0.0
 40
4.0
  1
14.12.
 50
90.0
 41
0.8
  7
GREEKS
 72
     1
 11
530.8491412387978
 21
597.1660475607107
 31
0.0
100
AcDbText
  0
TEXT
  5
94
330
1E
100
AcDbEntity
  8
TEXT
100
AcDbText
 10
531.0570234483452
 20
624.0231753226609
 30
0.0
 40
4.0
  1
Koeh
 50
90.0
 41
0.8
  7
GREEKS
 72
     1
 11
531.0570234483452
 21
629.2803181798038
 31
0.0
100
AcDbText
  0
TEXT
  5
95
330
1E
100
AcDbEntity
  8
TEXT
100
AcDbText
 10
521.8997861689246
 20
654.3410940884991
 30
0.0
 40
5.0
  1
Kompletteinheit, einteilig
 50
90.0
 41
0.8
  7
GREEKS
100
AcDbText
  0
TEXT
  5
96
330
1E
100
AcDbEntity
  8
TEXT
100
AcDbText
 10
531.6544091479096
 20
654.3410940884991
 30
0.0
 40
5.0
  1

 50
90.0
 41
0.8
  7
GREEKS
100
AcDbText
  0
TEXT
  5
97
330
1E
100
AcDbEntity
  8
TEXT
100
AcDbText
 10
541.4090266215394
 20
654.3410940884991
 30
0.0
 40
5.0
  1
EDV-Art.Nr. 21712.100X
 50
90.0
 41
0.8
  7
GREEKS
100
AcDbText
  0
TEXT
  5
98
330
1E
100
AcDbEntity
  8
TEXT
100
AcDbText
 10
550.6887237520849
 20
654.1676050109347
 30
0.0
 40
4.0
  1
21712100W.DWG
 50
90.0
 41
0.8
  7
GREEKS
100
AcDbText
  0
TEXT
  5
99
330
1E
100
AcDbEntity
  8
TEXT
 62
     1
100
AcDbText
 10
506.5292291158502
 20
582.703491203422
 30
0.0
 40
7.0
  1
1:2
 50
90.0
 41
0.8
  7
GREEKS
100
AcDbText
  0
TEXT
  5
9A
330
1E
100
AcDbEntity
  8
TEXT
100
AcDbText
 10
479.8856414948956
 20
470.0441139350127
 30
0.0
 40
5.0
  1
Erstellt mit AUTOCAD 2004
 50
90.0
 41
0.8
  7
GREEKS
100
AcDbText
  0
INSERT
  5
9B
330
1E
100
AcDbEntity
  8
HILF
100
AcDbBlockReference
  2
LORO
 10
557.0194069970104
 20
573.0624985962354
 30
0.0
 41
2.0
 42
2.0
 43
2.0
 50
90.0
  0
LINE
  5
9C
330
1E
100
AcDbEntity
  8
BEM
100
AcDbLine
 10
594.0
 20
455.9999999999999
 30
0.0
 11
584.0
 21
455.9999999999999
 31
0.0
  0
LINE
  5
13E
330
1E
100
AcDbEntity
  8
HILF
100
AcDbLine
 10
594.0
 20
-0.0000000000000568
 30
0.0
 11
0.0
 21
0.0
 31
0.0
  0
LINE
  5
13F
330
1E
100
AcDbEntity
  8
STEMPEL
100
AcDbLine
 10
584.0
 20
39.99999999999995
 30
0.0
 11
10.0
 21
39.99999999999995
 31
0.0
  0
LINE
  5
14A
330
1E
100
AcDbEntity
  8
HILF
100
AcDbLine
 10
297.0
 20
-0.0000000000000568
 30
0.0
 11
297.0
 21
39.99999999999995
 31
0.0
  0
TEXT
  5
15B
330
1E
100
AcDbEntity
  8
BEM
100
AcDbText
 10
583.8320989200114
 20
837.3022923857165
 30
0.0
 40
4.0
  1
Diese Zeichnung ist urheberrechtlich geschützt und bleibt unser Eigentum. Sie darf weder ganz noch teilweise verfielfältigt und nicht an Dritte weitergegeben werden.
 50
180.0
 41
0.8
  7
GREEKS
100
AcDbText
  0
LINE
  5
19C
330
1E
100
AcDbEntity
  8
BEM
100
AcDbLine
 10
0.0
 20
455.9999999999999
 30
0.0
 11
10.0
 21
455.9999999999999
 31
0.0
  0
TEXT
  5
663
330
1E
100
AcDbEntity
  8
TEXT
100
AcDbText
 10
504.5307583482736
 20
612.2898419893275
 30
0.0
 40
4.0
  1
DIN EN1124-3
 50
90.0
 41
0.8
  7
GREEKS
 72
     1
 11
504.5307583482736
 21
629.2803181798038
 31
0.0
100
AcDbText
  0
LINE
  5
8D2
330
1E
100
AcDbEntity
  8
STEMPEL
100
AcDbLine
 10
98.36948863657164
 20
477.8412840202869
 30
0.0
 11
398.3694886365717
 21
477.8412840202858
 31
0.0
  0
TEXT
  5
998
330
1E
100
AcDbEntity
  8
TEXT
 62
     1
100
AcDbText
 10
244.5781388179069
 20
364.9504437044627
 30
0.0
 40
7.0
  1
DN100
 50
90.0
 41
0.8
  7
GREEKS
 72
     1
 11
244.5781388179069
 21
377.3504437044627
 31
0.0
100
AcDbText
  0
LINE
  5
99B
330
1E
100
AcDbEntity
  8
MITTEL
100
AcDbLine
 10
248.3694886365718
 20
600.3412840202856
 30
0.0
 11
248.3694886365717
 21
445.0398218158534
 31
0.0
  0
TEXT
  5
B55
330
1E
100
AcDbEntity
  8
TEXT
 62
     1
100
AcDbText
 10
324.1470114951009
 20
661.4285264302333
 30
0.0
 40
7.0
  1
EDV-Art.Nr. 21007.000X
 41
0.8
  7
GREEKS
100
AcDbText
  0
LINE
  5
B56
330
1E
100
AcDbEntity
  8
TEXT
 62
     2
100
AcDbLine
 10
322.7956423469247
 20
671.9422053173373
 30
0.0
 11
431.0992470714364
 21
671.9422053173373
 31
0.0
  0
TEXT
  5
B57
330
1E
100
AcDbEntity
  8
TEXT
 62
     1
100
AcDbText
 10
324.1470114951009
 20
675.1048669479688
 30
0.0
 40
7.0
  1
Siebkorb
 41
0.8
  7
GREEKS
100
AcDbText
  0
LINE
  5
B58
330
1E
100
AcDbEntity
  8
TEXT
 62
     2
100
AcDbLine
 10
308.4102904106762
 20
618.6000535079633
 30
0.0
 11
322.7956423469247
 21
671.9422053173373
 31
0.0
  0
LINE
  5
B59
330
1E
100
AcDbEntity
  8
TEXT
 62
     2
100
AcDbLine
 10
304.8363881934787
 20
605.3477093549337
 30
0.0
 11
307.1273760084026
 21
613.8428939259254
 31
0.0
  0
LINE
  5
B5A
330
1E
100
AcDbEntity
  8
TEXT
 62
     2
100
AcDbLine
 10
301.4961625511603
 20
592.96185852002
 30
0.0
 11
303.4453336784849
 21
600.1895567116926
 31
0.0
  0
TEXT
  5
B6D
330
1E
100
AcDbEntity
  8
TEXT
 62
     1
100
AcDbText
 10
404.1906182803765
 20
441.9472697752279
 30
0.0
 40
7.0
  1
EDV-Art.Nr. 21907.100X
 41
0.8
100
AcDbText
  0
LINE
  5
B6E
330
1E
100
AcDbEntity
  8
TEXT
 62
     2
100
AcDbLine
 10
509.5338269767552
 20
451.239766583027
 30
0.0
 11
403.595262401622
 21
451.239766583027
 31
0.0
  0
TEXT
  5
B6F
330
1E
100
AcDbEntity
  8
TEXT
 62
     1
100
AcDbText
 10
404.1906182803765
 20
454.7236007439375
 30
0.0
 40
7.0
  1
Losflansch DN100
 41
0.8
100
AcDbText
  0
LINE
  5
B70
330
1E
100
AcDbEntity
  8
TEXT
 62
     2
100
AcDbLine
 10
403.595262401622
 20
451.239766583027
 30
0.0
 11
379.8667356331965
 21
486.7101853199889
 31
0.0
  0
LINE
  5
B74
330
1E
100
AcDbEntity
  8
TEXT
 62
     2
100
AcDbLine
 10
386.7263469617805
 20
414.6652714858333
 30
0.0
 11
346.1241366588187
 21
478.6643522272262
 31
0.0
  0
TEXT
  5
B76
330
1E
100
AcDbEntity
  8
TEXT
 62
     1
100
AcDbText
 10
380.3138474470808
 20
250.6817205929605
 30
0.0
 40
7.0
  1
Ablaufkörper DN100
 41
0.8
  7
GREEKS
100
AcDbText
  0
LINE
  5
B77
330
1E
100
AcDbEntity
  8
TEXT
 62
     2
100
AcDbLine
 10
379.2331610482437
 20
247.0689523207667
 30
0.0
 11
298.5345871456126
 21
269.5686596001843
 31
0.0
  0
LINE
  5
B78
330
1E
100
AcDbEntity
  8
TEXT
 62
     2
100
AcDbLine
 10
485.3570556559215
 20
247.0689523207669
 30
0.0
 11
379.2331610482437
 21
247.0689523207667
 31
0.0
  0
TEXT
  5
B79
330
1E
100
AcDbEntity
  8
TEXT
 62
     1
100
AcDbText
 10
380.1332921529287
 20
237.6339484459812
 30
0.0
 40
7.0
  1
EDV-Art.Nr. 21981.100X
 41
0.8
  7
GREEKS
100
AcDbText
  0
TEXT
  5
BB1
330
1E
100
AcDbEntity
  8
TEXT
 62
     1
100
AcDbText
 10
393.4521736621257
 20
417.6518119778864
 30
0.0
 40
7.0
  1
Kompressionsdichtung
 41
0.8
100
AcDbText
  0
TEXT
  5
BB2
330
1E
100
AcDbEntity
  8
TEXT
 62
     1
100
AcDbText
 10
393.8081326649624
 20
404.1137986728381
 30
0.0
 40
7.0
  1
EDV-Art.Nr. 21810.125X
 41
0.8
100
AcDbText
  0
LINE
  5
BB3
330
1E
100
AcDbEntity
  8
TEXT
 62
     2
100
AcDbLine
 10
386.7263469617805
 20
414.6652714858333
 30
0.0
 11
498.2560882961832
 21
414.6652714858333
 31
0.0
  0
HATCH
  5
D39
330
1E
100
AcDbEntity
  8
SCHRAFF
100
AcDbHatch
 10
0.0
 20
0.0
 30
0.0
210
0.0
220
0.0
230
1.0
  2
_USER
 70
     0
 71
     1
 91
        7
 92
        7
 72
     1
 73
     1
 93
        8
 10
378.0281073853632
 20
494.7540219880997
 42
0.0
 10
377.8694886365716
 20
503.8412840202862
 42
0.0
 10
373.3694886365714
 20
503.8412840202861
 42
0.0
 10
373.3694886365718
 20
496.4412840202864
 42
0.0
 10
373.3694886365724
 20
483.8412840202861
 42
0.0
 10
390.3694886365716
 20
483.8412840202861
 42
1.0
 10
390.3694886365716
 20
489.8412840202862
 42
0.0
 10
383.027345861145
 20
489.8412840202862
 42
-0.409110801427704
 97
        8
330
E74
330
E5E
330
E6A
330
E6D
330
E71
330
E6C
330
D42
330
E75
 92
        7
 72
     1
 73
     1
 93
        8
 10
367.3694886365711
 20
483.841284020286
 42
0.0
 10
367.3694886365717
 20
496.4412840202864
 42
0.0
 10
367.3694886365714
 20
503.8412840202862
 42
0.0
 10
362.8694886365716
 20
503.8412840202863
 42
0.0
 10
362.7108698877803
 20
494.7540219881
 42
-0.409110801427714
 10
357.7116314119984
 20
489.8412840202863
 42
0.0
 10
351.8439962778357
 20
489.8412840202863
 42
0.0
 10
351.8439962778359
 20
483.841284020286
 42
0.0
 97
        8
330
E67
330
DC6
330
E0E
330
E11
330
DF4
330
DF1
330
D42
330
E64
 92
        7
 72
     1
 73
     1
 93
        8
 10
351.8439962778359
 20
483.841284020286
 42
0.0
 10
351.8439962778358
 20
489.8412840202863
 42
0.0
 10
333.0701066588505
 20
489.8412840202863
 42
-0.4040262258351052
 10
332.0707158318316
 20
490.8063845235838
 42
0.0
 10
331.108566594889
 20
518.3587337686374
 42
0.4040262258351217
 10
330.6088711813795
 20
518.8412840202861
 42
0.0
 10
328.5917155687829
 20
518.8412840202861
 42
0.0
 10
327.3694886365717
 20
483.841284020286
 42
0.0
 97
        8
330
DF4
330
DFE
330
DE1
330
DE9
330
D3A
330
DE4
330
D42
330
DF1
 92
        7
 72
     1
 73
     1
 93
        8
 10
169.3694886365717
 20
483.841284020286
 42
0.0
 10
168.1472617043605
 20
518.8412840202857
 42
0.0
 10
166.1301060917639
 20
518.8412840202858
 42
0.4040262258349774
 10
165.6304106782544
 20
518.3587337686374
 42
0.0
 10
164.6682614413118
 20
490.8063845235837
 42
-0.4040262258352113
 10
163.6688706142926
 20
489.8412840202861
 42
0.0
 10
143.3694886365716
 20
489.841284020286
 42
0.0
 10
143.3694886365717
 20
483.841284020286
 42
0.0
 97
        8
330
D3A
330
D9B
330
D72
330
D89
330
D62
330
D7A
330
D42
330
D9E
 92
        7
 72
     1
 73
     1
 93
        4
 10
129.3694886365716
 20
483.841284020286
 42
0.0
 10
129.3694886365716
 20
489.8412840202861
 42
0.0
 10
106.3694886365716
 20
489.841284020286
 42
1.0
 10
106.3694886365716
 20
483.841284020286
 42
0.0
 97
        4
330
D62
330
D63
330
D4A
330
D64
 92
        7
 72
     0
 73
     1
 93
        4
 10
373.3694886365717
 20
496.4412840202863
 10
372.7194886365712
 20
495.7912840202859
 10
372.7194886365716
 20
483.8412840202861
 10
373.3694886365725
 20
483.8412840202861
 97
        4
330
E6F
330
E6B
330
D42
330
E6C
 92
        7
 72
     0
 73
     1
 93
        4
 10
368.0194886365722
 20
495.7912840202855
 10
367.3694886365717
 20
496.4412840202863
 10
367.3694886365712
 20
483.841284020286
 10
368.0194886365719
 20
483.8412840202861
 97
        4
330
E69
330
E64
330
D42
330
E63
 75
     0
 76
     0
 52
135.0
 41
5.0
 77
     0
 78
     1
 53
135.0
 43
22.99631056396686
 44
70.53611255765003
 45
-3.535533905932737
 46
-3.535533905932737
 79
     0
 47
0.390930450306957
 98
        7
 10
377.142447168576
 20
489.1328491453045
 10
355.2353686007497
 20
485.6144748531616
 10
343.8906318712512
 20
486.0054053300664
 10
158.0716560865472
 20
486.0054053300664
 10
125.6022356803929
 20
486.396335806971
 10
373.265227025906
 20
491.7221066682934
 10
367.5333645618727
 20
492.772230354641
  0
LINE
  5
D3A
102
{ACAD_REACTORS
330
D39
102
}
330
1E
100
AcDbEntity
  8
STEMPEL
100
AcDbLine
 10
166.1301060917639
 20
518.8412840202858
 30
0.0
 11
330.6088711813795
 21
518.8412840202861
 31
0.0
  0
HATCH
  5
D3C
330
1E
100
AcDbEntity
  8
SCHRAFF
100
AcDbHatch
 10
0.0
 20
0.0
 30
0.0
210
0.0
220
0.0
230
1.0
  2
_U
 70
     0
 71
     0
 91
        6
 92
        7
 72
     1
 73
     1
 93
        6
 10
138.3694886365716
 20
509.8412840202867
 42
-0.2360679774997897
 10
136.3694886365716
 20
505.8412840202866
 42
0.0
 10
136.3694886365716
 20
504.6451315975799
 42
0.2679491924311283
 10
139.3694886365717
 20
509.8412840202867
 42
0.0
 10
139.3694886365717
 20
528.8412840202875
 42
0.0
 10
138.3694886365716
 20
528.8412840202875
 42
0.0
 97
        0
 92
        7
 72
     1
 73
     1
 93
        6
 10
133.3694886365717
 20
503.8412840202888
 42
0.1316524975873934
 10
136.3694886365716
 20
504.6451315975821
 42
0.0
 10
136.3694886365716
 20
505.8412840202865
 42
-0.1622776601683657
 10
133.3694886365718
 20
504.8412840202866
 42
0.0
 10
118.3694886365715
 20
504.8412840202861
 42
0.0
 10
118.3694886365714
 20
503.8412840202889
 42
0.0
 97
        0
 92
        7
 72
     1
 73
     1
 93
       40
 10
168.3694886365716
 20
593.8412840202852
 42
0.1316524975839241
 10
165.3694886366424
 20
593.0374364430333
 42
0.0
 10
141.3367940148742
 20
579.0183645803356
 42
0.2662608607108976
 10
138.3694886365716
 20
573.8412260529705
 42
0.0
 10
138.3694886365716
 20
568.8412840202874
 42
0.0
 10
139.3694886365717
 20
568.8412840202874
 42
0.0
 10
139.3694886365717
 20
573.8412260529705
 42
-0.2667503951500906
 10
141.8501350684446
 20
578.1601214671668
 42
0.0
 10
165.8289889613958
 20
592.1477746333523
 42
-0.1340385084112999
 10
168.3694886365716
 20
592.8412840202851
 42
0.0
 10
223.107850808921
 20
592.8412840202857
 42
0.2679491924311331
 10
225.2729143183822
 20
594.0912840202856
 42
-0.2679491924311204
 10
225.7059270202744
 20
594.3412840202856
 42
0.0
 10
225.9059270202746
 20
594.3412840202856
 42
-0.2679491924311275
 10
226.3389397221668
 20
594.0912840202856
 42
0.2679491924311328
 10
228.5040032316279
 20
592.8412840202857
 42
0.0
 10
230.5628508089208
 20
592.8412840202857
 42
0.2679491924311457
 10
232.7279143183819
 20
594.0912840202859
 42
-0.2679491924310647
 10
233.1609270202741
 20
594.3412840202856
 42
0.0
 10
233.3609270202745
 20
594.3412840202856
 42
-0.2679491924311112
 10
233.7939397221667
 20
594.0912840202856
 42
0.2679491924311319
 10
235.9590032316278
 20
592.8412840202857
 42
0.0
 10
242.4128508089216
 20
592.8412840202857
 42
0.2679491924310938
 10
244.5779143183826
 20
594.0912840202854
 42
-0.2679491924312511
 10
245.0109270202749
 20
594.3412840202856
 42
0.0
 10
248.3694886365718
 20
594.3412840202856
 42
0.0
 10
248.3694886365718
 20
595.3412840202856
 42
0.0
 10
245.0109270202744
 20
595.3412840202856
 42
0.2679491924310706
 10
243.711888914598
 20
594.5912840202857
 42
-0.2679491924310689
 10
242.4128508089217
 20
593.8412840202857
 42
0.0
 10
235.9590032316274
 20
593.8412840202857
 42
-0.267949192431115
 10
234.6599651259508
 20
594.5912840202857
 42
0.2859076546237126
 10
233.2609270202749
 20
595.3379469749952
 42
0.2859076546239818
 10
231.8618889145976
 20
594.5912840202857
 42
-0.2679491924311542
 10
230.5628508089208
 20
593.8412840202857
 42
0.0
 10
228.5040032316284
 20
593.8412840202857
 42
-0.2679491924311477
 10
227.2049651259517
 20
594.5912840202859
 42
0.2859076546237682
 10
225.8059270202755
 20
595.3379469749952
 42
0.2859076546240622
 10
224.4068889145978
 20
594.5912840202857
 42
-0.2679491924311296
 10
223.1078508089211
 20
593.8412840202857
 42
0.0
 97
        0
 92
        7
 72
     1
 73
     1
 93
       39
 10
354.8888422046989
 20
578.1601214671668
 42
-0.2667503951500871
 10
357.3694886365718
 20
573.8412260529706
 42
0.0
 10
357.3694886365718
 20
568.8412840202874
 42
0.0
 10
358.3694886365719
 20
568.8412840202874
 42
0.0
 10
358.3694886365719
 20
573.8412260529705
 42
0.2662608607095104
 10
355.4021832582962
 20
579.0183645803199
 42
0.0
 10
331.3694886364953
 20
593.0374364430365
 42
0.1316524975836548
 10
328.3694886365719
 20
593.8412840202861
 42
0.0
 10
273.8090032316285
 20
593.8412840202857
 42
-0.2679491924311617
 10
272.5099651259517
 20
594.5912840202859
 42
0.2859076546237838
 10
271.1109270202752
 20
595.3379469749952
 42
0.2859076546239305
 10
269.7118889145982
 20
594.5912840202857
 42
-0.2679491924310324
 10
268.412850808922
 20
593.8412840202857
 42
0.0
 10
261.959003231628
 20
593.8412840202857
 42
-0.2679491924311347
 10
260.6599651259513
 20
594.5912840202859
 42
0.2859076546239652
 10
259.2609270202741
 20
595.3379469749952
 42
0.3607372083887279
 10
257.7085582654466
 20
594.2162840202857
 42
-0.3419987131197213
 10
257.2244353471705
 20
593.8412840202857
 42
0.0
 10
257.0356861545713
 20
593.8412840202857
 42
-0.3419987131196471
 10
256.5515632362953
 20
594.2162840202857
 42
0.3419987131196458
 10
255.0991944814676
 20
595.3412840202856
 42
0.0
 10
248.3694886365718
 20
595.3412840202856
 42
0.0
 10
248.3694886365717
 20
594.3412840202856
 42
0.0
 10
255.099194481468
 20
594.3412840202856
 42
-0.3419987131196405
 10
255.5833173997439
 20
593.9662840202856
 42
0.3596757619904217
 10
257.1300607508708
 20
592.8442558189569
 42
0.3596757619905239
 10
258.6768041019983
 20
593.9662840202856
 42
-0.3419987131196468
 10
259.1609270202742
 20
594.3412840202856
 42
0.0
 10
259.3609270202745
 20
594.3412840202856
 42
-0.2679491924311338
 10
259.7939397221668
 20
594.0912840202856
 42
0.2679491924311175
 10
261.9590032316279
 20
592.8412840202859
 42
0.0
 10
268.4128508089221
 20
592.8412840202859
 42
0.2679491924310653
 10
270.5779143183828
 20
594.0912840202854
 42
-0.2679491924312635
 10
271.0109270202752
 20
594.3412840202856
 42
0.0
 10
271.2109270202744
 20
594.3412840202856
 42
-0.2679491924311589
 10
271.6439397221667
 20
594.0912840202856
 42
0.2679491924311022
 10
273.8090032316277
 20
592.8412840202859
 42
0.0
 10
328.3694886365719
 20
592.8412840202861
 42
-0.1340385084113154
 10
330.9099883117477
 20
592.1477746333523
 42
0.0
 97
        0
 92
        7
 72
     1
 73
     1
 93
        8
 10
358.3694886365718
 20
528.8412840202875
 42
0.0
 10
357.3694886365718
 20
528.8412840202875
 42
0.0
 10
357.3694886365718
 20
509.8412840202867
 42
0.4142135623731057
 10
363.3694886365717
 20
503.8412840202863
 42
0.0
 10
366.3694886365717
 20
503.8412840202862
 42
0.0
 10
366.3694886365716
 20
504.8412840202865
 42
0.0
 10
363.3694886365715
 20
504.8412840202866
 42
-0.4142135623730752
 10
358.3694886365719
 20
509.8412840202867
 42
0.0
 97
        0
 92
        7
 72
     0
 73
     1
 93
        4
 10
378.3694886365717
 20
503.8412840202861
 10
378.3694886365715
 20
504.8412840202861
 10
374.3694886365716
 20
504.8412840202863
 10
374.3694886365716
 20
503.8412840202862
 97
        0
 75
     0
 76
     0
 52
45.0
 41
2.0
 77
     0
 78
     1
 53
45.0
 43
22.99631056396686
 44
70.53611255765003
 45
-1.414213562373094
 46
1.414213562373095
 79
     0
 47
0.3201656181468079
 98
        6
 10
138.8631522122729
 20
526.2876336178576
 10
126.3683771063625
 20
504.1962053719662
 10
180.1920197821952
 20
593.5224135339108
 10
349.6724165796569
 20
581.6762858303357
 10
358.0022673914974
 20
524.366639067188
 10
376.5842390294239
 20
504.1962053719662
  0
LWPOLYLINE
  5
D3D
330
1E
100
AcDbEntity
  8
STEMPEL
100
AcDbPolyline
 90
       16
 70
   128
 43
0.0
 10
-227.1830969484261
 20
518.841284020286
 10
-227.242141990963
 20
519.05059651669
 10
-227.8537774155554
 20
520.2895252418668
 10
-228.6807035414298
 20
521.394001347636
 10
-229.694760391158
 20
522.3264132248889
 10
-230.8614154749498
 20
523.0550087054502
 10
-232.140939753175
 20
523.5549763440834
 10
-233.4897605611591
 20
523.8092903425001
 10
-234.8619454240184
 20
523.8092903425001
 10
-236.2107662320025
 20
523.5549763440834
 10
-237.4902905102278
 20
523.0550087054502
 10
-238.6569455940195
 20
522.3264132248889
 10
-239.6710024437478
 20
521.394001347636
 10
-240.4979285696222
 20
520.2895252418668
 10
-241.1095639942145
 20
519.05059651669
 10
-241.1686090367515
 20
518.841284020286
210
0.0
220
0.0
230
-1.0
  0
ARC
  5
D3E
330
1E
100
AcDbEntity
  8
STEMPEL
100
AcDbCircle
 10
233.1609270202745
 20
593.8412840202857
 30
0.0
 40
0.5
100
AcDbArc
 50
90.0
 51
150.0000000000039
  0
ARC
  5
D3F
330
1E
100
AcDbEntity
  8
STEMPEL
100
AcDbCircle
 10
233.1609270202745
 20
593.8412840202857
 30
0.0
 40
1.5
100
AcDbArc
 50
90.0
 51
150.0000000000039
  0
LINE
  5
D42
102
{ACAD_REACTORS
330
D39
102
}
330
1E
100
AcDbEntity
  8
STEMPEL
100
AcDbLine
 10
390.3694886365716
 20
483.8412840202861
 30
0.0
 11
141.3694886365716
 21
483.841284020286
 31
0.0
  0
DIMENSION
  5
D43
330
1E
100
AcDbEntity
  8
BEM
100
AcDbDimension
  2
*D2
 10
358.3694886365719
 20
602.8832228678691
 30
0.0
 11
248.3694886365718
 21
609.3832228678691
 31
0.0
 70
    32
  1
%%c<>
 71
     5
 42
220.0000000000002
  3
Standard
100
AcDbAlignedDimension
 13
138.3694886365716
 23
573.8412260529705
 33
0.0
 14
358.3694886365719
 24
573.8412260529705
 34
0.0
100
AcDbRotatedDimension
1001
ACAD
1000
DSTYLE
1002
{
1070
    40
1040
2.0
1070
    41
1040
3.5
1070
    42
1040
1.0
1070
    43
1040
7.0
1070
    44
1040
1.0
1070
    73
1070
     0
1070
    74
1070
     0
1070
    77
1070
     1
1070
    78
1070
     8
1070
    79
1070
     2
1070
   140
1040
3.5
1070
   141
1040
1.5
1070
   146
1040
0.5142857142857144
1070
   147
1040
1.5
1070
   172
1070
     1
1070
   178
1070
     1
1070
   179
1070
     2
1070
   271
1070
     2
1070
   272
1070
     2
1070
   284
1070
     8
1070
   285
1070
     8
1070
   286
1070
     8
1002
}
  0
LINE
  5
D45
330
1E
100
AcDbEntity
  8
HILF
100
AcDbLine
 10
350.6958216941023
 20
576.8412840202889
 30
0.0
 11
145.5431555790409
 21
576.8412840202886
 31
0.0
  0
LINE
  5
D46
330
1E
100
AcDbEntity
  8
STEMPEL
100
AcDbLine
 10
168.3694886365716
 20
592.8412840202851
 30
0.0
 11
328.3694886365719
 21
592.8412840202861
 31
0.0
  0
LINE
  5
D47
330
1E
100
AcDbEntity
  8
STEMPEL
100
AcDbLine
 10
225.7059270202745
 20
595.3412840202856
 30
0.0
 11
271.2109270202744
 21
595.3412840202856
 31
0.0
  0
LINE
  5
D4A
102
{ACAD_REACTORS
330
D39
102
}
330
1E
100
AcDbEntity
  8
STEMPEL
100
AcDbLine
 10
106.3694886365716
 20
483.841284020286
 30
0.0
 11
131.3694886365716
 21
483.841284020286
 31
0.0
  0
LINE
  5
D4B
330
1E
100
AcDbEntity
  8
STEMPEL
100
AcDbLine
 10
131.3694886365716
 20
483.841284020286
 30
0.0
 11
106.3694886365716
 21
483.841284020286
 31
0.0
  0
DIMENSION
  5
D4C
330
1E
100
AcDbEntity
  8
BEM
100
AcDbDimension
  2
*D3
 10
69.13370919226429
 20
593.8412840202852
 30
0.0
 11
62.6337091922642
 21
538.8412840202857
 31
0.0
 70
    32
 71
     5
 42
109.9999999999991
  3
Standard
100
AcDbAlignedDimension
 13
106.3694886365716
 23
483.841284020286
 33
0.0
 14
168.3694886365716
 24
593.8412840202852
 34
0.0
 50
90.0
100
AcDbRotatedDimension
1001
ACAD
1000
DSTYLE
1002
{
1070
    40
1040
2.0
1070
    41
1040
3.5
1070
    42
1040
1.0
1070
    43
1040
7.0
1070
    44
1040
1.0
1070
    73
1070
     0
1070
    74
1070
     0
1070
    77
1070
     1
1070
    78
1070
     8
1070
    79
1070
     2
1070
   140
1040
3.5
1070
   141
1040
1.5
1070
   146
1040
0.5142857142857144
1070
   147
1040
1.5
1070
   172
1070
     1
1070
   178
1070
     1
1070
   179
1070
     2
1070
   271
1070
     2
1070
   272
1070
     2
1070
   284
1070
     8
1070
   285
1070
     8
1070
   286
1070
     8
1002
}
  0
LINE
  5
D4F
330
1E
100
AcDbEntity
  8
STEMPEL
100
AcDbLine
 10
200.4938459912756
 20
561.3412840202877
 30
0.0
 11
200.4938459912756
 21
536.3412840202877
 31
0.0
  0
LINE
  5
D50
330
1E
100
AcDbEntity
  8
STEMPEL
100
AcDbLine
 10
187.5034649345097
 20
561.3412840202877
 30
0.0
 11
187.5034649345097
 21
536.3412840202893
 31
0.0
  0
LINE
  5
D51
330
1E
100
AcDbEntity
  8
STEMPEL
100
AcDbLine
 10
199.9926689958335
 20
561.3412840202877
 30
0.0
 11
199.9926689958335
 21
536.3412840202877
 31
0.0
  0
LINE
  5
D52
330
1E
100
AcDbEntity
  8
STEMPEL
100
AcDbLine
 10
157.9464431299087
 20
561.3412840202877
 30
0.0
 11
157.9464431299087
 21
536.3412840202893
 31
0.0
  0
LINE
  5
D53
330
1E
100
AcDbEntity
  8
STEMPEL
100
AcDbLine
 10
157.0783791102198
 20
536.3412840202877
 30
0.0
 11
157.0783791102198
 21
561.3412840202893
 31
0.0
  0
LINE
  5
D54
330
1E
100
AcDbEntity
  8
STEMPEL
100
AcDbLine
 10
150.4464431299088
 20
561.3412840202877
 30
0.0
 11
150.4464431299088
 21
536.3412840202909
 31
0.0
  0
LINE
  5
D55
330
1E
100
AcDbEntity
  8
STEMPEL
100
AcDbLine
 10
138.3694886365716
 20
573.8412260529705
 30
0.0
 11
138.3694886365716
 21
509.8412840202867
 31
0.0
  0
LINE
  5
D56
330
1E
100
AcDbEntity
  8
STEMPEL
100
AcDbLine
 10
139.3694886365717
 20
573.8412260529705
 30
0.0
 11
139.3694886365717
 21
509.8412840202867
 31
0.0
  0
LWPOLYLINE
  5
D58
330
1E
100
AcDbEntity
  8
STEMPEL
100
AcDbPolyline
 90
       10
 70
   128
 43
0.0
 10
134.0731871465763
 20
503.8412840202887
 10
134.9312601428491
 20
503.9074112348614
 10
135.7840723424713
 20
504.1599649845916
 10
136.6048306493883
 20
504.5910107009091
 10
137.3677490157873
 20
505.1870060713491
 10
138.0488585712865
 20
505.9292265030697
 10
138.6267606612322
 20
506.7943533998671
 10
139.0832991356385
 20
507.7552067705832
 10
139.404130767236
 20
508.7815991522954
 10
139.5791758776071
 20
509.8412840202881
  0
LINE
  5
D59
330
1E
100
AcDbEntity
  8
STEMPEL
100
AcDbLine
 10
118.3694886365714
 20
503.841284020289
 30
0.0
 11
165.1234501619843
 21
503.8412840202885
 31
0.0
  0
LINE
  5
D5A
330
1E
100
AcDbEntity
  8
STEMPEL
100
AcDbLine
 10
140.3694886365716
 20
502.8412840202867
 30
0.0
 11
132.3694886365716
 21
502.8412840202867
 31
0.0
  0
LINE
  5
D5B
330
1E
100
AcDbEntity
  8
STEMPEL
100
AcDbLine
 10
131.3694886365716
 20
501.8412840202868
 30
0.0
 11
141.3694886365716
 21
501.8412840202868
 31
0.0
  0
ARC
  5
D60
330
1E
100
AcDbEntity
  8
STEMPEL
100
AcDbCircle
 10
133.3694886365717
 20
509.8412840202867
 30
0.0
 40
5.0
100
AcDbArc
 50
270.0000000000017
 51
0.0
  0
ARC
  5
D61
330
1E
100
AcDbEntity
  8
STEMPEL
100
AcDbCircle
 10
133.3694886365717
 20
509.8412840202867
 30
0.0
 40
6.0
100
AcDbArc
 50
270.0000000000017
 51
0.0
  0
LINE
  5
D62
102
{ACAD_REACTORS
330
D39
102
}
330
1E
100
AcDbEntity
  8
STEMPEL
100
AcDbLine
 10
106.3694886365716
 20
489.841284020286
 30
0.0
 11
163.6688706142926
 21
489.8412840202861
 31
0.0
  0
ARC
  5
D63
102
{ACAD_REACTORS
330
D39
102
}
330
1E
100
AcDbEntity
  8
STEMPEL
100
AcDbCircle
 10
106.3694886365716
 20
486.8412840202861
 30
0.0
 40
3.0
100
AcDbArc
 50
90.0
 51
270.0
  0
LINE
  5
D64
102
{ACAD_REACTORS
330
D39
102
}
330
1E
100
AcDbEntity
  8
STEMPEL
100
AcDbLine
 10
129.3694886365716
 20
489.841284020286
 30
0.0
 11
129.3694886365716
 21
483.841284020286
 31
0.0
  0
LINE
  5
D65
330
1E
100
AcDbEntity
  8
STEMPEL
100
AcDbLine
 10
131.3694886365716
 20
489.841284020286
 30
0.0
 11
131.3694886365716
 21
477.8412840202868
 31
0.0
  0
LINE
  5
D66
330
1E
100
AcDbEntity
  8
HILF
100
AcDbLine
 10
132.3694886365716
 20
489.841284020286
 30
0.0
 11
132.3694886365716
 21
477.8412840202868
 31
0.0
  0
LINE
  5
D68
330
1E
100
AcDbEntity
  8
STEMPEL
100
AcDbLine
 10
118.3694886365716
 20
504.8412840202861
 30
0.0
 11
133.3694886365718
 21
504.8412840202866
 31
0.0
  0
LINE
  5
D6A
330
1E
100
AcDbEntity
  8
STEMPEL
100
AcDbLine
 10
118.3694886365715
 20
504.8412840202864
 30
0.0
 11
118.3694886365714
 21
503.8412840202862
 31
0.0
  0
LINE
  5
D6F
330
1E
100
AcDbEntity
  8
HILF
100
AcDbLine
 10
132.3694886365716
 20
502.8412840202867
 30
0.0
 11
132.3694886365716
 21
499.8412840202862
 31
0.0
  0
LINE
  5
D70
330
1E
100
AcDbEntity
  8
STEMPEL
100
AcDbLine
 10
131.3694886365716
 20
501.8412840202867
 30
0.0
 11
131.3694886365716
 21
499.8412840202861
 31
0.0
  0
LINE
  5
D71
330
1E
100
AcDbEntity
  8
STEMPEL
100
AcDbLine
 10
132.3694886365716
 20
502.8412840202867
 30
0.0
 11
131.3694886365716
 21
501.8412840202867
 31
0.0
  0
LINE
  5
D72
102
{ACAD_REACTORS
330
D39
102
}
330
1E
100
AcDbEntity
  8
STEMPEL
100
AcDbLine
 10
164.6682614413118
 20
490.8063845235837
 30
0.0
 11
165.6304106782544
 21
518.3587337686374
 31
0.0
  0
LWPOLYLINE
  5
D73
330
1E
100
AcDbEntity
  8
STEMPEL
100
AcDbPolyline
 90
        7
 70
   128
 43
0.0
 10
137.9228308636989
 20
504.841284020288
 10
138.5995327387764
 20
505.4508847481471
 10
139.1990821624103
 20
506.1784438320587
 10
139.70537083556
 20
507.0044136937389
 10
140.1047961276055
 20
507.906602718942
 10
140.3866265428684
 20
508.8607714871357
 10
140.5432900473699
 20
509.8412840202881
  0
LWPOLYLINE
  5
D74
330
1E
100
AcDbEntity
  8
STEMPEL
100
AcDbPolyline
 90
       10
 70
   128
 43
0.0
 10
140.219798497767
 20
503.8412840202876
 10
141.0559777726086
 20
503.9324375022143
 10
141.8667501633112
 20
504.2031282955721
 10
142.627480761054
 20
504.645131597581
 10
143.3150551515728
 20
505.2450173615738
 10
143.9085817349412
 20
505.9845583621686
 10
144.3900265062624
 20
506.8412840202878
 10
144.7447610097828
 20
507.7891631603338
 10
144.962006817117
 20
508.7993949542863
 10
145.035163024341
 20
509.8412840202881
  0
LWPOLYLINE
  5
D75
330
1E
100
AcDbEntity
  8
STEMPEL
100
AcDbPolyline
 90
       10
 70
   128
 43
0.0
 10
136.0310800298768
 20
503.8412840202876
 10
136.8891530261496
 20
503.9074112348602
 10
137.7419652257718
 20
504.1599649845904
 10
138.5627235326888
 20
504.591010700908
 10
139.3256418990878
 20
505.1870060713479
 10
140.006751454587
 20
505.9292265030686
 10
140.5846535445327
 20
506.794353399866
 10
141.0411920189389
 20
507.7552067705821
 10
141.3620236505365
 20
508.7815991522942
 10
141.5370687609076
 20
509.8412840202869
  0
LWPOLYLINE
  5
D76
330
1E
100
AcDbEntity
  8
STEMPEL
100
AcDbPolyline
 90
        7
 70
   128
 43
0.0
 10
147.6957885406428
 20
504.8412840202876
 10
148.3158790637072
 20
505.4506219221284
 10
148.8476992104906
 20
506.1780521954177
 10
149.2769450102218
 20
507.0040096893613
 10
149.5920713580191
 20
507.9062792398237
 10
149.784602534985
 20
508.8605931740668
 10
149.8493601733113
 20
509.8412840202881
  0
LWPOLYLINE
  5
D77
330
1E
100
AcDbEntity
  8
STEMPEL
100
AcDbPolyline
 90
       10
 70
   128
 43
0.0
 10
145.9600499832448
 20
503.8412840202876
 10
146.7962292580864
 20
503.9324375022143
 10
147.607001648789
 20
504.2031282955721
 10
148.3677322465318
 20
504.645131597581
 10
149.0553066370506
 20
505.2450173615738
 10
149.648833220419
 20
505.9845583621686
 10
150.1302779917402
 20
506.8412840202878
 10
150.4850124952606
 20
507.7891631603338
 10
150.7022583025948
 20
508.7993949542863
 10
150.7754145098187
 20
509.8412840202881
  0
LWPOLYLINE
  5
D78
330
1E
100
AcDbEntity
  8
STEMPEL
100
AcDbPolyline
 90
       10
 70
   128
 43
0.0
 10
153.1695075188946
 20
503.8412840202876
 10
153.9272571439888
 20
503.9324375022143
 10
154.6619829301643
 20
504.2031282955721
 10
155.3513606061975
 20
504.645131597581
 10
155.9744437802438
 20
505.2450173615738
 10
156.5123003853553
 20
505.9845583621686
 10
156.9485879207543
 20
506.8412840202878
 10
157.2700500104495
 20
507.7891631603338
 10
157.4669191915135
 20
508.7993949542863
 10
157.5332136935004
 20
509.8412840202881
  0
LINE
  5
D79
330
1E
100
AcDbEntity
  8
MITTEL
100
AcDbLine
 10
136.3694886365716
 20
507.8412840202867
 30
0.0
 11
136.3694886365716
 21
477.8412840202868
 31
0.0
  0
LINE
  5
D7A
102
{ACAD_REACTORS
330
D39
102
}
330
1E
100
AcDbEntity
  8
STEMPEL
100
AcDbLine
 10
143.3694886365716
 20
489.8412840202861
 30
0.0
 11
143.3694886365717
 21
483.841284020286
 31
0.0
  0
LINE
  5
D7B
330
1E
100
AcDbEntity
  8
HILF
100
AcDbLine
 10
140.3694886365716
 20
489.841284020286
 30
0.0
 11
140.3694886365716
 21
477.8412840202868
 31
0.0
  0
LINE
  5
D7C
330
1E
100
AcDbEntity
  8
STEMPEL
100
AcDbLine
 10
141.3694886365716
 20
489.841284020286
 30
0.0
 11
141.3694886365716
 21
477.8412840202868
 31
0.0
  0
LINE
  5
D81
330
1E
100
AcDbEntity
  8
STEMPEL
100
AcDbLine
 10
136.9587166939365
 20
504.8412840202876
 30
0.0
 11
137.9228308636992
 21
504.8412840202876
 31
0.0
  0
LINE
  5
D82
330
1E
100
AcDbEntity
  8
HILF
100
AcDbLine
 10
140.3694886365716
 20
502.8412840202867
 30
0.0
 11
140.3694886365717
 21
499.8412840202862
 31
0.0
  0
LINE
  5
D83
330
1E
100
AcDbEntity
  8
STEMPEL
100
AcDbLine
 10
141.3694886365716
 20
501.8412840202867
 30
0.0
 11
141.3694886365717
 21
499.8412840202862
 31
0.0
  0
LINE
  5
D84
330
1E
100
AcDbEntity
  8
STEMPEL
100
AcDbLine
 10
141.3694886365716
 20
501.8412840202867
 30
0.0
 11
140.3694886365716
 21
502.8412840202867
 31
0.0
  0
LINE
  5
D87
330
1E
100
AcDbEntity
  8
STEMPEL
100
AcDbLine
 10
142.8815913916724
 20
504.8412840202876
 30
0.0
 11
147.6957885406438
 21
504.8412840202876
 31
0.0
  0
LINE
  5
D88
330
1E
100
AcDbEntity
  8
STEMPEL
100
AcDbLine
 10
155.581636864982
 20
504.8412840202876
 30
0.0
 11
163.9178374132939
 21
504.8412840202876
 31
0.0
  0
ARC
  5
D89
102
{ACAD_REACTORS
330
D39
102
}
330
1E
100
AcDbEntity
  8
STEMPEL
100
AcDbCircle
 10
163.6688706142926
 20
490.8412840202863
 30
0.0
 40
1.0
100
AcDbArc
 50
270.0
 51
357.9999999999996
  0
LWPOLYLINE
  5
D8A
330
1E
100
AcDbEntity
  8
STEMPEL
100
AcDbPolyline
 90
        4
 70
   128
 43
0.0
 10
162.3009289540264
 20
503.8412840202876
 10
163.0586785791207
 20
503.9324375022143
 10
163.7934043652962
 20
504.2031282955721
 10
165.1668370596004
 20
505.0837222095826
  0
LWPOLYLINE
  5
D8B
330
1E
100
AcDbEntity
  8
STEMPEL
100
AcDbPolyline
 90
        2
 70
   128
 43
0.0
 10
163.9178374132933
 20
504.8412840202876
 10
165.207194998398
 20
506.2394223669662
  0
ELLIPSE
  5
D8C
330
1E
100
AcDbEntity
  8
STEMPEL
100
AcDbEllipse
 10
154.1964431299088
 20
536.3412840202893
 30
0.0
 11
0.0
 21
-7.499999999999999
 31
0.0
210
0.0
220
0.0
230
-1.0
 40
0.4999999999999926
 41
4.712388980384689
 42
7.853981633974482
  0
LWPOLYLINE
  5
D8D
330
1E
100
AcDbEntity
  8
STEMPEL
100
AcDbPolyline
 90
        7
 70
   128
 43
0.0
 10
-140.0612329624883
 20
522.8033380761255
 10
-140.1990619720586
 20
522.051231839187
 10
-140.3179262490247
 20
521.1285182284723
 10
-140.414274250926
 20
520.0627669785681
 10
-140.4852271984642
 20
518.8858216417469
 10
-140.5286650904721
 20
517.632848135345
 10
-140.5432900473696
 20
516.3412840202858
210
0.0
220
0.0
230
-1.0
  0
LWPOLYLINE
  5
D8E
330
1E
100
AcDbEntity
  8
STEMPEL
100
AcDbPolyline
 90
       18
 70
   128
 43
0.0
 10
-139.5791758776071
 20
516.3412840202858
 10
-139.5958443010839
 20
517.7194054039103
 10
-139.6452819483443
 20
519.05059651669
 10
-139.7258052796048
 20
520.2895252418668
 10
-139.8346721693964
 20
521.394001347636
 10
-139.9681752863587
 20
522.3264132248889
 10
-140.1217683419629
 20
523.0550087054502
 10
-140.2902209089149
 20
523.5549763440834
 10
-140.4677965370838
 20
523.8092903425001
 10
-140.6484481014309
 20
523.8092903425001
 10
-140.8260237295998
 20
523.5549763440834
 10
-140.9944762965519
 20
523.0550087054502
 10
-141.148069352156
 20
522.3264132248889
 10
-141.2815724691183
 20
521.394001347636
 10
-141.39043935891
 20
520.2895252418668
 10
-141.4709626901704
 20
519.05059651669
 10
-141.5204003374309
 20
517.7194054039103
 10
-141.5370687609076
 20
516.3412840202858
210
0.0
220
0.0
230
-1.0
  0
LINE
  5
D8F
330
1E
100
AcDbEntity
  8
STEMPEL
100
AcDbLine
 10
141.5370687609076
 20
516.3412840202858
 30
0.0
 11
141.5370687609076
 21
509.8412840202869
 31
0.0
  0
LINE
  5
D90
330
1E
100
AcDbEntity
  8
STEMPEL
100
AcDbLine
 10
140.5432900473698
 20
516.3412840202858
 30
0.0
 11
140.5432900473698
 21
509.8412840202881
 31
0.0
  0
LINE
  5
D91
330
1E
100
AcDbEntity
  8
STEMPEL
100
AcDbLine
 10
139.5791758776071
 20
516.3412840202858
 30
0.0
 11
139.5791758776071
 21
509.8412840202881
 31
0.0
  0
LINE
  5
D92
330
1E
100
AcDbEntity
  8
STEMPEL
100
AcDbLine
 10
138.3694886365715
 20
528.8412840202875
 30
0.0
 11
139.3694886365717
 21
528.8412840202875
 31
0.0
  0
LWPOLYLINE
  5
D93
330
1E
100
AcDbEntity
  8
STEMPEL
100
AcDbPolyline
 90
        9
 70
   128
 43
0.0
 10
-147.4422615988279
 20
523.7430422649508
 10
-147.9313221420966
 20
523.4166093671935
 10
-148.3909351099975
 20
522.8713403539362
 10
-148.8068849136218
 20
522.1241001108082
 10
-149.1663064429133
 20
521.1980003880308
 10
-149.4580829778008
 20
520.1216849660604
 10
-149.673190022539
 20
518.9284437184296
 10
-149.8049744286465
 20
517.6551829733536
 10
-149.8493601733113
 20
516.3412840202873
210
0.0
220
0.0
230
-1.0
  0
LWPOLYLINE
  5
D94
330
1E
100
AcDbEntity
  8
STEMPEL
100
AcDbPolyline
 90
       18
 70
   128
 43
0.0
 10
-145.035163024341
 20
516.3412840202858
 10
-145.0840323692572
 20
517.7194054039103
 10
-145.2289762170773
 20
519.05059651669
 10
-145.4650586789045
 20
520.2895252418668
 10
-145.7842402496513
 20
521.394001347636
 10
-146.1756515837416
 20
522.3264132248889
 10
-146.6259636376396
 20
523.0550087054502
 10
-147.119841574439
 20
523.5549763440834
 10
-147.6404669733439
 20
523.8092903425001
 10
-148.1701105608157
 20
523.8092903425001
 10
-148.6907359597207
 20
523.5549763440834
 10
-149.1846138965201
 20
523.0550087054502
 10
-149.6349259504181
 20
522.3264132248889
 10
-150.0263372845084
 20
521.394001347636
 10
-150.3455188552552
 20
520.2895252418668
 10
-150.5816013170824
 20
519.05059651669
 10
-150.7265451649024
 20
517.7194054039103
 10
-150.7754145098187
 20
516.3412840202858
210
0.0
220
0.0
230
-1.0
  0
LINE
  5
D95
330
1E
100
AcDbEntity
  8
STEMPEL
100
AcDbLine
 10
145.035163024341
 20
516.3412840202858
 30
0.0
 11
145.035163024341
 21
509.8412840202891
 31
0.0
  0
LINE
  5
D96
330
1E
100
AcDbEntity
  8
STEMPEL
100
AcDbLine
 10
149.8493601733114
 20
516.3412840202858
 30
0.0
 11
149.8493601733114
 21
509.8412840202891
 31
0.0
  0
LINE
  5
D97
330
1E
100
AcDbEntity
  8
STEMPEL
100
AcDbLine
 10
150.7754145098187
 20
516.3412840202858
 30
0.0
 11
150.7754145098187
 21
509.8412840202891
 31
0.0
  0
ELLIPSE
  5
D98
330
1E
100
AcDbEntity
  8
STEMPEL
100
AcDbEllipse
 10
153.3283791102198
 20
536.3412840202893
 30
0.0
 11
0.0
 21
-7.499999999999999
 31
0.0
210
0.0
220
0.0
230
-1.0
 40
0.4999999999999926
 41
4.712388980384689
 42
6.167183451052224
  0
LWPOLYLINE
  5
D99
330
1E
100
AcDbEntity
  8
STEMPEL
100
AcDbPolyline
 90
       17
 70
   128
 43
0.0
 10
-157.5332136935006
 20
516.3412840202858
 10
-157.6109535947607
 20
517.7194054039103
 10
-157.8415259594425
 20
519.05059651669
 10
-158.2170789222077
 20
520.2895252418668
 10
-158.7248234773354
 20
521.394001347636
 10
-159.3474689929733
 20
522.3264132248889
 10
-160.0638120228673
 20
523.0550087054502
 10
-160.8494583642933
 20
523.5549763440834
 10
-161.6776537733727
 20
523.8092903425001
 10
-162.5201950487604
 20
523.8092903425001
 10
-163.3483904578398
 20
523.5549763440834
 10
-164.1340367992657
 20
523.0550087054502
 10
-164.8503798291597
 20
522.3264132248889
 10
-165.4730253447977
 20
521.394001347636
 10
-165.9807698999254
 20
520.2895252418668
 10
-166.3563228626905
 20
519.05059651669
 10
-166.3925773694927
 20
518.841284020286
210
0.0
220
0.0
230
-1.0
  0
LINE
  5
D9A
330
1E
100
AcDbEntity
  8
STEMPEL
100
AcDbLine
 10
157.5332136935005
 20
516.3412840202858
 30
0.0
 11
157.5332136935005
 21
509.8412840202891
 31
0.0
  0
ARC
  5
D9B
102
{ACAD_REACTORS
330
D39
102
}
330
1E
100
AcDbEntity
  8
STEMPEL
100
AcDbCircle
 10
166.1301060917639
 20
518.3412840202861
 30
0.0
 40
0.5
100
AcDbArc
 50
90.0
 51
177.9999999999996
  0
LWPOLYLINE
  5
D9C
330
1E
100
AcDbEntity
  8
STEMPEL
100
AcDbPolyline
 90
        9
 70
   128
 43
0.0
 10
-161.6294071465257
 20
523.7944752488048
 10
-162.0965308701052
 20
523.7273421678805
 10
-162.865268558251
 20
523.3889786761831
 10
-163.5865588830285
 20
522.8364745486721
 10
-164.23848580291
 20
522.0866173436809
 10
-164.8012408483257
 20
521.1621910929375
 10
-165.2577249919886
 20
520.0912840202882
 10
-165.5940681941853
 20
518.9064350952304
 10
-165.6589523867893
 20
518.5086584098704
210
0.0
220
0.0
230
-1.0
  0
ELLIPSE
  5
D9D
330
1E
100
AcDbEntity
  8
STEMPEL
100
AcDbEllipse
 10
193.9986554628926
 20
536.3412840202877
 30
0.0
 11
0.0
 21
-7.5
 31
0.0
210
0.0
220
0.0
230
-1.0
 40
0.8660254037843856
 41
4.712388980384689
 42
7.853981633974482
  0
LINE
  5
D9E
102
{ACAD_REACTORS
330
D39
102
}
330
1E
100
AcDbEntity
  8
STEMPEL
100
AcDbLine
 10
169.3694886365717
 20
483.8412840202862
 30
0.0
 11
168.1472617043604
 21
518.8412840202861
 31
0.0
  0
LINE
  5
DA1
330
1E
100
AcDbEntity
  8
MITTEL
100
AcDbLine
 10
192.3694886365717
 20
483.841284020286
 30
0.0
 11
192.3694886365717
 21
477.8412840202866
 31
0.0
  0
LWPOLYLINE
  5
DA6
330
1E
100
AcDbEntity
  8
STEMPEL
100
AcDbPolyline
 90
       16
 70
   128
 43
0.0
 10
-176.5761589605731
 20
518.841284020286
 10
-176.6234067537175
 20
519.05059651669
 10
-177.1128369036387
 20
520.2895252418668
 10
-177.7745424908031
 20
521.394001347636
 10
-178.5859899250683
 20
522.3264132248889
 10
-179.519546337284
 20
523.0550087054502
 10
-180.5434205835101
 20
523.5549763440834
 10
-181.6227458542929
 20
523.8092903425001
 10
-182.7207670220439
 20
523.8092903425001
 10
-183.8000922928267
 20
523.5549763440834
 10
-184.8239665390528
 20
523.0550087054502
 10
-185.7575229512685
 20
522.3264132248889
 10
-186.5689703855336
 20
521.394001347636
 10
-187.230675972698
 20
520.2895252418668
 10
-187.7201061226192
 20
519.05059651669
 10
-187.7673539157637
 20
518.841284020286
210
0.0
220
0.0
230
-1.0
  0
LWPOLYLINE
  5
DA7
330
1E
100
AcDbEntity
  8
STEMPEL
100
AcDbPolyline
 90
        8
 70
   128
 43
0.0
 10
-181.985823453585
 20
523.8092903425001
 10
-182.9830669356201
 20
523.6241109617024
 10
-184.0483461873623
 20
523.1548562342486
 10
-185.0241811704007
 20
522.44053199708
 10
-185.8754732032586
 20
521.5068309536836
 10
-186.5716031459951
 20
520.3873363185232
 10
-187.0875327046864
 20
519.1223139011845
 10
-187.1528305979759
 20
518.841284020286
210
0.0
220
0.0
230
-1.0
  0
ELLIPSE
  5
DA8
330
1E
100
AcDbEntity
  8
STEMPEL
100
AcDbEllipse
 10
193.4974784674506
 20
536.3412840202877
 30
0.0
 11
0.0
 21
-7.5
 31
0.0
210
0.0
220
0.0
230
-1.0
 40
0.8660254037843856
 41
4.712388980384689
 42
6.24459510668465
  0
LWPOLYLINE
  5
DA9
330
1E
100
AcDbEntity
  8
STEMPEL
100
AcDbPolyline
 90
       16
 70
   128
 43
0.0
 10
-200.2396432418403
 20
518.841284020286
 10
-200.294664462305
 20
519.05059651669
 10
-200.8646179434868
 20
520.2895252418668
 10
-201.6351904204428
 20
521.394001347636
 10
-202.5801409716704
 20
522.3264132248889
 10
-203.6672904394905
 20
523.0550087054502
 10
-204.8596172526687
 20
523.5549763440834
 10
-206.1165181516205
 20
523.8092903425001
 10
-207.3951908837188
 20
523.8092903425001
 10
-208.6520917826706
 20
523.5549763440834
 10
-209.8444185958488
 20
523.0550087054502
 10
-210.931568063669
 20
522.3264132248889
 10
-211.8765186148965
 20
521.394001347636
 10
-212.6470910918526
 20
520.2895252418668
 10
-213.2170445730344
 20
519.05059651669
 10
-213.2720657934989
 20
518.841284020286
210
0.0
220
0.0
230
-1.0
  0
LWPOLYLINE
  5
DAA
330
1E
100
AcDbEntity
  8
STEMPEL
100
AcDbPolyline
 90
        8
 70
   128
 43
0.0
 10
-206.7796888785756
 20
523.8092903425001
 10
-207.8882718351876
 20
523.6595775362781
 10
-209.1562512323737
 20
523.209301618954
 10
-210.3209699204593
 20
522.5042838868148
 10
-211.339227289066
 20
521.5706741704313
 10
-212.1732551283282
 20
520.4431010114551
 10
-212.7921184905221
 20
519.1633872545033
 10
-212.8807056706273
 20
518.841284020286
210
0.0
220
0.0
230
-1.0
  0
ARC
  5
DAB
330
1E
100
AcDbEntity
  8
STEMPEL
100
AcDbCircle
 10
168.3694886365716
 20
587.8412840202856
 30
0.0
 40
5.0
100
AcDbArc
 50
90.0
 51
120.5373500483005
  0
ARC
  5
DAC
330
1E
100
AcDbEntity
  8
STEMPEL
100
AcDbCircle
 10
168.3694886365716
 20
587.8412840202856
 30
0.0
 40
6.0
100
AcDbArc
 50
90.0
 51
120.512874327618
  0
ELLIPSE
  5
DAD
330
1E
100
AcDbEntity
  8
STEMPEL
100
AcDbEllipse
 10
154.1964431299088
 20
561.3412840202877
 30
0.0
 11
0.0
 21
7.499999999999999
 31
0.0
210
0.0
220
0.0
230
1.0
 40
0.4999999999999926
 41
4.712388980384689
 42
7.853981633974482
  0
LINE
  5
DAE
330
1E
100
AcDbEntity
  8
STEMPEL
100
AcDbLine
 10
141.3367940148638
 20
579.0183645803295
 30
0.0
 11
165.3230968903307
 21
593.010374591018
 31
0.0
  0
LINE
  5
DAF
330
1E
100
AcDbEntity
  8
STEMPEL
100
AcDbLine
 10
141.8501350684446
 20
578.1601214671668
 30
0.0
 11
165.8289889613958
 21
592.1477746333523
 31
0.0
  0
ARC
  5
DB0
330
1E
100
AcDbEntity
  8
STEMPEL
100
AcDbCircle
 10
144.3694886365717
 20
573.8412260529705
 30
0.0
 40
5.0
100
AcDbArc
 50
120.2564164748158
 51
180.0
  0
ARC
  5
DB1
330
1E
100
AcDbEntity
  8
STEMPEL
100
AcDbCircle
 10
144.3694886365717
 20
573.8412260529705
 30
0.0
 40
6.0
100
AcDbArc
 50
120.2564164748158
 51
180.0
  0
LINE
  5
DB2
330
1E
100
AcDbEntity
  8
STEMPEL
100
AcDbLine
 10
138.3694886365717
 20
568.8412840202874
 30
0.0
 11
139.3694886365717
 21
568.8412840202874
 31
0.0
  0
ARC
  5
DB3
330
1E
100
AcDbEntity
  8
STEMPEL
100
AcDbCircle
 10
138.8583450322601
 20
583.3611210027479
 30
0.0
 40
5.0
100
AcDbArc
 50
300.0670458384858
 51
300.2564371635302
  0
ELLIPSE
  5
DB4
330
1E
100
AcDbEntity
  8
STEMPEL
100
AcDbEllipse
 10
153.3283791102198
 20
561.3412840202877
 30
0.0
 11
0.0
 21
7.499999999999999
 31
0.0
210
0.0
220
0.0
230
1.0
 40
0.4999999999999926
 41
4.712388980384689
 42
6.167183451052224
  0
ELLIPSE
  5
DB5
330
1E
100
AcDbEntity
  8
STEMPEL
100
AcDbEllipse
 10
193.9986554628926
 20
561.3412840202877
 30
0.0
 11
0.0
 21
7.5
 31
0.0
210
0.0
220
0.0
230
1.0
 40
0.8660254037843856
 41
4.712388980384689
 42
7.853981633974482
  0
LINE
  5
DB6
330
1E
100
AcDbEntity
  8
STEMPEL
100
AcDbLine
 10
168.3694886365716
 20
593.8412840202852
 30
0.0
 11
223.1078508089211
 21
593.8412840202857
 31
0.0
  0
ARC
  5
DB7
330
1E
100
AcDbEntity
  8
STEMPEL
100
AcDbCircle
 10
168.3694886365716
 20
587.8412840202856
 30
0.0
 40
6.0
100
AcDbArc
 50
90.0
 51
90.0
  0
ELLIPSE
  5
DB8
330
1E
100
AcDbEntity
  8
STEMPEL
100
AcDbEllipse
 10
193.4974784674506
 20
561.3412840202877
 30
0.0
 11
0.0
 21
7.5
 31
0.0
210
0.0
220
0.0
230
1.0
 40
0.8660254037843856
 41
4.712388980384689
 42
6.24459510668465
  0
ARC
  5
DB9
330
1E
100
AcDbEntity
  8
STEMPEL
100
AcDbCircle
 10
225.7059270202745
 20
593.8412840202857
 30
0.0
 40
1.5
100
AcDbArc
 50
90.0
 51
150.0000000000039
  0
ARC
  5
DBA
330
1E
100
AcDbEntity
  8
STEMPEL
100
AcDbCircle
 10
223.1078508089211
 20
595.3412840202856
 30
0.0
 40
2.5
100
AcDbArc
 50
270.0
 51
330.0000000000003
  0
ARC
  5
DBB
330
1E
100
AcDbEntity
  8
STEMPEL
100
AcDbCircle
 10
223.1078508089211
 20
595.3412840202856
 30
0.0
 40
1.5
100
AcDbArc
 50
270.0
 51
330.0000000000039
  0
LINE
  5
DBC
330
1E
100
AcDbEntity
  8
STEMPEL
100
AcDbLine
 10
228.5040032316284
 20
593.8412840202857
 30
0.0
 11
230.5628508089208
 21
593.8412840202857
 31
0.0
  0
LINE
  5
DBD
330
1E
100
AcDbEntity
  8
STEMPEL
100
AcDbLine
 10
228.5040032316284
 20
593.8412840202857
 30
0.0
 11
230.5628508089208
 21
593.8412840202857
 31
0.0
  0
ARC
  5
DBE
330
1E
100
AcDbEntity
  8
STEMPEL
100
AcDbCircle
 10
225.7059270202745
 20
593.8412840202857
 30
0.0
 40
0.5
100
AcDbArc
 50
90.0
 51
149.9999999999994
  0
LINE
  5
DBF
330
1E
100
AcDbEntity
  8
STEMPEL
100
AcDbLine
 10
225.7059270202745
 20
594.3412840202856
 30
0.0
 11
225.9059270202746
 21
594.3412840202856
 31
0.0
  0
ARC
  5
DC0
330
1E
100
AcDbEntity
  8
STEMPEL
100
AcDbCircle
 10
225.9059270202746
 20
593.8412840202857
 30
0.0
 40
0.5
100
AcDbArc
 50
29.99999999999973
 51
90.0
  0
ARC
  5
DC1
330
1E
100
AcDbEntity
  8
STEMPEL
100
AcDbCircle
 10
225.9059270202746
 20
593.8412840202857
 30
0.0
 40
1.5
100
AcDbArc
 50
29.99999999999246
 51
90.0
  0
ARC
  5
DC2
330
1E
100
AcDbEntity
  8
STEMPEL
100
AcDbCircle
 10
228.5040032316284
 20
595.3412840202856
 30
0.0
 40
2.5
100
AcDbArc
 50
209.9999999999925
 51
270.0
  0
ARC
  5
DC3
330
1E
100
AcDbEntity
  8
STEMPEL
100
AcDbCircle
 10
228.5040032316284
 20
595.3412840202856
 30
0.0
 40
1.5
100
AcDbArc
 50
209.9999999999961
 51
270.0
  0
ARC
  5
DC4
330
1E
100
AcDbEntity
  8
STEMPEL
100
AcDbCircle
 10
230.5628508089208
 20
595.3412840202856
 30
0.0
 40
1.5
100
AcDbArc
 50
270.0
 51
330.0000000000039
  0
ARC
  5
DC5
330
1E
100
AcDbEntity
  8
STEMPEL
100
AcDbCircle
 10
230.5628508089208
 20
595.3412840202856
 30
0.0
 40
2.5
100
AcDbArc
 50
270.0
 51
330.0000000000039
  0
LINE
  5
DC6
102
{ACAD_REACTORS
330
D39
102
}
330
1E
100
AcDbEntity
  8
STEMPEL
100
AcDbLine
 10
331.6155271111592
 20
503.8412840202865
 30
0.0
 11
367.3694886365715
 21
503.8412840202862
 31
0.0
  0
LINE
  5
DC7
330
1E
100
AcDbEntity
  8
STEMPEL
100
AcDbLine
 10
378.3694886365714
 20
504.8412840202861
 30
0.0
 11
363.3694886365715
 21
504.8412840202866
 31
0.0
  0
LINE
  5
DC8
330
1E
100
AcDbEntity
  8
STEMPEL
100
AcDbLine
 10
339.660598162924
 20
536.3412840202877
 30
0.0
 11
339.660598162924
 21
561.3412840202893
 31
0.0
  0
LINE
  5
DC9
330
1E
100
AcDbEntity
  8
STEMPEL
100
AcDbLine
 10
338.792534143235
 20
561.3412840202877
 30
0.0
 11
338.792534143235
 21
536.3412840202893
 31
0.0
  0
LINE
  5
DCA
330
1E
100
AcDbEntity
  8
STEMPEL
100
AcDbLine
 10
346.2925341432349
 20
561.3412840202877
 30
0.0
 11
346.2925341432349
 21
536.3412840202909
 31
0.0
  0
LINE
  5
DCB
330
1E
100
AcDbEntity
  8
STEMPEL
100
AcDbLine
 10
309.2355123386339
 20
561.3412840202877
 30
0.0
 11
309.2355123386339
 21
536.3412840202893
 31
0.0
  0
LINE
  5
DCC
330
1E
100
AcDbEntity
  8
STEMPEL
100
AcDbLine
 10
296.7463082773101
 20
561.3412840202877
 30
0.0
 11
296.7463082773101
 21
536.3412840202877
 31
0.0
  0
LINE
  5
DCD
330
1E
100
AcDbEntity
  8
STEMPEL
100
AcDbLine
 10
296.2451312818682
 20
561.3412840202877
 30
0.0
 11
296.2451312818682
 21
536.3412840202877
 31
0.0
  0
LINE
  5
DCE
330
1E
100
AcDbEntity
  8
STEMPEL
100
AcDbLine
 10
255.8694886365719
 20
561.3412840202877
 30
0.0
 11
255.8694886365717
 21
536.3412840202877
 31
0.0
  0
LINE
  5
DCF
330
1E
100
AcDbEntity
  8
STEMPEL
100
AcDbLine
 10
240.8694886365719
 20
561.3412840202861
 30
0.0
 11
240.8694886365717
 21
536.3412840202878
 31
0.0
  0
LINE
  5
DD0
330
1E
100
AcDbEntity
  8
STEMPEL
100
AcDbLine
 10
357.3694886365718
 20
573.8412260529705
 30
0.0
 11
357.3694886365718
 21
509.8412840202867
 31
0.0
  0
LINE
  5
DD1
330
1E
100
AcDbEntity
  8
STEMPEL
100
AcDbLine
 10
358.3694886365719
 20
573.8412260529705
 30
0.0
 11
358.3694886365719
 21
509.8412840202867
 31
0.0
  0
ELLIPSE
  5
DD2
330
1E
100
AcDbEntity
  8
STEMPEL
100
AcDbEllipse
 10
303.241498805693
 20
536.3412840202877
 30
0.0
 11
0.0
 21
-7.5
 31
0.0
210
0.0
220
0.0
230
1.0
 40
0.8660254037843856
 41
4.712388980384689
 42
6.24459510668465
  0
ELLIPSE
  5
DD3
330
1E
100
AcDbEntity
  8
STEMPEL
100
AcDbEllipse
 10
302.740321810251
 20
536.3412840202877
 30
0.0
 11
0.0
 21
-7.5
 31
0.0
210
0.0
220
0.0
230
1.0
 40
0.8660254037843856
 41
4.712388980384689
 42
7.853981633974482
  0
LWPOLYLINE
  5
DD4
330
1E
100
AcDbEntity
  8
STEMPEL
100
AcDbPolyline
 90
       16
 70
   128
 43
0.0
 10
269.5558803247178
 20
518.8412840202861
 10
269.4968352821808
 20
519.05059651669
 10
268.8851998575885
 20
520.2895252418668
 10
268.0582737317141
 20
521.394001347636
 10
267.0442168819858
 20
522.3264132248889
 10
265.8775617981941
 20
523.0550087054502
 10
264.5980375199688
 20
523.5549763440834
 10
263.2492167119847
 20
523.8092903425001
 10
261.8770318491254
 20
523.8092903425001
 10
260.5282110411413
 20
523.5549763440834
 10
259.2486867629161
 20
523.0550087054502
 10
258.0820316791243
 20
522.3264132248889
 10
257.0679748293961
 20
521.394001347636
 10
256.2410487035217
 20
520.2895252418668
 10
255.6294132789294
 20
519.05059651669
 10
255.5703682363924
 20
518.8412840202861
  0
LINE
  5
DD5
330
1E
100
AcDbEntity
  8
MITTEL
100
AcDbLine
 10
262.9884221652174
 20
483.8412840202861
 30
0.0
 11
262.9884221652174
 21
477.8412840202866
 31
0.0
  0
ARC
  5
DD8
330
1E
100
AcDbEntity
  8
STEMPEL
100
AcDbCircle
 10
248.3694886365718
 20
536.3412840202877
 30
0.0
 40
7.5
100
AcDbArc
 50
179.999999999987
 51
359.999999999974
  0
LWPOLYLINE
  5
DD9
330
1E
100
AcDbEntity
  8
STEMPEL
100
AcDbPolyline
 90
        8
 70
   128
 43
0.0
 10
-234.4046733704731
 20
523.8092903425001
 10
-235.5517762517231
 20
523.6856923861369
 10
-236.9358571551726
 20
523.2512921391226
 10
-238.2100817677046
 20
522.5543009188473
 10
-239.3260275874344
 20
521.6212054674016
 10
-240.2412869508875
 20
520.4874648520581
 10
-240.9210785896626
 20
519.1961629659888
 10
-241.02717549577
 20
518.841284020286
210
0.0
220
0.0
230
-1.0
  0
LINE
  5
DDA
330
1E
100
AcDbEntity
  8
STEMPEL
100
AcDbLine
 10
240.8694886365719
 20
536.7579262555491
 30
0.0
 11
240.8694886365719
 21
536.3412840202861
 31
0.0
  0
LWPOLYLINE
  5
DDB
330
1E
100
AcDbEntity
  8
STEMPEL
100
AcDbPolyline
 90
        8
 70
   128
 43
0.0
 10
262.3343039026707
 20
523.8092903425001
 10
261.1872010214208
 20
523.6856923861369
 10
259.8031201179712
 20
523.2512921391226
 10
258.5288955054393
 20
522.5543009188473
 10
257.4129496857094
 20
521.6212054674016
 10
256.4976903222563
 20
520.4874648520581
 10
255.8178986834812
 20
519.1961629659888
 10
255.7118017773739
 20
518.8412840202861
  0
LINE
  5
DDC
330
1E
100
AcDbEntity
  8
STEMPEL
100
AcDbLine
 10
255.8694886365719
 20
536.7579262555491
 30
0.0
 11
255.8694886365719
 21
536.3412840202877
 31
0.0
  0
LWPOLYLINE
  5
DDF
330
1E
100
AcDbEntity
  8
STEMPEL
100
AcDbPolyline
 90
       16
 70
   128
 43
0.0
 10
296.4993340313035
 20
518.8412840202861
 10
296.4443128108389
 20
519.05059651669
 10
295.8743593296571
 20
520.2895252418668
 10
295.103786852701
 20
521.394001347636
 10
294.1588363014735
 20
522.3264132248889
 10
293.0716868336535
 20
523.0550087054502
 10
291.8793600204752
 20
523.5549763440834
 10
290.6224591215234
 20
523.8092903425001
 10
289.343786389425
 20
523.8092903425001
 10
288.0868854904732
 20
523.5549763440834
 10
286.8945586772949
 20
523.0550087054502
 10
285.8074092094749
 20
522.3264132248889
 10
284.8624586582474
 20
521.394001347636
 10
284.0918861812913
 20
520.2895252418668
 10
283.5219327001095
 20
519.05059651669
 10
283.4669114796449
 20
518.8412840202861
  0
LWPOLYLINE
  5
DE0
330
1E
100
AcDbEntity
  8
STEMPEL
100
AcDbPolyline
 90
        8
 70
   128
 43
0.0
 10
289.9592883945682
 20
523.8092903425001
 10
288.8507054379563
 20
523.6595775362781
 10
287.5827260407702
 20
523.209301618954
 10
286.4180073526846
 20
522.5042838868148
 10
285.3997499840779
 20
521.5706741704313
 10
284.5657221448156
 20
520.4431010114551
 10
283.9468587826218
 20
519.1633872545033
 10
283.8582716025166
 20
518.8412840202861
  0
LINE
  5
DE1
102
{ACAD_REACTORS
330
D39
102
}
330
1E
100
AcDbEntity
  8
STEMPEL
100
AcDbLine
 10
332.0707158318316
 20
490.8063845235838
 30
0.0
 11
331.108566594889
 21
518.3587337686374
 31
0.0
  0
LWPOLYLINE
  5
DE2
330
1E
100
AcDbEntity
  8
STEMPEL
100
AcDbPolyline
 90
        9
 70
   128
 43
0.0
 10
335.1095701266181
 20
523.7944752488048
 10
334.6424464030386
 20
523.7273421678805
 10
333.8737087148929
 20
523.3889786761831
 10
333.1524183901153
 20
522.8364745486721
 10
332.5004914702339
 20
522.0866173436809
 10
331.9377364248182
 20
521.1621910929375
 10
331.4812522811553
 20
520.0912840202882
 10
331.1449090789585
 20
518.9064350952304
 10
331.0800248863543
 20
518.5086584098696
  0
LWPOLYLINE
  5
DE3
330
1E
100
AcDbEntity
  8
STEMPEL
100
AcDbPolyline
 90
       17
 70
   128
 43
0.0
 10
339.2057635796433
 20
516.3412840202858
 10
339.1280236783832
 20
517.7194054039103
 10
338.8974513137013
 20
519.05059651669
 10
338.5218983509362
 20
520.2895252418668
 10
338.0141537958085
 20
521.394001347636
 10
337.3915082801705
 20
522.3264132248889
 10
336.6751652502764
 20
523.0550087054502
 10
335.8895189088506
 20
523.5549763440834
 10
335.0613234997712
 20
523.8092903425001
 10
334.2187822243835
 20
523.8092903425001
 10
333.3905868153041
 20
523.5549763440834
 10
332.6049404738782
 20
523.0550087054502
 10
331.8885974439841
 20
522.3264132248889
 10
331.2659519283462
 20
521.394001347636
 10
330.7582073732185
 20
520.2895252418668
 10
330.3826544104533
 20
519.05059651669
 10
330.3463999036511
 20
518.8412840202861
  0
LINE
  5
DE4
102
{ACAD_REACTORS
330
D39
102
}
330
1E
100
AcDbEntity
  8
STEMPEL
100
AcDbLine
 10
327.3694886365717
 20
483.8412840202862
 30
0.0
 11
328.591715568783
 21
518.8412840202861
 31
0.0
  0
LWPOLYLINE
  5
DE7
330
1E
100
AcDbEntity
  8
STEMPEL
100
AcDbPolyline
 90
       16
 70
   128
 43
0.0
 10
320.1628183125707
 20
518.8412840202861
 10
320.1155705194263
 20
519.05059651669
 10
319.6261403695051
 20
520.2895252418668
 10
318.9644347823407
 20
521.394001347636
 10
318.1529873480755
 20
522.3264132248889
 10
317.2194309358598
 20
523.0550087054502
 10
316.1955566896338
 20
523.5549763440834
 10
315.116231418851
 20
523.8092903425001
 10
314.0182102510999
 20
523.8092903425001
 10
312.9388849803171
 20
523.5549763440834
 10
311.915010734091
 20
523.0550087054502
 10
310.9814543218754
 20
522.3264132248889
 10
310.1700068876102
 20
521.394001347636
 10
309.5083013004458
 20
520.2895252418668
 10
309.0188711505246
 20
519.05059651669
 10
308.9716233573802
 20
518.8412840202861
  0
LWPOLYLINE
  5
DE8
330
1E
100
AcDbEntity
  8
STEMPEL
100
AcDbPolyline
 90
        8
 70
   128
 43
0.0
 10
314.7531538195589
 20
523.8092903425001
 10
313.7559103375238
 20
523.6241109617024
 10
312.6906310857815
 20
523.1548562342486
 10
311.7147961027431
 20
522.44053199708
 10
310.8635040698852
 20
521.5068309536836
 10
310.1673741271488
 20
520.3873363185232
 10
309.6514445684574
 20
519.1223139011845
 10
309.586146675168
 20
518.8412840202861
  0
ARC
  5
DE9
102
{ACAD_REACTORS
330
D39
102
}
330
1E
100
AcDbEntity
  8
STEMPEL
100
AcDbCircle
 10
330.6088711813795
 20
518.3412840202861
 30
0.0
 40
0.5
100
AcDbArc
 50
2.000000000000414
 51
90.0
  0
LWPOLYLINE
  5
DEA
330
1E
100
AcDbEntity
  8
STEMPEL
100
AcDbPolyline
 90
        7
 70
   128
 43
0.0
 10
-358.8161464094449
 20
504.841284020288
 10
-358.1394445343676
 20
505.4508847481471
 10
-357.5398951107335
 20
506.1784438320587
 10
-357.0336064375839
 20
507.0044136937389
 10
-356.6341811455383
 20
507.906602718942
 10
-356.3523507302754
 20
508.8607714871357
 10
-356.195687225774
 20
509.8412840202881
210
0.0
220
0.0
230
-1.0
  0
LWPOLYLINE
  5
DEB
330
1E
100
AcDbEntity
  8
STEMPEL
100
AcDbPolyline
 90
       10
 70
   128
 43
0.0
 10
-360.707897243267
 20
503.8412840202876
 10
-359.8498242469943
 20
503.9074112348602
 10
-358.997012047372
 20
504.1599649845904
 10
-358.176253740455
 20
504.591010700908
 10
-357.413335374056
 20
505.1870060713479
 10
-356.7322258185569
 20
505.9292265030686
 10
-356.1543237286111
 20
506.794353399866
 10
-355.6977852542049
 20
507.7552067705821
 10
-355.3769536226074
 20
508.7815991522942
 10
-355.2019085122362
 20
509.8412840202869
210
0.0
220
0.0
230
-1.0
  0
LWPOLYLINE
  5
DEC
330
1E
100
AcDbEntity
  8
STEMPEL
100
AcDbPolyline
 90
       10
 70
   128
 43
0.0
 10
-362.6657901265675
 20
503.8412840202887
 10
-361.8077171302947
 20
503.9074112348614
 10
-360.9549049306725
 20
504.1599649845916
 10
-360.1341466237555
 20
504.5910107009091
 10
-359.3712282573565
 20
505.1870060713491
 10
-358.6901187018573
 20
505.9292265030697
 10
-358.1122166119116
 20
506.7943533998671
 10
-357.6556781375054
 20
507.7552067705832
 10
-357.3348465059078
 20
508.7815991522954
 10
-357.1598013955367
 20
509.8412840202881
210
0.0
220
0.0
230
-1.0
  0
LWPOLYLINE
  5
DED
330
1E
100
AcDbEntity
  8
STEMPEL
100
AcDbPolyline
 90
       10
 70
   128
 43
0.0
 10
-356.5191787753768
 20
503.8412840202876
 10
-355.6829995005352
 20
503.9324375022143
 10
-354.8722271098327
 20
504.2031282955721
 10
-354.1114965120898
 20
504.645131597581
 10
-353.423922121571
 20
505.2450173615738
 10
-352.8303955382026
 20
505.9845583621686
 10
-352.3489507668814
 20
506.8412840202878
 10
-351.994216263361
 20
507.7891631603338
 10
-351.7769704560269
 20
508.7993949542863
 10
-351.7038142488029
 20
509.8412840202881
210
0.0
220
0.0
230
-1.0
  0
LWPOLYLINE
  5
DEE
330
1E
100
AcDbEntity
  8
STEMPEL
100
AcDbPolyline
 90
       10
 70
   128
 43
0.0
 10
-350.7789272898991
 20
503.8412840202876
 10
-349.9427480150575
 20
503.9324375022143
 10
-349.1319756243549
 20
504.2031282955721
 10
-348.371245026612
 20
504.645131597581
 10
-347.6836706360933
 20
505.2450173615738
 10
-347.0901440527248
 20
505.9845583621686
 10
-346.6086992814036
 20
506.8412840202878
 10
-346.2539647778833
 20
507.7891631603338
 10
-346.0367189705491
 20
508.7993949542863
 10
-345.9635627633251
 20
509.8412840202881
210
0.0
220
0.0
230
-1.0
  0
LWPOLYLINE
  5
DEF
330
1E
100
AcDbEntity
  8
STEMPEL
100
AcDbPolyline
 90
        7
 70
   128
 43
0.0
 10
-349.043188732501
 20
504.8412840202876
 10
-348.4230982094368
 20
505.4506219221284
 10
-347.8912780626533
 20
506.1780521954177
 10
-347.462032262922
 20
507.0040096893613
 10
-347.1469059151247
 20
507.9062792398237
 10
-346.9543747381588
 20
508.8605931740668
 10
-346.8896170998325
 20
509.8412840202881
210
0.0
220
0.0
230
-1.0
  0
LWPOLYLINE
  5
DF0
330
1E
100
AcDbEntity
  8
STEMPEL
100
AcDbPolyline
 90
       10
 70
   128
 43
0.0
 10
-343.5694697542493
 20
503.8412840202876
 10
-342.811720129155
 20
503.9324375022143
 10
-342.0769943429795
 20
504.2031282955721
 10
-341.3876166669464
 20
504.645131597581
 10
-340.7645334929
 20
505.2450173615738
 10
-340.2266768877885
 20
505.9845583621686
 10
-339.7903893523896
 20
506.8412840202878
 10
-339.4689272626943
 20
507.7891631603338
 10
-339.2720580816303
 20
508.7993949542863
 10
-339.2057635796435
 20
509.8412840202881
210
0.0
220
0.0
230
-1.0
  0
LINE
  5
DF1
102
{ACAD_REACTORS
330
D39
102
}
330
1E
100
AcDbEntity
  8
MITTEL
100
AcDbLine
 10
351.8439962778358
 20
507.8412840202867
 30
0.0
 11
351.8439962778358
 21
477.8412840202868
 31
0.0
  0
ARC
  5
DF2
330
1E
100
AcDbEntity
  8
STEMPEL
100
AcDbCircle
 10
363.3694886365717
 20
509.8412840202867
 30
0.0
 40
5.0
100
AcDbArc
 50
180.0
 51
269.9999999999984
  0
ARC
  5
DF3
330
1E
100
AcDbEntity
  8
STEMPEL
100
AcDbCircle
 10
363.3694886365717
 20
509.8412840202867
 30
0.0
 40
6.0
100
AcDbArc
 50
180.0
 51
269.9999999999984
  0
LINE
  5
DF4
102
{ACAD_REACTORS
330
D39
102
}
330
1E
100
AcDbEntity
  8
STEMPEL
100
AcDbLine
 10
333.0701066588505
 20
489.8412840202863
 30
0.0
 11
357.7116314119984
 21
489.8412840202863
 31
0.0
  0
LINE
  5
DF5
330
1E
100
AcDbEntity
  8
STEMPEL
100
AcDbLine
 10
356.8439962778358
 20
501.8412840202868
 30
0.0
 11
346.8439962778358
 21
501.8412840202868
 31
0.0
  0
LINE
  5
DF6
330
1E
100
AcDbEntity
  8
STEMPEL
100
AcDbLine
 10
347.8439962778358
 20
502.8412840202867
 30
0.0
 11
355.8439962778358
 21
502.8412840202867
 31
0.0
  0
LINE
  5
DFD
330
1E
100
AcDbEntity
  8
STEMPEL
100
AcDbLine
 10
341.1573404081618
 20
504.8412840202876
 30
0.0
 11
332.8211398598499
 21
504.8412840202876
 31
0.0
  0
ARC
  5
DFE
102
{ACAD_REACTORS
330
D39
102
}
330
1E
100
AcDbEntity
  8
STEMPEL
100
AcDbCircle
 10
333.0701066588505
 20
490.8412840202863
 30
0.0
 40
1.0
100
AcDbArc
 50
182.0000000000004
 51
270.0
  0
LWPOLYLINE
  5
DFF
330
1E
100
AcDbEntity
  8
STEMPEL
100
AcDbPolyline
 90
        2
 70
   128
 43
0.0
 10
-332.8211398598506
 20
504.8412840202876
 10
-331.5317822747454
 20
506.2394223669667
210
0.0
220
0.0
230
-1.0
  0
LWPOLYLINE
  5
E00
330
1E
100
AcDbEntity
  8
STEMPEL
100
AcDbPolyline
 90
        4
 70
   128
 43
0.0
 10
-334.4380483191174
 20
503.8412840202876
 10
-333.6802986940232
 20
503.9324375022143
 10
-332.9455729078476
 20
504.2031282955721
 10
-331.572140213543
 20
505.0837222095828
210
0.0
220
0.0
230
-1.0
  0
LINE
  5
E06
330
1E
100
AcDbEntity
  8
HILF
100
AcDbLine
 10
347.8439962778358
 20
502.8412840202867
 30
0.0
 11
347.8439962778359
 21
499.8412840202862
 31
0.0
  0
LINE
  5
E07
330
1E
100
AcDbEntity
  8
STEMPEL
100
AcDbLine
 10
346.8439962778358
 20
501.8412840202867
 30
0.0
 11
346.8439962778358
 21
499.8412840202862
 31
0.0
  0
LINE
  5
E08
330
1E
100
AcDbEntity
  8
STEMPEL
100
AcDbLine
 10
346.8439962778358
 20
501.8412840202867
 30
0.0
 11
347.8439962778358
 21
502.8412840202867
 31
0.0
  0
LINE
  5
E0B
330
1E
100
AcDbEntity
  8
STEMPEL
100
AcDbLine
 10
355.8439962778358
 20
502.8412840202867
 30
0.0
 11
356.8439962778358
 21
501.8412840202867
 31
0.0
  0
LINE
  5
E0C
330
1E
100
AcDbEntity
  8
STEMPEL
100
AcDbLine
 10
353.8573858814714
 20
504.8412840202876
 30
0.0
 11
349.0431887325
 21
504.8412840202876
 31
0.0
  0
LINE
  5
E0D
330
1E
100
AcDbEntity
  8
HILF
100
AcDbLine
 10
355.8439962778358
 20
502.8412840202867
 30
0.0
 11
355.8439962778358
 21
499.8412840202862
 31
0.0
  0
LINE
  5
E0E
102
{ACAD_REACTORS
330
D39
102
}
330
1E
100
AcDbEntity
  8
STEMPEL
100
AcDbLine
 10
362.7108698877803
 20
494.7540219881
 30
0.0
 11
362.8694886365716
 21
503.8412840202861
 31
0.0
  0
ARC
  5
E11
102
{ACAD_REACTORS
330
D39
102
}
330
1E
100
AcDbEntity
  8
STEMPEL
100
AcDbCircle
 10
357.7116314119984
 20
494.8412840202863
 30
0.0
 40
5.0
100
AcDbArc
 50
270.0
 51
359.0000000000015
  0
LINE
  5
E14
330
1E
100
AcDbEntity
  8
STEMPEL
100
AcDbLine
 10
359.7802605792073
 20
504.8412840202876
 30
0.0
 11
358.8161464094447
 21
504.8412840202876
 31
0.0
  0
LINE
  5
E15
330
1E
100
AcDbEntity
  8
STEMPEL
100
AcDbLine
 10
356.8439962778358
 20
501.8412840202867
 30
0.0
 11
356.8439962778358
 21
499.8412840202862
 31
0.0
  0
LWPOLYLINE
  5
E16
330
1E
100
AcDbEntity
  8
STEMPEL
100
AcDbPolyline
 90
        9
 70
   128
 43
0.0
 10
349.2967156743161
 20
523.7430422649508
 10
348.8076551310473
 20
523.4166093671935
 10
348.3480421631463
 20
522.8713403539362
 10
347.9320923595221
 20
522.1241001108082
 10
347.5726708302305
 20
521.1980003880308
 10
347.280894295343
 20
520.1216849660604
 10
347.0657872506048
 20
518.9284437184296
 10
346.9340028444973
 20
517.6551829733536
 10
346.8896170998325
 20
516.3412840202873
  0
LWPOLYLINE
  5
E17
330
1E
100
AcDbEntity
  8
STEMPEL
100
AcDbPolyline
 90
       18
 70
   128
 43
0.0
 10
351.7038142488029
 20
516.3412840202858
 10
351.6549449038866
 20
517.7194054039103
 10
351.5100010560666
 20
519.05059651669
 10
351.2739185942393
 20
520.2895252418668
 10
350.9547370234927
 20
521.394001347636
 10
350.5633256894022
 20
522.3264132248889
 10
350.1130136355043
 20
523.0550087054502
 10
349.6191356987048
 20
523.5549763440834
 10
349.0985102997999
 20
523.8092903425001
 10
348.5688667123281
 20
523.8092903425001
 10
348.0482413134232
 20
523.5549763440834
 10
347.5543633766237
 20
523.0550087054502
 10
347.1040513227257
 20
522.3264132248889
 10
346.7126399886353
 20
521.394001347636
 10
346.3934584178887
 20
520.2895252418668
 10
346.1573759560615
 20
519.05059651669
 10
346.0124321082414
 20
517.7194054039103
 10
345.9635627633251
 20
516.3412840202858
  0
ELLIPSE
  5
E18
330
1E
100
AcDbEntity
  8
STEMPEL
100
AcDbEllipse
 10
343.4105981629238
 20
536.3412840202893
 30
0.0
 11
0.0
 21
-7.499999999999999
 31
0.0
210
0.0
220
0.0
230
1.0
 40
0.4999999999999926
 41
4.712388980384689
 42
6.167183451052224
  0
ELLIPSE
  5
E19
330
1E
100
AcDbEntity
  8
STEMPEL
100
AcDbEllipse
 10
342.5425341432351
 20
536.3412840202893
 30
0.0
 11
0.0
 21
-7.499999999999999
 31
0.0
210
0.0
220
0.0
230
1.0
 40
0.4999999999999926
 41
4.712388980384689
 42
7.853981633974482
  0
LINE
  5
E1A
330
1E
100
AcDbEntity
  8
STEMPEL
100
AcDbLine
 10
339.2057635796434
 20
516.3412840202858
 30
0.0
 11
339.2057635796434
 21
509.8412840202891
 31
0.0
  0
LINE
  5
E1B
330
1E
100
AcDbEntity
  8
STEMPEL
100
AcDbLine
 10
345.9635627633251
 20
516.3412840202858
 30
0.0
 11
345.9635627633251
 21
509.8412840202891
 31
0.0
  0
LINE
  5
E1C
330
1E
100
AcDbEntity
  8
STEMPEL
100
AcDbLine
 10
346.8896170998324
 20
516.3412840202858
 30
0.0
 11
346.8896170998324
 21
509.8412840202891
 31
0.0
  0
LWPOLYLINE
  5
E1D
330
1E
100
AcDbEntity
  8
STEMPEL
100
AcDbPolyline
 90
       18
 70
   128
 43
0.0
 10
357.1598013955367
 20
516.3412840202858
 10
357.1431329720598
 20
517.7194054039103
 10
357.0936953247995
 20
519.05059651669
 10
357.0131719935391
 20
520.2895252418668
 10
356.9043051037474
 20
521.394001347636
 10
356.7708019867851
 20
522.3264132248889
 10
356.617208931181
 20
523.0550087054502
 10
356.4487563642289
 20
523.5549763440834
 10
356.27118073606
 20
523.8092903425001
 10
356.0905291717129
 20
523.8092903425001
 10
355.912953543544
 20
523.5549763440834
 10
355.744500976592
 20
523.0550087054502
 10
355.5909079209878
 20
522.3264132248889
 10
355.4574048040255
 20
521.394001347636
 10
355.3485379142339
 20
520.2895252418668
 10
355.2680145829734
 20
519.05059651669
 10
355.2185769357131
 20
517.7194054039103
 10
355.2019085122362
 20
516.3412840202858
  0
LINE
  5
E1E
330
1E
100
AcDbEntity
  8
STEMPEL
100
AcDbLine
 10
351.7038142488029
 20
516.3412840202858
 30
0.0
 11
351.7038142488029
 21
509.8412840202891
 31
0.0
  0
LINE
  5
E1F
330
1E
100
AcDbEntity
  8
STEMPEL
100
AcDbLine
 10
355.2019085122362
 20
516.3412840202858
 30
0.0
 11
355.2019085122362
 21
509.8412840202869
 31
0.0
  0
LWPOLYLINE
  5
E20
330
1E
100
AcDbEntity
  8
STEMPEL
100
AcDbPolyline
 90
        7
 70
   128
 43
0.0
 10
356.6777443106555
 20
522.8033380761255
 10
356.5399153010853
 20
522.051231839187
 10
356.4210510241191
 20
521.1285182284723
 10
356.3247030222179
 20
520.0627669785681
 10
356.2537500746798
 20
518.8858216417469
 10
356.2103121826718
 20
517.632848135345
 10
356.1956872257742
 20
516.3412840202858
  0
LINE
  5
E21
330
1E
100
AcDbEntity
  8
STEMPEL
100
AcDbLine
 10
357.1598013955367
 20
516.3412840202858
 30
0.0
 11
357.1598013955367
 21
509.8412840202881
 31
0.0
  0
LINE
  5
E22
330
1E
100
AcDbEntity
  8
STEMPEL
100
AcDbLine
 10
356.1956872257741
 20
516.3412840202858
 30
0.0
 11
356.1956872257741
 21
509.8412840202881
 31
0.0
  0
LINE
  5
E23
330
1E
100
AcDbEntity
  8
STEMPEL
100
AcDbLine
 10
358.3694886365717
 20
528.8412840202875
 30
0.0
 11
357.3694886365717
 21
528.8412840202875
 31
0.0
  0
ELLIPSE
  5
E24
330
1E
100
AcDbEntity
  8
STEMPEL
100
AcDbEllipse
 10
303.241498805693
 20
561.3412840202877
 30
0.0
 11
0.0
 21
7.5
 31
0.0
210
0.0
220
0.0
230
-1.0
 40
0.8660254037843856
 41
4.712388980384689
 42
6.24459510668465
  0
ELLIPSE
  5
E25
330
1E
100
AcDbEntity
  8
STEMPEL
100
AcDbEllipse
 10
302.740321810251
 20
561.3412840202877
 30
0.0
 11
0.0
 21
7.5
 31
0.0
210
0.0
220
0.0
230
-1.0
 40
0.8660254037843856
 41
4.712388980384689
 42
7.853981633974482
  0
LINE
  5
E26
330
1E
100
AcDbEntity
  8
STEMPEL
100
AcDbLine
 10
273.8090032316285
 20
593.8412840202857
 30
0.0
 11
328.3694886365719
 21
593.8412840202861
 31
0.0
  0
LINE
  5
E27
330
1E
100
AcDbEntity
  8
STEMPEL
100
AcDbLine
 10
261.959003231628
 20
593.8412840202857
 30
0.0
 11
268.412850808922
 21
593.8412840202857
 31
0.0
  0
LINE
  5
E28
330
1E
100
AcDbEntity
  8
STEMPEL
100
AcDbLine
 10
261.959003231628
 20
593.8412840202857
 30
0.0
 11
268.412850808922
 21
593.8412840202857
 31
0.0
  0
ARC
  5
E2A
330
1E
100
AcDbEntity
  8
STEMPEL
100
AcDbCircle
 10
248.3694886365719
 20
561.3412840202877
 30
0.0
 40
7.5
100
AcDbArc
 50
0.0000000000260551
 51
180.000000000013
  0
LINE
  5
E2B
330
1E
100
AcDbEntity
  8
STEMPEL
100
AcDbLine
 10
245.0109270202744
 20
594.3412840202856
 30
0.0
 11
255.099194481468
 21
594.3412840202856
 31
0.0
  0
LINE
  5
E2C
330
1E
100
AcDbEntity
  8
STEMPEL
100
AcDbLine
 10
235.9590032316274
 20
593.8412840202857
 30
0.0
 11
242.4128508089217
 21
593.8412840202857
 31
0.0
  0
LINE
  5
E2D
330
1E
100
AcDbEntity
  8
STEMPEL
100
AcDbLine
 10
235.9590032316274
 20
593.8412840202857
 30
0.0
 11
242.4128508089217
 21
593.8412840202857
 31
0.0
  0
ARC
  5
E2E
330
1E
100
AcDbEntity
  8
STEMPEL
100
AcDbCircle
 10
235.9590032316274
 20
595.3412840202856
 30
0.0
 40
2.5
100
AcDbArc
 50
209.9999999999997
 51
270.0
  0
ARC
  5
E2F
330
1E
100
AcDbEntity
  8
STEMPEL
100
AcDbCircle
 10
235.9590032316274
 20
595.3412840202856
 30
0.0
 40
1.5
100
AcDbArc
 50
209.9999999999997
 51
270.0
  0
LINE
  5
E30
330
1E
100
AcDbEntity
  8
STEMPEL
100
AcDbLine
 10
233.1609270202745
 20
594.3412840202856
 30
0.0
 11
233.3609270202745
 21
594.3412840202856
 31
0.0
  0
ARC
  5
E31
330
1E
100
AcDbEntity
  8
STEMPEL
100
AcDbCircle
 10
233.3609270202745
 20
593.8412840202857
 30
0.0
 40
0.5
100
AcDbArc
 50
30.00000000000337
 51
90.0
  0
ARC
  5
E32
330
1E
100
AcDbEntity
  8
STEMPEL
100
AcDbCircle
 10
233.3609270202745
 20
593.8412840202857
 30
0.0
 40
1.5
100
AcDbArc
 50
30.00000000000337
 51
90.0
  0
ARC
  5
E33
330
1E
100
AcDbEntity
  8
STEMPEL
100
AcDbCircle
 10
245.0109270202744
 20
593.8412840202857
 30
0.0
 40
0.5
100
AcDbArc
 50
90.0
 51
149.9999999999958
  0
ARC
  5
E34
330
1E
100
AcDbEntity
  8
STEMPEL
100
AcDbCircle
 10
242.4128508089217
 20
595.3412840202856
 30
0.0
 40
1.5
100
AcDbArc
 50
270.0
 51
329.9999999999958
  0
ARC
  5
E35
330
1E
100
AcDbEntity
  8
STEMPEL
100
AcDbCircle
 10
242.4128508089217
 20
595.3412840202856
 30
0.0
 40
2.5
100
AcDbArc
 50
270.0
 51
329.9999999999958
  0
ARC
  5
E36
330
1E
100
AcDbEntity
  8
STEMPEL
100
AcDbCircle
 10
245.0109270202744
 20
593.8412840202857
 30
0.0
 40
1.5
100
AcDbArc
 50
90.0
 51
149.9999999999958
  0
ARC
  5
E37
330
1E
100
AcDbEntity
  8
STEMPEL
100
AcDbCircle
 10
257.2244353471705
 20
594.3412840202856
 30
0.0
 40
1.5
100
AcDbArc
 50
270.0
 51
345.5224878140733
  0
ARC
  5
E38
330
1E
100
AcDbEntity
  8
STEMPEL
100
AcDbCircle
 10
259.1609270202745
 20
593.8412840202857
 30
0.0
 40
1.5
100
AcDbArc
 50
90.0
 51
165.5224878140733
  0
ARC
  5
E39
330
1E
100
AcDbEntity
  8
STEMPEL
100
AcDbCircle
 10
257.2244353471705
 20
594.3412840202856
 30
0.0
 40
0.5
100
AcDbArc
 50
270.0
 51
345.5224878140733
  0
LINE
  5
E3A
330
1E
100
AcDbEntity
  8
STEMPEL
100
AcDbLine
 10
257.0356861545713
 20
593.8412840202857
 30
0.0
 11
257.2244353471705
 21
593.8412840202857
 31
0.0
  0
ARC
  5
E3B
330
1E
100
AcDbEntity
  8
STEMPEL
100
AcDbCircle
 10
255.099194481468
 20
593.8412840202857
 30
0.0
 40
0.5
100
AcDbArc
 50
14.47751218592986
 51
90.0
  0
ARC
  5
E3C
330
1E
100
AcDbEntity
  8
STEMPEL
100
AcDbCircle
 10
257.0356861545713
 20
594.3412840202856
 30
0.0
 40
1.5
100
AcDbArc
 50
194.4775121859299
 51
270.0
  0
ARC
  5
E3D
330
1E
100
AcDbEntity
  8
STEMPEL
100
AcDbCircle
 10
257.0356861545713
 20
594.3412840202856
 30
0.0
 40
0.5
100
AcDbArc
 50
194.4775121859299
 51
270.0
  0
ARC
  5
E3E
330
1E
100
AcDbEntity
  8
STEMPEL
100
AcDbCircle
 10
255.099194481468
 20
593.8412840202857
 30
0.0
 40
1.5
100
AcDbArc
 50
14.47751218592986
 51
90.0
  0
ARC
  5
E3F
330
1E
100
AcDbEntity
  8
STEMPEL
100
AcDbCircle
 10
261.959003231628
 20
595.3412840202856
 30
0.0
 40
2.5
100
AcDbArc
 50
209.9999999999961
 51
270.0
  0
ARC
  5
E40
330
1E
100
AcDbEntity
  8
STEMPEL
100
AcDbCircle
 10
261.959003231628
 20
595.3412840202856
 30
0.0
 40
1.5
100
AcDbArc
 50
209.9999999999961
 51
270.0
  0
ARC
  5
E41
330
1E
100
AcDbEntity
  8
STEMPEL
100
AcDbCircle
 10
259.3609270202745
 20
593.8412840202857
 30
0.0
 40
1.5
100
AcDbArc
 50
29.99999999999609
 51
90.0
  0
ARC
  5
E42
330
1E
100
AcDbEntity
  8
STEMPEL
100
AcDbCircle
 10
259.1609270202745
 20
593.8412840202857
 30
0.0
 40
0.5
100
AcDbArc
 50
90.0
 51
165.5224878140733
  0
LINE
  5
E43
330
1E
100
AcDbEntity
  8
STEMPEL
100
AcDbLine
 10
259.1609270202745
 20
594.3412840202856
 30
0.0
 11
259.3609270202745
 21
594.3412840202856
 31
0.0
  0
ARC
  5
E44
330
1E
100
AcDbEntity
  8
STEMPEL
100
AcDbCircle
 10
259.3609270202745
 20
593.8412840202857
 30
0.0
 40
0.5
100
AcDbArc
 50
29.99999999999609
 51
90.0
  0
ARC
  5
E45
330
1E
100
AcDbEntity
  8
STEMPEL
100
AcDbCircle
 10
271.0109270202744
 20
593.8412840202857
 30
0.0
 40
1.5
100
AcDbArc
 50
90.0
 51
149.9999999999922
  0
ARC
  5
E46
330
1E
100
AcDbEntity
  8
STEMPEL
100
AcDbCircle
 10
268.412850808922
 20
595.3412840202856
 30
0.0
 40
2.5
100
AcDbArc
 50
270.0
 51
329.9999999999922
  0
ARC
  5
E47
330
1E
100
AcDbEntity
  8
STEMPEL
100
AcDbCircle
 10
268.412850808922
 20
595.3412840202856
 30
0.0
 40
1.5
100
AcDbArc
 50
270.0
 51
329.9999999999922
  0
ARC
  5
E48
330
1E
100
AcDbEntity
  8
STEMPEL
100
AcDbCircle
 10
271.0109270202744
 20
593.8412840202857
 30
0.0
 40
0.5
100
AcDbArc
 50
90.0
 51
149.9999999999922
  0
LINE
  5
E49
330
1E
100
AcDbEntity
  8
STEMPEL
100
AcDbLine
 10
271.0109270202744
 20
594.3412840202856
 30
0.0
 11
271.2109270202744
 21
594.3412840202856
 31
0.0
  0
ARC
  5
E4A
330
1E
100
AcDbEntity
  8
STEMPEL
100
AcDbCircle
 10
271.2109270202744
 20
593.8412840202857
 30
0.0
 40
0.5
100
AcDbArc
 50
29.99999999999246
 51
90.0
  0
ARC
  5
E4B
330
1E
100
AcDbEntity
  8
STEMPEL
100
AcDbCircle
 10
271.2109270202744
 20
593.8412840202857
 30
0.0
 40
1.5
100
AcDbArc
 50
29.99999999999246
 51
90.0
  0
ARC
  5
E4C
330
1E
100
AcDbEntity
  8
STEMPEL
100
AcDbCircle
 10
273.8090032316285
 20
595.3412840202856
 30
0.0
 40
2.5
100
AcDbArc
 50
209.9999999999925
 51
270.0
  0
ARC
  5
E4D
330
1E
100
AcDbEntity
  8
STEMPEL
100
AcDbCircle
 10
273.8090032316285
 20
595.3412840202856
 30
0.0
 40
1.5
100
AcDbArc
 50
209.9999999999925
 51
270.0
  0
ARC
  5
E4E
330
1E
100
AcDbEntity
  8
STEMPEL
100
AcDbCircle
 10
328.3694886365719
 20
587.8412840202856
 30
0.0
 40
6.0
100
AcDbArc
 50
59.48712567238195
 51
90.0
  0
LINE
  5
E4F
330
1E
100
AcDbEntity
  8
STEMPEL
100
AcDbLine
 10
354.8888422046989
 20
578.1601214671668
 30
0.0
 11
330.9099883117477
 21
592.1477746333523
 31
0.0
  0
LINE
  5
E50
330
1E
100
AcDbEntity
  8
STEMPEL
100
AcDbLine
 10
355.4021832582797
 20
579.0183645803295
 30
0.0
 11
331.4158803828128
 21
593.010374591018
 31
0.0
  0
ARC
  5
E51
330
1E
100
AcDbEntity
  8
STEMPEL
100
AcDbCircle
 10
328.3694886365719
 20
587.8412840202856
 30
0.0
 40
6.0
100
AcDbArc
 50
90.0
 51
90.0
  0
ARC
  5
E52
330
1E
100
AcDbEntity
  8
STEMPEL
100
AcDbCircle
 10
328.3694886365719
 20
587.8412840202856
 30
0.0
 40
5.0
100
AcDbArc
 50
59.46264995169952
 51
90.0
  0
ELLIPSE
  5
E53
330
1E
100
AcDbEntity
  8
STEMPEL
100
AcDbEllipse
 10
342.5425341432351
 20
561.3412840202877
 30
0.0
 11
0.0
 21
7.499999999999999
 31
0.0
210
0.0
220
0.0
230
-1.0
 40
0.4999999999999926
 41
4.712388980384689
 42
7.853981633974482
  0
ELLIPSE
  5
E54
330
1E
100
AcDbEntity
  8
STEMPEL
100
AcDbEllipse
 10
343.4105981629238
 20
561.3412840202877
 30
0.0
 11
0.0
 21
7.499999999999999
 31
0.0
210
0.0
220
0.0
230
-1.0
 40
0.4999999999999926
 41
4.712388980384689
 42
6.167183451052224
  0
ARC
  5
E55
330
1E
100
AcDbEntity
  8
STEMPEL
100
AcDbCircle
 10
352.3694886365718
 20
573.8412260529705
 30
0.0
 40
5.0
100
AcDbArc
 50
0.0
 51
59.74358352518418
  0
ARC
  5
E56
330
1E
100
AcDbEntity
  8
STEMPEL
100
AcDbCircle
 10
352.3694886365718
 20
573.8412260529705
 30
0.0
 40
6.0
100
AcDbArc
 50
0.0
 51
59.74358352518418
  0
LINE
  5
E57
330
1E
100
AcDbEntity
  8
STEMPEL
100
AcDbLine
 10
358.3694886365717
 20
568.8412840202874
 30
0.0
 11
357.3694886365717
 21
568.8412840202874
 31
0.0
  0
ARC
  5
E58
330
1E
100
AcDbEntity
  8
STEMPEL
100
AcDbCircle
 10
357.8806322408834
 20
583.3611210027479
 30
0.0
 40
5.0
100
AcDbArc
 50
239.7435628364698
 51
239.9329541615142
  0
LINE
  5
E59
330
1E
100
AcDbEntity
  8
STEMPEL
100
AcDbLine
 10
375.8904931458702
 20
510.0590368094833
 30
0.0
 11
375.8904931458702
 21
506.4412840202865
 31
0.0
  0
LINE
  5
E5A
330
1E
100
AcDbEntity
  8
STEMPEL
100
AcDbLine
 10
373.1299908912209
 20
510.035376437359
 30
0.0
 11
373.1299908912207
 21
506.4412840202865
 31
0.0
  0
LINE
  5
E5B
330
1E
100
AcDbEntity
  8
STEMPEL
100
AcDbLine
 10
367.6089863819222
 20
510.035376437359
 30
0.0
 11
367.6089863819222
 21
506.4412840202865
 31
0.0
  0
LINE
  5
E5C
330
1E
100
AcDbEntity
  8
MITTEL
100
AcDbLine
 10
370.3694886365716
 20
483.8412840202861
 30
0.0
 11
370.3694886365717
 21
515.5090273546863
 31
0.0
  0
LINE
  5
E5D
330
1E
100
AcDbEntity
  8
STEMPEL
100
AcDbLine
 10
364.8484841272729
 20
510.0590368094834
 30
0.0
 11
364.8484841272729
 21
506.4412840202865
 31
0.0
  0
ARC
  5
E5E
102
{ACAD_REACTORS
330
D39
102
}
330
1E
100
AcDbEntity
  8
STEMPEL
100
AcDbCircle
 10
383.0273458611451
 20
494.8412840202861
 30
0.0
 40
4.99999999999995
100
AcDbArc
 50
181.0000000000017
 51
270.0
  0
LINE
  5
E5F
330
1E
100
AcDbEntity
  8
STEMPEL
100
AcDbLine
 10
368.0194886365714
 20
495.7912840202864
 30
0.0
 11
372.7194886365717
 21
495.7912840202864
 31
0.0
  0
LINE
  5
E60
330
1E
100
AcDbEntity
  8
STEMPEL
100
AcDbLine
 10
367.3694886365717
 20
496.4412840202864
 30
0.0
 11
373.3694886365718
 21
496.4412840202864
 31
0.0
  0
LINE
  5
E61
330
1E
100
AcDbEntity
  8
STEMPEL
100
AcDbLine
 10
364.3694886365714
 20
506.4412840202865
 30
0.0
 11
376.3694886365714
 21
506.4412840202863
 31
0.0
  0
LINE
  5
E62
330
1E
100
AcDbEntity
  8
STEMPEL
100
AcDbLine
 10
376.3694886365716
 20
504.8412840202861
 30
0.0
 11
364.3694886365714
 21
504.8412840202866
 31
0.0
  0
LINE
  5
E63
102
{ACAD_REACTORS
330
D39
102
}
330
1E
100
AcDbEntity
  8
STEMPEL
100
AcDbLine
 10
368.0194886365723
 20
495.7912840202859
 30
0.0
 11
368.0194886365719
 21
483.841284020286
 31
0.0
  0
LINE
  5
E64
102
{ACAD_REACTORS
330
D39
102
}
330
1E
100
AcDbEntity
  8
HILF
100
AcDbLine
 10
367.3694886365717
 20
496.4412840202864
 30
0.0
 11
367.3694886365711
 21
483.8412840202861
 31
0.0
  0
LINE
  5
E65
330
1E
100
AcDbEntity
  8
HILF
100
AcDbLine
 10
368.0194886365709
 20
495.7912840202864
 30
0.0
 11
368.0194886365707
 21
504.8412840202864
 31
0.0
  0
LINE
  5
E66
330
1E
100
AcDbEntity
  8
STEMPEL
100
AcDbLine
 10
366.3694886365716
 20
504.8412840202866
 30
0.0
 11
366.3694886365716
 21
503.8412840202862
 31
0.0
  0
LINE
  5
E67
102
{ACAD_REACTORS
330
D39
102
}
330
1E
100
AcDbEntity
  8
STEMPEL
100
AcDbLine
 10
367.3694886365714
 20
504.8412840202864
 30
0.0
 11
367.3694886365717
 21
496.4412840202864
 31
0.0
  0
LINE
  5
E68
330
1E
100
AcDbEntity
  8
STEMPEL
100
AcDbLine
 10
364.3694886365714
 20
506.4412840202865
 30
0.0
 11
364.3694886365714
 21
504.8412840202864
 31
0.0
  0
LINE
  5
E69
102
{ACAD_REACTORS
330
D39
102
}
330
1E
100
AcDbEntity
  8
STEMPEL
100
AcDbLine
 10
367.3694886365717
 20
496.4412840202864
 30
0.0
 11
368.0194886365714
 21
495.7912840202864
 31
0.0
  0
LINE
  5
E6A
102
{ACAD_REACTORS
330
D39
102
}
330
1E
100
AcDbEntity
  8
STEMPEL
100
AcDbLine
 10
377.8694886365716
 20
503.8412840202862
 30
0.0
 11
378.0281073853632
 21
494.7540219880997
 31
0.0
  0
LINE
  5
E6B
102
{ACAD_REACTORS
330
D39
102
}
330
1E
100
AcDbEntity
  8
STEMPEL
100
AcDbLine
 10
372.7194886365712
 20
495.7912840202859
 30
0.0
 11
372.7194886365716
 21
483.841284020286
 31
0.0
  0
LINE
  5
E6C
102
{ACAD_REACTORS
330
D39
102
}
330
1E
100
AcDbEntity
  8
HILF
100
AcDbLine
 10
373.3694886365718
 20
496.4412840202864
 30
0.0
 11
373.3694886365725
 21
483.8412840202861
 31
0.0
  0
LINE
  5
E6D
102
{ACAD_REACTORS
330
D39
102
}
330
1E
100
AcDbEntity
  8
STEMPEL
100
AcDbLine
 10
373.3694886365714
 20
503.8412840202862
 30
0.0
 11
378.3694886365718
 21
503.8412840202862
 31
0.0
  0
LINE
  5
E6E
330
1E
100
AcDbEntity
  8
STEMPEL
100
AcDbLine
 10
374.3694886365716
 20
504.8412840202861
 30
0.0
 11
374.3694886365716
 21
503.8412840202862
 31
0.0
  0
LINE
  5
E6F
102
{ACAD_REACTORS
330
D39
102
}
330
1E
100
AcDbEntity
  8
STEMPEL
100
AcDbLine
 10
372.7194886365717
 20
495.7912840202864
 30
0.0
 11
373.3694886365718
 21
496.4412840202864
 31
0.0
  0
LINE
  5
E70
330
1E
100
AcDbEntity
  8
HILF
100
AcDbLine
 10
372.7194886365712
 20
495.7912840202864
 30
0.0
 11
372.7194886365709
 21
504.8412840202861
 31
0.0
  0
LINE
  5
E71
102
{ACAD_REACTORS
330
D39
102
}
330
1E
100
AcDbEntity
  8
STEMPEL
100
AcDbLine
 10
373.3694886365714
 20
504.8412840202863
 30
0.0
 11
373.3694886365718
 21
496.4412840202864
 31
0.0
  0
LINE
  5
E72
330
1E
100
AcDbEntity
  8
STEMPEL
100
AcDbLine
 10
376.3694886365714
 20
506.4412840202863
 30
0.0
 11
376.3694886365714
 21
504.8412840202864
 31
0.0
  0
LINE
  5
E73
330
1E
100
AcDbEntity
  8
STEMPEL
100
AcDbLine
 10
378.3694886365716
 20
504.8412840202864
 30
0.0
 11
378.3694886365716
 21
503.8412840202862
 31
0.0
  0
LINE
  5
E74
102
{ACAD_REACTORS
330
D39
102
}
330
1E
100
AcDbEntity
  8
STEMPEL
100
AcDbLine
 10
383.027345861145
 20
489.8412840202862
 30
0.0
 11
390.3694886365716
 21
489.8412840202862
 31
0.0
  0
ARC
  5
E75
102
{ACAD_REACTORS
330
D39
102
}
330
1E
100
AcDbEntity
  8
STEMPEL
100
AcDbCircle
 10
390.3694886365716
 20
486.8412840202862
 30
0.0
 40
3.000000000000028
100
AcDbArc
 50
270.0
 51
90.0
  0
ARC
  5
E76
330
1E
100
AcDbEntity
  8
STEMPEL
100
AcDbCircle
 10
370.3694886365714
 20
502.2279097610865
 30
0.0
 40
8.281117593600001
100
AcDbArc
 50
70.52782738138933
 51
109.4721726186137
  0
LINE
  5
E77
330
1E
100
AcDbEntity
  8
STEMPEL
100
AcDbLine
 10
366.2291390469456
 20
510.5090273546864
 30
0.0
 11
374.5098382256883
 21
510.5090273546864
 31
0.0
  0
LINE
  5
E78
330
1E
100
AcDbEntity
  8
STEMPEL
100
AcDbLine
 10
364.8484841272729
 20
510.0590368094834
 30
0.0
 11
365.0552422590582
 21
510.1784086725268
 31
0.0
  0
ARC
  5
E79
330
1E
100
AcDbEntity
  8
STEMPEL
100
AcDbCircle
 10
366.2287352545974
 20
508.2611290344074
 30
0.0
 40
2.247898356545996
100
AcDbArc
 50
52.11936428281976
 51
121.4691945163663
  0
LINE
  5
E7A
330
1E
100
AcDbEntity
  8
STEMPEL
100
AcDbLine
 10
375.8904931458702
 20
510.0590368094834
 30
0.0
 11
375.6837350140778
 21
510.1784086725308
 31
0.0
  0
LINE
  5
E7B
330
1E
100
AcDbEntity
  8
STEMPEL
100
AcDbLine
 10
374.5062827931862
 20
510.5090273546864
 30
0.0
 11
374.5098382261823
 21
510.5090273546864
 31
0.0
  0
ARC
  5
E7C
330
1E
100
AcDbEntity
  8
STEMPEL
100
AcDbCircle
 10
374.5102420185455
 20
508.2611290344074
 30
0.0
 40
2.247898356545996
100
AcDbArc
 50
58.53080548383258
 51
127.8806357171802
  0
DIMENSION
  5
EFF
330
1E
100
AcDbEntity
  8
BEM
100
AcDbDimension
  2
*D4
 10
398.375460061686
 20
616.6566914796687
 30
0.0
 11
248.3760277397221
 21
623.1566914796688
 31
0.0
 70
    32
  1
%%c<>
 71
     5
 42
299.9988646439279
  3
Standard
100
AcDbAlignedDimension
 13
98.37659541775819
 23
472.9626043638469
 33
0.0
 14
398.375460061686
 24
472.9495261575459
 34
0.0
100
AcDbRotatedDimension
1001
ACAD
1000
DSTYLE
1002
{
1070
    40
1040
2.0
1070
    41
1040
3.5
1070
    42
1040
1.0
1070
    43
1040
7.0
1070
    44
1040
1.0
1070
    73
1070
     0
1070
    74
1070
     0
1070
    77
1070
     1
1070
    78
1070
     8
1070
    79
1070
     2
1070
   140
1040
3.5
1070
   141
1040
1.5
1070
   146
1040
0.5142857142857144
1070
   147
1040
1.5
1070
   172
1070
     1
1070
   178
1070
     1
1070
   179
1070
     2
1070
   271
1070
     2
1070
   272
1070
     2
1070
   284
1070
     8
1070
   285
1070
     8
1070
   286
1070
     8
1002
}
  0
LINE
  5
F8A
330
1E
100
AcDbEntity
  8
HILF
100
AcDbLine
 10
199.5788104535812
 20
455.0239718072907
 30
0.0
 11
297.1601668195623
 21
455.0239718072907
 31
0.0
  0
LINE
  5
F8B
102
{ACAD_REACTORS
330
FB7
102
}
330
1E
100
AcDbEntity
  8
STEMPEL
100
AcDbLine
 10
198.2693979447791
 20
207.8412840202869
 30
0.0
 11
298.4695793283643
 21
207.8412840202865
 31
0.0
  0
LINE
  5
F8C
330
1E
100
AcDbEntity
  8
HILF
100
AcDbLine
 10
199.9694886365717
 20
215.841284020287
 30
0.0
 11
296.7694886365718
 21
215.8412840202867
 31
0.0
  0
HATCH
  5
F8D
330
1E
100
AcDbEntity
  8
SCHRAFF
100
AcDbHatch
 10
0.0
 20
0.0
 30
0.0
210
0.0
220
0.0
230
1.0
  2
_USER
 70
     0
 71
     0
 91
        1
 92
        7
 72
     1
 73
     1
 93
       11
 10
322.6623818553849
 20
477.8412840202867
 42
0.0
 10
392.2410615118256
 20
477.841284020287
 42
-0.1989123673796547
 10
394.3623818553853
 20
476.9626043638467
 42
0.0
 10
398.3623818553852
 20
472.9626043638469
 42
0.0
 10
396.2410615118256
 20
470.8412840202869
 42
0.0
 10
392.2410615118257
 20
474.8412840202869
 42
0.0
 10
322.6623818553849
 20
474.8412840202869
 42
0.1989123673796182
 10
321.2481682930121
 20
474.25549758266
 42
0.0
 10
308.833954730638
 20
461.8412840202867
 42
0.0
 10
306.7126343870784
 20
463.9626043638464
 42
0.0
 10
319.1268479494523
 20
476.3768179262195
 42
-0.1989123673796434
 97
        0
 75
     0
 76
     0
 52
45.0
 41
2.0
 77
     0
 78
     1
 53
45.0
 43
-0.8241995965270803
 44
202.5304412123031
 45
-1.414213562373094
 46
1.414213562373095
 79
     0
 47
0.4118729359136521
 98
        1
 10
333.0998157151882
 20
476.3969212402797
  0
HATCH
  5
F8E
330
1E
100
AcDbEntity
  8
SCHRAFF
100
AcDbHatch
 10
0.0
 20
0.0
 30
0.0
210
0.0
220
0.0
230
1.0
  2
_USER
 70
     0
 71
     0
 91
        1
 92
        7
 72
     1
 73
     1
 93
       11
 10
104.4979157613179
 20
477.841284020287
 42
0.1989123673796551
 10
102.3765954177582
 20
476.9626043638467
 42
0.0
 10
98.37659541775824
 20
472.962604363847
 42
0.0
 10
100.4979157613179
 20
470.8412840202869
 42
0.0
 10
104.4979157613177
 20
474.8412840202869
 42
0.0
 10
174.0765954177586
 20
474.8412840202869
 42
-0.1989123673796159
 10
175.4908089801314
 20
474.25549758266
 42
0.0
 10
187.9050225425055
 20
461.8412840202867
 42
0.0
 10
190.0263428860651
 20
463.9626043638464
 42
0.0
 10
177.6121293236911
 20
476.3768179262195
 42
0.1989123673796481
 10
174.0765954177585
 20
477.8412840202867
 42
0.0
 97
        0
 75
     0
 76
     0
 52
45.0
 41
2.0
 77
     0
 78
     1
 53
45.0
 43
-0.8241995965270803
 44
202.5304412123031
 45
-1.414213562373094
 46
1.414213562373095
 79
     0
 47
0.4118729359136521
 98
        1
 10
163.6391615579552
 20
476.3969212402797
  0
LINE
  5
F8F
330
1E
100
AcDbEntity
  8
STEMPEL
100
AcDbLine
 10
396.2410615118267
 20
470.841284020286
 30
0.0
 11
392.2410615118255
 21
474.841284020287
 31
0.0
  0
LINE
  5
F90
330
1E
100
AcDbEntity
  8
STEMPEL
100
AcDbLine
 10
398.375460061686
 20
472.9495261575459
 30
0.0
 11
396.2541397181265
 21
470.8282058139862
 31
0.0
  0
LINE
  5
F91
330
1E
100
AcDbEntity
  8
STEMPEL
100
AcDbLine
 10
398.375460061686
 20
472.9495261575459
 30
0.0
 11
394.3623818553864
 21
476.9626043638456
 31
0.0
  0
ARC
  5
F92
330
1E
100
AcDbEntity
  8
STEMPEL
100
AcDbCircle
 10
322.6623818553849
 20
472.8412840202866
 30
0.0
 40
5.0
100
AcDbArc
 50
90.0
 51
134.9999999999988
  0
ARC
  5
F93
330
1E
100
AcDbEntity
  8
STEMPEL
100
AcDbCircle
 10
322.6623818553849
 20
472.8412840202866
 30
0.0
 40
2.0
100
AcDbArc
 50
90.0
 51
134.9999999999988
  0
LINE
  5
F94
102
{ACAD_REACTORS
330
FB6
102
}
330
1E
100
AcDbEntity
  8
STEMPEL
100
AcDbLine
 10
321.2481682930119
 20
474.2554975826597
 30
0.0
 11
308.8339547306373
 21
461.8412840202863
 31
0.0
  0
LINE
  5
F95
102
{ACAD_REACTORS
330
FB7
102
}
330
1E
100
AcDbEntity
  8
STEMPEL
100
AcDbLine
 10
319.1268479494523
 20
476.3768179262195
 30
0.0
 11
299.7854265932152
 21
457.0353965699839
 31
0.0
  0
LINE
  5
F96
102
{ACAD_REACTORS
330
FB6
330
FB7
102
}
330
1E
100
AcDbEntity
  8
STEMPEL
  6
STRICHPUNKT
100
AcDbLine
 10
306.7126343870776
 20
463.9626043638458
 30
0.0
 11
308.8339547306373
 21
461.8412840202863
 31
0.0
  0
LINE
  5
F97
330
1E
100
AcDbEntity
  8
STEMPEL
100
AcDbLine
 10
322.6623818553849
 20
474.8412840202864
 30
0.0
 11
392.2410615118265
 21
474.8412840202859
 31
0.0
  0
LINE
  5
F98
330
1E
100
AcDbEntity
  8
STEMPEL
100
AcDbLine
 10
342.994488636572
 20
470.8412840202861
 30
0.0
 11
396.2410615118267
 21
470.841284020286
 31
0.0
  0
LINE
  5
F99
102
{ACAD_REACTORS
330
FB6
330
FB7
102
}
330
1E
100
AcDbEntity
  8
STEMPEL
  6
STRICHPUNKT
100
AcDbLine
 10
190.026342886065
 20
463.9626043638464
 30
0.0
 11
187.9050225425055
 21
461.8412840202867
 31
0.0
  0
LINE
  5
F9A
102
{ACAD_REACTORS
330
FB7
102
}
330
1E
100
AcDbEntity
  8
STEMPEL
100
AcDbLine
 10
177.6121293236911
 20
476.3768179262195
 30
0.0
 11
196.9535506799282
 21
457.0353965699838
 31
0.0
  0
ARC
  5
F9B
330
1E
100
AcDbEntity
  8
STEMPEL
100
AcDbCircle
 10
174.0765954177586
 20
472.8412840202866
 30
0.0
 40
2.0
100
AcDbArc
 50
45.00000000000115
 51
90.0
  0
LINE
  5
F9C
102
{ACAD_REACTORS
330
FB6
102
}
330
1E
100
AcDbEntity
  8
STEMPEL
100
AcDbLine
 10
175.4908089801316
 20
474.2554975826597
 30
0.0
 11
187.9050225425055
 21
461.8412840202867
 31
0.0
  0
ARC
  5
F9D
330
1E
100
AcDbEntity
  8
STEMPEL
100
AcDbCircle
 10
174.0765954177586
 20
472.8412840202866
 30
0.0
 40
5.0
100
AcDbArc
 50
45.00000000000115
 51
90.0
  0
LINE
  5
F9E
330
1E
100
AcDbEntity
  8
STEMPEL
100
AcDbLine
 10
98.37659541775835
 20
472.9626043638467
 30
0.0
 11
100.4979157613179
 21
470.8412840202869
 31
0.0
  0
LINE
  5
F9F
330
1E
100
AcDbEntity
  8
STEMPEL
100
AcDbLine
 10
100.4979157613179
 20
470.8412840202869
 30
0.0
 11
104.4979157613179
 21
474.841284020287
 31
0.0
  0
LINE
  5
FA0
330
1E
100
AcDbEntity
  8
STEMPEL
100
AcDbLine
 10
98.37659541775824
 20
472.962604363847
 30
0.0
 11
102.3765954177582
 21
476.9626043638467
 31
0.0
  0
LINE
  5
FA1
330
1E
100
AcDbEntity
  8
STEMPEL
100
AcDbLine
 10
104.4979157613179
 20
474.841284020287
 30
0.0
 11
174.0765954177586
 21
474.8412840202869
 31
0.0
  0
LINE
  5
FA2
330
1E
100
AcDbEntity
  8
STEMPEL
100
AcDbLine
 10
100.4979157613179
 20
470.8412840202869
 30
0.0
 11
153.7444886365713
 21
470.8412840202869
 31
0.0
  0
LINE
  5
FA3
330
1E
100
AcDbEntity
  8
STEMPEL
100
AcDbLine
 10
306.7126343870776
 20
463.9626043638458
 30
0.0
 11
190.0263428860657
 21
463.9626043638458
 31
0.0
  0
LINE
  5
FA4
102
{ACAD_REACTORS
330
FB6
102
}
330
1E
100
AcDbEntity
  8
STEMPEL
100
AcDbLine
 10
187.9050225425055
 20
461.8412840202867
 30
0.0
 11
190.4506069547772
 21
461.8412840202867
 31
0.0
  0
LINE
  5
FA5
102
{ACAD_REACTORS
330
FB7
102
}
330
1E
100
AcDbEntity
  8
STEMPEL
100
AcDbLine
 10
197.5694886365717
 20
452.6513345266271
 30
0.0
 11
197.5694886365717
 21
215.8412840202871
 31
0.0
  0
LINE
  5
FA6
102
{ACAD_REACTORS
330
FB7
102
}
330
1E
100
AcDbEntity
  8
STEMPEL
100
AcDbLine
 10
299.1694886365717
 20
452.6513345266271
 30
0.0
 11
299.1694886365717
 21
215.8412840202867
 31
0.0
  0
LINE
  5
FA7
102
{ACAD_REACTORS
330
FB7
102
}
330
1E
100
AcDbEntity
  8
STEMPEL
100
AcDbLine
 10
197.5694886365717
 20
215.8412840202871
 30
0.0
 11
198.2693979447791
 21
207.8412840202869
 31
0.0
  0
LINE
  5
FA8
102
{ACAD_REACTORS
330
FB7
102
}
330
1E
100
AcDbEntity
  8
STEMPEL
100
AcDbLine
 10
299.1694886365717
 20
215.8412840202867
 30
0.0
 11
298.4695793283643
 21
207.8412840202865
 31
0.0
  0
LINE
  5
FA9
102
{ACAD_REACTORS
330
FB7
102
}
330
1E
100
AcDbEntity
  8
STEMPEL
100
AcDbLine
 10
297.9694886365717
 20
452.6513345266271
 30
0.0
 11
297.9694886365718
 21
215.8936771517767
 31
0.0
  0
LINE
  5
FAA
102
{ACAD_REACTORS
330
FB7
102
}
330
1E
100
AcDbEntity
  8
STEMPEL
100
AcDbLine
 10
198.7694886365717
 20
452.6513345266271
 30
0.0
 11
198.7694886365717
 21
215.8936771517774
 31
0.0
  0
LINE
  5
FAB
102
{ACAD_REACTORS
330
FB7
102
}
330
1E
100
AcDbEntity
  8
STEMPEL
100
AcDbLine
 10
198.7694886365717
 20
215.8936771517774
 30
0.0
 11
199.4739817498311
 21
207.8412840202869
 31
0.0
  0
LINE
  5
FAC
102
{ACAD_REACTORS
330
FB7
102
}
330
1E
100
AcDbEntity
  8
STEMPEL
100
AcDbLine
 10
297.9694886365718
 20
215.8936771517767
 30
0.0
 11
297.2649955233123
 21
207.8412840202865
 31
0.0
  0
LINE
  5
FAD
102
{ACAD_REACTORS
330
FB6
330
FB7
102
}
330
1E
100
AcDbEntity
  8
STEMPEL
100
AcDbLine
 10
189.1132860237894
 20
463.1786049512743
 30
0.0
 11
196.1050225425043
 21
456.1868684325599
 31
0.0
  0
ARC
  5
FAE
102
{ACAD_REACTORS
330
FB7
102
}
330
1E
100
AcDbEntity
  8
STEMPEL
100
AcDbCircle
 10
192.5694886365717
 20
452.6513345266271
 30
0.0
 40
5.0
100
AcDbArc
 50
0.0
 51
45.00000000000115
  0
ARC
  5
FAF
102
{ACAD_REACTORS
330
FB7
102
}
330
1E
100
AcDbEntity
  8
STEMPEL
100
AcDbCircle
 10
192.5694886365717
 20
452.6513345266271
 30
0.0
 40
6.2
100
AcDbArc
 50
0.0
 51
45.00000000000115
  0
ARC
  5
FB0
102
{ACAD_REACTORS
330
FB7
102
}
330
1E
100
AcDbEntity
  8
STEMPEL
100
AcDbCircle
 10
304.1694886365717
 20
452.6513345266271
 30
0.0
 40
6.2
100
AcDbArc
 50
134.9999999999988
 51
180.0
  0
ARC
  5
FB1
102
{ACAD_REACTORS
330
FB7
102
}
330
1E
100
AcDbEntity
  8
STEMPEL
100
AcDbCircle
 10
304.1694886365717
 20
452.6513345266271
 30
0.0
 40
5.0
100
AcDbArc
 50
134.9999999999988
 51
180.0
  0
LINE
  5
FB2
102
{ACAD_REACTORS
330
FB6
330
FB7
102
}
330
1E
100
AcDbEntity
  8
STEMPEL
100
AcDbLine
 10
307.5611625245016
 20
463.114076226422
 30
0.0
 11
300.633954730639
 21
456.18686843256
 31
0.0
  0
LINE
  5
FB3
102
{ACAD_REACTORS
330
FB6
102
}
330
1E
100
AcDbEntity
  8
STEMPEL
100
AcDbLine
 10
306.2883703183656
 20
461.8412840202862
 30
0.0
 11
308.8339547306372
 21
461.8412840202863
 31
0.0
  0
ARC
  5
FB4
102
{ACAD_REACTORS
330
FB6
102
}
330
1E
100
AcDbEntity
  8
SCHRAFF
100
AcDbCircle
 10
307.5611625245015
 20
463.114076226422
 30
0.0
 40
3.0
100
AcDbArc
 50
224.9999999999965
 51
8.130102354154827
  0
ARC
  5
FB5
102
{ACAD_REACTORS
330
FB6
102
}
330
1E
100
AcDbEntity
  8
SCHRAFF
100
AcDbCircle
 10
189.1778147486419
 20
463.114076226422
 30
0.0
 40
3.0
100
AcDbArc
 50
171.8698976458451
 51
315.0000000000034
  0
HATCH
  5
FB6
330
1E
100
AcDbEntity
  8
SCHRAFF
100
AcDbHatch
 10
0.0
 20
0.0
 30
0.0
210
0.0
220
0.0
230
1.0
  2
_USER
 70
     0
 71
     1
 91
        4
 92
        7
 72
     1
 73
     1
 93
        4
 10
310.531011005485
 20
463.5383402951338
 42
0.0
 10
308.8339547306373
 20
461.8412840202863
 42
0.0
 10
306.2883703183656
 20
461.8412840202863
 42
0.0
 10
305.4398421809418
 20
460.9927558828625
 42
0.7207592200561206
 97
        4
330
F94
330
FB3
330
FB2
330
FB4
 92
       23
 72
     0
 73
     1
 93
        3
 10
307.5611625245015
 20
463.1140762264219
 10
306.2883703183658
 20
461.8412840202862
 10
308.8339547306373
 20
461.8412840202862
 97
        3
330
FB2
330
FB3
330
F96
 92
       23
 72
     0
 73
     1
 93
        3
 10
189.1778147486412
 20
463.1140762264224
 10
187.9050225425055
 20
461.8412840202867
 10
190.4506069547771
 20
461.8412840202867
 97
        3
330
F99
330
FA4
330
FAD
 92
        7
 72
     1
 73
     1
 93
        4
 10
191.2991350922016
 20
460.9927558828623
 42
0.0
 10
190.4506069547772
 20
461.8412840202867
 42
0.0
 10
187.9050225425056
 20
461.8412840202867
 42
0.0
 10
186.2079662676585
 20
463.5383402951338
 42
0.7207592200561206
 97
        4
330
FAD
330
FA4
330
F9C
330
FB5
 75
     0
 76
     0
 52
0.0
 41
0.1
 77
     0
 78
     1
 53
0.0
 43
12.21728933276685
 44
34.60167985997123
 45
0.0
 46
0.1
 79
     0
 47
0.229449449055442
 98
        4
 10
307.563486934643
 20
461.1044240558689
 10
307.7930608781097
 20
462.0222223360358
 10
189.5624981694303
 20
462.2516715562134
 10
189.1033502824974
 20
460.6455256155136
  0
HATCH
  5
FB7
330
1E
100
AcDbEntity
  8
SCHRAFF
100
AcDbHatch
 10
0.0
 20
0.0
 30
0.0
210
0.0
220
0.0
230
1.0
  2
_USER
 70
     0
 71
     1
 91
        2
 92
        7
 72
     1
 73
     1
 93
       10
 10
299.1694886365717
 20
452.6513345266271
 42
-0.1989123673796685
 10
300.633954730639
 20
456.18686843256
 42
0.0
 10
307.5611625245016
 20
463.114076226422
 42
0.0
 10
306.7126343870775
 20
463.9626043638457
 42
0.0
 10
299.7854265932152
 20
457.0353965699839
 42
0.1989123673796644
 10
297.9694886365717
 20
452.6513345266272
 42
0.0
 10
297.9694886365718
 20
215.8936771517766
 42
0.0
 10
297.2649955233123
 20
207.8412840202865
 42
0.0
 10
298.4695793283643
 20
207.8412840202865
 42
0.0
 10
299.1694886365718
 20
215.8412840202874
 42
0.0
 97
       10
330
FB1
330
FB2
330
F96
330
F95
330
FB0
330
FA9
330
FAC
330
F8B
330
FA8
330
FA6
 92
        7
 72
     1
 73
     1
 93
       10
 10
198.7694886365717
 20
452.6513345266271
 42
0.1989123673796691
 10
196.9535506799282
 20
457.0353965699838
 42
0.0
 10
190.0263428860652
 20
463.9626043638465
 42
0.0
 10
189.1778147486412
 20
463.1140762264225
 42
0.0
 10
196.1050225425043
 20
456.1868684325599
 42
-0.1989123673796638
 10
197.5694886365717
 20
452.6513345266271
 42
0.0
 10
197.5694886365717
 20
215.8412840202866
 42
0.0
 10
198.2693979447791
 20
207.8412840202869
 42
0.0
 10
199.4739817498311
 20
207.8412840202869
 42
0.0
 10
198.7694886365717
 20
215.893677151778
 42
0.0
 97
       10
330
FAF
330
F9A
330
F99
330
FAD
330
FAE
330
FA5
330
FA7
330
F8B
330
FAB
330
FAA
 75
     0
 76
     0
 52
135.0
 41
2.0
 77
     0
 78
     1
 53
135.0
 43
12.21728933276685
 44
34.60167985997123
 45
-1.414213562373095
 46
-1.414213562373094
 79
     0
 47
0.4814251419694602
 98
        2
 10
298.3531294736521
 20
384.6280232698725
 10
198.1623860775447
 20
390.8865503737643
  0
DIMENSION
  5
FB8
330
1E
100
AcDbEntity
  8
BEM
100
AcDbDimension
  2
*D5
 10
299.1694886365717
 20
187.8640845175752
 30
0.0
 11
248.3694886365717
 21
194.3640845175752
 31
0.0
 70
    32
  1
%%c<>
 71
     5
 42
101.6
  3
Standard
100
AcDbAlignedDimension
 13
197.5694886365717
 23
215.8412840202871
 33
0.0
 14
299.1694886365717
 24
215.8412840202867
 34
0.0
100
AcDbRotatedDimension
1001
ACAD
1000
DSTYLE
1002
{
1070
    40
1040
2.0
1070
    41
1040
3.5
1070
    42
1040
1.0
1070
    43
1040
7.0
1070
    44
1040
1.0
1070
    73
1070
     0
1070
    74
1070
     0
1070
    77
1070
     1
1070
    78
1070
     8
1070
    79
1070
     2
1070
   140
1040
3.5
1070
   141
1040
1.5
1070
   146
1040
0.5142857142857144
1070
   147
1040
1.5
1070
   172
1070
     1
1070
   178
1070
     1
1070
   179
1070
     2
1070
   271
1070
     2
1070
   272
1070
     2
1070
   284
1070
     8
1070
   285
1070
     8
1070
   286
1070
     8
1002
}
  0
DIMENSION
  5
FB9
330
1E
100
AcDbEntity
  8
BEM
100
AcDbDimension
  2
*D6
 10
69.13370919226429
 20
207.841284020287
 30
0.0
 11
62.63370919226427
 21
342.8412840202869
 31
0.0
 70
    32
 71
     5
 42
269.9999999999999
  3
Standard
100
AcDbAlignedDimension
 13
98.36948863657164
 23
477.8412840202869
 33
0.0
 14
198.2693979447791
 24
207.8412840202869
 34
0.0
 50
90.0
100
AcDbRotatedDimension
1001
ACAD
1000
DSTYLE
1002
{
1070
    40
1040
2.0
1070
    41
1040
3.5
1070
    42
1040
1.0
1070
    43
1040
7.0
1070
    44
1040
1.0
1070
    73
1070
     0
1070
    74
1070
     0
1070
    77
1070
     1
1070
    78
1070
     8
1070
    79
1070
     2
1070
   140
1040
3.5
1070
   141
1040
1.5
1070
   146
1040
0.5142857142857144
1070
   147
1040
1.5
1070
   172
1070
     1
1070
   178
1070
     1
1070
   179
1070
     2
1070
   271
1070
     2
1070
   272
1070
     2
1070
   284
1070
     8
1070
   285
1070
     8
1070
   286
1070
     8
1002
}
  0
ARC
  5
FFE
330
1E
100
AcDbEntity
  8
STEMPEL
100
AcDbCircle
 10
104.4979157613178
 20
474.841284020287
 30
0.0
 40
3.0
100
AcDbArc
 50
89.99999999999973
 51
134.9999999999984
  0
ARC
  5
FFF
330
1E
100
AcDbEntity
  8
STEMPEL
100
AcDbCircle
 10
392.2410615118268
 20
474.8412840202859
 30
0.0
 40
3.0
100
AcDbArc
 50
45.0000000000008
 51
89.99999999999982
  0
DIMENSION
  5
1024
330
1E
100
AcDbEntity
  8
BEM
100
AcDbDimension
  2
*D7
 10
85.14023894295133
 20
483.841284020286
 30
0.0
 11
78.64023894295124
 21
501.3412840202859
 31
0.0
 70
    32
 71
     5
 42
34.99999999999983
  3
Standard
100
AcDbAlignedDimension
 13
166.1301060917639
 23
518.8412840202858
 33
0.0
 14
106.3694886365716
 24
483.841284020286
 34
0.0
 50
90.0
100
AcDbRotatedDimension
1001
ACAD
1000
DSTYLE
1002
{
1070
    40
1040
2.0
1070
    41
1040
3.5
1070
    42
1040
1.0
1070
    43
1040
7.0
1070
    44
1040
1.0
1070
    73
1070
     0
1070
    74
1070
     0
1070
    77
1070
     1
1070
    78
1070
     8
1070
    79
1070
     2
1070
   140
1040
3.5
1070
   141
1040
1.5
1070
   146
1040
0.5142857142857144
1070
   147
1040
1.5
1070
   172
1070
     1
1070
   178
1070
     1
1070
   179
1070
     2
1070
   271
1070
     2
1070
   272
1070
     2
1070
   284
1070
     8
1070
   285
1070
     8
1070
   286
1070
     8
1002
}
  0
TEXT
  5
1055
330
1E
100
AcDbEntity
  8
VOLL
100
AcDbText
 10
224.8735084142521
 20
457.0675579039101
 30
0.0
 40
1.8
  1

  7
GREEKS
100
AcDbText
  0
ARC
  5
1057
330
1E
100
AcDbEntity
  8
STEMPEL
100
AcDbCircle
 10
341.6939962778358
 20
490.5912840202863
 30
0.0
 40
0.7500000000000013
100
AcDbArc
 50
109.9999999999995
 51
269.9999991462263
  0
LINE
  5
1058
330
1E
100
AcDbEntity
  8
STEMPEL
100
AcDbLine
 10
343.1837422399914
 20
491.9316405364861
 30
0.0
 11
341.4374811703416
 21
491.2960534858757
 31
0.0
  0
LINE
  5
1059
330
1E
100
AcDbEntity
  8
STEMPEL
100
AcDbLine
 10
361.4941562192445
 20
491.5713442528644
 30
0.0
 11
360.5042503156802
 21
491.9316405364861
 31
0.0
  0
LINE
  5
105A
330
1E
100
AcDbEntity
  8
STEMPEL
100
AcDbLine
 10
360.5042503156802
 20
499.5303948878309
 30
0.0
 11
359.3439962778358
 21
499.8412840202862
 31
0.0
  0
LINE
  5
105B
330
1E
100
AcDbEntity
  8
STEMPEL
100
AcDbLine
 10
344.3439962778358
 20
499.8412840202862
 30
0.0
 11
343.1837422399914
 21
499.5303948878309
 31
0.0
  0
LINE
  5
105C
330
1E
100
AcDbEntity
  8
STEMPEL
100
AcDbLine
 10
343.1837422399914
 20
491.9316405364861
 30
0.0
 11
343.1837422399914
 21
499.5303948878309
 31
0.0
  0
LINE
  5
105E
330
1E
100
AcDbEntity
  8
STEMPEL
100
AcDbLine
 10
361.2374420220401
 20
491.2960534858757
 30
0.0
 11
341.4374811703416
 21
491.2960534858757
 31
0.0
  0
LINE
  5
105F
330
1E
100
AcDbEntity
  8
STEMPEL
100
AcDbLine
 10
347.5138692589136
 20
491.9316405364861
 30
0.0
 11
347.5138692589136
 21
499.5303948878309
 31
0.0
  0
LINE
  5
1060
330
1E
100
AcDbEntity
  8
STEMPEL
100
AcDbLine
 10
356.174123296758
 20
491.9316405364861
 30
0.0
 11
356.174123296758
 21
499.5303948878309
 31
0.0
  0
LINE
  5
1061
330
1E
100
AcDbEntity
  8
STEMPEL
100
AcDbLine
 10
360.5042503156802
 20
491.9316405364861
 30
0.0
 11
360.5042503156802
 21
499.5303948878309
 31
0.0
  0
LINE
  5
1062
330
1E
100
AcDbEntity
  8
STEMPEL
100
AcDbLine
 10
344.3439962778358
 20
499.8412840202862
 30
0.0
 11
359.3439962778358
 21
499.8412840202862
 31
0.0
  0
POINT
  5
1064
330
1E
100
AcDbEntity
  8
0
100
AcDbPoint
 10
351.8439962778358
 20
489.8412840202863
 30
0.0
210
0.0000000000000001
220
1.0
230
0.0
  0
ARC
  5
1065
330
1E
100
AcDbEntity
  8
HILF
100
AcDbCircle
 10
345.3488057494525
 20
486.5927978707566
 30
0.0
 40
5.761140599691502
100
AcDbArc
 50
67.92594526326206
 51
112.0740547367379
  0
ARC
  5
1066
330
1E
100
AcDbEntity
  8
HILF
100
AcDbCircle
 10
358.3391868062191
 20
486.5927978707566
 30
0.0
 40
5.761140599691502
100
AcDbArc
 50
67.92594526326206
 51
112.0740547367379
  0
ARC
  5
1067
330
1E
100
AcDbEntity
  8
HILF
100
AcDbCircle
 10
351.8439962778358
 20
469.942822972625
 30
0.0
 40
22.41111549782308
100
AcDbArc
 50
78.85962783890615
 51
101.1403721610938
  0
ARC
  5
1068
330
1E
100
AcDbEntity
  8
STEMPEL
100
AcDbCircle
 10
358.3391868062191
 20
492.1469783125018
 30
0.0
 40
7.694305707784447
100
AcDbArc
 50
73.65710669401501
 51
106.342893305985
  0
ARC
  5
1069
330
1E
100
AcDbEntity
  8
STEMPEL
100
AcDbCircle
 10
345.3488057494525
 20
492.1469783125018
 30
0.0
 40
7.694305707784447
100
AcDbArc
 50
73.65710669401501
 51
106.342893305985
  0
ARC
  5
106A
330
1E
100
AcDbEntity
  8
STEMPEL
100
AcDbCircle
 10
351.8439962778358
 20
469.5303948878314
 30
0.0
 40
30.31088913245485
100
AcDbArc
 50
81.78678929826221
 51
98.2132107017378
  0
ARC
  5
106B
330
1E
100
AcDbEntity
  8
STEMPEL
100
AcDbCircle
 10
136.3694886365716
 20
469.5303948878312
 30
0.0
 40
30.31088913245485
100
AcDbArc
 50
81.78678929826221
 51
98.2132107017378
  0
ARC
  5
106C
330
1E
100
AcDbEntity
  8
STEMPEL
100
AcDbCircle
 10
129.8742981081883
 20
492.1469783125017
 30
0.0
 40
7.694305707784447
100
AcDbArc
 50
73.65710669401501
 51
106.342893305985
  0
ARC
  5
106D
330
1E
100
AcDbEntity
  8
STEMPEL
100
AcDbCircle
 10
142.8646791649549
 20
492.1469783125017
 30
0.0
 40
7.694305707784447
100
AcDbArc
 50
73.65710669401501
 51
106.342893305985
  0
ARC
  5
106E
330
1E
100
AcDbEntity
  8
HILF
100
AcDbCircle
 10
136.3694886365716
 20
469.9428229726249
 30
0.0
 40
22.41111549782308
100
AcDbArc
 50
78.85962783890615
 51
101.1403721610938
  0
ARC
  5
106F
330
1E
100
AcDbEntity
  8
HILF
100
AcDbCircle
 10
142.8646791649549
 20
486.5927978707564
 30
0.0
 40
5.761140599691502
100
AcDbArc
 50
67.92594526326206
 51
112.0740547367379
  0
ARC
  5
1070
330
1E
100
AcDbEntity
  8
HILF
100
AcDbCircle
 10
129.8742981081883
 20
486.5927978707564
 30
0.0
 40
5.761140599691502
100
AcDbArc
 50
67.92594526326206
 51
112.0740547367379
  0
POINT
  5
1071
330
1E
100
AcDbEntity
  8
0
100
AcDbPoint
 10
136.3694886365716
 20
489.8412840202861
 30
0.0
210
0.0000000000000001
220
1.0
230
0.0
  0
LINE
  5
1072
330
1E
100
AcDbEntity
  8
STEMPEL
100
AcDbLine
 10
128.8694886365717
 20
499.8412840202861
 30
0.0
 11
143.8694886365716
 21
499.8412840202861
 31
0.0
  0
LINE
  5
1073
330
1E
100
AcDbEntity
  8
STEMPEL
100
AcDbLine
 10
145.029742674416
 20
491.931640536486
 30
0.0
 11
145.029742674416
 21
499.5303948878308
 31
0.0
  0
LINE
  5
1074
330
1E
100
AcDbEntity
  8
STEMPEL
100
AcDbLine
 10
140.6996156554938
 20
491.931640536486
 30
0.0
 11
140.6996156554938
 21
499.5303948878308
 31
0.0
  0
LINE
  5
1075
330
1E
100
AcDbEntity
  8
STEMPEL
100
AcDbLine
 10
132.0393616176494
 20
491.931640536486
 30
0.0
 11
132.0393616176494
 21
499.5303948878308
 31
0.0
  0
LINE
  5
1076
330
1E
100
AcDbEntity
  8
STEMPEL
100
AcDbLine
 10
146.7760037440659
 20
491.2960534858755
 30
0.0
 11
125.9629735290774
 21
491.2960534858755
 31
0.0
  0
LINE
  5
1077
330
1E
100
AcDbEntity
  8
STEMPEL
100
AcDbLine
 10
146.5194886365716
 20
489.8412840202861
 30
0.0
 11
126.2194886365716
 21
489.8412840202861
 31
0.0
  0
LINE
  5
1078
330
1E
100
AcDbEntity
  8
STEMPEL
100
AcDbLine
 10
127.7092345987272
 20
491.931640536486
 30
0.0
 11
127.7092345987272
 21
499.5303948878308
 31
0.0
  0
LINE
  5
1079
330
1E
100
AcDbEntity
  8
STEMPEL
100
AcDbLine
 10
128.8694886365717
 20
499.8412840202861
 30
0.0
 11
127.7092345987272
 21
499.5303948878308
 31
0.0
  0
LINE
  5
107A
330
1E
100
AcDbEntity
  8
STEMPEL
100
AcDbLine
 10
145.029742674416
 20
499.5303948878308
 30
0.0
 11
143.8694886365716
 21
499.8412840202861
 31
0.0
  0
LINE
  5
107B
330
1E
100
AcDbEntity
  8
STEMPEL
100
AcDbLine
 10
146.7760037440659
 20
491.2960534858755
 30
0.0
 11
145.029742674416
 21
491.931640536486
 31
0.0
  0
LINE
  5
107C
330
1E
100
AcDbEntity
  8
STEMPEL
100
AcDbLine
 10
127.7092345987272
 20
491.931640536486
 30
0.0
 11
125.9629735290774
 21
491.2960534858755
 31
0.0
  0
ARC
  5
107D
330
1E
100
AcDbEntity
  8
STEMPEL
100
AcDbCircle
 10
126.2194886365716
 20
490.5912840202861
 30
0.0
 40
0.7500000000000013
100
AcDbArc
 50
109.9999999999995
 51
269.9999991462263
  0
ARC
  5
107E
330
1E
100
AcDbEntity
  8
STEMPEL
100
AcDbCircle
 10
146.5194886365716
 20
490.5912840202861
 30
0.0
 40
0.750000000000001
100
AcDbArc
 50
269.9999991462263
 51
70.00000000000047
  0
LINE
  5
10CD
330
1E
100
AcDbEntity
  8
STEMPEL
100
AcDbLine
 10
299.1694886365723
 20
314.8412840202868
 30
0.0
 11
325.6375838840743
 21
314.8412840202866
 31
0.0
  0
LINE
  5
10CE
330
1E
100
AcDbEntity
  8
STEMPEL
100
AcDbLine
 10
299.1694886365722
 20
334.8412840202867
 30
0.0
 11
310.8694886365721
 21
334.8412840202867
 31
0.0
  0
DIMENSION
  5
10CF
330
1E
100
AcDbEntity
  8
BEM
100
AcDbDimension
  2
*D8
 10
328.3694886365721
 20
293.9252330578361
 30
0.0
 11
248.3694886365721
 21
300.4252330578361
 31
0.0
 70
    32
  1
%%c<>
 71
     5
 42
159.9999999999999
  3
Standard
100
AcDbAlignedDimension
 13
168.3694886365721
 23
314.8412840202872
 33
0.0
 14
328.3694886365721
 24
314.8412840202866
 34
0.0
100
AcDbRotatedDimension
1001
ACAD
1000
DSTYLE
1002
{
1070
    40
1040
2.0
1070
    41
1040
3.5
1070
    42
1040
1.0
1070
    43
1040
7.0
1070
    44
1040
1.0
1070
    73
1070
     0
1070
    74
1070
     0
1070
    77
1070
     1
1070
    78
1070
     8
1070
    79
1070
     2
1070
   140
1040
3.5
1070
   141
1040
1.5
1070
   146
1040
0.5142857142857144
1070
   147
1040
1.5
1070
   172
1070
     1
1070
   178
1070
     1
1070
   179
1070
     2
1070
   271
1070
     2
1070
   272
1070
     2
1070
   284
1070
     8
1070
   285
1070
     8
1070
   286
1070
     8
1002
}
  0
ARC
  5
10D0
330
1E
100
AcDbEntity
  8
STEMPEL
100
AcDbCircle
 10
325.6375838840743
 20
317.8412840202872
 30
0.0
 40
3.0
100
AcDbArc
 50
270.0
 51
354.6441749571445
  0
ARC
  5
10D1
330
1E
100
AcDbEntity
  8
STEMPEL
100
AcDbCircle
 10
171.1013933890699
 20
317.8412840202872
 30
0.0
 40
3.0
100
AcDbArc
 50
185.3558250428554
 51
270.0
  0
LINE
  5
10D2
330
1E
100
AcDbEntity
  8
STEMPEL
100
AcDbLine
 10
171.1013933890699
 20
314.8412840202872
 30
0.0
 11
197.569488636572
 21
314.8412840202872
 31
0.0
  0
LINE
  5
10D3
330
1E
100
AcDbEntity
  8
STEMPEL
100
AcDbLine
 10
185.8694886365721
 20
334.8412840202872
 30
0.0
 11
197.5694886365721
 21
334.8412840202872
 31
0.0
  0
LINE
  5
10D4
330
1E
100
AcDbEntity
  8
STEMPEL
100
AcDbLine
 10
299.1694886365722
 20
320.8012840202871
 30
0.0
 11
310.8694886365721
 21
334.8412840202867
 31
0.0
  0
LINE
  5
10D5
330
1E
100
AcDbEntity
  8
STEMPEL
100
AcDbLine
 10
197.5694886365721
 20
320.801284020287
 30
0.0
 11
185.8694886365722
 21
334.8412840202867
 31
0.0
  0
DIMENSION
  5
10D6
330
1E
100
AcDbEntity
  8
BEM
100
AcDbDimension
  2
*D9
 10
85.33191062326356
 20
314.8412840202873
 30
0.0
 11
78.83191062326351
 21
394.8412840202871
 31
0.0
 70
    32
 71
     5
 42
159.9999999999998
  3
Standard
100
AcDbAlignedDimension
 13
104.4979157613183
 23
474.841284020287
 33
0.0
 14
168.3694886365721
 24
314.8412840202872
 34
0.0
 50
90.0
100
AcDbRotatedDimension
1001
ACAD
1000
DSTYLE
1002
{
1070
    40
1040
2.0
1070
    41
1040
3.5
1070
    42
1040
1.0
1070
    43
1040
7.0
1070
    44
1040
1.0
1070
    73
1070
     0
1070
    74
1070
     0
1070
    77
1070
     1
1070
    78
1070
     8
1070
    79
1070
     2
1070
   140
1040
3.5
1070
   141
1040
1.5
1070
   146
1040
0.5142857142857144
1070
   147
1040
1.5
1070
   172
1070
     1
1070
   178
1070
     1
1070
   179
1070
     2
1070
   271
1070
     2
1070
   272
1070
     2
1070
   284
1070
     8
1070
   285
1070
     8
1070
   286
1070
     8
1002
}
  0
LINE
  5
10D7
330
1E
100
AcDbEntity
  8
TEXT
 62
     2
100
AcDbLine
 10
403.5952624016228
 20
343.5233820475415
 30
0.0
 11
325.8975107326579
 21
378.9938007845034
 31
0.0
  0
TEXT
  5
10D8
330
1E
100
AcDbEntity
  8
TEXT
 62
     1
100
AcDbText
 10
404.1906182803772
 20
347.007216208452
 30
0.0
 40
7.0
  1
Wärmedämmung
 41
0.8
100
AcDbText
  0
LINE
  5
10D9
330
1E
100
AcDbEntity
  8
TEXT
 62
     2
100
AcDbLine
 10
509.5338269767559
 20
343.5233820475415
 30
0.0
 11
403.5952624016228
 21
343.5233820475415
 31
0.0
  0
TEXT
  5
10DA
330
1E
100
AcDbEntity
  8
TEXT
 62
     1
100
AcDbText
 10
404.1906182803772
 20
334.2308852397424
 30
0.0
 40
7.0
  1
EDV-Art.Nr. 19842.100X
 41
0.8
100
AcDbText
  0
HATCH
  5
10DB
330
1E
100
AcDbEntity
  8
SCHRAFF
100
AcDbHatch
 10
0.0
 20
0.0
 30
0.0
210
0.0
220
0.0
230
1.0
  2
HONEY
 70
     0
 71
     0
 91
        3
 92
        7
 72
     0
 73
     1
 93
        3
 10
338.0312160043339
 20
474.8412840202862
 10
342.8208902800213
 20
468.9895682170786
 10
343.3694886365721
 20
474.8412840202862
 97
        0
 92
        7
 72
     1
 73
     1
 93
       11
 10
328.3694886365708
 20
474.8412840202864
 42
0.0
 10
321.8694886365721
 20
469.8412840202873
 42
0.0
 10
321.8694886365719
 20
424.841284020287
 42
0.0
 10
310.8694886365722
 20
404.8412840202861
 42
0.0
 10
310.8694886365721
 20
334.8412840202866
 42
0.0
 10
299.1694886365722
 20
320.8012840202871
 42
0.0
 10
299.1694886365722
 20
314.8412840202868
 42
0.0
 10
325.6375838840743
 20
314.8412840202866
 42
0.3870924378343482
 10
328.6244865622522
 20
317.561261894208
 42
0.0
 10
342.8208902800213
 20
468.9895682170788
 42
0.0
 10
338.0312160043342
 20
474.8412840202862
 42
0.0
 97
        0
 92
        7
 72
     1
 73
     1
 93
       10
 10
168.114490710892
 20
317.561261894208
 42
0.387092437834293
 10
171.1013933890699
 20
314.8412840202872
 42
0.0
 10
197.569488636572
 20
314.8412840202872
 42
0.0
 10
197.5694886365721
 20
320.8012840202871
 42
0.0
 10
185.8694886365721
 20
334.8412840202867
 42
0.0
 10
185.8694886365721
 20
404.8412840202869
 42
0.0
 10
174.8694886365724
 20
424.8412840202871
 42
0.0
 10
174.8694886365721
 20
469.8412840202871
 42
0.0
 10
168.3694886365727
 20
474.841284020287
 42
0.0
 10
153.3694886365721
 20
474.841284020287
 42
0.0
 97
        0
 75
     0
 76
     1
 52
0.0
 41
40.0
 77
     0
 78
     3
 53
0.0
 43
0.0000000000007105
 44
-1.500000000000909
 45
7.5
 46
4.330127
 79
     2
 49
5.0
 49
-10.0
 53
120.0
 43
0.0000000000007105
 44
-1.500000000000909
 45
-7.499999983612898
 46
4.330127028383291
 79
     2
 49
4.999999999999998
 49
-9.999999999999996
 53
60.0
 43
0.0000000000007105
 44
-1.500000000000909
 45
0.0000000163871017
 46
8.66025402838329
 79
     2
 49
-10.0
 49
5.0
 47
0.3824020196486527
 98
        3
 10
341.9205496814864
 20
473.8359846634186
 10
334.2699127611415
 20
468.099953554197
 10
167.1035295417885
 20
419.9173000598477
  0
LINE
  5
10DC
330
1E
100
AcDbEntity
  8
STEMPEL
100
AcDbLine
 10
343.3694886365721
 20
474.8412840202872
 30
0.0
 11
328.6244865622522
 21
317.561261894208
 31
0.0
  0
LINE
  5
10DD
330
1E
100
AcDbEntity
  8
STEMPEL
100
AcDbLine
 10
310.8694886365721
 20
404.8412840202861
 30
0.0
 11
310.8694886365721
 21
334.8412840202867
 31
0.0
  0
LINE
  5
10DE
330
1E
100
AcDbEntity
  8
STEMPEL
100
AcDbLine
 10
299.1694886365722
 20
404.8412840202862
 30
0.0
 11
310.8694886365721
 21
404.8412840202861
 31
0.0
  0
LINE
  5
10DF
330
1E
100
AcDbEntity
  8
STEMPEL
100
AcDbLine
 10
299.1694886365723
 20
424.841284020287
 30
0.0
 11
321.8694886365719
 21
424.841284020287
 31
0.0
  0
DIMENSION
  5
10E0
330
1E
100
AcDbEntity
  8
BEM
100
AcDbDimension
  2
*D10
 10
343.369488636572
 20
432.3688841755872
 30
0.0
 11
248.3694886365721
 21
438.8688841755872
 31
0.0
 70
    32
  1
%%c<>
 71
     5
 42
189.9999999999999
  3
Standard
100
AcDbAlignedDimension
 13
153.369488636572
 23
474.8412840202872
 33
0.0
 14
343.369488636572
 24
474.8412840202859
 34
0.0
100
AcDbRotatedDimension
1001
ACAD
1000
DSTYLE
1002
{
1070
    40
1040
2.0
1070
    41
1040
3.5
1070
    42
1040
1.0
1070
    43
1040
7.0
1070
    44
1040
1.0
1070
    73
1070
     0
1070
    74
1070
     0
1070
    77
1070
     1
1070
    78
1070
     8
1070
    79
1070
     2
1070
   140
1040
3.5
1070
   141
1040
1.5
1070
   146
1040
0.5142857142857144
1070
   147
1040
1.5
1070
   172
1070
     1
1070
   178
1070
     1
1070
   179
1070
     2
1070
   271
1070
     2
1070
   272
1070
     2
1070
   284
1070
     8
1070
   285
1070
     8
1070
   286
1070
     8
1002
}
  0
LINE
  5
10E1
330
1E
100
AcDbEntity
  8
STEMPEL
100
AcDbLine
 10
321.8694886365719
 20
424.841284020287
 30
0.0
 11
321.8694886365721
 21
469.8412840202873
 31
0.0
  0
LINE
  5
10E2
330
1E
100
AcDbEntity
  8
STEMPEL
100
AcDbLine
 10
321.8694886365719
 20
424.841284020287
 30
0.0
 11
310.8694886365721
 21
404.8412840202861
 31
0.0
  0
LINE
  5
10E3
330
1E
100
AcDbEntity
  8
STEMPEL
100
AcDbLine
 10
316.8339547306394
 20
469.8412840202873
 30
0.0
 11
321.8694886365721
 21
469.8412840202873
 31
0.0
  0
LINE
  5
10E4
330
1E
100
AcDbEntity
  8
STEMPEL
100
AcDbLine
 10
328.3694886365721
 20
474.8412840202873
 30
0.0
 11
321.8694886365721
 21
469.8412840202873
 31
0.0
  0
LINE
  5
10E5
330
1E
100
AcDbEntity
  8
STEMPEL
100
AcDbLine
 10
174.8694886365723
 20
424.841284020287
 30
0.0
 11
197.569488636572
 21
424.841284020287
 31
0.0
  0
LINE
  5
10E6
330
1E
100
AcDbEntity
  8
STEMPEL
100
AcDbLine
 10
174.8694886365723
 20
424.841284020287
 30
0.0
 11
174.8694886365721
 21
469.8412840202873
 31
0.0
  0
LINE
  5
10E7
330
1E
100
AcDbEntity
  8
STEMPEL
100
AcDbLine
 10
185.8694886365721
 20
404.8412840202869
 30
0.0
 11
185.8694886365721
 21
334.8412840202872
 31
0.0
  0
LINE
  5
10E8
330
1E
100
AcDbEntity
  8
STEMPEL
100
AcDbLine
 10
185.8694886365721
 20
404.8412840202869
 30
0.0
 11
197.5694886365721
 21
404.8412840202869
 31
0.0
  0
LINE
  5
10E9
330
1E
100
AcDbEntity
  8
STEMPEL
100
AcDbLine
 10
174.8694886365723
 20
424.841284020287
 30
0.0
 11
185.8694886365721
 21
404.8412840202869
 31
0.0
  0
LINE
  5
10EA
330
1E
100
AcDbEntity
  8
STEMPEL
100
AcDbLine
 10
174.8694886365721
 20
469.8412840202873
 30
0.0
 11
179.9050225425047
 21
469.8412840202872
 31
0.0
  0
LINE
  5
10EB
330
1E
100
AcDbEntity
  8
STEMPEL
100
AcDbLine
 10
168.3694886365721
 20
474.8412840202873
 30
0.0
 11
174.8694886365721
 21
469.8412840202873
 31
0.0
  0
LINE
  5
112B
330
1E
100
AcDbEntity
  8
STEMPEL
100
AcDbLine
 10
153.3694886365713
 20
474.8412840202873
 30
0.0
 11
168.114490710891
 21
317.5612618942081
 31
0.0
  0
LINE
  5
112C
330
1E
100
AcDbEntity
  8
MITTEL
100
AcDbLine
 10
248.3694886365717
 20
290.6750357489579
 30
0.0
 11
248.3694886365717
 21
202.8412840202867
 31
0.0
  0
LINE
  5
112D
330
1E
100
AcDbEntity
  8
MITTEL
100
AcDbLine
 10
248.3694886365717
 20
428.9016852062609
 30
0.0
 11
248.3694886365717
 21
310.3214633510743
 31
0.0
  0
TEXT
  5
1165
330
1E
100
AcDbEntity
  8
TEXT
100
AcDbText
 10
531.8997861689247
 20
654.3410940884991
 30
0.0
 40
5.0
  1
mit Wärmedämmung
 50
90.0
 41
0.8
  7
GREEKS
100
AcDbText
  0
LINE
  5
119D
330
1E
100
AcDbEntity
  8
STEMPEL
100
AcDbLine
 10
98.3694886365717
 20
477.8412840202864
 30
0.0
 11
398.3694886365718
 21
477.8412840202864
 31
0.0
  0
LINE
  5
119E
330
1E
100
AcDbEntity
  8
STEMPEL
100
AcDbLine
 10
98.36948863657182
 20
477.8412840202868
 30
0.0
 11
398.3694886365719
 21
477.8412840202858
 31
0.0
  0
LINE
  5
11DE
330
1E
100
AcDbEntity
  8
STEMPEL
100
AcDbLine
 10
398.3694886365718
 20
477.8412840202864
 30
0.0
 11
398.3694886365718
 21
480.8412840202863
 31
0.0
  0
LINE
  5
11DF
330
1E
100
AcDbEntity
  8
STEMPEL
100
AcDbLine
 10
398.3694886365719
 20
477.8412840202859
 30
0.0
 11
398.3694886365719
 21
480.8412840202863
 31
0.0
  0
HATCH
  5
11E0
330
1E
100
AcDbEntity
  8
SCHRAFF
100
AcDbHatch
 10
0.0
 20
0.0
 30
0.0
210
0.0
220
0.0
230
1.0
  2
NET
 70
     0
 71
     0
 91
        4
 92
        7
 72
     0
 73
     1
 93
        4
 10
398.3694886365718
 20
480.8412840202863
 10
351.8439962778357
 20
480.8412840202863
 10
351.8439962778359
 20
477.8412840202864
 10
398.3694886365718
 20
477.8412840202863
 97
        0
 92
        7
 72
     0
 73
     1
 93
        4
 10
351.8439962778359
 20
480.8412840202865
 10
328.3694886365718
 20
480.8412840202865
 10
328.3694886365718
 20
477.8412840202864
 10
351.8439962778358
 20
477.8412840202864
 97
        0
 92
        7
 72
     0
 73
     1
 93
        4
 10
168.3694886365717
 20
480.8412840202864
 10
144.369488636572
 20
480.8412840202863
 10
144.369488636572
 20
477.8412840202864
 10
168.3694886365717
 20
477.8412840202864
 97
        0
 92
        7
 72
     0
 73
     1
 93
        4
 10
128.3694886365717
 20
480.8412840202863
 10
98.36948863657182
 20
480.8412840202864
 10
98.36948863657182
 20
477.8412840202863
 10
128.3694886365717
 20
477.8412840202863
 97
        0
 75
     0
 76
     1
 52
45.0
 41
15.0
 77
     0
 78
     2
 53
45.0
 43
0.0000000000002274
 44
-1.500000000001023
 45
-1.325825214724776
 46
1.325825214724776
 79
     0
 53
135.0
 43
0.0000000000002274
 44
-1.500000000001023
 45
-1.325825214724776
 46
-1.325825214724776
 79
     0
 47
0.3213995559881435
 98
        4
 10
378.3876149067626
 20
479.2450950922681
 10
334.9839516069658
 20
479.8878940826031
 10
151.7240432395526
 20
480.2092935777701
 10
120.2161992157828
 20
478.923695597101
  0
LINE
  5
11E1
330
1E
100
AcDbEntity
  8
STEMPEL
100
AcDbLine
 10
141.3694886365719
 20
480.8412840202863
 30
0.0
 11
398.3694886365718
 21
480.8412840202863
 31
0.0
  0
LINE
  5
11E2
330
1E
100
AcDbEntity
  8
STEMPEL
100
AcDbLine
 10
356.8439962778361
 20
483.841284020286
 30
0.0
 11
356.8439962778361
 21
480.8412840202863
 31
0.0
  0
LINE
  5
11E3
330
1E
100
AcDbEntity
  8
HILF
100
AcDbLine
 10
355.8439962778361
 20
483.841284020286
 30
0.0
 11
355.843996277836
 21
480.8412840202863
 31
0.0
  0
LINE
  5
11E4
330
1E
100
AcDbEntity
  8
STEMPEL
100
AcDbLine
 10
346.8439962778362
 20
483.841284020286
 30
0.0
 11
346.843996277836
 21
480.8412840202864
 31
0.0
  0
LINE
  5
11E5
330
1E
100
AcDbEntity
  8
HILF
100
AcDbLine
 10
347.843996277836
 20
483.841284020286
 30
0.0
 11
347.8439962778359
 21
480.8412840202864
 31
0.0
  0
LINE
  5
11E6
330
1E
100
AcDbEntity
  8
STEMPEL
100
AcDbLine
 10
328.3694886365718
 20
477.8412840202864
 30
0.0
 11
328.3694886365718
 21
480.8412840202863
 31
0.0
  0
LINE
  5
11E7
330
1E
100
AcDbEntity
  8
STEMPEL
100
AcDbLine
 10
197.369488636572
 20
483.841284020286
 30
0.0
 11
197.369488636572
 21
480.8412840202864
 31
0.0
  0
LINE
  5
11E8
330
1E
100
AcDbEntity
  8
HILF
100
AcDbLine
 10
196.369488636572
 20
483.841284020286
 30
0.0
 11
196.369488636572
 21
480.8412840202863
 31
0.0
  0
LINE
  5
11E9
330
1E
100
AcDbEntity
  8
HILF
100
AcDbLine
 10
188.3694886365719
 20
483.8412840202859
 30
0.0
 11
188.369488636572
 21
480.8412840202864
 31
0.0
  0
LINE
  5
11EA
330
1E
100
AcDbEntity
  8
STEMPEL
100
AcDbLine
 10
187.369488636572
 20
483.8412840202859
 30
0.0
 11
187.369488636572
 21
480.8412840202864
 31
0.0
  0
LINE
  5
11EB
330
1E
100
AcDbEntity
  8
HILF
100
AcDbLine
 10
266.9884221652176
 20
483.841284020286
 30
0.0
 11
266.9884221652176
 21
480.8412840202863
 31
0.0
  0
LINE
  5
11EC
330
1E
100
AcDbEntity
  8
STEMPEL
100
AcDbLine
 10
267.9884221652177
 20
483.841284020286
 30
0.0
 11
267.9884221652177
 21
480.8412840202863
 31
0.0
  0
LINE
  5
11ED
330
1E
100
AcDbEntity
  8
HILF
100
AcDbLine
 10
258.9884221652177
 20
483.841284020286
 30
0.0
 11
258.9884221652177
 21
480.8412840202863
 31
0.0
  0
LINE
  5
11EE
330
1E
100
AcDbEntity
  8
STEMPEL
100
AcDbLine
 10
257.9884221652177
 20
483.841284020286
 30
0.0
 11
257.9884221652177
 21
480.8412840202863
 31
0.0
  0
LINE
  5
11EF
330
1E
100
AcDbEntity
  8
STEMPEL
100
AcDbLine
 10
144.369488636572
 20
477.8412840202862
 30
0.0
 11
144.369488636572
 21
480.8412840202862
 31
0.0
  0
LINE
  5
11F0
330
1E
100
AcDbEntity
  8
STEMPEL
100
AcDbLine
 10
168.3694886365717
 20
477.8412840202864
 30
0.0
 11
168.3694886365717
 21
480.8412840202863
 31
0.0
  0
LINE
  5
11F1
330
1E
100
AcDbEntity
  8
STEMPEL
100
AcDbLine
 10
98.3694886365717
 20
480.8412840202863
 30
0.0
 11
131.3694886365719
 21
480.8412840202863
 31
0.0
  0
LINE
  5
11F2
330
1E
100
AcDbEntity
  8
STEMPEL
100
AcDbLine
 10
128.3694886365717
 20
477.8412840202862
 30
0.0
 11
128.3694886365717
 21
480.8412840202862
 31
0.0
  0
LINE
  5
11F3
330
1E
100
AcDbEntity
  8
STEMPEL
100
AcDbLine
 10
98.36948863657182
 20
477.8412840202859
 30
0.0
 11
98.36948863657182
 21
480.8412840202858
 31
0.0
  0
LINE
  5
11F4
330
1E
100
AcDbEntity
  8
STEMPEL
100
AcDbLine
 10
98.3694886365717
 20
477.8412840202864
 30
0.0
 11
98.3694886365717
 21
479.8412840202863
 31
0.0
  0
LINE
  5
11F5
330
1E
100
AcDbEntity
  8
STEMPEL
100
AcDbLine
 10
98.36948863657182
 20
477.8412840202859
 30
0.0
 11
98.36948863657182
 21
479.8412840202863
 31
0.0
  0
ENDSEC
  0
SECTION
  2
OBJECTS
  0
DICTIONARY
  5
C
330
0
100
AcDbDictionary
281
     1
  3
ACAD_COLOR
350
11A
  3
ACAD_GROUP
350
D
  3
ACAD_LAYOUT
350
19
  3
ACAD_MATERIAL
350
119
  3
ACAD_MLINESTYLE
350
16
  3
ACAD_PLOTSETTINGS
350
18
  3
ACAD_PLOTSTYLENAME
350
E
  3
AcDbVariableDictionary
350
125
  0
DICTIONARY
  5
DB
330
1E
100
AcDbDictionary
280
     1
281
     1
  3
ACAD_LAYOUTSELFREF
360
10F
  0
DICTIONARY
  5
DD
330
1A
100
AcDbDictionary
280
     1
281
     1
  3
ACAD_LAYOUTSELFREF
360
10E
  0
DICTIONARY
  5
11A
102
{ACAD_REACTORS
330
C
102
}
330
C
100
AcDbDictionary
281
     1
  0
DICTIONARY
  5
D
102
{ACAD_REACTORS
330
C
102
}
330
C
100
AcDbDictionary
281
     1
  0
DICTIONARY
  5
19
102
{ACAD_REACTORS
330
C
102
}
330
C
100
AcDbDictionary
281
     1
  3
Layout1
350
1D
  3
Model
350
21
  0
DICTIONARY
  5
119
102
{ACAD_REACTORS
330
C
102
}
330
C
100
AcDbDictionary
281
     1
  0
DICTIONARY
  5
16
102
{ACAD_REACTORS
330
C
102
}
330
C
100
AcDbDictionary
281
     1
  3
Standard
350
17
  0
DICTIONARY
  5
18
102
{ACAD_REACTORS
330
C
102
}
330
C
100
AcDbDictionary
281
     1
  0
ACDBDICTIONARYWDFLT
  5
E
102
{ACAD_REACTORS
330
C
102
}
330
C
100
AcDbDictionary
281
     1
  3
Normal
350
F
100
AcDbDictionaryWithDefault
340
F
  0
DICTIONARY
  5
125
102
{ACAD_REACTORS
330
C
102
}
330
C
100
AcDbDictionary
281
     1
  3
DIMASSOC
350
126
  3
PROJECTNAME
350
127
  0
XRECORD
  5
10F
102
{ACAD_REACTORS
330
DB
102
}
330
DB
100
AcDbXrecord
280
     1
340
1E
  0
XRECORD
  5
10E
102
{ACAD_REACTORS
330
DD
102
}
330
DD
100
AcDbXrecord
280
     1
340
1A
  0
LAYOUT
  5
1D
102
{ACAD_REACTORS
330
19
102
}
330
19
100
AcDbPlotSettings
  1

  2
\\NT_WORK01\HP LaserJet 5000 PCL 6
  4

  6

 40
0.0
 41
0.0
 42
0.0
 43
0.0
 44
0.0
 45
0.0
 46
0.0
 47
0.0
 48
0.0
 49
0.0
140
0.0
141
0.0
142
1.0
143
1.0
 70
   688
 72
     0
 73
     0
 74
     5
  7

 75
    16
147
1.0
 76
     0
 77
     2
 78
   300
148
0.0
149
0.0
100
AcDbLayout
  1
Layout1
 70
     0
 71
     1
 10
0.0
 20
0.0
 11
12.0
 21
9.0
 12
0.0
 22
0.0
 32
0.0
 14
1.000000000000000E+20
 24
1.000000000000000E+20
 34
1.000000000000000E+20
 15
-1.000000000000000E+20
 25
-1.000000000000000E+20
 35
-1.000000000000000E+20
146
0.0
 13
0.0
 23
0.0
 33
0.0
 16
1.0
 26
0.0
 36
0.0
 17
0.0
 27
1.0
 37
0.0
 76
     0
330
1A
  0
LAYOUT
  5
21
102
{ACAD_REACTORS
330
19
102
}
330
19
100
AcDbPlotSettings
  1

  2
none_device
  4
Letter_(8.50_x_11.00_Inches)
  6

 40
6.349999904632568
 41
6.349999904632568
 42
6.350006103515625
 43
6.350006103515625
 44
215.8999938964844
 45
279.3999938964844
 46
0.0
 47
0.0
 48
0.0
 49
0.0
140
0.0
141
0.0
142
1.0
143
1.0
 70
 11952
 72
     0
 73
     1
 74
     0
  7

 75
     0
147
1.0
 76
     0
 77
     2
 78
   300
148
3124.2
149
0.0
100
AcDbLayout
  1
Model
 70
     1
 71
     0
 10
0.0
 20
0.0
 11
12.0
 21
9.0
 12
0.0
 22
0.0
 32
0.0
 14
0.0
 24
0.0
 34
0.0
 15
0.0
 25
0.0
 35
0.0
146
0.0
 13
0.0
 23
0.0
 33
0.0
 16
1.0
 26
0.0
 36
0.0
 17
0.0
 27
1.0
 37
0.0
 76
     0
330
1E
  0
MLINESTYLE
  5
17
102
{ACAD_REACTORS
330
16
102
}
330
16
100
AcDbMlineStyle
  2
STANDARD
 70
     0
  3

 62
   256
 51
90.0
 52
90.0
 71
     2
 49
0.5
 62
   256
  6
BYLAYER
 49
-0.5
 62
   256
  6
BYLAYER
  0
ACDBPLACEHOLDER
  5
F
102
{ACAD_REACTORS
330
E
102
}
330
E
  0
DICTIONARYVAR
  5
126
102
{ACAD_REACTORS
330
125
102
}
330
125
100
DictionaryVariables
280
     0
  1
1
  0
DICTIONARYVAR
  5
127
102
{ACAD_REACTORS
330
125
102
}
330
125
100
DictionaryVariables
280
     0
  1

  0
ENDSEC
  0
EOF
