  0
SECTION
  2
HEADER
  9
$ACADVER
  1
AC1018
  9
$ACADMAINTVER
 70
     2
  9
$DWGCODEPAGE
  3
ANSI_1252
  9
$INSBASE
 10
0.0
 20
0.0
 30
0.0
  9
$EXTMIN
 10
0.0
 20
-0.0000000000000568
 30
0.0
  9
$EXTMAX
 10
594.0
 20
840.0
 30
0.0
  9
$LIMMIN
 10
0.0
 20
0.0
  9
$LIMMAX
 10
594.0
 20
840.0
  9
$ORTHOMODE
 70
     0
  9
$REGENMODE
 70
     1
  9
$FILLMODE
 70
     1
  9
$QTEXTMODE
 70
     0
  9
$MIRRTEXT
 70
     1
  9
$LTSCALE
 40
20.0
  9
$ATTMODE
 70
     1
  9
$TEXTSIZE
 40
3.5
  9
$TRACEWID
 40
1.0
  9
$TEXTSTYLE
  7
STANDARD
  9
$CLAYER
  8
SCHRAFF
  9
$CELTYPE
  6
ByLayer
  9
$CECOLOR
 62
   256
  9
$CELTSCALE
 40
1.0
  9
$DISPSILH
 70
     0
  9
$DIMSCALE
 40
2.0
  9
$DIMASZ
 40
3.5
  9
$DIMEXO
 40
1.0
  9
$DIMDLI
 40
7.0
  9
$DIMRND
 40
0.0
  9
$DIMDLE
 40
0.0
  9
$DIMEXE
 40
1.0
  9
$DIMTP
 40
0.0
  9
$DIMTM
 40
0.0
  9
$DIMTXT
 40
3.5
  9
$DIMCEN
 40
1.5
  9
$DIMTSZ
 40
0.0
  9
$DIMTOL
 70
     0
  9
$DIMLIM
 70
     0
  9
$DIMTIH
 70
     0
  9
$DIMTOH
 70
     0
  9
$DIMSE1
 70
     0
  9
$DIMSE2
 70
     0
  9
$DIMTAD
 70
     1
  9
$DIMZIN
 70
     8
  9
$DIMBLK
  1

  9
$DIMASO
 70
     1
  9
$DIMSHO
 70
     0
  9
$DIMPOST
  1

  9
$DIMAPOST
  1

  9
$DIMALT
 70
     0
  9
$DIMALTD
 70
     2
  9
$DIMALTF
 40
25.4
  9
$DIMLFAC
 40
1.0
  9
$DIMTOFL
 70
     1
  9
$DIMTVP
 40
0.0
  9
$DIMTIX
 70
     0
  9
$DIMSOXD
 70
     0
  9
$DIMSAH
 70
     0
  9
$DIMBLK1
  1

  9
$DIMBLK2
  1

  9
$DIMSTYLE
  2
Standard
  9
$DIMCLRD
 70
     0
  9
$DIMCLRE
 70
     0
  9
$DIMCLRT
 70
     1
  9
$DIMTFAC
 40
0.5142857142857144
  9
$DIMGAP
 40
1.5
  9
$DIMJUST
 70
     0
  9
$DIMSD1
 70
     0
  9
$DIMSD2
 70
     0
  9
$DIMTOLJ
 70
     1
  9
$DIMTZIN
 70
     8
  9
$DIMALTZ
 70
     8
  9
$DIMALTTZ
 70
     8
  9
$DIMUPT
 70
     0
  9
$DIMDEC
 70
     2
  9
$DIMTDEC
 70
     2
  9
$DIMALTU
 70
     2
  9
$DIMALTTD
 70
     2
  9
$DIMTXSTY
  7
STANDARD
  9
$DIMAUNIT
 70
     0
  9
$DIMADEC
 70
     2
  9
$DIMALTRND
 40
0.0
  9
$DIMAZIN
 70
     2
  9
$DIMDSEP
 70
    46
  9
$DIMATFIT
 70
     3
  9
$DIMFRAC
 70
     0
  9
$DIMLDRBLK
  1

  9
$DIMLUNIT
 70
     2
  9
$DIMLWD
 70
    -2
  9
$DIMLWE
 70
    -2
  9
$DIMTMOVE
 70
     0
  9
$LUNITS
 70
     2
  9
$LUPREC
 70
     2
  9
$SKETCHINC
 40
1.0
  9
$FILLETRAD
 40
0.0
  9
$AUNITS
 70
     0
  9
$AUPREC
 70
     0
  9
$MENU
  1
ACAD
  9
$ELEVATION
 40
0.0
  9
$PELEVATION
 40
0.0
  9
$THICKNESS
 40
0.0
  9
$LIMCHECK
 70
     0
  9
$CHAMFERA
 40
0.0
  9
$CHAMFERB
 40
0.0
  9
$CHAMFERC
 40
0.0
  9
$CHAMFERD
 40
0.0
  9
$SKPOLY
 70
     0
  9
$TDCREATE
 40
2455397.825393172
  9
$TDUCREATE
 40
2455397.783726505
  9
$TDUPDATE
 40
2455502.412173831
  9
$TDUUPDATE
 40
2455502.370507165
  9
$TDINDWG
 40
0.0625939931
  9
$TDUSRTIMER
 40
0.0625939931
  9
$USRTIMER
 70
     1
  9
$ANGBASE
 50
0.0
  9
$ANGDIR
 70
     0
  9
$PDMODE
 70
     0
  9
$PDSIZE
 40
0.0
  9
$PLINEWID
 40
0.0
  9
$SPLFRAME
 70
     0
  9
$SPLINETYPE
 70
     6
  9
$SPLINESEGS
 70
     8
  9
$HANDSEED
  5
1F81
  9
$SURFTAB1
 70
     6
  9
$SURFTAB2
 70
     6
  9
$SURFTYPE
 70
     6
  9
$SURFU
 70
     6
  9
$SURFV
 70
     6
  9
$UCSBASE
  2

  9
$UCSNAME
  2

  9
$UCSORG
 10
0.0
 20
0.0
 30
0.0
  9
$UCSXDIR
 10
1.0
 20
0.0
 30
0.0
  9
$UCSYDIR
 10
0.0
 20
1.0
 30
0.0
  9
$UCSORTHOREF
  2

  9
$UCSORTHOVIEW
 70
     0
  9
$UCSORGTOP
 10
0.0
 20
0.0
 30
0.0
  9
$UCSORGBOTTOM
 10
0.0
 20
0.0
 30
0.0
  9
$UCSORGLEFT
 10
0.0
 20
0.0
 30
0.0
  9
$UCSORGRIGHT
 10
0.0
 20
0.0
 30
0.0
  9
$UCSORGFRONT
 10
0.0
 20
0.0
 30
0.0
  9
$UCSORGBACK
 10
0.0
 20
0.0
 30
0.0
  9
$PUCSBASE
  2

  9
$PUCSNAME
  2

  9
$PUCSORG
 10
0.0
 20
0.0
 30
0.0
  9
$PUCSXDIR
 10
1.0
 20
0.0
 30
0.0
  9
$PUCSYDIR
 10
0.0
 20
1.0
 30
0.0
  9
$PUCSORTHOREF
  2

  9
$PUCSORTHOVIEW
 70
     0
  9
$PUCSORGTOP
 10
0.0
 20
0.0
 30
0.0
  9
$PUCSORGBOTTOM
 10
0.0
 20
0.0
 30
0.0
  9
$PUCSORGLEFT
 10
0.0
 20
0.0
 30
0.0
  9
$PUCSORGRIGHT
 10
0.0
 20
0.0
 30
0.0
  9
$PUCSORGFRONT
 10
0.0
 20
0.0
 30
0.0
  9
$PUCSORGBACK
 10
0.0
 20
0.0
 30
0.0
  9
$USERI1
 70
     0
  9
$USERI2
 70
     0
  9
$USERI3
 70
     0
  9
$USERI4
 70
     0
  9
$USERI5
 70
     0
  9
$USERR1
 40
0.0
  9
$USERR2
 40
0.0
  9
$USERR3
 40
0.0
  9
$USERR4
 40
0.0
  9
$USERR5
 40
0.0
  9
$WORLDVIEW
 70
     1
  9
$SHADEDGE
 70
     3
  9
$SHADEDIF
 70
    70
  9
$TILEMODE
 70
     1
  9
$MAXACTVP
 70
    16
  9
$PINSBASE
 10
0.0
 20
0.0
 30
0.0
  9
$PLIMCHECK
 70
     0
  9
$PEXTMIN
 10
1.000000000000000E+20
 20
1.000000000000000E+20
 30
1.000000000000000E+20
  9
$PEXTMAX
 10
-1.000000000000000E+20
 20
-1.000000000000000E+20
 30
-1.000000000000000E+20
  9
$PLIMMIN
 10
0.0
 20
0.0
  9
$PLIMMAX
 10
12.0
 20
9.0
  9
$UNITMODE
 70
     0
  9
$VISRETAIN
 70
     0
  9
$PLINEGEN
 70
     0
  9
$PSLTSCALE
 70
     0
  9
$TREEDEPTH
 70
  3020
  9
$CMLSTYLE
  2
Standard
  9
$CMLJUST
 70
     0
  9
$CMLSCALE
 40
1.0
  9
$PROXYGRAPHICS
 70
     1
  9
$MEASUREMENT
 70
     0
  9
$CELWEIGHT
370
    -1
  9
$ENDCAPS
280
     0
  9
$JOINSTYLE
280
     0
  9
$LWDISPLAY
290
     0
  9
$INSUNITS
 70
     0
  9
$HYPERLINKBASE
  1

  9
$STYLESHEET
  1
monochrome 1.ctb
  9
$XEDIT
290
     1
  9
$CEPSNTYPE
380
     0
  9
$PSTYLEMODE
290
     1
  9
$FINGERPRINTGUID
  2
{D68B0D0D-A558-11D7-B632-000102183313}
  9
$VERSIONGUID
  2
{2B5CD8A4-B1D1-4722-9E9C-4BB2F981CF8F}
  9
$EXTNAMES
290
     1
  9
$PSVPSCALE
 40
0.0
  9
$OLESTARTUP
290
     0
  9
$SORTENTS
280
   127
  9
$INDEXCTL
280
     0
  9
$HIDETEXT
280
     0
  9
$XCLIPFRAME
290
     0
  9
$HALOGAP
280
     0
  9
$OBSCOLOR
 70
   257
  9
$OBSLTYPE
280
     0
  9
$INTERSECTIONDISPLAY
280
     0
  9
$INTERSECTIONCOLOR
 70
   257
  9
$DIMASSOC
280
     1
  9
$PROJECTNAME
  1

  0
ENDSEC
  0
SECTION
  2
CLASSES
  0
CLASS
  1
ACDBDICTIONARYWDFLT
  2
AcDbDictionaryWithDefault
  3
ObjectDBX Classes
 90
        0
 91
        1
280
     0
281
     0
  0
CLASS
  1
DICTIONARYVAR
  2
AcDbDictionaryVar
  3
ObjectDBX Classes
 90
        0
 91
        2
280
     0
281
     0
  0
ENDSEC
  0
SECTION
  2
TABLES
  0
TABLE
  2
VPORT
  5
8
330
0
100
AcDbSymbolTable
 70
     2
  0
VPORT
  5
1F80
330
8
100
AcDbSymbolTableRecord
100
AcDbViewportTableRecord
  2
*Active
 70
     0
 10
0.0
 20
0.0
 11
1.0
 21
1.0
 12
297.0000093359254
 22
420.0000132023189
 13
0.0
 23
0.0
 14
1.0
 24
1.0
 15
10.0
 25
10.0
 16
0.0
 26
0.0
 36
1.0
 17
0.0
 27
0.0
 37
0.0
 40
847.143376608977
 41
1.336927223719676
 42
50.0
 43
0.0
 44
0.0
 50
0.0
 51
0.0
 71
     0
 72
  1500
 73
     1
 74
     0
 75
     0
 76
     0
 77
     0
 78
     0
281
     0
 65
     1
110
0.0
120
0.0
130
0.0
111
1.0
121
0.0
131
0.0
112
0.0
122
1.0
132
0.0
 79
     0
146
0.0
  0
ENDTAB
  0
TABLE
  2
LTYPE
  5
5
330
0
100
AcDbSymbolTable
 70
     3
  0
LTYPE
  5
13
330
5
100
AcDbSymbolTableRecord
100
AcDbLinetypeTableRecord
  2
ByBlock
 70
     0
  3

 72
    65
 73
     0
 40
0.0
  0
LTYPE
  5
14
330
5
100
AcDbSymbolTableRecord
100
AcDbLinetypeTableRecord
  2
ByLayer
 70
     0
  3

 72
    65
 73
     0
 40
0.0
  0
LTYPE
  5
15
330
5
100
AcDbSymbolTableRecord
100
AcDbLinetypeTableRecord
  2
Continuous
 70
     0
  3
Solid line
 72
    65
 73
     0
 40
0.0
  0
LTYPE
  5
25
330
5
100
AcDbSymbolTableRecord
100
AcDbLinetypeTableRecord
  2
STRICHPUNKT
 70
     0
  3
__ . __ . __ . __ . __ . __ . __ . __ . __ . __
 72
    65
 73
     4
 40
1.0
 49
0.5
 74
     0
 49
-0.25
 74
     0
 49
0.0
 74
     0
 49
-0.25
 74
     0
  0
LTYPE
  5
34
330
5
100
AcDbSymbolTableRecord
100
AcDbLinetypeTableRecord
  2
AUSGEZOGEN
 70
     0
  3
Ausgezogene Linie
 72
    65
 73
     0
 40
0.0
  0
ENDTAB
  0
TABLE
  2
LAYER
  5
2
330
0
100
AcDbSymbolTable
 70
     9
  0
LAYER
  5
10
330
2
100
AcDbSymbolTableRecord
100
AcDbLayerTableRecord
  2
0
 70
     0
 62
     7
  6
Continuous
370
    -3
390
F
  0
LAYER
  5
2B
330
2
100
AcDbSymbolTableRecord
100
AcDbLayerTableRecord
  2
VOLL
 70
     0
 62
     1
  6
Continuous
370
    -3
390
F
  0
LAYER
  5
2C
330
2
100
AcDbSymbolTableRecord
100
AcDbLayerTableRecord
  2
HILF
 70
     0
 62
     2
  6
Continuous
370
    -3
390
F
  0
LAYER
  5
2D
330
2
100
AcDbSymbolTableRecord
100
AcDbLayerTableRecord
  2
MITTEL
 70
     0
 62
     2
  6
STRICHPUNKT
370
    -3
390
F
  0
LAYER
  5
2F
330
2
100
AcDbSymbolTableRecord
100
AcDbLayerTableRecord
  2
BEM
 70
     0
 62
     7
  6
Continuous
370
    -3
390
F
  0
LAYER
  5
30
330
2
100
AcDbSymbolTableRecord
100
AcDbLayerTableRecord
  2
STEMPEL
 70
     0
 62
     3
  6
Continuous
370
    -3
390
F
  0
LAYER
  5
33
330
2
100
AcDbSymbolTableRecord
100
AcDbLayerTableRecord
  2
TEXT
 70
     0
 62
     7
  6
Continuous
370
    -3
390
F
  0
LAYER
  5
1F5
330
2
100
AcDbSymbolTableRecord
100
AcDbLayerTableRecord
  2
DEFPOINTS
 70
     0
 62
     7
  6
AUSGEZOGEN
290
     0
370
    -3
390
F
  0
LAYER
  5
1F6
330
2
100
AcDbSymbolTableRecord
100
AcDbLayerTableRecord
  2
SCHRAFF
 70
     0
 62
     7
  6
AUSGEZOGEN
370
    -3
390
F
  0
ENDTAB
  0
TABLE
  2
STYLE
  5
3
330
0
100
AcDbSymbolTable
 70
     2
  0
STYLE
  5
11
330
3
100
AcDbSymbolTableRecord
100
AcDbTextStyleTableRecord
  2
STANDARD
 70
     0
 40
0.0
 41
0.8
 50
0.0
 71
     0
 42
3.5
  3
simplex.shx
  4

  0
STYLE
  5
24
330
3
100
AcDbSymbolTableRecord
100
AcDbTextStyleTableRecord
  2
GREEKS
 70
     0
 40
0.0
 41
0.8
 50
0.0
 71
     0
 42
2.5
  3
SIMPLEX.shx
  4

  0
ENDTAB
  0
TABLE
  2
VIEW
  5
6
330
0
100
AcDbSymbolTable
 70
     0
  0
ENDTAB
  0
TABLE
  2
UCS
  5
7
330
0
100
AcDbSymbolTable
 70
     0
  0
ENDTAB
  0
TABLE
  2
APPID
  5
9
330
0
100
AcDbSymbolTable
 70
     1
  0
APPID
  5
12
330
9
100
AcDbSymbolTableRecord
100
AcDbRegAppTableRecord
  2
ACAD
 70
     0
  0
ENDTAB
  0
TABLE
  2
DIMSTYLE
  5
A
330
0
100
AcDbSymbolTable
 70
     1
100
AcDbDimStyleTable
 71
     1
340
A2
  0
DIMSTYLE
105
A2
102
{ACAD_REACTORS
330
196D
330
1976
330
1979
330
1981
330
1988
330
19FD
330
1A69
330
1A72
330
1A7D
330
1A82
102
}
330
A
100
AcDbSymbolTableRecord
100
AcDbDimStyleTableRecord
  2
Standard
 70
     0
340
11
  0
ENDTAB
  0
TABLE
  2
BLOCK_RECORD
  5
1
330
0
100
AcDbSymbolTable
 70
    12
  0
BLOCK_RECORD
  5
1E
102
{ACAD_XDICTIONARY
360
DB
102
}
330
1
100
AcDbSymbolTableRecord
100
AcDbBlockTableRecord
  2
*Model_Space
340
21
  0
BLOCK_RECORD
  5
1A
102
{ACAD_XDICTIONARY
360
DD
102
}
330
1
100
AcDbSymbolTableRecord
100
AcDbBlockTableRecord
  2
*Paper_Space
340
1D
  0
BLOCK_RECORD
  5
22
330
1
100
AcDbSymbolTableRecord
100
AcDbBlockTableRecord
  2
LOGO
340
0
102
{BLKREFS
331
56
102
}
  0
BLOCK_RECORD
  5
23
330
1
100
AcDbSymbolTableRecord
100
AcDbBlockTableRecord
  2
LORO
340
0
102
{BLKREFS
331
9B
102
}
  0
BLOCK_RECORD
  5
1C2B
330
1
100
AcDbSymbolTableRecord
100
AcDbBlockTableRecord
  2
*D2
340
0
  0
BLOCK_RECORD
  5
1C37
330
1
100
AcDbSymbolTableRecord
100
AcDbBlockTableRecord
  2
*D3
340
0
  0
BLOCK_RECORD
  5
1C43
330
1
100
AcDbSymbolTableRecord
100
AcDbBlockTableRecord
  2
*D4
340
0
  0
BLOCK_RECORD
  5
1C54
330
1
100
AcDbSymbolTableRecord
100
AcDbBlockTableRecord
  2
*D5
340
0
  0
BLOCK_RECORD
  5
1C60
330
1
100
AcDbSymbolTableRecord
100
AcDbBlockTableRecord
  2
*D6
340
0
  0
BLOCK_RECORD
  5
1C6C
330
1
100
AcDbSymbolTableRecord
100
AcDbBlockTableRecord
  2
*D7
340
0
  0
BLOCK_RECORD
  5
1C78
330
1
100
AcDbSymbolTableRecord
100
AcDbBlockTableRecord
  2
*D8
340
0
  0
BLOCK_RECORD
  5
1C84
330
1
100
AcDbSymbolTableRecord
100
AcDbBlockTableRecord
  2
*D9
340
0
  0
BLOCK_RECORD
  5
1C90
330
1
100
AcDbSymbolTableRecord
100
AcDbBlockTableRecord
  2
*D10
340
0
  0
BLOCK_RECORD
  5
1C9C
330
1
100
AcDbSymbolTableRecord
100
AcDbBlockTableRecord
  2
*D11
340
0
  0
ENDTAB
  0
ENDSEC
  0
SECTION
  2
BLOCKS
  0
BLOCK
  5
37
330
1E
100
AcDbEntity
  8
0
100
AcDbBlockBegin
  2
*Model_Space
 70
     0
 10
0.0
 20
0.0
 30
0.0
  3
*Model_Space
  1

  0
ENDBLK
  5
38
330
1E
100
AcDbEntity
  8
0
100
AcDbBlockEnd
  0
BLOCK
  5
35
330
1A
100
AcDbEntity
 67
     1
  8
0
100
AcDbBlockBegin
  2
*Paper_Space
 70
     0
 10
0.0
 20
0.0
 30
0.0
  3
*Paper_Space
  1

  0
ENDBLK
  5
36
330
1A
100
AcDbEntity
 67
     1
  8
0
100
AcDbBlockEnd
  0
BLOCK
  5
39
330
22
100
AcDbEntity
  8
0
100
AcDbBlockBegin
  2
LOGO
 70
     0
 10
0.0
 20
0.0
 30
0.0
  3
LOGO
  1

  0
ARC
  5
3A
330
22
100
AcDbEntity
  8
0
100
AcDbCircle
 10
11.59973089678112
 20
-9.271599258481501
 30
0.0
 40
4.5
100
AcDbArc
 50
270.0
 51
231.0575587310159
  0
LINE
  5
3B
330
22
100
AcDbEntity
  8
0
100
AcDbLine
 10
3.599730896781125
 20
-4.771599258481529
 30
0.0
 11
3.599730896781153
 21
-11.77159925848133
 31
0.0
  0
LINE
  5
3C
330
22
100
AcDbEntity
  8
0
100
AcDbLine
 10
2.599730896781125
 20
-4.771599258481529
 30
0.0
 11
2.599730896781153
 21
-11.77159925848133
 31
0.0
  0
CIRCLE
  5
3D
330
22
100
AcDbEntity
  8
0
100
AcDbCircle
 10
11.59973089678112
 20
-9.271599258481501
 30
0.0
 40
3.5
  0
ARC
  5
3E
330
22
100
AcDbEntity
  8
0
100
AcDbCircle
 10
31.59973089678115
 20
-9.271599258481472
 30
0.0
 40
4.5
100
AcDbArc
 50
270.0
 51
231.0575587310182
  0
LINE
  5
3F
330
22
100
AcDbEntity
  8
0
100
AcDbLine
 10
17.59973089678112
 20
-4.771599258481472
 30
0.0
 11
17.59973089678115
 21
-13.77159925848147
 31
0.0
  0
ARC
  5
40
330
22
100
AcDbEntity
  8
0
100
AcDbCircle
 10
22.59973089678116
 20
-7.271599258481472
 30
0.0
 40
2.5
100
AcDbArc
 50
293.1161887722295
 51
90.0
  0
CIRCLE
  5
41
330
22
100
AcDbEntity
  8
0
100
AcDbCircle
 10
31.59973089678115
 20
-9.271599258481472
 30
0.0
 40
3.5
  0
ARC
  5
42
330
22
100
AcDbEntity
  8
0
100
AcDbCircle
 10
4.599730896781153
 20
-11.77159925848133
 30
0.0
 40
1.0
100
AcDbArc
 50
180.0
 51
270.0
  0
ARC
  5
43
330
22
100
AcDbEntity
  8
0
100
AcDbCircle
 10
4.599730896781153
 20
-11.77159925848133
 30
0.0
 40
2.0
100
AcDbArc
 50
179.9999999999992
 51
270.0
  0
LINE
  5
44
330
22
100
AcDbEntity
  8
0
100
AcDbLine
 10
11.59973089678115
 20
-13.77159925848144
 30
0.0
 11
4.599730896781153
 21
-13.77159925848147
 31
0.0
  0
LINE
  5
45
330
22
100
AcDbEntity
  8
0
100
AcDbLine
 10
8.771303772034769
 20
-12.77159925848136
 30
0.0
 11
4.599730896781153
 21
-12.77159925848133
 31
0.0
  0
LINE
  5
46
330
22
100
AcDbEntity
  8
0
100
AcDbLine
 10
31.59973089678115
 20
-13.77159925848147
 30
0.0
 11
23.6715276665056
 21
-13.77159925848144
 31
0.0
  0
LINE
  5
47
330
22
100
AcDbEntity
  8
0
100
AcDbLine
 10
23.56565672307022
 20
-9.51278021337896
 30
0.0
 11
24.4388546544846
 21
-12.77159925848144
 31
0.0
  0
LINE
  5
48
330
22
100
AcDbEntity
  8
0
100
AcDbLine
 10
22.59973089678116
 20
-9.771599258481472
 30
0.0
 11
18.59973089678112
 21
-9.771599258481472
 31
0.0
  0
LINE
  5
49
330
22
100
AcDbEntity
  8
0
100
AcDbLine
 10
18.59973089678115
 20
-13.77159925848144
 30
0.0
 11
17.59973089678115
 21
-13.77159925848144
 31
0.0
  0
LINE
  5
4A
330
22
100
AcDbEntity
  8
0
100
AcDbLine
 10
18.59973089678115
 20
-9.771599258481472
 30
0.0
 11
18.59973089678115
 21
-13.77159925848144
 31
0.0
  0
LINE
  5
4B
330
22
100
AcDbEntity
  8
0
100
AcDbLine
 10
22.59973089678116
 20
-9.771599258481472
 30
0.0
 11
23.67152766650562
 21
-13.77159925848147
 31
0.0
  0
ARC
  5
4C
330
22
100
AcDbEntity
  8
0
100
AcDbCircle
 10
22.59973089678116
 20
-7.271599258481472
 30
0.0
 40
2.5
100
AcDbArc
 50
270.0
 51
270.0000000000007
  0
LINE
  5
4D
330
22
100
AcDbEntity
  8
0
100
AcDbLine
 10
28.77130377203494
 20
-12.77159925848147
 30
0.0
 11
24.43885465448463
 21
-12.77159925848144
 31
0.0
  0
LINE
  5
4E
330
22
100
AcDbEntity
  8
0
100
AcDbLine
 10
3.599730896781125
 20
-4.771599258481472
 30
0.0
 11
2.599730896781125
 21
-4.771599258481472
 31
0.0
  0
LINE
  5
4F
330
22
100
AcDbEntity
  8
0
100
AcDbLine
 10
22.59973089678116
 20
-8.771599258481472
 30
0.0
 11
18.59973089678115
 21
-8.771599258481472
 31
0.0
  0
LINE
  5
50
330
22
100
AcDbEntity
  8
0
100
AcDbLine
 10
22.59973089678116
 20
-5.771599258481472
 30
0.0
 11
18.59973089678115
 21
-5.771599258481472
 31
0.0
  0
LINE
  5
51
330
22
100
AcDbEntity
  8
0
100
AcDbLine
 10
22.59973089678116
 20
-4.771599258481472
 30
0.0
 11
17.59973089678115
 21
-4.771599258481472
 31
0.0
  0
LINE
  5
52
330
22
100
AcDbEntity
  8
0
100
AcDbLine
 10
18.59973089678115
 20
-5.771599258481472
 30
0.0
 11
18.59973089678115
 21
-8.771599258481472
 31
0.0
  0
ARC
  5
53
330
22
100
AcDbEntity
  8
0
100
AcDbCircle
 10
22.59973089678116
 20
-7.271599258481472
 30
0.0
 40
1.5
100
AcDbArc
 50
270.0
 51
90.0
  0
ENDBLK
  5
54
330
22
100
AcDbEntity
  8
0
100
AcDbBlockEnd
  0
BLOCK
  5
55
330
23
100
AcDbEntity
  8
0
100
AcDbBlockBegin
  2
LORO
 70
     0
 10
0.0
 20
0.0
 30
0.0
  3
LORO
  1

  0
INSERT
  5
56
330
23
100
AcDbEntity
  8
STEMPEL
100
AcDbBlockReference
  2
LOGO
 10
-1.748032802467321
 20
3.771489518552062
 30
0.0
  0
ENDBLK
  5
57
330
23
100
AcDbEntity
  8
0
100
AcDbBlockEnd
  0
BLOCK
  5
1C35
330
1C2B
100
AcDbEntity
  8
0
100
AcDbBlockBegin
  2
*D2
 70
     1
 10
0.0
 20
0.0
 30
0.0
  3
*D2
  1

  0
LINE
  5
1D58
330
1C2B
100
AcDbEntity
  8
BEM
 62
     0
370
    -2
100
AcDbLine
 10
134.7559217885923
 20
148.7895290139157
 30
0.0
 11
134.7559217885923
 21
129.1490677335525
 31
0.0
  0
LINE
  5
1D59
330
1C2B
100
AcDbEntity
  8
BEM
 62
     0
370
    -2
100
AcDbLine
 10
390.972675023562
 20
148.7895290139149
 30
0.0
 11
390.972675023562
 21
129.1490677335525
 31
0.0
  0
LINE
  5
1D5A
330
1C2B
100
AcDbEntity
  8
BEM
 62
     0
370
    -2
100
AcDbLine
 10
141.7559217885923
 20
131.1490677335525
 30
0.0
 11
383.972675023562
 21
131.1490677335525
 31
0.0
  0
SOLID
  5
1D5B
330
1C2B
100
AcDbEntity
  8
BEM
 62
     0
100
AcDbTrace
 10
141.7559217885923
 20
132.3157344002192
 30
0.0
 11
141.7559217885923
 21
129.9824010668859
 31
0.0
 12
134.7559217885923
 22
131.1490677335525
 32
0.0
 13
134.7559217885923
 23
131.1490677335525
 33
0.0
  0
SOLID
  5
1D5C
330
1C2B
100
AcDbEntity
  8
BEM
 62
     0
100
AcDbTrace
 10
383.972675023562
 20
132.3157344002192
 30
0.0
 11
383.972675023562
 21
129.9824010668859
 31
0.0
 12
390.972675023562
 22
131.1490677335525
 32
0.0
 13
390.972675023562
 23
131.1490677335525
 33
0.0
  0
MTEXT
  5
1D5D
330
1C2B
100
AcDbEntity
  8
BEM
 62
     1
100
AcDbMText
 10
262.8642984060772
 20
136.6490677335525
 30
0.0
 40
7.0
 41
0.0
 71
     5
 72
     1
  1
\A1;256
 73
     1
 44
1.0
  0
POINT
  5
1D5E
330
1C2B
100
AcDbEntity
  8
DEFPOINTS
 62
     0
100
AcDbPoint
 10
134.7559217885923
 20
150.7895290139157
 30
0.0
  0
POINT
  5
1D5F
330
1C2B
100
AcDbEntity
  8
DEFPOINTS
 62
     0
100
AcDbPoint
 10
390.972675023562
 20
150.7895290139149
 30
0.0
  0
POINT
  5
1D60
330
1C2B
100
AcDbEntity
  8
DEFPOINTS
 62
     0
100
AcDbPoint
 10
390.972675023562
 20
131.1490677335525
 30
0.0
  0
ENDBLK
  5
1C36
330
1C2B
100
AcDbEntity
  8
0
100
AcDbBlockEnd
  0
BLOCK
  5
1C41
330
1C37
100
AcDbEntity
  8
0
100
AcDbBlockBegin
  2
*D3
 70
     1
 10
0.0
 20
0.0
 30
0.0
  3
*D3
  1

  0
LINE
  5
1D9D
330
1C37
100
AcDbEntity
  8
BEM
 62
     0
370
    -2
100
AcDbLine
 10
225.4018231008715
 20
129.1490677335525
 30
0.0
 11
225.4018231008715
 21
113.1490677335525
 31
0.0
  0
LINE
  5
1D9E
330
1C37
100
AcDbEntity
  8
BEM
 62
     0
370
    -2
100
AcDbLine
 10
510.4018231008715
 20
231.9552567390102
 30
0.0
 11
510.4018231008715
 21
113.1490677335525
 31
0.0
  0
LINE
  5
1D9F
330
1C37
100
AcDbEntity
  8
BEM
 62
     0
370
    -2
100
AcDbLine
 10
232.4018231008715
 20
115.1490677335525
 30
0.0
 11
503.4018231008714
 21
115.1490677335525
 31
0.0
  0
SOLID
  5
1DA0
330
1C37
100
AcDbEntity
  8
BEM
 62
     0
100
AcDbTrace
 10
232.4018231008715
 20
116.3157344002192
 30
0.0
 11
232.4018231008715
 21
113.9824010668859
 31
0.0
 12
225.4018231008715
 22
115.1490677335525
 32
0.0
 13
225.4018231008715
 23
115.1490677335525
 33
0.0
  0
SOLID
  5
1DA1
330
1C37
100
AcDbEntity
  8
BEM
 62
     0
100
AcDbTrace
 10
503.4018231008714
 20
116.3157344002192
 30
0.0
 11
503.4018231008714
 21
113.9824010668859
 31
0.0
 12
510.4018231008715
 22
115.1490677335525
 32
0.0
 13
510.4018231008715
 23
115.1490677335525
 33
0.0
  0
MTEXT
  5
1DA2
330
1C37
100
AcDbEntity
  8
BEM
 62
     1
100
AcDbMText
 10
367.9018231008715
 20
120.6490677335525
 30
0.0
 40
7.0
 41
0.0
 71
     5
 72
     1
  1
\A1;285
 73
     1
 44
1.0
  0
POINT
  5
1DA3
330
1C37
100
AcDbEntity
  8
DEFPOINTS
 62
     0
100
AcDbPoint
 10
225.4018231008715
 20
131.1490677335525
 30
0.0
  0
POINT
  5
1DA4
330
1C37
100
AcDbEntity
  8
DEFPOINTS
 62
     0
100
AcDbPoint
 10
510.4018231008715
 20
233.9552567390102
 30
0.0
  0
POINT
  5
1DA5
330
1C37
100
AcDbEntity
  8
DEFPOINTS
 62
     0
100
AcDbPoint
 10
510.4018231008715
 20
115.1490677335525
 30
0.0
  0
ENDBLK
  5
1C42
330
1C37
100
AcDbEntity
  8
0
100
AcDbBlockEnd
  0
BLOCK
  5
1C52
330
1C43
100
AcDbEntity
  8
0
100
AcDbBlockBegin
  2
*D4
 70
     1
 10
0.0
 20
0.0
 30
0.0
  3
*D4
  1

  0
LINE
  5
1D8F
330
1C43
100
AcDbEntity
  8
BEM
 62
     0
370
    -2
100
AcDbLine
 10
227.4018231008802
 20
248.8914738346774
 30
0.0
 11
313.1017154870563
 21
248.8914738346776
 31
0.0
  0
ARC
  5
1D90
330
1C43
100
AcDbEntity
  8
BEM
 62
     0
370
    -2
100
AcDbCircle
 10
225.4018231008802
 20
248.8914738346774
 30
0.0
 40
85.69989238617614
100
AcDbArc
 50
347.6296785455984
 51
356.9999999999998
  0
LINE
  5
1D91
330
1C43
100
AcDbEntity
  8
BEM
 62
     0
370
    -2
100
AcDbLine
 10
309.1120534542042
 20
230.5320378630685
 30
0.0
 11
306.8840677614762
 21
220.3734907350094
 31
0.0
  0
ARC
  5
1D92
330
1C43
100
AcDbEntity
  8
BEM
 62
     0
370
    -2
100
AcDbCircle
 10
225.4018231008802
 20
248.8914738346774
 30
0.0
 40
85.69989238617614
100
AcDbArc
 50
347.6375137352464
 51
352.3187568676231
  0
ARC
  5
1D93
330
1C43
100
AcDbEntity
  8
BEM
 62
     0
370
    -2
100
AcDbCircle
 10
225.4018231008802
 20
248.8914738346774
 30
0.0
 40
85.69989238617614
100
AcDbArc
 50
4.681243132376922
 51
9.362486264753604
  0
ARC
  5
1D94
330
1C43
100
AcDbEntity
  8
BEM
 62
     0
370
    -2
100
AcDbCircle
 10
225.4018231008802
 20
248.8914738346774
 30
0.0
 40
85.69989238617614
100
AcDbArc
 50
356.9999999999998
 51
0.0000000000001599
  0
SOLID
  5
1D95
330
1C43
100
AcDbEntity
  8
BEM
 62
     0
100
AcDbTrace
 10
309.1711290521134
 20
237.5452645688421
 30
0.0
 11
311.4943332898546
 21
237.3280860381687
 31
0.0
 12
310.9842667630043
 22
244.4062880167292
 32
0.0
 13
310.9842667630043
 23
244.4062880167292
 33
0.0
  0
SOLID
  5
1D96
330
1C43
100
AcDbEntity
  8
BEM
 62
     0
100
AcDbTrace
 10
311.9815274544874
 20
255.9332805639962
 30
0.0
 11
309.6501408413339
 21
255.8379867842809
 31
0.0
 12
311.1017154870563
 22
248.8914738346776
 32
0.0
 13
311.1017154870563
 23
248.8914738346776
 33
0.0
  0
MTEXT
  5
1D97
330
1C43
100
AcDbEntity
  8
BEM
 62
     1
100
AcDbMText
 10
302.6257520305013
 20
226.6310259634625
 30
0.0
 40
7.0
 41
0.0
 71
     5
 72
     1
  1
\A1;3°
 11
0.2142293935315425
 21
0.9767833776979967
 31
0.0
 73
     1
 44
1.0
  0
POINT
  5
1D98
330
1C43
100
AcDbEntity
  8
DEFPOINTS
 62
     0
100
AcDbPoint
 10
311.0886629783491
 20
247.3958044811225
 30
0.0
  0
POINT
  5
1D99
330
1C43
100
AcDbEntity
  8
DEFPOINTS
 62
     0
100
AcDbPoint
 10
513.3977117051354
 20
233.7982488702814
 30
0.0
  0
POINT
  5
1D9A
330
1C43
100
AcDbEntity
  8
DEFPOINTS
 62
     0
100
AcDbPoint
 10
225.4018231008715
 20
248.8914738346774
 30
0.0
  0
POINT
  5
1D9B
330
1C43
100
AcDbEntity
  8
DEFPOINTS
 62
     0
100
AcDbPoint
 10
223.4018231008715
 20
248.8914738346774
 30
0.0
  0
POINT
  5
1D9C
330
1C43
100
AcDbEntity
  8
DEFPOINTS
 62
     0
100
AcDbPoint
 10
225.4018231008715
 20
248.8914738346778
 30
0.0
  0
ENDBLK
  5
1C53
330
1C43
100
AcDbEntity
  8
0
100
AcDbBlockEnd
  0
BLOCK
  5
1C5E
330
1C54
100
AcDbEntity
  8
0
100
AcDbBlockBegin
  2
*D5
 70
     1
 10
0.0
 20
0.0
 30
0.0
  3
*D5
  1

  0
LINE
  5
1F4D
330
1C54
100
AcDbEntity
  8
BEM
 62
     0
370
    -2
100
AcDbLine
 10
66.40182310087197
 20
362.2895290139177
 30
0.0
 11
30.36425636988994
 21
362.2895290139177
 31
0.0
  0
LINE
  5
1F4E
330
1C54
100
AcDbEntity
  8
BEM
 62
     0
370
    -2
100
AcDbLine
 10
58.40182310087198
 20
604.4374484569678
 30
0.0
 11
30.36425636989
 21
604.4374484569678
 31
0.0
  0
LINE
  5
1F4F
330
1C54
100
AcDbEntity
  8
BEM
 62
     0
370
    -2
100
AcDbLine
 10
32.36425636988994
 20
369.2895290139177
 30
0.0
 11
32.36425636988999
 21
597.4374484569677
 31
0.0
  0
SOLID
  5
1F50
330
1C54
100
AcDbEntity
  8
BEM
 62
     0
100
AcDbTrace
 10
31.19758970322327
 20
369.2895290139177
 30
0.0
 11
33.53092303655661
 21
369.2895290139177
 31
0.0
 12
32.36425636988994
 22
362.2895290139177
 32
0.0
 13
32.36425636988994
 23
362.2895290139177
 33
0.0
  0
SOLID
  5
1F51
330
1C54
100
AcDbEntity
  8
BEM
 62
     0
100
AcDbTrace
 10
31.19758970322332
 20
597.4374484569677
 30
0.0
 11
33.53092303655666
 21
597.4374484569677
 31
0.0
 12
32.36425636988999
 22
604.4374484569678
 32
0.0
 13
32.36425636988999
 23
604.4374484569678
 33
0.0
  0
MTEXT
  5
1F52
330
1C54
100
AcDbEntity
  8
BEM
 62
     1
100
AcDbMText
 10
26.86425636988989
 20
483.3634887354427
 30
0.0
 40
7.0
 41
0.0
 71
     5
 72
     1
  1
\A1;min.35 - max.240
  7
GREEKS
 11
0.0000000000000001
 21
1.0
 31
0.0
 73
     1
 44
1.0
  0
POINT
  5
1F53
330
1C54
100
AcDbEntity
  8
DEFPOINTS
 62
     0
100
AcDbPoint
 10
68.40182310087198
 20
362.2895290139177
 30
0.0
  0
POINT
  5
1F54
330
1C54
100
AcDbEntity
  8
DEFPOINTS
 62
     0
100
AcDbPoint
 10
60.40182310087198
 20
604.4374484569678
 30
0.0
  0
POINT
  5
1F55
330
1C54
100
AcDbEntity
  8
DEFPOINTS
 62
     0
100
AcDbPoint
 10
32.36425636988999
 20
604.4374484569678
 30
0.0
  0
ENDBLK
  5
1C5F
330
1C54
100
AcDbEntity
  8
0
100
AcDbBlockEnd
  0
BLOCK
  5
1C6A
330
1C60
100
AcDbEntity
  8
0
100
AcDbBlockBegin
  2
*D6
 70
     1
 10
0.0
 20
0.0
 30
0.0
  3
*D6
  1

  0
LINE
  5
1D2F
330
1C60
100
AcDbEntity
  8
BEM
 62
     0
370
    -2
100
AcDbLine
 10
132.7559217885923
 20
150.7895290139157
 30
0.0
 11
30.36425636989005
 21
150.7895290139158
 31
0.0
  0
LINE
  5
1D30
330
1C60
100
AcDbEntity
  8
BEM
 62
     0
370
    -2
100
AcDbLine
 10
58.40182310087198
 20
356.7895290139177
 30
0.0
 11
30.36425636989009
 21
356.7895290139177
 31
0.0
  0
LINE
  5
1D31
330
1C60
100
AcDbEntity
  8
BEM
 62
     0
370
    -2
100
AcDbLine
 10
32.36425636989005
 20
157.7895290139157
 30
0.0
 11
32.3642563698901
 21
349.7895290139177
 31
0.0
  0
SOLID
  5
1D32
330
1C60
100
AcDbEntity
  8
BEM
 62
     0
100
AcDbTrace
 10
31.19758970322338
 20
157.7895290139157
 30
0.0
 11
33.53092303655671
 21
157.7895290139157
 31
0.0
 12
32.36425636989005
 22
150.7895290139158
 32
0.0
 13
32.36425636989005
 23
150.7895290139158
 33
0.0
  0
SOLID
  5
1D33
330
1C60
100
AcDbEntity
  8
BEM
 62
     0
100
AcDbTrace
 10
31.19758970322342
 20
349.7895290139177
 30
0.0
 11
33.53092303655676
 21
349.7895290139177
 31
0.0
 12
32.3642563698901
 22
356.7895290139177
 32
0.0
 13
32.3642563698901
 23
356.7895290139177
 33
0.0
  0
MTEXT
  5
1D34
330
1C60
100
AcDbEntity
  8
BEM
 62
     1
100
AcDbMText
 10
26.86425636989003
 20
253.7895290139167
 30
0.0
 40
7.0
 41
0.0
 71
     5
 72
     1
  1
\A1;206
 11
0.0000000000000001
 21
1.0
 31
0.0
 73
     1
 44
1.0
  0
POINT
  5
1D35
330
1C60
100
AcDbEntity
  8
DEFPOINTS
 62
     0
100
AcDbPoint
 10
134.7559217885923
 20
150.7895290139157
 30
0.0
  0
POINT
  5
1D36
330
1C60
100
AcDbEntity
  8
DEFPOINTS
 62
     0
100
AcDbPoint
 10
60.40182310087198
 20
356.7895290139177
 30
0.0
  0
POINT
  5
1D37
330
1C60
100
AcDbEntity
  8
DEFPOINTS
 62
     0
100
AcDbPoint
 10
32.3642563698901
 20
356.7895290139177
 30
0.0
  0
ENDBLK
  5
1C6B
330
1C60
100
AcDbEntity
  8
0
100
AcDbBlockEnd
  0
BLOCK
  5
1C76
330
1C6C
100
AcDbEntity
  8
0
100
AcDbBlockBegin
  2
*D7
 70
     1
 10
0.0
 20
0.0
 30
0.0
  3
*D7
  1

  0
LINE
  5
1DA7
330
1C6C
100
AcDbEntity
  8
SCHRAFF
 62
     0
370
    -2
100
AcDbLine
 10
386.0378620701929
 20
356.7895290139168
 30
0.0
 11
560.3195990079638
 21
356.7895290139168
 31
0.0
  0
LINE
  5
1DA8
330
1C6C
100
AcDbEntity
  8
SCHRAFF
 62
     0
370
    -2
100
AcDbLine
 10
538.3739232714167
 20
233.9552567390102
 30
0.0
 11
560.3195990079637
 21
233.9552567390102
 31
0.0
  0
LINE
  5
1DA9
330
1C6C
100
AcDbEntity
  8
SCHRAFF
 62
     0
370
    -2
100
AcDbLine
 10
558.3195990079637
 20
349.7895290139168
 30
0.0
 11
558.3195990079636
 21
240.9552567390102
 31
0.0
  0
SOLID
  5
1DAA
330
1C6C
100
AcDbEntity
  8
SCHRAFF
 62
     0
100
AcDbTrace
 10
557.1529323412971
 20
349.7895290139168
 30
0.0
 11
559.4862656746304
 21
349.7895290139168
 31
0.0
 12
558.3195990079637
 22
356.7895290139168
 32
0.0
 13
558.3195990079637
 23
356.7895290139168
 33
0.0
  0
SOLID
  5
1DAB
330
1C6C
100
AcDbEntity
  8
SCHRAFF
 62
     0
100
AcDbTrace
 10
557.1529323412971
 20
240.9552567390102
 30
0.0
 11
559.4862656746303
 21
240.9552567390102
 31
0.0
 12
558.3195990079636
 22
233.9552567390102
 32
0.0
 13
558.3195990079636
 23
233.9552567390102
 33
0.0
  0
MTEXT
  5
1DAC
330
1C6C
100
AcDbEntity
  8
SCHRAFF
 62
     1
100
AcDbMText
 10
552.8195990079637
 20
295.3723928764636
 30
0.0
 40
7.0
 41
0.0
 71
     5
 72
     1
  1
\A1;123
 11
0.0000000000000001
 21
1.0
 31
0.0
 73
     1
 44
1.0
  0
POINT
  5
1DAD
330
1C6C
100
AcDbEntity
  8
DEFPOINTS
 62
     0
100
AcDbPoint
 10
384.0378620701929
 20
356.7895290139168
 30
0.0
  0
POINT
  5
1DAE
330
1C6C
100
AcDbEntity
  8
DEFPOINTS
 62
     0
100
AcDbPoint
 10
536.3739232714167
 20
233.9552567390102
 30
0.0
  0
POINT
  5
1DAF
330
1C6C
100
AcDbEntity
  8
DEFPOINTS
 62
     0
100
AcDbPoint
 10
558.3195990079636
 20
233.9552567390102
 30
0.0
  0
ENDBLK
  5
1C77
330
1C6C
100
AcDbEntity
  8
0
100
AcDbBlockEnd
  0
BLOCK
  5
1C82
330
1C78
100
AcDbEntity
  8
0
100
AcDbBlockBegin
  2
*D8
 70
     1
 10
0.0
 20
0.0
 30
0.0
  3
*D8
  1

  0
LINE
  5
1D7D
330
1C78
100
AcDbEntity
  8
BEM
 62
     0
370
    -2
100
AcDbLine
 10
505.8931279129912
 20
300.782808450133
 30
0.0
 11
536.8785573964279
 21
299.1589309007748
 31
0.0
  0
LINE
  5
1D7E
330
1C78
100
AcDbEntity
  8
BEM
 62
     0
370
    -2
100
AcDbLine
 10
498.9324457326798
 20
167.9650803277746
 30
0.0
 11
529.9178752161166
 21
166.3412027784165
 31
0.0
  0
LINE
  5
1D7F
330
1C78
100
AcDbEntity
  8
BEM
 62
     0
370
    -2
100
AcDbLine
 10
534.5149466332181
 20
292.2731960699787
 30
0.0
 11
528.286967840308
 21
173.4362814341843
 31
0.0
  0
SOLID
  5
1D80
330
1C78
100
AcDbEntity
  8
BEM
 62
     0
100
AcDbTrace
 10
533.3498788426712
 20
292.3342546855955
 30
0.0
 11
535.6800144237651
 21
292.2121374543619
 31
0.0
 12
534.8812983269188
 22
299.2636028132606
 32
0.0
 13
534.8812983269188
 23
299.2636028132606
 33
0.0
  0
SOLID
  5
1D81
330
1C78
100
AcDbEntity
  8
BEM
 62
     0
100
AcDbTrace
 10
527.121900049761
 20
173.4973400498011
 30
0.0
 11
529.452035630855
 21
173.3752228185676
 31
0.0
 12
527.9206161466074
 22
166.4458746909024
 32
0.0
 13
527.9206161466074
 23
166.4458746909024
 33
0.0
  0
MTEXT
  5
1D82
330
1C78
100
AcDbEntity
  8
BEM
 62
     1
100
AcDbMText
 10
525.9084947956129
 20
233.1425865114177
 30
0.0
 40
7.0
 41
0.0
 71
     5
 72
     1
  1
\A1;%%c133
 11
0.0523359562429424
 21
0.9986295347545741
 31
0.0
 73
     1
 44
1.0
  0
POINT
  5
1D83
330
1C78
100
AcDbEntity
  8
DEFPOINTS
 62
     0
100
AcDbPoint
 10
503.8958688434821
 20
300.8874803626188
 30
0.0
  0
POINT
  5
1D84
330
1C78
100
AcDbEntity
  8
DEFPOINTS
 62
     0
100
AcDbPoint
 10
496.9351866631707
 20
168.0697522402605
 30
0.0
  0
POINT
  5
1D85
330
1C78
100
AcDbEntity
  8
DEFPOINTS
 62
     0
100
AcDbPoint
 10
527.9206161466074
 20
166.4458746909024
 30
0.0
  0
ENDBLK
  5
1C83
330
1C78
100
AcDbEntity
  8
0
100
AcDbBlockEnd
  0
BLOCK
  5
1C8E
330
1C84
100
AcDbEntity
  8
0
100
AcDbBlockBegin
  2
*D9
 70
     1
 10
0.0
 20
0.0
 30
0.0
  3
*D9
  1

  0
LINE
  5
1D73
330
1C84
100
AcDbEntity
  8
BEM
 62
     0
370
    -2
100
AcDbLine
 10
115.4018231008721
 20
701.9373904896522
 30
0.0
 11
115.4018231008721
 21
747.7031741049825
 31
0.0
  0
LINE
  5
1D74
330
1C84
100
AcDbEntity
  8
BEM
 62
     0
370
    -2
100
AcDbLine
 10
335.4018231008723
 20
701.9373904896522
 30
0.0
 11
335.4018231008723
 21
747.7031741049825
 31
0.0
  0
LINE
  5
1D75
330
1C84
100
AcDbEntity
  8
BEM
 62
     0
370
    -2
100
AcDbLine
 10
122.4018231008721
 20
745.7031741049824
 30
0.0
 11
328.4018231008723
 21
745.7031741049824
 31
0.0
  0
SOLID
  5
1D76
330
1C84
100
AcDbEntity
  8
BEM
 62
     0
100
AcDbTrace
 10
122.4018231008721
 20
746.8698407716491
 30
0.0
 11
122.4018231008721
 21
744.5365074383158
 31
0.0
 12
115.4018231008721
 22
745.7031741049824
 32
0.0
 13
115.4018231008721
 23
745.7031741049824
 33
0.0
  0
SOLID
  5
1D77
330
1C84
100
AcDbEntity
  8
BEM
 62
     0
100
AcDbTrace
 10
328.4018231008723
 20
746.8698407716491
 30
0.0
 11
328.4018231008723
 21
744.5365074383158
 31
0.0
 12
335.4018231008723
 22
745.7031741049824
 32
0.0
 13
335.4018231008723
 23
745.7031741049824
 33
0.0
  0
MTEXT
  5
1D78
330
1C84
100
AcDbEntity
  8
BEM
 62
     1
100
AcDbMText
 10
225.4018231008722
 20
751.2031741049825
 30
0.0
 40
7.0
 41
0.0
 71
     5
 72
     1
  1
\A1;%%c220
  7
GREEKS
 73
     1
 44
1.0
  0
POINT
  5
1D79
330
1C84
100
AcDbEntity
  8
DEFPOINTS
 62
     0
100
AcDbPoint
 10
115.4018231008721
 20
699.9373904896522
 30
0.0
  0
POINT
  5
1D7A
330
1C84
100
AcDbEntity
  8
DEFPOINTS
 62
     0
100
AcDbPoint
 10
335.4018231008723
 20
699.9373904896522
 30
0.0
  0
POINT
  5
1D7B
330
1C84
100
AcDbEntity
  8
DEFPOINTS
 62
     0
100
AcDbPoint
 10
335.4018231008723
 20
745.7031741049824
 30
0.0
  0
ENDBLK
  5
1C8F
330
1C84
100
AcDbEntity
  8
0
100
AcDbBlockEnd
  0
BLOCK
  5
1C9A
330
1C90
100
AcDbEntity
  8
0
100
AcDbBlockBegin
  2
*D10
 70
     1
 10
0.0
 20
0.0
 30
0.0
  3
*D10
  1

  0
LINE
  5
1F17
330
1C90
100
AcDbEntity
  8
BEM
 62
     0
370
    -2
100
AcDbLine
 10
60.40182310087198
 20
609.4374484569677
 30
0.0
 11
60.40182310087199
 21
765.1692521312716
 31
0.0
  0
LINE
  5
1F18
330
1C90
100
AcDbEntity
  8
BEM
 62
     0
370
    -2
100
AcDbLine
 10
390.401823100872
 20
609.4374484569676
 30
0.0
 11
390.401823100872
 21
765.1692521312716
 31
0.0
  0
LINE
  5
1F19
330
1C90
100
AcDbEntity
  8
BEM
 62
     0
370
    -2
100
AcDbLine
 10
67.40182310087198
 20
762.1692521312716
 30
0.0
 11
383.401823100872
 21
762.1692521312716
 31
0.0
  0
SOLID
  5
1F1A
330
1C90
100
AcDbEntity
  8
BEM
 62
     0
100
AcDbTrace
 10
67.40182310087198
 20
763.3359187979382
 30
0.0
 11
67.40182310087198
 21
761.002585464605
 31
0.0
 12
60.40182310087199
 22
762.1692521312716
 32
0.0
 13
60.40182310087199
 23
762.1692521312716
 33
0.0
  0
SOLID
  5
1F1B
330
1C90
100
AcDbEntity
  8
BEM
 62
     0
100
AcDbTrace
 10
383.401823100872
 20
763.3359187979382
 30
0.0
 11
383.401823100872
 21
761.002585464605
 31
0.0
 12
390.401823100872
 22
762.1692521312716
 32
0.0
 13
390.401823100872
 23
762.1692521312716
 33
0.0
  0
MTEXT
  5
1F1C
330
1C90
100
AcDbEntity
  8
BEM
 62
     1
100
AcDbMText
 10
225.401823100872
 20
767.6692521312716
 30
0.0
 40
7.0
 41
0.0
 71
     5
 72
     1
  1
\A1;%%c330
  7
GREEKS
 73
     1
 44
1.0
  0
POINT
  5
1F1D
330
1C90
100
AcDbEntity
  8
DEFPOINTS
 62
     0
100
AcDbPoint
 10
60.40182310087198
 20
607.4374484569678
 30
0.0
  0
POINT
  5
1F1E
330
1C90
100
AcDbEntity
  8
DEFPOINTS
 62
     0
100
AcDbPoint
 10
390.401823100872
 20
607.4374484569675
 30
0.0
  0
POINT
  5
1F1F
330
1C90
100
AcDbEntity
  8
DEFPOINTS
 62
     0
100
AcDbPoint
 10
390.401823100872
 20
762.1692521312716
 30
0.0
  0
ENDBLK
  5
1C9B
330
1C90
100
AcDbEntity
  8
0
100
AcDbBlockEnd
  0
BLOCK
  5
1CA6
330
1C9C
100
AcDbEntity
  8
0
100
AcDbBlockBegin
  2
*D11
 70
     1
 10
0.0
 20
0.0
 30
0.0
  3
*D11
  1

  0
LINE
  5
1F05
330
1C9C
100
AcDbEntity
  8
BEM
 62
     0
370
    -2
100
AcDbLine
 10
66.40182310087192
 20
609.9374484569677
 30
0.0
 11
29.36425636988999
 21
609.9374484569677
 31
0.0
  0
LINE
  5
1F06
330
1C9C
100
AcDbEntity
  8
BEM
 62
     0
370
    -2
100
AcDbLine
 10
143.4018231008721
 20
719.9374484569668
 30
0.0
 11
29.36425636989002
 21
719.9374484569668
 31
0.0
  0
LINE
  5
1F07
330
1C9C
100
AcDbEntity
  8
BEM
 62
     0
370
    -2
100
AcDbLine
 10
32.36425636988999
 20
616.9374484569678
 30
0.0
 11
32.36425636989001
 21
712.9374484569669
 31
0.0
  0
SOLID
  5
1F08
330
1C9C
100
AcDbEntity
  8
BEM
 62
     0
100
AcDbTrace
 10
31.19758970322332
 20
616.9374484569678
 30
0.0
 11
33.53092303655665
 21
616.9374484569678
 31
0.0
 12
32.36425636988999
 22
609.9374484569677
 32
0.0
 13
32.36425636988999
 23
609.9374484569677
 33
0.0
  0
SOLID
  5
1F09
330
1C9C
100
AcDbEntity
  8
BEM
 62
     0
100
AcDbTrace
 10
31.19758970322334
 20
712.9374484569669
 30
0.0
 11
33.53092303655667
 21
712.9374484569669
 31
0.0
 12
32.36425636989001
 22
719.9374484569668
 32
0.0
 13
32.36425636989001
 23
719.9374484569668
 33
0.0
  0
MTEXT
  5
1F0A
330
1C9C
100
AcDbEntity
  8
BEM
 62
     1
100
AcDbMText
 10
26.86425636988989
 20
664.9374484569673
 30
0.0
 40
7.0
 41
0.0
 71
     5
 72
     1
  1
\A1;110
  7
GREEKS
 11
0.0000000000000001
 21
1.0
 31
0.0
 73
     1
 44
1.0
  0
POINT
  5
1F0B
330
1C9C
100
AcDbEntity
  8
DEFPOINTS
 62
     0
100
AcDbPoint
 10
68.40182310087192
 20
609.9374484569677
 30
0.0
  0
POINT
  5
1F0C
330
1C9C
100
AcDbEntity
  8
DEFPOINTS
 62
     0
100
AcDbPoint
 10
145.4018231008721
 20
719.9374484569668
 30
0.0
  0
POINT
  5
1F0D
330
1C9C
100
AcDbEntity
  8
DEFPOINTS
 62
     0
100
AcDbPoint
 10
32.36425636989001
 20
719.9374484569668
 30
0.0
  0
ENDBLK
  5
1CA7
330
1C9C
100
AcDbEntity
  8
0
100
AcDbBlockEnd
  0
ENDSEC
  0
SECTION
  2
ENTITIES
  0
LINE
  5
58
330
1E
100
AcDbEntity
  8
STEMPEL
100
AcDbLine
 10
484.0
 20
830.0000000000002
 30
0.0
 11
484.0
 21
470.0000000000001
 31
0.0
  0
LINE
  5
59
330
1E
100
AcDbEntity
  8
STEMPEL
100
AcDbLine
 10
484.0
 20
470.0000000000001
 30
0.0
 11
584.0
 21
470.0000000000001
 31
0.0
  0
LINE
  5
5A
330
1E
100
AcDbEntity
  8
STEMPEL
100
AcDbLine
 10
484.0000000000001
 20
566.0000000000002
 30
0.0
 11
584.0000000000001
 21
566.0
 31
0.0
  0
LINE
  5
5B
330
1E
100
AcDbEntity
  8
STEMPEL
100
AcDbLine
 10
484.0
 20
650.0
 30
0.0
 11
584.0
 21
650.0
 31
0.0
  0
LINE
  5
5C
330
1E
100
AcDbEntity
  8
STEMPEL
100
AcDbLine
 10
484.0000000000003
 20
752.0000000000002
 30
0.0
 11
554.0
 21
752.0000000000002
 31
0.0
  0
LINE
  5
5D
330
1E
100
AcDbEntity
  8
STEMPEL
100
AcDbLine
 10
564.0
 20
566.0
 30
0.0
 11
564.0
 21
470.0000000000001
 31
0.0
  0
LINE
  5
5E
330
1E
100
AcDbEntity
  8
STEMPEL
100
AcDbLine
 10
554.0
 20
830.0000000000002
 30
0.0
 11
554.0
 21
566.0
 31
0.0
  0
LINE
  5
5F
330
1E
100
AcDbEntity
  8
STEMPEL
100
AcDbLine
 10
514.0
 20
830.0000000000002
 30
0.0
 11
514.0
 21
566.0000000000002
 31
0.0
  0
LINE
  5
60
330
1E
100
AcDbEntity
  8
VOLL
100
AcDbLine
 10
484.0
 20
484.0000000000001
 30
0.0
 11
584.0
 21
484.0
 31
0.0
  0
LINE
  5
61
330
1E
100
AcDbEntity
  8
VOLL
100
AcDbLine
 10
484.0000000000001
 20
524.0000000000001
 30
0.0
 11
584.0000000000001
 21
524.0
 31
0.0
  0
LINE
  5
62
330
1E
100
AcDbEntity
  8
VOLL
100
AcDbLine
 10
484.0000000000001
 20
544.0000000000002
 30
0.0
 11
584.0000000000001
 21
544.0
 31
0.0
  0
LINE
  5
63
330
1E
100
AcDbEntity
  8
VOLL
100
AcDbLine
 10
514.0
 20
584.0000000000002
 30
0.0
 11
554.0
 21
584.0000000000002
 31
0.0
  0
LINE
  5
64
330
1E
100
AcDbEntity
  8
VOLL
100
AcDbLine
 10
484.0000000000002
 20
610.0000000000002
 30
0.0
 11
554.0
 21
610.0
 31
0.0
  0
LINE
  5
65
330
1E
100
AcDbEntity
  8
HILF
100
AcDbLine
 10
494.0
 20
470.0000000000001
 30
0.0
 11
494.0
 21
566.0000000000002
 31
0.0
  0
LINE
  5
66
330
1E
100
AcDbEntity
  8
HILF
100
AcDbLine
 10
504.0
 20
470.0000000000001
 30
0.0
 11
504.0
 21
566.0000000000002
 31
0.0
  0
LINE
  5
67
330
1E
100
AcDbEntity
  8
HILF
100
AcDbLine
 10
514.0
 20
470.0000000000001
 30
0.0
 11
514.0
 21
566.0000000000002
 31
0.0
  0
LINE
  5
68
330
1E
100
AcDbEntity
  8
HILF
100
AcDbLine
 10
524.0
 20
470.0000000000001
 30
0.0
 11
524.0
 21
566.0000000000002
 31
0.0
  0
LINE
  5
69
330
1E
100
AcDbEntity
  8
HILF
100
AcDbLine
 10
534.0
 20
470.0000000000001
 30
0.0
 11
534.0
 21
566.0000000000002
 31
0.0
  0
LINE
  5
6A
330
1E
100
AcDbEntity
  8
HILF
100
AcDbLine
 10
544.0
 20
470.0000000000001
 30
0.0
 11
544.0
 21
566.0000000000002
 31
0.0
  0
LINE
  5
6B
330
1E
100
AcDbEntity
  8
HILF
100
AcDbLine
 10
554.0
 20
470.0000000000001
 30
0.0
 11
554.0
 21
566.0000000000002
 31
0.0
  0
LINE
  5
6C
330
1E
100
AcDbEntity
  8
HILF
100
AcDbLine
 10
524.0
 20
566.0000000000002
 30
0.0
 11
524.0
 21
650.0
 31
0.0
  0
LINE
  5
6D
330
1E
100
AcDbEntity
  8
HILF
100
AcDbLine
 10
534.0
 20
566.0000000000002
 30
0.0
 11
534.0
 21
650.0
 31
0.0
  0
LINE
  5
6E
330
1E
100
AcDbEntity
  8
HILF
100
AcDbLine
 10
544.0
 20
566.0000000000002
 30
0.0
 11
544.0
 21
650.0
 31
0.0
  0
LINE
  5
6F
330
1E
100
AcDbEntity
  8
HILF
100
AcDbLine
 10
509.9624175243587
 20
654.7736801096948
 30
0.0
 11
509.9624175243587
 21
746.6297842514811
 31
0.0
  0
LINE
  5
70
330
1E
100
AcDbEntity
  8
HILF
100
AcDbLine
 10
524.0
 20
654.7736801096948
 30
0.0
 11
524.0
 21
746.6297842514811
 31
0.0
  0
LINE
  5
71
330
1E
100
AcDbEntity
  8
HILF
100
AcDbLine
 10
534.0
 20
654.7736801096948
 30
0.0
 11
534.0
 21
746.6297842514811
 31
0.0
  0
LINE
  5
72
330
1E
100
AcDbEntity
  8
HILF
100
AcDbLine
 10
544.0
 20
654.7736801096948
 30
0.0
 11
544.0
 21
746.6297842514811
 31
0.0
  0
LINE
  5
73
330
1E
100
AcDbEntity
  8
VOLL
100
AcDbLine
 10
534.0
 20
752.0000000000002
 30
0.0
 11
534.0
 21
830.0000000000002
 31
0.0
  0
LINE
  5
74
330
1E
100
AcDbEntity
  8
HILF
100
AcDbLine
 10
510.2201636304418
 20
756.7238616296995
 30
0.0
 11
510.2201636304418
 21
824.858883932673
 31
0.0
  0
LINE
  5
75
330
1E
100
AcDbEntity
  8
HILF
100
AcDbLine
 10
579.1060174197169
 20
654.7736801096948
 30
0.0
 11
579.1060174197169
 21
824.858883932673
 31
0.0
  0
TEXT
  5
76
330
1E
100
AcDbEntity
  8
TEXT
100
AcDbText
 10
575.3261810501587
 20
492.3998239263297
 30
0.0
 40
4.0
  1
Änderung
 50
90.0
 41
0.8
  7
GREEKS
 72
     1
 11
575.3261810501587
 21
503.1426810691868
 31
0.0
100
AcDbText
  0
TEXT
  5
78
330
1E
100
AcDbEntity
  8
TEXT
100
AcDbText
 10
491.5379104912911
 20
573.5163572150376
 30
0.0
 40
5.0
  1
Maßstab
 50
90.0
 41
0.8
  7
GREEKS
100
AcDbText
  0
TEXT
  5
79
330
1E
100
AcDbEntity
  8
TEXT
100
AcDbText
 10
491.4510671988221
 20
654.8779403809009
 30
0.0
 40
5.0
  1
Benennung
 50
90.0
 41
0.8
  7
GREEKS
100
AcDbText
  0
TEXT
  5
7A
330
1E
100
AcDbEntity
  8
TEXT
100
AcDbText
 10
491.6867965462863
 20
756.1787549576343
 30
0.0
 40
5.0
  1
Zeichnungs Nr.
 50
90.0
 41
0.8
  7
GREEKS
100
AcDbText
  0
TEXT
  5
7B
330
1E
100
AcDbEntity
  8
TEXT
100
AcDbText
 10
563.1543942980694
 20
654.7422383911359
 30
0.0
 40
5.0
  1
Bauvorhaben
 50
90.0
 41
0.8
  7
GREEKS
100
AcDbText
  0
TEXT
  5
7C
330
1E
100
AcDbEntity
  8
TEXT
100
AcDbText
 10
520.8188176290003
 20
756.7238616296995
 30
0.0
 40
5.0
  1
Ersatz für:
 50
90.0
 41
0.8
  7
GREEKS
100
AcDbText
  0
TEXT
  5
7D
330
1E
100
AcDbEntity
  8
TEXT
100
AcDbText
 10
580.3453415397281
 20
478.2664110704577
 30
0.0
 40
4.0
  1
Index
 50
180.0
 41
0.8
  7
GREEKS
100
AcDbText
  0
TEXT
  5
7E
330
1E
100
AcDbEntity
  8
TEXT
100
AcDbText
 10
575.3284373066019
 20
529.8990113186978
 30
0.0
 40
4.0
  1
Tag
 50
90.0
 41
0.8
  7
GREEKS
 72
     1
 11
575.3284373066019
 21
533.6323446520311
 31
0.0
100
AcDbText
  0
TEXT
  5
7F
330
1E
100
AcDbEntity
  8
TEXT
100
AcDbText
 10
575.4067578303359
 20
548.9795678138292
 30
0.0
 40
4.0
  1
Name
 50
90.0
 41
0.8
  7
GREEKS
 72
     1
 11
575.4067578303359
 21
555.3033773376387
 31
0.0
100
AcDbText
  0
TEXT
  5
80
330
1E
100
AcDbEntity
  8
TEXT
100
AcDbText
 10
520.6811949877008
 20
592.3311673153651
 30
0.0
 40
4.0
  1
Tag
 50
90.0
 41
0.8
  7
GREEKS
100
AcDbText
  0
TEXT
  5
81
330
1E
100
AcDbEntity
  8
TEXT
100
AcDbText
 10
520.6903890808478
 20
622.4626584226296
 30
0.0
 40
4.0
  1
Name
 50
90.0
 41
0.8
  7
GREEKS
100
AcDbText
  0
TEXT
  5
82
330
1E
100
AcDbEntity
  8
TEXT
100
AcDbText
 10
530.3700963038204
 20
567.5836127167615
 30
0.0
 40
4.0
  1
Gez.
 50
90.0
 41
0.8
  7
GREEKS
100
AcDbText
  0
TEXT
  5
83
330
1E
100
AcDbEntity
  8
TEXT
100
AcDbText
 10
540.3107370857163
 20
567.5515086571672
 30
0.0
 40
4.0
  1
Gepr.
 50
90.0
 41
0.8
  7
GREEKS
100
AcDbText
  0
TEXT
  5
84
330
1E
100
AcDbEntity
  8
TEXT
100
AcDbText
 10
550.470536103502
 20
567.6006777387303
 30
0.0
 40
4.0
  1
Norm.
 50
90.0
 41
0.8
  7
GREEKS
100
AcDbText
  0
TEXT
  5
85
330
1E
100
AcDbEntity
  8
TEXT
100
AcDbText
 10
541.925838221214
 20
757.2400861497007
 30
0.0
 40
5.0
  1
ersetzt durch:
 50
90.0
 41
0.8
  7
GREEKS
100
AcDbText
  0
TEXT
  5
86
330
1E
100
AcDbEntity
  8
TEXT
100
AcDbText
 10
521.0331740347627
 20
568.8693027807324
 30
0.0
 40
4.0
  1
2010
 50
90.0
 41
0.8
  7
GREEKS
100
AcDbText
  0
LINE
  5
87
330
1E
100
AcDbEntity
  8
HILF
100
AcDbLine
 10
594.0
 20
-0.0000000000000568
 30
0.0
 11
594.0
 21
840.0
 31
0.0
  0
LINE
  5
88
330
1E
100
AcDbEntity
  8
HILF
100
AcDbLine
 10
594.0
 20
840.0
 30
0.0
 11
0.0
 21
840.0
 31
0.0
  0
LINE
  5
89
330
1E
100
AcDbEntity
  8
HILF
100
AcDbLine
 10
0.0
 20
840.0
 30
0.0
 11
0.0
 21
0.0
 31
0.0
  0
LINE
  5
8B
330
1E
100
AcDbEntity
  8
STEMPEL
100
AcDbLine
 10
10.0
 20
830.0
 30
0.0
 11
10.0
 21
39.99999999999995
 31
0.0
  0
LINE
  5
8D
330
1E
100
AcDbEntity
  8
STEMPEL
100
AcDbLine
 10
584.0
 20
39.99999999999995
 30
0.0
 11
584.0
 21
830.0
 31
0.0
  0
LINE
  5
8E
330
1E
100
AcDbEntity
  8
STEMPEL
100
AcDbLine
 10
584.0
 20
830.0
 30
0.0
 11
10.0
 21
830.0
 31
0.0
  0
TEXT
  5
91
330
1E
100
AcDbEntity
  8
TEXT
100
AcDbText
 10
491.16010388621
 20
618.5090226415829
 30
0.0
 40
5.0
  1
Zul.Abw.
 50
90.0
 41
0.8
  7
GREEKS
100
AcDbText
  0
TEXT
  5
99
330
1E
100
AcDbEntity
  8
TEXT
 62
     1
100
AcDbText
 10
506.5292291158502
 20
582.703491203422
 30
0.0
 40
7.0
  1
1:2
 50
90.0
 41
0.8
  7
GREEKS
100
AcDbText
  0
TEXT
  5
9A
330
1E
100
AcDbEntity
  8
TEXT
100
AcDbText
 10
479.8856414948956
 20
470.0441139350127
 30
0.0
 40
5.0
  1
Erstellt mit AUTOCAD 2004
 50
90.0
 41
0.8
  7
GREEKS
100
AcDbText
  0
INSERT
  5
9B
330
1E
100
AcDbEntity
  8
HILF
100
AcDbBlockReference
  2
LORO
 10
557.0194069970104
 20
573.0624985962354
 30
0.0
 41
2.0
 42
2.0
 43
2.0
 50
90.0
  0
LINE
  5
9C
330
1E
100
AcDbEntity
  8
BEM
100
AcDbLine
 10
594.0
 20
455.9999999999999
 30
0.0
 11
584.0
 21
455.9999999999999
 31
0.0
  0
LINE
  5
13E
330
1E
100
AcDbEntity
  8
HILF
100
AcDbLine
 10
594.0
 20
-0.0000000000000568
 30
0.0
 11
0.0
 21
0.0
 31
0.0
  0
LINE
  5
13F
330
1E
100
AcDbEntity
  8
STEMPEL
100
AcDbLine
 10
584.0
 20
39.99999999999995
 30
0.0
 11
10.0
 21
39.99999999999995
 31
0.0
  0
LINE
  5
14A
330
1E
100
AcDbEntity
  8
HILF
100
AcDbLine
 10
297.0
 20
-0.0000000000000568
 30
0.0
 11
297.0
 21
39.99999999999995
 31
0.0
  0
TEXT
  5
15B
330
1E
100
AcDbEntity
  8
BEM
100
AcDbText
 10
583.8320989200114
 20
837.3022923857165
 30
0.0
 40
4.0
  1
Diese Zeichnung ist urheberrechtlich geschützt und bleibt unser Eigentum. Sie darf weder ganz noch teilweise verfielfältigt und nicht an Dritte weitergegeben werden.
 50
180.0
 41
0.8
  7
GREEKS
100
AcDbText
  0
TEXT
  5
81B
330
1E
100
AcDbEntity
  8
TEXT
 62
     1
100
AcDbText
 10
506.9774790600469
 20
767.4377728175698
 30
0.0
 40
7.0
  1
21525125W
 50
90.0
 41
0.8
 72
     1
 11
506.9774790600469
 21
790.3711061509032
 31
0.0
100
AcDbText
  0
TEXT
  5
81C
330
1E
100
AcDbEntity
  8
TEXT
 62
     1
100
AcDbText
 10
506.7197329539638
 20
654.9791173409951
 30
0.0
 40
7.0
  1
Drainlet Kompletteinheit
 50
90.0
 41
0.7
100
AcDbText
  0
TEXT
  5
81D
330
1E
100
AcDbEntity
  8
TEXT
100
AcDbText
 10
522.0
 20
654.8629872542571
 30
0.0
 40
5.0
  1
DN125 seitlich, zweiteilig mit
 50
90.0
 41
0.8
100
AcDbText
  0
TEXT
  5
81E
330
1E
100
AcDbEntity
  8
TEXT
100
AcDbText
 10
532.0
 20
654.8629872542571
 30
0.0
 40
5.0
  1
Wärmedämmung
 50
90.0
 41
0.8
100
AcDbText
  0
TEXT
  5
81F
330
1E
100
AcDbEntity
  8
TEXT
100
AcDbText
 10
542.0
 20
655.1623031583292
 30
0.0
 40
5.0
  1
EDV-Art.Nr. 21525.125X
 50
90.0
 41
0.8
100
AcDbText
  0
TEXT
  5
820
330
1E
100
AcDbEntity
  8
TEXT
100
AcDbText
 10
552.0
 20
654.9713400534565
 30
0.0
 40
4.0
  1
21525125W.DWG
 50
90.0
 41
0.8
100
AcDbText
  0
TEXT
  5
821
330
1E
100
AcDbEntity
  8
TEXT
100
AcDbText
 10
531.0
 20
624.7428571428572
 30
0.0
 40
4.0
  1
Koeh
 50
90.0
 41
0.8
 72
     4
 11
529.0
 21
630.0000000000001
 31
0.0
100
AcDbText
  0
TEXT
  5
822
330
1E
100
AcDbEntity
  8
TEXT
100
AcDbText
 10
531.0
 20
590.2952380952382
 30
0.0
 40
4.0
  1
29.10.
 50
90.0
 41
0.8
 72
     4
 11
529.0
 21
597.0000000000001
 31
0.0
100
AcDbText
  0
TEXT
  5
823
330
1E
100
AcDbEntity
  8
TEXT
100
AcDbText
 10
506.0254814117801
 20
613.0095238095239
 30
0.0
 40
4.0
  1
DIN EN1124-3
 50
90.0
 41
0.8
 72
     1
 11
506.0254814117801
 21
630.0000000000001
 31
0.0
100
AcDbText
  0
HATCH
  5
196A
330
1E
100
AcDbEntity
  8
SCHRAFF
100
AcDbHatch
 10
0.0
 20
0.0
 30
0.0
210
0.0
220
0.0
230
1.0
  2
_USER
 70
     0
 71
     1
 91
        2
 92
        7
 72
     1
 73
     1
 93
       14
 10
160.9018231008785
 20
311.8914738346775
 42
0.1898598886695143
 10
157.5436141456547
 20
320.4165929830327
 42
-0.1898598886695141
 10
151.9018231008786
 20
334.7387931522693
 42
0.0
 10
151.9018231008786
 20
347.1871515694532
 42
-0.1095178116832425
 10
154.4783589573706
 20
358.8091537673226
 42
0.0
 10
155.4018231008785
 20
360.7895290139175
 42
0.0
 10
153.1950672629534
 20
360.7895290139175
 42
0.0
 10
152.6657433832973
 20
359.6543902908041
 42
0.1095178116832406
 10
149.9018231008786
 20
347.1871515694535
 42
0.0
 10
149.9018231008786
 20
334.7387931522693
 42
0.1898598886695145
 10
156.0809275784905
 20
319.0525739192958
 42
-0.1898598886695189
 10
158.9018231008785
 20
311.8914738346773
 42
0.0
 10
158.9018231008761
 20
185.7853301481449
 42
0.0
 10
160.9018231008784
 20
187.6832592815769
 42
0.0
 97
       14
330
19E4
330
19D4
330
19DD
330
19CF
330
19EF
330
19EE
330
19F0
330
19D0
330
19DC
330
19D3
330
19E6
330
1997
330
1974
330
1998
 92
        7
 72
     1
 73
     1
 93
       13
 10
298.9018231008781
 20
334.738793152269
 42
-0.1898598886695082
 10
293.2600320561023
 20
320.4165929830328
 42
0.1898598886694889
 10
289.9018231008783
 20
311.8914738346789
 42
0.0
 10
289.9018231008781
 20
310.0996883877936
 42
0.0
 10
291.9023648233377
 20
311.9981315966426
 42
-0.187230095476677
 10
294.7227186232661
 20
319.0525739192958
 42
0.1898598886695155
 10
300.9018231008783
 20
334.7387931522693
 42
0.0
 10
300.9018231008783
 20
347.1871515694532
 42
0.1095178116832438
 10
298.1379028184595
 20
359.6543902908041
 42
0.0
 10
297.6085789388033
 20
360.7895290139175
 42
0.0
 10
295.4018231008781
 20
360.7895290139174
 42
0.0
 10
296.3252872443861
 20
358.8091537673226
 42
-0.1095178116832473
 10
298.9018231008783
 20
347.1871515694527
 42
0.0
 97
       13
330
1A0C
330
1A31
330
1A30
330
1A32
330
1A0E
330
1A1F
330
1A10
330
1A14
330
1A17
330
1974
330
1A16
330
1A11
330
1A20
 75
     0
 76
     0
 52
135.0
 41
2.0
 77
     0
 78
     1
 53
135.0
 43
-25.21676720437836
 44
-0.0000000000001137
 45
-1.414213562373095
 46
-1.414213562373094
 79
     0
 47
0.5181556231948397
 98
        2
 10
160.4026353369786
 20
311.3572867974102
 10
299.8912105866916
 20
344.5192477431034
  0
HATCH
  5
196B
330
1E
100
AcDbEntity
  8
SCHRAFF
100
AcDbHatch
 10
0.0
 20
0.0
 30
0.0
210
0.0
220
0.0
230
1.0
  2
HONEY
 70
     0
 71
     1
 91
        2
 92
        7
 72
     1
 73
     1
 93
       11
 10
315.4520756325811
 20
351.789529013916
 42
0.0
 10
306.7087576050144
 20
343.0462109863498
 42
0.0
 10
305.0955472659588
 20
340.5333776371826
 42
-0.2502076771462287
 10
303.9018231008872
 20
336.9600298451153
 42
0.0
 10
303.9018231008873
 20
328.2392764822223
 42
0.0
 10
300.4564308129979
 20
323.8781676142839
 42
0.6086651829756242
 10
303.3857737483665
 20
317.4040032463722
 42
0.0
 10
399.4407473936178
 20
312.3699753885335
 42
0.0
 10
401.4018231008867
 20
349.789529013915
 42
0.0
 10
377.4018231008867
 20
349.7895290139159
 42
0.0
 10
377.4018231008868
 20
351.7895290139161
 42
0.0
 97
       11
330
1A5C
330
1A5F
330
1A00
330
1A2A
330
1A1B
330
1A21
330
1A1E
330
1A23
330
1A1A
330
19FF
330
1A61
 92
        7
 72
     1
 73
     1
 93
       15
 10
155.9018231008865
 20
182.9384364479919
 42
0.0
 10
155.9018231008865
 20
243.635702141102
 42
0.0
 10
145.9018231008865
 20
244.1597799339326
 42
0.0
 10
145.9018231008865
 20
264.187226853891
 42
0.0
 10
155.9018231008867
 20
263.6631490610605
 42
0.0
 10
155.9018231008867
 20
316.8472559133557
 42
0.0
 10
146.9018231008868
 20
328.2392764822225
 42
0.0
 10
146.9018231008867
 20
336.9600298450987
 42
-0.2529325187199587
 10
145.715159681181
 20
340.5737674394002
 42
0.0
 10
144.4065335178879
 20
342.7345660652218
 42
0.0
 10
135.3515705691927
 20
351.7895290139161
 42
0.0
 10
115.401823100887
 20
351.7895290139161
 42
0.0
 10
134.7559217885923
 20
150.7895290139157
 42
0.0
 10
390.9726750235621
 20
150.7895290139149
 42
0.0
 10
392.0090416071204
 20
170.5645814533838
 42
0.0
 97
       15
330
196C
330
1999
330
199D
330
199E
330
199C
330
1996
330
19D2
330
19DB
330
19DE
330
19D9
330
19D7
330
199F
330
1995
330
196E
330
19FE
 75
     0
 76
     1
 52
0.0
 41
40.0
 77
     0
 78
     3
 53
0.0
 43
-25.21676720437836
 44
-0.0000000000001137
 45
7.5
 46
4.330127
 79
     2
 49
5.0
 49
-10.0
 53
120.0
 43
-25.21676720437836
 44
-0.0000000000001137
 45
-7.499999983612898
 46
4.330127028383291
 79
     2
 49
4.999999999999997
 49
-9.999999999999994
 53
60.0
 43
-25.21676720437836
 44
-0.0000000000001137
 45
0.0000000163871017
 46
8.66025402838329
 79
     2
 49
-10.0
 49
5.0
 47
1.537574347786447
 98
        2
 10
357.3681205810558
 20
337.0787417786697
 10
168.1043958419518
 20
169.4831384704056
  0
LINE
  5
196C
102
{ACAD_REACTORS
330
196B
102
}
330
1E
100
AcDbEntity
  8
STEMPEL
100
AcDbLine
 10
392.00904160712
 20
170.5645814533839
 30
0.0
 11
155.9018231008865
 21
182.938436447992
 31
0.0
  0
DIMENSION
  5
196D
330
1E
100
AcDbEntity
  8
BEM
100
AcDbDimension
  2
*D2
 10
390.972675023562
 20
131.1490677335525
 30
0.0
 11
262.8642984060772
 21
136.6490677335525
 31
0.0
 70
    32
 71
     5
 42
256.2167532349697
  3
Standard
100
AcDbAlignedDimension
 13
134.7559217885923
 23
150.7895290139157
 33
0.0
 14
390.972675023562
 24
150.7895290139149
 34
0.0
100
AcDbRotatedDimension
1001
ACAD
1000
DSTYLE
1002
{
1070
    40
1040
2.0
1070
    41
1040
3.5
1070
    42
1040
1.0
1070
    43
1040
7.0
1070
    44
1040
1.0
1070
    47
1040
2.0
1070
    48
1040
2.0
1070
    73
1070
     0
1070
    74
1070
     0
1070
    77
1070
     1
1070
    78
1070
     8
1070
    79
1070
     2
1070
   140
1040
3.5
1070
   141
1040
1.5
1070
   146
1040
0.5142857142857144
1070
   147
1040
1.0
1070
   172
1070
     1
1070
   178
1070
     1
1070
   179
1070
     1
1070
   271
1070
     0
1070
   272
1070
     0
1070
   279
1070
     0
1002
}
  0
LINE
  5
196E
102
{ACAD_REACTORS
330
196B
102
}
330
1E
100
AcDbEntity
  8
STEMPEL
100
AcDbLine
 10
134.7559217885923
 20
150.7895290139157
 30
0.0
 11
390.972675023562
 21
150.7895290139149
 31
0.0
  0
HATCH
  5
196F
330
1E
100
AcDbEntity
  8
SCHRAFF
100
AcDbHatch
 10
0.0
 20
0.0
 30
0.0
210
0.0
220
0.0
230
1.0
  2
_USER
 70
     0
 71
     1
 91
        2
 92
        7
 72
     1
 73
     1
 93
       12
 10
136.02099685123
 20
353.7895290139177
 42
-0.2623450888924561
 10
138.5870896317114
 20
352.3436100420371
 42
0.0
 10
147.0857303203968
 20
338.3106863266427
 42
0.0
 10
149.6518231008783
 20
339.8647673547622
 42
0.0
 10
141.153182412193
 20
353.8976910701566
 42
0.2623450888924551
 10
136.02099685123
 20
356.7895290139173
 42
0.0
 10
66.7657841315513
 20
356.7895290139174
 42
0.1989123673796645
 10
62.52314344443175
 20
355.032169701037
 42
0.0
 10
60.40182310087219
 20
352.9108493574772
 42
0.0
 10
62.52314344443163
 20
350.7895290139176
 42
0.0
 10
64.64446378799175
 20
352.9108493574772
 42
-0.1989123673796702
 10
66.7657841315515
 20
353.7895290139177
 42
0.0
 97
       12
330
1983
330
1990
330
198C
330
198E
330
198D
330
198F
330
1989
330
19DA
330
19D9
330
19E0
330
19D8
330
19D1
 92
        7
 72
     1
 73
     1
 93
       12
 10
384.037862070193
 20
353.7895290139177
 42
-0.1989123673796543
 10
386.1591824137525
 20
352.9108493574772
 42
0.0
 10
388.2805027573126
 20
350.7895290139176
 42
0.0
 10
390.401823100872
 20
352.9108493574772
 42
0.0
 10
388.2805027573125
 20
355.032169701037
 42
0.1989123673796388
 10
384.0378620701932
 20
356.7895290139168
 42
0.0
 10
314.7826493505266
 20
356.7895290139169
 42
0.2623450888924802
 10
309.6504637895632
 20
353.8976910701558
 42
0.0
 10
301.1518231008782
 20
339.8647673547623
 42
0.0
 10
303.7179158813596
 20
338.3106863266427
 42
0.0
 10
312.216556570045
 20
352.3436100420371
 42
-0.2623450888924635
 10
314.7826493505265
 20
353.7895290139176
 42
0.0
 97
       12
330
1A01
330
1A0D
330
1A1C
330
1A29
330
1A1D
330
1A2B
330
1A07
330
1A60
330
1A5D
330
1A62
330
1A5B
330
1A63
 75
     0
 76
     0
 52
45.0
 41
2.0
 77
     0
 78
     1
 53
45.0
 43
-25.21676720437836
 44
-0.0000000000001137
 45
-1.414213562373094
 46
1.414213562373095
 79
     0
 47
0.4641743063183107
 98
        2
 10
117.6386700434077
 20
354.9621429662278
 10
349.9001813966356
 20
354.9621429662278
  0
HATCH
  5
1970
330
1E
100
AcDbEntity
  8
SCHRAFF
100
AcDbHatch
 10
0.0
 20
0.0
 30
0.0
210
0.0
220
0.0
230
1.0
  2
_USER
 70
     0
 71
     1
 91
        2
 92
        7
 72
     1
 73
     1
 93
        5
 10
149.9018231008786
 20
339.8647673547622
 42
0.0
 10
149.6518231008784
 20
339.8647673547622
 42
0.0
 10
147.0857303203968
 20
338.3106863266428
 42
0.0
 10
145.7151596811809
 20
340.5737674394002
 42
0.4866147115763174
 10
149.9018231008786
 20
335.8725874990944
 42
0.0
 97
        5
330
19E1
330
19E0
330
19D9
330
19DE
330
19DC
 92
        7
 72
     1
 73
     1
 93
        5
 10
305.0884865205755
 20
340.5737674394002
 42
0.0
 10
303.7179158813597
 20
338.3106863266429
 42
0.0
 10
301.1518231008781
 20
339.8647673547622
 42
0.0
 10
300.9018231008783
 20
339.8647673547622
 42
0.0
 10
300.9018231008783
 20
335.8725874990944
 42
0.4866147115762773
 97
        5
330
1A1D
330
1A29
330
1A28
330
1A20
330
1A21
 75
     0
 76
     0
 52
0.0
 41
0.1
 77
     0
 78
     1
 53
0.0
 43
-25.21676720437836
 44
0.0
 45
0.0
 46
0.1
 79
     0
 47
0.223289314921531
 98
        2
 10
148.6315147482578
 20
337.4145644233886
 10
302.3699734843685
 20
337.4145644233886
  0
LINE
  5
1971
330
1E
100
AcDbEntity
  8
HILF
100
AcDbLine
 10
162.1590464409953
 20
316.472827998039
 30
0.0
 11
288.6445997607616
 21
316.472827998039
 31
0.0
  0
HATCH
  5
1972
330
1E
100
AcDbEntity
  8
SCHRAFF
100
AcDbHatch
 10
0.0
 20
0.0
 30
0.0
210
0.0
220
0.0
230
1.0
  2
_USER
 70
     0
 71
     1
 91
        2
 92
        7
 72
     1
 73
     1
 93
       10
 10
160.901823100872
 20
573.4419046593984
 42
0.1989123673796711
 10
158.8515705691779
 20
578.3916521277046
 42
0.0
 10
149.6518231008719
 20
587.5913995960097
 42
0.0
 10
148.2376095384988
 20
586.1771860336366
 42
0.0
 10
157.4373570068049
 20
576.9774385653313
 42
-0.1989123673796619
 10
158.9018231008721
 20
573.4419046593984
 42
0.0
 10
158.9018231008721
 20
336.4374484569617
 42
0.0
 10
160.3891303808128
 20
324.4374484569672
 42
0.0
 10
162.4044335214026
 20
324.4374484569672
 42
0.0
 10
160.9018231008721
 20
336.5609183609651
 42
0.0
 97
       10
330
1AE7
330
1ADD
330
1AE5
330
1ADC
330
1AE6
330
1980
330
19E8
330
197D
330
19E7
330
197F
 92
        7
 72
     1
 73
     1
 93
       10
 10
289.9018231008719
 20
336.5609183609681
 42
0.0
 10
288.399212680341
 20
324.4374484569672
 42
0.0
 10
290.4145158209308
 20
324.4374484569672
 42
0.0
 10
291.9018231008721
 20
336.4374484569663
 42
0.0
 10
291.9018231008721
 20
573.4419046593984
 42
-0.1989123673796545
 10
293.3662891949389
 20
576.9774385653313
 42
0.0
 10
302.5660366632451
 20
586.1771860336366
 42
0.0
 10
301.151823100872
 20
587.5913995960097
 42
0.0
 10
291.952075632566
 20
578.3916521277046
 42
0.1989123673796714
 10
289.9018231008719
 20
573.4419046593984
 42
0.0
 97
       10
330
1BA1
330
1B9F
330
1BA7
330
1BA0
330
1BA2
330
19F5
330
1A18
330
197D
330
1A19
330
19F6
 75
     0
 76
     0
 52
135.0
 41
2.0
 77
     0
 78
     1
 53
135.0
 43
-25.21676720437836
 44
-0.0000000000001137
 45
-1.414213562373095
 46
-1.414213562373094
 79
     0
 47
0.6468058204192415
 98
        2
 10
160.1466118033791
 20
537.1722296399001
 10
290.8995434388189
 20
523.5893069911433
  0
HATCH
  5
1973
330
1E
100
AcDbEntity
  8
SCHRAFF
100
AcDbHatch
 10
0.0
 20
0.0
 30
0.0
210
0.0
220
0.0
230
1.0
  2
NET
 70
     0
 71
     0
 91
        2
 92
        7
 72
     1
 73
     1
 93
       12
 10
158.9018231008721
 20
360.7895290139186
 42
0.0
 10
156.5822555011233
 20
365.7142223402046
 42
0.3370502855478904
 10
153.9018231008729
 20
367.789424779582
 42
0.3370502855478904
 10
151.2213907006224
 20
365.7142223402046
 42
0.0
 10
149.9018231008728
 20
360.7895290139174
 42
0.0
 10
155.401823100872
 20
360.7895290139176
 42
0.0
 10
154.478358957364
 20
358.8091537673224
 42
0.1095178116832384
 10
151.901823100872
 20
347.1871515694535
 42
0.0
 10
151.9018231008719
 20
337.9895290139165
 42
0.0
 10
154.7018231008729
 20
340.7895290139175
 42
0.0
 10
155.2449688513806
 20
340.7895290139175
 42
0.1401227493739175
 10
158.9018231008721
 20
336.7895290139181
 42
0.0
 97
        0
 92
        7
 72
     1
 73
     1
 93
       12
 10
296.3252872443793
 20
358.8091537673224
 42
0.0
 10
295.4018231008713
 20
360.7895290139174
 42
0.0
 10
300.9018231008728
 20
360.7895290139176
 42
0.0
 10
299.5822555011232
 20
365.7142223402046
 42
0.3370502855478876
 10
296.9018231008728
 20
367.789424779582
 42
0.3370502855478877
 10
294.2213907006223
 20
365.7142223402046
 42
0.0
 10
291.9018231008721
 20
360.7895290139154
 42
0.0
 10
291.9018231008721
 20
336.7895290139169
 42
0.1401227493739181
 10
295.558677350365
 20
340.7895290139175
 42
0.0
 10
296.1018231008727
 20
340.7895290139175
 42
0.0
 10
298.9018231008715
 20
337.9895290139188
 42
0.0
 10
298.9018231008715
 20
347.1871515694531
 42
0.1095178116832419
 97
        0
 75
     0
 76
     1
 52
45.0
 41
15.0
 77
     0
 78
     2
 53
45.0
 43
-25.21676720437836
 44
0.0
 45
-1.325825214724776
 46
1.325825214724776
 79
     0
 53
135.0
 43
-25.21676720437836
 44
0.0
 45
-1.325825214724776
 46
-1.325825214724776
 79
     0
 47
0.3321574276069458
 98
        2
 10
157.4539046377108
 20
348.9227915230401
 10
295.3957827472318
 20
350.9157356441203
  0
LINE
  5
1974
102
{ACAD_REACTORS
330
196A
330
1DC5
102
}
330
1E
100
AcDbEntity
  8
STEMPEL
100
AcDbLine
 10
291.9018231008715
 20
311.9976175212172
 30
0.0
 11
158.9018231008695
 21
185.7853301481386
 31
0.0
  0
LINE
  5
1975
330
1E
100
AcDbEntity
  8
MITTEL
100
AcDbLine
 10
515.3949707746447
 20
233.6935769577955
 30
0.0
 11
225.4018231008715
 21
248.8914738346779
 31
0.0
  0
DIMENSION
  5
1976
330
1E
100
AcDbEntity
  8
BEM
100
AcDbDimension
  2
*D3
 10
510.4018231008715
 20
115.1490677335525
 30
0.0
 11
367.9018231008715
 21
120.6490677335525
 31
0.0
 70
    32
 71
     5
 42
285.0
  3
Standard
100
AcDbAlignedDimension
 13
225.4018231008715
 23
131.1490677335525
 33
0.0
 14
510.4018231008715
 24
233.9552567390102
 34
0.0
100
AcDbRotatedDimension
1001
ACAD
1000
DSTYLE
1002
{
1070
    40
1040
2.0
1070
    41
1040
3.5
1070
    42
1040
1.0
1070
    43
1040
7.0
1070
    44
1040
1.0
1070
    47
1040
2.0
1070
    48
1040
2.0
1070
    73
1070
     0
1070
    74
1070
     0
1070
    77
1070
     1
1070
    78
1070
     8
1070
    79
1070
     2
1070
   140
1040
3.5
1070
   141
1040
1.5
1070
   146
1040
0.5142857142857144
1070
   147
1040
1.0
1070
   172
1070
     1
1070
   178
1070
     1
1070
   179
1070
     1
1070
   271
1070
     1
1070
   272
1070
     1
1070
   279
1070
     0
1002
}
  0
LINE
  5
1977
102
{ACAD_REACTORS
330
1DC5
102
}
330
1E
100
AcDbEntity
  8
STEMPEL
100
AcDbLine
 10
496.9351866631707
 20
168.0697522402605
 30
0.0
 11
158.9018231008695
 21
185.7853301481386
 31
0.0
  0
LINE
  5
1978
102
{ACAD_REACTORS
330
1DC5
102
}
330
1E
100
AcDbEntity
  8
STEMPEL
100
AcDbLine
 10
496.9402440390253
 20
170.0722318864187
 30
0.0
 11
160.9018231008719
 21
187.6832592815683
 31
0.0
  0
DIMENSION
  5
1979
330
1E
100
AcDbEntity
  8
BEM
100
AcDbDimension
  2
*D4
 10
225.4018231008715
 20
248.8914738346779
 30
0.0
 11
302.6257520305013
 21
226.6310259634625
 31
0.0
 70
    34
 71
     5
 42
0.0523598775598355
  3
Standard
100
AcDb2LineAngularDimension
 13
225.4018231008715
 23
248.8914738346774
 33
0.0
 14
223.4018231008715
 24
248.8914738346774
 34
0.0
 15
513.3977117051354
 25
233.7982488702814
 35
0.0
 16
311.0886629783491
 26
247.3958044811225
 36
0.0
1001
ACAD
1000
DSTYLE
1002
{
1070
    40
1040
2.0
1070
    41
1040
3.5
1070
    42
1040
1.0
1070
    43
1040
7.0
1070
    44
1040
1.0
1070
    47
1040
2.0
1070
    48
1040
2.0
1070
    73
1070
     0
1070
    74
1070
     0
1070
    77
1070
     1
1070
    78
1070
     8
1070
    79
1070
     2
1070
   140
1040
3.5
1070
   141
1040
1.5
1070
   146
1040
0.5142857142857144
1070
   147
1040
1.0
1070
   172
1070
     1
1070
   178
1070
     1
1070
   179
1070
     1
1070
   271
1070
     1
1070
   272
1070
     1
1070
   279
1070
     0
1002
}
  0
HATCH
  5
197B
330
1E
100
AcDbEntity
  8
SCHRAFF
100
AcDbHatch
 10
0.0
 20
0.0
 30
0.0
210
0.0
220
0.0
230
1.0
  2
_USER
 70
     0
 71
     1
 91
        5
 92
        7
 72
     1
 73
     1
 93
        4
 10
68.40182310087198
 20
368.2895290139177
 42
1.0
 10
68.40182310087198
 20
362.2895290139177
 42
0.0
 10
91.40182310087222
 20
362.2895290139177
 42
0.0
 10
91.40182310087222
 20
368.2895290139177
 42
0.0
 97
        4
330
1984
330
1993
330
1985
330
19AC
 92
        7
 72
     1
 73
     1
 93
        4
 10
105.4018231008722
 20
368.2895290139177
 42
0.0
 10
105.4018231008722
 20
362.2895290139176
 42
0.0
 10
128.4018231008719
 20
362.2895290139176
 42
1.0
 10
128.4018231008719
 20
368.2895290139179
 42
0.0
 97
        4
330
1984
330
19BE
330
19A1
330
19CB
 92
        7
 72
     1
 73
     1
 93
        4
 10
322.401823100872
 20
368.2895290139179
 42
1.0
 10
322.401823100872
 20
362.2895290139173
 42
0.0
 10
326.1576973178583
 20
362.2895290139173
 42
0.0
 10
326.1576973178583
 20
368.2895290139179
 42
0.0
 97
        4
330
1A08
330
1A3D
330
1A04
330
1A3C
 92
        7
 72
     1
 73
     1
 93
        7
 10
344.4018231008717
 20
362.2895290139171
 42
0.0
 10
344.4018231008744
 20
382.2895290139178
 42
0.0
 10
339.9018231008722
 20
382.289529013918
 42
0.0
 10
339.7432043520808
 20
373.2022669817318
 42
-0.4091108014277236
 10
334.7439658762989
 20
368.2895290139179
 42
0.0
 10
326.1576973178583
 20
368.2895290139179
 42
0.0
 10
326.1576973178583
 20
362.2895290139172
 42
0.0
 97
        7
330
1A36
330
1A52
330
1A48
330
1A08
330
1A3C
330
1A04
330
1A54
 92
        7
 72
     1
 73
     1
 93
        7
 10
382.401823100872
 20
362.2895290139171
 42
1.0
 10
382.401823100872
 20
368.2895290139179
 42
0.0
 10
360.0596803254457
 20
368.2895290139179
 42
-0.4091108014277238
 10
355.0604418496636
 20
373.2022669817316
 42
0.0
 10
354.9018231008722
 20
382.2895290139177
 42
0.0
 10
350.4018231008747
 20
382.2895290139177
 42
0.0
 10
350.4018231008733
 20
362.2895290139171
 42
0.0
 97
        7
330
1A05
330
1A58
330
1A59
330
1A36
330
1A56
330
1A04
330
1A64
 75
     0
 76
     0
 52
135.0
 41
4.0
 77
     0
 78
     1
 53
135.0
 43
-25.21676720437836
 44
-0.0000000000001137
 45
-2.82842712474619
 46
-2.828427124746189
 79
     0
 47
0.4518901638347634
 98
        5
 10
76.03754741964531
 20
365.3371449544485
 10
119.9015928447284
 20
366.6928161375491
 10
322.9423819579897
 20
366.2409257431824
 10
334.6997578826667
 20
364.4333641657146
 10
367.2586370585504
 20
362.6258045663614
  0
LINE
  5
197C
330
1E
100
AcDbEntity
  8
HILF
100
AcDbLine
 10
162.909462775959
 20
336.4374484569671
 30
0.0
 11
287.894183425785
 21
336.4374484569671
 31
0.0
  0
LINE
  5
197D
102
{ACAD_REACTORS
330
1972
102
}
330
1E
100
AcDbEntity
  8
STEMPEL
100
AcDbLine
 10
160.3891303808129
 20
324.4374484569672
 30
0.0
 11
290.4145158209308
 21
324.4374484569672
 31
0.0
  0
LINE
  5
197F
102
{ACAD_REACTORS
330
1972
102
}
330
1E
100
AcDbEntity
  8
STEMPEL
  6
Continuous
100
AcDbLine
 10
160.901823100872
 20
573.4419046593984
 30
0.0
 11
160.9018231008721
 21
336.5609183609651
 31
0.0
  0
LINE
  5
1980
102
{ACAD_REACTORS
330
1972
102
}
330
1E
100
AcDbEntity
  8
STEMPEL
  6
Continuous
100
AcDbLine
 10
158.9018231008721
 20
573.4419046593984
 30
0.0
 11
158.9018231008721
 21
336.4374484569617
 31
0.0
  0
DIMENSION
  5
1981
330
1E
100
AcDbEntity
  8
BEM
100
AcDbDimension
  2
*D5
 10
32.36425636988999
 20
604.4374484569678
 30
0.0
 11
26.86425636988989
 21
483.3634887354427
 31
0.0
 70
    32
  1
min.35 - max.240
 71
     5
 42
242.1479194430501
  3
Standard
100
AcDbAlignedDimension
 13
68.40182310087198
 23
362.2895290139177
 33
0.0
 14
60.40182310087198
 24
604.4374484569678
 34
0.0
 50
90.0
100
AcDbRotatedDimension
1001
ACAD
1000
DSTYLE
1002
{
1070
    40
1040
2.0
1070
    41
1040
3.5
1070
    42
1040
1.0
1070
    43
1040
7.0
1070
    44
1040
1.0
1070
    47
1040
0.7
1070
    48
1040
0.7
1070
    73
1070
     0
1070
    74
1070
     0
1070
    77
1070
     1
1070
    78
1070
     8
1070
   140
1040
3.5
1070
   141
1040
1.5
1070
   146
1040
0.5142857142857144
1070
   147
1040
1.0
1070
   172
1070
     1
1070
   178
1070
     1
1070
   271
1070
     2
1070
   272
1070
     2
1070
   279
1070
     2
1070
   284
1070
     8
1070
   285
1070
     8
1070
   286
1070
     8
1070
   340
1005
24
1002
}
  0
LINE
  5
1982
330
1E
100
AcDbEntity
  8
MITTEL
100
AcDbLine
 10
225.401823100872
 20
726.4374484569673
 30
0.0
 11
225.4018231008718
 21
248.8914738346791
 31
0.0
  0
LINE
  5
1983
102
{ACAD_REACTORS
330
196F
102
}
330
1E
100
AcDbEntity
  8
STEMPEL
100
AcDbLine
 10
151.5083767843323
 20
356.7895290139173
 30
0.0
 11
66.7657841315513
 21
356.7895290139174
 31
0.0
  0
LINE
  5
1984
102
{ACAD_REACTORS
330
197B
102
}
330
1E
100
AcDbEntity
  8
STEMPEL
100
AcDbLine
 10
68.40182310087198
 20
368.2895290139177
 30
0.0
 11
158.901823100872
 21
368.2895290139179
 31
0.0
  0
LINE
  5
1985
102
{ACAD_REACTORS
330
197B
102
}
330
1E
100
AcDbEntity
  8
STEMPEL
100
AcDbLine
 10
68.40182310087198
 20
362.2895290139177
 30
0.0
 11
93.4018231008722
 21
362.2895290139177
 31
0.0
  0
DIMENSION
  5
1988
330
1E
100
AcDbEntity
  8
BEM
100
AcDbDimension
  2
*D6
 10
32.3642563698901
 20
356.7895290139177
 30
0.0
 11
26.86425636989003
 21
253.7895290139167
 31
0.0
 70
    32
 71
     5
 42
206.0000000000019
  3
Standard
100
AcDbAlignedDimension
 13
134.7559217885923
 23
150.7895290139157
 33
0.0
 14
60.40182310087198
 24
356.7895290139177
 34
0.0
 50
90.0
100
AcDbRotatedDimension
1001
ACAD
1000
DSTYLE
1002
{
1070
    40
1040
2.0
1070
    41
1040
3.5
1070
    42
1040
1.0
1070
    43
1040
7.0
1070
    44
1040
1.0
1070
    47
1040
2.0
1070
    48
1040
2.0
1070
    73
1070
     0
1070
    74
1070
     0
1070
    77
1070
     1
1070
    78
1070
     8
1070
    79
1070
     2
1070
   140
1040
3.5
1070
   141
1040
1.5
1070
   146
1040
0.5142857142857144
1070
   147
1040
1.0
1070
   172
1070
     1
1070
   178
1070
     1
1070
   179
1070
     1
1070
   271
1070
     0
1070
   272
1070
     1
1070
   279
1070
     0
1002
}
  0
LINE
  5
1989
102
{ACAD_REACTORS
330
196F
102
}
330
1E
100
AcDbEntity
  8
STEMPEL
100
AcDbLine
 10
66.7657841315513
 20
353.7895290139177
 30
0.0
 11
136.02099685123
 21
353.7895290139177
 31
0.0
  0
LINE
  5
198A
330
1E
100
AcDbEntity
  8
STEMPEL
100
AcDbLine
 10
62.52314344443153
 20
350.7895290139177
 30
0.0
 11
115.4981121490844
 21
350.7895290139174
 31
0.0
  0
LINE
  5
198B
102
{ACAD_REACTORS
330
1F6E
102
}
330
1E
100
AcDbEntity
  8
STEMPEL
100
AcDbLine
 10
60.40182310087198
 20
356.7895290139177
 30
0.0
 11
150.0977482543418
 21
356.7895290139176
 31
0.0
  0
LINE
  5
198C
102
{ACAD_REACTORS
330
196F
102
}
330
1E
100
AcDbEntity
  8
STEMPEL
100
AcDbLine
 10
60.40182310087221
 20
352.9108493574772
 30
0.0
 11
62.52314344443175
 21
355.032169701037
 31
0.0
  0
LINE
  5
198D
102
{ACAD_REACTORS
330
196F
102
}
330
1E
100
AcDbEntity
  8
STEMPEL
100
AcDbLine
 10
62.52314344443175
 20
350.7895290139177
 30
0.0
 11
64.64446378799175
 21
352.9108493574772
 31
0.0
  0
LINE
  5
198E
102
{ACAD_REACTORS
330
196F
102
}
330
1E
100
AcDbEntity
  8
STEMPEL
100
AcDbLine
 10
60.40182310087221
 20
352.9108493574772
 30
0.0
 11
62.52314344443175
 21
350.7895290139174
 31
0.0
  0
ARC
  5
198F
102
{ACAD_REACTORS
330
196F
102
}
330
1E
100
AcDbEntity
  8
STEMPEL
100
AcDbCircle
 10
66.7657841315513
 20
350.7895290139177
 30
0.0
 40
3.0
100
AcDbArc
 50
90.0
 51
134.9999999999993
  0
ARC
  5
1990
102
{ACAD_REACTORS
330
196F
102
}
330
1E
100
AcDbEntity
  8
STEMPEL
100
AcDbCircle
 10
66.7657841315513
 20
350.7895290139177
 30
0.0
 40
6.0
100
AcDbArc
 50
90.0
 51
134.9999999999993
  0
LINE
  5
1991
102
{ACAD_REACTORS
330
1F6E
102
}
330
1E
100
AcDbEntity
  8
STEMPEL
100
AcDbLine
 10
60.40182310087199
 20
359.7895290139177
 30
0.0
 11
60.40182310087198
 21
356.7895290139177
 31
0.0
  0
ARC
  5
1993
102
{ACAD_REACTORS
330
197B
102
}
330
1E
100
AcDbEntity
  8
STEMPEL
100
AcDbCircle
 10
68.40182310087198
 20
365.2895290139177
 30
0.0
 40
3.0
100
AcDbArc
 50
90.0
 51
270.0
  0
LINE
  5
1994
102
{ACAD_REACTORS
330
1DC5
102
}
330
1E
100
AcDbEntity
  8
SCHRAFF
100
AcDbLine
 10
225.4018231008867
 20
248.8914738346771
 30
0.0
 11
225.4018231008867
 21
134.4534183878817
 31
0.0
  0
LINE
  5
1995
102
{ACAD_REACTORS
330
196B
102
}
330
1E
100
AcDbEntity
  8
STEMPEL
100
AcDbLine
 10
115.401823100887
 20
351.7895290139161
 30
0.0
 11
134.7559217885923
 21
150.7895290139157
 31
0.0
  0
LINE
  5
1996
102
{ACAD_REACTORS
330
196B
102
}
330
1E
100
AcDbEntity
  8
STEMPEL
100
AcDbLine
 10
155.9018231008867
 20
316.8472559133556
 30
0.0
 11
155.9018231008867
 21
263.6631490610605
 31
0.0
  0
LINE
  5
1997
102
{ACAD_REACTORS
330
196A
102
}
330
1E
100
AcDbEntity
  8
STEMPEL
100
AcDbLine
 10
158.9018231008785
 20
311.8914738346773
 30
0.0
 11
158.9018231008761
 21
185.7853301481383
 31
0.0
  0
LINE
  5
1998
102
{ACAD_REACTORS
330
196A
102
}
330
1E
100
AcDbEntity
  8
STEMPEL
100
AcDbLine
 10
160.9018231008785
 20
311.8914738346775
 30
0.0
 11
160.9018231008784
 21
187.683259281568
 31
0.0
  0
LINE
  5
1999
102
{ACAD_REACTORS
330
196B
102
}
330
1E
100
AcDbEntity
  8
STEMPEL
100
AcDbLine
 10
155.9018231008865
 20
243.6357021411022
 30
0.0
 11
155.9018231008865
 21
182.938436447992
 31
0.0
  0
ARC
  5
199A
330
1E
100
AcDbEntity
  8
SCHRAFF
100
AcDbCircle
 10
160.9018231008719
 20
187.6832592815706
 30
0.0
 40
3.5
100
AcDbArc
 50
124.8499045790951
 51
322.1500954209095
  0
HATCH
  5
199B
330
1E
100
AcDbEntity
  8
SCHRAFF
100
AcDbHatch
 10
0.0
 20
0.0
 30
0.0
210
0.0
220
0.0
230
1.0
  2
_USER
 70
     0
 71
     0
 91
        1
 92
        7
 72
     1
 73
     1
 93
        3
 10
163.6654961499246
 20
185.5356766224072
 42
0.0
 10
158.9018231008695
 20
185.7853301481386
 42
0.0
 10
158.9018231008697
 20
190.555540604838
 42
1.163635840847627
 97
        0
 75
     0
 76
     0
 52
45.0
 41
0.1
 77
     0
 78
     1
 53
45.0
 43
-132.8415352523723
 44
-65.05490539966342
 45
-0.0707106781186548
 46
0.0707106781186548
 79
     0
 47
0.0651374704686891
 98
        1
 10
160.659292908914
 20
184.7154197087244
  0
LINE
  5
199C
102
{ACAD_REACTORS
330
196B
102
}
330
1E
100
AcDbEntity
  8
STEMPEL
100
AcDbLine
 10
155.9018231008867
 20
263.6631490610605
 30
0.0
 11
145.9018231008783
 21
264.1872268538914
 31
0.0
  0
LINE
  5
199D
102
{ACAD_REACTORS
330
196B
102
}
330
1E
100
AcDbEntity
  8
STEMPEL
100
AcDbLine
 10
155.9018231008865
 20
243.635702141102
 30
0.0
 11
145.9018231008783
 21
244.1597799339331
 31
0.0
  0
LINE
  5
199E
102
{ACAD_REACTORS
330
196B
102
}
330
1E
100
AcDbEntity
  8
STEMPEL
100
AcDbLine
 10
145.9018231008865
 20
264.1872268538909
 30
0.0
 11
145.9018231008865
 21
244.1597799339329
 31
0.0
  0
LINE
  5
199F
102
{ACAD_REACTORS
330
196B
102
}
330
1E
100
AcDbEntity
  8
STEMPEL
100
AcDbLine
 10
135.3515705691926
 20
351.7895290139161
 30
0.0
 11
115.401823100887
 21
351.7895290139161
 31
0.0
  0
LINE
  5
19A0
330
1E
100
AcDbEntity
  8
STEMPEL
100
AcDbLine
 10
121.1127155853403
 20
382.2895290139195
 30
0.0
 11
136.1127155853403
 21
382.2895290139193
 31
0.0
  0
LINE
  5
19A1
102
{ACAD_REACTORS
330
197B
102
}
330
1E
100
AcDbEntity
  8
STEMPEL
100
AcDbLine
 10
103.4018231008722
 20
362.2895290139177
 30
0.0
 11
150.3037468895195
 21
362.2895290139176
 31
0.0
  0
LINE
  5
19A8
330
1E
100
AcDbEntity
  8
STEMPEL
100
AcDbLine
 10
93.40182310087199
 20
380.7895290139186
 30
0.0
 11
103.401823100872
 21
380.7895290139186
 31
0.0
  0
LINE
  5
19A9
330
1E
100
AcDbEntity
  8
STEMPEL
100
AcDbLine
 10
102.401823100872
 20
381.7895290139184
 30
0.0
 11
94.40182310087198
 21
381.7895290139184
 31
0.0
  0
LINE
  5
19AC
102
{ACAD_REACTORS
330
197B
102
}
330
1E
100
AcDbEntity
  8
STEMPEL
100
AcDbLine
 10
91.40182310087221
 20
368.2895290139177
 30
0.0
 11
91.40182310087221
 21
362.2895290139177
 31
0.0
  0
LINE
  5
19AE
102
{ACAD_REACTORS
330
1F6E
102
}
330
1E
100
AcDbEntity
  8
STEMPEL
100
AcDbLine
 10
91.40182310087222
 20
359.7895290139177
 30
0.0
 11
91.40182310087221
 21
356.7895290139174
 31
0.0
  0
LINE
  5
19AF
330
1E
100
AcDbEntity
  8
STEMPEL
100
AcDbLine
 10
93.4018231008722
 20
368.2895290139177
 30
0.0
 11
93.4018231008722
 21
356.7895290139174
 31
0.0
  0
LINE
  5
19B0
330
1E
100
AcDbEntity
  8
HILF
100
AcDbLine
 10
94.40182310087221
 20
368.2895290139177
 30
0.0
 11
94.40182310087221
 21
356.7895290139174
 31
0.0
  0
LINE
  5
19B3
330
1E
100
AcDbEntity
  8
STEMPEL
100
AcDbLine
 10
93.40182310087199
 20
380.7895290139184
 30
0.0
 11
93.40182310087197
 21
378.2895290139177
 31
0.0
  0
LINE
  5
19B4
330
1E
100
AcDbEntity
  8
HILF
100
AcDbLine
 10
94.40182310087198
 20
381.7895290139184
 30
0.0
 11
94.40182310087196
 21
378.2895290139177
 31
0.0
  0
LINE
  5
19B6
330
1E
100
AcDbEntity
  8
STEMPEL
100
AcDbLine
 10
94.40182310087198
 20
381.7895290139184
 30
0.0
 11
93.40182310087199
 21
380.7895290139184
 31
0.0
  0
LINE
  5
19B7
330
1E
100
AcDbEntity
  8
HILF
100
AcDbLine
 10
94.40182310087221
 20
381.7895290139174
 30
0.0
 11
94.40182310087221
 21
378.2895290139177
 31
0.0
  0
LINE
  5
19B8
330
1E
100
AcDbEntity
  8
STEMPEL
100
AcDbLine
 10
93.4018231008722
 20
380.7895290139175
 30
0.0
 11
93.4018231008722
 21
378.2895290139177
 31
0.0
  0
LINE
  5
19BA
330
1E
100
AcDbEntity
  8
MITTEL
100
AcDbLine
 10
98.40182310087222
 20
386.7895290139176
 30
0.0
 11
98.40182310087222
 21
356.7895290139174
 31
0.0
  0
LINE
  5
19BB
330
1E
100
AcDbEntity
  8
HILF
100
AcDbLine
 10
102.4018231008722
 20
368.2895290139177
 30
0.0
 11
102.4018231008722
 21
356.7895290139174
 31
0.0
  0
LINE
  5
19BC
330
1E
100
AcDbEntity
  8
STEMPEL
100
AcDbLine
 10
103.4018231008722
 20
368.2895290139177
 30
0.0
 11
103.4018231008722
 21
356.7895290139174
 31
0.0
  0
LINE
  5
19BE
102
{ACAD_REACTORS
330
197B
102
}
330
1E
100
AcDbEntity
  8
STEMPEL
100
AcDbLine
 10
105.4018231008722
 20
368.2895290139177
 30
0.0
 11
105.4018231008722
 21
362.2895290139175
 31
0.0
  0
LINE
  5
19C0
102
{ACAD_REACTORS
330
1F6E
102
}
330
1E
100
AcDbEntity
  8
STEMPEL
100
AcDbLine
 10
105.4018231008722
 20
359.7895290139174
 30
0.0
 11
105.4018231008722
 21
356.7895290139174
 31
0.0
  0
LINE
  5
19C2
330
1E
100
AcDbEntity
  8
STEMPEL
100
AcDbLine
 10
103.401823100872
 20
380.7895290139184
 30
0.0
 11
103.4018231008719
 21
378.2895290139177
 31
0.0
  0
LINE
  5
19C3
330
1E
100
AcDbEntity
  8
HILF
100
AcDbLine
 10
102.401823100872
 20
381.7895290139184
 30
0.0
 11
102.401823100872
 21
378.2895290139177
 31
0.0
  0
LINE
  5
19C5
330
1E
100
AcDbEntity
  8
STEMPEL
100
AcDbLine
 10
103.401823100872
 20
380.7895290139184
 30
0.0
 11
102.401823100872
 21
381.7895290139184
 31
0.0
  0
LINE
  5
19C6
330
1E
100
AcDbEntity
  8
HILF
100
AcDbLine
 10
102.4018231008722
 20
381.7895290139174
 30
0.0
 11
102.4018231008722
 21
378.2895290139177
 31
0.0
  0
LINE
  5
19C7
330
1E
100
AcDbEntity
  8
STEMPEL
100
AcDbLine
 10
103.4018231008722
 20
380.7895290139175
 30
0.0
 11
103.4018231008722
 21
378.2895290139177
 31
0.0
  0
ARC
  5
19C9
330
1E
100
AcDbEntity
  8
STEMPEL
100
AcDbCircle
 10
115.954858360767
 20
373.2895290139177
 30
0.0
 40
5.0
100
AcDbArc
 50
270.0
 51
358.9999999999982
  0
LINE
  5
19CA
330
1E
100
AcDbEntity
  8
MITTEL
100
AcDbLine
 10
128.6127155853403
 20
387.2895290139194
 30
0.0
 11
128.6127155853403
 21
368.2895290139177
 31
0.0
  0
ARC
  5
19CB
102
{ACAD_REACTORS
330
197B
102
}
330
1E
100
AcDbEntity
  8
STEMPEL
100
AcDbCircle
 10
128.4018231008719
 20
365.2895290139178
 30
0.0
 40
3.0
100
AcDbArc
 50
270.0
 51
90.0
  0
LINE
  5
19CC
102
{ACAD_REACTORS
330
1F6E
102
}
330
1E
100
AcDbEntity
  8
STEMPEL
100
AcDbLine
 10
130.401823100872
 20
359.7895290139174
 30
0.0
 11
130.401823100872
 21
356.7895290139172
 31
0.0
  0
LINE
  5
19CE
330
1E
100
AcDbEntity
  8
STEMPEL
100
AcDbLine
 10
120.9540968365488
 20
373.2022669817313
 30
0.0
 11
121.1127155853403
 21
382.2895290139174
 31
0.0
  0
ARC
  5
19CF
102
{ACAD_REACTORS
330
196A
102
}
330
1E
100
AcDbEntity
  8
STEMPEL
100
AcDbCircle
 10
179.4018231008785
 20
347.1871515694533
 30
0.0
 40
27.5
100
AcDbArc
 50
155.0000000000075
 51
180.0
  0
ARC
  5
19D0
102
{ACAD_REACTORS
330
196A
102
}
330
1E
100
AcDbEntity
  8
STEMPEL
100
AcDbCircle
 10
179.4018231008785
 20
347.1871515694533
 30
0.0
 40
29.5
100
AcDbArc
 50
155.0000000000075
 51
180.0
  0
ARC
  5
19D1
102
{ACAD_REACTORS
330
196F
102
}
330
1E
100
AcDbEntity
  8
STEMPEL
100
AcDbCircle
 10
136.02099685123
 20
350.7895290139177
 30
0.0
 40
6.0
100
AcDbArc
 50
31.19999999999815
 51
90.0
  0
LINE
  5
19D2
102
{ACAD_REACTORS
330
196B
102
}
330
1E
100
AcDbEntity
  8
STEMPEL
100
AcDbLine
 10
146.9018231008867
 20
328.2392764822225
 30
0.0
 11
155.9018231008867
 21
316.8472559133556
 31
0.0
  0
ARC
  5
19D3
102
{ACAD_REACTORS
330
196A
102
}
330
1E
100
AcDbEntity
  8
STEMPEL
100
AcDbCircle
 10
172.9018231008784
 20
334.7387931522693
 30
0.0
 40
23.0
100
AcDbArc
 50
180.0
 51
223.0008752288881
  0
ARC
  5
19D4
102
{ACAD_REACTORS
330
196A
102
}
330
1E
100
AcDbEntity
  8
STEMPEL
100
AcDbCircle
 10
172.9018231008786
 20
334.7387931522693
 30
0.0
 40
21.0
100
AcDbArc
 50
180.0
 51
223.0008752288881
  0
LINE
  5
19D5
330
1E
100
AcDbEntity
  8
STEMPEL
100
AcDbLine
 10
151.901823100872
 20
337.7895290139175
 30
0.0
 11
157.550571809534
 21
337.7895290139175
 31
0.0
  0
ARC
  5
19D6
330
1E
100
AcDbEntity
  8
STEMPEL
100
AcDbCircle
 10
164.0698731326773
 20
345.1858033192698
 30
0.0
 40
9.859318604343389
100
AcDbArc
 50
206.4809617699798
 51
238.386994176981
  0
LINE
  5
19D7
102
{ACAD_REACTORS
330
196B
102
}
330
1E
100
AcDbEntity
  8
STEMPEL
100
AcDbLine
 10
135.3515705691927
 20
351.7895290139161
 30
0.0
 11
144.4065335178877
 21
342.7345660652218
 31
0.0
  0
LINE
  5
19D8
102
{ACAD_REACTORS
330
196F
102
}
330
1E
100
AcDbEntity
  8
STEMPEL
100
AcDbLine
 10
141.153182412193
 20
353.8976910701566
 30
0.0
 11
149.6518231008783
 21
339.8647673547622
 31
0.0
  0
LINE
  5
19D9
102
{ACAD_REACTORS
330
1970
330
196F
330
196B
102
}
330
1E
100
AcDbEntity
  8
STEMPEL
100
AcDbLine
 10
138.5870896317115
 20
352.3436100420371
 30
0.0
 11
147.0857303203968
 21
338.3106863266428
 31
0.0
  0
ARC
  5
19DA
102
{ACAD_REACTORS
330
196F
102
}
330
1E
100
AcDbEntity
  8
STEMPEL
100
AcDbCircle
 10
136.02099685123
 20
350.7895290139177
 30
0.0
 40
3.0
100
AcDbArc
 50
31.19999999999815
 51
90.0
  0
LINE
  5
19DB
102
{ACAD_REACTORS
330
196B
102
}
330
1E
100
AcDbEntity
  8
STEMPEL
100
AcDbLine
 10
146.9018231008867
 20
338.61435323958
 30
0.0
 11
146.9018231008867
 21
328.2392764822225
 31
0.0
  0
LINE
  5
19DC
102
{ACAD_REACTORS
330
1970
330
196A
102
}
330
1E
100
AcDbEntity
  8
STEMPEL
100
AcDbLine
 10
149.9018231008786
 20
347.1871515694532
 30
0.0
 11
149.9018231008786
 21
334.7387931522693
 31
0.0
  0
LINE
  5
19DD
102
{ACAD_REACTORS
330
196A
102
}
330
1E
100
AcDbEntity
  8
STEMPEL
100
AcDbLine
 10
151.9018231008786
 20
347.1871515694532
 30
0.0
 11
151.9018231008786
 21
334.7387931522693
 31
0.0
  0
ARC
  5
19DE
102
{ACAD_REACTORS
330
1970
330
196B
102
}
330
1E
100
AcDbEntity
  8
SCHRAFF
100
AcDbCircle
 10
149.6518231008783
 20
339.8647673547622
 30
0.0
 40
4.0
100
AcDbArc
 50
169.790377890732
 51
273.5833216984718
  0
LINE
  5
19DF
330
1E
100
AcDbEntity
  8
STEMPEL
100
AcDbLine
 10
146.9018231008867
 20
328.2392764822225
 30
0.0
 11
150.8392692356573
 21
328.2392764822225
 31
0.0
  0
LINE
  5
19E0
102
{ACAD_REACTORS
330
1970
330
196F
102
}
330
1E
100
AcDbEntity
  8
STEMPEL
100
AcDbLine
 10
149.6518231008783
 20
339.8647673547622
 30
0.0
 11
147.0857303203968
 21
338.3106863266428
 31
0.0
  0
LINE
  5
19E1
102
{ACAD_REACTORS
330
1970
102
}
330
1E
100
AcDbEntity
  8
STEMPEL
100
AcDbLine
 10
149.6518231008783
 20
339.8647673547622
 30
0.0
 11
149.9018231008784
 21
339.8647673547622
 31
0.0
  0
LINE
  5
19E2
330
1E
100
AcDbEntity
  8
STEMPEL
100
AcDbLine
 10
154.7018231008729
 20
340.7895290139175
 30
0.0
 11
155.2449688513806
 21
340.7895290139175
 31
0.0
  0
LINE
  5
19E3
330
1E
100
AcDbEntity
  8
STEMPEL
100
AcDbLine
 10
151.901823100872
 20
337.9895290139166
 30
0.0
 11
154.7018231008729
 21
340.7895290139175
 31
0.0
  0
ARC
  5
19E4
102
{ACAD_REACTORS
330
196A
102
}
330
1E
100
AcDbEntity
  8
STEMPEL
100
AcDbCircle
 10
148.4018231008785
 20
311.8914738346775
 30
0.0
 40
12.5
100
AcDbArc
 50
0.0
 51
43.00087522888818
  0
LINE
  5
19E5
330
1E
100
AcDbEntity
  8
STEMPEL
100
AcDbLine
 10
155.9018231008867
 20
316.8472559133556
 30
0.0
 11
157.6587245256887
 21
316.8472559133556
 31
0.0
  0
ARC
  5
19E6
102
{ACAD_REACTORS
330
196A
102
}
330
1E
100
AcDbEntity
  8
STEMPEL
100
AcDbCircle
 10
148.4018231008785
 20
311.8914738346775
 30
0.0
 40
10.5
100
AcDbArc
 50
0.0
 51
43.00087522888818
  0
LINE
  5
19E7
102
{ACAD_REACTORS
330
1972
102
}
330
1E
100
AcDbEntity
  8
STEMPEL
100
AcDbLine
 10
160.9018231008717
 20
336.5609183609679
 30
0.0
 11
162.4044335214026
 21
324.4374484569673
 31
0.0
  0
LINE
  5
19E8
102
{ACAD_REACTORS
330
1972
102
}
330
1E
100
AcDbEntity
  8
STEMPEL
100
AcDbLine
 10
158.9018231008714
 20
336.4374484569671
 30
0.0
 11
160.3891303808128
 21
324.4374484569672
 31
0.0
  0
LINE
  5
19E9
330
1E
100
AcDbEntity
  8
STEMPEL
100
AcDbLine
 10
158.901823100873
 20
367.7895290139174
 30
0.0
 11
153.9259830142318
 21
367.7895290139174
 31
0.0
  0
ARC
  5
19EA
330
1E
100
AcDbEntity
  8
STEMPEL
100
AcDbCircle
 10
153.8776631875139
 20
364.9895290139174
 30
0.0
 40
2.799999999999999
100
AcDbArc
 50
15.00000000000121
 51
90.0
  0
ARC
  5
19EB
330
1E
100
AcDbEntity
  8
STEMPEL
100
AcDbCircle
 10
141.2705728099138
 20
373.2895290139174
 30
0.0
 40
5.0
100
AcDbArc
 50
181.0000000000017
 51
270.0
  0
LINE
  5
19EC
330
1E
100
AcDbEntity
  8
STEMPEL
100
AcDbLine
 10
136.2713343341318
 20
373.2022669817311
 30
0.0
 11
136.1127155853403
 21
382.2895290139174
 31
0.0
  0
LINE
  5
19ED
330
1E
100
AcDbEntity
  8
STEMPEL
100
AcDbLine
 10
149.9018231008728
 20
360.7895290139175
 30
0.0
 11
151.2213907006224
 21
365.7142223402046
 31
0.0
  0
LINE
  5
19EE
102
{ACAD_REACTORS
330
196A
102
}
330
1E
100
AcDbEntity
  8
STEMPEL
100
AcDbLine
 10
155.401823100872
 20
360.7895290139175
 30
0.0
 11
149.9018231008728
 21
360.7895290139174
 31
0.0
  0
LINE
  5
19EF
102
{ACAD_REACTORS
330
196A
102
}
330
1E
100
AcDbEntity
  8
STEMPEL
100
AcDbLine
 10
155.4018231008785
 20
360.7895290139175
 30
0.0
 11
154.4783589573706
 21
358.8091537673226
 31
0.0
  0
LINE
  5
19F0
102
{ACAD_REACTORS
330
196A
102
}
330
1E
100
AcDbEntity
  8
STEMPEL
100
AcDbLine
 10
153.1950672629534
 20
360.7895290139175
 30
0.0
 11
152.6657433832973
 21
359.6543902908041
 31
0.0
  0
ARC
  5
19F1
330
1E
100
AcDbEntity
  8
STEMPEL
100
AcDbCircle
 10
153.9259830142318
 20
364.9895290139174
 30
0.0
 40
2.799999999999999
100
AcDbArc
 50
90.0
 51
164.9999999999988
  0
LINE
  5
19F2
330
1E
100
AcDbEntity
  8
STEMPEL
100
AcDbLine
 10
158.9018231008726
 20
360.7895290139175
 30
0.0
 11
156.5822555011233
 21
365.7142223402046
 31
0.0
  0
LINE
  5
19F5
102
{ACAD_REACTORS
330
1972
102
}
330
1E
100
AcDbEntity
  8
STEMPEL
  6
Continuous
100
AcDbLine
 10
289.9018231008719
 20
573.4419046593984
 30
0.0
 11
289.9018231008719
 21
336.5609183609679
 31
0.0
  0
LINE
  5
19F6
102
{ACAD_REACTORS
330
1972
102
}
330
1E
100
AcDbEntity
  8
STEMPEL
  6
Continuous
100
AcDbLine
 10
291.9018231008721
 20
573.4419046593984
 30
0.0
 11
291.9018231008721
 21
336.4374484569672
 31
0.0
  0
LINE
  5
19F7
102
{ACAD_REACTORS
330
1A15
330
1DC5
102
}
330
1E
100
AcDbEntity
  8
STEMPEL
100
AcDbLine
 10
503.895868843482
 20
300.8874803626188
 30
0.0
 11
291.9018231008715
 21
311.9976175212172
 31
0.0
  0
LINE
  5
19F8
102
{ACAD_REACTORS
330
1DC5
102
}
330
1E
100
AcDbEntity
  8
STEMPEL
100
AcDbLine
 10
503.6915823943652
 20
298.8954418697588
 30
0.0
 11
289.9018231008715
 21
310.0996883877874
 31
0.0
  0
DIMENSION
  5
19FD
330
1E
100
AcDbEntity
  8
SCHRAFF
100
AcDbDimension
  2
*D7
 10
558.3195990079636
 20
233.9552567390102
 30
0.0
 11
552.8195990079637
 21
295.3723928764636
 31
0.0
 70
    32
  1
123
 71
     5
 42
122.8342722749066
  3
Standard
100
AcDbAlignedDimension
 13
384.0378620701929
 23
356.7895290139168
 33
0.0
 14
536.3739232714167
 24
233.9552567390102
 34
0.0
 50
90.0
100
AcDbRotatedDimension
1001
ACAD
1000
DSTYLE
1002
{
1070
    40
1040
2.0
1070
    41
1040
3.5
1070
    42
1040
1.0
1070
    43
1040
7.0
1070
    44
1040
1.0
1070
    47
1040
2.0
1070
    48
1040
2.0
1070
    73
1070
     0
1070
    74
1070
     0
1070
    77
1070
     1
1070
    78
1070
     8
1070
    79
1070
     2
1070
   140
1040
3.5
1070
   141
1040
1.5
1070
   146
1040
0.5142857142857144
1070
   147
1040
1.0
1070
   172
1070
     1
1070
   178
1070
     1
1070
   179
1070
     1
1070
   271
1070
     1
1070
   272
1070
     1
1070
   279
1070
     0
1002
}
  0
LINE
  5
19FE
102
{ACAD_REACTORS
330
196B
102
}
330
1E
100
AcDbEntity
  8
STEMPEL
100
AcDbLine
 10
392.1660494758492
 20
173.5604700576476
 30
0.0
 11
390.972675023562
 21
150.7895290139149
 31
0.0
  0
LINE
  5
19FF
102
{ACAD_REACTORS
330
196B
102
}
330
1E
100
AcDbEntity
  8
STEMPEL
100
AcDbLine
 10
399.1961799285005
 20
312.3827926262652
 30
0.0
 11
303.3857737483665
 21
317.4040032463722
 31
0.0
  0
LINE
  5
1A00
102
{ACAD_REACTORS
330
196B
102
}
330
1E
100
AcDbEntity
  8
STEMPEL
100
AcDbLine
 10
377.4018231008867
 20
351.7895290139161
 30
0.0
 11
315.4520756325812
 21
351.789529013916
 31
0.0
  0
LINE
  5
1A01
102
{ACAD_REACTORS
330
196F
330
1F6E
102
}
330
1E
100
AcDbEntity
  8
STEMPEL
100
AcDbLine
 10
299.2952694174247
 20
356.789529013917
 30
0.0
 11
390.401823100872
 21
356.7895290139168
 31
0.0
  0
LINE
  5
1A04
102
{ACAD_REACTORS
330
197B
102
}
330
1E
100
AcDbEntity
  8
STEMPEL
100
AcDbLine
 10
300.499899312226
 20
362.2895290139173
 30
0.0
 11
382.401823100872
 21
362.2895290139171
 31
0.0
  0
LINE
  5
1A05
102
{ACAD_REACTORS
330
197B
102
}
330
1E
100
AcDbEntity
  8
STEMPEL
100
AcDbLine
 10
360.0596803254457
 20
368.2895290139179
 30
0.0
 11
382.401823100872
 21
368.2895290139179
 31
0.0
  0
LINE
  5
1A06
102
{ACAD_REACTORS
330
1F6E
102
}
330
1E
100
AcDbEntity
  8
STEMPEL
100
AcDbLine
 10
384.0378620701928
 20
356.7895290139168
 30
0.0
 11
300.7058979474018
 21
356.789529013917
 31
0.0
  0
LINE
  5
1A07
102
{ACAD_REACTORS
330
196F
102
}
330
1E
100
AcDbEntity
  8
STEMPEL
100
AcDbLine
 10
384.037862070193
 20
353.7895290139177
 30
0.0
 11
314.7826493505265
 21
353.7895290139176
 31
0.0
  0
LINE
  5
1A08
102
{ACAD_REACTORS
330
197B
102
}
330
1E
100
AcDbEntity
  8
STEMPEL
100
AcDbLine
 10
291.9018231008721
 20
368.289529013918
 30
0.0
 11
334.7439658762989
 21
368.2895290139179
 31
0.0
  0
ARC
  5
1A0C
102
{ACAD_REACTORS
330
196A
102
}
330
1E
100
AcDbEntity
  8
STEMPEL
100
AcDbCircle
 10
271.4018231008783
 20
347.1871515694533
 30
0.0
 40
29.5
100
AcDbArc
 50
0.0
 51
24.9999999999925
  0
ARC
  5
1A0D
102
{ACAD_REACTORS
330
196F
102
}
330
1E
100
AcDbEntity
  8
STEMPEL
100
AcDbCircle
 10
314.7826493505265
 20
350.7895290139177
 30
0.0
 40
6.0
100
AcDbArc
 50
90.0
 51
148.8000000000018
  0
ARC
  5
1A0E
102
{ACAD_REACTORS
330
196A
102
}
330
1E
100
AcDbEntity
  8
STEMPEL
100
AcDbCircle
 10
271.4018231008783
 20
347.1871515694533
 30
0.0
 40
27.5
100
AcDbArc
 50
0.0
 51
24.9999999999925
  0
ARC
  5
1A0F
102
{ACAD_REACTORS
330
1A15
102
}
330
1E
100
AcDbEntity
  8
SCHRAFF
100
AcDbCircle
 10
291.9018231008781
 20
311.9976175212169
 30
0.0
 40
3.0
100
AcDbArc
 50
357.0000000000009
 51
81.19768079417315
  0
ARC
  5
1A10
102
{ACAD_REACTORS
330
196A
102
}
330
1E
100
AcDbEntity
  8
STEMPEL
100
AcDbCircle
 10
277.9018231008783
 20
334.7387931522693
 30
0.0
 40
21.0
100
AcDbArc
 50
316.9991247711119
 51
0.0
  0
ARC
  5
1A11
102
{ACAD_REACTORS
330
196A
102
}
330
1E
100
AcDbEntity
  8
STEMPEL
100
AcDbCircle
 10
277.9018231008783
 20
334.7387931522693
 30
0.0
 40
23.0
100
AcDbArc
 50
316.9991247711118
 51
0.0
  0
ARC
  5
1A12
330
1E
100
AcDbEntity
  8
STEMPEL
100
AcDbCircle
 10
286.7337730690656
 20
345.1858033192716
 30
0.0
 40
9.859318604346695
100
AcDbArc
 50
301.6130058230302
 51
333.5190382300201
  0
LINE
  5
1A13
330
1E
100
AcDbEntity
  8
STEMPEL
100
AcDbLine
 10
298.9018231008716
 20
337.7895290139175
 30
0.0
 11
293.2530743922117
 21
337.7895290139175
 31
0.0
  0
ARC
  5
1A14
102
{ACAD_REACTORS
330
196A
102
}
330
1E
100
AcDbEntity
  8
STEMPEL
100
AcDbCircle
 10
302.4018231008781
 20
311.8914738346775
 30
0.0
 40
12.5
100
AcDbArc
 50
136.9991247711118
 51
180.0
  0
HATCH
  5
1A15
330
1E
100
AcDbEntity
  8
SCHRAFF
100
AcDbHatch
 10
0.0
 20
0.0
 30
0.0
210
0.0
220
0.0
230
1.0
  2
_USER
 70
     0
 71
     1
 91
        1
 92
        7
 72
     1
 73
     1
 93
        3
 10
292.3609006132204
 20
314.9622840855478
 42
0.0717954582423253
 10
291.9023593296736
 20
311.9975894186565
 42
0.0
 10
294.8977117051418
 20
311.840609652488
 42
0.3848540056521714
 97
        3
330
1A16
330
19F7
330
1A0F
 75
     0
 76
     0
 52
0.0
 41
0.1
 77
     0
 78
     1
 53
0.0
 43
0.0
 44
0.0
 45
0.0
 46
0.1
 79
     0
 47
0.3680810938311068
 98
        1
 10
293.1795668967384
 20
313.432645779532
  0
ARC
  5
1A16
102
{ACAD_REACTORS
330
1A15
330
196A
102
}
330
1E
100
AcDbEntity
  8
STEMPEL
100
AcDbCircle
 10
302.4018231008781
 20
311.8914738346775
 30
0.0
 40
10.5
100
AcDbArc
 50
136.9991247711118
 51
179.4209448947722
  0
LINE
  5
1A17
102
{ACAD_REACTORS
330
196A
102
}
330
1E
100
AcDbEntity
  8
STEMPEL
100
AcDbLine
 10
289.9018231008783
 20
311.8914738346773
 30
0.0
 11
289.9018231008781
 21
310.0996883877871
 31
0.0
  0
LINE
  5
1A18
102
{ACAD_REACTORS
330
1972
102
}
330
1E
100
AcDbEntity
  8
STEMPEL
100
AcDbLine
 10
289.9018231008719
 20
336.5609183609679
 30
0.0
 11
288.399212680341
 21
324.4374484569673
 31
0.0
  0
LINE
  5
1A19
102
{ACAD_REACTORS
330
1972
102
}
330
1E
100
AcDbEntity
  8
STEMPEL
100
AcDbLine
 10
291.9018231008722
 20
336.4374484569671
 30
0.0
 11
290.4145158209308
 21
324.4374484569672
 31
0.0
  0
ARC
  5
1A1A
102
{ACAD_REACTORS
330
196B
102
}
330
1E
100
AcDbEntity
  8
STEMPEL
100
AcDbCircle
 10
303.5951175733383
 20
321.3985213853905
 30
0.0
 40
4.0
100
AcDbArc
 50
141.6903237986853
 51
267.0000000000013
  0
LINE
  5
1A1B
102
{ACAD_REACTORS
330
196B
102
}
330
1E
100
AcDbEntity
  8
STEMPEL
100
AcDbLine
 10
306.7087576050145
 20
343.04621098635
 30
0.0
 11
304.5390943504648
 21
339.666613143153
 31
0.0
  0
LINE
  5
1A1C
102
{ACAD_REACTORS
330
196F
102
}
330
1E
100
AcDbEntity
  8
STEMPEL
100
AcDbLine
 10
309.6504637895637
 20
353.8976910701566
 30
0.0
 11
301.1518231008781
 21
339.8647673547622
 31
0.0
  0
LINE
  5
1A1D
102
{ACAD_REACTORS
330
1970
330
196F
102
}
330
1E
100
AcDbEntity
  8
STEMPEL
100
AcDbLine
 10
312.216556570045
 20
352.3436100420371
 30
0.0
 11
303.7179158813597
 21
338.3106863266428
 31
0.0
  0
LINE
  5
1A1E
102
{ACAD_REACTORS
330
196B
102
}
330
1E
100
AcDbEntity
  8
STEMPEL
100
AcDbLine
 10
303.9018231008872
 20
338.6143532396088
 30
0.0
 11
303.9018231008872
 21
328.2392764822225
 31
0.0
  0
LINE
  5
1A1F
102
{ACAD_REACTORS
330
196A
102
}
330
1E
100
AcDbEntity
  8
STEMPEL
100
AcDbLine
 10
298.9018231008783
 20
347.1871515694532
 30
0.0
 11
298.9018231008781
 21
334.738793152269
 31
0.0
  0
LINE
  5
1A20
102
{ACAD_REACTORS
330
1970
330
196A
102
}
330
1E
100
AcDbEntity
  8
STEMPEL
100
AcDbLine
 10
300.9018231008783
 20
347.1871515694532
 30
0.0
 11
300.9018231008783
 21
334.7387931522693
 31
0.0
  0
ARC
  5
1A21
102
{ACAD_REACTORS
330
1970
330
196B
102
}
330
1E
100
AcDbEntity
  8
SCHRAFF
100
AcDbCircle
 10
301.1518231008781
 20
339.8647673547622
 30
0.0
 40
4.0
100
AcDbArc
 50
266.4166783015282
 51
10.20962210926797
  0
LINE
  5
1A22
330
1E
100
AcDbEntity
  8
STEMPEL
100
AcDbLine
 10
303.9018231008872
 20
328.2392764822225
 30
0.0
 11
299.9643769660995
 21
328.2392764822225
 31
0.0
  0
LINE
  5
1A23
102
{ACAD_REACTORS
330
196B
102
}
330
1E
100
AcDbEntity
  8
STEMPEL
100
AcDbLine
 10
303.9018231008875
 20
328.2392764822225
 30
0.0
 11
300.4564308129979
 21
323.8781676142839
 31
0.0
  0
LINE
  5
1A24
330
1E
100
AcDbEntity
  8
STEMPEL
100
AcDbLine
 10
303.9018231008872
 20
328.2392764822225
 30
0.0
 11
302.0942472071153
 21
325.951282953152
 31
0.0
  0
LINE
  5
1A25
330
1E
100
AcDbEntity
  8
STEMPEL
100
AcDbLine
 10
298.9018231008714
 20
337.9895290139188
 30
0.0
 11
296.1018231008728
 21
340.7895290139175
 31
0.0
  0
LINE
  5
1A26
330
1E
100
AcDbEntity
  8
STEMPEL
100
AcDbLine
 10
296.1018231008728
 20
340.7895290139175
 30
0.0
 11
295.558677350365
 21
340.7895290139175
 31
0.0
  0
LINE
  5
1A27
330
1E
100
AcDbEntity
  8
STEMPEL
100
AcDbLine
 10
298.9018231008728
 20
347.1956727004573
 30
0.0
 11
298.9018231008728
 21
344.7061844771088
 31
0.0
  0
LINE
  5
1A28
102
{ACAD_REACTORS
330
1970
102
}
330
1E
100
AcDbEntity
  8
STEMPEL
100
AcDbLine
 10
301.1518231008781
 20
339.8647673547622
 30
0.0
 11
300.9018231008783
 21
339.8647673547622
 31
0.0
  0
LINE
  5
1A29
102
{ACAD_REACTORS
330
1970
330
196F
102
}
330
1E
100
AcDbEntity
  8
STEMPEL
100
AcDbLine
 10
301.1518231008781
 20
339.8647673547622
 30
0.0
 11
303.7179158813597
 21
338.3106863266428
 31
0.0
  0
LINE
  5
1A2A
102
{ACAD_REACTORS
330
196B
102
}
330
1E
100
AcDbEntity
  8
STEMPEL
100
AcDbLine
 10
315.4520756325812
 20
351.7895290139161
 30
0.0
 11
306.7087576050146
 21
343.04621098635
 31
0.0
  0
ARC
  5
1A2B
102
{ACAD_REACTORS
330
196F
102
}
330
1E
100
AcDbEntity
  8
STEMPEL
100
AcDbCircle
 10
314.7826493505265
 20
350.7895290139177
 30
0.0
 40
3.0
100
AcDbArc
 50
90.0
 51
148.8000000000018
  0
LINE
  5
1A2C
330
1E
100
AcDbEntity
  8
STEMPEL
100
AcDbLine
 10
296.8776631875138
 20
367.7895290139175
 30
0.0
 11
291.9018231008731
 21
367.7895290139175
 31
0.0
  0
ARC
  5
1A2D
330
1E
100
AcDbEntity
  8
STEMPEL
100
AcDbCircle
 10
296.9259830142317
 20
364.9895290139174
 30
0.0
 40
2.799999999999999
100
AcDbArc
 50
90.0
 51
164.9999999999988
  0
LINE
  5
1A2E
330
1E
100
AcDbEntity
  8
STEMPEL
100
AcDbLine
 10
291.9018231008731
 20
360.7895290139175
 30
0.0
 11
294.2213907006223
 21
365.7142223402046
 31
0.0
  0
LINE
  5
1A2F
330
1E
100
AcDbEntity
  8
STEMPEL
100
AcDbLine
 10
300.9018231008728
 20
360.7895290139175
 30
0.0
 11
299.5822555011232
 21
365.7142223402046
 31
0.0
  0
LINE
  5
1A30
102
{ACAD_REACTORS
330
196A
102
}
330
1E
100
AcDbEntity
  8
STEMPEL
100
AcDbLine
 10
300.9018231008728
 20
360.7895290139175
 30
0.0
 11
295.4018231008713
 21
360.7895290139174
 31
0.0
  0
LINE
  5
1A31
102
{ACAD_REACTORS
330
196A
102
}
330
1E
100
AcDbEntity
  8
STEMPEL
100
AcDbLine
 10
297.6085789388033
 20
360.7895290139175
 30
0.0
 11
298.1379028184595
 21
359.6543902908041
 31
0.0
  0
LINE
  5
1A32
102
{ACAD_REACTORS
330
196A
102
}
330
1E
100
AcDbEntity
  8
STEMPEL
100
AcDbLine
 10
295.4018231008781
 20
360.7895290139175
 30
0.0
 11
296.3252872443861
 21
358.8091537673226
 31
0.0
  0
ARC
  5
1A33
330
1E
100
AcDbEntity
  8
STEMPEL
100
AcDbCircle
 10
296.8776631875138
 20
364.9895290139174
 30
0.0
 40
2.799999999999999
100
AcDbArc
 50
15.00000000000121
 51
90.0
  0
LINE
  5
1A36
102
{ACAD_REACTORS
330
197B
102
}
330
1E
100
AcDbEntity
  8
STEMPEL
100
AcDbLine
 10
339.9018231008721
 20
382.2895290139179
 30
0.0
 11
354.9018231008722
 21
382.2895290139177
 31
0.0
  0
LINE
  5
1A3A
330
1E
100
AcDbEntity
  8
STEMPEL
100
AcDbLine
 10
330.1909306164036
 20
381.7895290139184
 30
0.0
 11
322.1909306164036
 21
381.7895290139184
 31
0.0
  0
LINE
  5
1A3B
330
1E
100
AcDbEntity
  8
STEMPEL
100
AcDbLine
 10
321.1909306164036
 20
380.7895290139186
 30
0.0
 11
331.1909306164036
 21
380.7895290139186
 31
0.0
  0
LINE
  5
1A3C
102
{ACAD_REACTORS
330
197B
330
1F6E
102
}
330
1E
100
AcDbEntity
  8
MITTEL
100
AcDbLine
 10
326.1576973178583
 20
386.7895290139169
 30
0.0
 11
326.1576973178583
 21
356.7895290139174
 31
0.0
  0
ARC
  5
1A3D
102
{ACAD_REACTORS
330
197B
102
}
330
1E
100
AcDbEntity
  8
STEMPEL
100
AcDbCircle
 10
322.401823100872
 20
365.2895290139178
 30
0.0
 40
3.0
100
AcDbArc
 50
90.0
 51
270.0
  0
LINE
  5
1A3E
102
{ACAD_REACTORS
330
1F6E
102
}
330
1E
100
AcDbEntity
  8
STEMPEL
100
AcDbLine
 10
320.4018231008719
 20
359.7895290139169
 30
0.0
 11
320.4018231008719
 21
356.7895290139168
 31
0.0
  0
LINE
  5
1A40
330
1E
100
AcDbEntity
  8
STEMPEL
100
AcDbLine
 10
321.1576973178585
 20
362.2895290139172
 30
0.0
 11
321.1576973178583
 21
359.7895290139169
 31
0.0
  0
LINE
  5
1A41
330
1E
100
AcDbEntity
  8
HILF
100
AcDbLine
 10
322.1576973178581
 20
362.2895290139172
 30
0.0
 11
322.1576973178583
 21
359.7895290139169
 31
0.0
  0
LINE
  5
1A42
330
1E
100
AcDbEntity
  8
STEMPEL
100
AcDbLine
 10
321.1909306164036
 20
380.7895290139184
 30
0.0
 11
321.1909306164036
 21
378.2895290139178
 31
0.0
  0
LINE
  5
1A43
330
1E
100
AcDbEntity
  8
HILF
100
AcDbLine
 10
322.1909306164036
 20
381.7895290139184
 30
0.0
 11
322.1909306164036
 21
378.2895290139179
 31
0.0
  0
LINE
  5
1A45
330
1E
100
AcDbEntity
  8
STEMPEL
100
AcDbLine
 10
322.1909306164036
 20
381.7895290139184
 30
0.0
 11
321.1909306164036
 21
380.7895290139184
 31
0.0
  0
ARC
  5
1A48
102
{ACAD_REACTORS
330
197B
102
}
330
1E
100
AcDbEntity
  8
STEMPEL
100
AcDbCircle
 10
334.7439658762989
 20
373.2895290139181
 30
0.0
 40
5.0
100
AcDbArc
 50
270.0
 51
358.9999999999982
  0
LINE
  5
1A49
330
1E
100
AcDbEntity
  8
HILF
100
AcDbLine
 10
330.1576973178585
 20
362.2895290139172
 30
0.0
 11
330.1576973178582
 21
359.7895290139168
 31
0.0
  0
LINE
  5
1A4A
330
1E
100
AcDbEntity
  8
STEMPEL
100
AcDbLine
 10
331.1576973178586
 20
362.2895290139172
 30
0.0
 11
331.1576973178583
 21
359.7895290139168
 31
0.0
  0
LINE
  5
1A4C
330
1E
100
AcDbEntity
  8
HILF
100
AcDbLine
 10
330.1909306164036
 20
381.7895290139184
 30
0.0
 11
330.1909306164036
 21
378.2895290139179
 31
0.0
  0
LINE
  5
1A4D
330
1E
100
AcDbEntity
  8
STEMPEL
100
AcDbLine
 10
331.1909306164036
 20
380.7895290139184
 30
0.0
 11
331.1909306164036
 21
378.2895290139179
 31
0.0
  0
LINE
  5
1A51
330
1E
100
AcDbEntity
  8
STEMPEL
100
AcDbLine
 10
331.1909306164036
 20
380.7895290139184
 30
0.0
 11
330.1909306164036
 21
381.7895290139184
 31
0.0
  0
LINE
  5
1A52
102
{ACAD_REACTORS
330
197B
102
}
330
1E
100
AcDbEntity
  8
STEMPEL
100
AcDbLine
 10
339.7432043520808
 20
373.2022669817318
 30
0.0
 11
339.9018231008721
 21
382.2895290139179
 31
0.0
  0
LINE
  5
1A53
330
1E
100
AcDbEntity
  8
MITTEL
100
AcDbLine
 10
347.4018231008728
 20
387.2895290139177
 30
0.0
 11
347.4018231008754
 21
362.2895290139171
 31
0.0
  0
LINE
  5
1A54
102
{ACAD_REACTORS
330
197B
102
}
330
1E
100
AcDbEntity
  8
HILF
100
AcDbLine
 10
344.4018231008744
 20
382.2895290139177
 30
0.0
 11
344.4018231008717
 21
362.2895290139175
 31
0.0
  0
LINE
  5
1A55
330
1E
100
AcDbEntity
  8
STEMPEL
100
AcDbLine
 10
345.0518231008751
 20
382.2895290139179
 30
0.0
 11
345.0518231008725
 21
362.2895290139172
 31
0.0
  0
LINE
  5
1A56
102
{ACAD_REACTORS
330
197B
102
}
330
1E
100
AcDbEntity
  8
HILF
100
AcDbLine
 10
350.4018231008747
 20
382.2895290139177
 30
0.0
 11
350.4018231008733
 21
362.2895290139175
 31
0.0
  0
LINE
  5
1A57
330
1E
100
AcDbEntity
  8
STEMPEL
100
AcDbLine
 10
349.7518231008741
 20
382.2895290139177
 30
0.0
 11
349.7518231008725
 21
362.2895290139172
 31
0.0
  0
ARC
  5
1A58
102
{ACAD_REACTORS
330
197B
102
}
330
1E
100
AcDbEntity
  8
STEMPEL
100
AcDbCircle
 10
360.0596803254457
 20
373.2895290139179
 30
0.0
 40
4.99999999999995
100
AcDbArc
 50
181.0000000000017
 51
270.0
  0
LINE
  5
1A59
102
{ACAD_REACTORS
330
197B
102
}
330
1E
100
AcDbEntity
  8
STEMPEL
100
AcDbLine
 10
354.9018231008722
 20
382.2895290139181
 30
0.0
 11
355.0604418496636
 21
373.2022669817316
 31
0.0
  0
TEXT
  5
1A5A
330
1E
100
AcDbEntity
  8
TEXT
 62
     1
100
AcDbText
 10
387.7686247974791
 20
243.8578586962211
 30
0.0
 40
7.0
  1
DN125
 50
356.5193892912067
 41
0.8
  7
GREEKS
100
AcDbText
  0
LINE
  5
1A5B
102
{ACAD_REACTORS
330
196F
102
}
330
1E
100
AcDbEntity
  8
STEMPEL
100
AcDbLine
 10
390.401823100872
 20
352.9108493574772
 30
0.0
 11
388.2805027573125
 21
355.032169701037
 31
0.0
  0
LINE
  5
1A5C
102
{ACAD_REACTORS
330
196B
102
}
330
1E
100
AcDbEntity
  8
STEMPEL
100
AcDbLine
 10
401.4018231008867
 20
349.7895290139149
 30
0.0
 11
377.4018231008867
 21
349.7895290139159
 31
0.0
  0
LINE
  5
1A5D
102
{ACAD_REACTORS
330
196F
102
}
330
1E
100
AcDbEntity
  8
STEMPEL
100
AcDbLine
 10
388.2805027573125
 20
350.7895290139177
 30
0.0
 11
386.1591824137525
 21
352.9108493574772
 31
0.0
  0
LINE
  5
1A5E
330
1E
100
AcDbEntity
  8
STEMPEL
100
AcDbLine
 10
377.4018231008867
 20
350.7895290139168
 30
0.0
 11
388.2805027573121
 21
350.7895290139168
 31
0.0
  0
LINE
  5
1A5F
102
{ACAD_REACTORS
330
196B
102
}
330
1E
100
AcDbEntity
  8
STEMPEL
100
AcDbLine
 10
377.4018231008867
 20
351.7895290139161
 30
0.0
 11
377.4018231008867
 21
349.7895290139159
 31
0.0
  0
ARC
  5
1A60
102
{ACAD_REACTORS
330
196F
102
}
330
1E
100
AcDbEntity
  8
STEMPEL
100
AcDbCircle
 10
384.037862070193
 20
350.7895290139177
 30
0.0
 40
3.0
100
AcDbArc
 50
45.00000000000064
 51
90.0
  0
LINE
  5
1A61
102
{ACAD_REACTORS
330
196B
102
}
330
1E
100
AcDbEntity
  8
STEMPEL
100
AcDbLine
 10
401.4018231008867
 20
349.7895290139149
 30
0.0
 11
399.1267316561602
 21
306.378198180006
 31
0.0
  0
LINE
  5
1A62
102
{ACAD_REACTORS
330
196F
102
}
330
1E
100
AcDbEntity
  8
STEMPEL
100
AcDbLine
 10
390.401823100872
 20
352.9108493574772
 30
0.0
 11
388.2805027573125
 21
350.7895290139174
 31
0.0
  0
ARC
  5
1A63
102
{ACAD_REACTORS
330
196F
102
}
330
1E
100
AcDbEntity
  8
STEMPEL
100
AcDbCircle
 10
384.037862070193
 20
350.7895290139177
 30
0.0
 40
6.0
100
AcDbArc
 50
45.00000000000064
 51
90.0
  0
ARC
  5
1A64
102
{ACAD_REACTORS
330
197B
102
}
330
1E
100
AcDbEntity
  8
STEMPEL
100
AcDbCircle
 10
382.401823100872
 20
365.2895290139177
 30
0.0
 40
3.0
100
AcDbArc
 50
270.0
 51
90.0
  0
LINE
  5
1A65
102
{ACAD_REACTORS
330
1F6E
102
}
330
1E
100
AcDbEntity
  8
STEMPEL
100
AcDbLine
 10
390.401823100872
 20
359.7895290139167
 30
0.0
 11
390.401823100872
 21
356.7895290139168
 31
0.0
  0
LINE
  5
1A67
102
{ACAD_REACTORS
330
1DC5
102
}
330
1E
100
AcDbEntity
  8
STEMPEL
100
AcDbLine
 10
513.8298282347843
 20
299.3654912654349
 30
0.0
 11
506.9738179669591
 21
168.5450222125856
 31
0.0
  0
LINE
  5
1A68
330
1E
100
AcDbEntity
  8
HILF
100
AcDbLine
 10
503.6865250185099
 20
296.8929622236005
 30
0.0
 11
497.1445304881419
 21
172.0642703792788
 31
0.0
  0
DIMENSION
  5
1A69
330
1E
100
AcDbEntity
  8
BEM
100
AcDbDimension
  2
*D8
 10
527.9206161466074
 20
166.4458746909024
 30
0.0
 11
525.9084947956129
 21
233.1425865114177
 31
0.0
 70
    33
  1
%%c<>
 71
     5
 42
133.0
  3
Standard
100
AcDbAlignedDimension
 13
503.895868843482
 23
300.8874803626188
 33
0.0
 14
496.9351866631707
 24
168.0697522402605
 34
0.0
1001
ACAD
1000
DSTYLE
1002
{
1070
    40
1040
2.0
1070
    41
1040
3.5
1070
    42
1040
1.0
1070
    43
1040
7.0
1070
    44
1040
1.0
1070
    47
1040
2.0
1070
    48
1040
2.0
1070
    73
1070
     0
1070
    74
1070
     0
1070
    77
1070
     1
1070
    78
1070
     8
1070
    79
1070
     2
1070
   140
1040
3.5
1070
   141
1040
1.5
1070
   146
1040
0.5142857142857144
1070
   147
1040
1.0
1070
   172
1070
     1
1070
   178
1070
     1
1070
   179
1070
     1
1070
   271
1070
     1
1070
   272
1070
     1
1070
   279
1070
     0
1002
}
  0
LINE
  5
1A6A
102
{ACAD_REACTORS
330
1DC5
102
}
330
1E
100
AcDbEntity
  8
STEMPEL
100
AcDbLine
 10
506.9738179669591
 20
168.5450222125856
 30
0.0
 11
496.9351866631707
 21
168.0697522402605
 31
0.0
  0
LINE
  5
1A6B
102
{ACAD_REACTORS
330
1DC5
102
}
330
1E
100
AcDbEntity
  8
STEMPEL
100
AcDbLine
 10
507.0790119371097
 20
170.5522427357579
 30
0.0
 11
496.9402440390253
 21
170.0722318864187
 31
0.0
  0
LINE
  5
1A6C
102
{ACAD_REACTORS
330
1DC5
102
}
330
1E
100
AcDbEntity
  8
STEMPEL
100
AcDbLine
 10
513.7246342646338
 20
297.3582707422626
 30
0.0
 11
503.6915823943652
 21
298.8954418697588
 31
0.0
  0
LINE
  5
1A6D
102
{ACAD_REACTORS
330
1DC5
102
}
330
1E
100
AcDbEntity
  8
STEMPEL
100
AcDbLine
 10
513.8298282347843
 20
299.3654912654349
 30
0.0
 11
503.895868843482
 21
300.8874803626188
 31
0.0
  0
HATCH
  5
1A6E
330
1E
100
AcDbEntity
  8
SCHRAFF
100
AcDbHatch
 10
0.0
 20
0.0
 30
0.0
210
0.0
220
0.0
230
1.0
  2
_USER
 70
     0
 71
     1
 91
        2
 92
        7
 72
     1
 73
     1
 93
       12
 10
135.5587500624674
 20
601.4374484569677
 42
-0.2553615373328711
 10
138.083282408303
 20
600.0581694184007
 42
0.0
 10
147.127290755036
 20
585.9706786345769
 42
0.0
 10
149.651823100872
 20
587.5913995960097
 42
0.0
 10
140.6078147541393
 20
601.6788903798331
 42
0.2553615373329125
 10
135.5587500624674
 20
604.4374484569675
 42
0.0
 10
66.76578413155119
 20
604.4374484569678
 42
0.198912367379669
 10
62.52314344443163
 20
602.6800891440871
 42
0.0
 10
60.40182310087214
 20
600.5587688005274
 42
0.0
 10
62.52314344443149
 20
598.4374484569676
 42
0.0
 10
64.64446378799164
 20
600.5587688005273
 42
-0.1989123673796703
 10
66.76578413155138
 20
601.4374484569677
 42
0.0
 97
       12
330
1A81
330
1A88
330
1A8B
330
1A8A
330
1A89
330
1A8E
330
1A83
330
1AE0
330
1ADE
330
1AE3
330
1ADF
330
1AE1
 92
        7
 72
     1
 73
     1
 93
       12
 10
384.0378620701928
 20
601.4374484569677
 42
-0.1989123673796555
 10
386.1591824137523
 20
600.5587688005273
 42
0.0
 10
388.2805027573124
 20
598.4374484569675
 42
0.0
 10
390.4018231008718
 20
600.5587688005273
 42
0.0
 10
388.2805027573123
 20
602.6800891440871
 42
0.19891236737964
 10
384.0378620701931
 20
604.4374484569669
 42
0.0
 10
315.2448961392763
 20
604.437448456967
 42
0.2553615373328966
 10
310.1958314476046
 20
601.6788903798329
 42
0.0
 10
301.151823100872
 20
587.5913995960096
 42
0.0
 10
303.6763554467076
 20
585.9706786345769
 42
0.0
 10
312.7203637934404
 20
600.0581694184002
 42
-0.255361537332929
 10
315.2448961392763
 20
601.4374484569677
 42
0.0
 97
       12
330
1A81
330
1BAA
330
1BA3
330
1BA8
330
1BA4
330
1BA9
330
1B93
330
1C13
330
1C12
330
1C15
330
1C16
330
1C11
 75
     0
 76
     0
 52
45.0
 41
2.0
 77
     0
 78
     1
 53
45.0
 43
-25.21676720437836
 44
-0.0000000000001137
 45
-1.414213562373094
 46
1.414213562373095
 79
     0
 47
0.6468058204192415
 98
        2
 10
120.0145241381819
 20
602.4996178264176
 10
343.9774669038275
 20
602.4996178264176
  0
LINE
  5
1A6F
330
1E
100
AcDbEntity
  8
HILF
100
AcDbLine
 10
162.4939192443676
 20
576.1206886859542
 30
0.0
 11
288.3097269573761
 21
576.120688685954
 31
0.0
  0
LINE
  5
1A70
330
1E
100
AcDbEntity
  8
STEMPEL
100
AcDbLine
 10
149.6518231008719
 20
587.5913995960097
 30
0.0
 11
301.151823100872
 21
587.5913995960097
 31
0.0
  0
DIMENSION
  5
1A72
330
1E
100
AcDbEntity
  8
BEM
100
AcDbDimension
  2
*D9
 10
335.4018231008723
 20
745.7031741049824
 30
0.0
 11
225.4018231008722
 21
751.2031741049825
 31
0.0
 70
    32
  1
%%c<>
 71
     5
 42
220.0000000000002
  3
Standard
100
AcDbAlignedDimension
 13
115.4018231008721
 23
699.9373904896522
 33
0.0
 14
335.4018231008723
 24
699.9373904896522
 34
0.0
100
AcDbRotatedDimension
1001
ACAD
1000
DSTYLE
1002
{
1070
    40
1040
2.0
1070
    41
1040
3.5
1070
    42
1040
1.0
1070
    43
1040
7.0
1070
    44
1040
1.0
1070
    47
1040
2.399999999999999
1070
    48
1040
2.399999999999999
1070
    73
1070
     0
1070
    74
1070
     0
1070
    77
1070
     1
1070
    78
1070
     8
1070
   140
1040
3.5
1070
   141
1040
1.5
1070
   145
1040
0.5714285714285714
1070
   147
1040
1.0
1070
   172
1070
     1
1070
   178
1070
     1
1070
   271
1070
     1
1070
   272
1070
     1
1070
   279
1070
     1
1070
   284
1070
     8
1070
   285
1070
     8
1070
   286
1070
     8
1070
   340
1005
24
1002
}
  0
HATCH
  5
1A74
330
1E
100
AcDbEntity
  8
SCHRAFF
100
AcDbHatch
 10
0.0
 20
0.0
 30
0.0
210
0.0
220
0.0
230
1.0
  2
_U
 70
     0
 71
     0
 91
        7
 92
        7
 72
     1
 73
     1
 93
        4
 10
91.40182310087203
 20
609.9374484569677
 42
0.0
 10
91.40182310087203
 20
615.9374484569678
 42
0.0
 10
68.40182310087198
 20
615.9374484569678
 42
1.0
 10
68.40182310087198
 20
609.9374484569677
 42
0.0
 97
        0
 92
        7
 72
     1
 73
     1
 93
        4
 10
128.401823100872
 20
609.9374484569677
 42
1.0
 10
128.401823100872
 20
615.9374484569678
 42
0.0
 10
105.401823100872
 20
615.9374484569678
 42
0.0
 10
105.401823100872
 20
609.9374484569676
 42
0.0
 97
        0
 92
        7
 72
     1
 73
     1
 93
       10
 10
334.7439658762988
 20
615.937448456968
 42
0.0
 10
322.401823100872
 20
615.937448456968
 42
0.0175906946879192
 10
322.1909306164036
 20
615.9300266698131
 42
0.0
 10
322.1909306164036
 20
609.9448702441224
 42
0.0175906946879065
 10
322.4018231008718
 20
609.9374484569676
 42
0.0
 10
344.4018231008716
 20
609.9374484569673
 42
0.0
 10
344.4018231008734
 20
623.1874484569682
 42
0.0
 10
344.4018231008718
 20
629.937448456968
 42
0.0
 10
339.901823100872
 20
629.937448456968
 42
0.0
 10
339.7432043520808
 20
620.8501864247821
 42
-0.4091108014277334
 97
        0
 92
        7
 72
     1
 73
     1
 93
        8
 10
355.0604418496636
 20
620.8501864247816
 42
0.0
 10
354.9018231008721
 20
629.937448456968
 42
0.0
 10
350.4018231008725
 20
629.937448456968
 42
0.0
 10
350.4018231008742
 20
623.1874484569682
 42
0.0
 10
350.4018231008732
 20
609.9374484569676
 42
0.0
 10
382.401823100872
 20
609.9374484569676
 42
1.0
 10
382.401823100872
 20
615.937448456968
 42
0.0
 10
360.0596803254455
 20
615.937448456968
 42
-0.4091108014277206
 97
        0
 92
        7
 72
     0
 73
     1
 93
        4
 10
345.051823100874
 20
622.5374484569672
 10
344.4018231008734
 20
623.1874484569685
 10
344.4018231008715
 20
609.9374484569676
 10
345.0518231008723
 20
609.9374484569676
 97
        0
 92
        7
 72
     0
 73
     1
 93
        4
 10
349.7518231008724
 20
609.9374484569676
 10
350.4018231008732
 20
609.9374484569676
 10
350.4018231008742
 20
623.1874484569691
 10
349.7518231008734
 20
622.5374484569681
 97
        0
 92
        7
 72
     1
 73
     1
 93
        2
 10
322.1909306164036
 20
615.9300266698125
 42
0.9320082274074453
 10
322.1909306164036
 20
609.9448702441224
 42
0.0
 97
        0
 75
     0
 76
     0
 52
135.0
 41
5.0
 77
     0
 78
     1
 53
135.0
 43
-25.21676720437836
 44
0.0
 45
-3.535533905932737
 46
-3.535533905932737
 79
     0
 47
0.4776624557792612
 98
        7
 10
78.3041524731783
 20
612.5759042066738
 10
116.5450613555398
 20
612.098240785089
 10
340.2543764574588
 20
614.4865536955824
 10
354.5947175618584
 20
614.0088916731412
 10
344.7621014551472
 20
616.9981493445479
 10
349.930236149868
 20
615.8388035816301
 10
321.5582288518612
 20
613.2039237950491
  0
LINE
  5
1A75
330
1E
100
AcDbEntity
  8
STEMPEL
100
AcDbLine
 10
95.40182310087187
 20
629.9374484569707
 30
0.0
 11
344.4018231008719
 21
629.937448456968
 31
0.0
  0
LINE
  5
1A76
330
1E
100
AcDbEntity
  8
STEMPEL
100
AcDbLine
 10
250.8413376959289
 20
719.9374484569673
 30
0.0
 11
305.4018231008723
 21
719.9374484569678
 31
0.0
  0
LINE
  5
1A77
330
1E
100
AcDbEntity
  8
HILF
100
AcDbLine
 10
327.7281561584027
 20
702.9374484569705
 30
0.0
 11
122.5754900433413
 21
702.9374484569705
 31
0.0
  0
LINE
  5
1A78
330
1E
100
AcDbEntity
  8
STEMPEL
100
AcDbLine
 10
145.4018231008721
 20
718.9374484569668
 30
0.0
 11
305.4018231008723
 21
718.9374484569677
 31
0.0
  0
LINE
  5
1A79
330
1E
100
AcDbEntity
  8
STEMPEL
100
AcDbLine
 10
275.1620651463392
 20
630.9374484569691
 30
0.0
 11
261.6874564243448
 21
630.9374484569691
 31
0.0
  0
LWPOLYLINE
  5
1A7A
330
1E
100
AcDbEntity
  8
STEMPEL
100
AcDbPolyline
 90
       18
 70
   128
 43
0.0
 10
273.94455371361
 20
642.4374484569673
 10
273.8265726783289
 20
643.8155698405919
 10
273.4766472751393
 20
645.1467609533717
 10
272.9066937939575
 20
646.3856896785484
 10
272.1361213170014
 20
647.4901657843177
 10
271.1911707657739
 20
648.4225776615706
 10
270.1040212979539
 20
649.1511731421317
 10
268.9116944847756
 20
649.6511407807649
 10
267.6547935858238
 20
649.9054547791818
 10
266.3761208537254
 20
649.9054547791818
 10
265.1192199547736
 20
649.6511407807649
 10
263.9268931415953
 20
649.1511731421317
 10
262.8397436737753
 20
648.4225776615706
 10
261.8947931225477
 20
647.4901657843177
 10
261.1242206455917
 20
646.3856896785484
 10
260.5542671644099
 20
645.1467609533717
 10
260.2043417612202
 20
643.8155698405919
 10
260.0863607259391
 20
642.4374484569673
  0
HATCH
  5
1A7B
330
1E
100
AcDbEntity
  8
SCHRAFF
100
AcDbHatch
 10
0.0
 20
0.0
 30
0.0
210
0.0
220
0.0
230
1.0
  2
_U
 70
     0
 71
     0
 91
        6
 92
        7
 72
     1
 73
     1
 93
        6
 10
95.40182310087198
 20
630.937448456968
 42
0.0
 10
95.40182310087187
 20
629.9374484569709
 42
0.0
 10
110.4018231008721
 20
629.9374484569705
 42
0.131652497587392
 10
113.4018231008721
 20
630.7412960342637
 42
0.0
 10
113.4018231008721
 20
631.9374484569682
 42
-0.1622776601683613
 10
110.4018231008724
 20
630.9374484569682
 42
0.0
 97
        0
 92
        7
 72
     1
 73
     1
 93
        6
 10
116.4018231008722
 20
654.9374484569691
 42
0.0
 10
115.4018231008721
 20
654.9374484569691
 42
0.0
 10
115.4018231008721
 20
635.9374484569682
 42
-0.2360679774997897
 10
113.4018231008721
 20
631.9374484569682
 42
0.0
 10
113.4018231008721
 20
630.7412960342615
 42
0.2679491924311254
 10
116.4018231008722
 20
635.9374484569682
 42
0.0
 97
        0
 92
        7
 72
     1
 73
     1
 93
       40
 10
118.369128479175
 20
705.1145290170177
 42
0.2662608607109159
 10
115.4018231008721
 20
699.9373904896524
 42
0.0
 10
115.4018231008721
 20
694.9374484569691
 42
0.0
 10
116.4018231008722
 20
694.9374484569691
 42
0.0
 10
116.4018231008722
 20
699.9373904896522
 42
-0.2667503951500923
 10
118.8824695327449
 20
704.2562859038487
 42
0.0
 10
142.8613234256923
 20
718.2439390700317
 42
-0.1340385084115268
 10
145.401823100872
 20
718.9374484569668
 42
0.0
 10
200.1401852732215
 20
718.9374484569673
 42
0.2679491924311331
 10
202.3052487826826
 20
720.1874484569673
 42
-0.2679491924311204
 10
202.7382614845749
 20
720.4374484569673
 42
0.0
 10
202.938261484575
 20
720.4374484569673
 42
-0.2679491924312903
 10
203.3712741864676
 20
720.1874484569676
 42
0.2679491924311459
 10
205.5363376959288
 20
718.9374484569673
 42
0.0
 10
207.5951852732212
 20
718.9374484569673
 42
0.2679491924311487
 10
209.7602487826824
 20
720.1874484569676
 42
-0.2679491924310494
 10
210.1932614845745
 20
720.4374484569673
 42
0.0
 10
210.393261484575
 20
720.4374484569673
 42
-0.2679491924309788
 10
210.8262741864669
 20
720.1874484569673
 42
0.2679491924311188
 10
212.9913376959279
 20
718.9374484569673
 42
0.0
 10
219.4451852732221
 20
718.9374484569673
 42
0.2679491924310907
 10
221.610248782683
 20
720.1874484569673
 42
-0.2679491924312511
 10
222.0432614845753
 20
720.4374484569673
 42
0.0
 10
225.4018231008721
 20
720.4374484569673
 42
0.0
 10
225.4018231008721
 20
721.4374484569673
 42
0.0
 10
222.0432614845748
 20
721.4374484569673
 42
0.2679491924310706
 10
220.7442233788985
 20
720.6874484569673
 42
-0.2679491924311248
 10
219.4451852732218
 20
719.9374484569673
 42
0.0
 10
212.9913376959279
 20
719.9374484569673
 42
-0.2679491924310946
 10
211.6922995902514
 20
720.6874484569673
 42
0.285907654623734
 10
210.2932614845754
 20
721.4341114116771
 42
0.2859076546239871
 10
208.8942233788981
 20
720.6874484569673
 42
-0.2679491924311237
 10
207.5951852732214
 20
719.9374484569673
 42
0.0
 10
205.5363376959288
 20
719.9374484569673
 42
-0.2679491924311664
 10
204.2372995902519
 20
720.6874484569673
 42
0.2859076546237742
 10
202.8382614845758
 20
721.4341114116771
 42
0.2859076546240356
 10
201.4392233788982
 20
720.6874484569673
 42
-0.2679491924311194
 10
200.1401852732216
 20
719.9374484569673
 42
0.0
 10
145.401823100872
 20
719.9374484569668
 42
0.1316524975840433
 10
142.4018231009403
 20
719.1336008797136
 42
0.0
 97
        0
 92
        7
 72
     1
 73
     1
 93
       39
 10
308.4018231007901
 20
719.1336008797216
 42
0.1316524975833739
 10
305.4018231008724
 20
719.9374484569678
 42
0.0
 10
250.8413376959289
 20
719.9374484569673
 42
-0.2679491924311991
 10
249.5422995902519
 20
720.6874484569673
 42
0.2859076546238128
 10
248.1432614845754
 20
721.4341114116771
 42
0.2859076546238881
 10
246.7442233788987
 20
720.6874484569673
 42
-0.2679491924311304
 10
245.445185273222
 20
719.9374484569673
 42
0.0
 10
238.9913376959285
 20
719.9374484569673
 42
-0.2679491924311332
 10
237.6922995902518
 20
720.6874484569673
 42
0.2859076546241097
 10
236.2932614845738
 20
721.4341114116771
 42
0.3607372083885869
 10
234.7408927297471
 20
720.3124484569673
 42
-0.3419987131195785
 10
234.2567698114712
 20
719.9374484569673
 42
0.0
 10
234.0680206188717
 20
719.9374484569673
 42
-0.3419987131194884
 10
233.5838977005961
 20
720.3124484569673
 42
0.3419987131196405
 10
232.1315289457683
 20
721.4374484569673
 42
0.0
 10
225.4018231008721
 20
721.4374484569673
 42
0.0
 10
225.4018231008721
 20
720.4374484569673
 42
0.0
 10
232.1315289457684
 20
720.4374484569673
 42
-0.3419987131194818
 10
232.615651864044
 20
720.0624484569673
 42
0.3596757619904723
 10
234.1623952151713
 20
718.9404202556386
 42
0.359675761990524
 10
235.7091385662987
 20
720.0624484569673
 42
-0.3419987131196628
 10
236.1932614845747
 20
720.4374484569673
 42
0.0
 10
236.393261484575
 20
720.4374484569673
 42
-0.2679491924311947
 10
236.8262741864672
 20
720.1874484569673
 42
0.2679491924311145
 10
238.9913376959283
 20
718.9374484569675
 42
0.0
 10
245.4451852732226
 20
718.9374484569675
 42
0.2679491924310684
 10
247.6102487826832
 20
720.1874484569673
 42
-0.2679491924312787
 10
248.0432614845756
 20
720.4374484569673
 42
0.0
 10
248.2432614845749
 20
720.4374484569673
 42
-0.2679491924313323
 10
248.6762741864676
 20
720.1874484569676
 42
0.2679491924311285
 10
250.8413376959287
 20
718.9374484569675
 42
0.0
 10
305.4018231008723
 20
718.9374484569677
 42
-0.1340385084120632
 10
307.9423227760608
 20
718.2439390700267
 42
0.0
 10
331.9211766689994
 20
704.2562859038487
 42
-0.2667503951500853
 10
334.4018231008722
 20
699.9373904896524
 42
0.0
 10
334.4018231008722
 20
694.9374484569691
 42
0.0
 10
335.4018231008723
 20
694.9374484569691
 42
0.0
 10
335.4018231008723
 20
699.9373904896524
 42
0.2662608607118826
 10
332.4345177225506
 20
705.1145290170286
 42
0.0
 97
        0
 92
        7
 72
     1
 73
     1
 93
        9
 10
335.4018231008724
 20
654.9374484569691
 42
0.0
 10
334.4018231008722
 20
654.9374484569691
 42
0.0
 10
334.4018231008722
 20
635.9374484569682
 42
0.4142135623731085
 10
340.4018231008722
 20
629.937448456968
 42
0.0
 10
343.4018231008721
 20
629.9374484569682
 42
0.0
 10
343.4018231008721
 20
630.9374484569682
 42
0.0
 10
341.4018231008719
 20
630.9374484569682
 42
0.0
 10
340.4018231008722
 20
630.9374484569682
 42
-0.4142135623730885
 10
335.4018231008723
 20
635.9374484569682
 42
0.0
 97
        0
 92
        7
 72
     0
 73
     1
 93
        4
 10
351.4018231008722
 20
630.937448456968
 10
351.4018231008722
 20
629.9374484569682
 10
355.4018231008721
 20
629.937448456968
 10
355.401823100872
 20
630.9374484569677
 97
        0
 75
     0
 76
     0
 52
45.0
 41
2.0
 77
     0
 78
     1
 53
45.0
 43
-25.21676720437836
 44
0.0
 45
-1.414213562373094
 46
1.414213562373095
 79
     0
 47
0.3139380610148735
 98
        6
 10
103.936244017303
 20
630.574425129932
 10
116.1879812888363
 20
653.4919028258409
 10
138.4924264683753
 20
716.5934534937191
 10
312.8440775772609
 20
716.2795153618467
 10
335.1485259014284
 20
652.2361502983512
 10
353.0549092092828
 20
630.574425129932
  0
LINE
  5
1A7C
330
1E
100
AcDbEntity
  8
STEMPEL
100
AcDbLine
 10
68.40182310087198
 20
615.9374484569678
 30
0.0
 11
334.7439658762988
 21
615.937448456968
 31
0.0
  0
DIMENSION
  5
1A7D
330
1E
100
AcDbEntity
  8
BEM
100
AcDbDimension
  2
*D10
 10
390.401823100872
 20
762.1692521312716
 30
0.0
 11
225.401823100872
 21
767.6692521312716
 31
0.0
 70
    32
  1
%%c<>
 71
     5
 42
330.0
  3
Standard
100
AcDbAlignedDimension
 13
60.40182310087198
 23
607.4374484569678
 33
0.0
 14
390.401823100872
 24
607.4374484569675
 34
0.0
100
AcDbRotatedDimension
1001
ACAD
1000
DSTYLE
1002
{
1070
    40
1040
2.0
1070
    41
1040
3.5
1070
    42
1040
1.0
1070
    43
1040
8.0
1070
    44
1040
1.5
1070
    47
1040
1.199999999999999
1070
    48
1040
1.199999999999999
1070
    73
1070
     0
1070
    74
1070
     0
1070
    77
1070
     1
1070
    78
1070
     8
1070
   140
1040
3.5
1070
   141
1040
1.5
1070
   147
1040
1.0
1070
   172
1070
     1
1070
   178
1070
     1
1070
   271
1070
     2
1070
   272
1070
     2
1070
   285
1070
     8
1070
   286
1070
     8
1070
   289
1070
     0
1070
   340
1005
24
1002
}
  0
LINE
  5
1A7E
102
{ACAD_REACTORS
330
1F4C
102
}
330
1E
100
AcDbEntity
  8
STEMPEL
100
AcDbLine
 10
103.401823100872
 20
607.4374484569678
 30
0.0
 11
390.401823100872
 21
607.4374484569675
 31
0.0
  0
LINE
  5
1A80
330
1E
100
AcDbEntity
  8
STEMPEL
100
AcDbLine
 10
103.401823100872
 20
609.9374484569676
 30
0.0
 11
382.401823100872
 21
609.9374484569676
 31
0.0
  0
LINE
  5
1A81
102
{ACAD_REACTORS
330
1A6E
330
1F4C
102
}
330
1E
100
AcDbEntity
  8
STEMPEL
100
AcDbLine
 10
60.40182310087198
 20
604.4374484569678
 30
0.0
 11
390.401823100872
 21
604.4374484569669
 31
0.0
  0
DIMENSION
  5
1A82
330
1E
100
AcDbEntity
  8
BEM
100
AcDbDimension
  2
*D11
 10
32.36425636989001
 20
719.9374484569668
 30
0.0
 11
26.86425636988989
 21
664.9374484569673
 31
0.0
 70
    32
 71
     5
 42
109.9999999999991
  3
Standard
100
AcDbAlignedDimension
 13
68.40182310087192
 23
609.9374484569677
 33
0.0
 14
145.4018231008721
 24
719.9374484569668
 34
0.0
 50
90.0
100
AcDbRotatedDimension
1001
ACAD
1000
DSTYLE
1002
{
1070
    40
1040
2.0
1070
    41
1040
3.5
1070
    42
1040
1.0
1070
    43
1040
8.0
1070
    44
1040
1.5
1070
    47
1040
1.199999999999999
1070
    48
1040
1.199999999999999
1070
    73
1070
     0
1070
    74
1070
     0
1070
    77
1070
     1
1070
    78
1070
     8
1070
   140
1040
3.5
1070
   141
1040
1.5
1070
   147
1040
1.0
1070
   172
1070
     1
1070
   178
1070
     1
1070
   271
1070
     2
1070
   272
1070
     2
1070
   285
1070
     8
1070
   286
1070
     8
1070
   289
1070
     0
1070
   340
1005
24
1002
}
  0
LINE
  5
1A83
102
{ACAD_REACTORS
330
1A6E
102
}
330
1E
100
AcDbEntity
  8
STEMPEL
100
AcDbLine
 10
66.76578413155119
 20
601.4374484569677
 30
0.0
 11
135.5587500624674
 21
601.4374484569677
 31
0.0
  0
LINE
  5
1A84
330
1E
100
AcDbEntity
  8
STEMPEL
100
AcDbLine
 10
62.52314344443141
 20
598.4374484569677
 30
0.0
 11
139.1237667733227
 21
598.4374484569673
 31
0.0
  0
LINE
  5
1A86
330
1E
100
AcDbEntity
  8
STEMPEL
100
AcDbLine
 10
68.40182310087198
 20
609.9374484569677
 30
0.0
 11
93.40182310087199
 21
609.9374484569677
 31
0.0
  0
LINE
  5
1A87
102
{ACAD_REACTORS
330
1F4C
102
}
330
1E
100
AcDbEntity
  8
STEMPEL
100
AcDbLine
 10
60.40182310087198
 20
607.4374484569678
 30
0.0
 11
93.40182310087199
 21
607.4374484569678
 31
0.0
  0
ARC
  5
1A88
102
{ACAD_REACTORS
330
1A6E
102
}
330
1E
100
AcDbEntity
  8
STEMPEL
100
AcDbCircle
 10
66.76578413155119
 20
598.4374484569677
 30
0.0
 40
6.0
100
AcDbArc
 50
90.0
 51
134.9999999999996
  0
LINE
  5
1A89
102
{ACAD_REACTORS
330
1A6E
102
}
330
1E
100
AcDbEntity
  8
STEMPEL
100
AcDbLine
 10
62.52314344443163
 20
598.4374484569677
 30
0.0
 11
64.64446378799164
 21
600.5587688005273
 31
0.0
  0
LINE
  5
1A8A
102
{ACAD_REACTORS
330
1A6E
102
}
330
1E
100
AcDbEntity
  8
STEMPEL
100
AcDbLine
 10
60.40182310087209
 20
600.5587688005273
 30
0.0
 11
62.52314344443163
 21
598.4374484569675
 31
0.0
  0
LINE
  5
1A8B
102
{ACAD_REACTORS
330
1A6E
102
}
330
1E
100
AcDbEntity
  8
STEMPEL
100
AcDbLine
 10
60.40182310087209
 20
600.5587688005273
 30
0.0
 11
62.52314344443163
 21
602.6800891440871
 31
0.0
  0
LINE
  5
1A8D
102
{ACAD_REACTORS
330
1F4C
102
}
330
1E
100
AcDbEntity
  8
STEMPEL
100
AcDbLine
 10
60.40182310087198
 20
607.4374484569678
 30
0.0
 11
60.40182310087198
 21
604.4374484569678
 31
0.0
  0
ARC
  5
1A8E
102
{ACAD_REACTORS
330
1A6E
102
}
330
1E
100
AcDbEntity
  8
STEMPEL
100
AcDbCircle
 10
66.76578413155119
 20
598.4374484569677
 30
0.0
 40
3.0
100
AcDbArc
 50
90.0
 51
134.9999999999996
  0
ARC
  5
1A8F
330
1E
100
AcDbEntity
  8
STEMPEL
100
AcDbCircle
 10
68.40182310087198
 20
612.9374484569678
 30
0.0
 40
3.0
100
AcDbArc
 50
90.0
 51
270.0
  0
LINE
  5
1A90
330
1E
100
AcDbEntity
  8
STEMPEL
100
AcDbLine
 10
232.9018231008723
 20
687.4374484569694
 30
0.0
 11
232.9018231008723
 21
662.4374484569694
 31
0.0
  0
LINE
  5
1A91
330
1E
100
AcDbEntity
  8
STEMPEL
100
AcDbLine
 10
217.9018231008723
 20
687.4374484569678
 30
0.0
 11
217.9018231008723
 21
662.4374484569678
 31
0.0
  0
LINE
  5
1A92
330
1E
100
AcDbEntity
  8
STEMPEL
100
AcDbLine
 10
177.0250034601339
 20
687.4374484569694
 30
0.0
 11
177.0250034601339
 21
662.4374484569694
 31
0.0
  0
LINE
  5
1A93
330
1E
100
AcDbEntity
  8
STEMPEL
100
AcDbLine
 10
164.5357993988101
 20
687.4374484569694
 30
0.0
 11
164.5357993988101
 21
662.437448456971
 31
0.0
  0
LINE
  5
1A94
330
1E
100
AcDbEntity
  8
STEMPEL
100
AcDbLine
 10
177.526180455576
 20
687.4374484569694
 30
0.0
 11
177.526180455576
 21
662.4374484569694
 31
0.0
  0
LINE
  5
1A95
330
1E
100
AcDbEntity
  8
STEMPEL
100
AcDbLine
 10
134.1107135745202
 20
662.4374484569694
 30
0.0
 11
134.1107135745202
 21
687.437448456971
 31
0.0
  0
LINE
  5
1A96
330
1E
100
AcDbEntity
  8
STEMPEL
100
AcDbLine
 10
134.9787775942091
 20
687.4374484569694
 30
0.0
 11
134.9787775942091
 21
662.437448456971
 31
0.0
  0
LINE
  5
1A97
330
1E
100
AcDbEntity
  8
STEMPEL
100
AcDbLine
 10
115.4018231008721
 20
699.9373904896522
 30
0.0
 11
115.4018231008721
 21
635.9374484569682
 31
0.0
  0
LINE
  5
1A98
330
1E
100
AcDbEntity
  8
STEMPEL
100
AcDbLine
 10
116.4018231008722
 20
699.9373904896522
 30
0.0
 11
116.4018231008722
 21
635.9374484569682
 31
0.0
  0
LINE
  5
1A99
330
1E
100
AcDbEntity
  8
STEMPEL
100
AcDbLine
 10
127.4787775942092
 20
687.4374484569694
 30
0.0
 11
127.4787775942092
 21
662.4374484569726
 31
0.0
  0
LWPOLYLINE
  5
1A9A
330
1E
100
AcDbEntity
  8
STEMPEL
100
AcDbPolyline
 90
       18
 70
   128
 43
0.0
 10
-176.8590924881346
 20
642.4374484569673
 10
-176.9770735234157
 20
643.8155698405919
 10
-177.3269989266053
 20
645.1467609533717
 10
-177.8969524077871
 20
646.3856896785484
 10
-178.6675248847432
 20
647.4901657843177
 10
-179.6124754359707
 20
648.4225776615706
 10
-180.6996249037909
 20
649.1511731421317
 10
-181.891951716969
 20
649.6511407807649
 10
-183.1488526159209
 20
649.9054547791818
 10
-184.4275253480192
 20
649.9054547791818
 10
-185.684426246971
 20
649.6511407807649
 10
-186.8767530601492
 20
649.1511731421317
 10
-187.9639025279693
 20
648.4225776615706
 10
-188.9088530791969
 20
647.4901657843177
 10
-189.679425556153
 20
646.3856896785484
 10
-190.2493790373347
 20
645.1467609533717
 10
-190.5993044405244
 20
643.8155698405919
 10
-190.7172854758055
 20
642.4374484569673
210
0.0
220
0.0
230
-1.0
  0
LINE
  5
1A9B
330
1E
100
AcDbEntity
  8
STEMPEL
100
AcDbLine
 10
175.6415810554055
 20
630.9374484569691
 30
0.0
 11
189.1161897773999
 21
630.9374484569691
 31
0.0
  0
ELLIPSE
  5
1A9C
330
1E
100
AcDbEntity
  8
STEMPEL
100
AcDbEllipse
 10
130.3607135745202
 20
662.437448456971
 30
0.0
 11
0.0
 21
-7.499999999999999
 31
0.0
210
0.0
220
0.0
230
-1.0
 40
0.4999999999999926
 41
4.712388980384689
 42
6.167183451052224
  0
ELLIPSE
  5
1A9D
330
1E
100
AcDbEntity
  8
STEMPEL
100
AcDbEllipse
 10
131.2287775942092
 20
662.437448456971
 30
0.0
 11
0.0
 21
-7.499999999999999
 31
0.0
210
0.0
220
0.0
230
-1.0
 40
0.4999999999999926
 41
4.712388980384689
 42
7.853981633974482
  0
LWPOLYLINE
  5
1A9E
330
1E
100
AcDbEntity
  8
STEMPEL
100
AcDbPolyline
 90
       10
 70
   128
 43
0.0
 10
130.2018419831949
 20
629.9374484569691
 10
130.9595916082892
 20
630.0286019388961
 10
131.6943173944647
 20
630.2992927322539
 10
132.3836950704978
 20
630.7412960342626
 10
133.0067782445442
 20
631.3411817982555
 10
133.5446348496557
 20
632.0807227988503
 10
133.9809223850547
 20
632.9374484569695
 10
134.3023844747499
 20
633.8853275970154
 10
134.4992536558139
 20
634.8955593909679
 10
134.5655481578007
 20
635.9374484569696
  0
LINE
  5
1AA3
102
{ACAD_REACTORS
330
1F4C
102
}
330
1E
100
AcDbEntity
  8
STEMPEL
100
AcDbLine
 10
91.40182310087197
 20
607.4374484569678
 30
0.0
 11
91.40182310087197
 21
604.4374484569673
 31
0.0
  0
LINE
  5
1AA4
330
1E
100
AcDbEntity
  8
STEMPEL
100
AcDbLine
 10
91.40182310087197
 20
615.9374484569678
 30
0.0
 11
91.40182310087197
 21
609.9374484569677
 31
0.0
  0
LINE
  5
1AA5
330
1E
100
AcDbEntity
  8
STEMPEL
100
AcDbLine
 10
93.40182310087199
 20
615.9374484569678
 30
0.0
 11
93.40182310087199
 21
604.4374484569673
 31
0.0
  0
LINE
  5
1AA6
330
1E
100
AcDbEntity
  8
HILF
100
AcDbLine
 10
94.40182310087198
 20
615.9374484569678
 30
0.0
 11
94.40182310087198
 21
604.4374484569673
 31
0.0
  0
LINE
  5
1AA7
330
1E
100
AcDbEntity
  8
STEMPEL
100
AcDbLine
 10
103.401823100872
 20
615.9374484569678
 30
0.0
 11
103.401823100872
 21
604.4374484569673
 31
0.0
  0
LINE
  5
1AA8
330
1E
100
AcDbEntity
  8
HILF
100
AcDbLine
 10
102.401823100872
 20
615.9374484569678
 30
0.0
 11
102.401823100872
 21
604.4374484569673
 31
0.0
  0
LINE
  5
1AA9
102
{ACAD_REACTORS
330
1F4C
102
}
330
1E
100
AcDbEntity
  8
STEMPEL
100
AcDbLine
 10
105.401823100872
 20
607.4374484569678
 30
0.0
 11
105.401823100872
 21
604.4374484569673
 31
0.0
  0
LINE
  5
1AAA
330
1E
100
AcDbEntity
  8
STEMPEL
100
AcDbLine
 10
105.401823100872
 20
615.9374484569678
 30
0.0
 11
105.401823100872
 21
609.9374484569674
 31
0.0
  0
ARC
  5
1AAB
330
1E
100
AcDbEntity
  8
STEMPEL
100
AcDbCircle
 10
128.401823100872
 20
612.9374484569678
 30
0.0
 40
3.0
100
AcDbArc
 50
270.0
 51
90.0
  0
LINE
  5
1AAD
102
{ACAD_REACTORS
330
1F4C
102
}
330
1E
100
AcDbEntity
  8
STEMPEL
100
AcDbLine
 10
130.401823100872
 20
607.4374484569678
 30
0.0
 11
130.401823100872
 21
604.4374484569678
 31
0.0
  0
LINE
  5
1AAE
330
1E
100
AcDbEntity
  8
STEMPEL
100
AcDbLine
 10
95.40182310087208
 20
630.9374484569677
 30
0.0
 11
110.4018231008723
 21
630.9374484569682
 31
0.0
  0
LINE
  5
1AAF
330
1E
100
AcDbEntity
  8
STEMPEL
100
AcDbLine
 10
102.4018231008721
 20
629.4374484569685
 30
0.0
 11
94.40182310087209
 21
629.4374484569685
 31
0.0
  0
LINE
  5
1AB0
330
1E
100
AcDbEntity
  8
STEMPEL
100
AcDbLine
 10
93.40182310087209
 20
628.4374484569684
 30
0.0
 11
103.4018231008721
 21
628.4374484569684
 31
0.0
  0
LINE
  5
1AB8
330
1E
100
AcDbEntity
  8
HILF
100
AcDbLine
 10
94.40182310087209
 20
629.4374484569685
 30
0.0
 11
94.40182310087209
 21
625.9374484569678
 31
0.0
  0
LINE
  5
1AB9
330
1E
100
AcDbEntity
  8
STEMPEL
100
AcDbLine
 10
93.40182310087209
 20
628.4374484569684
 30
0.0
 11
93.40182310087207
 21
625.9374484569678
 31
0.0
  0
LINE
  5
1ABA
330
1E
100
AcDbEntity
  8
STEMPEL
100
AcDbLine
 10
95.40182310087198
 20
630.9374484569682
 30
0.0
 11
95.40182310087187
 21
629.9374484569677
 31
0.0
  0
LINE
  5
1ABB
330
1E
100
AcDbEntity
  8
STEMPEL
100
AcDbLine
 10
94.40182310087209
 20
629.4374484569685
 30
0.0
 11
93.40182310087209
 21
628.4374484569684
 31
0.0
  0
LINE
  5
1ABF
330
1E
100
AcDbEntity
  8
HILF
100
AcDbLine
 10
102.4018231008721
 20
629.4374484569685
 30
0.0
 11
102.4018231008721
 21
625.9374484569678
 31
0.0
  0
LINE
  5
1AC0
330
1E
100
AcDbEntity
  8
STEMPEL
100
AcDbLine
 10
103.4018231008721
 20
628.4374484569684
 30
0.0
 11
103.4018231008721
 21
625.9374484569678
 31
0.0
  0
LINE
  5
1AC1
330
1E
100
AcDbEntity
  8
STEMPEL
100
AcDbLine
 10
103.4018231008721
 20
628.4374484569684
 30
0.0
 11
102.4018231008721
 21
629.4374484569685
 31
0.0
  0
LWPOLYLINE
  5
1AC4
330
1E
100
AcDbEntity
  8
STEMPEL
100
AcDbPolyline
 90
       18
 70
   128
 43
0.0
 10
-122.0674974886414
 20
642.4374484569673
 10
-122.1163668335576
 20
643.8155698405919
 10
-122.2613106813777
 20
645.1467609533717
 10
-122.4973931432049
 20
646.3856896785484
 10
-122.8165747139517
 20
647.4901657843177
 10
-123.207986048042
 20
648.4225776615706
 10
-123.65829810194
 20
649.1511731421317
 10
-124.1521760387394
 20
649.6511407807649
 10
-124.6728014376443
 20
649.9054547791818
 10
-125.2024450251161
 20
649.9054547791818
 10
-125.7230704240211
 20
649.6511407807649
 10
-126.2169483608205
 20
649.1511731421317
 10
-126.6672604147185
 20
648.4225776615706
 10
-127.0586717488088
 20
647.4901657843177
 10
-127.3778533195556
 20
646.3856896785484
 10
-127.6139357813828
 20
645.1467609533717
 10
-127.7588796292028
 20
643.8155698405919
 10
-127.8077489741191
 20
642.4374484569673
210
0.0
220
0.0
230
-1.0
  0
LWPOLYLINE
  5
1AC5
330
1E
100
AcDbEntity
  8
STEMPEL
100
AcDbPolyline
 90
        9
 70
   128
 43
0.0
 10
-124.4745960631282
 20
649.8392067016325
 10
-124.9636566063969
 20
649.5127738038752
 10
-125.4232695742979
 20
648.9675047906177
 10
-125.8392193779221
 20
648.2202645474899
 10
-126.1986409072137
 20
647.2941648247124
 10
-126.4904174421012
 20
646.2178494027421
 10
-126.7055244868394
 20
645.0246081551113
 10
-126.8373088929469
 20
643.7513474100353
 10
-126.8816946376117
 20
642.4374484569691
210
0.0
220
0.0
230
-1.0
  0
LWPOLYLINE
  5
1AC6
330
1E
100
AcDbEntity
  8
STEMPEL
100
AcDbPolyline
 90
       18
 70
   128
 43
0.0
 10
-116.6115103419075
 20
642.4374484569673
 10
-116.6281787653843
 20
643.8155698405919
 10
-116.6776164126447
 20
645.1467609533717
 10
-116.7581397439052
 20
646.3856896785484
 10
-116.8670066336968
 20
647.4901657843177
 10
-117.0005097506591
 20
648.4225776615706
 10
-117.1541028062632
 20
649.1511731421317
 10
-117.3225553732153
 20
649.6511407807649
 10
-117.5001310013842
 20
649.9054547791818
 10
-117.6807825657313
 20
649.9054547791818
 10
-117.8583581939002
 20
649.6511407807649
 10
-118.0268107608523
 20
649.1511731421317
 10
-118.1804038164564
 20
648.4225776615706
 10
-118.3139069334187
 20
647.4901657843177
 10
-118.4227738232104
 20
646.3856896785484
 10
-118.5032971544708
 20
645.1467609533717
 10
-118.5527348017312
 20
643.8155698405919
 10
-118.569403225208
 20
642.4374484569673
210
0.0
220
0.0
230
-1.0
  0
LINE
  5
1AC7
330
1E
100
AcDbEntity
  8
STEMPEL
100
AcDbLine
 10
119.9139258559728
 20
630.9374484569691
 30
0.0
 11
124.7281230049442
 21
630.9374484569691
 31
0.0
  0
LWPOLYLINE
  5
1AC8
330
1E
100
AcDbEntity
  8
STEMPEL
100
AcDbPolyline
 90
       10
 70
   128
 43
0.0
 10
117.2521329620674
 20
629.9374484569691
 10
118.088312236909
 20
630.0286019388961
 10
118.8990846276116
 20
630.2992927322539
 10
119.6598152253544
 20
630.7412960342626
 10
120.3473896158732
 20
631.3411817982555
 10
120.9409161992416
 20
632.0807227988503
 10
121.4223609705628
 20
632.9374484569695
 10
121.7770954740832
 20
633.8853275970154
 10
121.9943412814174
 20
634.8955593909679
 10
122.0674974886414
 20
635.9374484569696
  0
ARC
  5
1AC9
330
1E
100
AcDbEntity
  8
STEMPEL
100
AcDbCircle
 10
110.4018231008722
 20
635.9374484569682
 30
0.0
 40
5.0
100
AcDbArc
 50
270.0
 51
0.0
  0
ARC
  5
1ACA
330
1E
100
AcDbEntity
  8
STEMPEL
100
AcDbCircle
 10
110.4018231008722
 20
635.9374484569682
 30
0.0
 40
6.0
100
AcDbArc
 50
270.0
 51
0.0
  0
LWPOLYLINE
  5
1ACB
330
1E
100
AcDbEntity
  8
STEMPEL
100
AcDbPolyline
 90
       10
 70
   128
 43
0.0
 10
113.0634144941772
 20
629.9374484569691
 10
113.9214874904499
 20
630.0035756715419
 10
114.7742996900722
 20
630.2561294212721
 10
115.5950579969892
 20
630.6871751375897
 10
116.3579763633881
 20
631.2831705080295
 10
117.0390859188874
 20
632.0253909397502
 10
117.6169880088331
 20
632.8905178365478
 10
118.0735264832393
 20
633.8513712072638
 10
118.3943581148369
 20
634.877763588976
 10
118.569403225208
 20
635.9374484569687
  0
LWPOLYLINE
  5
1ACC
330
1E
100
AcDbEntity
  8
STEMPEL
100
AcDbPolyline
 90
        7
 70
   128
 43
0.0
 10
114.9551653279993
 20
630.9374484569696
 10
115.6318672030768
 20
631.5470491848288
 10
116.2314166267107
 20
632.2746082687404
 10
116.7377052998604
 20
633.1005781304206
 10
117.1371305919059
 20
634.0027671556238
 10
117.4189610071688
 20
634.9569359238174
 10
117.5756245116703
 20
635.9374484569696
  0
LWPOLYLINE
  5
1ACD
330
1E
100
AcDbEntity
  8
STEMPEL
100
AcDbPolyline
 90
       10
 70
   128
 43
0.0
 10
111.1055216108767
 20
629.9374484569705
 10
111.9635946071495
 20
630.0035756715431
 10
112.8164068067717
 20
630.2561294212733
 10
113.6371651136887
 20
630.6871751375909
 10
114.4000834800877
 20
631.2831705080307
 10
115.0811930355869
 20
632.0253909397513
 10
115.6590951255326
 20
632.8905178365487
 10
116.1156335999388
 20
633.8513712072649
 10
116.4364652315364
 20
634.8777635889771
 10
116.6115103419075
 20
635.9374484569696
  0
LINE
  5
1ACE
330
1E
100
AcDbEntity
  8
STEMPEL
100
AcDbLine
 10
113.9910511582369
 20
630.9374484569691
 30
0.0
 11
114.9551653279995
 21
630.9374484569691
 31
0.0
  0
LINE
  5
1ACF
330
1E
100
AcDbEntity
  8
STEMPEL
100
AcDbLine
 10
116.6115103419075
 20
642.4374484569673
 30
0.0
 11
116.6115103419075
 21
635.9374484569696
 31
0.0
  0
LINE
  5
1AD0
330
1E
100
AcDbEntity
  8
STEMPEL
100
AcDbLine
 10
117.5756245116702
 20
642.4374484569673
 30
0.0
 11
117.5756245116702
 21
635.9374484569696
 31
0.0
  0
LINE
  5
1AD1
330
1E
100
AcDbEntity
  8
STEMPEL
100
AcDbLine
 10
118.569403225208
 20
642.4374484569673
 30
0.0
 11
118.569403225208
 21
635.9374484569687
 31
0.0
  0
LWPOLYLINE
  5
1AD2
330
1E
100
AcDbEntity
  8
STEMPEL
100
AcDbPolyline
 90
        7
 70
   128
 43
0.0
 10
-117.0935674267887
 20
648.8995025128072
 10
-117.231396436359
 20
648.1473962758687
 10
-117.3502607133251
 20
647.224682665154
 10
-117.4466087152264
 20
646.1589314152497
 10
-117.5175616627646
 20
644.9819860784284
 10
-117.5609995547725
 20
643.7290125720267
 10
-117.57562451167
 20
642.4374484569673
210
0.0
220
0.0
230
-1.0
  0
LWPOLYLINE
  5
1AD3
330
1E
100
AcDbEntity
  8
STEMPEL
100
AcDbPolyline
 90
       10
 70
   128
 43
0.0
 10
122.9923844475452
 20
629.9374484569691
 10
123.8285637223867
 20
630.0286019388961
 10
124.6393361130893
 20
630.2992927322539
 10
125.4000667108322
 20
630.7412960342626
 10
126.087641101351
 20
631.3411817982555
 10
126.6811676847194
 20
632.0807227988503
 10
127.1626124560406
 20
632.9374484569695
 10
127.517346959561
 20
633.8853275970154
 10
127.7345927668951
 20
634.8955593909679
 10
127.8077489741191
 20
635.9374484569696
  0
LWPOLYLINE
  5
1AD4
330
1E
100
AcDbEntity
  8
STEMPEL
100
AcDbPolyline
 90
        7
 70
   128
 43
0.0
 10
124.7281230049432
 20
630.9374484569691
 10
125.3482135280076
 20
631.5467863588101
 10
125.880033674791
 20
632.2742166320993
 10
126.3092794745222
 20
633.1001741260431
 10
126.6244058223195
 20
634.0024436765054
 10
126.8169369992854
 20
634.9567576107485
 10
126.8816946376117
 20
635.9374484569696
  0
LINE
  5
1AD5
330
1E
100
AcDbEntity
  8
STEMPEL
100
AcDbLine
 10
122.0674974886414
 20
642.4374484569673
 30
0.0
 11
122.0674974886414
 21
635.9374484569709
 31
0.0
  0
LINE
  5
1AD6
330
1E
100
AcDbEntity
  8
STEMPEL
100
AcDbLine
 10
127.8077489741191
 20
642.4374484569673
 30
0.0
 11
127.8077489741191
 21
635.9374484569709
 31
0.0
  0
LINE
  5
1AD7
330
1E
100
AcDbEntity
  8
STEMPEL
100
AcDbLine
 10
126.8816946376118
 20
642.4374484569673
 30
0.0
 11
126.8816946376118
 21
635.9374484569709
 31
0.0
  0
LINE
  5
1AD8
330
1E
100
AcDbEntity
  8
STEMPEL
100
AcDbLine
 10
115.4018231008718
 20
654.9374484569691
 30
0.0
 11
116.4018231008721
 21
654.9374484569691
 31
0.0
  0
LINE
  5
1AD9
330
1E
100
AcDbEntity
  8
MITTEL
100
AcDbLine
 10
161.901823100872
 20
634.4374484569674
 30
0.0
 11
161.901823100872
 21
604.4374484569673
 31
0.0
  0
LINE
  5
1ADC
102
{ACAD_REACTORS
330
1972
102
}
330
1E
100
AcDbEntity
  8
STEMPEL
100
AcDbLine
 10
148.2376095384988
 20
586.1771860336366
 30
0.0
 11
157.4373570068049
 21
576.9774385653313
 31
0.0
  0
LINE
  5
1ADD
102
{ACAD_REACTORS
330
1972
102
}
330
1E
100
AcDbEntity
  8
STEMPEL
100
AcDbLine
 10
149.6518231008719
 20
587.5913995960097
 30
0.0
 11
158.8515705691779
 21
578.3916521277046
 31
0.0
  0
LINE
  5
1ADE
102
{ACAD_REACTORS
330
1A6E
102
}
330
1E
100
AcDbEntity
  8
STEMPEL
100
AcDbLine
 10
138.0832824083034
 20
600.0581694184002
 30
0.0
 11
147.127290755036
 21
585.9706786345769
 31
0.0
  0
LINE
  5
1ADF
102
{ACAD_REACTORS
330
1A6E
102
}
330
1E
100
AcDbEntity
  8
STEMPEL
100
AcDbLine
 10
140.6078147541393
 20
601.6788903798331
 30
0.0
 11
149.6518231008719
 21
587.5913995960097
 31
0.0
  0
ARC
  5
1AE0
102
{ACAD_REACTORS
330
1A6E
102
}
330
1E
100
AcDbEntity
  8
STEMPEL
100
AcDbCircle
 10
135.5587500624674
 20
598.4374484569673
 30
0.0
 40
3.0
100
AcDbArc
 50
32.70000000000063
 51
90.0
  0
ARC
  5
1AE1
102
{ACAD_REACTORS
330
1A6E
102
}
330
1E
100
AcDbEntity
  8
STEMPEL
100
AcDbCircle
 10
135.5587500624674
 20
598.4374484569673
 30
0.0
 40
6.0
100
AcDbArc
 50
32.70000000000063
 51
90.0
  0
HATCH
  5
1AE2
330
1E
100
AcDbEntity
  8
SCHRAFF
100
AcDbHatch
 10
0.0
 20
0.0
 30
0.0
210
0.0
220
0.0
230
1.0
  2
_USER
 70
     0
 71
     0
 91
        1
 92
        7
 72
     1
 73
     1
 93
        4
 10
148.2376095384988
 20
586.1771860336366
 42
0.0
 10
149.6518231008719
 20
587.5913995960097
 42
0.0
 10
147.127290755036
 20
585.9706786345769
 42
0.2702405669853404
 10
149.8187483685832
 20
584.5960472035524
 42
0.0
 97
        0
 75
     0
 76
     0
 52
45.0
 41
0.1
 77
     0
 78
     1
 53
45.0
 43
-141.6961514298191
 44
173.7442571528697
 45
-0.0707106781186548
 46
0.0707106781186548
 79
     0
 47
0.0752656827785136
 98
        1
 10
148.1863726983206
 20
585.8484604049481
  0
LINE
  5
1AE3
102
{ACAD_REACTORS
330
1A6E
102
}
330
1E
100
AcDbEntity
  8
STEMPEL
100
AcDbLine
 10
149.6518231008719
 20
587.5913995960097
 30
0.0
 11
147.127290755036
 21
585.9706786345769
 31
0.0
  0
ARC
  5
1AE4
330
1E
100
AcDbEntity
  8
SCHRAFF
100
AcDbCircle
 10
149.6518231008719
 20
587.5913995960097
 30
0.0
 40
3.0
100
AcDbArc
 50
212.7000000000006
 51
273.1896851042213
  0
LINE
  5
1AE5
102
{ACAD_REACTORS
330
1972
102
}
330
1E
100
AcDbEntity
  8
STEMPEL
100
AcDbLine
 10
149.6518231008719
 20
587.5913995960097
 30
0.0
 11
148.2376095384988
 21
586.1771860336366
 31
0.0
  0
ARC
  5
1AE6
102
{ACAD_REACTORS
330
1972
102
}
330
1E
100
AcDbEntity
  8
STEMPEL
100
AcDbCircle
 10
153.9018231008724
 20
573.4419046593984
 30
0.0
 40
5.0
100
AcDbArc
 50
0.0
 51
45.00000000000036
  0
ARC
  5
1AE7
102
{ACAD_REACTORS
330
1972
102
}
330
1E
100
AcDbEntity
  8
STEMPEL
100
AcDbCircle
 10
153.9018231008724
 20
573.4419046593984
 30
0.0
 40
7.0
100
AcDbArc
 50
0.0
 51
45.00000000000036
  0
LINE
  5
1AE8
330
1E
100
AcDbEntity
  8
STEMPEL
100
AcDbLine
 10
156.901823100872
 20
609.9374484569676
 30
0.0
 11
156.9018231008719
 21
607.4374484569678
 31
0.0
  0
LINE
  5
1AE9
330
1E
100
AcDbEntity
  8
HILF
100
AcDbLine
 10
157.901823100872
 20
609.9374484569676
 30
0.0
 11
157.901823100872
 21
607.4374484569678
 31
0.0
  0
LINE
  5
1AEA
330
1E
100
AcDbEntity
  8
HILF
100
AcDbLine
 10
165.901823100872
 20
609.9374484569676
 30
0.0
 11
165.901823100872
 21
607.4374484569678
 31
0.0
  0
LINE
  5
1AEB
330
1E
100
AcDbEntity
  8
STEMPEL
100
AcDbLine
 10
166.901823100872
 20
609.9374484569676
 30
0.0
 11
166.901823100872
 21
607.4374484569678
 31
0.0
  0
LWPOLYLINE
  5
1AF0
330
1E
100
AcDbEntity
  8
STEMPEL
100
AcDbPolyline
 90
       18
 70
   128
 43
0.0
 10
-153.2539408502844
 20
642.4374484569673
 10
-153.3552534620887
 20
643.8155698405919
 10
-153.6557412180179
 20
645.1467609533717
 10
-154.1451713679391
 20
646.3856896785484
 10
-154.8068769551036
 20
647.4901657843177
 10
-155.6183243893687
 20
648.4225776615706
 10
-156.5518808015844
 20
649.1511731421317
 10
-157.5757550478105
 20
649.6511407807649
 10
-158.6550803185932
 20
649.9054547791818
 10
-159.7531014863443
 20
649.9054547791818
 10
-160.8324267571271
 20
649.6511407807649
 10
-161.8563010033532
 20
649.1511731421317
 10
-162.7898574155689
 20
648.4225776615706
 10
-163.601304849834
 20
647.4901657843177
 10
-164.2630104369984
 20
646.3856896785484
 10
-164.7524405869196
 20
645.1467609533717
 10
-165.0529283428489
 20
643.8155698405919
 10
-165.1542409546532
 20
642.4374484569673
210
0.0
220
0.0
230
-1.0
  0
LINE
  5
1AF1
330
1E
100
AcDbEntity
  8
STEMPEL
100
AcDbLine
 10
151.6159177741791
 20
630.9374484569691
 30
0.0
 11
162.9060234306862
 21
630.9374484569691
 31
0.0
  0
LWPOLYLINE
  5
1AF2
330
1E
100
AcDbEntity
  8
STEMPEL
100
AcDbPolyline
 90
       10
 70
   128
 43
0.0
 10
-138.3360379885459
 20
649.9374484569705
 10
-139.1288653344056
 20
649.8235066045622
 10
-139.8976030225514
 20
649.4851431128648
 10
-140.6188933473289
 20
648.9326389853538
 10
-141.2708202672104
 20
648.1827817803625
 10
-141.833575312626
 20
647.2583555296191
 10
-142.290059456289
 20
646.1874484569698
 10
-142.6264026584857
 20
645.0025995319122
 10
-142.8323853012158
 20
643.7398097894713
 10
-142.9017487061119
 20
642.4374484569691
210
0.0
220
0.0
230
-1.0
  0
LWPOLYLINE
  5
1AF3
330
1E
100
AcDbEntity
  8
STEMPEL
100
AcDbPolyline
 90
       18
 70
   128
 43
0.0
 10
-134.565548157801
 20
642.4374484569673
 10
-134.6432880590611
 20
643.8155698405919
 10
-134.8738604237429
 20
645.1467609533717
 10
-135.2494133865081
 20
646.3856896785484
 10
-135.7571579416358
 20
647.4901657843177
 10
-136.3798034572737
 20
648.4225776615706
 10
-137.0961464871677
 20
649.1511731421317
 10
-137.8817928285937
 20
649.6511407807649
 10
-138.7099882376731
 20
649.9054547791818
 10
-139.5525295130608
 20
649.9054547791818
 10
-140.3807249221402
 20
649.6511407807649
 10
-141.1663712635661
 20
649.1511731421317
 10
-141.8827142934601
 20
648.4225776615706
 10
-142.5053598090981
 20
647.4901657843177
 10
-143.0131043642258
 20
646.3856896785484
 10
-143.3886573269909
 20
645.1467609533717
 10
-143.6192296916727
 20
643.8155698405919
 10
-143.6969695929328
 20
642.4374484569673
210
0.0
220
0.0
230
-1.0
  0
LWPOLYLINE
  5
1AF4
330
1E
100
AcDbEntity
  8
STEMPEL
100
AcDbPolyline
 90
       10
 70
   128
 43
0.0
 10
139.3332634183268
 20
629.9374484569691
 10
140.091013043421
 20
630.0286019388961
 10
140.8257388295966
 20
630.2992927322539
 10
141.5151165056297
 20
630.7412960342626
 10
142.138199679676
 20
631.3411817982555
 10
142.6760562847876
 20
632.0807227988503
 10
143.1123438201865
 20
632.9374484569695
 10
143.4338059098818
 20
633.8853275970154
 10
143.6306750909458
 20
634.8955593909679
 10
143.6969695929326
 20
635.9374484569696
  0
LWPOLYLINE
  5
1AF5
330
1E
100
AcDbEntity
  8
STEMPEL
100
AcDbPolyline
 90
        7
 70
   128
 43
0.0
 10
140.9501718775937
 20
630.9374484569691
 10
141.5121008508578
 20
631.5467863588101
 10
141.9940387904449
 20
632.2742166320993
 10
142.3830233701948
 20
633.1001741260431
 10
142.6685923613013
 20
634.0024436765054
 10
142.8430650270971
 20
634.9567576107485
 10
142.9017487061121
 20
635.9374484569696
  0
LINE
  5
1AF6
330
1E
100
AcDbEntity
  8
STEMPEL
100
AcDbLine
 10
132.6139713292824
 20
630.9374484569691
 30
0.0
 11
140.9501718775943
 21
630.9374484569691
 31
0.0
  0
LINE
  5
1AF7
330
1E
100
AcDbEntity
  8
STEMPEL
100
AcDbLine
 10
134.5655481578009
 20
642.4374484569673
 30
0.0
 11
134.5655481578009
 21
635.9374484569709
 31
0.0
  0
LINE
  5
1AF8
330
1E
100
AcDbEntity
  8
STEMPEL
100
AcDbLine
 10
143.6969695929327
 20
642.4374484569673
 30
0.0
 11
143.6969695929327
 21
635.9374484569709
 31
0.0
  0
LINE
  5
1AF9
330
1E
100
AcDbEntity
  8
STEMPEL
100
AcDbLine
 10
142.901748706112
 20
642.4374484569673
 30
0.0
 11
142.901748706112
 21
635.9374484569709
 31
0.0
  0
LWPOLYLINE
  5
1AFA
330
1E
100
AcDbEntity
  8
STEMPEL
100
AcDbPolyline
 90
       10
 70
   128
 43
0.0
 10
149.5913377147603
 20
629.9374484569691
 10
150.2273420747613
 20
630.0286019388961
 10
150.8440217641174
 20
630.2992927322539
 10
151.4226392825225
 20
630.7412960342626
 10
151.9456136294743
 20
631.3411817982555
 10
152.3970544940788
 20
632.0807227988503
 10
152.7632450741048
 20
632.9374484569695
 10
153.0330588540797
 20
633.8853275970154
 10
153.1982976788314
 20
634.8955593909679
 10
153.2539408502845
 20
635.9374484569696
  0
LINE
  5
1AFC
330
1E
100
AcDbEntity
  8
STEMPEL
100
AcDbLine
 10
153.2539408502845
 20
642.4374484569673
 30
0.0
 11
153.2539408502845
 21
635.9374484569709
 31
0.0
  0
LWPOLYLINE
  5
1AFD
330
1E
100
AcDbEntity
  8
STEMPEL
100
AcDbPolyline
 90
        9
 70
   128
 43
0.0
 10
-158.8989936785493
 20
649.927582534791
 10
-160.0154013999205
 20
649.720275398384
 10
-161.0806806516627
 20
649.2510206709303
 10
-162.0565156347011
 20
648.5366964337615
 10
-162.907807667559
 20
647.6029953903653
 10
-163.6039376102955
 20
646.4835007552048
 10
-164.1198671689868
 20
645.2184783378661
 10
-164.4370394692028
 20
643.8534282686569
 10
-164.5440465067909
 20
642.4374484569691
210
0.0
220
0.0
230
-1.0
  0
LWPOLYLINE
  5
1B00
330
1E
100
AcDbEntity
  8
STEMPEL
100
AcDbPolyline
 90
        7
 70
   128
 43
0.0
 10
162.9060234306856
 20
630.9374484569691
 10
163.3776690312525
 20
631.5467863588101
 10
163.7821755076353
 20
632.2742166320993
 10
164.1086631501243
 20
633.1001741260431
 10
164.3483506635325
 20
634.0024436765054
 10
164.4947913511586
 20
634.9567576107485
 10
164.544046506791
 20
635.9374484569696
  0
LWPOLYLINE
  5
1B01
330
1E
100
AcDbEntity
  8
STEMPEL
100
AcDbPolyline
 90
       10
 70
   128
 43
0.0
 10
161.4916378191292
 20
629.9374484569691
 10
162.1276421791301
 20
630.0286019388961
 10
162.7443218684863
 20
630.2992927322539
 10
163.3229393868913
 20
630.7412960342626
 10
163.8459137338432
 20
631.3411817982555
 10
164.2973545984476
 20
632.0807227988503
 10
164.6635451784737
 20
632.9374484569695
 10
164.9333589584486
 20
633.8853275970154
 10
165.0985977832002
 20
634.8955593909679
 10
165.1542409546533
 20
635.9374484569696
  0
LINE
  5
1B02
330
1E
100
AcDbEntity
  8
STEMPEL
100
AcDbLine
 10
165.901823100872
 20
629.4374484569685
 30
0.0
 11
157.901823100872
 21
629.4374484569685
 31
0.0
  0
LINE
  5
1B04
330
1E
100
AcDbEntity
  8
STEMPEL
100
AcDbLine
 10
156.9018231008719
 20
628.4374484569684
 30
0.0
 11
166.901823100872
 21
628.4374484569684
 31
0.0
  0
LINE
  5
1B06
330
1E
100
AcDbEntity
  8
STEMPEL
100
AcDbLine
 10
157.901823100872
 20
629.4374484569685
 30
0.0
 11
156.9018231008719
 21
628.4374484569684
 31
0.0
  0
LINE
  5
1B07
330
1E
100
AcDbEntity
  8
STEMPEL
100
AcDbLine
 10
156.9018231008719
 20
628.4374484569684
 30
0.0
 11
156.9018231008719
 21
625.9374484569678
 31
0.0
  0
LINE
  5
1B08
330
1E
100
AcDbEntity
  8
HILF
100
AcDbLine
 10
157.901823100872
 20
629.4374484569685
 30
0.0
 11
157.901823100872
 21
625.9374484569678
 31
0.0
  0
LINE
  5
1B0A
330
1E
100
AcDbEntity
  8
STEMPEL
100
AcDbLine
 10
166.901823100872
 20
628.4374484569684
 30
0.0
 11
166.901823100872
 21
625.9374484569678
 31
0.0
  0
LINE
  5
1B0B
330
1E
100
AcDbEntity
  8
HILF
100
AcDbLine
 10
165.901823100872
 20
629.4374484569685
 30
0.0
 11
165.901823100872
 21
625.9374484569678
 31
0.0
  0
LINE
  5
1B0C
330
1E
100
AcDbEntity
  8
STEMPEL
100
AcDbLine
 10
166.901823100872
 20
628.4374484569684
 30
0.0
 11
165.901823100872
 21
629.4374484569685
 31
0.0
  0
LINE
  5
1B0E
330
1E
100
AcDbEntity
  8
STEMPEL
100
AcDbLine
 10
165.1542409546533
 20
642.4374484569673
 30
0.0
 11
165.1542409546533
 21
635.9374484569709
 31
0.0
  0
LINE
  5
1B0F
330
1E
100
AcDbEntity
  8
STEMPEL
100
AcDbLine
 10
164.544046506791
 20
642.4374484569673
 30
0.0
 11
164.544046506791
 21
635.9374484569709
 31
0.0
  0
LWPOLYLINE
  5
1B10
330
1E
100
AcDbEntity
  8
STEMPEL
100
AcDbPolyline
 90
       10
 70
   128
 43
0.0
 10
174.1367491609255
 20
629.9374484569691
 10
174.6094791186791
 20
630.0286019388961
 10
175.0678454158793
 20
630.2992927322539
 10
175.49792082453
 20
630.7412960342626
 10
175.8866377209683
 20
631.3411817982555
 10
176.222185138996
 20
632.0807227988503
 10
176.4943676401116
 20
632.9374484569695
 10
176.6949150967497
 20
633.8853275970154
 10
176.8177339759221
 20
634.8955593909679
 10
176.8590924881346
 20
635.9374484569696
  0
LINE
  5
1B12
330
1E
100
AcDbEntity
  8
STEMPEL
100
AcDbLine
 10
176.8590924881346
 20
642.4374484569673
 30
0.0
 11
176.8590924881346
 21
635.9374484569709
 31
0.0
  0
ELLIPSE
  5
1B13
330
1E
100
AcDbEntity
  8
STEMPEL
100
AcDbEllipse
 10
171.030989927193
 20
662.4374484569694
 30
0.0
 11
0.0
 21
-7.5
 31
0.0
210
0.0
220
0.0
230
-1.0
 40
0.8660254037843856
 41
4.712388980384689
 42
7.853981633974482
  0
ELLIPSE
  5
1B14
330
1E
100
AcDbEntity
  8
STEMPEL
100
AcDbEllipse
 10
170.529812931751
 20
662.4374484569694
 30
0.0
 11
0.0
 21
-7.5
 31
0.0
210
0.0
220
0.0
230
-1.0
 40
0.8660254037843856
 41
4.712388980384689
 42
6.24459510668465
  0
ARC
  5
1B15
330
1E
100
AcDbEntity
  8
STEMPEL
100
AcDbCircle
 10
225.4018231008722
 20
662.4374484569694
 30
0.0
 40
7.5
100
AcDbArc
 50
179.999999999987
 51
359.999999999974
  0
LINE
  5
1B16
330
1E
100
AcDbEntity
  8
MITTEL
100
AcDbLine
 10
209.4776276500256
 20
641.605191791368
 30
0.0
 11
209.4776276500262
 21
616.5806753243728
 31
0.0
  0
ARC
  5
1B17
330
1E
100
AcDbEntity
  8
STEMPEL
100
AcDbCircle
 10
222.1354848745992
 20
620.9374484569675
 30
0.0
 40
5.0
100
AcDbArc
 50
181.0000000000017
 51
270.0
  0
ARC
  5
1B18
330
1E
100
AcDbEntity
  8
STEMPEL
100
AcDbCircle
 10
196.8197704254523
 20
620.9374484569678
 30
0.0
 40
5.0
100
AcDbArc
 50
270.0
 51
358.9999999999982
  0
LWPOLYLINE
  5
1B19
330
1E
100
AcDbEntity
  8
STEMPEL
100
AcDbPolyline
 90
        9
 70
   128
 43
0.0
 10
-183.5963968491581
 20
649.9345748800076
 10
-184.920606299488
 20
649.7557419729599
 10
-186.188585696674
 20
649.3054660556356
 10
-187.3533043847596
 20
648.6004483234965
 10
-188.3715617533663
 20
647.666838607113
 10
-189.2055895926286
 20
646.5392654481368
 10
-189.8244529548225
 20
645.2595516911848
 10
-190.2051975632966
 20
643.8751632316495
 10
-190.3337012101285
 20
642.4374484569691
210
0.0
220
0.0
230
-1.0
  0
LWPOLYLINE
  5
1B1A
330
1E
100
AcDbEntity
  8
STEMPEL
100
AcDbPolyline
 90
       10
 70
   128
 43
0.0
 10
187.9949421485964
 20
629.9374484569691
 10
188.46767210635
 20
630.0286019388961
 10
188.9260384035502
 20
630.2992927322539
 10
189.356113812201
 20
630.7412960342626
 10
189.7448307086392
 20
631.3411817982555
 10
190.0803781266669
 20
632.0807227988503
 10
190.3525606277825
 20
632.9374484569695
 10
190.5531080844206
 20
633.8853275970154
 10
190.675926963593
 20
634.8955593909679
 10
190.7172854758055
 20
635.9374484569696
  0
LWPOLYLINE
  5
1B1B
330
1E
100
AcDbEntity
  8
STEMPEL
100
AcDbPolyline
 90
        7
 70
   128
 43
0.0
 10
189.1161897773994
 20
630.9374484569691
 10
189.4667549918114
 20
631.5467863588101
 10
189.7674169707501
 20
632.2742166320993
 10
190.0100890326847
 20
633.1001741260431
 10
190.1882442077332
 20
634.0024436765054
 10
190.2970907887137
 20
634.9567576107485
 10
190.3337012101285
 20
635.9374484569696
  0
LINE
  5
1B1C
330
1E
100
AcDbEntity
  8
STEMPEL
100
AcDbLine
 10
190.3337012101285
 20
642.4374484569673
 30
0.0
 11
190.3337012101285
 21
635.9374484569709
 31
0.0
  0
LINE
  5
1B1D
330
1E
100
AcDbEntity
  8
STEMPEL
100
AcDbLine
 10
201.8190089012342
 20
620.8501864247814
 30
0.0
 11
201.9776276500258
 21
629.9374484569675
 31
0.0
  0
LINE
  5
1B1E
330
1E
100
AcDbEntity
  8
STEMPEL
100
AcDbLine
 10
190.7172854758055
 20
642.437448456966
 30
0.0
 11
190.7172854758055
 21
635.9374484569709
 31
0.0
  0
LWPOLYLINE
  5
1B1F
330
1E
100
AcDbEntity
  8
STEMPEL
100
AcDbPolyline
 90
        9
 70
   128
 43
0.0
 10
-211.1427707321456
 20
649.937158216742
 10
-212.5841107160235
 20
649.7818568228185
 10
-213.968191619473
 20
649.3474565758042
 10
-215.242416232005
 20
648.6504653555289
 10
-216.3583620517349
 20
647.7173699040833
 10
-217.2736214151879
 20
646.5836292887397
 10
-217.953413053963
 20
645.2923274026704
 10
-218.3719038366124
 20
643.8925357105108
 10
-218.5131904675063
 20
642.4374484569691
210
0.0
220
0.0
230
-1.0
  0
LWPOLYLINE
  5
1B20
330
1E
100
AcDbEntity
  8
STEMPEL
100
AcDbPolyline
 90
       18
 70
   128
 43
0.0
 10
-203.7723509965854
 20
642.4374484569673
 10
-203.8989602427617
 20
643.8155698405919
 10
-204.2744764552634
 20
645.1467609533717
 10
-204.8861118798558
 20
646.3856896785484
 10
-205.7130380057301
 20
647.4901657843177
 10
-206.7270948554584
 20
648.4225776615706
 10
-207.8937499392501
 20
649.1511731421317
 10
-209.1732742174754
 20
649.6511407807649
 10
-210.5220950254595
 20
649.9054547791818
 10
-211.8942798883188
 20
649.9054547791818
 10
-213.2431006963029
 20
649.6511407807649
 10
-214.5226249745282
 20
649.1511731421317
 10
-215.6892800583199
 20
648.4225776615706
 10
-216.7033369080482
 20
647.4901657843177
 10
-217.5302630339225
 20
646.3856896785484
 10
-218.1418984585149
 20
645.1467609533717
 10
-218.5174146710166
 20
643.8155698405919
 10
-218.6440239171929
 20
642.4374484569673
210
0.0
220
0.0
230
-1.0
  0
ARC
  5
1B21
330
1E
100
AcDbEntity
  8
STEMPEL
100
AcDbCircle
 10
213.6183810319998
 20
634.357293471089
 30
0.0
 40
2.247898356545996
100
AcDbArc
 50
58.53080548383258
 51
127.8806357171811
  0
LINE
  5
1B22
330
1E
100
AcDbEntity
  8
STEMPEL
100
AcDbLine
 10
203.1857764743282
 20
630.9374484569691
 30
0.0
 11
217.9266159452496
 21
630.9374484569691
 31
0.0
  0
LINE
  5
1B23
330
1E
100
AcDbEntity
  8
STEMPEL
100
AcDbLine
 10
215.477627650026
 20
630.9374484569677
 30
0.0
 11
203.4776276500257
 21
630.9374484569682
 31
0.0
  0
LINE
  5
1B24
330
1E
100
AcDbEntity
  8
STEMPEL
100
AcDbLine
 10
203.5354083330263
 20
632.5374484569681
 30
0.0
 11
215.4776276500257
 21
632.5374484569681
 31
0.0
  0
LWPOLYLINE
  5
1B25
330
1E
100
AcDbEntity
  8
STEMPEL
100
AcDbPolyline
 90
       10
 70
   128
 43
0.0
 10
202.4607762600774
 20
629.9374484569691
 10
202.6885288229459
 20
630.0286019388961
 10
202.9093612394401
 20
630.2992927322539
 10
203.1165636283314
 20
630.7412960342626
 10
203.3038402498826
 20
631.3411817982555
 10
203.4655007987145
 20
632.0807227988503
 10
203.5966333008552
 20
632.9374484569695
 10
203.6932533615831
 20
633.8853275970154
 10
203.7524252292453
 20
634.8955593909679
 10
203.7723509965853
 20
635.9374484569696
  0
LINE
  5
1B26
330
1E
100
AcDbEntity
  8
STEMPEL
100
AcDbLine
 10
203.9566231407272
 20
636.155201246165
 30
0.0
 11
203.9566231407272
 21
632.5374484569681
 31
0.0
  0
LINE
  5
1B27
330
1E
100
AcDbEntity
  8
STEMPEL
100
AcDbLine
 10
206.7171253953765
 20
636.1315408740408
 30
0.0
 11
206.7171253953765
 21
632.5374484569681
 31
0.0
  0
LINE
  5
1B28
330
1E
100
AcDbEntity
  8
STEMPEL
100
AcDbLine
 10
212.2381299046752
 20
636.1315408740408
 30
0.0
 11
212.238129904675
 21
632.5374484569681
 31
0.0
  0
LINE
  5
1B29
330
1E
100
AcDbEntity
  8
STEMPEL
100
AcDbLine
 10
203.4776276500257
 20
632.1599509421473
 30
0.0
 11
203.4776276500257
 21
630.9374484569682
 31
0.0
  0
ARC
  5
1B2A
330
1E
100
AcDbEntity
  8
STEMPEL
100
AcDbCircle
 10
209.4776276500257
 20
628.3240741977681
 30
0.0
 40
8.281117593600001
100
AcDbArc
 50
70.52782738138597
 51
109.472172618614
  0
LINE
  5
1B2B
330
1E
100
AcDbEntity
  8
STEMPEL
100
AcDbLine
 10
205.3372780603999
 20
636.605191791368
 30
0.0
 11
213.6179772391427
 21
636.605191791368
 31
0.0
  0
LINE
  5
1B2C
330
1E
100
AcDbEntity
  8
STEMPEL
100
AcDbLine
 10
203.7723509965851
 20
642.4374484569691
 30
0.0
 11
203.7723509965851
 21
635.9374484569709
 31
0.0
  0
ARC
  5
1B2D
330
1E
100
AcDbEntity
  8
STEMPEL
100
AcDbCircle
 10
205.3368742680517
 20
634.357293471089
 30
0.0
 40
2.247898356545996
100
AcDbArc
 50
52.11936428281886
 51
121.4691945163666
  0
LINE
  5
1B2E
330
1E
100
AcDbEntity
  8
STEMPEL
100
AcDbLine
 10
203.9566231407272
 20
636.155201246165
 30
0.0
 11
204.1633812725125
 21
636.2745731092084
 31
0.0
  0
LINE
  5
1B2F
330
1E
100
AcDbEntity
  8
STEMPEL
100
AcDbLine
 10
213.6144218066405
 20
636.605191791368
 30
0.0
 11
213.6179772396366
 21
636.605191791368
 31
0.0
  0
LWPOLYLINE
  5
1B30
330
1E
100
AcDbEntity
  8
STEMPEL
100
AcDbPolyline
 90
       10
 70
   128
 43
0.0
 10
217.332449180685
 20
629.9374484569691
 10
217.5602017435535
 20
630.0286019388961
 10
217.7810341600477
 20
630.2992927322539
 10
217.988236548939
 20
630.7412960342626
 10
218.1755131704901
 20
631.3411817982555
 10
218.3371737193221
 20
632.0807227988503
 10
218.4683062214627
 20
632.9374484569695
 10
218.5649262821907
 20
633.8853275970154
 10
218.6240981498529
 20
634.8955593909679
 10
218.6440239171929
 20
635.9374484569696
  0
LWPOLYLINE
  5
1B31
330
1E
100
AcDbEntity
  8
STEMPEL
100
AcDbPolyline
 90
        7
 70
   128
 43
0.0
 10
217.9266159452493
 20
630.9374484569691
 10
218.0955117910178
 20
631.5467863588101
 10
218.2403651795904
 20
632.2742166320993
 10
218.3572800971575
 20
633.1001741260431
 10
218.4431119701752
 20
634.0024436765054
 10
218.4955522426209
 20
634.9567576107485
 10
218.5131904675062
 20
635.9374484569696
  0
LINE
  5
1B32
330
1E
100
AcDbEntity
  8
STEMPEL
100
AcDbLine
 10
214.9986321593245
 20
636.155201246165
 30
0.0
 11
214.9986321593245
 21
632.5374484569681
 31
0.0
  0
LINE
  5
1B33
330
1E
100
AcDbEntity
  8
STEMPEL
100
AcDbLine
 10
215.4776276500257
 20
632.5374484569681
 30
0.0
 11
215.4776276500257
 21
630.9374484569682
 31
0.0
  0
LINE
  5
1B34
330
1E
100
AcDbEntity
  8
STEMPEL
100
AcDbLine
 10
217.1362463988172
 20
620.8501864247812
 30
0.0
 11
216.9776276500257
 21
629.9374484569675
 31
0.0
  0
LINE
  5
1B35
330
1E
100
AcDbEntity
  8
STEMPEL
100
AcDbLine
 10
218.6440239171929
 20
642.437448456966
 30
0.0
 11
218.6440239171929
 21
635.9374484569709
 31
0.0
  0
LINE
  5
1B36
330
1E
100
AcDbEntity
  8
STEMPEL
100
AcDbLine
 10
218.5131904675063
 20
642.4374484569673
 30
0.0
 11
218.5131904675063
 21
635.9374484569709
 31
0.0
  0
LINE
  5
1B37
330
1E
100
AcDbEntity
  8
STEMPEL
100
AcDbLine
 10
214.9986321593245
 20
636.155201246165
 30
0.0
 11
214.7918740275321
 21
636.2745731092124
 31
0.0
  0
LWPOLYLINE
  5
1B38
330
1E
100
AcDbEntity
  8
STEMPEL
100
AcDbPolyline
 90
       18
 70
   128
 43
0.0
 10
247.0312952051592
 20
642.4374484569673
 10
246.9046859589829
 20
643.8155698405919
 10
246.5291697464812
 20
645.1467609533717
 10
245.9175343218888
 20
646.3856896785484
 10
245.0906081960145
 20
647.4901657843177
 10
244.0765513462862
 20
648.4225776615706
 10
242.9098962624945
 20
649.1511731421317
 10
241.6303719842692
 20
649.6511407807649
 10
240.2815511762851
 20
649.9054547791818
 10
238.9093663134258
 20
649.9054547791818
 10
237.5605455054417
 20
649.6511407807649
 10
236.2810212272165
 20
649.1511731421317
 10
235.1143661434247
 20
648.4225776615706
 10
234.1003092936964
 20
647.4901657843177
 10
233.2733831678221
 20
646.3856896785484
 10
232.6617477432297
 20
645.1467609533717
 10
232.286231530728
 20
643.8155698405919
 10
232.1596222845517
 20
642.4374484569673
  0
LWPOLYLINE
  5
1B39
330
1E
100
AcDbEntity
  8
STEMPEL
100
AcDbPolyline
 90
        9
 70
   128
 43
0.0
 10
239.660875469599
 20
649.937158216742
 10
238.2195354857212
 20
649.7818568228185
 10
236.8354545822716
 20
649.3474565758042
 10
235.5612299697396
 20
648.6504653555289
 10
234.4452841500098
 20
647.7173699040833
 10
233.5300247865567
 20
646.5836292887397
 10
232.8502331477817
 20
645.2923274026704
 10
232.4317423651322
 20
643.8925357105108
 10
232.2904557342383
 20
642.4374484569691
  0
LINE
  5
1B3A
330
1E
100
AcDbEntity
  8
STEMPEL
100
AcDbLine
 10
247.6178697274164
 20
630.9374484569691
 30
0.0
 11
232.877030256495
 21
630.9374484569691
 31
0.0
  0
LWPOLYLINE
  5
1B3B
330
1E
100
AcDbEntity
  8
STEMPEL
100
AcDbPolyline
 90
       10
 70
   128
 43
0.0
 10
-233.4711970210597
 20
629.9374484569691
 10
-233.2434444581911
 20
630.0286019388961
 10
-233.0226120416969
 20
630.2992927322539
 10
-232.8154096528057
 20
630.7412960342626
 10
-232.6281330312545
 20
631.3411817982555
 10
-232.4664724824225
 20
632.0807227988503
 10
-232.3353399802819
 20
632.9374484569695
 10
-232.238719919554
 20
633.8853275970154
 10
-232.1795480518917
 20
634.8955593909679
 10
-232.1596222845518
 20
635.9374484569696
210
0.0
220
0.0
230
-1.0
  0
LWPOLYLINE
  5
1B3C
330
1E
100
AcDbEntity
  8
STEMPEL
100
AcDbPolyline
 90
        7
 70
   128
 43
0.0
 10
-232.8770302564953
 20
630.9374484569691
 10
-232.7081344107269
 20
631.5467863588101
 10
-232.5632810221542
 20
632.2742166320993
 10
-232.4463661045871
 20
633.1001741260431
 10
-232.3605342315694
 20
634.0024436765054
 10
-232.3080939591238
 20
634.9567576107485
 10
-232.2904557342384
 20
635.9374484569696
210
0.0
220
0.0
230
-1.0
  0
LINE
  5
1B3D
330
1E
100
AcDbEntity
  8
STEMPEL
100
AcDbLine
 10
232.2904557342383
 20
642.4374484569673
 30
0.0
 11
232.2904557342383
 21
635.9374484569709
 31
0.0
  0
LINE
  5
1B3E
330
1E
100
AcDbEntity
  8
STEMPEL
100
AcDbLine
 10
232.1596222845518
 20
642.437448456966
 30
0.0
 11
232.1596222845518
 21
635.9374484569709
 31
0.0
  0
LWPOLYLINE
  5
1B3F
330
1E
100
AcDbEntity
  8
STEMPEL
100
AcDbPolyline
 90
       10
 70
   128
 43
0.0
 10
-248.3428699416672
 20
629.9374484569691
 10
-248.1151173787987
 20
630.0286019388961
 10
-247.8942849623045
 20
630.2992927322539
 10
-247.6870825734132
 20
630.7412960342626
 10
-247.4998059518621
 20
631.3411817982555
 10
-247.3381454030301
 20
632.0807227988503
 10
-247.2070129008895
 20
632.9374484569695
 10
-247.1103928401616
 20
633.8853275970154
 10
-247.0512209724994
 20
634.8955593909679
 10
-247.0312952051594
 20
635.9374484569696
210
0.0
220
0.0
230
-1.0
  0
LINE
  5
1B40
330
1E
100
AcDbEntity
  8
STEMPEL
100
AcDbLine
 10
247.0312952051595
 20
642.4374484569691
 30
0.0
 11
247.0312952051595
 21
635.9374484569709
 31
0.0
  0
LWPOLYLINE
  5
1B41
330
1E
100
AcDbEntity
  8
STEMPEL
100
AcDbPolyline
 90
        9
 70
   128
 43
0.0
 10
267.2072493525865
 20
649.9345748800076
 10
265.8830399022567
 20
649.7557419729599
 10
264.6150605050706
 20
649.3054660556356
 10
263.450341816985
 20
648.6004483234965
 10
262.4320844483783
 20
647.666838607113
 10
261.5980566091161
 20
646.5392654481368
 10
260.9791932469221
 20
645.2595516911848
 10
260.598448638448
 20
643.8751632316495
 10
260.4699449916161
 20
642.4374484569691
  0
LWPOLYLINE
  5
1B42
330
1E
100
AcDbEntity
  8
STEMPEL
100
AcDbPolyline
 90
       10
 70
   128
 43
0.0
 10
-262.8087040531482
 20
629.9374484569691
 10
-262.3359740953946
 20
630.0286019388961
 10
-261.8776077981944
 20
630.2992927322539
 10
-261.4475323895437
 20
630.7412960342626
 10
-261.0588154931054
 20
631.3411817982555
 10
-260.7232680750777
 20
632.0807227988503
 10
-260.4510855739621
 20
632.9374484569695
 10
-260.250538117324
 20
633.8853275970154
 10
-260.1277192381516
 20
634.8955593909679
 10
-260.0863607259391
 20
635.9374484569696
210
0.0
220
0.0
230
-1.0
  0
LINE
  5
1B43
330
1E
100
AcDbEntity
  8
STEMPEL
100
AcDbLine
 10
260.0863607259391
 20
642.437448456966
 30
0.0
 11
260.0863607259391
 21
635.9374484569709
 31
0.0
  0
LWPOLYLINE
  5
1B44
330
1E
100
AcDbEntity
  8
STEMPEL
100
AcDbPolyline
 90
        7
 70
   128
 43
0.0
 10
-261.6874564243452
 20
630.9374484569691
 10
-261.3368912099332
 20
631.5467863588101
 10
-261.0362292309945
 20
632.2742166320993
 10
-260.7935571690599
 20
633.1001741260431
 10
-260.6154019940114
 20
634.0024436765054
 10
-260.5065554130309
 20
634.9567576107485
 10
-260.4699449916161
 20
635.9374484569696
210
0.0
220
0.0
230
-1.0
  0
LINE
  5
1B45
330
1E
100
AcDbEntity
  8
STEMPEL
100
AcDbLine
 10
260.4699449916161
 20
642.4374484569673
 30
0.0
 11
260.4699449916161
 21
635.9374484569709
 31
0.0
  0
LINE
  5
1B46
330
1E
100
AcDbEntity
  8
STEMPEL
100
AcDbLine
 10
145.4018231008721
 20
719.9374484569668
 30
0.0
 11
200.1401852732215
 21
719.9374484569673
 31
0.0
  0
LINE
  5
1B47
330
1E
100
AcDbEntity
  8
STEMPEL
100
AcDbLine
 10
118.3691284791642
 20
705.1145290170113
 30
0.0
 11
142.3554313546311
 21
719.1065390276996
 31
0.0
  0
LINE
  5
1B48
330
1E
100
AcDbEntity
  8
STEMPEL
100
AcDbLine
 10
118.882469532745
 20
704.2562859038487
 30
0.0
 11
142.8613234256962
 21
718.243939070034
 31
0.0
  0
ELLIPSE
  5
1B49
330
1E
100
AcDbEntity
  8
STEMPEL
100
AcDbEllipse
 10
131.2287775942092
 20
687.4374484569694
 30
0.0
 11
0.0
 21
7.499999999999999
 31
0.0
210
0.0
220
0.0
230
1.0
 40
0.4999999999999926
 41
4.712388980384689
 42
7.853981633974482
  0
ELLIPSE
  5
1B4A
330
1E
100
AcDbEntity
  8
STEMPEL
100
AcDbEllipse
 10
130.3607135745202
 20
687.4374484569694
 30
0.0
 11
0.0
 21
7.499999999999999
 31
0.0
210
0.0
220
0.0
230
1.0
 40
0.4999999999999926
 41
4.712388980384689
 42
6.167183451052224
  0
LINE
  5
1B4B
330
1E
100
AcDbEntity
  8
STEMPEL
100
AcDbLine
 10
115.4018231008721
 20
694.9374484569691
 30
0.0
 11
116.4018231008721
 21
694.9374484569691
 31
0.0
  0
ARC
  5
1B4C
330
1E
100
AcDbEntity
  8
STEMPEL
100
AcDbCircle
 10
121.4018231008722
 20
699.9373904896522
 30
0.0
 40
6.0
100
AcDbArc
 50
120.2564164748199
 51
180.0
  0
ARC
  5
1B4D
330
1E
100
AcDbEntity
  8
STEMPEL
100
AcDbCircle
 10
115.8906794965605
 20
709.4572854394298
 30
0.0
 40
5.0
100
AcDbArc
 50
300.0670458384858
 51
300.2564371635302
  0
ARC
  5
1B4E
330
1E
100
AcDbEntity
  8
STEMPEL
100
AcDbCircle
 10
121.4018231008722
 20
699.9373904896522
 30
0.0
 40
5.0
100
AcDbArc
 50
120.2564164748199
 51
180.0
  0
ARC
  5
1B4F
330
1E
100
AcDbEntity
  8
STEMPEL
100
AcDbCircle
 10
145.4018231008721
 20
713.9374484569673
 30
0.0
 40
5.0
100
AcDbArc
 50
90.0
 51
120.5373500482996
  0
ARC
  5
1B50
330
1E
100
AcDbEntity
  8
STEMPEL
100
AcDbCircle
 10
145.4018231008721
 20
713.9374484569673
 30
0.0
 40
6.0
100
AcDbArc
 50
90.0
 51
120.5128743276217
  0
ARC
  5
1B51
330
1E
100
AcDbEntity
  8
STEMPEL
100
AcDbCircle
 10
145.4018231008721
 20
713.9374484569673
 30
0.0
 40
6.0
100
AcDbArc
 50
90.0
 51
90.0
  0
ELLIPSE
  5
1B52
330
1E
100
AcDbEntity
  8
STEMPEL
100
AcDbEllipse
 10
171.030989927193
 20
687.4374484569694
 30
0.0
 11
0.0
 21
7.5
 31
0.0
210
0.0
220
0.0
230
1.0
 40
0.8660254037843856
 41
4.712388980384689
 42
7.853981633974482
  0
ELLIPSE
  5
1B53
330
1E
100
AcDbEntity
  8
STEMPEL
100
AcDbEllipse
 10
170.529812931751
 20
687.4374484569694
 30
0.0
 11
0.0
 21
7.5
 31
0.0
210
0.0
220
0.0
230
1.0
 40
0.8660254037843856
 41
4.712388980384689
 42
6.24459510668465
  0
LINE
  5
1B54
330
1E
100
AcDbEntity
  8
STEMPEL
100
AcDbLine
 10
222.0432614845748
 20
720.4374484569673
 30
0.0
 11
232.1315289457684
 21
720.4374484569673
 31
0.0
  0
LINE
  5
1B55
330
1E
100
AcDbEntity
  8
STEMPEL
100
AcDbLine
 10
202.738261484575
 20
721.4374484569673
 30
0.0
 11
248.2432614845749
 21
721.4374484569673
 31
0.0
  0
ARC
  5
1B56
330
1E
100
AcDbEntity
  8
STEMPEL
100
AcDbCircle
 10
225.4018231008723
 20
687.4374484569694
 30
0.0
 40
7.5
100
AcDbArc
 50
0.0000000000260551
 51
180.000000000013
  0
ARC
  5
1B57
330
1E
100
AcDbEntity
  8
STEMPEL
100
AcDbCircle
 10
202.738261484575
 20
719.9374484569673
 30
0.0
 40
1.5
100
AcDbArc
 50
90.0
 51
150.0
  0
ARC
  5
1B58
330
1E
100
AcDbEntity
  8
STEMPEL
100
AcDbCircle
 10
200.1401852732215
 20
721.4374484569673
 30
0.0
 40
2.5
100
AcDbArc
 50
270.0
 51
330.0
  0
ARC
  5
1B59
330
1E
100
AcDbEntity
  8
STEMPEL
100
AcDbCircle
 10
200.1401852732215
 20
721.4374484569673
 30
0.0
 40
1.5
100
AcDbArc
 50
270.0
 51
330.0000000000001
  0
LINE
  5
1B5A
330
1E
100
AcDbEntity
  8
STEMPEL
100
AcDbLine
 10
212.9913376959279
 20
719.9374484569673
 30
0.0
 11
219.4451852732221
 21
719.9374484569673
 31
0.0
  0
LINE
  5
1B5B
330
1E
100
AcDbEntity
  8
STEMPEL
100
AcDbLine
 10
212.9913376959279
 20
719.9374484569673
 30
0.0
 11
219.4451852732221
 21
719.9374484569673
 31
0.0
  0
ARC
  5
1B5C
330
1E
100
AcDbEntity
  8
STEMPEL
100
AcDbCircle
 10
207.5951852732212
 20
721.4374484569673
 30
0.0
 40
1.5
100
AcDbArc
 50
270.0
 51
330.0000000000001
  0
ARC
  5
1B5D
330
1E
100
AcDbEntity
  8
STEMPEL
100
AcDbCircle
 10
207.5951852732212
 20
721.4374484569673
 30
0.0
 40
2.5
100
AcDbArc
 50
270.0
 51
330.0000000000001
  0
LINE
  5
1B5E
330
1E
100
AcDbEntity
  8
STEMPEL
100
AcDbLine
 10
205.5363376959288
 20
719.9374484569673
 30
0.0
 11
207.5951852732212
 21
719.9374484569673
 31
0.0
  0
LINE
  5
1B5F
330
1E
100
AcDbEntity
  8
STEMPEL
100
AcDbLine
 10
205.5363376959288
 20
719.9374484569673
 30
0.0
 11
207.5951852732212
 21
719.9374484569673
 31
0.0
  0
ARC
  5
1B60
330
1E
100
AcDbEntity
  8
STEMPEL
100
AcDbCircle
 10
202.738261484575
 20
719.9374484569673
 30
0.0
 40
0.5
100
AcDbArc
 50
90.0
 51
149.9999999999999
  0
LINE
  5
1B61
330
1E
100
AcDbEntity
  8
STEMPEL
100
AcDbLine
 10
202.738261484575
 20
720.4374484569673
 30
0.0
 11
202.938261484575
 21
720.4374484569673
 31
0.0
  0
ARC
  5
1B62
330
1E
100
AcDbEntity
  8
STEMPEL
100
AcDbCircle
 10
202.938261484575
 20
719.9374484569673
 30
0.0
 40
0.5
100
AcDbArc
 50
30.00000000000003
 51
90.0
  0
ARC
  5
1B63
330
1E
100
AcDbEntity
  8
STEMPEL
100
AcDbCircle
 10
202.938261484575
 20
719.9374484569673
 30
0.0
 40
1.5
100
AcDbArc
 50
29.99999999999241
 51
90.0
  0
ARC
  5
1B64
330
1E
100
AcDbEntity
  8
STEMPEL
100
AcDbCircle
 10
205.5363376959288
 20
721.4374484569673
 30
0.0
 40
2.5
100
AcDbArc
 50
209.9999999999924
 51
270.0
  0
ARC
  5
1B65
330
1E
100
AcDbEntity
  8
STEMPEL
100
AcDbCircle
 10
205.5363376959288
 20
721.4374484569673
 30
0.0
 40
1.5
100
AcDbArc
 50
210.0
 51
270.0
  0
ARC
  5
1B66
330
1E
100
AcDbEntity
  8
STEMPEL
100
AcDbCircle
 10
212.9913376959279
 20
721.4374484569673
 30
0.0
 40
2.5
100
AcDbArc
 50
210.0
 51
270.0
  0
ARC
  5
1B67
330
1E
100
AcDbEntity
  8
STEMPEL
100
AcDbCircle
 10
212.9913376959279
 20
721.4374484569673
 30
0.0
 40
1.5
100
AcDbArc
 50
210.0
 51
270.0
  0
ARC
  5
1B68
330
1E
100
AcDbEntity
  8
STEMPEL
100
AcDbCircle
 10
210.1932614845749
 20
719.9374484569673
 30
0.0
 40
0.5
100
AcDbArc
 50
90.0
 51
150.0
  0
LINE
  5
1B69
330
1E
100
AcDbEntity
  8
STEMPEL
100
AcDbLine
 10
210.1932614845749
 20
720.4374484569673
 30
0.0
 11
210.393261484575
 21
720.4374484569673
 31
0.0
  0
ARC
  5
1B6A
330
1E
100
AcDbEntity
  8
STEMPEL
100
AcDbCircle
 10
210.393261484575
 20
719.9374484569673
 30
0.0
 40
0.5
100
AcDbArc
 50
30.00000000000003
 51
90.0
  0
ARC
  5
1B6B
330
1E
100
AcDbEntity
  8
STEMPEL
100
AcDbCircle
 10
210.393261484575
 20
719.9374484569673
 30
0.0
 40
1.5
100
AcDbArc
 50
30.00000000000003
 51
90.0
  0
ARC
  5
1B6C
330
1E
100
AcDbEntity
  8
STEMPEL
100
AcDbCircle
 10
210.1932614845749
 20
719.9374484569673
 30
0.0
 40
1.5
100
AcDbArc
 50
90.0
 51
150.0
  0
ARC
  5
1B6D
330
1E
100
AcDbEntity
  8
STEMPEL
100
AcDbCircle
 10
219.4451852732221
 20
721.4374484569673
 30
0.0
 40
1.5
100
AcDbArc
 50
270.0
 51
330.0
  0
ARC
  5
1B6E
330
1E
100
AcDbEntity
  8
STEMPEL
100
AcDbCircle
 10
219.4451852732221
 20
721.4374484569673
 30
0.0
 40
2.5
100
AcDbArc
 50
270.0
 51
330.0
  0
ARC
  5
1B6F
330
1E
100
AcDbEntity
  8
STEMPEL
100
AcDbCircle
 10
222.0432614845748
 20
719.9374484569673
 30
0.0
 40
0.5
100
AcDbArc
 50
90.0
 51
149.9999999999999
  0
ARC
  5
1B70
330
1E
100
AcDbEntity
  8
STEMPEL
100
AcDbCircle
 10
222.0432614845748
 20
719.9374484569673
 30
0.0
 40
1.5
100
AcDbArc
 50
90.0
 51
149.9999999999999
  0
ARC
  5
1B71
330
1E
100
AcDbEntity
  8
STEMPEL
100
AcDbCircle
 10
250.8413376959289
 20
721.4374484569673
 30
0.0
 40
2.5
100
AcDbArc
 50
209.9999999999924
 51
270.0
  0
ARC
  5
1B72
330
1E
100
AcDbEntity
  8
STEMPEL
100
AcDbCircle
 10
248.2432614845749
 20
719.9374484569673
 30
0.0
 40
0.5
100
AcDbArc
 50
29.99999999999241
 51
90.0
  0
ARC
  5
1B73
330
1E
100
AcDbEntity
  8
STEMPEL
100
AcDbCircle
 10
248.2432614845749
 20
719.9374484569673
 30
0.0
 40
1.5
100
AcDbArc
 50
29.99999999999241
 51
90.0
  0
ARC
  5
1B74
330
1E
100
AcDbEntity
  8
STEMPEL
100
AcDbCircle
 10
236.393261484575
 20
719.9374484569673
 30
0.0
 40
1.5
100
AcDbArc
 50
29.99999999999993
 51
90.0
  0
ARC
  5
1B75
330
1E
100
AcDbEntity
  8
STEMPEL
100
AcDbCircle
 10
238.9913376959285
 20
721.4374484569673
 30
0.0
 40
2.5
100
AcDbArc
 50
210.0
 51
270.0
  0
ARC
  5
1B76
330
1E
100
AcDbEntity
  8
STEMPEL
100
AcDbCircle
 10
234.2567698114709
 20
720.4374484569673
 30
0.0
 40
1.5
100
AcDbArc
 50
270.0
 51
345.5224878140768
  0
ARC
  5
1B77
330
1E
100
AcDbEntity
  8
STEMPEL
100
AcDbCircle
 10
236.1932614845749
 20
719.9374484569673
 30
0.0
 40
1.5
100
AcDbArc
 50
90.0
 51
165.5224878140768
  0
ARC
  5
1B78
330
1E
100
AcDbEntity
  8
STEMPEL
100
AcDbCircle
 10
234.2567698114709
 20
720.4374484569673
 30
0.0
 40
0.5
100
AcDbArc
 50
270.0
 51
345.5224878140768
  0
LINE
  5
1B79
330
1E
100
AcDbEntity
  8
STEMPEL
100
AcDbLine
 10
234.0680206188717
 20
719.9374484569673
 30
0.0
 11
234.2567698114709
 21
719.9374484569673
 31
0.0
  0
ARC
  5
1B7A
330
1E
100
AcDbEntity
  8
STEMPEL
100
AcDbCircle
 10
236.1932614845749
 20
719.9374484569673
 30
0.0
 40
0.5
100
AcDbArc
 50
90.0
 51
165.5224878140768
  0
LINE
  5
1B7B
330
1E
100
AcDbEntity
  8
STEMPEL
100
AcDbLine
 10
236.1932614845749
 20
720.4374484569673
 30
0.0
 11
236.393261484575
 21
720.4374484569673
 31
0.0
  0
ARC
  5
1B7C
330
1E
100
AcDbEntity
  8
STEMPEL
100
AcDbCircle
 10
232.1315289457684
 20
719.9374484569673
 30
0.0
 40
0.5
100
AcDbArc
 50
14.47751218592991
 51
90.0
  0
ARC
  5
1B7D
330
1E
100
AcDbEntity
  8
STEMPEL
100
AcDbCircle
 10
234.0680206188717
 20
720.4374484569673
 30
0.0
 40
1.5
100
AcDbArc
 50
194.4775121859299
 51
270.0
  0
ARC
  5
1B7E
330
1E
100
AcDbEntity
  8
STEMPEL
100
AcDbCircle
 10
234.0680206188717
 20
720.4374484569673
 30
0.0
 40
0.5
100
AcDbArc
 50
194.4775121859299
 51
270.0
  0
ARC
  5
1B7F
330
1E
100
AcDbEntity
  8
STEMPEL
100
AcDbCircle
 10
232.1315289457684
 20
719.9374484569673
 30
0.0
 40
1.5
100
AcDbArc
 50
14.47751218592991
 51
90.0
  0
ARC
  5
1B80
330
1E
100
AcDbEntity
  8
STEMPEL
100
AcDbCircle
 10
236.393261484575
 20
719.9374484569673
 30
0.0
 40
0.5
100
AcDbArc
 50
29.99999999999993
 51
90.0
  0
LINE
  5
1B81
330
1E
100
AcDbEntity
  8
STEMPEL
100
AcDbLine
 10
238.9913376959285
 20
719.9374484569673
 30
0.0
 11
245.4451852732225
 21
719.9374484569673
 31
0.0
  0
LINE
  5
1B82
330
1E
100
AcDbEntity
  8
STEMPEL
100
AcDbLine
 10
238.9913376959285
 20
719.9374484569673
 30
0.0
 11
245.4451852732225
 21
719.9374484569673
 31
0.0
  0
ARC
  5
1B83
330
1E
100
AcDbEntity
  8
STEMPEL
100
AcDbCircle
 10
238.9913376959285
 20
721.4374484569673
 30
0.0
 40
1.5
100
AcDbArc
 50
210.0
 51
270.0
  0
ARC
  5
1B84
330
1E
100
AcDbEntity
  8
STEMPEL
100
AcDbCircle
 10
248.0432614845748
 20
719.9374484569673
 30
0.0
 40
1.5
100
AcDbArc
 50
90.0
 51
149.9999999999924
  0
ARC
  5
1B85
330
1E
100
AcDbEntity
  8
STEMPEL
100
AcDbCircle
 10
248.0432614845748
 20
719.9374484569673
 30
0.0
 40
0.5
100
AcDbArc
 50
90.0
 51
149.9999999999924
  0
LINE
  5
1B86
330
1E
100
AcDbEntity
  8
STEMPEL
100
AcDbLine
 10
248.0432614845748
 20
720.4374484569673
 30
0.0
 11
248.2432614845749
 21
720.4374484569673
 31
0.0
  0
ARC
  5
1B87
330
1E
100
AcDbEntity
  8
STEMPEL
100
AcDbCircle
 10
245.4451852732225
 20
721.4374484569673
 30
0.0
 40
1.5
100
AcDbArc
 50
270.0
 51
329.9999999999924
  0
ARC
  5
1B88
330
1E
100
AcDbEntity
  8
STEMPEL
100
AcDbCircle
 10
245.4451852732225
 20
721.4374484569673
 30
0.0
 40
2.5
100
AcDbArc
 50
270.0
 51
329.9999999999924
  0
ARC
  5
1B89
330
1E
100
AcDbEntity
  8
STEMPEL
100
AcDbCircle
 10
250.8413376959289
 20
721.4374484569673
 30
0.0
 40
1.5
100
AcDbArc
 50
209.9999999999924
 51
270.0
  0
LINE
  5
1B8A
330
1E
100
AcDbEntity
  8
STEMPEL
100
AcDbLine
 10
334.4018231008722
 20
699.9373904896522
 30
0.0
 11
334.4018231008722
 21
635.9374484569682
 31
0.0
  0
LINE
  5
1B8B
330
1E
100
AcDbEntity
  8
STEMPEL
100
AcDbLine
 10
335.4018231008723
 20
699.9373904896522
 30
0.0
 11
335.4018231008723
 21
635.9374484569682
 31
0.0
  0
LINE
  5
1B8C
330
1E
100
AcDbEntity
  8
STEMPEL
100
AcDbLine
 10
323.3248686075353
 20
687.4374484569694
 30
0.0
 11
323.3248686075353
 21
662.4374484569726
 31
0.0
  0
LINE
  5
1B8D
330
1E
100
AcDbEntity
  8
STEMPEL
100
AcDbLine
 10
315.8248686075355
 20
687.4374484569694
 30
0.0
 11
315.8248686075355
 21
662.437448456971
 31
0.0
  0
LINE
  5
1B8E
330
1E
100
AcDbEntity
  8
STEMPEL
100
AcDbLine
 10
316.6929326272244
 20
662.4374484569694
 30
0.0
 11
316.6929326272244
 21
687.437448456971
 31
0.0
  0
LINE
  5
1B8F
330
1E
100
AcDbEntity
  8
STEMPEL
100
AcDbLine
 10
273.2774657461686
 20
687.4374484569694
 30
0.0
 11
273.2774657461686
 21
662.4374484569694
 31
0.0
  0
LINE
  5
1B90
330
1E
100
AcDbEntity
  8
STEMPEL
100
AcDbLine
 10
273.7786427416105
 20
687.4374484569694
 30
0.0
 11
273.7786427416105
 21
662.4374484569694
 31
0.0
  0
LINE
  5
1B91
330
1E
100
AcDbEntity
  8
STEMPEL
100
AcDbLine
 10
286.2678468029343
 20
687.4374484569694
 30
0.0
 11
286.2678468029343
 21
662.437448456971
 31
0.0
  0
LINE
  5
1B92
330
1E
100
AcDbEntity
  8
STEMPEL
100
AcDbLine
 10
311.6798794284207
 20
598.437448456967
 30
0.0
 11
388.280502757312
 21
598.4374484569668
 31
0.0
  0
LINE
  5
1B93
102
{ACAD_REACTORS
330
1A6E
102
}
330
1E
100
AcDbEntity
  8
STEMPEL
100
AcDbLine
 10
384.0378620701928
 20
601.4374484569677
 30
0.0
 11
315.2448961392763
 21
601.4374484569677
 31
0.0
  0
LINE
  5
1B94
330
1E
100
AcDbEntity
  8
STEMPEL
100
AcDbLine
 10
360.0596803254455
 20
615.937448456968
 30
0.0
 11
382.401823100872
 21
615.937448456968
 31
0.0
  0
LINE
  5
1B97
330
1E
100
AcDbEntity
  8
STEMPEL
100
AcDbLine
 10
317.1909306164037
 20
628.4374484569684
 30
0.0
 11
327.1909306164037
 21
628.4374484569684
 31
0.0
  0
LINE
  5
1B9A
330
1E
100
AcDbEntity
  8
STEMPEL
100
AcDbLine
 10
326.1909306164037
 20
629.4374484569685
 30
0.0
 11
318.1909306164037
 21
629.4374484569685
 31
0.0
  0
ELLIPSE
  5
1B9B
330
1E
100
AcDbEntity
  8
STEMPEL
100
AcDbEllipse
 10
319.5748686075355
 20
662.437448456971
 30
0.0
 11
0.0
 21
-7.499999999999999
 31
0.0
210
0.0
220
0.0
230
1.0
 40
0.4999999999999926
 41
4.712388980384689
 42
7.853981633974482
  0
ELLIPSE
  5
1B9C
330
1E
100
AcDbEntity
  8
STEMPEL
100
AcDbEllipse
 10
320.4429326272242
 20
662.437448456971
 30
0.0
 11
0.0
 21
-7.499999999999999
 31
0.0
210
0.0
220
0.0
230
1.0
 40
0.4999999999999926
 41
4.712388980384689
 42
6.167183451052224
  0
LWPOLYLINE
  5
1B9D
330
1E
100
AcDbEntity
  8
STEMPEL
100
AcDbPolyline
 90
       10
 70
   128
 43
0.0
 10
-320.6018042185497
 20
629.9374484569691
 10
-319.8440545934555
 20
630.0286019388961
 10
-319.1093288072799
 20
630.2992927322539
 10
-318.4199511312467
 20
630.7412960342626
 10
-317.7968679572003
 20
631.3411817982555
 10
-317.2590113520889
 20
632.0807227988503
 10
-316.82272381669
 20
632.9374484569695
 10
-316.5012617269947
 20
633.8853275970154
 10
-316.3043925459307
 20
634.8955593909679
 10
-316.2380980439439
 20
635.9374484569696
210
0.0
220
0.0
230
-1.0
  0
LINE
  5
1B9F
102
{ACAD_REACTORS
330
1972
102
}
330
1E
100
AcDbEntity
  8
STEMPEL
100
AcDbLine
 10
302.5660366632451
 20
586.1771860336366
 30
0.0
 11
293.3662891949389
 21
576.9774385653313
 31
0.0
  0
LINE
  5
1BA0
102
{ACAD_REACTORS
330
1972
102
}
330
1E
100
AcDbEntity
  8
STEMPEL
100
AcDbLine
 10
301.151823100872
 20
587.5913995960097
 30
0.0
 11
291.952075632566
 21
578.3916521277046
 31
0.0
  0
ARC
  5
1BA1
102
{ACAD_REACTORS
330
1972
102
}
330
1E
100
AcDbEntity
  8
STEMPEL
100
AcDbCircle
 10
296.9018231008718
 20
573.4419046593984
 30
0.0
 40
5.0
100
AcDbArc
 50
134.9999999999996
 51
180.0
  0
ARC
  5
1BA2
102
{ACAD_REACTORS
330
1972
102
}
330
1E
100
AcDbEntity
  8
STEMPEL
100
AcDbCircle
 10
296.9018231008715
 20
573.4419046593984
 30
0.0
 40
7.0
100
AcDbArc
 50
134.9999999999996
 51
180.0
  0
LINE
  5
1BA3
102
{ACAD_REACTORS
330
1A6E
102
}
330
1E
100
AcDbEntity
  8
STEMPEL
100
AcDbLine
 10
310.1958314476046
 20
601.6788903798331
 30
0.0
 11
301.151823100872
 21
587.5913995960097
 31
0.0
  0
LINE
  5
1BA4
102
{ACAD_REACTORS
330
1A6E
102
}
330
1E
100
AcDbEntity
  8
STEMPEL
100
AcDbLine
 10
312.7203637934404
 20
600.0581694184002
 30
0.0
 11
303.6763554467077
 21
585.9706786345769
 31
0.0
  0
HATCH
  5
1BA5
330
1E
100
AcDbEntity
  8
SCHRAFF
100
AcDbHatch
 10
0.0
 20
0.0
 30
0.0
210
0.0
220
0.0
230
1.0
  2
_USER
 70
     0
 71
     0
 91
        1
 92
        7
 72
     1
 73
     1
 93
        4
 10
302.5660366632451
 20
586.1771860336367
 42
0.0
 10
300.9848978331605
 20
584.5960472035523
 42
0.2702405669853512
 10
303.6763554467077
 20
585.9706786345769
 42
0.0
 10
301.151823100873
 20
587.5913995960091
 42
0.0
 97
        0
 75
     0
 76
     0
 52
0.0
 41
0.1
 77
     0
 78
     1
 53
0.0
 43
-25.21676720437836
 44
0.0
 45
0.0
 46
0.1
 79
     0
 47
0.0373967856075013
 98
        1
 10
302.9238459790377
 20
585.8326692136609
  0
ARC
  5
1BA6
330
1E
100
AcDbEntity
  8
SCHRAFF
100
AcDbCircle
 10
301.1518231008722
 20
587.5913995960095
 30
0.0
 40
3.0
100
AcDbArc
 50
266.8103148957646
 51
327.2999999999994
  0
LINE
  5
1BA7
102
{ACAD_REACTORS
330
1972
102
}
330
1E
100
AcDbEntity
  8
STEMPEL
100
AcDbLine
 10
301.151823100872
 20
587.5913995960097
 30
0.0
 11
302.5660366632451
 21
586.1771860336366
 31
0.0
  0
LINE
  5
1BA8
102
{ACAD_REACTORS
330
1A6E
102
}
330
1E
100
AcDbEntity
  8
STEMPEL
100
AcDbLine
 10
301.1518231008718
 20
587.5913995960097
 30
0.0
 11
303.6763554467077
 21
585.9706786345769
 31
0.0
  0
ARC
  5
1BA9
102
{ACAD_REACTORS
330
1A6E
102
}
330
1E
100
AcDbEntity
  8
STEMPEL
100
AcDbCircle
 10
315.2448961392763
 20
598.4374484569673
 30
0.0
 40
3.0
100
AcDbArc
 50
90.0
 51
147.2999999999993
  0
ARC
  5
1BAA
102
{ACAD_REACTORS
330
1A6E
102
}
330
1E
100
AcDbEntity
  8
STEMPEL
100
AcDbCircle
 10
315.2448961392763
 20
598.4374484569673
 30
0.0
 40
6.0
100
AcDbArc
 50
90.0
 51
147.2999999999993
  0
LINE
  5
1BAB
330
1E
100
AcDbEntity
  8
HILF
100
AcDbLine
 10
318.1909306164036
 20
609.9374484569676
 30
0.0
 11
318.1909306164036
 21
607.4374484569678
 31
0.0
  0
LINE
  5
1BAC
330
1E
100
AcDbEntity
  8
STEMPEL
100
AcDbLine
 10
317.1909306164036
 20
609.9374484569676
 30
0.0
 11
317.1909306164037
 21
607.4374484569678
 31
0.0
  0
LWPOLYLINE
  5
1BAD
330
1E
100
AcDbEntity
  8
STEMPEL
100
AcDbPolyline
 90
       18
 70
   128
 43
0.0
 10
297.5497053514603
 20
642.4374484569673
 10
297.4483927396559
 20
643.8155698405919
 10
297.1479049837267
 20
645.1467609533717
 10
296.6584748338055
 20
646.3856896785484
 10
295.9967692466411
 20
647.4901657843177
 10
295.1853218123759
 20
648.4225776615706
 10
294.2517654001603
 20
649.1511731421317
 10
293.2278911539341
 20
649.6511407807649
 10
292.1485658831514
 20
649.9054547791818
 10
291.0505447154003
 20
649.9054547791818
 10
289.9712194446175
 20
649.6511407807649
 10
288.9473451983914
 20
649.1511731421317
 10
288.0137887861757
 20
648.4225776615706
 10
287.2023413519106
 20
647.4901657843177
 10
286.5406357647462
 20
646.3856896785484
 10
286.051205614825
 20
645.1467609533717
 10
285.7507178588958
 20
643.8155698405919
 10
285.6494052470914
 20
642.4374484569673
  0
LINE
  5
1BAE
330
1E
100
AcDbEntity
  8
STEMPEL
100
AcDbLine
 10
299.1877284275655
 20
630.9374484569691
 30
0.0
 11
287.8976227710584
 21
630.9374484569691
 31
0.0
  0
LWPOLYLINE
  5
1BAF
330
1E
100
AcDbEntity
  8
STEMPEL
100
AcDbPolyline
 90
        9
 70
   128
 43
0.0
 10
291.9046525231953
 20
649.927582534791
 10
290.7882448018241
 20
649.720275398384
 10
289.7229655500819
 20
649.2510206709303
 10
288.7471305670435
 20
648.5366964337615
 10
287.8958385341856
 20
647.6029953903653
 10
287.1997085914492
 20
646.4835007552048
 10
286.6837790327578
 20
645.2184783378661
 10
286.366606732542
 20
643.8534282686569
 10
286.2595996949537
 20
642.4374484569691
  0
LWPOLYLINE
  5
1BB0
330
1E
100
AcDbEntity
  8
STEMPEL
100
AcDbPolyline
 90
       10
 70
   128
 43
0.0
 10
-276.6668970408191
 20
629.9374484569691
 10
-276.1941670830655
 20
630.0286019388961
 10
-275.7358007858653
 20
630.2992927322539
 10
-275.3057253772146
 20
630.7412960342626
 10
-274.9170084807763
 20
631.3411817982555
 10
-274.5814610627486
 20
632.0807227988503
 10
-274.309278561633
 20
632.9374484569695
 10
-274.108731104995
 20
633.8853275970154
 10
-273.9859122258225
 20
634.8955593909679
 10
-273.94455371361
 20
635.9374484569696
210
0.0
220
0.0
230
-1.0
  0
LINE
  5
1BB1
330
1E
100
AcDbEntity
  8
STEMPEL
100
AcDbLine
 10
273.94455371361
 20
642.4374484569673
 30
0.0
 11
273.94455371361
 21
635.9374484569709
 31
0.0
  0
LWPOLYLINE
  5
1BB2
330
1E
100
AcDbEntity
  8
STEMPEL
100
AcDbPolyline
 90
        7
 70
   128
 43
0.0
 10
-287.897622771059
 20
630.9374484569691
 10
-287.4259771704922
 20
631.5467863588101
 10
-287.0214706941093
 20
632.2742166320993
 10
-286.6949830516203
 20
633.1001741260431
 10
-286.455295538212
 20
634.0024436765054
 10
-286.308854850586
 20
634.9567576107485
 10
-286.2595996949536
 20
635.9374484569696
210
0.0
220
0.0
230
-1.0
  0
LWPOLYLINE
  5
1BB3
330
1E
100
AcDbEntity
  8
STEMPEL
100
AcDbPolyline
 90
       10
 70
   128
 43
0.0
 10
-289.3120083826154
 20
629.9374484569691
 10
-288.6760040226145
 20
630.0286019388961
 10
-288.0593243332583
 20
630.2992927322539
 10
-287.4807068148533
 20
630.7412960342626
 10
-286.9577324679014
 20
631.3411817982555
 10
-286.506291603297
 20
632.0807227988503
 10
-286.140101023271
 20
632.9374484569695
 10
-285.870287243296
 20
633.8853275970154
 10
-285.7050484185444
 20
634.8955593909679
 10
-285.6494052470913
 20
635.9374484569696
210
0.0
220
0.0
230
-1.0
  0
LINE
  5
1BB4
330
1E
100
AcDbEntity
  8
STEMPEL
100
AcDbLine
 10
286.2595996949536
 20
642.4374484569673
 30
0.0
 11
286.2595996949536
 21
635.9374484569709
 31
0.0
  0
LINE
  5
1BB5
330
1E
100
AcDbEntity
  8
STEMPEL
100
AcDbLine
 10
285.6494052470913
 20
642.4374484569673
 30
0.0
 11
285.6494052470913
 21
635.9374484569709
 31
0.0
  0
ELLIPSE
  5
1BB6
330
1E
100
AcDbEntity
  8
STEMPEL
100
AcDbEllipse
 10
279.7726562745514
 20
662.4374484569694
 30
0.0
 11
0.0
 21
-7.5
 31
0.0
210
0.0
220
0.0
230
1.0
 40
0.8660254037843856
 41
4.712388980384689
 42
7.853981633974482
  0
ELLIPSE
  5
1BB7
330
1E
100
AcDbEntity
  8
STEMPEL
100
AcDbEllipse
 10
280.2738332699933
 20
662.4374484569694
 30
0.0
 11
0.0
 21
-7.5
 31
0.0
210
0.0
220
0.0
230
1.0
 40
0.8660254037843856
 41
4.712388980384689
 42
6.24459510668465
  0
LWPOLYLINE
  5
1BB8
330
1E
100
AcDbEntity
  8
STEMPEL
100
AcDbPolyline
 90
       18
 70
   128
 43
0.0
 10
316.2380980439436
 20
642.4374484569673
 10
316.1603581426835
 20
643.8155698405919
 10
315.9297857780017
 20
645.1467609533717
 10
315.5542328152366
 20
646.3856896785484
 10
315.0464882601089
 20
647.4901657843177
 10
314.4238427444709
 20
648.4225776615706
 10
313.7074997145768
 20
649.1511731421317
 10
312.9218533731509
 20
649.6511407807649
 10
312.0936579640716
 20
649.9054547791818
 10
311.2511166886839
 20
649.9054547791818
 10
310.4229212796044
 20
649.6511407807649
 10
309.6372749381786
 20
649.1511731421317
 10
308.9209319082845
 20
648.4225776615706
 10
308.2982863926466
 20
647.4901657843177
 10
307.7905418375189
 20
646.3856896785484
 10
307.4149888747537
 20
645.1467609533717
 10
307.1844165100718
 20
643.8155698405919
 10
307.1066766088118
 20
642.4374484569673
  0
LWPOLYLINE
  5
1BB9
330
1E
100
AcDbEntity
  8
STEMPEL
100
AcDbPolyline
 90
       10
 70
   128
 43
0.0
 10
312.4676082131987
 20
649.9374484569705
 10
311.674780867339
 20
649.8235066045622
 10
310.9060431791933
 20
649.4851431128648
 10
310.1847528544157
 20
648.9326389853538
 10
309.5328259345342
 20
648.1827817803625
 10
308.9700708891186
 20
647.2583555296191
 10
308.5135867454557
 20
646.1874484569698
 10
308.1772435432589
 20
645.0025995319122
 10
307.9712609005288
 20
643.7398097894713
 10
307.9018974956327
 20
642.4374484569691
  0
LWPOLYLINE
  5
1BBA
330
1E
100
AcDbEntity
  8
STEMPEL
100
AcDbPolyline
 90
       10
 70
   128
 43
0.0
 10
-301.2123084869843
 20
629.9374484569691
 10
-300.5763041269834
 20
630.0286019388961
 10
-299.9596244376272
 20
630.2992927322539
 10
-299.3810069192221
 20
630.7412960342626
 10
-298.8580325722703
 20
631.3411817982555
 10
-298.4065917076658
 20
632.0807227988503
 10
-298.0404011276398
 20
632.9374484569695
 10
-297.7705873476649
 20
633.8853275970154
 10
-297.6053485229132
 20
634.8955593909679
 10
-297.5497053514601
 20
635.9374484569696
210
0.0
220
0.0
230
-1.0
  0
LINE
  5
1BBB
330
1E
100
AcDbEntity
  8
STEMPEL
100
AcDbLine
 10
297.5497053514601
 20
642.4374484569673
 30
0.0
 11
297.5497053514601
 21
635.9374484569709
 31
0.0
  0
LWPOLYLINE
  5
1BBC
330
1E
100
AcDbEntity
  8
STEMPEL
100
AcDbPolyline
 90
       10
 70
   128
 43
0.0
 10
-311.4703827834178
 20
629.9374484569691
 10
-310.7126331583236
 20
630.0286019388961
 10
-309.977907372148
 20
630.2992927322539
 10
-309.2885296961149
 20
630.7412960342626
 10
-308.6654465220685
 20
631.3411817982555
 10
-308.1275899169571
 20
632.0807227988503
 10
-307.6913023815581
 20
632.9374484569695
 10
-307.3698402918628
 20
633.8853275970154
 10
-307.1729711107988
 20
634.8955593909679
 10
-307.106676608812
 20
635.9374484569696
210
0.0
220
0.0
230
-1.0
  0
LWPOLYLINE
  5
1BBD
330
1E
100
AcDbEntity
  8
STEMPEL
100
AcDbPolyline
 90
        7
 70
   128
 43
0.0
 10
-309.853474324151
 20
630.9374484569691
 10
-309.2915453508869
 20
631.5467863588101
 10
-308.8096074112997
 20
632.2742166320993
 10
-308.4206228315498
 20
633.1001741260431
 10
-308.1350538404434
 20
634.0024436765054
 10
-307.9605811746475
 20
634.9567576107485
 10
-307.9018974956325
 20
635.9374484569696
210
0.0
220
0.0
230
-1.0
  0
LINE
  5
1BBE
330
1E
100
AcDbEntity
  8
STEMPEL
100
AcDbLine
 10
318.1896748724622
 20
630.9374484569691
 30
0.0
 11
309.8534743241503
 21
630.9374484569691
 31
0.0
  0
LINE
  5
1BC0
330
1E
100
AcDbEntity
  8
HILF
100
AcDbLine
 10
318.1909306164037
 20
629.4374484569685
 30
0.0
 11
318.1909306164037
 21
625.9374484569681
 31
0.0
  0
LINE
  5
1BC1
330
1E
100
AcDbEntity
  8
STEMPEL
100
AcDbLine
 10
317.1909306164037
 20
628.4374484569684
 30
0.0
 11
317.1909306164037
 21
625.937448456968
 31
0.0
  0
LINE
  5
1BC2
330
1E
100
AcDbEntity
  8
STEMPEL
100
AcDbLine
 10
318.1909306164037
 20
629.4374484569685
 30
0.0
 11
317.1909306164037
 21
628.4374484569684
 31
0.0
  0
LINE
  5
1BC6
330
1E
100
AcDbEntity
  8
STEMPEL
100
AcDbLine
 10
307.9018974956326
 20
642.4374484569673
 30
0.0
 11
307.9018974956326
 21
635.9374484569709
 31
0.0
  0
LINE
  5
1BC7
330
1E
100
AcDbEntity
  8
STEMPEL
100
AcDbLine
 10
307.1066766088119
 20
642.4374484569673
 30
0.0
 11
307.1066766088119
 21
635.9374484569709
 31
0.0
  0
LINE
  5
1BC8
330
1E
100
AcDbEntity
  8
STEMPEL
100
AcDbLine
 10
316.2380980439437
 20
642.4374484569673
 30
0.0
 11
316.2380980439437
 21
635.9374484569709
 31
0.0
  0
LINE
  5
1BC9
102
{ACAD_REACTORS
330
1F4C
102
}
330
1E
100
AcDbEntity
  8
MITTEL
100
AcDbLine
 10
322.1909306164036
 20
634.437448456967
 30
0.0
 11
322.1909306164036
 21
604.4374484569673
 31
0.0
  0
ARC
  5
1BCB
330
1E
100
AcDbEntity
  8
STEMPEL
100
AcDbCircle
 10
334.7439658762988
 20
620.9374484569682
 30
0.0
 40
5.0
100
AcDbArc
 50
270.0
 51
358.9999999999982
  0
ARC
  5
1BCC
330
1E
100
AcDbEntity
  8
STEMPEL
100
AcDbCircle
 10
360.0596803254455
 20
620.9374484569679
 30
0.0
 40
4.99999999999995
100
AcDbArc
 50
181.0000000000017
 51
270.0
  0
LINE
  5
1BCD
330
1E
100
AcDbEntity
  8
HILF
100
AcDbLine
 10
344.4018231008734
 20
623.1874484569682
 30
0.0
 11
344.4018231008716
 21
609.9374484569676
 31
0.0
  0
LINE
  5
1BCE
330
1E
100
AcDbEntity
  8
STEMPEL
100
AcDbLine
 10
345.0518231008741
 20
622.5374484569672
 30
0.0
 11
345.0518231008723
 21
609.9374484569673
 31
0.0
  0
LINE
  5
1BCF
330
1E
100
AcDbEntity
  8
HILF
100
AcDbLine
 10
350.4018231008742
 20
623.1874484569689
 30
0.0
 11
350.4018231008733
 21
609.9374484569676
 31
0.0
  0
LINE
  5
1BD0
330
1E
100
AcDbEntity
  8
STEMPEL
100
AcDbLine
 10
349.7518231008735
 20
622.5374484569681
 30
0.0
 11
349.7518231008724
 21
609.9374484569673
 31
0.0
  0
LINE
  5
1BD2
102
{ACAD_REACTORS
330
1F4C
102
}
330
1E
100
AcDbEntity
  8
STEMPEL
100
AcDbLine
 10
320.401823100872
 20
607.4374484569678
 30
0.0
 11
320.401823100872
 21
604.4374484569678
 31
0.0
  0
ARC
  5
1BD3
330
1E
100
AcDbEntity
  8
STEMPEL
100
AcDbCircle
 10
322.401823100872
 20
612.9374484569678
 30
0.0
 40
3.0
100
AcDbArc
 50
90.0
 51
270.0
  0
LINE
  5
1BD4
330
1E
100
AcDbEntity
  8
STEMPEL
100
AcDbLine
 10
327.1909306164037
 20
609.9374484569676
 30
0.0
 11
327.1909306164037
 21
607.4374484569678
 31
0.0
  0
LINE
  5
1BD5
330
1E
100
AcDbEntity
  8
HILF
100
AcDbLine
 10
326.1909306164036
 20
609.9374484569676
 30
0.0
 11
326.1909306164036
 21
607.4374484569678
 31
0.0
  0
LINE
  5
1BD6
330
1E
100
AcDbEntity
  8
STEMPEL
100
AcDbLine
 10
341.4018231008719
 20
632.5374484569681
 30
0.0
 11
353.4018231008719
 21
632.5374484569681
 31
0.0
  0
LINE
  5
1BD7
330
1E
100
AcDbEntity
  8
STEMPEL
100
AcDbLine
 10
353.4018231008721
 20
630.9374484569677
 30
0.0
 11
341.4018231008719
 21
630.9374484569682
 31
0.0
  0
LINE
  5
1BD8
330
1E
100
AcDbEntity
  8
STEMPEL
100
AcDbLine
 10
355.4018231008719
 20
630.9374484569677
 30
0.0
 11
340.401823100872
 21
630.9374484569682
 31
0.0
  0
LWPOLYLINE
  5
1BD9
330
1E
100
AcDbEntity
  8
STEMPEL
100
AcDbPolyline
 90
       18
 70
   128
 43
0.0
 10
334.1921358598371
 20
642.4374484569673
 10
334.1754674363603
 20
643.8155698405919
 10
334.1260297890999
 20
645.1467609533717
 10
334.0455064578395
 20
646.3856896785484
 10
333.9366395680478
 20
647.4901657843177
 10
333.8031364510855
 20
648.4225776615706
 10
333.6495433954814
 20
649.1511731421317
 10
333.4810908285293
 20
649.6511407807649
 10
333.3035152003604
 20
649.9054547791818
 10
333.1228636360133
 20
649.9054547791818
 10
332.9452880078444
 20
649.6511407807649
 10
332.7768354408923
 20
649.1511731421317
 10
332.6232423852882
 20
648.4225776615706
 10
332.4897392683259
 20
647.4901657843177
 10
332.3808723785343
 20
646.3856896785484
 10
332.3003490472738
 20
645.1467609533717
 10
332.2509114000135
 20
643.8155698405919
 10
332.2342429765366
 20
642.4374484569673
  0
LWPOLYLINE
  5
1BDA
330
1E
100
AcDbEntity
  8
STEMPEL
100
AcDbPolyline
 90
        9
 70
   128
 43
0.0
 10
326.3290501386165
 20
649.8392067016325
 10
325.8399895953477
 20
649.5127738038752
 10
325.3803766274467
 20
648.9675047906177
 10
324.9644268238224
 20
648.2202645474899
 10
324.6050052945309
 20
647.2941648247124
 10
324.3132287596434
 20
646.2178494027421
 10
324.0981217149052
 20
645.0246081551113
 10
323.9663373087978
 20
643.7513474100353
 10
323.9219515641329
 20
642.4374484569691
  0
LWPOLYLINE
  5
1BDB
330
1E
100
AcDbEntity
  8
STEMPEL
100
AcDbPolyline
 90
       18
 70
   128
 43
0.0
 10
328.7361487131033
 20
642.4374484569673
 10
328.687279368187
 20
643.8155698405919
 10
328.5423355203669
 20
645.1467609533717
 10
328.3062530585397
 20
646.3856896785484
 10
327.987071487793
 20
647.4901657843177
 10
327.5956601537026
 20
648.4225776615706
 10
327.1453480998047
 20
649.1511731421317
 10
326.6514701630052
 20
649.6511407807649
 10
326.1308447641003
 20
649.9054547791818
 10
325.6012011766285
 20
649.9054547791818
 10
325.0805757777235
 20
649.6511407807649
 10
324.5866978409241
 20
649.1511731421317
 10
324.1363857870262
 20
648.4225776615706
 10
323.7449744529357
 20
647.4901657843177
 10
323.425792882189
 20
646.3856896785484
 10
323.1897104203619
 20
645.1467609533717
 10
323.0447665725418
 20
643.8155698405919
 10
322.9958972276255
 20
642.4374484569673
  0
LINE
  5
1BDE
330
1E
100
AcDbEntity
  8
STEMPEL
100
AcDbLine
 10
330.8897203457718
 20
630.9374484569691
 30
0.0
 11
326.0755231968004
 21
630.9374484569691
 31
0.0
  0
LWPOLYLINE
  5
1BDF
330
1E
100
AcDbEntity
  8
STEMPEL
100
AcDbPolyline
 90
       10
 70
   128
 43
0.0
 10
-333.5515132396772
 20
629.9374484569691
 10
-332.7153339648356
 20
630.0286019388961
 10
-331.904561574133
 20
630.2992927322539
 10
-331.1438309763902
 20
630.7412960342626
 10
-330.4562565858714
 20
631.3411817982555
 10
-329.862730002503
 20
632.0807227988503
 10
-329.3812852311818
 20
632.9374484569695
 10
-329.0265507276614
 20
633.8853275970154
 10
-328.8093049203272
 20
634.8955593909679
 10
-328.7361487131033
 20
635.9374484569696
210
0.0
220
0.0
230
-1.0
  0
LWPOLYLINE
  5
1BE0
330
1E
100
AcDbEntity
  8
STEMPEL
100
AcDbPolyline
 90
        7
 70
   128
 43
0.0
 10
-326.0755231968015
 20
630.9374484569691
 10
-325.4554326737371
 20
631.5467863588101
 10
-324.9236125269537
 20
632.2742166320993
 10
-324.4943667272224
 20
633.1001741260431
 10
-324.1792403794251
 20
634.0024436765054
 10
-323.9867092024592
 20
634.9567576107485
 10
-323.9219515641329
 20
635.9374484569696
210
0.0
220
0.0
230
-1.0
  0
LWPOLYLINE
  5
1BE1
330
1E
100
AcDbEntity
  8
STEMPEL
100
AcDbPolyline
 90
       10
 70
   128
 43
0.0
 10
-327.8112617541995
 20
629.9374484569691
 10
-326.9750824793579
 20
630.0286019388961
 10
-326.1643100886553
 20
630.2992927322539
 10
-325.4035794909124
 20
630.7412960342626
 10
-324.7160051003937
 20
631.3411817982555
 10
-324.1224785170252
 20
632.0807227988503
 10
-323.641033745704
 20
632.9374484569695
 10
-323.2862992421837
 20
633.8853275970154
 10
-323.0690534348495
 20
634.8955593909679
 10
-322.9958972276255
 20
635.9374484569696
210
0.0
220
0.0
230
-1.0
  0
LINE
  5
1BE2
330
1E
100
AcDbEntity
  8
STEMPEL
100
AcDbLine
 10
327.1909306164037
 20
628.4374484569684
 30
0.0
 11
326.1909306164037
 21
629.4374484569685
 31
0.0
  0
LINE
  5
1BE3
330
1E
100
AcDbEntity
  8
HILF
100
AcDbLine
 10
326.1909306164037
 20
629.4374484569685
 30
0.0
 11
326.1909306164037
 21
625.9374484569681
 31
0.0
  0
LINE
  5
1BE4
330
1E
100
AcDbEntity
  8
STEMPEL
100
AcDbLine
 10
327.1909306164037
 20
628.4374484569684
 30
0.0
 11
327.1909306164037
 21
625.9374484569681
 31
0.0
  0
LINE
  5
1BE6
330
1E
100
AcDbEntity
  8
STEMPEL
100
AcDbLine
 10
323.9219515641328
 20
642.4374484569673
 30
0.0
 11
323.9219515641328
 21
635.9374484569709
 31
0.0
  0
LINE
  5
1BE7
330
1E
100
AcDbEntity
  8
STEMPEL
100
AcDbLine
 10
322.9958972276255
 20
642.4374484569673
 30
0.0
 11
322.9958972276255
 21
635.9374484569709
 31
0.0
  0
LINE
  5
1BE8
330
1E
100
AcDbEntity
  8
STEMPEL
100
AcDbLine
 10
328.7361487131033
 20
642.4374484569673
 30
0.0
 11
328.7361487131033
 21
635.9374484569709
 31
0.0
  0
ARC
  5
1BE9
330
1E
100
AcDbEntity
  8
STEMPEL
100
AcDbCircle
 10
340.4018231008722
 20
635.9374484569682
 30
0.0
 40
5.0
100
AcDbArc
 50
180.0
 51
270.0
  0
ARC
  5
1BEA
330
1E
100
AcDbEntity
  8
STEMPEL
100
AcDbCircle
 10
340.4018231008722
 20
635.9374484569682
 30
0.0
 40
6.0
100
AcDbArc
 50
180.0
 51
270.0
  0
LWPOLYLINE
  5
1BEB
330
1E
100
AcDbEntity
  8
STEMPEL
100
AcDbPolyline
 90
       10
 70
   128
 43
0.0
 10
-339.6981245908679
 20
629.9374484569705
 10
-338.8400515945952
 20
630.0035756715431
 10
-337.9872393949729
 20
630.2561294212733
 10
-337.1664810880559
 20
630.6871751375909
 10
-336.4035627216568
 20
631.2831705080307
 10
-335.7224531661577
 20
632.0253909397513
 10
-335.144551076212
 20
632.8905178365487
 10
-334.6880126018058
 20
633.8513712072649
 10
-334.3671809702082
 20
634.8777635889771
 10
-334.1921358598371
 20
635.9374484569696
210
0.0
220
0.0
230
-1.0
  0
LWPOLYLINE
  5
1BEC
330
1E
100
AcDbEntity
  8
STEMPEL
100
AcDbPolyline
 90
       10
 70
   128
 43
0.0
 10
-337.7402317075674
 20
629.9374484569691
 10
-336.8821587112947
 20
630.0035756715419
 10
-336.0293465116724
 20
630.2561294212721
 10
-335.2085882047554
 20
630.6871751375897
 10
-334.4456698383563
 20
631.2831705080295
 10
-333.7645602828573
 20
632.0253909397502
 10
-333.1866581929115
 20
632.8905178365478
 10
-332.7301197185053
 20
633.8513712072638
 10
-332.4092880869077
 20
634.877763588976
 10
-332.2342429765366
 20
635.9374484569687
210
0.0
220
0.0
230
-1.0
  0
LWPOLYLINE
  5
1BED
330
1E
100
AcDbEntity
  8
STEMPEL
100
AcDbPolyline
 90
        7
 70
   128
 43
0.0
 10
-335.8484808737453
 20
630.9374484569696
 10
-335.1717789986679
 20
631.5470491848288
 10
-334.5722295750339
 20
632.2746082687404
 10
-334.0659409018844
 20
633.1005781304206
 10
-333.6665156098387
 20
634.0027671556238
 10
-333.3846851945758
 20
634.9569359238174
 10
-333.2280216900743
 20
635.9374484569696
210
0.0
220
0.0
230
-1.0
  0
LINE
  5
1BEF
330
1E
100
AcDbEntity
  8
STEMPEL
100
AcDbLine
 10
341.4018231008719
 20
632.5374484569681
 30
0.0
 11
341.4018231008719
 21
630.9374484569682
 31
0.0
  0
LINE
  5
1BF0
330
1E
100
AcDbEntity
  8
STEMPEL
100
AcDbLine
 10
336.8125950435077
 20
630.9374484569691
 30
0.0
 11
335.8484808737451
 21
630.9374484569691
 31
0.0
  0
LINE
  5
1BF1
330
1E
100
AcDbEntity
  8
STEMPEL
100
AcDbLine
 10
339.7432043520808
 20
620.8501864247819
 30
0.0
 11
339.901823100872
 21
629.937448456968
 31
0.0
  0
LINE
  5
1BF2
330
1E
100
AcDbEntity
  8
STEMPEL
100
AcDbLine
 10
332.2342429765366
 20
642.4374484569673
 30
0.0
 11
332.2342429765366
 21
635.9374484569687
 31
0.0
  0
LINE
  5
1BF3
330
1E
100
AcDbEntity
  8
STEMPEL
100
AcDbLine
 10
333.2280216900745
 20
642.4374484569673
 30
0.0
 11
333.2280216900745
 21
635.9374484569696
 31
0.0
  0
LINE
  5
1BF4
330
1E
100
AcDbEntity
  8
STEMPEL
100
AcDbLine
 10
334.1921358598371
 20
642.4374484569673
 30
0.0
 11
334.1921358598371
 21
635.9374484569696
 31
0.0
  0
LWPOLYLINE
  5
1BF5
330
1E
100
AcDbEntity
  8
STEMPEL
100
AcDbPolyline
 90
        7
 70
   128
 43
0.0
 10
333.7100787749559
 20
648.8995025128072
 10
333.5722497653857
 20
648.1473962758687
 10
333.4533854884195
 20
647.224682665154
 10
333.3570374865183
 20
646.1589314152497
 10
333.2860845389802
 20
644.9819860784284
 10
333.2426466469722
 20
643.7290125720267
 10
333.2280216900746
 20
642.4374484569673
  0
LINE
  5
1BF6
330
1E
100
AcDbEntity
  8
STEMPEL
100
AcDbLine
 10
335.4018231008721
 20
654.9374484569691
 30
0.0
 11
334.4018231008721
 21
654.9374484569691
 31
0.0
  0
LINE
  5
1BF7
330
1E
100
AcDbEntity
  8
STEMPEL
100
AcDbLine
 10
350.4018231008719
 20
629.937448456968
 30
0.0
 11
355.4018231008722
 21
629.9374484569677
 31
0.0
  0
LINE
  5
1BF8
330
1E
100
AcDbEntity
  8
STEMPEL
100
AcDbLine
 10
352.9228276101707
 20
636.155201246165
 30
0.0
 11
352.9228276101707
 21
632.5374484569681
 31
0.0
  0
LINE
  5
1BF9
330
1E
100
AcDbEntity
  8
STEMPEL
100
AcDbLine
 10
350.1623253555214
 20
636.1315408740408
 30
0.0
 11
350.1623253555211
 21
632.5374484569681
 31
0.0
  0
LINE
  5
1BFA
330
1E
100
AcDbEntity
  8
STEMPEL
100
AcDbLine
 10
344.6413208462226
 20
636.1315408740408
 30
0.0
 11
344.6413208462226
 21
632.5374484569681
 31
0.0
  0
LINE
  5
1BFB
330
1E
100
AcDbEntity
  8
STEMPEL
100
AcDbLine
 10
341.8808185915733
 20
636.155201246165
 30
0.0
 11
341.8808185915733
 21
632.5374484569681
 31
0.0
  0
LINE
  5
1BFC
330
1E
100
AcDbEntity
  8
MITTEL
100
AcDbLine
 10
347.4018231008721
 20
641.605191791368
 30
0.0
 11
347.4018231008754
 21
609.9374484569676
 31
0.0
  0
LINE
  5
1BFD
330
1E
100
AcDbEntity
  8
STEMPEL
100
AcDbLine
 10
344.4018231008735
 20
623.1874484569682
 30
0.0
 11
350.4018231008735
 21
623.1874484569682
 31
0.0
  0
LINE
  5
1BFE
330
1E
100
AcDbEntity
  8
STEMPEL
100
AcDbLine
 10
345.0518231008731
 20
622.5374484569681
 30
0.0
 11
349.7518231008734
 21
622.5374484569681
 31
0.0
  0
LINE
  5
1BFF
330
1E
100
AcDbEntity
  8
STEMPEL
100
AcDbLine
 10
344.4018231008715
 20
630.9374484569682
 30
0.0
 11
344.4018231008734
 21
623.1874484569675
 31
0.0
  0
LINE
  5
1C00
330
1E
100
AcDbEntity
  8
HILF
100
AcDbLine
 10
345.0518231008736
 20
630.9374484569682
 30
0.0
 11
345.0518231008741
 21
622.5374484569672
 31
0.0
  0
LINE
  5
1C01
330
1E
100
AcDbEntity
  8
STEMPEL
100
AcDbLine
 10
344.4018231008735
 20
623.1874484569682
 30
0.0
 11
345.0518231008731
 21
622.5374484569681
 31
0.0
  0
LINE
  5
1C02
330
1E
100
AcDbEntity
  8
STEMPEL
100
AcDbLine
 10
343.4018231008721
 20
630.9374484569682
 30
0.0
 11
343.4018231008721
 21
629.9374484569677
 31
0.0
  0
LINE
  5
1C03
330
1E
100
AcDbEntity
  8
STEMPEL
100
AcDbLine
 10
350.4018231008723
 20
630.9374484569682
 30
0.0
 11
350.4018231008742
 21
623.1874484569682
 31
0.0
  0
LINE
  5
1C04
330
1E
100
AcDbEntity
  8
HILF
100
AcDbLine
 10
349.751823100873
 20
630.937448456968
 30
0.0
 11
349.7518231008734
 21
622.5374484569672
 31
0.0
  0
LINE
  5
1C05
330
1E
100
AcDbEntity
  8
STEMPEL
100
AcDbLine
 10
349.7518231008734
 20
622.5374484569681
 30
0.0
 11
350.4018231008735
 21
623.1874484569682
 31
0.0
  0
LINE
  5
1C06
330
1E
100
AcDbEntity
  8
STEMPEL
100
AcDbLine
 10
351.4018231008721
 20
630.9374484569677
 30
0.0
 11
351.4018231008721
 21
629.9374484569677
 31
0.0
  0
ARC
  5
1C07
330
1E
100
AcDbEntity
  8
STEMPEL
100
AcDbCircle
 10
347.4018231008719
 20
628.3240741977681
 30
0.0
 40
8.281117593600001
100
AcDbArc
 50
70.52782738138597
 51
109.472172618614
  0
LINE
  5
1C08
330
1E
100
AcDbEntity
  8
STEMPEL
100
AcDbLine
 10
343.261473511246
 20
636.605191791368
 30
0.0
 11
351.5421726899888
 21
636.605191791368
 31
0.0
  0
LINE
  5
1C09
330
1E
100
AcDbEntity
  8
STEMPEL
100
AcDbLine
 10
341.8808185915733
 20
636.155201246165
 30
0.0
 11
342.0875767233586
 21
636.2745731092084
 31
0.0
  0
ARC
  5
1C0A
330
1E
100
AcDbEntity
  8
STEMPEL
100
AcDbCircle
 10
343.2610697188978
 20
634.357293471089
 30
0.0
 40
2.247898356545996
100
AcDbArc
 50
52.11936428281886
 51
121.4691945163666
  0
LINE
  5
1C0B
330
1E
100
AcDbEntity
  8
STEMPEL
100
AcDbLine
 10
351.5386172574866
 20
636.605191791368
 30
0.0
 11
351.5421726904827
 21
636.605191791368
 31
0.0
  0
ARC
  5
1C0C
330
1E
100
AcDbEntity
  8
STEMPEL
100
AcDbCircle
 10
351.5425764828459
 20
634.357293471089
 30
0.0
 40
2.247898356545996
100
AcDbArc
 50
58.53080548383258
 51
127.8806357171811
  0
LINE
  5
1C0D
330
1E
100
AcDbEntity
  8
STEMPEL
100
AcDbLine
 10
352.9228276101707
 20
636.155201246165
 30
0.0
 11
352.7160694783782
 21
636.2745731092124
 31
0.0
  0
LINE
  5
1C0E
330
1E
100
AcDbEntity
  8
STEMPEL
100
AcDbLine
 10
355.401823100872
 20
630.9374484569682
 30
0.0
 11
355.4018231008721
 21
629.9374484569677
 31
0.0
  0
LINE
  5
1C0F
330
1E
100
AcDbEntity
  8
STEMPEL
100
AcDbLine
 10
353.4018231008719
 20
632.5374484569681
 30
0.0
 11
353.4018231008719
 21
630.9374484569682
 31
0.0
  0
LINE
  5
1C10
330
1E
100
AcDbEntity
  8
STEMPEL
100
AcDbLine
 10
354.901823100872
 20
629.9374484569682
 30
0.0
 11
355.0604418496636
 21
620.8501864247816
 31
0.0
  0
ARC
  5
1C11
102
{ACAD_REACTORS
330
1A6E
102
}
330
1E
100
AcDbEntity
  8
STEMPEL
100
AcDbCircle
 10
384.0378620701928
 20
598.4374484569677
 30
0.0
 40
6.0
100
AcDbArc
 50
45.00000000000036
 51
90.0
  0
LINE
  5
1C12
102
{ACAD_REACTORS
330
1A6E
102
}
330
1E
100
AcDbEntity
  8
STEMPEL
100
AcDbLine
 10
388.2805027573123
 20
598.4374484569677
 30
0.0
 11
386.1591824137523
 21
600.5587688005273
 31
0.0
  0
ARC
  5
1C13
102
{ACAD_REACTORS
330
1A6E
102
}
330
1E
100
AcDbEntity
  8
STEMPEL
100
AcDbCircle
 10
384.0378620701928
 20
598.4374484569677
 30
0.0
 40
3.0
100
AcDbArc
 50
45.00000000000036
 51
90.0
  0
ARC
  5
1C14
330
1E
100
AcDbEntity
  8
STEMPEL
100
AcDbCircle
 10
382.401823100872
 20
612.9374484569678
 30
0.0
 40
3.0
100
AcDbArc
 50
270.0
 51
90.0
  0
LINE
  5
1C15
102
{ACAD_REACTORS
330
1A6E
102
}
330
1E
100
AcDbEntity
  8
STEMPEL
100
AcDbLine
 10
390.4018231008718
 20
600.5587688005273
 30
0.0
 11
388.2805027573123
 21
598.4374484569675
 31
0.0
  0
LINE
  5
1C16
102
{ACAD_REACTORS
330
1A6E
102
}
330
1E
100
AcDbEntity
  8
STEMPEL
100
AcDbLine
 10
390.4018231008718
 20
600.5587688005273
 30
0.0
 11
388.2805027573123
 21
602.6800891440871
 31
0.0
  0
LINE
  5
1C18
102
{ACAD_REACTORS
330
1F4C
102
}
330
1E
100
AcDbEntity
  8
STEMPEL
100
AcDbLine
 10
390.401823100872
 20
607.4374484569678
 30
0.0
 11
390.401823100872
 21
604.4374484569678
 31
0.0
  0
LINE
  5
1C1C
330
1E
100
AcDbEntity
  8
STEMPEL
100
AcDbLine
 10
331.9211766689993
 20
704.2562859038487
 30
0.0
 11
307.9423227760482
 21
718.243939070034
 31
0.0
  0
LINE
  5
1C1D
330
1E
100
AcDbEntity
  8
STEMPEL
100
AcDbLine
 10
332.4345177225802
 20
705.1145290170113
 30
0.0
 11
308.4482148471133
 21
719.1065390276996
 31
0.0
  0
ELLIPSE
  5
1C1E
330
1E
100
AcDbEntity
  8
STEMPEL
100
AcDbEllipse
 10
319.5748686075355
 20
687.4374484569694
 30
0.0
 11
0.0
 21
7.499999999999999
 31
0.0
210
0.0
220
0.0
230
-1.0
 40
0.4999999999999926
 41
4.712388980384689
 42
7.853981633974482
  0
ELLIPSE
  5
1C1F
330
1E
100
AcDbEntity
  8
STEMPEL
100
AcDbEllipse
 10
320.4429326272242
 20
687.4374484569694
 30
0.0
 11
0.0
 21
7.499999999999999
 31
0.0
210
0.0
220
0.0
230
-1.0
 40
0.4999999999999926
 41
4.712388980384689
 42
6.167183451052224
  0
ELLIPSE
  5
1C20
330
1E
100
AcDbEntity
  8
STEMPEL
100
AcDbEllipse
 10
279.7726562745514
 20
687.4374484569694
 30
0.0
 11
0.0
 21
7.5
 31
0.0
210
0.0
220
0.0
230
-1.0
 40
0.8660254037843856
 41
4.712388980384689
 42
7.853981633974482
  0
ELLIPSE
  5
1C21
330
1E
100
AcDbEntity
  8
STEMPEL
100
AcDbEllipse
 10
280.2738332699933
 20
687.4374484569694
 30
0.0
 11
0.0
 21
7.5
 31
0.0
210
0.0
220
0.0
230
-1.0
 40
0.8660254037843856
 41
4.712388980384689
 42
6.24459510668465
  0
ARC
  5
1C22
330
1E
100
AcDbEntity
  8
STEMPEL
100
AcDbCircle
 10
305.4018231008723
 20
713.9374484569673
 30
0.0
 40
5.0
100
AcDbArc
 50
59.46264995170039
 51
90.0
  0
ARC
  5
1C23
330
1E
100
AcDbEntity
  8
STEMPEL
100
AcDbCircle
 10
305.4018231008723
 20
713.9374484569673
 30
0.0
 40
6.0
100
AcDbArc
 50
59.48712567237827
 51
90.0
  0
ARC
  5
1C24
330
1E
100
AcDbEntity
  8
STEMPEL
100
AcDbCircle
 10
305.4018231008723
 20
713.9374484569673
 30
0.0
 40
6.0
100
AcDbArc
 50
90.0
 51
90.0
  0
LINE
  5
1C27
330
1E
100
AcDbEntity
  8
STEMPEL
100
AcDbLine
 10
335.4018231008721
 20
694.9374484569691
 30
0.0
 11
334.4018231008721
 21
694.9374484569691
 31
0.0
  0
ARC
  5
1C28
330
1E
100
AcDbEntity
  8
STEMPEL
100
AcDbCircle
 10
329.4018231008722
 20
699.9373904896522
 30
0.0
 40
6.0
100
AcDbArc
 50
0.0
 51
59.74358352518008
  0
ARC
  5
1C29
330
1E
100
AcDbEntity
  8
STEMPEL
100
AcDbCircle
 10
334.9129667051839
 20
709.4572854394298
 30
0.0
 40
5.0
100
AcDbArc
 50
239.7435628364698
 51
239.9329541615142
  0
ARC
  5
1C2A
330
1E
100
AcDbEntity
  8
STEMPEL
100
AcDbCircle
 10
329.4018231008722
 20
699.9373904896522
 30
0.0
 40
5.0
100
AcDbArc
 50
0.0
 51
59.74358352518008
  0
TEXT
  5
1D13
330
1E
100
AcDbEntity
  8
TEXT
 62
     1
100
AcDbText
 10
211.6897479941757
 20
462.3020618183509
 30
0.0
 40
7.0
  1
DN125
 50
89.51938929120677
 41
0.8
  7
GREEKS
100
AcDbText
  0
HATCH
  5
1DC5
330
1E
100
AcDbEntity
  8
SCHRAFF
100
AcDbHatch
 10
0.0
 20
0.0
 30
0.0
210
0.0
220
0.0
230
1.0
  2
_USER
 70
     0
 71
     1
 91
        3
 92
        7
 72
     0
 73
     1
 93
        6
 10
291.9018231008715
 20
311.9976175212172
 10
289.9018231008714
 20
310.0996883877873
 10
503.6915823943655
 20
298.8954418697588
 10
513.7246342646335
 20
297.3582707422626
 10
513.8298282347843
 20
299.3654912654349
 10
503.8958688434824
 20
300.8874803626188
 97
        6
330
1974
330
19F8
330
1A6C
330
1A67
330
1A6D
330
19F7
 92
        7
 72
     0
 73
     1
 93
        6
 10
225.4018231008867
 20
184.3029575178112
 10
225.4018231008867
 20
182.3002128258153
 10
496.9351866631702
 20
168.0697522402605
 10
506.9738179669591
 20
168.5450222125856
 10
507.0790119371099
 20
170.5522427357579
 10
496.9402440390251
 20
170.0722318864187
 97
        6
330
1994
330
1977
330
1A6A
330
1A67
330
1A6B
330
1978
 92
        7
 72
     0
 73
     1
 93
        4
 10
225.4018231008867
 20
184.3029575178111
 10
160.9018231008695
 20
187.6832592815684
 10
158.9018231008694
 20
185.7853301481386
 10
225.4018231008867
 20
182.3002128258153
 97
        4
330
1978
330
1974
330
1977
330
1994
 75
     0
 76
     0
 52
45.0
 41
2.0
 77
     0
 78
     1
 53
45.0
 43
0.0
 44
0.0
 45
-1.414213562373094
 46
1.414213562373095
 79
     0
 47
0.5020346725453646
 98
        3
 10
387.7488336328115
 20
306.2608971869706
 10
331.4824920990854
 20
177.7400193031615
 10
216.4379158136449
 20
183.7644356704129
  0
TEXT
  5
1DC6
330
1E
100
AcDbEntity
  8
TEXT
 62
     1
100
AcDbText
 10
530.5885126702143
 20
790.3711061509032
 30
0.0
 40
7.0
  1

 50
90.0
 41
0.8
 72
     1
 11
530.5885126702143
 21
790.3711061509032
 31
0.0
100
AcDbText
  0
LINE
  5
1DFA
330
1E
100
AcDbEntity
  8
TEXT
 62
     2
100
AcDbLine
 10
308.6497039907796
 20
763.9401608959268
 30
0.0
 11
326.4891511736943
 21
797.9300955726195
 31
0.0
  0
TEXT
  5
1DFB
330
1E
100
AcDbEntity
  8
TEXT
 62
     1
100
AcDbText
 10
327.8405203218705
 20
787.4164166855154
 30
0.0
 40
7.0
  1
EDV-Art.Nr. 21004.000X
 41
0.8
  7
GREEKS
100
AcDbText
  0
LINE
  5
1DFC
330
1E
100
AcDbEntity
  8
TEXT
 62
     2
100
AcDbLine
 10
326.4891511736943
 20
797.9300955726195
 30
0.0
 11
434.792755898206
 21
797.9300955726195
 31
0.0
  0
TEXT
  5
1DFD
330
1E
100
AcDbEntity
  8
TEXT
 62
     1
100
AcDbText
 10
327.8405203218705
 20
801.0927572032509
 30
0.0
 40
7.0
  1
Siebkorb
 41
0.8
  7
GREEKS
100
AcDbText
  0
LINE
  5
1DFE
330
1E
100
AcDbEntity
  8
TEXT
 62
     2
100
AcDbLine
 10
300.0075653090255
 20
747.4740828696378
 30
0.0
 11
306.7907987782187
 21
760.3983433666472
 31
0.0
  0
LINE
  5
1DFF
330
1E
100
AcDbEntity
  8
TEXT
 62
     2
100
AcDbLine
 10
285.2597537081913
 20
719.3747170206436
 30
0.0
 11
298.1486600964646
 21
743.932265340358
 31
0.0
  0
LINE
  5
1E00
330
1E
100
AcDbEntity
  8
TEXT
 62
     2
100
AcDbLine
 10
441.6860310136526
 20
660.3352782577228
 30
0.0
 11
372.6229056258507
 21
612.376199856947
 31
0.0
  0
TEXT
  5
1E01
330
1E
100
AcDbEntity
  8
TEXT
 62
     1
100
AcDbText
 10
438.5233693830214
 20
661.6866474058991
 30
0.0
 40
7.0
  1
Losflansch DN125
 50
90.0
 41
0.8
  7
GREEKS
100
AcDbText
  0
LINE
  5
1E02
330
1E
100
AcDbEntity
  8
TEXT
 62
     2
100
AcDbLine
 10
441.6860310136526
 20
660.3352782577228
 30
0.0
 11
441.6860310136526
 21
768.6388829822345
 31
0.0
  0
TEXT
  5
1E03
330
1E
100
AcDbEntity
  8
TEXT
 62
     1
100
AcDbText
 10
452.1997099007569
 20
661.6866474058991
 30
0.0
 40
7.0
  1
EDV-Art.Nr. 21905.150X
 50
90.0
 41
0.8
  7
GREEKS
100
AcDbText
  0
LINE
  5
1E05
330
1E
100
AcDbEntity
  8
TEXT
 62
     2
100
AcDbLine
 10
325.1842215086029
 20
605.3758466321523
 30
0.0
 11
347.3666940300651
 21
572.0331893727952
 31
0.0
  0
TEXT
  5
1E06
330
1E
100
AcDbEntity
  8
TEXT
 62
     1
100
AcDbText
 10
348.7180631782413
 20
561.5195104856911
 30
0.0
 40
7.0
  1
EDV-Art.Nr. 21810.150X
 41
0.8
  7
GREEKS
100
AcDbText
  0
LINE
  5
1E07
330
1E
100
AcDbEntity
  8
TEXT
 62
     2
100
AcDbLine
 10
347.3666940300651
 20
572.0331893727952
 30
0.0
 11
475.1040737810186
 21
572.0331893727952
 31
0.0
  0
TEXT
  5
1E08
330
1E
100
AcDbEntity
  8
TEXT
 62
     1
100
AcDbText
 10
348.7180631782413
 20
575.1958510034267
 30
0.0
 40
7.0
  1
Kompressionsdichtung DN150
 41
0.8
  7
GREEKS
100
AcDbText
  0
TEXT
  5
1E09
330
1E
100
AcDbEntity
  8
TEXT
 62
     1
100
AcDbText
 10
342.9831480033188
 20
445.8606420621635
 30
0.0
 40
7.0
  1
EDV-Art.Nr. 00911.125X
 41
0.8
  7
GREEKS
100
AcDbText
  0
LINE
  5
1E0A
330
1E
100
AcDbEntity
  8
TEXT
 62
     2
100
AcDbLine
 10
445.5324807994464
 20
455.2956459369492
 30
0.0
 11
342.0830168986338
 21
455.2956459369493
 31
0.0
  0
TEXT
  5
1E0B
330
1E
100
AcDbEntity
  8
TEXT
 62
     1
100
AcDbText
 10
343.1637032974709
 20
458.9084142091429
 30
0.0
 40
7.0
  1
Dichtelement DN125
 41
0.8
  7
GREEKS
100
AcDbText
  0
LINE
  5
1E0C
330
1E
100
AcDbEntity
  8
TEXT
 62
     2
100
AcDbLine
 10
296.5929012232218
 20
364.9236252766633
 30
0.0
 11
342.0830168986338
 21
455.2956459369493
 31
0.0
  0
LINE
  5
1E0D
330
1E
100
AcDbEntity
  8
TEXT
 62
     2
100
AcDbLine
 10
290.7447355842546
 20
480.5835021594909
 30
0.0
 11
342.0830168986338
 21
499.0171423185134
 31
0.0
  0
TEXT
  5
1E0E
330
1E
100
AcDbEntity
  8
TEXT
 62
     1
100
AcDbText
 10
343.1637032974709
 20
502.6299105907069
 30
0.0
 40
7.0
  1
Ablaufkörper DN125
 41
0.8
  7
GREEKS
100
AcDbText
  0
LINE
  5
1E0F
330
1E
100
AcDbEntity
  8
TEXT
 62
     2
100
AcDbLine
 10
445.5324807994464
 20
499.0171423185133
 30
0.0
 11
342.0830168986338
 21
499.0171423185134
 31
0.0
  0
TEXT
  5
1E10
330
1E
100
AcDbEntity
  8
TEXT
 62
     1
100
AcDbText
 10
342.9831480033188
 20
489.5821384437276
 30
0.0
 40
7.0
  1
EDV-Art.Nr. 21981.125X
 41
0.8
  7
GREEKS
100
AcDbText
  0
TEXT
  5
1E11
330
1E
100
AcDbEntity
  8
TEXT
 62
     1
100
AcDbText
 10
437.5888890895245
 20
389.0912497916845
 30
0.0
 40
7.0
  1
Kompressionsdichtung DN150
 41
0.8
  7
GREEKS
100
AcDbText
  0
LINE
  5
1E12
330
1E
100
AcDbEntity
  8
TEXT
 62
     2
100
AcDbLine
 10
436.2375199413483
 20
385.9285881610531
 30
0.0
 11
563.9748996923018
 21
385.9285881610531
 31
0.0
  0
TEXT
  5
1E13
330
1E
100
AcDbEntity
  8
TEXT
 62
     1
100
AcDbText
 10
437.5888890895245
 20
375.414909273949
 30
0.0
 40
7.0
  1
EDV-Art.Nr. 21810.150X
 41
0.8
  7
GREEKS
100
AcDbText
  0
LINE
  5
1E14
330
1E
100
AcDbEntity
  8
TEXT
 62
     2
100
AcDbLine
 10
385.4640449099178
 20
358.3270642676803
 30
0.0
 11
436.2375199413483
 21
385.9285881610531
 31
0.0
  0
TEXT
  5
1E16
330
1E
100
AcDbEntity
  8
TEXT
 62
     1
100
AcDbText
 10
437.5888890895245
 20
409.9725777054739
 30
0.0
 40
7.0
  1
EDV-Art.Nr. 21905.150X
 41
0.8
  7
GREEKS
100
AcDbText
  0
LINE
  5
1E17
330
1E
100
AcDbEntity
  8
TEXT
 62
     2
100
AcDbLine
 10
436.2375199413483
 20
420.486256592578
 30
0.0
 11
544.5411246658601
 21
420.486256592578
 31
0.0
  0
TEXT
  5
1E18
330
1E
100
AcDbEntity
  8
TEXT
 62
     1
100
AcDbText
 10
437.5888890895245
 20
423.6489182232094
 30
0.0
 40
7.0
  1
Losflansch DN125
 41
0.8
  7
GREEKS
100
AcDbText
  0
LINE
  5
1E19
330
1E
100
AcDbEntity
  8
TEXT
 62
     2
100
AcDbLine
 10
436.2375199413483
 20
420.486256592578
 30
0.0
 11
374.0335535396165
 21
365.6466154568725
 31
0.0
  0
TEXT
  5
1E1A
330
1E
100
AcDbEntity
  8
TEXT
 62
     1
100
AcDbText
 10
358.6839490401496
 20
74.25022356059662
 30
0.0
 40
7.0
  1
EDV-Art.Nr. 21987.125X
 41
0.8
  7
GREEKS
100
AcDbText
  0
LINE
  5
1E1B
330
1E
100
AcDbEntity
  8
TEXT
 62
     2
100
AcDbLine
 10
466.3308512682981
 20
83.68522743538227
 30
0.0
 11
357.7838179354646
 21
83.68522743538234
 31
0.0
  0
TEXT
  5
1E1C
330
1E
100
AcDbEntity
  8
TEXT
 62
     1
100
AcDbText
 10
358.8645043343017
 20
87.29799570757586
 30
0.0
 40
7.0
  1
Ablaufkörper DN125
 41
0.8
  7
GREEKS
100
AcDbText
  0
LINE
  5
1E1D
330
1E
100
AcDbEntity
  8
TEXT
 62
     2
100
AcDbLine
 10
466.3308512682981
 20
83.68522743538227
 30
0.0
 11
473.3364269229177
 21
113.2031216743113
 31
0.0
  0
LINE
  5
1E1F
330
1E
100
AcDbEntity
  8
TEXT
 62
     2
100
AcDbLine
 10
474.2601020487567
 20
117.0950137927938
 30
0.0
 11
486.7633133032068
 21
169.7771181124401
 31
0.0
  0
LINE
  5
1E20
330
1E
100
AcDbEntity
  8
TEXT
 62
     2
100
AcDbLine
 10
184.7126514462436
 20
92.74225418093601
 30
0.0
 11
172.5245738040805
 21
129.2519845286837
 31
0.0
  0
TEXT
  5
1E21
330
1E
100
AcDbEntity
  8
TEXT
 62
     1
100
AcDbText
 10
185.7933378450807
 20
96.35502245312956
 30
0.0
 40
7.0
  1
Wärmedämmung DN125
 41
0.8
  7
GREEKS
100
AcDbText
  0
LINE
  5
1E22
330
1E
100
AcDbEntity
  8
TEXT
 62
     2
100
AcDbLine
 10
293.2596847790772
 20
92.74225418093596
 30
0.0
 11
184.7126514462436
 21
92.74225418093601
 31
0.0
  0
TEXT
  5
1E23
330
1E
100
AcDbEntity
  8
TEXT
 62
     1
100
AcDbText
 10
185.6127825509286
 20
83.30725030615031
 30
0.0
 40
7.0
  1
EDV-Art.Nr. 19843.125X
 41
0.8
  7
GREEKS
100
AcDbText
  0
LINE
  5
1E25
330
1E
100
AcDbEntity
  8
TEXT
 62
     2
100
AcDbLine
 10
171.2579636607378
 20
133.0461509384213
 30
0.0
 11
163.9929576084936
 21
154.8086814809421
 31
0.0
  0
ARC
  5
1E4C
330
1E
100
AcDbEntity
  8
STEMPEL
100
AcDbCircle
 10
98.40182310087222
 20
347.9786398814629
 30
0.0
 40
30.31088913245485
100
AcDbArc
 50
81.78678929826139
 51
98.2132107017378
  0
ARC
  5
1E4D
330
1E
100
AcDbEntity
  8
STEMPEL
100
AcDbCircle
 10
91.90663257248891
 20
370.5952233061333
 30
0.0
 40
7.694305707784447
100
AcDbArc
 50
73.65710669401501
 51
106.342893305985
  0
ARC
  5
1E4E
330
1E
100
AcDbEntity
  8
STEMPEL
100
AcDbCircle
 10
104.8970136292555
 20
370.5952233061333
 30
0.0
 40
7.694305707784447
100
AcDbArc
 50
73.65710669401501
 51
106.342893305985
  0
ARC
  5
1E4F
330
1E
100
AcDbEntity
  8
HILF
100
AcDbCircle
 10
98.40182310087222
 20
348.3910679662565
 30
0.0
 40
22.41111549782308
100
AcDbArc
 50
78.85962783890537
 51
101.1403721610946
  0
ARC
  5
1E50
330
1E
100
AcDbEntity
  8
HILF
100
AcDbCircle
 10
104.8970136292555
 20
365.0410428643881
 30
0.0
 40
5.761140599691502
100
AcDbArc
 50
67.92594526326206
 51
112.0740547367379
  0
ARC
  5
1E51
330
1E
100
AcDbEntity
  8
HILF
100
AcDbCircle
 10
91.90663257248891
 20
365.0410428643881
 30
0.0
 40
5.761140599691502
100
AcDbArc
 50
67.92594526326206
 51
112.0740547367379
  0
POINT
  5
1E52
330
1E
100
AcDbEntity
  8
0
100
AcDbPoint
 10
98.40182310087222
 20
368.2895290139177
 30
0.0
210
0.0000000000000001
220
1.0
230
0.0
  0
LINE
  5
1E53
330
1E
100
AcDbEntity
  8
STEMPEL
100
AcDbLine
 10
90.90182310087223
 20
378.2895290139177
 30
0.0
 11
105.9018231008722
 21
378.2895290139177
 31
0.0
  0
LINE
  5
1E54
330
1E
100
AcDbEntity
  8
STEMPEL
100
AcDbLine
 10
107.0620771387166
 20
370.3798855301176
 30
0.0
 11
107.0620771387166
 21
377.9786398814624
 31
0.0
  0
LINE
  5
1E55
330
1E
100
AcDbEntity
  8
STEMPEL
100
AcDbLine
 10
102.7319501197944
 20
370.3798855301176
 30
0.0
 11
102.7319501197944
 21
377.9786398814624
 31
0.0
  0
LINE
  5
1E56
330
1E
100
AcDbEntity
  8
STEMPEL
100
AcDbLine
 10
94.07169608195001
 20
370.3798855301176
 30
0.0
 11
94.07169608195001
 21
377.9786398814624
 31
0.0
  0
LINE
  5
1E57
330
1E
100
AcDbEntity
  8
STEMPEL
100
AcDbLine
 10
108.8083382083664
 20
369.7442984795072
 30
0.0
 11
87.99530799337794
 21
369.7442984795072
 31
0.0
  0
LINE
  5
1E58
330
1E
100
AcDbEntity
  8
STEMPEL
100
AcDbLine
 10
108.5518231008722
 20
368.2895290139177
 30
0.0
 11
88.25182310087219
 21
368.2895290139177
 31
0.0
  0
LINE
  5
1E59
330
1E
100
AcDbEntity
  8
STEMPEL
100
AcDbLine
 10
89.74156906302782
 20
370.3798855301176
 30
0.0
 11
89.74156906302782
 21
377.9786398814624
 31
0.0
  0
LINE
  5
1E5A
330
1E
100
AcDbEntity
  8
STEMPEL
100
AcDbLine
 10
90.90182310087223
 20
378.2895290139177
 30
0.0
 11
89.74156906302782
 21
377.9786398814624
 31
0.0
  0
LINE
  5
1E5B
330
1E
100
AcDbEntity
  8
STEMPEL
100
AcDbLine
 10
107.0620771387166
 20
377.9786398814624
 30
0.0
 11
105.9018231008722
 21
378.2895290139177
 31
0.0
  0
LINE
  5
1E5C
330
1E
100
AcDbEntity
  8
STEMPEL
100
AcDbLine
 10
108.8083382083664
 20
369.7442984795072
 30
0.0
 11
107.0620771387166
 21
370.3798855301176
 31
0.0
  0
LINE
  5
1E5D
330
1E
100
AcDbEntity
  8
STEMPEL
100
AcDbLine
 10
89.74156906302782
 20
370.3798855301176
 30
0.0
 11
87.99530799337796
 21
369.7442984795072
 31
0.0
  0
ARC
  5
1E5E
330
1E
100
AcDbEntity
  8
STEMPEL
100
AcDbCircle
 10
88.25182310087219
 20
369.0395290139177
 30
0.0
 40
0.7500000000000013
100
AcDbArc
 50
109.9999999999995
 51
269.9999991462263
  0
ARC
  5
1E5F
330
1E
100
AcDbEntity
  8
STEMPEL
100
AcDbCircle
 10
108.5518231008722
 20
369.0395290139177
 30
0.0
 40
0.750000000000001
100
AcDbArc
 50
269.9999991462263
 51
70.00000000000047
  0
ARC
  5
1E79
330
1E
100
AcDbEntity
  8
STEMPEL
100
AcDbCircle
 10
326.1576973178583
 20
347.978639881463
 30
0.0
 40
30.31088913245485
100
AcDbArc
 50
81.78678929826059
 51
98.2132107017394
  0
ARC
  5
1E7A
330
1E
100
AcDbEntity
  8
STEMPEL
100
AcDbCircle
 10
319.6625067894751
 20
370.5952233061335
 30
0.0
 40
7.694305707784447
100
AcDbArc
 50
73.65710669401345
 51
106.3428933059834
  0
ARC
  5
1E7B
330
1E
100
AcDbEntity
  8
STEMPEL
100
AcDbCircle
 10
332.6528878462416
 20
370.5952233061335
 30
0.0
 40
7.694305707784447
100
AcDbArc
 50
73.65710669401345
 51
106.3428933059834
  0
ARC
  5
1E7C
330
1E
100
AcDbEntity
  8
HILF
100
AcDbCircle
 10
326.1576973178583
 20
348.3910679662566
 30
0.0
 40
22.41111549782308
100
AcDbArc
 50
78.85962783890455
 51
101.1403721610954
  0
ARC
  5
1E7D
330
1E
100
AcDbEntity
  8
HILF
100
AcDbCircle
 10
332.6528878462416
 20
365.0410428643882
 30
0.0
 40
5.761140599691502
100
AcDbArc
 50
67.92594526326054
 51
112.0740547367394
  0
ARC
  5
1E7E
330
1E
100
AcDbEntity
  8
HILF
100
AcDbCircle
 10
319.662506789475
 20
365.0410428643882
 30
0.0
 40
5.761140599691502
100
AcDbArc
 50
67.92594526326054
 51
112.0740547367394
  0
POINT
  5
1E7F
330
1E
100
AcDbEntity
  8
0
100
AcDbPoint
 10
326.1576973178583
 20
368.2895290139179
 30
0.0
210
0.0000000000000001
220
1.0
230
0.0
  0
LINE
  5
1E80
330
1E
100
AcDbEntity
  8
STEMPEL
100
AcDbLine
 10
318.6576973178583
 20
378.2895290139179
 30
0.0
 11
333.6576973178583
 21
378.2895290139179
 31
0.0
  0
LINE
  5
1E81
330
1E
100
AcDbEntity
  8
STEMPEL
100
AcDbLine
 10
334.8179513557027
 20
370.3798855301177
 30
0.0
 11
334.8179513557027
 21
377.9786398814625
 31
0.0
  0
LINE
  5
1E82
330
1E
100
AcDbEntity
  8
STEMPEL
100
AcDbLine
 10
330.4878243367805
 20
370.3798855301177
 30
0.0
 11
330.4878243367805
 21
377.9786398814625
 31
0.0
  0
LINE
  5
1E83
330
1E
100
AcDbEntity
  8
STEMPEL
100
AcDbLine
 10
321.8275702989361
 20
370.3798855301177
 30
0.0
 11
321.8275702989361
 21
377.9786398814625
 31
0.0
  0
LINE
  5
1E84
330
1E
100
AcDbEntity
  8
STEMPEL
100
AcDbLine
 10
336.5642124253526
 20
369.7442984795074
 30
0.0
 11
315.7511822103641
 21
369.7442984795074
 31
0.0
  0
LINE
  5
1E85
330
1E
100
AcDbEntity
  8
STEMPEL
100
AcDbLine
 10
334.7439658762989
 20
368.2895290139179
 30
0.0
 11
316.0076973178584
 21
368.2895290139179
 31
0.0
  0
LINE
  5
1E86
330
1E
100
AcDbEntity
  8
STEMPEL
100
AcDbLine
 10
317.4974432800139
 20
370.3798855301177
 30
0.0
 11
317.4974432800139
 21
377.9786398814625
 31
0.0
  0
LINE
  5
1E87
330
1E
100
AcDbEntity
  8
STEMPEL
100
AcDbLine
 10
318.6576973178583
 20
378.2895290139179
 30
0.0
 11
317.4974432800139
 21
377.9786398814625
 31
0.0
  0
LINE
  5
1E88
330
1E
100
AcDbEntity
  8
STEMPEL
100
AcDbLine
 10
334.8179513557027
 20
377.9786398814625
 30
0.0
 11
333.6576973178583
 21
378.2895290139179
 31
0.0
  0
LINE
  5
1E89
330
1E
100
AcDbEntity
  8
STEMPEL
100
AcDbLine
 10
336.5642124253526
 20
369.7442984795074
 30
0.0
 11
334.8179513557027
 21
370.3798855301177
 31
0.0
  0
LINE
  5
1E8A
330
1E
100
AcDbEntity
  8
STEMPEL
100
AcDbLine
 10
317.4974432800139
 20
370.3798855301177
 30
0.0
 11
315.7511822103641
 21
369.7442984795074
 31
0.0
  0
ARC
  5
1E8B
330
1E
100
AcDbEntity
  8
STEMPEL
100
AcDbCircle
 10
316.0076973178584
 20
369.0395290139179
 30
0.0
 40
0.7500000000000013
100
AcDbArc
 50
109.9999999999995
 51
269.9999991462263
  0
ARC
  5
1E8C
330
1E
100
AcDbEntity
  8
STEMPEL
100
AcDbCircle
 10
336.3076973178583
 20
369.0395290139179
 30
0.0
 40
0.750000000000001
100
AcDbArc
 50
344.8543283148592
 51
70.00000000000047
  0
ARC
  5
1EA6
330
1E
100
AcDbEntity
  8
STEMPEL
100
AcDbCircle
 10
322.1909306164036
 20
595.6265593245132
 30
0.0
 40
30.31088913245485
100
AcDbArc
 50
81.78678929826011
 51
98.21321070173988
  0
ARC
  5
1EA7
330
1E
100
AcDbEntity
  8
STEMPEL
100
AcDbCircle
 10
315.6957400880204
 20
618.2431427491835
 30
0.0
 40
7.694305707784447
100
AcDbArc
 50
73.65710669401345
 51
106.3428933059834
  0
ARC
  5
1EA8
330
1E
100
AcDbEntity
  8
STEMPEL
100
AcDbCircle
 10
328.6861211447869
 20
618.2431427491835
 30
0.0
 40
7.694305707784447
100
AcDbArc
 50
73.65710669401345
 51
106.3428933059834
  0
ARC
  5
1EA9
330
1E
100
AcDbEntity
  8
HILF
100
AcDbCircle
 10
322.1909306164036
 20
596.0389874093067
 30
0.0
 40
22.41111549782308
100
AcDbArc
 50
78.85962783890391
 51
101.1403721610961
  0
ARC
  5
1EAA
330
1E
100
AcDbEntity
  8
HILF
100
AcDbCircle
 10
328.686121144787
 20
612.6889623074383
 30
0.0
 40
5.761140599691502
100
AcDbArc
 50
67.92594526326054
 51
112.0740547367394
  0
ARC
  5
1EAB
330
1E
100
AcDbEntity
  8
HILF
100
AcDbCircle
 10
315.6957400880203
 20
612.6889623074383
 30
0.0
 40
5.761140599691502
100
AcDbArc
 50
67.92594526326054
 51
112.0740547367394
  0
POINT
  5
1EAC
330
1E
100
AcDbEntity
  8
0
100
AcDbPoint
 10
322.1909306164036
 20
615.937448456968
 30
0.0
210
0.0000000000000001
220
1.0
230
0.0
  0
LINE
  5
1EAD
330
1E
100
AcDbEntity
  8
STEMPEL
100
AcDbLine
 10
314.6909306164037
 20
625.937448456968
 30
0.0
 11
329.6909306164037
 21
625.937448456968
 31
0.0
  0
LINE
  5
1EAE
330
1E
100
AcDbEntity
  8
STEMPEL
100
AcDbLine
 10
330.851184654248
 20
618.0278049731677
 30
0.0
 11
330.851184654248
 21
625.6265593245126
 31
0.0
  0
LINE
  5
1EAF
330
1E
100
AcDbEntity
  8
STEMPEL
100
AcDbLine
 10
326.5210576353259
 20
618.0278049731677
 30
0.0
 11
326.5210576353259
 21
625.6265593245126
 31
0.0
  0
LINE
  5
1EB0
330
1E
100
AcDbEntity
  8
STEMPEL
100
AcDbLine
 10
317.8608035974814
 20
618.0278049731677
 30
0.0
 11
317.8608035974814
 21
625.6265593245126
 31
0.0
  0
LINE
  5
1EB1
330
1E
100
AcDbEntity
  8
STEMPEL
100
AcDbLine
 10
332.5974457238979
 20
617.3922179225574
 30
0.0
 11
311.7844155089094
 21
617.3922179225574
 31
0.0
  0
LINE
  5
1EB2
330
1E
100
AcDbEntity
  8
STEMPEL
100
AcDbLine
 10
332.3409306164036
 20
615.937448456968
 30
0.0
 11
312.0409306164037
 21
615.937448456968
 31
0.0
  0
LINE
  5
1EB3
330
1E
100
AcDbEntity
  8
STEMPEL
100
AcDbLine
 10
313.5306765785593
 20
618.0278049731677
 30
0.0
 11
313.5306765785593
 21
625.6265593245126
 31
0.0
  0
LINE
  5
1EB4
330
1E
100
AcDbEntity
  8
STEMPEL
100
AcDbLine
 10
314.6909306164037
 20
625.937448456968
 30
0.0
 11
313.5306765785593
 21
625.6265593245126
 31
0.0
  0
LINE
  5
1EB5
330
1E
100
AcDbEntity
  8
STEMPEL
100
AcDbLine
 10
330.851184654248
 20
625.6265593245126
 30
0.0
 11
329.6909306164037
 21
625.937448456968
 31
0.0
  0
LINE
  5
1EB6
330
1E
100
AcDbEntity
  8
STEMPEL
100
AcDbLine
 10
332.5974457238979
 20
617.3922179225574
 30
0.0
 11
330.851184654248
 21
618.0278049731677
 31
0.0
  0
LINE
  5
1EB7
330
1E
100
AcDbEntity
  8
STEMPEL
100
AcDbLine
 10
313.5306765785593
 20
618.0278049731677
 30
0.0
 11
311.7844155089094
 21
617.3922179225574
 31
0.0
  0
ARC
  5
1EB8
330
1E
100
AcDbEntity
  8
STEMPEL
100
AcDbCircle
 10
312.0409306164037
 20
616.687448456968
 30
0.0
 40
0.7500000000000013
100
AcDbArc
 50
110.0000000000006
 51
269.9999991462263
  0
ARC
  5
1EB9
330
1E
100
AcDbEntity
  8
STEMPEL
100
AcDbCircle
 10
332.3409306164036
 20
616.687448456968
 30
0.0
 40
0.750000000000001
100
AcDbArc
 50
269.9999991462263
 51
69.99999999999935
  0
ARC
  5
1ED3
330
1E
100
AcDbEntity
  8
STEMPEL
100
AcDbCircle
 10
161.901823100872
 20
595.6265593245131
 30
0.0
 40
30.31088913245485
100
AcDbArc
 50
81.78678929826174
 51
98.21321070173826
  0
ARC
  5
1ED4
330
1E
100
AcDbEntity
  8
STEMPEL
100
AcDbCircle
 10
155.4066325724887
 20
618.2431427491835
 30
0.0
 40
7.694305707784447
100
AcDbArc
 50
73.65710669401501
 51
106.342893305985
  0
ARC
  5
1ED5
330
1E
100
AcDbEntity
  8
STEMPEL
100
AcDbCircle
 10
168.3970136292552
 20
618.2431427491835
 30
0.0
 40
7.694305707784447
100
AcDbArc
 50
73.65710669401501
 51
106.342893305985
  0
ARC
  5
1ED6
330
1E
100
AcDbEntity
  8
HILF
100
AcDbCircle
 10
161.901823100872
 20
596.0389874093066
 30
0.0
 40
22.41111549782308
100
AcDbArc
 50
78.85962783890552
 51
101.1403721610945
  0
ARC
  5
1ED7
330
1E
100
AcDbEntity
  8
HILF
100
AcDbCircle
 10
168.3970136292552
 20
612.6889623074382
 30
0.0
 40
5.761140599691502
100
AcDbArc
 50
67.92594526326206
 51
112.0740547367379
  0
ARC
  5
1ED8
330
1E
100
AcDbEntity
  8
HILF
100
AcDbCircle
 10
155.4066325724887
 20
612.6889623074382
 30
0.0
 40
5.761140599691502
100
AcDbArc
 50
67.92594526326206
 51
112.0740547367379
  0
POINT
  5
1ED9
330
1E
100
AcDbEntity
  8
0
100
AcDbPoint
 10
161.901823100872
 20
615.9374484569679
 30
0.0
210
0.0000000000000001
220
1.0
230
0.0
  0
LINE
  5
1EDA
330
1E
100
AcDbEntity
  8
STEMPEL
100
AcDbLine
 10
154.401823100872
 20
625.9374484569678
 30
0.0
 11
169.4018231008719
 21
625.9374484569678
 31
0.0
  0
LINE
  5
1EDB
330
1E
100
AcDbEntity
  8
STEMPEL
100
AcDbLine
 10
170.5620771387164
 20
618.0278049731676
 30
0.0
 11
170.5620771387164
 21
625.6265593245124
 31
0.0
  0
LINE
  5
1EDC
330
1E
100
AcDbEntity
  8
STEMPEL
100
AcDbLine
 10
166.2319501197941
 20
618.0278049731676
 30
0.0
 11
166.2319501197941
 21
625.6265593245124
 31
0.0
  0
LINE
  5
1EDD
330
1E
100
AcDbEntity
  8
STEMPEL
100
AcDbLine
 10
157.5716960819498
 20
618.0278049731676
 30
0.0
 11
157.5716960819498
 21
625.6265593245124
 31
0.0
  0
LINE
  5
1EDE
330
1E
100
AcDbEntity
  8
STEMPEL
100
AcDbLine
 10
172.3083382083662
 20
617.3922179225573
 30
0.0
 11
151.4953079933777
 21
617.3922179225573
 31
0.0
  0
LINE
  5
1EDF
330
1E
100
AcDbEntity
  8
STEMPEL
100
AcDbLine
 10
172.051823100872
 20
615.9374484569679
 30
0.0
 11
151.751823100872
 21
615.9374484569679
 31
0.0
  0
LINE
  5
1EE0
330
1E
100
AcDbEntity
  8
STEMPEL
100
AcDbLine
 10
153.2415690630276
 20
618.0278049731676
 30
0.0
 11
153.2415690630276
 21
625.6265593245124
 31
0.0
  0
LINE
  5
1EE1
330
1E
100
AcDbEntity
  8
STEMPEL
100
AcDbLine
 10
154.401823100872
 20
625.9374484569678
 30
0.0
 11
153.2415690630276
 21
625.6265593245124
 31
0.0
  0
LINE
  5
1EE2
330
1E
100
AcDbEntity
  8
STEMPEL
100
AcDbLine
 10
170.5620771387164
 20
625.6265593245124
 30
0.0
 11
169.4018231008719
 21
625.9374484569678
 31
0.0
  0
LINE
  5
1EE3
330
1E
100
AcDbEntity
  8
STEMPEL
100
AcDbLine
 10
172.3083382083662
 20
617.3922179225573
 30
0.0
 11
170.5620771387163
 21
618.0278049731676
 31
0.0
  0
LINE
  5
1EE4
330
1E
100
AcDbEntity
  8
STEMPEL
100
AcDbLine
 10
153.2415690630276
 20
618.0278049731676
 30
0.0
 11
151.4953079933777
 21
617.3922179225573
 31
0.0
  0
ARC
  5
1EE5
330
1E
100
AcDbEntity
  8
STEMPEL
100
AcDbCircle
 10
151.751823100872
 20
616.6874484569679
 30
0.0
 40
0.7500000000000013
100
AcDbArc
 50
110.0000000000006
 51
269.9999991462263
  0
ARC
  5
1EE6
330
1E
100
AcDbEntity
  8
STEMPEL
100
AcDbCircle
 10
172.051823100872
 20
616.6874484569679
 30
0.0
 40
0.750000000000001
100
AcDbArc
 50
269.9999991462263
 51
69.99999999999935
  0
ARC
  5
1EE7
330
1E
100
AcDbEntity
  8
STEMPEL
100
AcDbCircle
 10
108.5518231008721
 20
616.6874484569679
 30
0.0
 40
0.750000000000001
100
AcDbArc
 50
269.9999991462263
 51
69.99999999999935
  0
ARC
  5
1EE8
330
1E
100
AcDbEntity
  8
STEMPEL
100
AcDbCircle
 10
88.25182310087209
 20
616.6874484569679
 30
0.0
 40
0.7500000000000013
100
AcDbArc
 50
110.0000000000006
 51
269.9999991462263
  0
LINE
  5
1EE9
330
1E
100
AcDbEntity
  8
STEMPEL
100
AcDbLine
 10
89.74156906302772
 20
618.0278049731676
 30
0.0
 11
87.99530799337786
 21
617.3922179225573
 31
0.0
  0
LINE
  5
1EEA
330
1E
100
AcDbEntity
  8
STEMPEL
100
AcDbLine
 10
108.8083382083663
 20
617.3922179225573
 30
0.0
 11
107.0620771387164
 21
618.0278049731676
 31
0.0
  0
LINE
  5
1EEB
330
1E
100
AcDbEntity
  8
STEMPEL
100
AcDbLine
 10
107.0620771387165
 20
625.6265593245124
 30
0.0
 11
105.901823100872
 21
625.9374484569678
 31
0.0
  0
LINE
  5
1EEC
330
1E
100
AcDbEntity
  8
STEMPEL
100
AcDbLine
 10
90.90182310087213
 20
625.9374484569678
 30
0.0
 11
89.7415690630277
 21
625.6265593245124
 31
0.0
  0
LINE
  5
1EED
330
1E
100
AcDbEntity
  8
STEMPEL
100
AcDbLine
 10
89.7415690630277
 20
618.0278049731676
 30
0.0
 11
89.7415690630277
 21
625.6265593245124
 31
0.0
  0
LINE
  5
1EEE
330
1E
100
AcDbEntity
  8
STEMPEL
100
AcDbLine
 10
108.5518231008721
 20
615.9374484569679
 30
0.0
 11
88.25182310087209
 21
615.9374484569679
 31
0.0
  0
LINE
  5
1EEF
330
1E
100
AcDbEntity
  8
STEMPEL
100
AcDbLine
 10
108.8083382083663
 20
617.3922179225573
 30
0.0
 11
87.99530799337786
 21
617.3922179225573
 31
0.0
  0
LINE
  5
1EF0
330
1E
100
AcDbEntity
  8
STEMPEL
100
AcDbLine
 10
94.0716960819499
 20
618.0278049731676
 30
0.0
 11
94.0716960819499
 21
625.6265593245124
 31
0.0
  0
LINE
  5
1EF1
330
1E
100
AcDbEntity
  8
STEMPEL
100
AcDbLine
 10
102.7319501197943
 20
618.0278049731676
 30
0.0
 11
102.7319501197943
 21
625.6265593245124
 31
0.0
  0
LINE
  5
1EF2
330
1E
100
AcDbEntity
  8
STEMPEL
100
AcDbLine
 10
107.0620771387165
 20
618.0278049731676
 30
0.0
 11
107.0620771387165
 21
625.6265593245124
 31
0.0
  0
LINE
  5
1EF3
330
1E
100
AcDbEntity
  8
STEMPEL
100
AcDbLine
 10
90.90182310087213
 20
625.9374484569678
 30
0.0
 11
105.901823100872
 21
625.9374484569678
 31
0.0
  0
POINT
  5
1EF4
330
1E
100
AcDbEntity
  8
0
100
AcDbPoint
 10
98.40182310087209
 20
615.9374484569679
 30
0.0
210
0.0000000000000001
220
1.0
230
0.0
  0
ARC
  5
1EF5
330
1E
100
AcDbEntity
  8
HILF
100
AcDbCircle
 10
91.9066325724888
 20
612.6889623074382
 30
0.0
 40
5.761140599691502
100
AcDbArc
 50
67.92594526326206
 51
112.0740547367379
  0
ARC
  5
1EF6
330
1E
100
AcDbEntity
  8
HILF
100
AcDbCircle
 10
104.8970136292554
 20
612.6889623074382
 30
0.0
 40
5.761140599691502
100
AcDbArc
 50
67.92594526326206
 51
112.0740547367379
  0
ARC
  5
1EF7
330
1E
100
AcDbEntity
  8
HILF
100
AcDbCircle
 10
98.40182310087209
 20
596.0389874093066
 30
0.0
 40
22.41111549782308
100
AcDbArc
 50
78.85962783890552
 51
101.1403721610945
  0
ARC
  5
1EF8
330
1E
100
AcDbEntity
  8
STEMPEL
100
AcDbCircle
 10
104.8970136292554
 20
618.2431427491835
 30
0.0
 40
7.694305707784447
100
AcDbArc
 50
73.65710669401501
 51
106.342893305985
  0
ARC
  5
1EF9
330
1E
100
AcDbEntity
  8
STEMPEL
100
AcDbCircle
 10
91.9066325724888
 20
618.2431427491835
 30
0.0
 40
7.694305707784447
100
AcDbArc
 50
73.65710669401501
 51
106.342893305985
  0
ARC
  5
1EFA
330
1E
100
AcDbEntity
  8
STEMPEL
100
AcDbCircle
 10
98.40182310087209
 20
595.6265593245131
 30
0.0
 40
30.31088913245485
100
AcDbArc
 50
81.78678929826174
 51
98.21321070173826
  0
LINE
  5
1EFB
330
1E
100
AcDbEntity
  8
MITTEL
100
AcDbLine
 10
98.40182310087209
 20
634.4374484569674
 30
0.0
 11
98.40182310087209
 21
604.4374484569673
 31
0.0
  0
HATCH
  5
1F4C
330
1E
100
AcDbEntity
  8
SCHRAFF
100
AcDbHatch
 10
0.0
 20
0.0
 30
0.0
210
0.0
220
0.0
230
1.0
  2
NET
 70
     0
 71
     1
 91
        4
 92
        7
 72
     0
 73
     1
 93
        4
 10
390.401823100872
 20
607.4374484569675
 10
322.1909306164036
 20
607.4374484569676
 10
322.1909306164036
 20
604.437448456967
 10
390.401823100872
 20
604.4374484569669
 97
        4
330
1A7E
330
1BC9
330
1A81
330
1C18
 92
        7
 72
     0
 73
     1
 93
        4
 10
322.1909306164036
 20
607.4374484569678
 10
320.4018231008719
 20
607.4374484569678
 10
320.401823100872
 20
604.4374484569669
 10
322.1909306164036
 20
604.4374484569669
 97
        4
330
1A7E
330
1BD2
330
1A81
330
1BC9
 92
        7
 72
     0
 73
     1
 93
        4
 10
130.401823100872
 20
607.4374484569678
 10
105.401823100872
 20
607.4374484569678
 10
105.4018231008719
 20
604.4374484569678
 10
130.401823100872
 20
604.4374484569677
 97
        4
330
1A7E
330
1AA9
330
1A81
330
1AAD
 92
        7
 72
     0
 73
     1
 93
        4
 10
91.40182310087196
 20
607.4374484569678
 10
60.40182310087198
 20
607.4374484569676
 10
60.40182310087199
 20
604.4374484569678
 10
91.40182310087197
 20
604.4374484569678
 97
        4
330
1A87
330
1A8D
330
1A81
330
1AA3
 75
     0
 76
     1
 52
45.0
 41
15.0
 77
     0
 78
     2
 53
45.0
 43
0.0
 44
0.0
 45
-1.325825214724776
 46
1.325825214724776
 79
     0
 53
135.0
 43
0.0
 44
0.0
 45
-1.325825214724776
 46
-1.325825214724776
 79
     0
 47
0.3736509767676685
 98
        4
 10
336.3606844672299
 20
606.8511127734175
 10
321.03579817635
 20
606.8511127734175
 10
112.467805549435
 20
606.8511127734175
 10
83.68691984121097
 20
606.1038122266416
  0
LINE
  5
1F56
102
{ACAD_REACTORS
330
1F6E
102
}
330
1E
100
AcDbEntity
  8
STEMPEL
100
AcDbLine
 10
103.4018231008722
 20
359.7895290139174
 30
0.0
 11
152.7287596047984
 21
359.7895290139174
 31
0.0
  0
LINE
  5
1F57
102
{ACAD_REACTORS
330
1F6E
102
}
330
1E
100
AcDbEntity
  8
STEMPEL
100
AcDbLine
 10
60.40182310087198
 20
359.7895290139177
 30
0.0
 11
93.4018231008722
 21
359.7895290139177
 31
0.0
  0
LINE
  5
1F58
102
{ACAD_REACTORS
330
1F6E
102
}
330
1E
100
AcDbEntity
  8
STEMPEL
100
AcDbLine
 10
298.0748865969586
 20
359.789529013917
 30
0.0
 11
390.401823100872
 21
359.7895290139167
 31
0.0
  0
HATCH
  5
1F6E
330
1E
100
AcDbEntity
  8
SCHRAFF
100
AcDbHatch
 10
0.0
 20
0.0
 30
0.0
210
0.0
220
0.0
230
1.0
  2
NET
 70
     0
 71
     1
 91
        4
 92
        7
 72
     0
 73
     1
 93
        5
 10
390.401823100872
 20
359.7895290139168
 10
326.1576973178583
 20
359.7895290139169
 10
326.1576973178584
 20
356.789529013917
 10
384.0378620701928
 20
356.7895290139168
 10
390.401823100872
 20
356.7895290139168
 97
        5
330
1F58
330
1A3C
330
1A06
330
1A01
330
1A65
 92
        7
 72
     0
 73
     1
 93
        4
 10
326.1576973178584
 20
359.7895290139169
 10
320.4018231008719
 20
359.7895290139169
 10
320.401823100872
 20
356.789529013917
 10
326.1576973178583
 20
356.789529013917
 97
        4
330
1F58
330
1A3E
330
1A06
330
1A3C
 92
        7
 72
     0
 73
     1
 93
        4
 10
130.401823100872
 20
359.7895290139174
 10
105.4018231008722
 20
359.7895290139174
 10
105.4018231008722
 20
356.7895290139177
 10
130.401823100872
 20
356.7895290139176
 97
        4
330
1F56
330
19C0
330
198B
330
19CC
 92
        7
 72
     0
 73
     1
 93
        4
 10
91.40182310087221
 20
359.7895290139176
 10
60.40182310087199
 20
359.7895290139177
 10
60.40182310087199
 20
356.7895290139177
 10
91.40182310087219
 20
356.7895290139177
 97
        4
330
1F57
330
1991
330
198B
330
19AE
 75
     0
 76
     1
 52
45.0
 41
15.0
 77
     0
 78
     2
 53
45.0
 43
0.0
 44
0.0
 45
-1.325825214724776
 46
1.325825214724776
 79
     0
 53
135.0
 43
0.0
 44
0.0
 45
-1.325825214724776
 46
-1.325825214724776
 79
     0
 47
0.3454887059152047
 98
        4
 10
379.8579006942168
 20
357.9894704880812
 10
324.5609494767109
 20
359.0259376811125
 10
108.9028470239964
 20
358.6804473127977
 10
88.16649280455431
 20
358.3349589004395
  0
ENDSEC
  0
SECTION
  2
OBJECTS
  0
DICTIONARY
  5
C
330
0
100
AcDbDictionary
281
     1
  3
ACAD_COLOR
350
11A
  3
ACAD_GROUP
350
D
  3
ACAD_LAYOUT
350
19
  3
ACAD_MATERIAL
350
119
  3
ACAD_MLINESTYLE
350
16
  3
ACAD_PLOTSETTINGS
350
18
  3
ACAD_PLOTSTYLENAME
350
E
  3
AcDbVariableDictionary
350
125
  0
DICTIONARY
  5
DB
330
1E
100
AcDbDictionary
280
     1
281
     1
  3
ACAD_LAYOUTSELFREF
360
10F
  0
DICTIONARY
  5
DD
330
1A
100
AcDbDictionary
280
     1
281
     1
  3
ACAD_LAYOUTSELFREF
360
10E
  0
DICTIONARY
  5
11A
102
{ACAD_REACTORS
330
C
102
}
330
C
100
AcDbDictionary
281
     1
  0
DICTIONARY
  5
D
102
{ACAD_REACTORS
330
C
102
}
330
C
100
AcDbDictionary
281
     1
  0
DICTIONARY
  5
19
102
{ACAD_REACTORS
330
C
102
}
330
C
100
AcDbDictionary
281
     1
  3
Layout1
350
1D
  3
Model
350
21
  0
DICTIONARY
  5
119
102
{ACAD_REACTORS
330
C
102
}
330
C
100
AcDbDictionary
281
     1
  0
DICTIONARY
  5
16
102
{ACAD_REACTORS
330
C
102
}
330
C
100
AcDbDictionary
281
     1
  3
Standard
350
17
  0
DICTIONARY
  5
18
102
{ACAD_REACTORS
330
C
102
}
330
C
100
AcDbDictionary
281
     1
  0
ACDBDICTIONARYWDFLT
  5
E
102
{ACAD_REACTORS
330
C
102
}
330
C
100
AcDbDictionary
281
     1
  3
Normal
350
F
100
AcDbDictionaryWithDefault
340
F
  0
DICTIONARY
  5
125
102
{ACAD_REACTORS
330
C
102
}
330
C
100
AcDbDictionary
281
     1
  3
DIMASSOC
350
126
  3
PROJECTNAME
350
127
  0
XRECORD
  5
10F
102
{ACAD_REACTORS
330
DB
102
}
330
DB
100
AcDbXrecord
280
     1
340
1E
  0
XRECORD
  5
10E
102
{ACAD_REACTORS
330
DD
102
}
330
DD
100
AcDbXrecord
280
     1
340
1A
  0
LAYOUT
  5
1D
102
{ACAD_REACTORS
330
19
102
}
330
19
100
AcDbPlotSettings
  1

  2
\\NT_WORK01\HP LaserJet 5000 PCL 6
  4

  6

 40
0.0
 41
0.0
 42
0.0
 43
0.0
 44
0.0
 45
0.0
 46
0.0
 47
0.0
 48
0.0
 49
0.0
140
0.0
141
0.0
142
1.0
143
1.0
 70
   688
 72
     0
 73
     0
 74
     5
  7

 75
    16
147
1.0
 76
     0
 77
     2
 78
   300
148
0.0
149
0.0
100
AcDbLayout
  1
Layout1
 70
     0
 71
     1
 10
0.0
 20
0.0
 11
12.0
 21
9.0
 12
0.0
 22
0.0
 32
0.0
 14
1.000000000000000E+20
 24
1.000000000000000E+20
 34
1.000000000000000E+20
 15
-1.000000000000000E+20
 25
-1.000000000000000E+20
 35
-1.000000000000000E+20
146
0.0
 13
0.0
 23
0.0
 33
0.0
 16
1.0
 26
0.0
 36
0.0
 17
0.0
 27
1.0
 37
0.0
 76
     0
330
1A
  0
LAYOUT
  5
21
102
{ACAD_REACTORS
330
19
102
}
330
19
100
AcDbPlotSettings
  1

  2
none_device
  4
Letter_(8.50_x_11.00_Inches)
  6

 40
6.349999904632568
 41
6.349999904632568
 42
6.350006103515625
 43
6.350006103515625
 44
215.8999938964844
 45
279.3999938964844
 46
0.0
 47
0.0
 48
0.0
 49
0.0
140
0.0
141
0.0
142
1.0
143
1.0
 70
 11952
 72
     0
 73
     1
 74
     0
  7

 75
     0
147
1.0
 76
     0
 77
     2
 78
   300
148
3124.2
149
0.0
100
AcDbLayout
  1
Model
 70
     1
 71
     0
 10
0.0
 20
0.0
 11
12.0
 21
9.0
 12
0.0
 22
0.0
 32
0.0
 14
0.0
 24
0.0
 34
0.0
 15
0.0
 25
0.0
 35
0.0
146
0.0
 13
0.0
 23
0.0
 33
0.0
 16
1.0
 26
0.0
 36
0.0
 17
0.0
 27
1.0
 37
0.0
 76
     0
330
1E
  0
MLINESTYLE
  5
17
102
{ACAD_REACTORS
330
16
102
}
330
16
100
AcDbMlineStyle
  2
STANDARD
 70
     0
  3

 62
   256
 51
90.0
 52
90.0
 71
     2
 49
0.5
 62
   256
  6
BYLAYER
 49
-0.5
 62
   256
  6
BYLAYER
  0
ACDBPLACEHOLDER
  5
F
102
{ACAD_REACTORS
330
E
102
}
330
E
  0
DICTIONARYVAR
  5
126
102
{ACAD_REACTORS
330
125
102
}
330
125
100
DictionaryVariables
280
     0
  1
1
  0
DICTIONARYVAR
  5
127
102
{ACAD_REACTORS
330
125
102
}
330
125
100
DictionaryVariables
280
     0
  1

  0
ENDSEC
  0
EOF
