  0
SECTION
  2
HEADER
  9
$ACADVER
  1
AC1018
  9
$ACADMAINTVER
 70
     2
  9
$DWGCODEPAGE
  3
ANSI_1252
  9
$INSBASE
 10
0.0
 20
0.0
 30
0.0
  9
$EXTMIN
 10
-0.0090573584943741
 20
-0.0128083857496222
 30
-0.0000000000112498
  9
$EXTMAX
 10
594.0090656570853
 20
840.0128201211312
 30
0.0000000000002956
  9
$LIMMIN
 10
0.0
 20
0.0
  9
$LIMMAX
 10
594.0
 20
840.0
  9
$ORTHOMODE
 70
     1
  9
$REGENMODE
 70
     1
  9
$FILLMODE
 70
     1
  9
$QTEXTMODE
 70
     0
  9
$MIRRTEXT
 70
     1
  9
$LTSCALE
 40
20.0
  9
$ATTMODE
 70
     1
  9
$TEXTSIZE
 40
3.5
  9
$TRACEWID
 40
1.0
  9
$TEXTSTYLE
  7
STANDARD
  9
$CLAYER
  8
VOLL
  9
$CELTYPE
  6
ByLayer
  9
$CECOLOR
 62
   256
  9
$CELTSCALE
 40
1.0
  9
$DISPSILH
 70
     0
  9
$DIMSCALE
 40
2.0
  9
$DIMASZ
 40
3.5
  9
$DIMEXO
 40
1.0
  9
$DIMDLI
 40
7.0
  9
$DIMRND
 40
0.0
  9
$DIMDLE
 40
0.0
  9
$DIMEXE
 40
1.0
  9
$DIMTP
 40
0.0
  9
$DIMTM
 40
0.0
  9
$DIMTXT
 40
3.5
  9
$DIMCEN
 40
1.5
  9
$DIMTSZ
 40
0.0
  9
$DIMTOL
 70
     0
  9
$DIMLIM
 70
     0
  9
$DIMTIH
 70
     0
  9
$DIMTOH
 70
     0
  9
$DIMSE1
 70
     0
  9
$DIMSE2
 70
     0
  9
$DIMTAD
 70
     1
  9
$DIMZIN
 70
     8
  9
$DIMBLK
  1

  9
$DIMASO
 70
     1
  9
$DIMSHO
 70
     0
  9
$DIMPOST
  1

  9
$DIMAPOST
  1

  9
$DIMALT
 70
     0
  9
$DIMALTD
 70
     2
  9
$DIMALTF
 40
25.4
  9
$DIMLFAC
 40
1.0
  9
$DIMTOFL
 70
     1
  9
$DIMTVP
 40
0.0
  9
$DIMTIX
 70
     0
  9
$DIMSOXD
 70
     0
  9
$DIMSAH
 70
     0
  9
$DIMBLK1
  1

  9
$DIMBLK2
  1

  9
$DIMSTYLE
  2
Standard
  9
$DIMCLRD
 70
     0
  9
$DIMCLRE
 70
     0
  9
$DIMCLRT
 70
     1
  9
$DIMTFAC
 40
0.5142857142857144
  9
$DIMGAP
 40
1.5
  9
$DIMJUST
 70
     0
  9
$DIMSD1
 70
     0
  9
$DIMSD2
 70
     0
  9
$DIMTOLJ
 70
     1
  9
$DIMTZIN
 70
     8
  9
$DIMALTZ
 70
     8
  9
$DIMALTTZ
 70
     8
  9
$DIMUPT
 70
     0
  9
$DIMDEC
 70
     2
  9
$DIMTDEC
 70
     2
  9
$DIMALTU
 70
     2
  9
$DIMALTTD
 70
     2
  9
$DIMTXSTY
  7
STANDARD
  9
$DIMAUNIT
 70
     0
  9
$DIMADEC
 70
     2
  9
$DIMALTRND
 40
0.0
  9
$DIMAZIN
 70
     2
  9
$DIMDSEP
 70
    46
  9
$DIMATFIT
 70
     3
  9
$DIMFRAC
 70
     0
  9
$DIMLDRBLK
  1

  9
$DIMLUNIT
 70
     2
  9
$DIMLWD
 70
    -2
  9
$DIMLWE
 70
    -2
  9
$DIMTMOVE
 70
     0
  9
$LUNITS
 70
     2
  9
$LUPREC
 70
     2
  9
$SKETCHINC
 40
1.0
  9
$FILLETRAD
 40
0.0
  9
$AUNITS
 70
     0
  9
$AUPREC
 70
     0
  9
$MENU
  1
ACAD
  9
$ELEVATION
 40
0.0
  9
$PELEVATION
 40
0.0
  9
$THICKNESS
 40
0.0
  9
$LIMCHECK
 70
     0
  9
$CHAMFERA
 40
0.0
  9
$CHAMFERB
 40
0.0
  9
$CHAMFERC
 40
0.0
  9
$CHAMFERD
 40
0.0
  9
$SKPOLY
 70
     0
  9
$TDCREATE
 40
2455397.825393172
  9
$TDUCREATE
 40
2455397.783726505
  9
$TDUPDATE
 40
2455502.412233276
  9
$TDUUPDATE
 40
2455502.370566609
  9
$TDINDWG
 40
0.0567049653
  9
$TDUSRTIMER
 40
0.0567049653
  9
$USRTIMER
 70
     1
  9
$ANGBASE
 50
0.0
  9
$ANGDIR
 70
     0
  9
$PDMODE
 70
     0
  9
$PDSIZE
 40
0.0
  9
$PLINEWID
 40
0.0
  9
$SPLFRAME
 70
     0
  9
$SPLINETYPE
 70
     6
  9
$SPLINESEGS
 70
     8
  9
$HANDSEED
  5
A98
  9
$SURFTAB1
 70
     6
  9
$SURFTAB2
 70
     6
  9
$SURFTYPE
 70
     6
  9
$SURFU
 70
     6
  9
$SURFV
 70
     6
  9
$UCSBASE
  2

  9
$UCSNAME
  2

  9
$UCSORG
 10
0.0
 20
0.0
 30
0.0
  9
$UCSXDIR
 10
1.0
 20
0.0
 30
0.0
  9
$UCSYDIR
 10
0.0
 20
1.0
 30
0.0
  9
$UCSORTHOREF
  2

  9
$UCSORTHOVIEW
 70
     0
  9
$UCSORGTOP
 10
0.0
 20
0.0
 30
0.0
  9
$UCSORGBOTTOM
 10
0.0
 20
0.0
 30
0.0
  9
$UCSORGLEFT
 10
0.0
 20
0.0
 30
0.0
  9
$UCSORGRIGHT
 10
0.0
 20
0.0
 30
0.0
  9
$UCSORGFRONT
 10
0.0
 20
0.0
 30
0.0
  9
$UCSORGBACK
 10
0.0
 20
0.0
 30
0.0
  9
$PUCSBASE
  2

  9
$PUCSNAME
  2

  9
$PUCSORG
 10
0.0
 20
0.0
 30
0.0
  9
$PUCSXDIR
 10
1.0
 20
0.0
 30
0.0
  9
$PUCSYDIR
 10
0.0
 20
1.0
 30
0.0
  9
$PUCSORTHOREF
  2

  9
$PUCSORTHOVIEW
 70
     0
  9
$PUCSORGTOP
 10
0.0
 20
0.0
 30
0.0
  9
$PUCSORGBOTTOM
 10
0.0
 20
0.0
 30
0.0
  9
$PUCSORGLEFT
 10
0.0
 20
0.0
 30
0.0
  9
$PUCSORGRIGHT
 10
0.0
 20
0.0
 30
0.0
  9
$PUCSORGFRONT
 10
0.0
 20
0.0
 30
0.0
  9
$PUCSORGBACK
 10
0.0
 20
0.0
 30
0.0
  9
$USERI1
 70
     0
  9
$USERI2
 70
     0
  9
$USERI3
 70
     0
  9
$USERI4
 70
     0
  9
$USERI5
 70
     0
  9
$USERR1
 40
0.0
  9
$USERR2
 40
0.0
  9
$USERR3
 40
0.0
  9
$USERR4
 40
0.0
  9
$USERR5
 40
0.0
  9
$WORLDVIEW
 70
     1
  9
$SHADEDGE
 70
     3
  9
$SHADEDIF
 70
    70
  9
$TILEMODE
 70
     1
  9
$MAXACTVP
 70
    16
  9
$PINSBASE
 10
0.0
 20
0.0
 30
0.0
  9
$PLIMCHECK
 70
     0
  9
$PEXTMIN
 10
1.000000000000000E+20
 20
1.000000000000000E+20
 30
1.000000000000000E+20
  9
$PEXTMAX
 10
-1.000000000000000E+20
 20
-1.000000000000000E+20
 30
-1.000000000000000E+20
  9
$PLIMMIN
 10
0.0
 20
0.0
  9
$PLIMMAX
 10
12.0
 20
9.0
  9
$UNITMODE
 70
     0
  9
$VISRETAIN
 70
     0
  9
$PLINEGEN
 70
     0
  9
$PSLTSCALE
 70
     0
  9
$TREEDEPTH
 70
  3020
  9
$CMLSTYLE
  2
Standard
  9
$CMLJUST
 70
     0
  9
$CMLSCALE
 40
1.0
  9
$PROXYGRAPHICS
 70
     1
  9
$MEASUREMENT
 70
     0
  9
$CELWEIGHT
370
    -1
  9
$ENDCAPS
280
     0
  9
$JOINSTYLE
280
     0
  9
$LWDISPLAY
290
     0
  9
$INSUNITS
 70
     0
  9
$HYPERLINKBASE
  1

  9
$STYLESHEET
  1
monochrome 1.ctb
  9
$XEDIT
290
     1
  9
$CEPSNTYPE
380
     0
  9
$PSTYLEMODE
290
     1
  9
$FINGERPRINTGUID
  2
{D68B0D0D-A558-11D7-B632-000102183313}
  9
$VERSIONGUID
  2
{547D4FB0-659C-4487-A3C3-72D3E24EFF13}
  9
$EXTNAMES
290
     1
  9
$PSVPSCALE
 40
0.0
  9
$OLESTARTUP
290
     0
  9
$SORTENTS
280
   127
  9
$INDEXCTL
280
     0
  9
$HIDETEXT
280
     0
  9
$XCLIPFRAME
290
     0
  9
$HALOGAP
280
     0
  9
$OBSCOLOR
 70
   257
  9
$OBSLTYPE
280
     0
  9
$INTERSECTIONDISPLAY
280
     0
  9
$INTERSECTIONCOLOR
 70
   257
  9
$DIMASSOC
280
     1
  9
$PROJECTNAME
  1

  0
ENDSEC
  0
SECTION
  2
CLASSES
  0
CLASS
  1
ACDBDICTIONARYWDFLT
  2
AcDbDictionaryWithDefault
  3
ObjectDBX Classes
 90
        0
 91
        1
280
     0
281
     0
  0
CLASS
  1
DICTIONARYVAR
  2
AcDbDictionaryVar
  3
ObjectDBX Classes
 90
        0
 91
        2
280
     0
281
     0
  0
ENDSEC
  0
SECTION
  2
TABLES
  0
TABLE
  2
VPORT
  5
8
330
0
100
AcDbSymbolTable
 70
     2
  0
VPORT
  5
A97
330
8
100
AcDbSymbolTableRecord
100
AcDbViewportTableRecord
  2
*Active
 70
     0
 10
0.0
 20
0.0
 11
1.0
 21
1.0
 12
297.0000041492954
 22
420.0000058676908
 13
0.0
 23
0.0
 14
1.0
 24
1.0
 15
10.0
 25
10.0
 16
0.0
 26
0.0
 36
1.0
 17
0.0
 27
0.0
 37
0.0
 40
846.8091463683093
 41
1.336927223719676
 42
50.0
 43
0.0
 44
0.0
 50
0.0
 51
0.0
 71
     0
 72
  1500
 73
     1
 74
     0
 75
     0
 76
     0
 77
     0
 78
     0
281
     0
 65
     1
110
0.0
120
0.0
130
0.0
111
1.0
121
0.0
131
0.0
112
0.0
122
1.0
132
0.0
 79
     0
146
0.0
  0
ENDTAB
  0
TABLE
  2
LTYPE
  5
5
330
0
100
AcDbSymbolTable
 70
     3
  0
LTYPE
  5
13
330
5
100
AcDbSymbolTableRecord
100
AcDbLinetypeTableRecord
  2
ByBlock
 70
     0
  3

 72
    65
 73
     0
 40
0.0
  0
LTYPE
  5
14
330
5
100
AcDbSymbolTableRecord
100
AcDbLinetypeTableRecord
  2
ByLayer
 70
     0
  3

 72
    65
 73
     0
 40
0.0
  0
LTYPE
  5
15
330
5
100
AcDbSymbolTableRecord
100
AcDbLinetypeTableRecord
  2
Continuous
 70
     0
  3
Solid line
 72
    65
 73
     0
 40
0.0
  0
LTYPE
  5
25
330
5
100
AcDbSymbolTableRecord
100
AcDbLinetypeTableRecord
  2
STRICHPUNKT
 70
     0
  3
__ . __ . __ . __ . __ . __ . __ . __ . __ . __
 72
    65
 73
     4
 40
1.0
 49
0.5
 74
     0
 49
-0.25
 74
     0
 49
0.0
 74
     0
 49
-0.25
 74
     0
  0
LTYPE
  5
34
330
5
100
AcDbSymbolTableRecord
100
AcDbLinetypeTableRecord
  2
AUSGEZOGEN
 70
     0
  3
Ausgezogene Linie
 72
    65
 73
     0
 40
0.0
  0
ENDTAB
  0
TABLE
  2
LAYER
  5
2
330
0
100
AcDbSymbolTable
 70
     9
  0
LAYER
  5
10
330
2
100
AcDbSymbolTableRecord
100
AcDbLayerTableRecord
  2
0
 70
     0
 62
     7
  6
Continuous
370
    -3
390
F
  0
LAYER
  5
2B
330
2
100
AcDbSymbolTableRecord
100
AcDbLayerTableRecord
  2
VOLL
 70
     0
 62
     1
  6
Continuous
370
    -3
390
F
  0
LAYER
  5
2C
330
2
100
AcDbSymbolTableRecord
100
AcDbLayerTableRecord
  2
HILF
 70
     0
 62
     2
  6
Continuous
370
    -3
390
F
  0
LAYER
  5
2D
330
2
100
AcDbSymbolTableRecord
100
AcDbLayerTableRecord
  2
MITTEL
 70
     0
 62
     2
  6
STRICHPUNKT
370
    -3
390
F
  0
LAYER
  5
2F
330
2
100
AcDbSymbolTableRecord
100
AcDbLayerTableRecord
  2
BEM
 70
     0
 62
     7
  6
Continuous
370
    -3
390
F
  0
LAYER
  5
30
330
2
100
AcDbSymbolTableRecord
100
AcDbLayerTableRecord
  2
STEMPEL
 70
     0
 62
     3
  6
Continuous
370
    -3
390
F
  0
LAYER
  5
33
330
2
100
AcDbSymbolTableRecord
100
AcDbLayerTableRecord
  2
TEXT
 70
     0
 62
     7
  6
Continuous
370
    -3
390
F
  0
LAYER
  5
1F5
330
2
100
AcDbSymbolTableRecord
100
AcDbLayerTableRecord
  2
DEFPOINTS
 70
     0
 62
     7
  6
AUSGEZOGEN
290
     0
370
    -3
390
F
  0
LAYER
  5
1F6
330
2
100
AcDbSymbolTableRecord
100
AcDbLayerTableRecord
  2
SCHRAFF
 70
     0
 62
     7
  6
AUSGEZOGEN
370
    -3
390
F
  0
ENDTAB
  0
TABLE
  2
STYLE
  5
3
330
0
100
AcDbSymbolTable
 70
     2
  0
STYLE
  5
11
330
3
100
AcDbSymbolTableRecord
100
AcDbTextStyleTableRecord
  2
STANDARD
 70
     0
 40
0.0
 41
0.8
 50
0.0
 71
     0
 42
3.5
  3
simplex.shx
  4

  0
STYLE
  5
24
330
3
100
AcDbSymbolTableRecord
100
AcDbTextStyleTableRecord
  2
GREEKS
 70
     0
 40
0.0
 41
0.8
 50
0.0
 71
     0
 42
2.5
  3
SIMPLEX.shx
  4

  0
ENDTAB
  0
TABLE
  2
VIEW
  5
6
330
0
100
AcDbSymbolTable
 70
     0
  0
ENDTAB
  0
TABLE
  2
UCS
  5
7
330
0
100
AcDbSymbolTable
 70
     0
  0
ENDTAB
  0
TABLE
  2
APPID
  5
9
330
0
100
AcDbSymbolTable
 70
     1
  0
APPID
  5
12
330
9
100
AcDbSymbolTableRecord
100
AcDbRegAppTableRecord
  2
ACAD
 70
     0
  0
ENDTAB
  0
TABLE
  2
DIMSTYLE
  5
A
330
0
100
AcDbSymbolTable
 70
     1
100
AcDbDimStyleTable
 71
     1
340
A2
  0
DIMSTYLE
105
A2
102
{ACAD_REACTORS
330
59C
330
4A8
330
4AB
330
4B3
330
4BD
330
522
330
583
330
58C
330
597
102
}
330
A
100
AcDbSymbolTableRecord
100
AcDbDimStyleTableRecord
  2
Standard
 70
     0
340
11
  0
ENDTAB
  0
TABLE
  2
BLOCK_RECORD
  5
1
330
0
100
AcDbSymbolTable
 70
    11
  0
BLOCK_RECORD
  5
1E
102
{ACAD_XDICTIONARY
360
DB
102
}
330
1
100
AcDbSymbolTableRecord
100
AcDbBlockTableRecord
  2
*Model_Space
340
21
  0
BLOCK_RECORD
  5
1A
102
{ACAD_XDICTIONARY
360
DD
102
}
330
1
100
AcDbSymbolTableRecord
100
AcDbBlockTableRecord
  2
*Paper_Space
340
1D
  0
BLOCK_RECORD
  5
22
330
1
100
AcDbSymbolTableRecord
100
AcDbBlockTableRecord
  2
LOGO
340
0
102
{BLKREFS
331
56
102
}
  0
BLOCK_RECORD
  5
23
330
1
100
AcDbSymbolTableRecord
100
AcDbBlockTableRecord
  2
LORO
340
0
102
{BLKREFS
331
9B
102
}
  0
BLOCK_RECORD
  5
745
330
1
100
AcDbSymbolTableRecord
100
AcDbBlockTableRecord
  2
*D2
340
0
  0
BLOCK_RECORD
  5
751
330
1
100
AcDbSymbolTableRecord
100
AcDbBlockTableRecord
  2
*D3
340
0
  0
BLOCK_RECORD
  5
75D
330
1
100
AcDbSymbolTableRecord
100
AcDbBlockTableRecord
  2
*D4
340
0
  0
BLOCK_RECORD
  5
76E
330
1
100
AcDbSymbolTableRecord
100
AcDbBlockTableRecord
  2
*D5
340
0
  0
BLOCK_RECORD
  5
77A
330
1
100
AcDbSymbolTableRecord
100
AcDbBlockTableRecord
  2
*D6
340
0
  0
BLOCK_RECORD
  5
786
330
1
100
AcDbSymbolTableRecord
100
AcDbBlockTableRecord
  2
*D7
340
0
  0
BLOCK_RECORD
  5
792
330
1
100
AcDbSymbolTableRecord
100
AcDbBlockTableRecord
  2
*D8
340
0
  0
BLOCK_RECORD
  5
79E
330
1
100
AcDbSymbolTableRecord
100
AcDbBlockTableRecord
  2
*D9
340
0
  0
BLOCK_RECORD
  5
7AA
330
1
100
AcDbSymbolTableRecord
100
AcDbBlockTableRecord
  2
*D10
340
0
  0
ENDTAB
  0
ENDSEC
  0
SECTION
  2
BLOCKS
  0
BLOCK
  5
37
330
1E
100
AcDbEntity
  8
0
100
AcDbBlockBegin
  2
*Model_Space
 70
     0
 10
0.0
 20
0.0
 30
0.0
  3
*Model_Space
  1

  0
ENDBLK
  5
38
330
1E
100
AcDbEntity
  8
0
100
AcDbBlockEnd
  0
BLOCK
  5
35
330
1A
100
AcDbEntity
 67
     1
  8
0
100
AcDbBlockBegin
  2
*Paper_Space
 70
     0
 10
0.0
 20
0.0
 30
0.0
  3
*Paper_Space
  1

  0
ENDBLK
  5
36
330
1A
100
AcDbEntity
 67
     1
  8
0
100
AcDbBlockEnd
  0
BLOCK
  5
39
330
22
100
AcDbEntity
  8
0
100
AcDbBlockBegin
  2
LOGO
 70
     0
 10
0.0
 20
0.0
 30
0.0
  3
LOGO
  1

  0
ARC
  5
3A
330
22
100
AcDbEntity
  8
0
100
AcDbCircle
 10
11.59973089678112
 20
-9.271599258481501
 30
0.0
 40
4.5
100
AcDbArc
 50
270.0
 51
231.0575587310159
  0
LINE
  5
3B
330
22
100
AcDbEntity
  8
0
100
AcDbLine
 10
3.599730896781125
 20
-4.771599258481529
 30
0.0
 11
3.599730896781153
 21
-11.77159925848133
 31
0.0
  0
LINE
  5
3C
330
22
100
AcDbEntity
  8
0
100
AcDbLine
 10
2.599730896781125
 20
-4.771599258481529
 30
0.0
 11
2.599730896781153
 21
-11.77159925848133
 31
0.0
  0
CIRCLE
  5
3D
330
22
100
AcDbEntity
  8
0
100
AcDbCircle
 10
11.59973089678112
 20
-9.271599258481501
 30
0.0
 40
3.5
  0
ARC
  5
3E
330
22
100
AcDbEntity
  8
0
100
AcDbCircle
 10
31.59973089678115
 20
-9.271599258481472
 30
0.0
 40
4.5
100
AcDbArc
 50
270.0
 51
231.0575587310182
  0
LINE
  5
3F
330
22
100
AcDbEntity
  8
0
100
AcDbLine
 10
17.59973089678112
 20
-4.771599258481472
 30
0.0
 11
17.59973089678115
 21
-13.77159925848147
 31
0.0
  0
ARC
  5
40
330
22
100
AcDbEntity
  8
0
100
AcDbCircle
 10
22.59973089678116
 20
-7.271599258481472
 30
0.0
 40
2.5
100
AcDbArc
 50
293.1161887722295
 51
90.0
  0
CIRCLE
  5
41
330
22
100
AcDbEntity
  8
0
100
AcDbCircle
 10
31.59973089678115
 20
-9.271599258481472
 30
0.0
 40
3.5
  0
ARC
  5
42
330
22
100
AcDbEntity
  8
0
100
AcDbCircle
 10
4.599730896781153
 20
-11.77159925848133
 30
0.0
 40
1.0
100
AcDbArc
 50
180.0
 51
270.0
  0
ARC
  5
43
330
22
100
AcDbEntity
  8
0
100
AcDbCircle
 10
4.599730896781153
 20
-11.77159925848133
 30
0.0
 40
2.0
100
AcDbArc
 50
179.9999999999992
 51
270.0
  0
LINE
  5
44
330
22
100
AcDbEntity
  8
0
100
AcDbLine
 10
11.59973089678115
 20
-13.77159925848144
 30
0.0
 11
4.599730896781153
 21
-13.77159925848147
 31
0.0
  0
LINE
  5
45
330
22
100
AcDbEntity
  8
0
100
AcDbLine
 10
8.771303772034769
 20
-12.77159925848136
 30
0.0
 11
4.599730896781153
 21
-12.77159925848133
 31
0.0
  0
LINE
  5
46
330
22
100
AcDbEntity
  8
0
100
AcDbLine
 10
31.59973089678115
 20
-13.77159925848147
 30
0.0
 11
23.6715276665056
 21
-13.77159925848144
 31
0.0
  0
LINE
  5
47
330
22
100
AcDbEntity
  8
0
100
AcDbLine
 10
23.56565672307022
 20
-9.51278021337896
 30
0.0
 11
24.4388546544846
 21
-12.77159925848144
 31
0.0
  0
LINE
  5
48
330
22
100
AcDbEntity
  8
0
100
AcDbLine
 10
22.59973089678116
 20
-9.771599258481472
 30
0.0
 11
18.59973089678112
 21
-9.771599258481472
 31
0.0
  0
LINE
  5
49
330
22
100
AcDbEntity
  8
0
100
AcDbLine
 10
18.59973089678115
 20
-13.77159925848144
 30
0.0
 11
17.59973089678115
 21
-13.77159925848144
 31
0.0
  0
LINE
  5
4A
330
22
100
AcDbEntity
  8
0
100
AcDbLine
 10
18.59973089678115
 20
-9.771599258481472
 30
0.0
 11
18.59973089678115
 21
-13.77159925848144
 31
0.0
  0
LINE
  5
4B
330
22
100
AcDbEntity
  8
0
100
AcDbLine
 10
22.59973089678116
 20
-9.771599258481472
 30
0.0
 11
23.67152766650562
 21
-13.77159925848147
 31
0.0
  0
ARC
  5
4C
330
22
100
AcDbEntity
  8
0
100
AcDbCircle
 10
22.59973089678116
 20
-7.271599258481472
 30
0.0
 40
2.5
100
AcDbArc
 50
270.0
 51
270.0000000000007
  0
LINE
  5
4D
330
22
100
AcDbEntity
  8
0
100
AcDbLine
 10
28.77130377203494
 20
-12.77159925848147
 30
0.0
 11
24.43885465448463
 21
-12.77159925848144
 31
0.0
  0
LINE
  5
4E
330
22
100
AcDbEntity
  8
0
100
AcDbLine
 10
3.599730896781125
 20
-4.771599258481472
 30
0.0
 11
2.599730896781125
 21
-4.771599258481472
 31
0.0
  0
LINE
  5
4F
330
22
100
AcDbEntity
  8
0
100
AcDbLine
 10
22.59973089678116
 20
-8.771599258481472
 30
0.0
 11
18.59973089678115
 21
-8.771599258481472
 31
0.0
  0
LINE
  5
50
330
22
100
AcDbEntity
  8
0
100
AcDbLine
 10
22.59973089678116
 20
-5.771599258481472
 30
0.0
 11
18.59973089678115
 21
-5.771599258481472
 31
0.0
  0
LINE
  5
51
330
22
100
AcDbEntity
  8
0
100
AcDbLine
 10
22.59973089678116
 20
-4.771599258481472
 30
0.0
 11
17.59973089678115
 21
-4.771599258481472
 31
0.0
  0
LINE
  5
52
330
22
100
AcDbEntity
  8
0
100
AcDbLine
 10
18.59973089678115
 20
-5.771599258481472
 30
0.0
 11
18.59973089678115
 21
-8.771599258481472
 31
0.0
  0
ARC
  5
53
330
22
100
AcDbEntity
  8
0
100
AcDbCircle
 10
22.59973089678116
 20
-7.271599258481472
 30
0.0
 40
1.5
100
AcDbArc
 50
270.0
 51
90.0
  0
ENDBLK
  5
54
330
22
100
AcDbEntity
  8
0
100
AcDbBlockEnd
  0
BLOCK
  5
55
330
23
100
AcDbEntity
  8
0
100
AcDbBlockBegin
  2
LORO
 70
     0
 10
0.0
 20
0.0
 30
0.0
  3
LORO
  1

  0
INSERT
  5
56
330
23
100
AcDbEntity
  8
STEMPEL
100
AcDbBlockReference
  2
LOGO
 10
-1.748032802467321
 20
3.771489518552062
 30
0.0
  0
ENDBLK
  5
57
330
23
100
AcDbEntity
  8
0
100
AcDbBlockEnd
  0
BLOCK
  5
74F
330
745
100
AcDbEntity
  8
0
100
AcDbBlockBegin
  2
*D2
 70
     1
 10
0.0
 20
0.0
 30
0.0
  3
*D2
  1

  0
LINE
  5
93E
330
745
100
AcDbEntity
  8
BEM
 62
     0
370
    -2
100
AcDbLine
 10
66.40413217564878
 20
609.9374484569677
 30
0.0
 11
29.36656544466679
 21
609.9374484569677
 31
0.0
  0
LINE
  5
93F
330
745
100
AcDbEntity
  8
BEM
 62
     0
370
    -2
100
AcDbLine
 10
143.4041321756489
 20
719.9374484569668
 30
0.0
 11
29.36656544466682
 21
719.9374484569668
 31
0.0
  0
LINE
  5
940
330
745
100
AcDbEntity
  8
BEM
 62
     0
370
    -2
100
AcDbLine
 10
32.36656544466679
 20
616.9374484569678
 30
0.0
 11
32.36656544466681
 21
712.9374484569669
 31
0.0
  0
SOLID
  5
941
330
745
100
AcDbEntity
  8
BEM
 62
     0
100
AcDbTrace
 10
31.19989877800013
 20
616.9374484569678
 30
0.0
 11
33.53323211133345
 21
616.9374484569678
 31
0.0
 12
32.36656544466679
 22
609.9374484569677
 32
0.0
 13
32.36656544466679
 23
609.9374484569677
 33
0.0
  0
SOLID
  5
942
330
745
100
AcDbEntity
  8
BEM
 62
     0
100
AcDbTrace
 10
31.19989877800015
 20
712.9374484569669
 30
0.0
 11
33.53323211133348
 21
712.9374484569669
 31
0.0
 12
32.36656544466681
 22
719.9374484569668
 32
0.0
 13
32.36656544466681
 23
719.9374484569668
 33
0.0
  0
MTEXT
  5
943
330
745
100
AcDbEntity
  8
BEM
 62
     1
100
AcDbMText
 10
26.8665654446667
 20
664.9374484569673
 30
0.0
 40
7.0
 41
0.0
 71
     5
 72
     1
  1
\A1;110
  7
GREEKS
 11
0.0000000000000001
 21
1.0
 31
0.0
 73
     1
 44
1.0
  0
POINT
  5
944
330
745
100
AcDbEntity
  8
DEFPOINTS
 62
     0
100
AcDbPoint
 10
68.40413217564878
 20
609.9374484569677
 30
0.0
  0
POINT
  5
945
330
745
100
AcDbEntity
  8
DEFPOINTS
 62
     0
100
AcDbPoint
 10
145.4041321756489
 20
719.9374484569668
 30
0.0
  0
POINT
  5
946
330
745
100
AcDbEntity
  8
DEFPOINTS
 62
     0
100
AcDbPoint
 10
32.36656544466681
 20
719.9374484569668
 30
0.0
  0
ENDBLK
  5
750
330
745
100
AcDbEntity
  8
0
100
AcDbBlockEnd
  0
BLOCK
  5
75B
330
751
100
AcDbEntity
  8
0
100
AcDbBlockBegin
  2
*D3
 70
     1
 10
0.0
 20
0.0
 30
0.0
  3
*D3
  1

  0
LINE
  5
8C5
330
751
100
AcDbEntity
  8
BEM
 62
     0
370
    -2
100
AcDbLine
 10
225.4041321756483
 20
246.8914738346779
 30
0.0
 11
225.4041321756483
 21
131.0659540437926
 31
0.0
  0
LINE
  5
8C6
330
751
100
AcDbEntity
  8
BEM
 62
     0
370
    -2
100
AcDbLine
 10
510.4041321756484
 20
231.9552567390102
 30
0.0
 11
510.4041321756484
 21
131.0659540437926
 31
0.0
  0
LINE
  5
8C7
330
751
100
AcDbEntity
  8
BEM
 62
     0
370
    -2
100
AcDbLine
 10
232.4041321756483
 20
133.0659540437926
 30
0.0
 11
503.4041321756483
 21
133.0659540437926
 31
0.0
  0
SOLID
  5
8C8
330
751
100
AcDbEntity
  8
BEM
 62
     0
100
AcDbTrace
 10
232.4041321756483
 20
134.2326207104593
 30
0.0
 11
232.4041321756483
 21
131.899287377126
 31
0.0
 12
225.4041321756483
 22
133.0659540437926
 32
0.0
 13
225.4041321756483
 23
133.0659540437926
 33
0.0
  0
SOLID
  5
8C9
330
751
100
AcDbEntity
  8
BEM
 62
     0
100
AcDbTrace
 10
503.4041321756483
 20
134.2326207104593
 30
0.0
 11
503.4041321756483
 21
131.899287377126
 31
0.0
 12
510.4041321756484
 22
133.0659540437926
 32
0.0
 13
510.4041321756484
 23
133.0659540437926
 33
0.0
  0
MTEXT
  5
8CA
330
751
100
AcDbEntity
  8
BEM
 62
     1
100
AcDbMText
 10
367.9041321756483
 20
138.5659540437926
 30
0.0
 40
7.0
 41
0.0
 71
     5
 72
     1
  1
\A1;285
 73
     1
 44
1.0
  0
POINT
  5
8CB
330
751
100
AcDbEntity
  8
DEFPOINTS
 62
     0
100
AcDbPoint
 10
225.4041321756483
 20
248.8914738346779
 30
0.0
  0
POINT
  5
8CC
330
751
100
AcDbEntity
  8
DEFPOINTS
 62
     0
100
AcDbPoint
 10
510.4041321756484
 20
233.9552567390102
 30
0.0
  0
POINT
  5
8CD
330
751
100
AcDbEntity
  8
DEFPOINTS
 62
     0
100
AcDbPoint
 10
510.4041321756484
 20
133.0659540437926
 30
0.0
  0
ENDBLK
  5
75C
330
751
100
AcDbEntity
  8
0
100
AcDbBlockEnd
  0
BLOCK
  5
76C
330
75D
100
AcDbEntity
  8
0
100
AcDbBlockBegin
  2
*D4
 70
     1
 10
0.0
 20
0.0
 30
0.0
  3
*D4
  1

  0
LINE
  5
8B7
330
75D
100
AcDbEntity
  8
BEM
 62
     0
370
    -2
100
AcDbLine
 10
227.404132175657
 20
248.8914738346774
 30
0.0
 11
313.1040245618331
 21
248.8914738346776
 31
0.0
  0
ARC
  5
8B8
330
75D
100
AcDbEntity
  8
BEM
 62
     0
370
    -2
100
AcDbCircle
 10
225.404132175657
 20
248.8914738346774
 30
0.0
 40
85.69989238617614
100
AcDbArc
 50
347.6296785455984
 51
356.9999999999998
  0
LINE
  5
8B9
330
75D
100
AcDbEntity
  8
BEM
 62
     0
370
    -2
100
AcDbLine
 10
309.114362528981
 20
230.5320378630685
 30
0.0
 11
306.8863768362529
 21
220.3734907350094
 31
0.0
  0
ARC
  5
8BA
330
75D
100
AcDbEntity
  8
BEM
 62
     0
370
    -2
100
AcDbCircle
 10
225.404132175657
 20
248.8914738346774
 30
0.0
 40
85.69989238617614
100
AcDbArc
 50
347.6375137352464
 51
352.3187568676231
  0
ARC
  5
8BB
330
75D
100
AcDbEntity
  8
BEM
 62
     0
370
    -2
100
AcDbCircle
 10
225.404132175657
 20
248.8914738346774
 30
0.0
 40
85.69989238617614
100
AcDbArc
 50
4.681243132376922
 51
9.362486264753604
  0
ARC
  5
8BC
330
75D
100
AcDbEntity
  8
BEM
 62
     0
370
    -2
100
AcDbCircle
 10
225.404132175657
 20
248.8914738346774
 30
0.0
 40
85.69989238617614
100
AcDbArc
 50
356.9999999999998
 51
0.0000000000001599
  0
SOLID
  5
8BD
330
75D
100
AcDbEntity
  8
BEM
 62
     0
100
AcDbTrace
 10
309.1734381268902
 20
237.5452645688421
 30
0.0
 11
311.4966423646314
 21
237.3280860381687
 31
0.0
 12
310.9865758377811
 22
244.4062880167292
 32
0.0
 13
310.9865758377811
 23
244.4062880167292
 33
0.0
  0
SOLID
  5
8BE
330
75D
100
AcDbEntity
  8
BEM
 62
     0
100
AcDbTrace
 10
311.9838365292642
 20
255.9332805639962
 30
0.0
 11
309.6524499161106
 21
255.8379867842809
 31
0.0
 12
311.1040245618332
 22
248.8914738346776
 32
0.0
 13
311.1040245618332
 23
248.8914738346776
 33
0.0
  0
MTEXT
  5
8BF
330
75D
100
AcDbEntity
  8
BEM
 62
     1
100
AcDbMText
 10
302.6280611052779
 20
226.6310259634625
 30
0.0
 40
7.0
 41
0.0
 71
     5
 72
     1
  1
\A1;3°
 11
0.2142293935315425
 21
0.9767833776979967
 31
0.0
 73
     1
 44
1.0
  0
POINT
  5
8C0
330
75D
100
AcDbEntity
  8
DEFPOINTS
 62
     0
100
AcDbPoint
 10
311.0909720531259
 20
247.3958044811225
 30
0.0
  0
POINT
  5
8C1
330
75D
100
AcDbEntity
  8
DEFPOINTS
 62
     0
100
AcDbPoint
 10
513.4000207799121
 20
233.7982488702813
 30
0.0
  0
POINT
  5
8C2
330
75D
100
AcDbEntity
  8
DEFPOINTS
 62
     0
100
AcDbPoint
 10
225.4041321756483
 20
248.8914738346774
 30
0.0
  0
POINT
  5
8C3
330
75D
100
AcDbEntity
  8
DEFPOINTS
 62
     0
100
AcDbPoint
 10
223.4041321756483
 20
248.8914738346774
 30
0.0
  0
POINT
  5
8C4
330
75D
100
AcDbEntity
  8
DEFPOINTS
 62
     0
100
AcDbPoint
 10
225.4041321756483
 20
248.8914738346778
 30
0.0
  0
ENDBLK
  5
76D
330
75D
100
AcDbEntity
  8
0
100
AcDbBlockEnd
  0
BLOCK
  5
778
330
76E
100
AcDbEntity
  8
0
100
AcDbBlockBegin
  2
*D5
 70
     1
 10
0.0
 20
0.0
 30
0.0
  3
*D5
  1

  0
LINE
  5
97E
330
76E
100
AcDbEntity
  8
BEM
 62
     0
370
    -2
100
AcDbLine
 10
66.40413217564878
 20
362.2895290139177
 30
0.0
 11
30.36656544466675
 21
362.2895290139177
 31
0.0
  0
LINE
  5
97F
330
76E
100
AcDbEntity
  8
BEM
 62
     0
370
    -2
100
AcDbLine
 10
58.40413217564878
 20
604.4374484569678
 30
0.0
 11
30.3665654446668
 21
604.4374484569678
 31
0.0
  0
LINE
  5
980
330
76E
100
AcDbEntity
  8
BEM
 62
     0
370
    -2
100
AcDbLine
 10
32.36656544466675
 20
369.2895290139177
 30
0.0
 11
32.3665654446668
 21
597.4374484569677
 31
0.0
  0
SOLID
  5
981
330
76E
100
AcDbEntity
  8
BEM
 62
     0
100
AcDbTrace
 10
31.19989877800008
 20
369.2895290139177
 30
0.0
 11
33.53323211133341
 21
369.2895290139177
 31
0.0
 12
32.36656544466674
 22
362.2895290139177
 32
0.0
 13
32.36656544466674
 23
362.2895290139177
 33
0.0
  0
SOLID
  5
982
330
76E
100
AcDbEntity
  8
BEM
 62
     0
100
AcDbTrace
 10
31.19989877800013
 20
597.4374484569677
 30
0.0
 11
33.53323211133346
 21
597.4374484569677
 31
0.0
 12
32.3665654446668
 22
604.4374484569678
 32
0.0
 13
32.3665654446668
 23
604.4374484569678
 33
0.0
  0
MTEXT
  5
983
330
76E
100
AcDbEntity
  8
BEM
 62
     1
100
AcDbMText
 10
26.86656544466669
 20
483.3634887354427
 30
0.0
 40
7.0
 41
0.0
 71
     5
 72
     1
  1
\A1;min.35 - max.240
  7
GREEKS
 11
0.0000000000000001
 21
1.0
 31
0.0
 73
     1
 44
1.0
  0
POINT
  5
984
330
76E
100
AcDbEntity
  8
DEFPOINTS
 62
     0
100
AcDbPoint
 10
68.40413217564878
 20
362.2895290139177
 30
0.0
  0
POINT
  5
985
330
76E
100
AcDbEntity
  8
DEFPOINTS
 62
     0
100
AcDbPoint
 10
60.40413217564879
 20
604.4374484569678
 30
0.0
  0
POINT
  5
986
330
76E
100
AcDbEntity
  8
DEFPOINTS
 62
     0
100
AcDbPoint
 10
32.3665654446668
 20
604.4374484569678
 30
0.0
  0
ENDBLK
  5
779
330
76E
100
AcDbEntity
  8
0
100
AcDbBlockEnd
  0
BLOCK
  5
784
330
77A
100
AcDbEntity
  8
0
100
AcDbBlockBegin
  2
*D6
 70
     1
 10
0.0
 20
0.0
 30
0.0
  3
*D6
  1

  0
LINE
  5
860
330
77A
100
AcDbEntity
  8
BEM
 62
     0
370
    -2
100
AcDbLine
 10
223.4041321756487
 20
248.8914738346771
 30
0.0
 11
30.36656544466689
 21
248.8914738346771
 31
0.0
  0
LINE
  5
861
330
77A
100
AcDbEntity
  8
BEM
 62
     0
370
    -2
100
AcDbLine
 10
58.40413217564878
 20
356.7895290139177
 30
0.0
 11
30.3665654446669
 21
356.7895290139177
 31
0.0
  0
LINE
  5
862
330
77A
100
AcDbEntity
  8
BEM
 62
     0
370
    -2
100
AcDbLine
 10
32.36656544466688
 20
255.8914738346771
 30
0.0
 11
32.3665654446669
 21
349.7895290139177
 31
0.0
  0
SOLID
  5
863
330
77A
100
AcDbEntity
  8
BEM
 62
     0
100
AcDbTrace
 10
31.19989877800021
 20
255.8914738346771
 30
0.0
 11
33.53323211133354
 21
255.8914738346771
 31
0.0
 12
32.36656544466688
 22
248.8914738346771
 32
0.0
 13
32.36656544466688
 23
248.8914738346771
 33
0.0
  0
SOLID
  5
864
330
77A
100
AcDbEntity
  8
BEM
 62
     0
100
AcDbTrace
 10
31.19989877800023
 20
349.7895290139177
 30
0.0
 11
33.53323211133356
 21
349.7895290139177
 31
0.0
 12
32.3665654446669
 22
356.7895290139177
 32
0.0
 13
32.3665654446669
 23
356.7895290139177
 33
0.0
  0
MTEXT
  5
865
330
77A
100
AcDbEntity
  8
BEM
 62
     1
100
AcDbMText
 10
26.86656544466684
 20
302.8405014242974
 30
0.0
 40
7.0
 41
0.0
 71
     5
 72
     1
  1
\A1;108
 11
0.0000000000000001
 21
1.0
 31
0.0
 73
     1
 44
1.0
  0
POINT
  5
866
330
77A
100
AcDbEntity
  8
DEFPOINTS
 62
     0
100
AcDbPoint
 10
225.4041321756487
 20
248.8914738346771
 30
0.0
  0
POINT
  5
867
330
77A
100
AcDbEntity
  8
DEFPOINTS
 62
     0
100
AcDbPoint
 10
60.40413217564879
 20
356.7895290139177
 30
0.0
  0
POINT
  5
868
330
77A
100
AcDbEntity
  8
DEFPOINTS
 62
     0
100
AcDbPoint
 10
32.3665654446669
 20
356.7895290139177
 30
0.0
  0
ENDBLK
  5
785
330
77A
100
AcDbEntity
  8
0
100
AcDbBlockEnd
  0
BLOCK
  5
790
330
786
100
AcDbEntity
  8
0
100
AcDbBlockBegin
  2
*D7
 70
     1
 10
0.0
 20
0.0
 30
0.0
  3
*D7
  1

  0
LINE
  5
975
330
786
100
AcDbEntity
  8
SCHRAFF
 62
     0
370
    -2
100
AcDbLine
 10
392.4041321756488
 20
356.7895290139168
 30
0.0
 11
560.3219080827406
 21
356.7895290139168
 31
0.0
  0
LINE
  5
976
330
786
100
AcDbEntity
  8
SCHRAFF
 62
     0
370
    -2
100
AcDbLine
 10
538.3762323461935
 20
233.9552567390102
 30
0.0
 11
560.3219080827405
 21
233.9552567390102
 31
0.0
  0
LINE
  5
977
330
786
100
AcDbEntity
  8
SCHRAFF
 62
     0
370
    -2
100
AcDbLine
 10
558.3219080827405
 20
349.7895290139168
 30
0.0
 11
558.3219080827404
 21
240.9552567390102
 31
0.0
  0
SOLID
  5
978
330
786
100
AcDbEntity
  8
SCHRAFF
 62
     0
100
AcDbTrace
 10
557.1552414160739
 20
349.7895290139168
 30
0.0
 11
559.4885747494072
 21
349.7895290139168
 31
0.0
 12
558.3219080827405
 22
356.7895290139168
 32
0.0
 13
558.3219080827405
 23
356.7895290139168
 33
0.0
  0
SOLID
  5
979
330
786
100
AcDbEntity
  8
SCHRAFF
 62
     0
100
AcDbTrace
 10
557.1552414160739
 20
240.9552567390102
 30
0.0
 11
559.4885747494071
 21
240.9552567390102
 31
0.0
 12
558.3219080827404
 22
233.9552567390102
 32
0.0
 13
558.3219080827404
 23
233.9552567390102
 33
0.0
  0
MTEXT
  5
97A
330
786
100
AcDbEntity
  8
SCHRAFF
 62
     1
100
AcDbMText
 10
552.8219080827405
 20
295.3723928764635
 30
0.0
 40
7.0
 41
0.0
 71
     5
 72
     1
  1
\A1;123
 11
0.0000000000000001
 21
1.0
 31
0.0
 73
     1
 44
1.0
  0
POINT
  5
97B
330
786
100
AcDbEntity
  8
DEFPOINTS
 62
     0
100
AcDbPoint
 10
390.4041321756488
 20
356.7895290139168
 30
0.0
  0
POINT
  5
97C
330
786
100
AcDbEntity
  8
DEFPOINTS
 62
     0
100
AcDbPoint
 10
536.3762323461935
 20
233.9552567390102
 30
0.0
  0
POINT
  5
97D
330
786
100
AcDbEntity
  8
DEFPOINTS
 62
     0
100
AcDbPoint
 10
558.3219080827404
 20
233.9552567390102
 30
0.0
  0
ENDBLK
  5
791
330
786
100
AcDbEntity
  8
0
100
AcDbBlockEnd
  0
BLOCK
  5
79C
330
792
100
AcDbEntity
  8
0
100
AcDbBlockBegin
  2
*D8
 70
     1
 10
0.0
 20
0.0
 30
0.0
  3
*D8
  1

  0
LINE
  5
8A5
330
792
100
AcDbEntity
  8
BEM
 62
     0
370
    -2
100
AcDbLine
 10
505.8954369877681
 20
300.7828084501328
 30
0.0
 11
536.8808664712047
 21
299.1589309007747
 31
0.0
  0
LINE
  5
8A6
330
792
100
AcDbEntity
  8
BEM
 62
     0
370
    -2
100
AcDbLine
 10
498.9347548074568
 20
167.9650803277745
 30
0.0
 11
529.9201842908932
 21
166.3412027784164
 31
0.0
  0
LINE
  5
8A7
330
792
100
AcDbEntity
  8
BEM
 62
     0
370
    -2
100
AcDbLine
 10
534.5172557079949
 20
292.2731960699786
 30
0.0
 11
528.2892769150847
 21
173.4362814341843
 31
0.0
  0
SOLID
  5
8A8
330
792
100
AcDbEntity
  8
BEM
 62
     0
100
AcDbTrace
 10
533.352187917448
 20
292.3342546855953
 30
0.0
 11
535.6823234985419
 21
292.2121374543618
 31
0.0
 12
534.8836074016956
 22
299.2636028132606
 32
0.0
 13
534.8836074016956
 23
299.2636028132606
 33
0.0
  0
SOLID
  5
8A9
330
792
100
AcDbEntity
  8
BEM
 62
     0
100
AcDbTrace
 10
527.1242091245378
 20
173.4973400498011
 30
0.0
 11
529.4543447056318
 21
173.3752228185676
 31
0.0
 12
527.9229252213841
 22
166.4458746909023
 32
0.0
 13
527.9229252213841
 23
166.4458746909023
 33
0.0
  0
MTEXT
  5
8AA
330
792
100
AcDbEntity
  8
BEM
 62
     1
100
AcDbMText
 10
525.9108038703897
 20
233.1425865114177
 30
0.0
 40
7.0
 41
0.0
 71
     5
 72
     1
  1
\A1;%%c133
 11
0.0523359562429424
 21
0.9986295347545741
 31
0.0
 73
     1
 44
1.0
  0
POINT
  5
8AB
330
792
100
AcDbEntity
  8
DEFPOINTS
 62
     0
100
AcDbPoint
 10
503.898177918259
 20
300.8874803626188
 30
0.0
  0
POINT
  5
8AC
330
792
100
AcDbEntity
  8
DEFPOINTS
 62
     0
100
AcDbPoint
 10
496.9374957379476
 20
168.0697522402604
 30
0.0
  0
POINT
  5
8AD
330
792
100
AcDbEntity
  8
DEFPOINTS
 62
     0
100
AcDbPoint
 10
527.9229252213841
 20
166.4458746909023
 30
0.0
  0
ENDBLK
  5
79D
330
792
100
AcDbEntity
  8
0
100
AcDbBlockEnd
  0
BLOCK
  5
7A8
330
79E
100
AcDbEntity
  8
0
100
AcDbBlockBegin
  2
*D9
 70
     1
 10
0.0
 20
0.0
 30
0.0
  3
*D9
  1

  0
LINE
  5
89B
330
79E
100
AcDbEntity
  8
BEM
 62
     0
370
    -2
100
AcDbLine
 10
115.4041321756489
 20
701.9373904896522
 30
0.0
 11
115.4041321756489
 21
747.7031741049825
 31
0.0
  0
LINE
  5
89C
330
79E
100
AcDbEntity
  8
BEM
 62
     0
370
    -2
100
AcDbLine
 10
335.4041321756491
 20
701.9373904896522
 30
0.0
 11
335.4041321756491
 21
747.7031741049825
 31
0.0
  0
LINE
  5
89D
330
79E
100
AcDbEntity
  8
BEM
 62
     0
370
    -2
100
AcDbLine
 10
122.4041321756489
 20
745.7031741049824
 30
0.0
 11
328.4041321756491
 21
745.7031741049824
 31
0.0
  0
SOLID
  5
89E
330
79E
100
AcDbEntity
  8
BEM
 62
     0
100
AcDbTrace
 10
122.4041321756489
 20
746.8698407716491
 30
0.0
 11
122.4041321756489
 21
744.5365074383158
 31
0.0
 12
115.4041321756489
 22
745.7031741049824
 32
0.0
 13
115.4041321756489
 23
745.7031741049824
 33
0.0
  0
SOLID
  5
89F
330
79E
100
AcDbEntity
  8
BEM
 62
     0
100
AcDbTrace
 10
328.4041321756491
 20
746.8698407716491
 30
0.0
 11
328.4041321756491
 21
744.5365074383158
 31
0.0
 12
335.4041321756491
 22
745.7031741049824
 32
0.0
 13
335.4041321756491
 23
745.7031741049824
 33
0.0
  0
MTEXT
  5
8A0
330
79E
100
AcDbEntity
  8
BEM
 62
     1
100
AcDbMText
 10
225.404132175649
 20
751.2031741049825
 30
0.0
 40
7.0
 41
0.0
 71
     5
 72
     1
  1
\A1;%%c220
  7
GREEKS
 73
     1
 44
1.0
  0
POINT
  5
8A1
330
79E
100
AcDbEntity
  8
DEFPOINTS
 62
     0
100
AcDbPoint
 10
115.4041321756489
 20
699.9373904896522
 30
0.0
  0
POINT
  5
8A2
330
79E
100
AcDbEntity
  8
DEFPOINTS
 62
     0
100
AcDbPoint
 10
335.4041321756491
 20
699.9373904896522
 30
0.0
  0
POINT
  5
8A3
330
79E
100
AcDbEntity
  8
DEFPOINTS
 62
     0
100
AcDbPoint
 10
335.4041321756491
 20
745.7031741049824
 30
0.0
  0
ENDBLK
  5
7A9
330
79E
100
AcDbEntity
  8
0
100
AcDbBlockEnd
  0
BLOCK
  5
7B4
330
7AA
100
AcDbEntity
  8
0
100
AcDbBlockBegin
  2
*D10
 70
     1
 10
0.0
 20
0.0
 30
0.0
  3
*D10
  1

  0
LINE
  5
959
330
7AA
100
AcDbEntity
  8
BEM
 62
     0
370
    -2
100
AcDbLine
 10
60.40413217564879
 20
609.4374484569677
 30
0.0
 11
60.40413217564879
 21
765.1692521312716
 31
0.0
  0
LINE
  5
95A
330
7AA
100
AcDbEntity
  8
BEM
 62
     0
370
    -2
100
AcDbLine
 10
390.4041321756488
 20
609.4374484569676
 30
0.0
 11
390.4041321756488
 21
765.1692521312716
 31
0.0
  0
LINE
  5
95B
330
7AA
100
AcDbEntity
  8
BEM
 62
     0
370
    -2
100
AcDbLine
 10
67.40413217564878
 20
762.1692521312716
 30
0.0
 11
383.4041321756488
 21
762.1692521312716
 31
0.0
  0
SOLID
  5
95C
330
7AA
100
AcDbEntity
  8
BEM
 62
     0
100
AcDbTrace
 10
67.40413217564878
 20
763.3359187979382
 30
0.0
 11
67.40413217564878
 21
761.002585464605
 31
0.0
 12
60.40413217564879
 22
762.1692521312716
 32
0.0
 13
60.40413217564879
 23
762.1692521312716
 33
0.0
  0
SOLID
  5
95D
330
7AA
100
AcDbEntity
  8
BEM
 62
     0
100
AcDbTrace
 10
383.4041321756488
 20
763.3359187979382
 30
0.0
 11
383.4041321756488
 21
761.002585464605
 31
0.0
 12
390.4041321756488
 22
762.1692521312716
 32
0.0
 13
390.4041321756488
 23
762.1692521312716
 33
0.0
  0
MTEXT
  5
95E
330
7AA
100
AcDbEntity
  8
BEM
 62
     1
100
AcDbMText
 10
225.4041321756488
 20
767.6692521312716
 30
0.0
 40
7.0
 41
0.0
 71
     5
 72
     1
  1
\A1;%%c330
  7
GREEKS
 73
     1
 44
1.0
  0
POINT
  5
95F
330
7AA
100
AcDbEntity
  8
DEFPOINTS
 62
     0
100
AcDbPoint
 10
60.40413217564879
 20
607.4374484569678
 30
0.0
  0
POINT
  5
960
330
7AA
100
AcDbEntity
  8
DEFPOINTS
 62
     0
100
AcDbPoint
 10
390.4041321756488
 20
607.4374484569675
 30
0.0
  0
POINT
  5
961
330
7AA
100
AcDbEntity
  8
DEFPOINTS
 62
     0
100
AcDbPoint
 10
390.4041321756488
 20
762.1692521312716
 30
0.0
  0
ENDBLK
  5
7B5
330
7AA
100
AcDbEntity
  8
0
100
AcDbBlockEnd
  0
ENDSEC
  0
SECTION
  2
ENTITIES
  0
LINE
  5
58
330
1E
100
AcDbEntity
  8
STEMPEL
100
AcDbLine
 10
484.0
 20
830.0000000000002
 30
0.0
 11
484.0
 21
470.0000000000001
 31
0.0
  0
LINE
  5
59
330
1E
100
AcDbEntity
  8
STEMPEL
100
AcDbLine
 10
484.0
 20
470.0000000000001
 30
0.0
 11
584.0
 21
470.0000000000001
 31
0.0
  0
LINE
  5
5A
330
1E
100
AcDbEntity
  8
STEMPEL
100
AcDbLine
 10
484.0000000000001
 20
566.0000000000002
 30
0.0
 11
584.0000000000001
 21
566.0
 31
0.0
  0
LINE
  5
5B
330
1E
100
AcDbEntity
  8
STEMPEL
100
AcDbLine
 10
484.0
 20
650.0
 30
0.0
 11
584.0
 21
650.0
 31
0.0
  0
LINE
  5
5C
330
1E
100
AcDbEntity
  8
STEMPEL
100
AcDbLine
 10
484.0000000000003
 20
752.0000000000002
 30
0.0
 11
554.0
 21
752.0000000000002
 31
0.0
  0
LINE
  5
5D
330
1E
100
AcDbEntity
  8
STEMPEL
100
AcDbLine
 10
564.0
 20
566.0
 30
0.0
 11
564.0
 21
470.0000000000001
 31
0.0
  0
LINE
  5
5E
330
1E
100
AcDbEntity
  8
STEMPEL
100
AcDbLine
 10
554.0
 20
830.0000000000002
 30
0.0
 11
554.0
 21
566.0
 31
0.0
  0
LINE
  5
5F
330
1E
100
AcDbEntity
  8
STEMPEL
100
AcDbLine
 10
514.0
 20
830.0000000000002
 30
0.0
 11
514.0
 21
566.0000000000002
 31
0.0
  0
LINE
  5
60
330
1E
100
AcDbEntity
  8
VOLL
100
AcDbLine
 10
484.0
 20
484.0000000000001
 30
0.0
 11
584.0
 21
484.0
 31
0.0
  0
LINE
  5
61
330
1E
100
AcDbEntity
  8
VOLL
100
AcDbLine
 10
484.0000000000001
 20
524.0000000000001
 30
0.0
 11
584.0000000000001
 21
524.0
 31
0.0
  0
LINE
  5
62
330
1E
100
AcDbEntity
  8
VOLL
100
AcDbLine
 10
484.0000000000001
 20
544.0000000000002
 30
0.0
 11
584.0000000000001
 21
544.0
 31
0.0
  0
LINE
  5
63
330
1E
100
AcDbEntity
  8
VOLL
100
AcDbLine
 10
514.0
 20
584.0000000000002
 30
0.0
 11
554.0
 21
584.0000000000002
 31
0.0
  0
LINE
  5
64
330
1E
100
AcDbEntity
  8
VOLL
100
AcDbLine
 10
484.0000000000002
 20
610.0000000000002
 30
0.0
 11
554.0
 21
610.0
 31
0.0
  0
LINE
  5
65
330
1E
100
AcDbEntity
  8
HILF
100
AcDbLine
 10
494.0
 20
470.0000000000001
 30
0.0
 11
494.0
 21
566.0000000000002
 31
0.0
  0
LINE
  5
66
330
1E
100
AcDbEntity
  8
HILF
100
AcDbLine
 10
504.0
 20
470.0000000000001
 30
0.0
 11
504.0
 21
566.0000000000002
 31
0.0
  0
LINE
  5
67
330
1E
100
AcDbEntity
  8
HILF
100
AcDbLine
 10
514.0
 20
470.0000000000001
 30
0.0
 11
514.0
 21
566.0000000000002
 31
0.0
  0
LINE
  5
68
330
1E
100
AcDbEntity
  8
HILF
100
AcDbLine
 10
524.0
 20
470.0000000000001
 30
0.0
 11
524.0
 21
566.0000000000002
 31
0.0
  0
LINE
  5
69
330
1E
100
AcDbEntity
  8
HILF
100
AcDbLine
 10
534.0
 20
470.0000000000001
 30
0.0
 11
534.0
 21
566.0000000000002
 31
0.0
  0
LINE
  5
6A
330
1E
100
AcDbEntity
  8
HILF
100
AcDbLine
 10
544.0
 20
470.0000000000001
 30
0.0
 11
544.0
 21
566.0000000000002
 31
0.0
  0
LINE
  5
6B
330
1E
100
AcDbEntity
  8
HILF
100
AcDbLine
 10
554.0
 20
470.0000000000001
 30
0.0
 11
554.0
 21
566.0000000000002
 31
0.0
  0
LINE
  5
6C
330
1E
100
AcDbEntity
  8
HILF
100
AcDbLine
 10
524.0
 20
566.0000000000002
 30
0.0
 11
524.0
 21
650.0
 31
0.0
  0
LINE
  5
6D
330
1E
100
AcDbEntity
  8
HILF
100
AcDbLine
 10
534.0
 20
566.0000000000002
 30
0.0
 11
534.0
 21
650.0
 31
0.0
  0
LINE
  5
6E
330
1E
100
AcDbEntity
  8
HILF
100
AcDbLine
 10
544.0
 20
566.0000000000002
 30
0.0
 11
544.0
 21
650.0
 31
0.0
  0
LINE
  5
6F
330
1E
100
AcDbEntity
  8
HILF
100
AcDbLine
 10
509.9624175243587
 20
654.7736801096948
 30
0.0
 11
509.9624175243587
 21
746.6297842514811
 31
0.0
  0
LINE
  5
70
330
1E
100
AcDbEntity
  8
HILF
100
AcDbLine
 10
524.0
 20
654.7736801096948
 30
0.0
 11
524.0
 21
746.6297842514811
 31
0.0
  0
LINE
  5
71
330
1E
100
AcDbEntity
  8
HILF
100
AcDbLine
 10
534.0
 20
654.7736801096948
 30
0.0
 11
534.0
 21
746.6297842514811
 31
0.0
  0
LINE
  5
72
330
1E
100
AcDbEntity
  8
HILF
100
AcDbLine
 10
544.0
 20
654.7736801096948
 30
0.0
 11
544.0
 21
746.6297842514811
 31
0.0
  0
LINE
  5
73
330
1E
100
AcDbEntity
  8
VOLL
100
AcDbLine
 10
534.0
 20
752.0000000000002
 30
0.0
 11
534.0
 21
830.0000000000002
 31
0.0
  0
LINE
  5
74
330
1E
100
AcDbEntity
  8
HILF
100
AcDbLine
 10
510.2201636304418
 20
756.7238616296995
 30
0.0
 11
510.2201636304418
 21
824.858883932673
 31
0.0
  0
LINE
  5
75
330
1E
100
AcDbEntity
  8
HILF
100
AcDbLine
 10
579.1060174197169
 20
654.7736801096948
 30
0.0
 11
579.1060174197169
 21
824.858883932673
 31
0.0
  0
TEXT
  5
76
330
1E
100
AcDbEntity
  8
TEXT
100
AcDbText
 10
575.3261810501587
 20
492.3998239263297
 30
0.0
 40
4.0
  1
Änderung
 50
90.0
 41
0.8
  7
GREEKS
 72
     1
 11
575.3261810501587
 21
503.1426810691868
 31
0.0
100
AcDbText
  0
TEXT
  5
78
330
1E
100
AcDbEntity
  8
TEXT
100
AcDbText
 10
491.5379104912911
 20
573.5163572150376
 30
0.0
 40
5.0
  1
Maßstab
 50
90.0
 41
0.8
  7
GREEKS
100
AcDbText
  0
TEXT
  5
79
330
1E
100
AcDbEntity
  8
TEXT
100
AcDbText
 10
491.4510671988221
 20
654.8779403809009
 30
0.0
 40
5.0
  1
Benennung
 50
90.0
 41
0.8
  7
GREEKS
100
AcDbText
  0
TEXT
  5
7A
330
1E
100
AcDbEntity
  8
TEXT
100
AcDbText
 10
491.6867965462863
 20
756.1787549576343
 30
0.0
 40
5.0
  1
Zeichnungs Nr.
 50
90.0
 41
0.8
  7
GREEKS
100
AcDbText
  0
TEXT
  5
7B
330
1E
100
AcDbEntity
  8
TEXT
100
AcDbText
 10
563.1543942980694
 20
654.7422383911359
 30
0.0
 40
5.0
  1
Bauvorhaben
 50
90.0
 41
0.8
  7
GREEKS
100
AcDbText
  0
TEXT
  5
7C
330
1E
100
AcDbEntity
  8
TEXT
100
AcDbText
 10
520.8188176290003
 20
756.7238616296995
 30
0.0
 40
5.0
  1
Ersatz für:
 50
90.0
 41
0.8
  7
GREEKS
100
AcDbText
  0
TEXT
  5
7D
330
1E
100
AcDbEntity
  8
TEXT
100
AcDbText
 10
580.3453415397281
 20
478.2664110704577
 30
0.0
 40
4.0
  1
Index
 50
180.0
 41
0.8
  7
GREEKS
100
AcDbText
  0
TEXT
  5
7E
330
1E
100
AcDbEntity
  8
TEXT
100
AcDbText
 10
575.3284373066019
 20
529.8990113186978
 30
0.0
 40
4.0
  1
Tag
 50
90.0
 41
0.8
  7
GREEKS
 72
     1
 11
575.3284373066019
 21
533.6323446520311
 31
0.0
100
AcDbText
  0
TEXT
  5
7F
330
1E
100
AcDbEntity
  8
TEXT
100
AcDbText
 10
575.4067578303359
 20
548.9795678138292
 30
0.0
 40
4.0
  1
Name
 50
90.0
 41
0.8
  7
GREEKS
 72
     1
 11
575.4067578303359
 21
555.3033773376387
 31
0.0
100
AcDbText
  0
TEXT
  5
80
330
1E
100
AcDbEntity
  8
TEXT
100
AcDbText
 10
520.6811949877008
 20
592.3311673153651
 30
0.0
 40
4.0
  1
Tag
 50
90.0
 41
0.8
  7
GREEKS
100
AcDbText
  0
TEXT
  5
81
330
1E
100
AcDbEntity
  8
TEXT
100
AcDbText
 10
520.6903890808478
 20
622.4626584226296
 30
0.0
 40
4.0
  1
Name
 50
90.0
 41
0.8
  7
GREEKS
100
AcDbText
  0
TEXT
  5
82
330
1E
100
AcDbEntity
  8
TEXT
100
AcDbText
 10
530.3700963038204
 20
567.5836127167615
 30
0.0
 40
4.0
  1
Gez.
 50
90.0
 41
0.8
  7
GREEKS
100
AcDbText
  0
TEXT
  5
83
330
1E
100
AcDbEntity
  8
TEXT
100
AcDbText
 10
540.3107370857163
 20
567.5515086571672
 30
0.0
 40
4.0
  1
Gepr.
 50
90.0
 41
0.8
  7
GREEKS
100
AcDbText
  0
TEXT
  5
84
330
1E
100
AcDbEntity
  8
TEXT
100
AcDbText
 10
550.470536103502
 20
567.6006777387303
 30
0.0
 40
4.0
  1
Norm.
 50
90.0
 41
0.8
  7
GREEKS
100
AcDbText
  0
TEXT
  5
85
330
1E
100
AcDbEntity
  8
TEXT
100
AcDbText
 10
541.925838221214
 20
757.2400861497007
 30
0.0
 40
5.0
  1
ersetzt durch:
 50
90.0
 41
0.8
  7
GREEKS
100
AcDbText
  0
TEXT
  5
86
330
1E
100
AcDbEntity
  8
TEXT
100
AcDbText
 10
521.0331740347627
 20
568.8693027807324
 30
0.0
 40
4.0
  1
2010
 50
90.0
 41
0.8
  7
GREEKS
100
AcDbText
  0
LINE
  5
87
330
1E
100
AcDbEntity
  8
HILF
100
AcDbLine
 10
594.0
 20
-0.0000000000000568
 30
0.0
 11
594.0
 21
840.0
 31
0.0
  0
LINE
  5
88
330
1E
100
AcDbEntity
  8
HILF
100
AcDbLine
 10
594.0
 20
840.0
 30
0.0
 11
0.0
 21
840.0
 31
0.0
  0
LINE
  5
89
330
1E
100
AcDbEntity
  8
HILF
100
AcDbLine
 10
0.0
 20
840.0
 30
0.0
 11
0.0
 21
0.0
 31
0.0
  0
LINE
  5
8B
330
1E
100
AcDbEntity
  8
STEMPEL
100
AcDbLine
 10
10.0
 20
830.0
 30
0.0
 11
10.0
 21
39.99999999999995
 31
0.0
  0
LINE
  5
8D
330
1E
100
AcDbEntity
  8
STEMPEL
100
AcDbLine
 10
584.0
 20
39.99999999999995
 30
0.0
 11
584.0
 21
830.0
 31
0.0
  0
LINE
  5
8E
330
1E
100
AcDbEntity
  8
STEMPEL
100
AcDbLine
 10
584.0
 20
830.0
 30
0.0
 11
10.0
 21
830.0
 31
0.0
  0
TEXT
  5
91
330
1E
100
AcDbEntity
  8
TEXT
100
AcDbText
 10
491.16010388621
 20
618.5090226415829
 30
0.0
 40
5.0
  1
Zul.Abw.
 50
90.0
 41
0.8
  7
GREEKS
100
AcDbText
  0
TEXT
  5
99
330
1E
100
AcDbEntity
  8
TEXT
 62
     1
100
AcDbText
 10
506.5292291158502
 20
582.703491203422
 30
0.0
 40
7.0
  1
1:2
 50
90.0
 41
0.8
  7
GREEKS
100
AcDbText
  0
TEXT
  5
9A
330
1E
100
AcDbEntity
  8
TEXT
100
AcDbText
 10
479.8856414948956
 20
470.0441139350127
 30
0.0
 40
5.0
  1
Erstellt mit AUTOCAD 2004
 50
90.0
 41
0.8
  7
GREEKS
100
AcDbText
  0
INSERT
  5
9B
330
1E
100
AcDbEntity
  8
HILF
100
AcDbBlockReference
  2
LORO
 10
557.0194069970104
 20
573.0624985962354
 30
0.0
 41
2.0
 42
2.0
 43
2.0
 50
90.0
  0
LINE
  5
9C
330
1E
100
AcDbEntity
  8
BEM
100
AcDbLine
 10
594.0
 20
455.9999999999999
 30
0.0
 11
584.0
 21
455.9999999999999
 31
0.0
  0
LINE
  5
13E
330
1E
100
AcDbEntity
  8
HILF
100
AcDbLine
 10
594.0
 20
-0.0000000000000568
 30
0.0
 11
0.0
 21
0.0
 31
0.0
  0
LINE
  5
13F
330
1E
100
AcDbEntity
  8
STEMPEL
100
AcDbLine
 10
584.0
 20
39.99999999999995
 30
0.0
 11
10.0
 21
39.99999999999995
 31
0.0
  0
LINE
  5
14A
330
1E
100
AcDbEntity
  8
HILF
100
AcDbLine
 10
297.0
 20
-0.0000000000000568
 30
0.0
 11
297.0
 21
39.99999999999995
 31
0.0
  0
TEXT
  5
15B
330
1E
100
AcDbEntity
  8
BEM
100
AcDbText
 10
583.8320989200114
 20
837.3022923857165
 30
0.0
 40
4.0
  1
Diese Zeichnung ist urheberrechtlich geschützt und bleibt unser Eigentum. Sie darf weder ganz noch teilweise verfielfältigt und nicht an Dritte weitergegeben werden.
 50
180.0
 41
0.8
  7
GREEKS
100
AcDbText
  0
HATCH
  5
4A0
330
1E
100
AcDbEntity
  8
SCHRAFF
100
AcDbHatch
 10
0.0
 20
0.0
 30
0.0
210
0.0
220
0.0
230
1.0
  2
_USER
 70
     0
 71
     1
 91
        2
 92
        7
 72
     1
 73
     1
 93
       14
 10
160.9041321756554
 20
311.8914738346775
 42
0.1898598886695143
 10
157.5459232204315
 20
320.4165929830327
 42
-0.1898598886695141
 10
151.9041321756553
 20
334.7387931522693
 42
0.0
 10
151.9041321756553
 20
347.187151569453
 42
-0.1095178116832425
 10
154.4806680321473
 20
358.8091537673224
 42
0.0
 10
155.4041321756553
 20
360.7895290139173
 42
0.0
 10
153.1973763377302
 20
360.7895290139173
 42
0.0
 10
152.6680524580741
 20
359.6543902908039
 42
0.1095178116832406
 10
149.9041321756554
 20
347.1871515694534
 42
0.0
 10
149.9041321756554
 20
334.7387931522693
 42
0.1898598886695145
 10
156.0832366532673
 20
319.0525739192958
 42
-0.1898598886695189
 10
158.9041321756553
 20
311.8914738346773
 42
0.0
 10
158.9041321756529
 20
185.7853301481449
 42
0.0
 10
160.9041321756552
 20
187.6832592815769
 42
0.0
 97
       14
330
50E
330
501
330
508
330
4FD
330
518
330
517
330
519
330
4FE
330
507
330
500
330
50F
330
4CA
330
4A6
330
4CB
 92
        7
 72
     1
 73
     1
 93
       13
 10
300.9041321756551
 20
347.187151569453
 42
0.1095178116832438
 10
298.1402118932363
 20
359.6543902908039
 42
0.0
 10
297.6108880135801
 20
360.7895290139173
 42
0.0
 10
295.4041321756549
 20
360.7895290139173
 42
0.0
 10
296.3275963191629
 20
358.8091537673224
 42
-0.1095178116832473
 10
298.9041321756551
 20
347.1871515694526
 42
0.0
 10
298.904132175655
 20
334.738793152269
 42
-0.1898598886695082
 10
293.2623411308791
 20
320.4165929830328
 42
0.1898598886694889
 10
289.9041321756552
 20
311.8914738346789
 42
0.0
 10
289.9041321756549
 20
310.0996883877938
 42
0.0
 10
291.9046738981145
 20
311.9981315966426
 42
-0.187230095476677
 10
294.725027698043
 20
319.0525739192958
 42
0.1898598886695155
 10
300.9041321756551
 20
334.7387931522693
 42
0.0
 97
       13
330
52F
330
54F
330
54E
330
550
330
531
330
541
330
533
330
538
330
53B
330
4A6
330
539
330
534
330
542
 75
     0
 76
     0
 52
135.0
 41
2.0
 77
     0
 78
     1
 53
135.0
 43
-25.21445812960156
 44
-0.0000000000001137
 45
-1.414213562373095
 46
-1.414213562373094
 79
     0
 47
0.3874817345442039
 98
        2
 10
160.5792485537663
 20
308.412589454489
 10
300.1774677936719
 20
344.8358721333367
  0
HATCH
  5
4A1
330
1E
100
AcDbEntity
  8
SCHRAFF
100
AcDbHatch
 10
0.0
 20
0.0
 30
0.0
210
0.0
220
0.0
230
1.0
  2
_USER
 70
     0
 71
     1
 91
        2
 92
        7
 72
     1
 73
     1
 93
       12
 10
136.0233059260068
 20
353.7895290139177
 42
-0.2623450888924561
 10
138.5893987064882
 20
352.3436100420371
 42
0.0
 10
147.0880393951736
 20
338.3106863266428
 42
0.0
 10
149.6541321756551
 20
339.8647673547622
 42
0.0
 10
141.1554914869698
 20
353.8976910701566
 42
0.2623450888924551
 10
136.0233059260068
 20
356.7895290139173
 42
0.0
 10
66.7680932063281
 20
356.7895290139174
 42
0.1989123673796645
 10
62.52545251920856
 20
355.032169701037
 42
0.0
 10
60.404132175649
 20
352.9108493574772
 42
0.0
 10
62.52545251920843
 20
350.7895290139176
 42
0.0
 10
64.64677286276856
 20
352.9108493574772
 42
-0.1989123673796702
 10
66.7680932063283
 20
353.7895290139177
 42
0.0
 97
       12
330
4B5
330
4C5
330
4C1
330
4C3
330
4C2
330
4C4
330
4BE
330
506
330
505
330
50A
330
504
330
4FF
 92
        7
 72
     1
 73
     1
 93
       12
 10
384.0401711449698
 20
353.7895290139177
 42
-0.1989123673796543
 10
386.1614914885293
 20
352.9108493574772
 42
0.0
 10
388.2828118320893
 20
350.7895290139175
 42
0.0
 10
390.4041321756488
 20
352.9108493574772
 42
0.0
 10
388.2828118320893
 20
355.032169701037
 42
0.1989123673796388
 10
384.04017114497
 20
356.7895290139168
 42
0.0
 10
314.7849584253034
 20
356.789529013917
 42
0.2623450888924802
 10
309.65277286434
 20
353.8976910701558
 42
0.0
 10
301.1541321756549
 20
339.8647673547622
 42
0.0
 10
303.7202249561365
 20
338.3106863266428
 42
0.0
 10
312.2188656448218
 20
352.3436100420371
 42
-0.2623450888924635
 10
314.7849584253033
 20
353.7895290139176
 42
0.0
 97
       12
330
523
330
530
330
53F
330
548
330
540
330
549
330
52A
330
57B
330
57A
330
57C
330
579
330
57D
 75
     0
 76
     0
 52
45.0
 41
2.0
 77
     0
 78
     1
 53
45.0
 43
-25.21445812960156
 44
-0.0000000000001137
 45
-1.414213562373094
 46
1.414213562373095
 79
     0
 47
0.4641743063183107
 98
        2
 10
117.6409791181845
 20
354.9621429662278
 10
349.9024904714124
 20
354.9621429662278
  0
HATCH
  5
4A2
330
1E
100
AcDbEntity
  8
SCHRAFF
100
AcDbHatch
 10
0.0
 20
0.0
 30
0.0
210
0.0
220
0.0
230
1.0
  2
_USER
 70
     0
 71
     1
 91
        2
 92
        7
 72
     1
 73
     1
 93
        5
 10
149.9041321756553
 20
339.8647673547622
 42
0.0
 10
149.6541321756551
 20
339.8647673547622
 42
0.0
 10
147.0880393951736
 20
338.3106863266428
 42
0.0
 10
145.7174687559577
 20
340.5737674394002
 42
0.4866147115763174
 10
149.9041321756554
 20
335.8725874990944
 42
0.0
 97
        5
330
50B
330
50A
330
505
330
509
330
507
 92
        7
 72
     1
 73
     1
 93
        5
 10
305.0907955953523
 20
340.5737674394002
 42
0.0
 10
303.7202249561365
 20
338.3106863266428
 42
0.0
 10
301.1541321756548
 20
339.8647673547622
 42
0.0
 10
300.9041321756551
 20
339.8647673547622
 42
0.0
 10
300.9041321756551
 20
335.8725874990944
 42
0.4866147115762773
 97
        5
330
540
330
548
330
547
330
542
330
543
 75
     0
 76
     0
 52
0.0
 41
0.1
 77
     0
 78
     1
 53
0.0
 43
-25.21445812960156
 44
0.0
 45
0.0
 46
0.1
 79
     0
 47
0.223289314921531
 98
        2
 10
148.6338238230346
 20
337.4145644233886
 10
302.3722825591453
 20
337.4145644233886
  0
LINE
  5
4A3
330
1E
100
AcDbEntity
  8
HILF
100
AcDbLine
 10
162.1613555157721
 20
316.472827998039
 30
0.0
 11
288.6469088355384
 21
316.472827998039
 31
0.0
  0
HATCH
  5
4A4
330
1E
100
AcDbEntity
  8
SCHRAFF
100
AcDbHatch
 10
0.0
 20
0.0
 30
0.0
210
0.0
220
0.0
230
1.0
  2
_USER
 70
     0
 71
     1
 91
        2
 92
        7
 72
     1
 73
     1
 93
       10
 10
160.9041321756488
 20
573.4419046593984
 42
0.1989123673796711
 10
158.8538796439547
 20
578.3916521277046
 42
0.0
 10
149.6541321756487
 20
587.5913995960096
 42
0.0
 10
148.2399186132757
 20
586.1771860336365
 42
0.0
 10
157.4396660815818
 20
576.9774385653313
 42
-0.1989123673796619
 10
158.9041321756489
 20
573.4419046593984
 42
0.0
 10
158.9041321756489
 20
336.4374484569615
 42
0.0
 10
160.3914394555895
 20
324.4374484569673
 42
0.0
 10
162.4067425961794
 20
324.4374484569673
 42
0.0
 10
160.9041321756489
 20
336.5609183609652
 42
0.0
 97
       10
330
601
330
5F7
330
5FF
330
5F6
330
600
330
4B2
330
511
330
4AF
330
510
330
4B1
 92
        7
 72
     1
 73
     1
 93
       10
 10
289.9041321756486
 20
336.5609183609679
 42
0.0
 10
288.4015217551178
 20
324.4374484569673
 42
0.0
 10
290.4168248957076
 20
324.4374484569671
 42
0.0
 10
291.9041321756489
 20
336.4374484569663
 42
0.0
 10
291.9041321756489
 20
573.4419046593984
 42
-0.1989123673796545
 10
293.3685982697157
 20
576.9774385653313
 42
0.0
 10
302.5683457380219
 20
586.1771860336367
 42
0.0
 10
301.1541321756489
 20
587.5913995960099
 42
0.0
 10
291.9543847073428
 20
578.3916521277046
 42
0.1989123673796714
 10
289.9041321756487
 20
573.4419046593984
 42
0.0
 97
       10
330
6BB
330
6B9
330
6C1
330
6BA
330
6BC
330
51E
330
53D
330
4AF
330
53E
330
51F
 75
     0
 76
     0
 52
135.0
 41
2.0
 77
     0
 78
     1
 53
135.0
 43
-25.21445812960156
 44
-0.0000000000001137
 45
-1.414213562373095
 46
-1.414213562373094
 79
     0
 47
0.6468058204192415
 98
        2
 10
160.1489208781559
 20
537.1722296399001
 10
290.9018525135957
 20
523.5893069911433
  0
HATCH
  5
4A5
330
1E
100
AcDbEntity
  8
SCHRAFF
100
AcDbHatch
 10
0.0
 20
0.0
 30
0.0
210
0.0
220
0.0
230
1.0
  2
NET
 70
     0
 71
     0
 91
        2
 92
        7
 72
     1
 73
     1
 93
       12
 10
158.9041321756489
 20
360.7895290139184
 42
0.0
 10
156.5845645759002
 20
365.7142223402044
 42
0.3370502855478904
 10
153.9041321756497
 20
367.7894247795819
 42
0.3370502855478904
 10
151.2236997753992
 20
365.7142223402044
 42
0.0
 10
149.9041321756496
 20
360.7895290139172
 42
0.0
 10
155.4041321756488
 20
360.7895290139174
 42
0.0
 10
154.4806680321407
 20
358.8091537673222
 42
0.1095178116832384
 10
151.9041321756487
 20
347.1871515694533
 42
0.0
 10
151.9041321756487
 20
337.9895290139164
 42
0.0
 10
154.7041321756497
 20
340.7895290139173
 42
0.0
 10
155.2472779261574
 20
340.7895290139173
 42
0.1401227493739175
 10
158.9041321756489
 20
336.7895290139179
 42
0.0
 97
        0
 92
        7
 72
     1
 73
     1
 93
       12
 10
296.3275963191561
 20
358.8091537673222
 42
0.0
 10
295.4041321756481
 20
360.7895290139172
 42
0.0
 10
300.9041321756496
 20
360.7895290139174
 42
0.0
 10
299.5845645759001
 20
365.7142223402044
 42
0.3370502855478876
 10
296.9041321756496
 20
367.7894247795819
 42
0.3370502855478877
 10
294.2236997753991
 20
365.7142223402044
 42
0.0
 10
291.9041321756489
 20
360.7895290139153
 42
0.0
 10
291.9041321756489
 20
336.7895290139168
 42
0.1401227493739181
 10
295.5609864251418
 20
340.7895290139173
 42
0.0
 10
296.1041321756495
 20
340.7895290139173
 42
0.0
 10
298.9041321756483
 20
337.9895290139187
 42
0.0
 10
298.9041321756483
 20
347.187151569453
 42
0.1095178116832419
 97
        0
 75
     0
 76
     1
 52
45.0
 41
15.0
 77
     0
 78
     2
 53
45.0
 43
-25.21445812960156
 44
0.0
 45
-1.325825214724776
 46
1.325825214724776
 79
     0
 53
135.0
 43
-25.21445812960156
 44
0.0
 45
-1.325825214724776
 46
-1.325825214724776
 79
     0
 47
0.3321574276069458
 98
        2
 10
157.4562137124876
 20
348.9227915230399
 10
295.3980918220086
 20
350.9157356441201
  0
LINE
  5
4A6
102
{ACAD_REACTORS
330
4A0
330
8E9
102
}
330
1E
100
AcDbEntity
  8
STEMPEL
100
AcDbLine
 10
291.9041321756483
 20
311.9976175212172
 30
0.0
 11
158.9041321756463
 21
185.7853301481386
 31
0.0
  0
LINE
  5
4A7
330
1E
100
AcDbEntity
  8
MITTEL
100
AcDbLine
 10
515.3972798494216
 20
233.6935769577956
 30
0.0
 11
225.4041321756483
 21
248.8914738346779
 31
0.0
  0
DIMENSION
  5
4A8
330
1E
100
AcDbEntity
  8
BEM
100
AcDbDimension
  2
*D3
 10
510.4041321756484
 20
133.0659540437926
 30
0.0
 11
367.9041321756483
 21
138.5659540437926
 31
0.0
 70
    32
 71
     5
 42
285.0000000000001
  3
Standard
100
AcDbAlignedDimension
 13
225.4041321756483
 23
248.8914738346779
 33
0.0
 14
510.4041321756484
 24
233.9552567390102
 34
0.0
100
AcDbRotatedDimension
1001
ACAD
1000
DSTYLE
1002
{
1070
    40
1040
2.0
1070
    41
1040
3.5
1070
    42
1040
1.0
1070
    43
1040
7.0
1070
    44
1040
1.0
1070
    47
1040
2.0
1070
    48
1040
2.0
1070
    73
1070
     0
1070
    74
1070
     0
1070
    77
1070
     1
1070
    78
1070
     8
1070
    79
1070
     2
1070
   140
1040
3.5
1070
   141
1040
1.5
1070
   146
1040
0.5142857142857144
1070
   147
1040
1.0
1070
   172
1070
     1
1070
   178
1070
     1
1070
   179
1070
     1
1070
   271
1070
     1
1070
   272
1070
     1
1070
   279
1070
     0
1002
}
  0
LINE
  5
4A9
102
{ACAD_REACTORS
330
8E9
102
}
330
1E
100
AcDbEntity
  8
STEMPEL
100
AcDbLine
 10
496.9374957379476
 20
168.0697522402605
 30
0.0
 11
158.9041321756463
 21
185.7853301481386
 31
0.0
  0
LINE
  5
4AA
102
{ACAD_REACTORS
330
8E9
102
}
330
1E
100
AcDbEntity
  8
STEMPEL
100
AcDbLine
 10
496.9425531138022
 20
170.0722318864187
 30
0.0
 11
160.9041321756488
 21
187.6832592815683
 31
0.0
  0
DIMENSION
  5
4AB
330
1E
100
AcDbEntity
  8
BEM
100
AcDbDimension
  2
*D4
 10
225.4041321756483
 20
248.8914738346779
 30
0.0
 11
302.6280611052779
 21
226.6310259634625
 31
0.0
 70
    34
 71
     5
 42
0.0523598775598355
  3
Standard
100
AcDb2LineAngularDimension
 13
225.4041321756483
 23
248.8914738346774
 33
0.0
 14
223.4041321756483
 24
248.8914738346774
 34
0.0
 15
513.4000207799122
 25
233.7982488702814
 35
0.0
 16
311.0909720531259
 26
247.3958044811225
 36
0.0
1001
ACAD
1000
DSTYLE
1002
{
1070
    40
1040
2.0
1070
    41
1040
3.5
1070
    42
1040
1.0
1070
    43
1040
7.0
1070
    44
1040
1.0
1070
    47
1040
2.0
1070
    48
1040
2.0
1070
    73
1070
     0
1070
    74
1070
     0
1070
    77
1070
     1
1070
    78
1070
     8
1070
    79
1070
     2
1070
   140
1040
3.5
1070
   141
1040
1.5
1070
   146
1040
0.5142857142857144
1070
   147
1040
1.0
1070
   172
1070
     1
1070
   178
1070
     1
1070
   179
1070
     1
1070
   271
1070
     1
1070
   272
1070
     1
1070
   279
1070
     0
1002
}
  0
HATCH
  5
4AD
330
1E
100
AcDbEntity
  8
SCHRAFF
100
AcDbHatch
 10
0.0
 20
0.0
 30
0.0
210
0.0
220
0.0
230
1.0
  2
_USER
 70
     0
 71
     0
 91
        5
 92
        7
 72
     1
 73
     1
 93
        4
 10
68.40413217564878
 20
368.2895290139177
 42
1.0
 10
68.40413217564878
 20
362.2895290139177
 42
0.0
 10
91.40413217564901
 20
362.2895290139177
 42
0.0
 10
91.40413217564901
 20
368.2895290139177
 42
0.0
 97
        0
 92
        7
 72
     1
 73
     1
 93
        4
 10
105.404132175649
 20
368.2895290139178
 42
0.0
 10
105.404132175649
 20
362.2895290139178
 42
0.0
 10
128.4041321756487
 20
362.2895290139177
 42
1.0
 10
128.4041321756487
 20
368.2895290139179
 42
0.0
 97
        0
 92
        7
 72
     1
 73
     1
 93
        4
 10
322.4041321756488
 20
368.2895290139179
 42
1.0
 10
322.4041321756488
 20
362.2895290139173
 42
0.0
 10
326.1600063926351
 20
362.2895290139173
 42
0.0
 10
326.1600063926351
 20
368.2895290139179
 42
0.0
 97
        0
 92
        7
 72
     1
 73
     1
 93
        7
 10
344.4041321756485
 20
362.2895290139171
 42
0.0
 10
344.4041321756512
 20
382.2895290139178
 42
0.0
 10
339.904132175649
 20
382.289529013918
 42
0.0
 10
339.7455134268576
 20
373.2022669817318
 42
-0.4091108014277236
 10
334.7462749510757
 20
368.2895290139179
 42
0.0
 10
326.1600063926351
 20
368.2895290139179
 42
0.0
 10
326.1600063926351
 20
362.2895290139172
 42
0.0
 97
        0
 92
        7
 72
     1
 73
     1
 93
        7
 10
382.4041321756488
 20
362.2895290139171
 42
1.0
 10
382.4041321756488
 20
368.2895290139179
 42
0.0
 10
360.0619894002225
 20
368.2895290139179
 42
-0.4091108014277238
 10
355.0627509244404
 20
373.2022669817316
 42
0.0
 10
354.904132175649
 20
382.2895290139177
 42
0.0
 10
350.4041321756515
 20
382.2895290139177
 42
0.0
 10
350.4041321756501
 20
362.2895290139171
 42
0.0
 97
        0
 75
     0
 76
     0
 52
135.0
 41
4.0
 77
     0
 78
     1
 53
135.0
 43
-25.21445812960156
 44
-0.0000000000001137
 45
-2.82842712474619
 46
-2.828427124746189
 79
     0
 47
0.4518901638347634
 98
        5
 10
76.03985649442211
 20
365.3371449544485
 10
119.9039019195052
 20
366.6928161375491
 10
322.9446910327665
 20
366.2409257431824
 10
334.7020669574436
 20
364.4333641657146
 10
367.2609461333272
 20
362.6258045663614
  0
LINE
  5
4AE
330
1E
100
AcDbEntity
  8
HILF
100
AcDbLine
 10
162.9117718507358
 20
336.4374484569671
 30
0.0
 11
287.8964925005618
 21
336.4374484569671
 31
0.0
  0
LINE
  5
4AF
102
{ACAD_REACTORS
330
4A4
102
}
330
1E
100
AcDbEntity
  8
STEMPEL
100
AcDbLine
 10
160.3914394555897
 20
324.4374484569672
 30
0.0
 11
290.4168248957077
 21
324.4374484569672
 31
0.0
  0
LINE
  5
4B1
102
{ACAD_REACTORS
330
4A4
102
}
330
1E
100
AcDbEntity
  8
STEMPEL
  6
Continuous
100
AcDbLine
 10
160.9041321756488
 20
573.4419046593984
 30
0.0
 11
160.9041321756489
 21
336.5609183609651
 31
0.0
  0
LINE
  5
4B2
102
{ACAD_REACTORS
330
4A4
102
}
330
1E
100
AcDbEntity
  8
STEMPEL
  6
Continuous
100
AcDbLine
 10
158.9041321756489
 20
573.4419046593984
 30
0.0
 11
158.9041321756489
 21
336.4374484569617
 31
0.0
  0
DIMENSION
  5
4B3
330
1E
100
AcDbEntity
  8
BEM
100
AcDbDimension
  2
*D5
 10
32.3665654446668
 20
604.4374484569678
 30
0.0
 11
26.86656544466669
 21
483.3634887354427
 31
0.0
 70
    32
  1
min.35 - max.240
 71
     5
 42
242.1479194430501
  3
Standard
100
AcDbAlignedDimension
 13
68.40413217564878
 23
362.2895290139177
 33
0.0
 14
60.40413217564879
 24
604.4374484569678
 34
0.0
 50
90.0
100
AcDbRotatedDimension
1001
ACAD
1000
DSTYLE
1002
{
1070
    40
1040
2.0
1070
    41
1040
3.5
1070
    42
1040
1.0
1070
    43
1040
7.0
1070
    44
1040
1.0
1070
    47
1040
0.7
1070
    48
1040
0.7
1070
    73
1070
     0
1070
    74
1070
     0
1070
    77
1070
     1
1070
    78
1070
     8
1070
   140
1040
3.5
1070
   141
1040
1.5
1070
   146
1040
0.5142857142857144
1070
   147
1040
1.0
1070
   172
1070
     1
1070
   178
1070
     1
1070
   271
1070
     2
1070
   272
1070
     2
1070
   279
1070
     2
1070
   284
1070
     8
1070
   285
1070
     8
1070
   286
1070
     8
1070
   340
1005
24
1002
}
  0
LINE
  5
4B4
330
1E
100
AcDbEntity
  8
MITTEL
100
AcDbLine
 10
225.4041321756488
 20
726.4374484569674
 30
0.0
 11
225.4041321756486
 21
248.8914738346791
 31
0.0
  0
LINE
  5
4B5
102
{ACAD_REACTORS
330
4A1
102
}
330
1E
100
AcDbEntity
  8
STEMPEL
100
AcDbLine
 10
151.5106858591092
 20
356.7895290139173
 30
0.0
 11
66.7680932063281
 21
356.7895290139174
 31
0.0
  0
LINE
  5
4B9
330
1E
100
AcDbEntity
  8
STEMPEL
100
AcDbLine
 10
68.40413217564878
 20
368.2895290139177
 30
0.0
 11
158.9041321756488
 21
368.2895290139179
 31
0.0
  0
LINE
  5
4BA
330
1E
100
AcDbEntity
  8
STEMPEL
100
AcDbLine
 10
68.40413217564878
 20
362.2895290139177
 30
0.0
 11
93.40413217564901
 21
362.2895290139177
 31
0.0
  0
DIMENSION
  5
4BD
330
1E
100
AcDbEntity
  8
BEM
100
AcDbDimension
  2
*D6
 10
32.3665654446669
 20
356.7895290139177
 30
0.0
 11
26.86656544466684
 21
302.8405014242974
 31
0.0
 70
    32
 71
     5
 42
107.8980551792405
  3
Standard
100
AcDbAlignedDimension
 13
225.4041321756487
 23
248.8914738346771
 33
0.0
 14
60.40413217564879
 24
356.7895290139177
 34
0.0
 50
90.0
100
AcDbRotatedDimension
1001
ACAD
1000
DSTYLE
1002
{
1070
    40
1040
2.0
1070
    41
1040
3.5
1070
    42
1040
1.0
1070
    43
1040
7.0
1070
    44
1040
1.0
1070
    47
1040
2.0
1070
    48
1040
2.0
1070
    73
1070
     0
1070
    74
1070
     0
1070
    77
1070
     1
1070
    78
1070
     8
1070
    79
1070
     2
1070
   140
1040
3.5
1070
   141
1040
1.5
1070
   146
1040
0.5142857142857144
1070
   147
1040
1.0
1070
   172
1070
     1
1070
   178
1070
     1
1070
   179
1070
     1
1070
   271
1070
     0
1070
   272
1070
     1
1070
   279
1070
     0
1002
}
  0
LINE
  5
4BE
102
{ACAD_REACTORS
330
4A1
102
}
330
1E
100
AcDbEntity
  8
STEMPEL
100
AcDbLine
 10
66.7680932063281
 20
353.7895290139177
 30
0.0
 11
136.0233059260068
 21
353.7895290139177
 31
0.0
  0
LINE
  5
4BF
330
1E
100
AcDbEntity
  8
STEMPEL
100
AcDbLine
 10
62.52545251920833
 20
350.7895290139177
 30
0.0
 11
139.5305836318082
 21
350.7895290139172
 31
0.0
  0
LINE
  5
4C0
102
{ACAD_REACTORS
330
99A
102
}
330
1E
100
AcDbEntity
  8
STEMPEL
100
AcDbLine
 10
60.40413217564879
 20
356.7895290139177
 30
0.0
 11
150.1000573291186
 21
356.7895290139176
 31
0.0
  0
LINE
  5
4C1
102
{ACAD_REACTORS
330
4A1
102
}
330
1E
100
AcDbEntity
  8
STEMPEL
100
AcDbLine
 10
60.40413217564901
 20
352.9108493574772
 30
0.0
 11
62.52545251920856
 21
355.032169701037
 31
0.0
  0
LINE
  5
4C2
102
{ACAD_REACTORS
330
4A1
102
}
330
1E
100
AcDbEntity
  8
STEMPEL
100
AcDbLine
 10
62.52545251920856
 20
350.7895290139177
 30
0.0
 11
64.64677286276856
 21
352.9108493574772
 31
0.0
  0
LINE
  5
4C3
102
{ACAD_REACTORS
330
4A1
102
}
330
1E
100
AcDbEntity
  8
STEMPEL
100
AcDbLine
 10
60.40413217564901
 20
352.9108493574772
 30
0.0
 11
62.52545251920856
 21
350.7895290139174
 31
0.0
  0
ARC
  5
4C4
102
{ACAD_REACTORS
330
4A1
102
}
330
1E
100
AcDbEntity
  8
STEMPEL
100
AcDbCircle
 10
66.7680932063281
 20
350.7895290139177
 30
0.0
 40
3.0
100
AcDbArc
 50
90.0
 51
134.9999999999993
  0
ARC
  5
4C5
102
{ACAD_REACTORS
330
4A1
102
}
330
1E
100
AcDbEntity
  8
STEMPEL
100
AcDbCircle
 10
66.7680932063281
 20
350.7895290139177
 30
0.0
 40
6.0
100
AcDbArc
 50
90.0
 51
134.9999999999993
  0
LINE
  5
4C6
102
{ACAD_REACTORS
330
99A
102
}
330
1E
100
AcDbEntity
  8
STEMPEL
100
AcDbLine
 10
60.40413217564879
 20
359.7895290139177
 30
0.0
 11
60.40413217564879
 21
356.7895290139177
 31
0.0
  0
ARC
  5
4C8
330
1E
100
AcDbEntity
  8
STEMPEL
100
AcDbCircle
 10
68.40413217564878
 20
365.2895290139177
 30
0.0
 40
3.0
100
AcDbArc
 50
90.0
 51
270.0
  0
LINE
  5
4CA
102
{ACAD_REACTORS
330
4A0
102
}
330
1E
100
AcDbEntity
  8
STEMPEL
100
AcDbLine
 10
158.9041321756553
 20
311.8914738346773
 30
0.0
 11
158.9041321756529
 21
185.7853301481383
 31
0.0
  0
LINE
  5
4CB
102
{ACAD_REACTORS
330
4A0
102
}
330
1E
100
AcDbEntity
  8
STEMPEL
100
AcDbLine
 10
160.9041321756554
 20
311.8914738346775
 30
0.0
 11
160.9041321756552
 21
187.683259281568
 31
0.0
  0
ARC
  5
4CC
330
1E
100
AcDbEntity
  8
SCHRAFF
100
AcDbCircle
 10
160.9041321756488
 20
187.6832592815706
 30
0.0
 40
3.5
100
AcDbArc
 50
124.8499045790951
 51
322.1500954209095
  0
HATCH
  5
4CD
330
1E
100
AcDbEntity
  8
SCHRAFF
100
AcDbHatch
 10
0.0
 20
0.0
 30
0.0
210
0.0
220
0.0
230
1.0
  2
_USER
 70
     0
 71
     0
 91
        1
 92
        7
 72
     1
 73
     1
 93
        3
 10
163.6678052247014
 20
185.5356766224072
 42
0.0
 10
158.9041321756463
 20
185.7853301481386
 42
0.0
 10
158.9041321756465
 20
190.555540604838
 42
1.163635840847627
 97
        0
 75
     0
 76
     0
 52
0.0
 41
0.1
 77
     0
 78
     1
 53
0.0
 43
-25.21445812960156
 44
0.0
 45
0.0
 46
0.1
 79
     0
 47
0.0651374704686891
 98
        1
 10
160.6616019836908
 20
184.7154197087244
  0
LINE
  5
4CE
330
1E
100
AcDbEntity
  8
STEMPEL
100
AcDbLine
 10
121.1150246601171
 20
382.2895290139195
 30
0.0
 11
136.1150246601171
 21
382.2895290139193
 31
0.0
  0
LINE
  5
4CF
330
1E
100
AcDbEntity
  8
STEMPEL
100
AcDbLine
 10
103.404132175649
 20
362.2895290139177
 30
0.0
 11
150.3060559642964
 21
362.2895290139176
 31
0.0
  0
LINE
  5
4D6
330
1E
100
AcDbEntity
  8
STEMPEL
100
AcDbLine
 10
93.40413217564877
 20
380.7895290139186
 30
0.0
 11
103.4041321756488
 21
380.7895290139186
 31
0.0
  0
LINE
  5
4D7
330
1E
100
AcDbEntity
  8
STEMPEL
100
AcDbLine
 10
102.4041321756488
 20
381.7895290139184
 30
0.0
 11
94.40413217564879
 21
381.7895290139184
 31
0.0
  0
LINE
  5
4DA
330
1E
100
AcDbEntity
  8
STEMPEL
100
AcDbLine
 10
91.40413217564901
 20
368.2895290139177
 30
0.0
 11
91.40413217564901
 21
362.2895290139177
 31
0.0
  0
LINE
  5
4DC
102
{ACAD_REACTORS
330
99A
102
}
330
1E
100
AcDbEntity
  8
STEMPEL
100
AcDbLine
 10
91.40413217564901
 20
359.7895290139177
 30
0.0
 11
91.40413217564901
 21
356.7895290139174
 31
0.0
  0
LINE
  5
4DD
330
1E
100
AcDbEntity
  8
STEMPEL
100
AcDbLine
 10
93.40413217564901
 20
368.2895290139177
 30
0.0
 11
93.40413217564901
 21
356.7895290139174
 31
0.0
  0
LINE
  5
4DE
330
1E
100
AcDbEntity
  8
HILF
100
AcDbLine
 10
94.404132175649
 20
368.2895290139177
 30
0.0
 11
94.404132175649
 21
356.7895290139174
 31
0.0
  0
LINE
  5
4E1
330
1E
100
AcDbEntity
  8
STEMPEL
100
AcDbLine
 10
93.40413217564877
 20
380.7895290139184
 30
0.0
 11
93.40413217564877
 21
378.2895290139178
 31
0.0
  0
LINE
  5
4E2
330
1E
100
AcDbEntity
  8
HILF
100
AcDbLine
 10
94.40413217564879
 20
381.7895290139184
 30
0.0
 11
94.40413217564879
 21
378.2895290139178
 31
0.0
  0
LINE
  5
4E4
330
1E
100
AcDbEntity
  8
STEMPEL
100
AcDbLine
 10
94.40413217564879
 20
381.7895290139184
 30
0.0
 11
93.40413217564877
 21
380.7895290139184
 31
0.0
  0
LINE
  5
4E5
330
1E
100
AcDbEntity
  8
HILF
100
AcDbLine
 10
94.404132175649
 20
381.7895290139174
 30
0.0
 11
94.404132175649
 21
378.2895290139178
 31
0.0
  0
LINE
  5
4E6
330
1E
100
AcDbEntity
  8
STEMPEL
100
AcDbLine
 10
93.40413217564901
 20
380.7895290139175
 30
0.0
 11
93.40413217564901
 21
378.2895290139177
 31
0.0
  0
LINE
  5
4E9
330
1E
100
AcDbEntity
  8
HILF
100
AcDbLine
 10
102.404132175649
 20
368.2895290139177
 30
0.0
 11
102.404132175649
 21
356.7895290139174
 31
0.0
  0
LINE
  5
4EA
330
1E
100
AcDbEntity
  8
STEMPEL
100
AcDbLine
 10
103.404132175649
 20
368.2895290139177
 30
0.0
 11
103.404132175649
 21
356.7895290139174
 31
0.0
  0
LINE
  5
4EC
330
1E
100
AcDbEntity
  8
STEMPEL
100
AcDbLine
 10
105.404132175649
 20
368.2895290139177
 30
0.0
 11
105.404132175649
 21
362.2895290139175
 31
0.0
  0
LINE
  5
4EE
102
{ACAD_REACTORS
330
99A
102
}
330
1E
100
AcDbEntity
  8
STEMPEL
100
AcDbLine
 10
105.404132175649
 20
359.7895290139174
 30
0.0
 11
105.404132175649
 21
356.7895290139174
 31
0.0
  0
LINE
  5
4F0
330
1E
100
AcDbEntity
  8
STEMPEL
100
AcDbLine
 10
103.4041321756488
 20
380.7895290139184
 30
0.0
 11
103.4041321756488
 21
378.2895290139177
 31
0.0
  0
LINE
  5
4F1
330
1E
100
AcDbEntity
  8
HILF
100
AcDbLine
 10
102.4041321756488
 20
381.7895290139184
 30
0.0
 11
102.4041321756488
 21
378.2895290139178
 31
0.0
  0
LINE
  5
4F3
330
1E
100
AcDbEntity
  8
STEMPEL
100
AcDbLine
 10
103.4041321756488
 20
380.7895290139184
 30
0.0
 11
102.4041321756488
 21
381.7895290139184
 31
0.0
  0
LINE
  5
4F4
330
1E
100
AcDbEntity
  8
HILF
100
AcDbLine
 10
102.404132175649
 20
381.7895290139174
 30
0.0
 11
102.404132175649
 21
378.2895290139178
 31
0.0
  0
LINE
  5
4F5
330
1E
100
AcDbEntity
  8
STEMPEL
100
AcDbLine
 10
103.404132175649
 20
380.7895290139175
 30
0.0
 11
103.404132175649
 21
378.2895290139177
 31
0.0
  0
LINE
  5
4F7
330
1E
100
AcDbEntity
  8
STEMPEL
100
AcDbLine
 10
120.9564059113256
 20
373.2022669817313
 30
0.0
 11
121.1150246601171
 21
382.2895290139174
 31
0.0
  0
ARC
  5
4F8
330
1E
100
AcDbEntity
  8
STEMPEL
100
AcDbCircle
 10
115.9571674355438
 20
373.2895290139177
 30
0.0
 40
5.0
100
AcDbArc
 50
270.0
 51
358.9999999999982
  0
LINE
  5
4F9
330
1E
100
AcDbEntity
  8
MITTEL
100
AcDbLine
 10
128.6150246601171
 20
383.7895290139172
 30
0.0
 11
128.6150246601171
 21
368.2895290139177
 31
0.0
  0
ARC
  5
4FA
330
1E
100
AcDbEntity
  8
STEMPEL
100
AcDbCircle
 10
128.4041321756487
 20
365.2895290139178
 30
0.0
 40
3.0
100
AcDbArc
 50
270.0
 51
90.0
  0
LINE
  5
4FB
102
{ACAD_REACTORS
330
99A
102
}
330
1E
100
AcDbEntity
  8
STEMPEL
100
AcDbLine
 10
130.4041321756488
 20
359.7895290139175
 30
0.0
 11
130.4041321756488
 21
356.7895290139172
 31
0.0
  0
ARC
  5
4FD
102
{ACAD_REACTORS
330
4A0
102
}
330
1E
100
AcDbEntity
  8
STEMPEL
100
AcDbCircle
 10
179.4041321756554
 20
347.1871515694531
 30
0.0
 40
27.5
100
AcDbArc
 50
155.0000000000075
 51
180.0
  0
ARC
  5
4FE
102
{ACAD_REACTORS
330
4A0
102
}
330
1E
100
AcDbEntity
  8
STEMPEL
100
AcDbCircle
 10
179.4041321756554
 20
347.1871515694531
 30
0.0
 40
29.5
100
AcDbArc
 50
155.0000000000075
 51
180.0
  0
ARC
  5
4FF
102
{ACAD_REACTORS
330
4A1
102
}
330
1E
100
AcDbEntity
  8
STEMPEL
100
AcDbCircle
 10
136.0233059260068
 20
350.7895290139177
 30
0.0
 40
6.0
100
AcDbArc
 50
31.19999999999815
 51
90.0
  0
ARC
  5
500
102
{ACAD_REACTORS
330
4A0
102
}
330
1E
100
AcDbEntity
  8
STEMPEL
100
AcDbCircle
 10
172.9041321756552
 20
334.7387931522693
 30
0.0
 40
23.0
100
AcDbArc
 50
180.0
 51
223.0008752288881
  0
ARC
  5
501
102
{ACAD_REACTORS
330
4A0
102
}
330
1E
100
AcDbEntity
  8
STEMPEL
100
AcDbCircle
 10
172.9041321756554
 20
334.7387931522693
 30
0.0
 40
21.0
100
AcDbArc
 50
180.0
 51
223.0008752288881
  0
LINE
  5
502
330
1E
100
AcDbEntity
  8
STEMPEL
100
AcDbLine
 10
151.9041321756488
 20
337.7895290139174
 30
0.0
 11
157.5528808843108
 21
337.7895290139174
 31
0.0
  0
ARC
  5
503
330
1E
100
AcDbEntity
  8
STEMPEL
100
AcDbCircle
 10
164.0721822074541
 20
345.1858033192696
 30
0.0
 40
9.859318604343389
100
AcDbArc
 50
206.4809617699798
 51
238.386994176981
  0
LINE
  5
504
102
{ACAD_REACTORS
330
4A1
102
}
330
1E
100
AcDbEntity
  8
STEMPEL
100
AcDbLine
 10
141.1554914869698
 20
353.8976910701566
 30
0.0
 11
149.6541321756551
 21
339.8647673547622
 31
0.0
  0
LINE
  5
505
102
{ACAD_REACTORS
330
4A2
330
4A1
102
}
330
1E
100
AcDbEntity
  8
STEMPEL
100
AcDbLine
 10
138.5893987064882
 20
352.3436100420371
 30
0.0
 11
147.0880393951736
 21
338.3106863266428
 31
0.0
  0
ARC
  5
506
102
{ACAD_REACTORS
330
4A1
102
}
330
1E
100
AcDbEntity
  8
STEMPEL
100
AcDbCircle
 10
136.0233059260068
 20
350.7895290139177
 30
0.0
 40
3.0
100
AcDbArc
 50
31.19999999999815
 51
90.0
  0
LINE
  5
507
102
{ACAD_REACTORS
330
4A2
330
4A0
102
}
330
1E
100
AcDbEntity
  8
STEMPEL
100
AcDbLine
 10
149.9041321756554
 20
347.187151569453
 30
0.0
 11
149.9041321756554
 21
334.7387931522693
 31
0.0
  0
LINE
  5
508
102
{ACAD_REACTORS
330
4A0
102
}
330
1E
100
AcDbEntity
  8
STEMPEL
100
AcDbLine
 10
151.9041321756553
 20
347.187151569453
 30
0.0
 11
151.9041321756553
 21
334.7387931522693
 31
0.0
  0
ARC
  5
509
102
{ACAD_REACTORS
330
4A2
102
}
330
1E
100
AcDbEntity
  8
SCHRAFF
100
AcDbCircle
 10
149.6541321756551
 20
339.8647673547622
 30
0.0
 40
4.0
100
AcDbArc
 50
169.790377890732
 51
273.5833216984718
  0
LINE
  5
50A
102
{ACAD_REACTORS
330
4A2
330
4A1
102
}
330
1E
100
AcDbEntity
  8
STEMPEL
100
AcDbLine
 10
149.6541321756551
 20
339.8647673547622
 30
0.0
 11
147.0880393951736
 21
338.3106863266428
 31
0.0
  0
LINE
  5
50B
102
{ACAD_REACTORS
330
4A2
102
}
330
1E
100
AcDbEntity
  8
STEMPEL
100
AcDbLine
 10
149.6541321756551
 20
339.8647673547622
 30
0.0
 11
149.9041321756552
 21
339.8647673547622
 31
0.0
  0
LINE
  5
50C
330
1E
100
AcDbEntity
  8
STEMPEL
100
AcDbLine
 10
154.7041321756497
 20
340.7895290139173
 30
0.0
 11
155.2472779261574
 21
340.7895290139173
 31
0.0
  0
LINE
  5
50D
330
1E
100
AcDbEntity
  8
STEMPEL
100
AcDbLine
 10
151.9041321756488
 20
337.9895290139164
 30
0.0
 11
154.7041321756497
 21
340.7895290139173
 31
0.0
  0
ARC
  5
50E
102
{ACAD_REACTORS
330
4A0
102
}
330
1E
100
AcDbEntity
  8
STEMPEL
100
AcDbCircle
 10
148.4041321756554
 20
311.8914738346775
 30
0.0
 40
12.5
100
AcDbArc
 50
0.0
 51
43.00087522888818
  0
ARC
  5
50F
102
{ACAD_REACTORS
330
4A0
102
}
330
1E
100
AcDbEntity
  8
STEMPEL
100
AcDbCircle
 10
148.4041321756554
 20
311.8914738346775
 30
0.0
 40
10.5
100
AcDbArc
 50
0.0
 51
43.00087522888818
  0
LINE
  5
510
102
{ACAD_REACTORS
330
4A4
102
}
330
1E
100
AcDbEntity
  8
STEMPEL
100
AcDbLine
 10
160.9041321756485
 20
336.5609183609679
 30
0.0
 11
162.3762525189133
 21
324.6834507001675
 31
0.0
  0
LINE
  5
511
102
{ACAD_REACTORS
330
4A4
102
}
330
1E
100
AcDbEntity
  8
STEMPEL
100
AcDbLine
 10
158.9041321756482
 20
336.4374484569671
 30
0.0
 11
160.3914394555896
 21
324.4374484569672
 31
0.0
  0
LINE
  5
512
330
1E
100
AcDbEntity
  8
STEMPEL
100
AcDbLine
 10
158.9041321756498
 20
367.7895290139172
 30
0.0
 11
153.9282920890086
 21
367.7895290139173
 31
0.0
  0
ARC
  5
513
330
1E
100
AcDbEntity
  8
STEMPEL
100
AcDbCircle
 10
153.8799722622908
 20
364.9895290139173
 30
0.0
 40
2.799999999999999
100
AcDbArc
 50
15.00000000000121
 51
90.0
  0
ARC
  5
514
330
1E
100
AcDbEntity
  8
STEMPEL
100
AcDbCircle
 10
141.2728818846906
 20
373.2895290139174
 30
0.0
 40
5.0
100
AcDbArc
 50
181.0000000000017
 51
270.0
  0
LINE
  5
515
330
1E
100
AcDbEntity
  8
STEMPEL
100
AcDbLine
 10
136.2736434089086
 20
373.2022669817311
 30
0.0
 11
136.1150246601171
 21
382.2895290139174
 31
0.0
  0
LINE
  5
516
330
1E
100
AcDbEntity
  8
STEMPEL
100
AcDbLine
 10
149.9041321756496
 20
360.7895290139173
 30
0.0
 11
151.2236997753992
 21
365.7142223402044
 31
0.0
  0
LINE
  5
517
102
{ACAD_REACTORS
330
4A0
102
}
330
1E
100
AcDbEntity
  8
STEMPEL
100
AcDbLine
 10
155.4041321756488
 20
360.7895290139173
 30
0.0
 11
149.9041321756496
 21
360.7895290139172
 31
0.0
  0
LINE
  5
518
102
{ACAD_REACTORS
330
4A0
102
}
330
1E
100
AcDbEntity
  8
STEMPEL
100
AcDbLine
 10
155.4041321756554
 20
360.7895290139173
 30
0.0
 11
154.4806680321473
 21
358.8091537673224
 31
0.0
  0
LINE
  5
519
102
{ACAD_REACTORS
330
4A0
102
}
330
1E
100
AcDbEntity
  8
STEMPEL
100
AcDbLine
 10
153.1973763377302
 20
360.7895290139173
 30
0.0
 11
152.6680524580741
 21
359.6543902908039
 31
0.0
  0
ARC
  5
51A
330
1E
100
AcDbEntity
  8
STEMPEL
100
AcDbCircle
 10
153.9282920890086
 20
364.9895290139173
 30
0.0
 40
2.799999999999999
100
AcDbArc
 50
90.0
 51
164.9999999999988
  0
LINE
  5
51B
330
1E
100
AcDbEntity
  8
STEMPEL
100
AcDbLine
 10
158.9041321756494
 20
360.7895290139173
 30
0.0
 11
156.5845645759002
 21
365.7142223402044
 31
0.0
  0
LINE
  5
51E
102
{ACAD_REACTORS
330
4A4
102
}
330
1E
100
AcDbEntity
  8
STEMPEL
  6
Continuous
100
AcDbLine
 10
289.9041321756487
 20
573.4419046593984
 30
0.0
 11
289.9041321756487
 21
336.5609183609679
 31
0.0
  0
LINE
  5
51F
102
{ACAD_REACTORS
330
4A4
102
}
330
1E
100
AcDbEntity
  8
STEMPEL
  6
Continuous
100
AcDbLine
 10
291.9041321756489
 20
573.4419046593984
 30
0.0
 11
291.9041321756489
 21
336.4374484569672
 31
0.0
  0
LINE
  5
520
102
{ACAD_REACTORS
330
8E9
102
}
330
1E
100
AcDbEntity
  8
STEMPEL
100
AcDbLine
 10
503.8981779182589
 20
300.8874803626188
 30
0.0
 11
291.9041321756483
 21
311.9976175212172
 31
0.0
  0
LINE
  5
521
102
{ACAD_REACTORS
330
8E9
102
}
330
1E
100
AcDbEntity
  8
STEMPEL
100
AcDbLine
 10
503.6938914691421
 20
298.8954418697587
 30
0.0
 11
289.9041321756483
 21
310.0996883877874
 31
0.0
  0
DIMENSION
  5
522
330
1E
100
AcDbEntity
  8
SCHRAFF
100
AcDbDimension
  2
*D7
 10
558.3219080827404
 20
233.9552567390102
 30
0.0
 11
552.8219080827405
 21
295.3723928764635
 31
0.0
 70
    32
  1
123
 71
     5
 42
122.8342722749066
  3
Standard
100
AcDbAlignedDimension
 13
390.4041321756488
 23
356.7895290139168
 33
0.0
 14
536.3762323461935
 24
233.9552567390102
 34
0.0
 50
90.0
100
AcDbRotatedDimension
1001
ACAD
1000
DSTYLE
1002
{
1070
    40
1040
2.0
1070
    41
1040
3.5
1070
    42
1040
1.0
1070
    43
1040
7.0
1070
    44
1040
1.0
1070
    47
1040
2.0
1070
    48
1040
2.0
1070
    73
1070
     0
1070
    74
1070
     0
1070
    77
1070
     1
1070
    78
1070
     8
1070
    79
1070
     2
1070
   140
1040
3.5
1070
   141
1040
1.5
1070
   146
1040
0.5142857142857144
1070
   147
1040
1.0
1070
   172
1070
     1
1070
   178
1070
     1
1070
   179
1070
     1
1070
   271
1070
     1
1070
   272
1070
     1
1070
   279
1070
     0
1002
}
  0
LINE
  5
523
102
{ACAD_REACTORS
330
4A1
102
}
330
1E
100
AcDbEntity
  8
STEMPEL
100
AcDbLine
 10
299.2975784922015
 20
356.789529013917
 30
0.0
 11
390.4041321756488
 21
356.7895290139168
 31
0.0
  0
LINE
  5
526
330
1E
100
AcDbEntity
  8
STEMPEL
100
AcDbLine
 10
300.5022083870029
 20
362.2895290139173
 30
0.0
 11
382.4041321756488
 21
362.2895290139171
 31
0.0
  0
LINE
  5
527
330
1E
100
AcDbEntity
  8
STEMPEL
100
AcDbLine
 10
360.0619894002225
 20
368.2895290139179
 30
0.0
 11
382.4041321756488
 21
368.2895290139179
 31
0.0
  0
LINE
  5
528
102
{ACAD_REACTORS
330
99A
102
}
330
1E
100
AcDbEntity
  8
STEMPEL
100
AcDbLine
 10
390.4041321756488
 20
356.7895290139167
 30
0.0
 11
300.7082070221786
 21
356.789529013917
 31
0.0
  0
LINE
  5
529
330
1E
100
AcDbEntity
  8
STEMPEL
100
AcDbLine
 10
311.2776807195018
 20
350.789529013917
 30
0.0
 11
388.2828118320889
 21
350.7895290139168
 31
0.0
  0
LINE
  5
52A
102
{ACAD_REACTORS
330
4A1
102
}
330
1E
100
AcDbEntity
  8
STEMPEL
100
AcDbLine
 10
384.0401711449698
 20
353.7895290139177
 30
0.0
 11
314.7849584253033
 21
353.7895290139176
 31
0.0
  0
LINE
  5
52B
330
1E
100
AcDbEntity
  8
STEMPEL
100
AcDbLine
 10
291.9041321756489
 20
368.289529013918
 30
0.0
 11
334.7462749510757
 21
368.2895290139179
 31
0.0
  0
ARC
  5
52F
102
{ACAD_REACTORS
330
4A0
102
}
330
1E
100
AcDbEntity
  8
STEMPEL
100
AcDbCircle
 10
271.4041321756551
 20
347.1871515694531
 30
0.0
 40
29.5
100
AcDbArc
 50
0.0
 51
24.9999999999925
  0
ARC
  5
530
102
{ACAD_REACTORS
330
4A1
102
}
330
1E
100
AcDbEntity
  8
STEMPEL
100
AcDbCircle
 10
314.7849584253033
 20
350.7895290139177
 30
0.0
 40
6.0
100
AcDbArc
 50
90.0
 51
148.8000000000018
  0
ARC
  5
531
102
{ACAD_REACTORS
330
4A0
102
}
330
1E
100
AcDbEntity
  8
STEMPEL
100
AcDbCircle
 10
271.4041321756551
 20
347.1871515694531
 30
0.0
 40
27.5
100
AcDbArc
 50
0.0
 51
24.9999999999925
  0
ARC
  5
533
102
{ACAD_REACTORS
330
4A0
102
}
330
1E
100
AcDbEntity
  8
STEMPEL
100
AcDbCircle
 10
277.9041321756551
 20
334.7387931522693
 30
0.0
 40
21.0
100
AcDbArc
 50
316.9991247711119
 51
0.0
  0
ARC
  5
534
102
{ACAD_REACTORS
330
4A0
102
}
330
1E
100
AcDbEntity
  8
STEMPEL
100
AcDbCircle
 10
277.9041321756551
 20
334.7387931522693
 30
0.0
 40
23.0
100
AcDbArc
 50
316.9991247711118
 51
0.0
  0
ARC
  5
535
330
1E
100
AcDbEntity
  8
STEMPEL
100
AcDbCircle
 10
286.7360821438424
 20
345.1858033192716
 30
0.0
 40
9.859318604346695
100
AcDbArc
 50
301.6130058230302
 51
333.5190382300201
  0
LINE
  5
536
330
1E
100
AcDbEntity
  8
STEMPEL
100
AcDbLine
 10
298.9041321756484
 20
337.7895290139174
 30
0.0
 11
293.2553834669885
 21
337.7895290139173
 31
0.0
  0
ARC
  5
538
102
{ACAD_REACTORS
330
4A0
102
}
330
1E
100
AcDbEntity
  8
STEMPEL
100
AcDbCircle
 10
302.4041321756549
 20
311.8914738346775
 30
0.0
 40
12.5
100
AcDbArc
 50
136.9991247711118
 51
180.0
  0
ARC
  5
539
102
{ACAD_REACTORS
330
4A0
102
}
330
1E
100
AcDbEntity
  8
STEMPEL
100
AcDbCircle
 10
302.4041321756549
 20
311.8914738346775
 30
0.0
 40
10.5
100
AcDbArc
 50
136.9991247711118
 51
179.4209448947722
  0
LINE
  5
53B
102
{ACAD_REACTORS
330
4A0
102
}
330
1E
100
AcDbEntity
  8
STEMPEL
100
AcDbLine
 10
289.9041321756552
 20
311.8914738346773
 30
0.0
 11
289.9041321756549
 21
310.0996883877871
 31
0.0
  0
LINE
  5
53D
102
{ACAD_REACTORS
330
4A4
102
}
330
1E
100
AcDbEntity
  8
STEMPEL
100
AcDbLine
 10
289.9041321756487
 20
336.5609183609679
 30
0.0
 11
288.4320118323839
 21
324.6834507001675
 31
0.0
  0
LINE
  5
53E
102
{ACAD_REACTORS
330
4A4
102
}
330
1E
100
AcDbEntity
  8
STEMPEL
100
AcDbLine
 10
291.904132175649
 20
336.4374484569671
 30
0.0
 11
290.4168248957077
 21
324.4374484569672
 31
0.0
  0
LINE
  5
53F
102
{ACAD_REACTORS
330
4A1
102
}
330
1E
100
AcDbEntity
  8
STEMPEL
100
AcDbLine
 10
309.6527728643405
 20
353.8976910701566
 30
0.0
 11
301.1541321756549
 21
339.8647673547622
 31
0.0
  0
LINE
  5
540
102
{ACAD_REACTORS
330
4A2
330
4A1
102
}
330
1E
100
AcDbEntity
  8
STEMPEL
100
AcDbLine
 10
312.2188656448218
 20
352.3436100420371
 30
0.0
 11
303.7202249561365
 21
338.3106863266428
 31
0.0
  0
LINE
  5
541
102
{ACAD_REACTORS
330
4A0
102
}
330
1E
100
AcDbEntity
  8
STEMPEL
100
AcDbLine
 10
298.9041321756551
 20
347.187151569453
 30
0.0
 11
298.904132175655
 21
334.738793152269
 31
0.0
  0
LINE
  5
542
102
{ACAD_REACTORS
330
4A2
330
4A0
102
}
330
1E
100
AcDbEntity
  8
STEMPEL
100
AcDbLine
 10
300.9041321756551
 20
347.187151569453
 30
0.0
 11
300.9041321756551
 21
334.7387931522693
 31
0.0
  0
ARC
  5
543
102
{ACAD_REACTORS
330
4A2
102
}
330
1E
100
AcDbEntity
  8
SCHRAFF
100
AcDbCircle
 10
301.1541321756549
 20
339.8647673547622
 30
0.0
 40
4.0
100
AcDbArc
 50
266.4166783015282
 51
10.20962210926797
  0
LINE
  5
544
330
1E
100
AcDbEntity
  8
STEMPEL
100
AcDbLine
 10
298.9041321756483
 20
337.9895290139187
 30
0.0
 11
296.1041321756496
 21
340.7895290139173
 31
0.0
  0
LINE
  5
545
330
1E
100
AcDbEntity
  8
STEMPEL
100
AcDbLine
 10
296.1041321756496
 20
340.7895290139173
 30
0.0
 11
295.5609864251418
 21
340.7895290139173
 31
0.0
  0
LINE
  5
546
330
1E
100
AcDbEntity
  8
STEMPEL
100
AcDbLine
 10
298.9041321756496
 20
347.1956727004571
 30
0.0
 11
298.9041321756496
 21
344.7061844771087
 31
0.0
  0
LINE
  5
547
102
{ACAD_REACTORS
330
4A2
102
}
330
1E
100
AcDbEntity
  8
STEMPEL
100
AcDbLine
 10
301.1541321756549
 20
339.8647673547622
 30
0.0
 11
300.9041321756551
 21
339.8647673547622
 31
0.0
  0
LINE
  5
548
102
{ACAD_REACTORS
330
4A2
330
4A1
102
}
330
1E
100
AcDbEntity
  8
STEMPEL
100
AcDbLine
 10
301.1541321756549
 20
339.8647673547622
 30
0.0
 11
303.7202249561365
 21
338.3106863266428
 31
0.0
  0
ARC
  5
549
102
{ACAD_REACTORS
330
4A1
102
}
330
1E
100
AcDbEntity
  8
STEMPEL
100
AcDbCircle
 10
314.7849584253033
 20
350.7895290139177
 30
0.0
 40
3.0
100
AcDbArc
 50
90.0
 51
148.8000000000018
  0
LINE
  5
54A
330
1E
100
AcDbEntity
  8
STEMPEL
100
AcDbLine
 10
296.8799722622907
 20
367.7895290139173
 30
0.0
 11
291.9041321756499
 21
367.7895290139173
 31
0.0
  0
ARC
  5
54B
330
1E
100
AcDbEntity
  8
STEMPEL
100
AcDbCircle
 10
296.9282920890085
 20
364.9895290139173
 30
0.0
 40
2.799999999999999
100
AcDbArc
 50
90.0
 51
164.9999999999988
  0
LINE
  5
54C
330
1E
100
AcDbEntity
  8
STEMPEL
100
AcDbLine
 10
291.9041321756499
 20
360.7895290139173
 30
0.0
 11
294.2236997753991
 21
365.7142223402044
 31
0.0
  0
LINE
  5
54D
330
1E
100
AcDbEntity
  8
STEMPEL
100
AcDbLine
 10
300.9041321756496
 20
360.7895290139173
 30
0.0
 11
299.5845645759001
 21
365.7142223402044
 31
0.0
  0
LINE
  5
54E
102
{ACAD_REACTORS
330
4A0
102
}
330
1E
100
AcDbEntity
  8
STEMPEL
100
AcDbLine
 10
300.9041321756496
 20
360.7895290139173
 30
0.0
 11
295.4041321756481
 21
360.7895290139173
 31
0.0
  0
LINE
  5
54F
102
{ACAD_REACTORS
330
4A0
102
}
330
1E
100
AcDbEntity
  8
STEMPEL
100
AcDbLine
 10
297.6108880135801
 20
360.7895290139173
 30
0.0
 11
298.1402118932363
 21
359.6543902908039
 31
0.0
  0
LINE
  5
550
102
{ACAD_REACTORS
330
4A0
102
}
330
1E
100
AcDbEntity
  8
STEMPEL
100
AcDbLine
 10
295.4041321756549
 20
360.7895290139173
 30
0.0
 11
296.3275963191629
 21
358.8091537673224
 31
0.0
  0
ARC
  5
551
330
1E
100
AcDbEntity
  8
STEMPEL
100
AcDbCircle
 10
296.8799722622907
 20
364.9895290139173
 30
0.0
 40
2.799999999999999
100
AcDbArc
 50
15.00000000000121
 51
90.0
  0
LINE
  5
554
330
1E
100
AcDbEntity
  8
STEMPEL
100
AcDbLine
 10
339.9041321756489
 20
382.2895290139179
 30
0.0
 11
354.904132175649
 21
382.2895290139177
 31
0.0
  0
LINE
  5
558
330
1E
100
AcDbEntity
  8
STEMPEL
100
AcDbLine
 10
330.1932396911804
 20
381.7895290139184
 30
0.0
 11
322.1932396911804
 21
381.7895290139184
 31
0.0
  0
LINE
  5
559
330
1E
100
AcDbEntity
  8
STEMPEL
100
AcDbLine
 10
321.1932396911804
 20
380.7895290139186
 30
0.0
 11
331.1932396911804
 21
380.7895290139186
 31
0.0
  0
ARC
  5
55B
330
1E
100
AcDbEntity
  8
STEMPEL
100
AcDbCircle
 10
322.4041321756488
 20
365.2895290139178
 30
0.0
 40
3.0
100
AcDbArc
 50
90.0
 51
270.0
  0
LINE
  5
55C
102
{ACAD_REACTORS
330
99A
102
}
330
1E
100
AcDbEntity
  8
STEMPEL
100
AcDbLine
 10
320.4041321756487
 20
359.7895290139169
 30
0.0
 11
320.4041321756487
 21
356.7895290139168
 31
0.0
  0
LINE
  5
55E
330
1E
100
AcDbEntity
  8
STEMPEL
100
AcDbLine
 10
321.1600063926353
 20
362.2895290139172
 30
0.0
 11
321.1600063926351
 21
359.7895290139168
 31
0.0
  0
LINE
  5
55F
330
1E
100
AcDbEntity
  8
HILF
100
AcDbLine
 10
322.160006392635
 20
362.2895290139172
 30
0.0
 11
322.1600063926351
 21
359.7895290139168
 31
0.0
  0
LINE
  5
560
330
1E
100
AcDbEntity
  8
STEMPEL
100
AcDbLine
 10
321.1932396911804
 20
380.7895290139184
 30
0.0
 11
321.1932396911804
 21
378.2895290139178
 31
0.0
  0
LINE
  5
561
330
1E
100
AcDbEntity
  8
HILF
100
AcDbLine
 10
322.1932396911804
 20
381.7895290139184
 30
0.0
 11
322.1932396911804
 21
378.2895290139179
 31
0.0
  0
LINE
  5
563
330
1E
100
AcDbEntity
  8
STEMPEL
100
AcDbLine
 10
322.1932396911804
 20
381.7895290139184
 30
0.0
 11
321.1932396911804
 21
380.7895290139184
 31
0.0
  0
ARC
  5
566
330
1E
100
AcDbEntity
  8
STEMPEL
100
AcDbCircle
 10
334.7462749510757
 20
373.2895290139181
 30
0.0
 40
5.0
100
AcDbArc
 50
270.0
 51
358.9999999999982
  0
LINE
  5
567
330
1E
100
AcDbEntity
  8
HILF
100
AcDbLine
 10
330.1600063926353
 20
362.2895290139172
 30
0.0
 11
330.1600063926351
 21
359.7895290139168
 31
0.0
  0
LINE
  5
568
330
1E
100
AcDbEntity
  8
STEMPEL
100
AcDbLine
 10
331.1600063926354
 20
362.2895290139172
 30
0.0
 11
331.1600063926352
 21
359.7895290139168
 31
0.0
  0
LINE
  5
56A
330
1E
100
AcDbEntity
  8
HILF
100
AcDbLine
 10
330.1932396911804
 20
381.7895290139184
 30
0.0
 11
330.1932396911804
 21
378.2895290139179
 31
0.0
  0
LINE
  5
56B
330
1E
100
AcDbEntity
  8
STEMPEL
100
AcDbLine
 10
331.1932396911804
 20
380.7895290139184
 30
0.0
 11
331.1932396911804
 21
378.2895290139179
 31
0.0
  0
LINE
  5
56F
330
1E
100
AcDbEntity
  8
STEMPEL
100
AcDbLine
 10
331.1932396911804
 20
380.7895290139184
 30
0.0
 11
330.1932396911804
 21
381.7895290139184
 31
0.0
  0
LINE
  5
570
330
1E
100
AcDbEntity
  8
STEMPEL
100
AcDbLine
 10
339.7455134268576
 20
373.2022669817318
 30
0.0
 11
339.9041321756489
 21
382.2895290139179
 31
0.0
  0
LINE
  5
571
330
1E
100
AcDbEntity
  8
MITTEL
100
AcDbLine
 10
347.4041321756496
 20
387.2895290139177
 30
0.0
 11
347.4041321756522
 21
362.2895290139171
 31
0.0
  0
LINE
  5
572
330
1E
100
AcDbEntity
  8
HILF
100
AcDbLine
 10
344.4041321756512
 20
382.2895290139177
 30
0.0
 11
344.4041321756485
 21
362.2895290139175
 31
0.0
  0
LINE
  5
573
330
1E
100
AcDbEntity
  8
STEMPEL
100
AcDbLine
 10
345.0541321756519
 20
382.2895290139179
 30
0.0
 11
345.0541321756493
 21
362.2895290139172
 31
0.0
  0
LINE
  5
574
330
1E
100
AcDbEntity
  8
HILF
100
AcDbLine
 10
350.4041321756515
 20
382.2895290139177
 30
0.0
 11
350.4041321756501
 21
362.2895290139175
 31
0.0
  0
LINE
  5
575
330
1E
100
AcDbEntity
  8
STEMPEL
100
AcDbLine
 10
349.7541321756509
 20
382.2895290139177
 30
0.0
 11
349.7541321756493
 21
362.2895290139172
 31
0.0
  0
ARC
  5
576
330
1E
100
AcDbEntity
  8
STEMPEL
100
AcDbCircle
 10
360.0619894002225
 20
373.2895290139179
 30
0.0
 40
4.99999999999995
100
AcDbArc
 50
181.0000000000017
 51
270.0
  0
LINE
  5
577
330
1E
100
AcDbEntity
  8
STEMPEL
100
AcDbLine
 10
354.904132175649
 20
382.2895290139181
 30
0.0
 11
355.0627509244404
 21
373.2022669817316
 31
0.0
  0
TEXT
  5
578
330
1E
100
AcDbEntity
  8
TEXT
 62
     1
100
AcDbText
 10
387.7709338722559
 20
243.8578586962211
 30
0.0
 40
7.0
  1
DN125
 50
356.5193892912067
 41
0.8
  7
GREEKS
100
AcDbText
  0
LINE
  5
579
102
{ACAD_REACTORS
330
4A1
102
}
330
1E
100
AcDbEntity
  8
STEMPEL
100
AcDbLine
 10
390.4041321756488
 20
352.9108493574772
 30
0.0
 11
388.2828118320893
 21
355.032169701037
 31
0.0
  0
LINE
  5
57A
102
{ACAD_REACTORS
330
4A1
102
}
330
1E
100
AcDbEntity
  8
STEMPEL
100
AcDbLine
 10
388.2828118320893
 20
350.7895290139177
 30
0.0
 11
386.1614914885293
 21
352.9108493574772
 31
0.0
  0
ARC
  5
57B
102
{ACAD_REACTORS
330
4A1
102
}
330
1E
100
AcDbEntity
  8
STEMPEL
100
AcDbCircle
 10
384.0401711449698
 20
350.7895290139177
 30
0.0
 40
3.0
100
AcDbArc
 50
45.00000000000064
 51
90.0
  0
LINE
  5
57C
102
{ACAD_REACTORS
330
4A1
102
}
330
1E
100
AcDbEntity
  8
STEMPEL
100
AcDbLine
 10
390.4041321756488
 20
352.9108493574772
 30
0.0
 11
388.2828118320893
 21
350.7895290139174
 31
0.0
  0
ARC
  5
57D
102
{ACAD_REACTORS
330
4A1
102
}
330
1E
100
AcDbEntity
  8
STEMPEL
100
AcDbCircle
 10
384.0401711449698
 20
350.7895290139177
 30
0.0
 40
6.0
100
AcDbArc
 50
45.00000000000064
 51
90.0
  0
ARC
  5
57E
330
1E
100
AcDbEntity
  8
STEMPEL
100
AcDbCircle
 10
382.4041321756488
 20
365.2895290139177
 30
0.0
 40
3.0
100
AcDbArc
 50
270.0
 51
90.0
  0
LINE
  5
57F
102
{ACAD_REACTORS
330
99A
102
}
330
1E
100
AcDbEntity
  8
STEMPEL
100
AcDbLine
 10
390.4041321756487
 20
359.7895290139168
 30
0.0
 11
390.4041321756487
 21
356.7895290139168
 31
0.0
  0
LINE
  5
581
102
{ACAD_REACTORS
330
8E9
102
}
330
1E
100
AcDbEntity
  8
STEMPEL
100
AcDbLine
 10
513.8321373095611
 20
299.3654912654349
 30
0.0
 11
506.976127041736
 21
168.5450222125856
 31
0.0
  0
LINE
  5
582
330
1E
100
AcDbEntity
  8
HILF
100
AcDbLine
 10
503.6888340932867
 20
296.8929622236005
 30
0.0
 11
497.1468395629188
 21
172.0642703792787
 31
0.0
  0
DIMENSION
  5
583
330
1E
100
AcDbEntity
  8
BEM
100
AcDbDimension
  2
*D8
 10
527.9229252213841
 20
166.4458746909023
 30
0.0
 11
525.9108038703897
 21
233.1425865114177
 31
0.0
 70
    33
  1
%%c<>
 71
     5
 42
133.0
  3
Standard
100
AcDbAlignedDimension
 13
503.8981779182589
 23
300.8874803626188
 33
0.0
 14
496.9374957379476
 24
168.0697522402605
 34
0.0
1001
ACAD
1000
DSTYLE
1002
{
1070
    40
1040
2.0
1070
    41
1040
3.5
1070
    42
1040
1.0
1070
    43
1040
7.0
1070
    44
1040
1.0
1070
    47
1040
2.0
1070
    48
1040
2.0
1070
    73
1070
     0
1070
    74
1070
     0
1070
    77
1070
     1
1070
    78
1070
     8
1070
    79
1070
     2
1070
   140
1040
3.5
1070
   141
1040
1.5
1070
   146
1040
0.5142857142857144
1070
   147
1040
1.0
1070
   172
1070
     1
1070
   178
1070
     1
1070
   179
1070
     1
1070
   271
1070
     1
1070
   272
1070
     1
1070
   279
1070
     0
1002
}
  0
LINE
  5
584
102
{ACAD_REACTORS
330
8E9
102
}
330
1E
100
AcDbEntity
  8
STEMPEL
100
AcDbLine
 10
506.976127041736
 20
168.5450222125856
 30
0.0
 11
496.9374957379476
 21
168.0697522402605
 31
0.0
  0
LINE
  5
585
102
{ACAD_REACTORS
330
8E9
102
}
330
1E
100
AcDbEntity
  8
STEMPEL
100
AcDbLine
 10
507.0813210118865
 20
170.5522427357578
 30
0.0
 11
496.9425531138022
 21
170.0722318864187
 31
0.0
  0
LINE
  5
586
102
{ACAD_REACTORS
330
8E9
102
}
330
1E
100
AcDbEntity
  8
STEMPEL
100
AcDbLine
 10
513.7269433394106
 20
297.3582707422625
 30
0.0
 11
503.6938914691421
 21
298.8954418697587
 31
0.0
  0
LINE
  5
587
102
{ACAD_REACTORS
330
8E9
102
}
330
1E
100
AcDbEntity
  8
STEMPEL
100
AcDbLine
 10
513.8321373095611
 20
299.3654912654349
 30
0.0
 11
503.8981779182589
 21
300.8874803626188
 31
0.0
  0
HATCH
  5
588
330
1E
100
AcDbEntity
  8
SCHRAFF
100
AcDbHatch
 10
0.0
 20
0.0
 30
0.0
210
0.0
220
0.0
230
1.0
  2
_USER
 70
     0
 71
     1
 91
        2
 92
        7
 72
     1
 73
     1
 93
       12
 10
135.5610591372442
 20
601.4374484569677
 42
-0.2553615373328711
 10
138.0855914830798
 20
600.0581694184007
 42
0.0
 10
147.1295998298128
 20
585.9706786345769
 42
0.0
 10
149.6541321756487
 20
587.5913995960097
 42
0.0
 10
140.6101238289161
 20
601.6788903798331
 42
0.2553615373329125
 10
135.5610591372442
 20
604.4374484569675
 42
0.0
 10
66.76809320632798
 20
604.4374484569678
 42
0.198912367379669
 10
62.52545251920844
 20
602.6800891440871
 42
0.0
 10
60.40413217564895
 20
600.5587688005273
 42
0.0
 10
62.52545251920836
 20
598.4374484569675
 42
0.0
 10
64.64677286276844
 20
600.5587688005273
 42
-0.1989123673796703
 10
66.76809320632819
 20
601.4374484569677
 42
0.0
 97
       12
330
59B
330
5A2
330
5A5
330
5A4
330
5A3
330
5A8
330
59D
330
5FA
330
5F8
330
5FD
330
5F9
330
5FB
 92
        7
 72
     1
 73
     1
 93
       12
 10
384.0401711449696
 20
601.4374484569677
 42
-0.1989123673796555
 10
386.1614914885291
 20
600.5587688005273
 42
0.0
 10
388.2828118320892
 20
598.4374484569676
 42
0.0
 10
390.4041321756488
 20
600.5587688005276
 42
0.0
 10
388.2828118320891
 20
602.6800891440871
 42
0.19891236737964
 10
384.0401711449699
 20
604.4374484569669
 42
0.0
 10
315.2472052140531
 20
604.437448456967
 42
0.2553615373328966
 10
310.1981405223814
 20
601.6788903798329
 42
0.0
 10
301.1541321756487
 20
587.5913995960096
 42
0.0
 10
303.6786645214845
 20
585.9706786345767
 42
0.0
 10
312.7226728682172
 20
600.0581694184002
 42
-0.255361537332929
 10
315.2472052140531
 20
601.4374484569677
 42
0.0
 97
       12
330
59B
330
6C4
330
6BD
330
6C2
330
6BE
330
6C3
330
6AD
330
72D
330
72C
330
72F
330
730
330
72B
 75
     0
 76
     0
 52
45.0
 41
2.0
 77
     0
 78
     1
 53
45.0
 43
-25.21445812960156
 44
-0.0000000000001137
 45
-1.414213562373094
 46
1.414213562373095
 79
     0
 47
0.6468058204192415
 98
        2
 10
120.0168332129587
 20
602.4996178264176
 10
343.9797759786042
 20
602.4996178264176
  0
LINE
  5
589
330
1E
100
AcDbEntity
  8
HILF
100
AcDbLine
 10
162.4962283191444
 20
576.1206886859542
 30
0.0
 11
288.3120360321529
 21
576.120688685954
 31
0.0
  0
LINE
  5
58A
330
1E
100
AcDbEntity
  8
STEMPEL
100
AcDbLine
 10
149.6541321756487
 20
587.5913995960097
 30
0.0
 11
301.1541321756488
 21
587.5913995960097
 31
0.0
  0
DIMENSION
  5
58C
330
1E
100
AcDbEntity
  8
BEM
100
AcDbDimension
  2
*D9
 10
335.4041321756491
 20
745.7031741049824
 30
0.0
 11
225.404132175649
 21
751.2031741049825
 31
0.0
 70
    32
  1
%%c<>
 71
     5
 42
220.0000000000002
  3
Standard
100
AcDbAlignedDimension
 13
115.4041321756489
 23
699.9373904896522
 33
0.0
 14
335.4041321756491
 24
699.9373904896522
 34
0.0
100
AcDbRotatedDimension
1001
ACAD
1000
DSTYLE
1002
{
1070
    40
1040
2.0
1070
    41
1040
3.5
1070
    42
1040
1.0
1070
    43
1040
7.0
1070
    44
1040
1.0
1070
    47
1040
2.399999999999999
1070
    48
1040
2.399999999999999
1070
    73
1070
     0
1070
    74
1070
     0
1070
    77
1070
     1
1070
    78
1070
     8
1070
   140
1040
3.5
1070
   141
1040
1.5
1070
   145
1040
0.5714285714285714
1070
   147
1040
1.0
1070
   172
1070
     1
1070
   178
1070
     1
1070
   271
1070
     1
1070
   272
1070
     1
1070
   279
1070
     1
1070
   284
1070
     8
1070
   285
1070
     8
1070
   286
1070
     8
1070
   340
1005
24
1002
}
  0
HATCH
  5
58E
330
1E
100
AcDbEntity
  8
SCHRAFF
100
AcDbHatch
 10
0.0
 20
0.0
 30
0.0
210
0.0
220
0.0
230
1.0
  2
_U
 70
     0
 71
     0
 91
        7
 92
        7
 72
     1
 73
     1
 93
        4
 10
91.40413217564884
 20
609.9374484569677
 42
0.0
 10
91.40413217564884
 20
615.9374484569678
 42
0.0
 10
68.40413217564878
 20
615.9374484569678
 42
1.0
 10
68.40413217564878
 20
609.9374484569677
 42
0.0
 97
        0
 92
        7
 72
     1
 73
     1
 93
        4
 10
128.4041321756488
 20
609.9374484569677
 42
1.0
 10
128.4041321756488
 20
615.9374484569678
 42
0.0
 10
105.4041321756488
 20
615.9374484569678
 42
0.0
 10
105.4041321756488
 20
609.9374484569676
 42
0.0
 97
        0
 92
        7
 72
     1
 73
     1
 93
       10
 10
334.7462749510756
 20
615.937448456968
 42
0.0
 10
322.4041321756488
 20
615.937448456968
 42
0.0175906946879192
 10
322.1932396911804
 20
615.9300266698131
 42
0.0
 10
322.1932396911804
 20
609.9448702441224
 42
0.0175906946879065
 10
322.4041321756486
 20
609.9374484569676
 42
0.0
 10
344.4041321756484
 20
609.9374484569673
 42
0.0
 10
344.4041321756502
 20
623.1874484569682
 42
0.0
 10
344.4041321756486
 20
629.937448456968
 42
0.0
 10
339.9041321756488
 20
629.937448456968
 42
0.0
 10
339.7455134268576
 20
620.8501864247821
 42
-0.4091108014277334
 97
        0
 92
        7
 72
     1
 73
     1
 93
        8
 10
355.0627509244404
 20
620.8501864247816
 42
0.0
 10
354.9041321756489
 20
629.937448456968
 42
0.0
 10
350.4041321756493
 20
629.937448456968
 42
0.0
 10
350.404132175651
 20
623.1874484569682
 42
0.0
 10
350.40413217565
 20
609.9374484569676
 42
0.0
 10
382.4041321756488
 20
609.9374484569676
 42
1.0
 10
382.4041321756488
 20
615.937448456968
 42
0.0
 10
360.0619894002223
 20
615.937448456968
 42
-0.4091108014277206
 97
        0
 92
        7
 72
     0
 73
     1
 93
        4
 10
345.0541321756508
 20
622.5374484569672
 10
344.4041321756501
 20
623.1874484569685
 10
344.4041321756483
 20
609.9374484569676
 10
345.0541321756491
 20
609.9374484569676
 97
        0
 92
        7
 72
     0
 73
     1
 93
        4
 10
349.7541321756492
 20
609.9374484569676
 10
350.40413217565
 20
609.9374484569676
 10
350.404132175651
 20
623.1874484569691
 10
349.7541321756502
 20
622.5374484569681
 97
        0
 92
        7
 72
     1
 73
     1
 93
        2
 10
322.1932396911804
 20
615.9300266698125
 42
0.9320082274074453
 10
322.1932396911804
 20
609.9448702441224
 42
0.0
 97
        0
 75
     0
 76
     0
 52
45.0
 41
5.0
 77
     0
 78
     1
 53
45.0
 43
-25.21445812960156
 44
0.0
 45
-3.535533905932737
 46
3.535533905932737
 79
     0
 47
0.4776624557792612
 98
        7
 10
78.30646154795511
 20
612.5759042066738
 10
116.5473704303166
 20
612.098240785089
 10
340.2566855322356
 20
614.4865536955824
 10
354.5970266366352
 20
614.0088916731412
 10
344.764410529924
 20
616.9981493445479
 10
349.9325452246448
 20
615.8388035816301
 10
321.560537926638
 20
613.2039237950491
  0
LINE
  5
58F
330
1E
100
AcDbEntity
  8
STEMPEL
100
AcDbLine
 10
95.40413217564866
 20
629.9374484569707
 30
0.0
 11
344.4041321756487
 21
629.937448456968
 31
0.0
  0
LINE
  5
590
330
1E
100
AcDbEntity
  8
STEMPEL
100
AcDbLine
 10
250.8436467707057
 20
719.9374484569673
 30
0.0
 11
305.4041321756491
 21
719.9374484569678
 31
0.0
  0
LINE
  5
591
330
1E
100
AcDbEntity
  8
HILF
100
AcDbLine
 10
327.7304652331795
 20
702.9374484569705
 30
0.0
 11
122.5777991181181
 21
702.9374484569705
 31
0.0
  0
LINE
  5
592
330
1E
100
AcDbEntity
  8
STEMPEL
100
AcDbLine
 10
145.4041321756489
 20
718.9374484569668
 30
0.0
 11
305.4041321756491
 21
718.9374484569677
 31
0.0
  0
LINE
  5
593
330
1E
100
AcDbEntity
  8
STEMPEL
100
AcDbLine
 10
275.164374221116
 20
630.9374484569691
 30
0.0
 11
261.6897654991216
 21
630.9374484569691
 31
0.0
  0
LWPOLYLINE
  5
594
330
1E
100
AcDbEntity
  8
STEMPEL
100
AcDbPolyline
 90
       18
 70
   128
 43
0.0
 10
273.9468627883868
 20
642.4374484569673
 10
273.8288817531057
 20
643.8155698405919
 10
273.4789563499161
 20
645.1467609533717
 10
272.9090028687343
 20
646.3856896785484
 10
272.1384303917782
 20
647.4901657843177
 10
271.1934798405507
 20
648.4225776615706
 10
270.1063303727307
 20
649.1511731421317
 10
268.9140035595524
 20
649.6511407807649
 10
267.6571026606006
 20
649.9054547791818
 10
266.3784299285022
 20
649.9054547791818
 10
265.1215290295504
 20
649.6511407807649
 10
263.9292022163721
 20
649.1511731421317
 10
262.8420527485521
 20
648.4225776615706
 10
261.8971021973246
 20
647.4901657843177
 10
261.1265297203685
 20
646.3856896785484
 10
260.5565762391867
 20
645.1467609533717
 10
260.206650835997
 20
643.8155698405919
 10
260.0886698007159
 20
642.4374484569673
  0
HATCH
  5
595
330
1E
100
AcDbEntity
  8
SCHRAFF
100
AcDbHatch
 10
0.0
 20
0.0
 30
0.0
210
0.0
220
0.0
230
1.0
  2
_U
 70
     0
 71
     0
 91
        6
 92
        7
 72
     1
 73
     1
 93
        6
 10
95.40413217564879
 20
630.937448456968
 42
0.0
 10
95.40413217564866
 20
629.9374484569709
 42
0.0
 10
110.4041321756489
 20
629.9374484569705
 42
0.131652497587392
 10
113.4041321756489
 20
630.7412960342637
 42
0.0
 10
113.4041321756489
 20
631.9374484569682
 42
-0.1622776601683613
 10
110.4041321756492
 20
630.9374484569682
 42
0.0
 97
        0
 92
        7
 72
     1
 73
     1
 93
        6
 10
116.404132175649
 20
654.9374484569691
 42
0.0
 10
115.4041321756489
 20
654.9374484569691
 42
0.0
 10
115.4041321756489
 20
635.9374484569682
 42
-0.2360679774997897
 10
113.4041321756489
 20
631.9374484569682
 42
0.0
 10
113.4041321756489
 20
630.7412960342615
 42
0.2679491924311254
 10
116.404132175649
 20
635.9374484569682
 42
0.0
 97
        0
 92
        7
 72
     1
 73
     1
 93
       40
 10
118.3714375539518
 20
705.1145290170177
 42
0.2662608607109159
 10
115.4041321756489
 20
699.9373904896524
 42
0.0
 10
115.4041321756489
 20
694.9374484569691
 42
0.0
 10
116.404132175649
 20
694.9374484569691
 42
0.0
 10
116.404132175649
 20
699.9373904896522
 42
-0.2667503951500923
 10
118.8847786075217
 20
704.2562859038487
 42
0.0
 10
142.8636325004692
 20
718.2439390700317
 42
-0.1340385084115268
 10
145.4041321756488
 20
718.9374484569668
 42
0.0
 10
200.1424943479983
 20
718.9374484569673
 42
0.2679491924311331
 10
202.3075578574594
 20
720.1874484569673
 42
-0.2679491924311204
 10
202.7405705593517
 20
720.4374484569673
 42
0.0
 10
202.9405705593518
 20
720.4374484569673
 42
-0.2679491924312903
 10
203.3735832612444
 20
720.1874484569676
 42
0.2679491924311459
 10
205.5386467707056
 20
718.9374484569673
 42
0.0
 10
207.597494347998
 20
718.9374484569673
 42
0.2679491924311487
 10
209.7625578574592
 20
720.1874484569676
 42
-0.2679491924310494
 10
210.1955705593513
 20
720.4374484569673
 42
0.0
 10
210.3955705593518
 20
720.4374484569673
 42
-0.2679491924309788
 10
210.8285832612437
 20
720.1874484569673
 42
0.2679491924311188
 10
212.9936467707047
 20
718.9374484569673
 42
0.0
 10
219.4474943479989
 20
718.9374484569673
 42
0.2679491924310907
 10
221.6125578574598
 20
720.1874484569673
 42
-0.2679491924312511
 10
222.0455705593521
 20
720.4374484569673
 42
0.0
 10
225.4041321756489
 20
720.4374484569673
 42
0.0
 10
225.4041321756489
 20
721.4374484569673
 42
0.0
 10
222.0455705593516
 20
721.4374484569673
 42
0.2679491924310706
 10
220.7465324536753
 20
720.6874484569673
 42
-0.2679491924311248
 10
219.4474943479986
 20
719.9374484569673
 42
0.0
 10
212.9936467707047
 20
719.9374484569673
 42
-0.2679491924310946
 10
211.6946086650282
 20
720.6874484569673
 42
0.285907654623734
 10
210.2955705593522
 20
721.4341114116771
 42
0.2859076546239871
 10
208.8965324536749
 20
720.6874484569673
 42
-0.2679491924311237
 10
207.5974943479983
 20
719.9374484569673
 42
0.0
 10
205.5386467707057
 20
719.9374484569673
 42
-0.2679491924311664
 10
204.2396086650287
 20
720.6874484569673
 42
0.2859076546237742
 10
202.8405705593526
 20
721.4341114116771
 42
0.2859076546240356
 10
201.441532453675
 20
720.6874484569673
 42
-0.2679491924311194
 10
200.1424943479984
 20
719.9374484569673
 42
0.0
 10
145.4041321756488
 20
719.9374484569668
 42
0.1316524975840433
 10
142.4041321757171
 20
719.1336008797136
 42
0.0
 97
        0
 92
        7
 72
     1
 73
     1
 93
       39
 10
308.4041321755669
 20
719.1336008797216
 42
0.1316524975833739
 10
305.4041321756492
 20
719.9374484569678
 42
0.0
 10
250.8436467707057
 20
719.9374484569673
 42
-0.2679491924311991
 10
249.5446086650287
 20
720.6874484569673
 42
0.2859076546238128
 10
248.1455705593522
 20
721.4341114116771
 42
0.2859076546238881
 10
246.7465324536755
 20
720.6874484569673
 42
-0.2679491924311304
 10
245.4474943479988
 20
719.9374484569673
 42
0.0
 10
238.9936467707054
 20
719.9374484569673
 42
-0.2679491924311332
 10
237.6946086650286
 20
720.6874484569673
 42
0.2859076546241097
 10
236.2955705593506
 20
721.4341114116771
 42
0.3607372083885869
 10
234.7432018045239
 20
720.3124484569673
 42
-0.3419987131195785
 10
234.259078886248
 20
719.9374484569673
 42
0.0
 10
234.0703296936486
 20
719.9374484569673
 42
-0.3419987131194884
 10
233.5862067753729
 20
720.3124484569673
 42
0.3419987131196405
 10
232.1338380205451
 20
721.4374484569673
 42
0.0
 10
225.4041321756489
 20
721.4374484569673
 42
0.0
 10
225.4041321756489
 20
720.4374484569673
 42
0.0
 10
232.1338380205452
 20
720.4374484569673
 42
-0.3419987131194818
 10
232.6179609388209
 20
720.0624484569673
 42
0.3596757619904723
 10
234.1647042899481
 20
718.9404202556386
 42
0.359675761990524
 10
235.7114476410755
 20
720.0624484569673
 42
-0.3419987131196628
 10
236.1955705593515
 20
720.4374484569673
 42
0.0
 10
236.3955705593518
 20
720.4374484569673
 42
-0.2679491924311947
 10
236.828583261244
 20
720.1874484569673
 42
0.2679491924311145
 10
238.9936467707051
 20
718.9374484569675
 42
0.0
 10
245.4474943479994
 20
718.9374484569675
 42
0.2679491924310684
 10
247.61255785746
 20
720.1874484569673
 42
-0.2679491924312787
 10
248.0455705593524
 20
720.4374484569673
 42
0.0
 10
248.2455705593517
 20
720.4374484569673
 42
-0.2679491924313323
 10
248.6785832612444
 20
720.1874484569676
 42
0.2679491924311285
 10
250.8436467707055
 20
718.9374484569675
 42
0.0
 10
305.4041321756491
 20
718.9374484569677
 42
-0.1340385084120632
 10
307.9446318508376
 20
718.2439390700267
 42
0.0
 10
331.9234857437762
 20
704.2562859038487
 42
-0.2667503951500853
 10
334.404132175649
 20
699.9373904896524
 42
0.0
 10
334.404132175649
 20
694.9374484569691
 42
0.0
 10
335.4041321756491
 20
694.9374484569691
 42
0.0
 10
335.4041321756491
 20
699.9373904896524
 42
0.2662608607118826
 10
332.4368267973274
 20
705.1145290170286
 42
0.0
 97
        0
 92
        7
 72
     1
 73
     1
 93
        9
 10
335.4041321756492
 20
654.9374484569691
 42
0.0
 10
334.404132175649
 20
654.9374484569691
 42
0.0
 10
334.404132175649
 20
635.9374484569682
 42
0.4142135623731085
 10
340.404132175649
 20
629.937448456968
 42
0.0
 10
343.4041321756489
 20
629.9374484569682
 42
0.0
 10
343.4041321756489
 20
630.9374484569682
 42
0.0
 10
341.4041321756487
 20
630.9374484569682
 42
0.0
 10
340.404132175649
 20
630.9374484569682
 42
-0.4142135623730885
 10
335.4041321756491
 20
635.9374484569682
 42
0.0
 97
        0
 92
        7
 72
     0
 73
     1
 93
        4
 10
351.404132175649
 20
630.937448456968
 10
351.404132175649
 20
629.9374484569682
 10
355.4041321756489
 20
629.937448456968
 10
355.4041321756488
 20
630.9374484569677
 97
        0
 75
     0
 76
     0
 52
45.0
 41
2.0
 77
     0
 78
     1
 53
45.0
 43
-25.21445812960156
 44
0.0
 45
-1.414213562373094
 46
1.414213562373095
 79
     0
 47
0.3139380610148735
 98
        6
 10
103.9385530920798
 20
630.574425129932
 10
116.1902903636131
 20
653.4919028258409
 10
138.4947355431521
 20
716.5934534937191
 10
312.8463866520377
 20
716.2795153618467
 10
335.1508349762052
 20
652.2361502983512
 10
353.0572182840596
 20
630.574425129932
  0
LINE
  5
596
330
1E
100
AcDbEntity
  8
STEMPEL
100
AcDbLine
 10
68.40413217564878
 20
615.9374484569678
 30
0.0
 11
334.7462749510756
 21
615.937448456968
 31
0.0
  0
DIMENSION
  5
597
330
1E
100
AcDbEntity
  8
BEM
100
AcDbDimension
  2
*D10
 10
390.4041321756488
 20
762.1692521312716
 30
0.0
 11
225.4041321756488
 21
767.6692521312716
 31
0.0
 70
    32
  1
%%c<>
 71
     5
 42
330.0
  3
Standard
100
AcDbAlignedDimension
 13
60.40413217564879
 23
607.4374484569678
 33
0.0
 14
390.4041321756488
 24
607.4374484569675
 34
0.0
100
AcDbRotatedDimension
1001
ACAD
1000
DSTYLE
1002
{
1070
    40
1040
2.0
1070
    41
1040
3.5
1070
    42
1040
1.0
1070
    43
1040
8.0
1070
    44
1040
1.5
1070
    47
1040
1.199999999999999
1070
    48
1040
1.199999999999999
1070
    73
1070
     0
1070
    74
1070
     0
1070
    77
1070
     1
1070
    78
1070
     8
1070
   140
1040
3.5
1070
   141
1040
1.5
1070
   147
1040
1.0
1070
   172
1070
     1
1070
   178
1070
     1
1070
   271
1070
     2
1070
   272
1070
     2
1070
   285
1070
     8
1070
   286
1070
     8
1070
   289
1070
     0
1070
   340
1005
24
1002
}
  0
LINE
  5
598
102
{ACAD_REACTORS
330
973
102
}
330
1E
100
AcDbEntity
  8
STEMPEL
100
AcDbLine
 10
103.4041321756488
 20
607.4374484569678
 30
0.0
 11
390.4041321756488
 21
607.4374484569675
 31
0.0
  0
LINE
  5
59A
330
1E
100
AcDbEntity
  8
STEMPEL
100
AcDbLine
 10
103.4041321756488
 20
609.9374484569676
 30
0.0
 11
382.4041321756488
 21
609.9374484569676
 31
0.0
  0
LINE
  5
59B
102
{ACAD_REACTORS
330
588
330
973
102
}
330
1E
100
AcDbEntity
  8
STEMPEL
100
AcDbLine
 10
60.40413217564879
 20
604.4374484569678
 30
0.0
 11
390.4041321756488
 21
604.4374484569669
 31
0.0
  0
DIMENSION
  5
59C
330
1E
100
AcDbEntity
  8
BEM
100
AcDbDimension
  2
*D2
 10
32.36656544466681
 20
719.9374484569668
 30
0.0
 11
26.8665654446667
 21
664.9374484569673
 31
0.0
 70
    32
 71
     5
 42
109.9999999999991
  3
Standard
100
AcDbAlignedDimension
 13
68.40413217564878
 23
609.9374484569677
 33
0.0
 14
145.4041321756489
 24
719.9374484569668
 34
0.0
 50
90.0
100
AcDbRotatedDimension
1001
ACAD
1000
DSTYLE
1002
{
1070
    40
1040
2.0
1070
    41
1040
3.5
1070
    42
1040
1.0
1070
    43
1040
8.0
1070
    44
1040
1.5
1070
    47
1040
1.199999999999999
1070
    48
1040
1.199999999999999
1070
    73
1070
     0
1070
    74
1070
     0
1070
    77
1070
     1
1070
    78
1070
     8
1070
   140
1040
3.5
1070
   141
1040
1.5
1070
   147
1040
1.0
1070
   172
1070
     1
1070
   178
1070
     1
1070
   271
1070
     2
1070
   272
1070
     2
1070
   285
1070
     8
1070
   286
1070
     8
1070
   289
1070
     0
1070
   340
1005
24
1002
}
  0
LINE
  5
59D
102
{ACAD_REACTORS
330
588
102
}
330
1E
100
AcDbEntity
  8
STEMPEL
100
AcDbLine
 10
66.76809320632798
 20
601.4374484569677
 30
0.0
 11
135.5610591372442
 21
601.4374484569677
 31
0.0
  0
LINE
  5
59E
330
1E
100
AcDbEntity
  8
STEMPEL
100
AcDbLine
 10
62.52545251920821
 20
598.4374484569677
 30
0.0
 11
139.1260758480995
 21
598.4374484569673
 31
0.0
  0
LINE
  5
5A0
330
1E
100
AcDbEntity
  8
STEMPEL
100
AcDbLine
 10
68.40413217564878
 20
609.9374484569677
 30
0.0
 11
93.40413217564877
 21
609.9374484569677
 31
0.0
  0
LINE
  5
5A1
102
{ACAD_REACTORS
330
973
102
}
330
1E
100
AcDbEntity
  8
STEMPEL
100
AcDbLine
 10
60.40413217564879
 20
607.4374484569678
 30
0.0
 11
93.40413217564877
 21
607.4374484569678
 31
0.0
  0
ARC
  5
5A2
102
{ACAD_REACTORS
330
588
102
}
330
1E
100
AcDbEntity
  8
STEMPEL
100
AcDbCircle
 10
66.76809320632798
 20
598.4374484569677
 30
0.0
 40
6.0
100
AcDbArc
 50
90.0
 51
134.9999999999996
  0
LINE
  5
5A3
102
{ACAD_REACTORS
330
588
102
}
330
1E
100
AcDbEntity
  8
STEMPEL
100
AcDbLine
 10
62.52545251920844
 20
598.4374484569677
 30
0.0
 11
64.64677286276844
 21
600.5587688005273
 31
0.0
  0
LINE
  5
5A4
102
{ACAD_REACTORS
330
588
102
}
330
1E
100
AcDbEntity
  8
STEMPEL
100
AcDbLine
 10
60.40413217564889
 20
600.5587688005273
 30
0.0
 11
62.52545251920844
 21
598.4374484569675
 31
0.0
  0
LINE
  5
5A5
102
{ACAD_REACTORS
330
588
102
}
330
1E
100
AcDbEntity
  8
STEMPEL
100
AcDbLine
 10
60.40413217564889
 20
600.5587688005273
 30
0.0
 11
62.52545251920844
 21
602.6800891440871
 31
0.0
  0
LINE
  5
5A7
102
{ACAD_REACTORS
330
973
102
}
330
1E
100
AcDbEntity
  8
STEMPEL
100
AcDbLine
 10
60.40413217564879
 20
607.4374484569678
 30
0.0
 11
60.40413217564879
 21
604.4374484569678
 31
0.0
  0
ARC
  5
5A8
102
{ACAD_REACTORS
330
588
102
}
330
1E
100
AcDbEntity
  8
STEMPEL
100
AcDbCircle
 10
66.76809320632798
 20
598.4374484569677
 30
0.0
 40
3.0
100
AcDbArc
 50
90.0
 51
134.9999999999996
  0
ARC
  5
5A9
330
1E
100
AcDbEntity
  8
STEMPEL
100
AcDbCircle
 10
68.40413217564878
 20
612.9374484569678
 30
0.0
 40
3.0
100
AcDbArc
 50
90.0
 51
270.0
  0
LINE
  5
5AA
330
1E
100
AcDbEntity
  8
STEMPEL
100
AcDbLine
 10
232.9041321756491
 20
687.4374484569694
 30
0.0
 11
232.9041321756491
 21
662.4374484569694
 31
0.0
  0
LINE
  5
5AB
330
1E
100
AcDbEntity
  8
STEMPEL
100
AcDbLine
 10
217.9041321756491
 20
687.4374484569678
 30
0.0
 11
217.9041321756491
 21
662.4374484569678
 31
0.0
  0
LINE
  5
5AC
330
1E
100
AcDbEntity
  8
STEMPEL
100
AcDbLine
 10
177.0273125349107
 20
687.4374484569694
 30
0.0
 11
177.0273125349107
 21
662.4374484569694
 31
0.0
  0
LINE
  5
5AD
330
1E
100
AcDbEntity
  8
STEMPEL
100
AcDbLine
 10
164.5381084735869
 20
687.4374484569694
 30
0.0
 11
164.5381084735869
 21
662.437448456971
 31
0.0
  0
LINE
  5
5AE
330
1E
100
AcDbEntity
  8
STEMPEL
100
AcDbLine
 10
177.5284895303528
 20
687.4374484569694
 30
0.0
 11
177.5284895303528
 21
662.4374484569694
 31
0.0
  0
LINE
  5
5AF
330
1E
100
AcDbEntity
  8
STEMPEL
100
AcDbLine
 10
134.113022649297
 20
662.4374484569694
 30
0.0
 11
134.113022649297
 21
687.437448456971
 31
0.0
  0
LINE
  5
5B0
330
1E
100
AcDbEntity
  8
STEMPEL
100
AcDbLine
 10
134.9810866689859
 20
687.4374484569694
 30
0.0
 11
134.9810866689859
 21
662.437448456971
 31
0.0
  0
LINE
  5
5B1
330
1E
100
AcDbEntity
  8
STEMPEL
100
AcDbLine
 10
115.4041321756489
 20
699.9373904896522
 30
0.0
 11
115.4041321756489
 21
635.9374484569682
 31
0.0
  0
LINE
  5
5B2
330
1E
100
AcDbEntity
  8
STEMPEL
100
AcDbLine
 10
116.404132175649
 20
699.9373904896522
 30
0.0
 11
116.404132175649
 21
635.9374484569682
 31
0.0
  0
LINE
  5
5B3
330
1E
100
AcDbEntity
  8
STEMPEL
100
AcDbLine
 10
127.481086668986
 20
687.4374484569694
 30
0.0
 11
127.481086668986
 21
662.4374484569726
 31
0.0
  0
LWPOLYLINE
  5
5B4
330
1E
100
AcDbEntity
  8
STEMPEL
100
AcDbPolyline
 90
       18
 70
   128
 43
0.0
 10
-176.8614015629114
 20
642.4374484569673
 10
-176.9793825981925
 20
643.8155698405919
 10
-177.3293080013822
 20
645.1467609533717
 10
-177.8992614825639
 20
646.3856896785484
 10
-178.66983395952
 20
647.4901657843177
 10
-179.6147845107475
 20
648.4225776615706
 10
-180.7019339785677
 20
649.1511731421317
 10
-181.8942607917458
 20
649.6511407807649
 10
-183.1511616906976
 20
649.9054547791818
 10
-184.429834422796
 20
649.9054547791818
 10
-185.6867353217478
 20
649.6511407807649
 10
-186.879062134926
 20
649.1511731421317
 10
-187.9662116027462
 20
648.4225776615706
 10
-188.9111621539737
 20
647.4901657843177
 10
-189.6817346309298
 20
646.3856896785484
 10
-190.2516881121115
 20
645.1467609533717
 10
-190.6016135153012
 20
643.8155698405919
 10
-190.7195945505823
 20
642.4374484569673
210
0.0
220
0.0
230
-1.0
  0
LINE
  5
5B5
330
1E
100
AcDbEntity
  8
STEMPEL
100
AcDbLine
 10
175.6438901301823
 20
630.9374484569691
 30
0.0
 11
189.1184988521766
 21
630.9374484569691
 31
0.0
  0
ELLIPSE
  5
5B6
330
1E
100
AcDbEntity
  8
STEMPEL
100
AcDbEllipse
 10
130.363022649297
 20
662.437448456971
 30
0.0
 11
0.0
 21
-7.499999999999999
 31
0.0
210
0.0
220
0.0
230
-1.0
 40
0.4999999999999926
 41
4.712388980384689
 42
6.167183451052224
  0
ELLIPSE
  5
5B7
330
1E
100
AcDbEntity
  8
STEMPEL
100
AcDbEllipse
 10
131.231086668986
 20
662.437448456971
 30
0.0
 11
0.0
 21
-7.499999999999999
 31
0.0
210
0.0
220
0.0
230
-1.0
 40
0.4999999999999926
 41
4.712388980384689
 42
7.853981633974482
  0
LWPOLYLINE
  5
5B8
330
1E
100
AcDbEntity
  8
STEMPEL
100
AcDbPolyline
 90
       10
 70
   128
 43
0.0
 10
130.2041510579718
 20
629.9374484569691
 10
130.961900683066
 20
630.0286019388961
 10
131.6966264692415
 20
630.2992927322539
 10
132.3860041452747
 20
630.7412960342626
 10
133.009087319321
 20
631.3411817982555
 10
133.5469439244325
 20
632.0807227988503
 10
133.9832314598314
 20
632.9374484569695
 10
134.3046935495267
 20
633.8853275970154
 10
134.5015627305907
 20
634.8955593909679
 10
134.5678572325776
 20
635.9374484569696
  0
LINE
  5
5BB
330
1E
100
AcDbEntity
  8
MITTEL
100
AcDbLine
 10
98.40413217564879
 20
634.4374484569677
 30
0.0
 11
98.40413217564879
 21
604.4374484569673
 31
0.0
  0
LINE
  5
5BD
102
{ACAD_REACTORS
330
973
102
}
330
1E
100
AcDbEntity
  8
STEMPEL
100
AcDbLine
 10
91.40413217564878
 20
607.4374484569678
 30
0.0
 11
91.40413217564878
 21
604.4374484569673
 31
0.0
  0
LINE
  5
5BE
330
1E
100
AcDbEntity
  8
STEMPEL
100
AcDbLine
 10
91.40413217564878
 20
615.9374484569678
 30
0.0
 11
91.40413217564878
 21
609.9374484569677
 31
0.0
  0
LINE
  5
5BF
330
1E
100
AcDbEntity
  8
STEMPEL
100
AcDbLine
 10
93.40413217564877
 20
615.9374484569678
 30
0.0
 11
93.40413217564877
 21
604.4374484569673
 31
0.0
  0
LINE
  5
5C0
330
1E
100
AcDbEntity
  8
HILF
100
AcDbLine
 10
94.40413217564879
 20
615.9374484569678
 30
0.0
 11
94.40413217564879
 21
604.4374484569673
 31
0.0
  0
LINE
  5
5C1
330
1E
100
AcDbEntity
  8
STEMPEL
100
AcDbLine
 10
103.4041321756488
 20
615.9374484569678
 30
0.0
 11
103.4041321756488
 21
604.4374484569673
 31
0.0
  0
LINE
  5
5C2
330
1E
100
AcDbEntity
  8
HILF
100
AcDbLine
 10
102.4041321756488
 20
615.9374484569678
 30
0.0
 11
102.4041321756488
 21
604.4374484569673
 31
0.0
  0
LINE
  5
5C3
102
{ACAD_REACTORS
330
973
102
}
330
1E
100
AcDbEntity
  8
STEMPEL
100
AcDbLine
 10
105.4041321756488
 20
607.4374484569678
 30
0.0
 11
105.4041321756488
 21
604.4374484569673
 31
0.0
  0
LINE
  5
5C4
330
1E
100
AcDbEntity
  8
STEMPEL
100
AcDbLine
 10
105.4041321756488
 20
615.9374484569678
 30
0.0
 11
105.4041321756488
 21
609.9374484569676
 31
0.0
  0
ARC
  5
5C5
330
1E
100
AcDbEntity
  8
STEMPEL
100
AcDbCircle
 10
128.4041321756488
 20
612.9374484569678
 30
0.0
 40
3.0
100
AcDbArc
 50
270.0
 51
90.0
  0
LINE
  5
5C7
102
{ACAD_REACTORS
330
973
102
}
330
1E
100
AcDbEntity
  8
STEMPEL
100
AcDbLine
 10
130.4041321756488
 20
607.4374484569678
 30
0.0
 11
130.4041321756488
 21
604.4374484569678
 31
0.0
  0
LINE
  5
5C8
330
1E
100
AcDbEntity
  8
STEMPEL
100
AcDbLine
 10
95.40413217564889
 20
630.9374484569677
 30
0.0
 11
110.4041321756491
 21
630.9374484569682
 31
0.0
  0
LINE
  5
5C9
330
1E
100
AcDbEntity
  8
STEMPEL
100
AcDbLine
 10
102.4041321756489
 20
629.4374484569685
 30
0.0
 11
94.4041321756489
 21
629.4374484569685
 31
0.0
  0
LINE
  5
5CA
330
1E
100
AcDbEntity
  8
STEMPEL
100
AcDbLine
 10
93.4041321756489
 20
628.4374484569684
 30
0.0
 11
103.4041321756489
 21
628.4374484569684
 31
0.0
  0
LINE
  5
5D2
330
1E
100
AcDbEntity
  8
HILF
100
AcDbLine
 10
94.4041321756489
 20
629.4374484569685
 30
0.0
 11
94.4041321756489
 21
625.9374484569677
 31
0.0
  0
LINE
  5
5D3
330
1E
100
AcDbEntity
  8
STEMPEL
100
AcDbLine
 10
93.4041321756489
 20
628.4374484569684
 30
0.0
 11
93.4041321756489
 21
625.9374484569677
 31
0.0
  0
LINE
  5
5D4
330
1E
100
AcDbEntity
  8
STEMPEL
100
AcDbLine
 10
95.40413217564879
 20
630.9374484569682
 30
0.0
 11
95.40413217564866
 21
629.9374484569677
 31
0.0
  0
LINE
  5
5D5
330
1E
100
AcDbEntity
  8
STEMPEL
100
AcDbLine
 10
94.4041321756489
 20
629.4374484569685
 30
0.0
 11
93.4041321756489
 21
628.4374484569684
 31
0.0
  0
LINE
  5
5D9
330
1E
100
AcDbEntity
  8
HILF
100
AcDbLine
 10
102.4041321756489
 20
629.4374484569685
 30
0.0
 11
102.4041321756489
 21
625.9374484569677
 31
0.0
  0
LINE
  5
5DA
330
1E
100
AcDbEntity
  8
STEMPEL
100
AcDbLine
 10
103.4041321756489
 20
628.4374484569684
 30
0.0
 11
103.4041321756488
 21
625.9374484569677
 31
0.0
  0
LINE
  5
5DB
330
1E
100
AcDbEntity
  8
STEMPEL
100
AcDbLine
 10
103.4041321756489
 20
628.4374484569684
 30
0.0
 11
102.4041321756489
 21
629.4374484569685
 31
0.0
  0
LWPOLYLINE
  5
5DE
330
1E
100
AcDbEntity
  8
STEMPEL
100
AcDbPolyline
 90
       18
 70
   128
 43
0.0
 10
-122.0698065634182
 20
642.4374484569673
 10
-122.1186759083344
 20
643.8155698405919
 10
-122.2636197561545
 20
645.1467609533717
 10
-122.4997022179817
 20
646.3856896785484
 10
-122.8188837887285
 20
647.4901657843177
 10
-123.2102951228188
 20
648.4225776615706
 10
-123.6606071767168
 20
649.1511731421317
 10
-124.1544851135162
 20
649.6511407807649
 10
-124.6751105124211
 20
649.9054547791818
 10
-125.204754099893
 20
649.9054547791818
 10
-125.7253794987979
 20
649.6511407807649
 10
-126.2192574355973
 20
649.1511731421317
 10
-126.6695694894953
 20
648.4225776615706
 10
-127.0609808235856
 20
647.4901657843177
 10
-127.3801623943324
 20
646.3856896785484
 10
-127.6162448561596
 20
645.1467609533717
 10
-127.7611887039796
 20
643.8155698405919
 10
-127.8100580488959
 20
642.4374484569673
210
0.0
220
0.0
230
-1.0
  0
LWPOLYLINE
  5
5DF
330
1E
100
AcDbEntity
  8
STEMPEL
100
AcDbPolyline
 90
        9
 70
   128
 43
0.0
 10
-124.4769051379051
 20
649.8392067016325
 10
-124.9659656811737
 20
649.5127738038752
 10
-125.4255786490747
 20
648.9675047906177
 10
-125.841528452699
 20
648.2202645474899
 10
-126.2009499819905
 20
647.2941648247124
 10
-126.492726516878
 20
646.2178494027421
 10
-126.7078335616162
 20
645.0246081551113
 10
-126.8396179677237
 20
643.7513474100353
 10
-126.8840037123885
 20
642.4374484569691
210
0.0
220
0.0
230
-1.0
  0
LWPOLYLINE
  5
5E0
330
1E
100
AcDbEntity
  8
STEMPEL
100
AcDbPolyline
 90
       18
 70
   128
 43
0.0
 10
-116.6138194166843
 20
642.4374484569673
 10
-116.6304878401611
 20
643.8155698405919
 10
-116.6799254874215
 20
645.1467609533717
 10
-116.760448818682
 20
646.3856896785484
 10
-116.8693157084736
 20
647.4901657843177
 10
-117.0028188254359
 20
648.4225776615706
 10
-117.15641188104
 20
649.1511731421317
 10
-117.3248644479921
 20
649.6511407807649
 10
-117.502440076161
 20
649.9054547791818
 10
-117.6830916405081
 20
649.9054547791818
 10
-117.860667268677
 20
649.6511407807649
 10
-118.0291198356291
 20
649.1511731421317
 10
-118.1827128912332
 20
648.4225776615706
 10
-118.3162160081955
 20
647.4901657843177
 10
-118.4250828979872
 20
646.3856896785484
 10
-118.5056062292476
 20
645.1467609533717
 10
-118.5550438765081
 20
643.8155698405919
 10
-118.5717122999848
 20
642.4374484569673
210
0.0
220
0.0
230
-1.0
  0
LINE
  5
5E1
330
1E
100
AcDbEntity
  8
STEMPEL
100
AcDbLine
 10
119.9162349307496
 20
630.9374484569691
 30
0.0
 11
124.730432079721
 21
630.9374484569691
 31
0.0
  0
LWPOLYLINE
  5
5E2
330
1E
100
AcDbEntity
  8
STEMPEL
100
AcDbPolyline
 90
       10
 70
   128
 43
0.0
 10
117.2544420368442
 20
629.9374484569691
 10
118.0906213116858
 20
630.0286019388961
 10
118.9013937023884
 20
630.2992927322539
 10
119.6621243001312
 20
630.7412960342626
 10
120.34969869065
 20
631.3411817982555
 10
120.9432252740184
 20
632.0807227988503
 10
121.4246700453396
 20
632.9374484569695
 10
121.77940454886
 20
633.8853275970154
 10
121.9966503561942
 20
634.8955593909679
 10
122.0698065634182
 20
635.9374484569696
  0
ARC
  5
5E3
330
1E
100
AcDbEntity
  8
STEMPEL
100
AcDbCircle
 10
110.404132175649
 20
635.9374484569682
 30
0.0
 40
5.0
100
AcDbArc
 50
270.0
 51
0.0
  0
ARC
  5
5E4
330
1E
100
AcDbEntity
  8
STEMPEL
100
AcDbCircle
 10
110.404132175649
 20
635.9374484569682
 30
0.0
 40
6.0
100
AcDbArc
 50
270.0
 51
0.0
  0
LWPOLYLINE
  5
5E5
330
1E
100
AcDbEntity
  8
STEMPEL
100
AcDbPolyline
 90
       10
 70
   128
 43
0.0
 10
113.065723568954
 20
629.9374484569691
 10
113.9237965652267
 20
630.0035756715419
 10
114.776608764849
 20
630.2561294212721
 10
115.597367071766
 20
630.6871751375897
 10
116.3602854381649
 20
631.2831705080295
 10
117.0413949936642
 20
632.0253909397502
 10
117.6192970836099
 20
632.8905178365478
 10
118.0758355580161
 20
633.8513712072638
 10
118.3966671896137
 20
634.877763588976
 10
118.5717122999848
 20
635.9374484569687
  0
LWPOLYLINE
  5
5E6
330
1E
100
AcDbEntity
  8
STEMPEL
100
AcDbPolyline
 90
        7
 70
   128
 43
0.0
 10
114.9574744027761
 20
630.9374484569696
 10
115.6341762778536
 20
631.5470491848288
 10
116.2337257014875
 20
632.2746082687404
 10
116.7400143746372
 20
633.1005781304206
 10
117.1394396666827
 20
634.0027671556238
 10
117.4212700819456
 20
634.9569359238174
 10
117.5779335864471
 20
635.9374484569696
  0
LWPOLYLINE
  5
5E7
330
1E
100
AcDbEntity
  8
STEMPEL
100
AcDbPolyline
 90
       10
 70
   128
 43
0.0
 10
111.1078306856535
 20
629.9374484569705
 10
111.9659036819263
 20
630.0035756715431
 10
112.8187158815485
 20
630.2561294212733
 10
113.6394741884655
 20
630.6871751375909
 10
114.4023925548645
 20
631.2831705080307
 10
115.0835021103637
 20
632.0253909397513
 10
115.6614042003094
 20
632.8905178365487
 10
116.1179426747156
 20
633.8513712072649
 10
116.4387743063132
 20
634.8777635889771
 10
116.6138194166843
 20
635.9374484569696
  0
LINE
  5
5E8
330
1E
100
AcDbEntity
  8
STEMPEL
100
AcDbLine
 10
113.9933602330137
 20
630.9374484569691
 30
0.0
 11
114.9574744027763
 21
630.9374484569691
 31
0.0
  0
LINE
  5
5E9
330
1E
100
AcDbEntity
  8
STEMPEL
100
AcDbLine
 10
116.6138194166843
 20
642.4374484569673
 30
0.0
 11
116.6138194166843
 21
635.9374484569696
 31
0.0
  0
LINE
  5
5EA
330
1E
100
AcDbEntity
  8
STEMPEL
100
AcDbLine
 10
117.577933586447
 20
642.4374484569673
 30
0.0
 11
117.577933586447
 21
635.9374484569696
 31
0.0
  0
LINE
  5
5EB
330
1E
100
AcDbEntity
  8
STEMPEL
100
AcDbLine
 10
118.5717122999848
 20
642.4374484569673
 30
0.0
 11
118.5717122999848
 21
635.9374484569687
 31
0.0
  0
LWPOLYLINE
  5
5EC
330
1E
100
AcDbEntity
  8
STEMPEL
100
AcDbPolyline
 90
        7
 70
   128
 43
0.0
 10
-117.0958765015655
 20
648.8995025128072
 10
-117.2337055111358
 20
648.1473962758687
 10
-117.3525697881019
 20
647.224682665154
 10
-117.4489177900031
 20
646.1589314152497
 10
-117.5198707375414
 20
644.9819860784284
 10
-117.5633086295493
 20
643.7290125720267
 10
-117.5779335864469
 20
642.4374484569673
210
0.0
220
0.0
230
-1.0
  0
LWPOLYLINE
  5
5ED
330
1E
100
AcDbEntity
  8
STEMPEL
100
AcDbPolyline
 90
       10
 70
   128
 43
0.0
 10
122.994693522322
 20
629.9374484569691
 10
123.8308727971636
 20
630.0286019388961
 10
124.6416451878662
 20
630.2992927322539
 10
125.402375785609
 20
630.7412960342626
 10
126.0899501761278
 20
631.3411817982555
 10
126.6834767594962
 20
632.0807227988503
 10
127.1649215308174
 20
632.9374484569695
 10
127.5196560343378
 20
633.8853275970154
 10
127.7369018416719
 20
634.8955593909679
 10
127.8100580488959
 20
635.9374484569696
  0
LWPOLYLINE
  5
5EE
330
1E
100
AcDbEntity
  8
STEMPEL
100
AcDbPolyline
 90
        7
 70
   128
 43
0.0
 10
124.73043207972
 20
630.9374484569691
 10
125.3505226027844
 20
631.5467863588101
 10
125.8823427495677
 20
632.2742166320993
 10
126.311588549299
 20
633.1001741260431
 10
126.6267148970963
 20
634.0024436765054
 10
126.8192460740622
 20
634.9567576107485
 10
126.8840037123885
 20
635.9374484569696
  0
LINE
  5
5EF
330
1E
100
AcDbEntity
  8
STEMPEL
100
AcDbLine
 10
122.0698065634182
 20
642.4374484569673
 30
0.0
 11
122.0698065634182
 21
635.9374484569709
 31
0.0
  0
LINE
  5
5F0
330
1E
100
AcDbEntity
  8
STEMPEL
100
AcDbLine
 10
127.8100580488959
 20
642.4374484569673
 30
0.0
 11
127.8100580488959
 21
635.9374484569709
 31
0.0
  0
LINE
  5
5F1
330
1E
100
AcDbEntity
  8
STEMPEL
100
AcDbLine
 10
126.8840037123887
 20
642.4374484569673
 30
0.0
 11
126.8840037123887
 21
635.9374484569709
 31
0.0
  0
LINE
  5
5F2
330
1E
100
AcDbEntity
  8
STEMPEL
100
AcDbLine
 10
115.4041321756486
 20
654.9374484569691
 30
0.0
 11
116.4041321756489
 21
654.9374484569691
 31
0.0
  0
LINE
  5
5F3
330
1E
100
AcDbEntity
  8
MITTEL
100
AcDbLine
 10
161.9041321756488
 20
634.4374484569674
 30
0.0
 11
161.9041321756488
 21
604.4374484569673
 31
0.0
  0
LINE
  5
5F6
102
{ACAD_REACTORS
330
4A4
102
}
330
1E
100
AcDbEntity
  8
STEMPEL
100
AcDbLine
 10
148.2399186132757
 20
586.1771860336366
 30
0.0
 11
157.4396660815818
 21
576.9774385653313
 31
0.0
  0
LINE
  5
5F7
102
{ACAD_REACTORS
330
4A4
102
}
330
1E
100
AcDbEntity
  8
STEMPEL
100
AcDbLine
 10
149.6541321756487
 20
587.5913995960097
 30
0.0
 11
158.8538796439547
 21
578.3916521277046
 31
0.0
  0
LINE
  5
5F8
102
{ACAD_REACTORS
330
588
102
}
330
1E
100
AcDbEntity
  8
STEMPEL
100
AcDbLine
 10
138.0855914830801
 20
600.0581694184002
 30
0.0
 11
147.1295998298128
 21
585.9706786345769
 31
0.0
  0
LINE
  5
5F9
102
{ACAD_REACTORS
330
588
102
}
330
1E
100
AcDbEntity
  8
STEMPEL
100
AcDbLine
 10
140.6101238289161
 20
601.6788903798331
 30
0.0
 11
149.6541321756487
 21
587.5913995960097
 31
0.0
  0
ARC
  5
5FA
102
{ACAD_REACTORS
330
588
102
}
330
1E
100
AcDbEntity
  8
STEMPEL
100
AcDbCircle
 10
135.5610591372442
 20
598.4374484569673
 30
0.0
 40
3.0
100
AcDbArc
 50
32.70000000000063
 51
90.0
  0
ARC
  5
5FB
102
{ACAD_REACTORS
330
588
102
}
330
1E
100
AcDbEntity
  8
STEMPEL
100
AcDbCircle
 10
135.5610591372442
 20
598.4374484569673
 30
0.0
 40
6.0
100
AcDbArc
 50
32.70000000000063
 51
90.0
  0
HATCH
  5
5FC
330
1E
100
AcDbEntity
  8
SCHRAFF
100
AcDbHatch
 10
0.0
 20
0.0
 30
0.0
210
0.0
220
0.0
230
1.0
  2
_USER
 70
     0
 71
     0
 91
        1
 92
        7
 72
     1
 73
     1
 93
        4
 10
148.2399186132757
 20
586.1771860336366
 42
0.0
 10
149.6541321756487
 20
587.5913995960097
 42
0.0
 10
147.1295998298128
 20
585.9706786345769
 42
0.2702405669853404
 10
149.82105744336
 20
584.5960472035524
 42
0.0
 97
        0
 75
     0
 76
     0
 52
45.0
 41
0.1
 77
     0
 78
     1
 53
45.0
 43
-141.6938423550423
 44
173.7442571528697
 45
-0.0707106781186548
 46
0.0707106781186548
 79
     0
 47
0.0752656827785136
 98
        1
 10
148.1886817730974
 20
585.8484604049481
  0
LINE
  5
5FD
102
{ACAD_REACTORS
330
588
102
}
330
1E
100
AcDbEntity
  8
STEMPEL
100
AcDbLine
 10
149.6541321756487
 20
587.5913995960097
 30
0.0
 11
147.1295998298128
 21
585.9706786345769
 31
0.0
  0
ARC
  5
5FE
330
1E
100
AcDbEntity
  8
SCHRAFF
100
AcDbCircle
 10
149.6541321756487
 20
587.5913995960097
 30
0.0
 40
3.0
100
AcDbArc
 50
212.7000000000006
 51
273.1896851042213
  0
LINE
  5
5FF
102
{ACAD_REACTORS
330
4A4
102
}
330
1E
100
AcDbEntity
  8
STEMPEL
100
AcDbLine
 10
149.6541321756487
 20
587.5913995960097
 30
0.0
 11
148.2399186132757
 21
586.1771860336366
 31
0.0
  0
ARC
  5
600
102
{ACAD_REACTORS
330
4A4
102
}
330
1E
100
AcDbEntity
  8
STEMPEL
100
AcDbCircle
 10
153.9041321756492
 20
573.4419046593984
 30
0.0
 40
5.0
100
AcDbArc
 50
0.0
 51
45.00000000000036
  0
ARC
  5
601
102
{ACAD_REACTORS
330
4A4
102
}
330
1E
100
AcDbEntity
  8
STEMPEL
100
AcDbCircle
 10
153.9041321756492
 20
573.4419046593984
 30
0.0
 40
7.0
100
AcDbArc
 50
0.0
 51
45.00000000000036
  0
LINE
  5
602
330
1E
100
AcDbEntity
  8
STEMPEL
100
AcDbLine
 10
156.9041321756488
 20
609.9374484569676
 30
0.0
 11
156.9041321756488
 21
607.4374484569678
 31
0.0
  0
LINE
  5
603
330
1E
100
AcDbEntity
  8
HILF
100
AcDbLine
 10
157.9041321756488
 20
609.9374484569676
 30
0.0
 11
157.9041321756488
 21
607.4374484569678
 31
0.0
  0
LINE
  5
604
330
1E
100
AcDbEntity
  8
HILF
100
AcDbLine
 10
165.9041321756488
 20
609.9374484569676
 30
0.0
 11
165.9041321756488
 21
607.4374484569678
 31
0.0
  0
LINE
  5
605
330
1E
100
AcDbEntity
  8
STEMPEL
100
AcDbLine
 10
166.9041321756488
 20
609.9374484569676
 30
0.0
 11
166.9041321756488
 21
607.4374484569678
 31
0.0
  0
LWPOLYLINE
  5
60A
330
1E
100
AcDbEntity
  8
STEMPEL
100
AcDbPolyline
 90
       18
 70
   128
 43
0.0
 10
-153.2562499250612
 20
642.4374484569673
 10
-153.3575625368655
 20
643.8155698405919
 10
-153.6580502927948
 20
645.1467609533717
 10
-154.1474804427159
 20
646.3856896785484
 10
-154.8091860298804
 20
647.4901657843177
 10
-155.6206334641455
 20
648.4225776615706
 10
-156.5541898763612
 20
649.1511731421317
 10
-157.5780641225873
 20
649.6511407807649
 10
-158.65738939337
 20
649.9054547791818
 10
-159.7554105611211
 20
649.9054547791818
 10
-160.8347358319039
 20
649.6511407807649
 10
-161.85861007813
 20
649.1511731421317
 10
-162.7921664903457
 20
648.4225776615706
 10
-163.6036139246108
 20
647.4901657843177
 10
-164.2653195117752
 20
646.3856896785484
 10
-164.7547496616964
 20
645.1467609533717
 10
-165.0552374176257
 20
643.8155698405919
 10
-165.15655002943
 20
642.4374484569673
210
0.0
220
0.0
230
-1.0
  0
LINE
  5
60B
330
1E
100
AcDbEntity
  8
STEMPEL
100
AcDbLine
 10
151.6182268489559
 20
630.9374484569691
 30
0.0
 11
162.908332505463
 21
630.9374484569691
 31
0.0
  0
LWPOLYLINE
  5
60C
330
1E
100
AcDbEntity
  8
STEMPEL
100
AcDbPolyline
 90
       10
 70
   128
 43
0.0
 10
-138.3383470633227
 20
649.9374484569705
 10
-139.1311744091824
 20
649.8235066045622
 10
-139.8999120973282
 20
649.4851431128648
 10
-140.6212024221057
 20
648.9326389853538
 10
-141.2731293419872
 20
648.1827817803625
 10
-141.8358843874028
 20
647.2583555296191
 10
-142.2923685310658
 20
646.1874484569698
 10
-142.6287117332625
 20
645.0025995319122
 10
-142.8346943759926
 20
643.7398097894713
 10
-142.9040577808887
 20
642.4374484569691
210
0.0
220
0.0
230
-1.0
  0
LWPOLYLINE
  5
60D
330
1E
100
AcDbEntity
  8
STEMPEL
100
AcDbPolyline
 90
       18
 70
   128
 43
0.0
 10
-134.5678572325778
 20
642.4374484569673
 10
-134.6455971338379
 20
643.8155698405919
 10
-134.8761694985197
 20
645.1467609533717
 10
-135.2517224612849
 20
646.3856896785484
 10
-135.7594670164126
 20
647.4901657843177
 10
-136.3821125320505
 20
648.4225776615706
 10
-137.0984555619445
 20
649.1511731421317
 10
-137.8841019033705
 20
649.6511407807649
 10
-138.7122973124499
 20
649.9054547791818
 10
-139.5548385878376
 20
649.9054547791818
 10
-140.383033996917
 20
649.6511407807649
 10
-141.1686803383429
 20
649.1511731421317
 10
-141.8850233682369
 20
648.4225776615706
 10
-142.5076688838749
 20
647.4901657843177
 10
-143.0154134390026
 20
646.3856896785484
 10
-143.3909664017677
 20
645.1467609533717
 10
-143.6215387664496
 20
643.8155698405919
 10
-143.6992786677097
 20
642.4374484569673
210
0.0
220
0.0
230
-1.0
  0
LWPOLYLINE
  5
60E
330
1E
100
AcDbEntity
  8
STEMPEL
100
AcDbPolyline
 90
       10
 70
   128
 43
0.0
 10
139.3355724931036
 20
629.9374484569691
 10
140.0933221181978
 20
630.0286019388961
 10
140.8280479043734
 20
630.2992927322539
 10
141.5174255804065
 20
630.7412960342626
 10
142.1405087544528
 20
631.3411817982555
 10
142.6783653595644
 20
632.0807227988503
 10
143.1146528949633
 20
632.9374484569695
 10
143.4361149846586
 20
633.8853275970154
 10
143.6329841657226
 20
634.8955593909679
 10
143.6992786677094
 20
635.9374484569696
  0
LWPOLYLINE
  5
60F
330
1E
100
AcDbEntity
  8
STEMPEL
100
AcDbPolyline
 90
        7
 70
   128
 43
0.0
 10
140.9524809523705
 20
630.9374484569691
 10
141.5144099256346
 20
631.5467863588101
 10
141.9963478652217
 20
632.2742166320993
 10
142.3853324449716
 20
633.1001741260431
 10
142.6709014360781
 20
634.0024436765054
 10
142.8453741018739
 20
634.9567576107485
 10
142.9040577808889
 20
635.9374484569696
  0
LINE
  5
610
330
1E
100
AcDbEntity
  8
STEMPEL
100
AcDbLine
 10
132.6162804040592
 20
630.9374484569691
 30
0.0
 11
140.9524809523711
 21
630.9374484569691
 31
0.0
  0
LINE
  5
611
330
1E
100
AcDbEntity
  8
STEMPEL
100
AcDbLine
 10
134.5678572325777
 20
642.4374484569673
 30
0.0
 11
134.5678572325777
 21
635.9374484569709
 31
0.0
  0
LINE
  5
612
330
1E
100
AcDbEntity
  8
STEMPEL
100
AcDbLine
 10
143.6992786677095
 20
642.4374484569673
 30
0.0
 11
143.6992786677095
 21
635.9374484569709
 31
0.0
  0
LINE
  5
613
330
1E
100
AcDbEntity
  8
STEMPEL
100
AcDbLine
 10
142.9040577808888
 20
642.4374484569673
 30
0.0
 11
142.9040577808888
 21
635.9374484569709
 31
0.0
  0
LWPOLYLINE
  5
614
330
1E
100
AcDbEntity
  8
STEMPEL
100
AcDbPolyline
 90
       10
 70
   128
 43
0.0
 10
149.5936467895371
 20
629.9374484569691
 10
150.2296511495381
 20
630.0286019388961
 10
150.8463308388942
 20
630.2992927322539
 10
151.4249483572993
 20
630.7412960342626
 10
151.9479227042511
 20
631.3411817982555
 10
152.3993635688556
 20
632.0807227988503
 10
152.7655541488816
 20
632.9374484569695
 10
153.0353679288565
 20
633.8853275970154
 10
153.2006067536082
 20
634.8955593909679
 10
153.2562499250613
 20
635.9374484569696
  0
LINE
  5
616
330
1E
100
AcDbEntity
  8
STEMPEL
100
AcDbLine
 10
153.2562499250613
 20
642.4374484569673
 30
0.0
 11
153.2562499250613
 21
635.9374484569709
 31
0.0
  0
LWPOLYLINE
  5
617
330
1E
100
AcDbEntity
  8
STEMPEL
100
AcDbPolyline
 90
        9
 70
   128
 43
0.0
 10
-158.9013027533261
 20
649.927582534791
 10
-160.0177104746973
 20
649.720275398384
 10
-161.0829897264395
 20
649.2510206709303
 10
-162.0588247094779
 20
648.5366964337615
 10
-162.9101167423358
 20
647.6029953903653
 10
-163.6062466850723
 20
646.4835007552048
 10
-164.1221762437636
 20
645.2184783378661
 10
-164.4393485439796
 20
643.8534282686569
 10
-164.5463555815677
 20
642.4374484569691
210
0.0
220
0.0
230
-1.0
  0
LWPOLYLINE
  5
61A
330
1E
100
AcDbEntity
  8
STEMPEL
100
AcDbPolyline
 90
        7
 70
   128
 43
0.0
 10
162.9083325054624
 20
630.9374484569691
 10
163.3799781060293
 20
631.5467863588101
 10
163.7844845824121
 20
632.2742166320993
 10
164.1109722249011
 20
633.1001741260431
 10
164.3506597383093
 20
634.0024436765054
 10
164.4971004259354
 20
634.9567576107485
 10
164.5463555815678
 20
635.9374484569696
  0
LWPOLYLINE
  5
61B
330
1E
100
AcDbEntity
  8
STEMPEL
100
AcDbPolyline
 90
       10
 70
   128
 43
0.0
 10
161.493946893906
 20
629.9374484569691
 10
162.1299512539069
 20
630.0286019388961
 10
162.7466309432631
 20
630.2992927322539
 10
163.3252484616681
 20
630.7412960342626
 10
163.84822280862
 20
631.3411817982555
 10
164.2996636732245
 20
632.0807227988503
 10
164.6658542532504
 20
632.9374484569695
 10
164.9356680332254
 20
633.8853275970154
 10
165.100906857977
 20
634.8955593909679
 10
165.1565500294301
 20
635.9374484569696
  0
LINE
  5
61C
330
1E
100
AcDbEntity
  8
STEMPEL
100
AcDbLine
 10
165.9041321756488
 20
629.4374484569685
 30
0.0
 11
157.9041321756488
 21
629.4374484569685
 31
0.0
  0
LINE
  5
61E
330
1E
100
AcDbEntity
  8
STEMPEL
100
AcDbLine
 10
156.9041321756488
 20
628.4374484569684
 30
0.0
 11
166.9041321756488
 21
628.4374484569684
 31
0.0
  0
LINE
  5
620
330
1E
100
AcDbEntity
  8
STEMPEL
100
AcDbLine
 10
157.9041321756488
 20
629.4374484569685
 30
0.0
 11
156.9041321756488
 21
628.4374484569684
 31
0.0
  0
LINE
  5
621
330
1E
100
AcDbEntity
  8
STEMPEL
100
AcDbLine
 10
156.9041321756488
 20
628.4374484569684
 30
0.0
 11
156.9041321756487
 21
625.9374484569678
 31
0.0
  0
LINE
  5
622
330
1E
100
AcDbEntity
  8
HILF
100
AcDbLine
 10
157.9041321756488
 20
629.4374484569685
 30
0.0
 11
157.9041321756488
 21
625.9374484569678
 31
0.0
  0
LINE
  5
624
330
1E
100
AcDbEntity
  8
STEMPEL
100
AcDbLine
 10
166.9041321756488
 20
628.4374484569684
 30
0.0
 11
166.9041321756488
 21
625.9374484569678
 31
0.0
  0
LINE
  5
625
330
1E
100
AcDbEntity
  8
HILF
100
AcDbLine
 10
165.9041321756488
 20
629.4374484569685
 30
0.0
 11
165.9041321756488
 21
625.9374484569678
 31
0.0
  0
LINE
  5
626
330
1E
100
AcDbEntity
  8
STEMPEL
100
AcDbLine
 10
166.9041321756488
 20
628.4374484569684
 30
0.0
 11
165.9041321756488
 21
629.4374484569685
 31
0.0
  0
LINE
  5
628
330
1E
100
AcDbEntity
  8
STEMPEL
100
AcDbLine
 10
165.1565500294301
 20
642.4374484569673
 30
0.0
 11
165.1565500294301
 21
635.9374484569709
 31
0.0
  0
LINE
  5
629
330
1E
100
AcDbEntity
  8
STEMPEL
100
AcDbLine
 10
164.5463555815678
 20
642.4374484569673
 30
0.0
 11
164.5463555815678
 21
635.9374484569709
 31
0.0
  0
LWPOLYLINE
  5
62A
330
1E
100
AcDbEntity
  8
STEMPEL
100
AcDbPolyline
 90
       10
 70
   128
 43
0.0
 10
174.1390582357023
 20
629.9374484569691
 10
174.6117881934559
 20
630.0286019388961
 10
175.0701544906561
 20
630.2992927322539
 10
175.5002298993068
 20
630.7412960342626
 10
175.8889467957451
 20
631.3411817982555
 10
176.2244942137728
 20
632.0807227988503
 10
176.4966767148884
 20
632.9374484569695
 10
176.6972241715265
 20
633.8853275970154
 10
176.8200430506989
 20
634.8955593909679
 10
176.8614015629114
 20
635.9374484569696
  0
LINE
  5
62C
330
1E
100
AcDbEntity
  8
STEMPEL
100
AcDbLine
 10
176.8614015629114
 20
642.4374484569673
 30
0.0
 11
176.8614015629114
 21
635.9374484569709
 31
0.0
  0
ELLIPSE
  5
62D
330
1E
100
AcDbEntity
  8
STEMPEL
100
AcDbEllipse
 10
171.0332990019698
 20
662.4374484569694
 30
0.0
 11
0.0
 21
-7.5
 31
0.0
210
0.0
220
0.0
230
-1.0
 40
0.8660254037843856
 41
4.712388980384689
 42
7.853981633974482
  0
ELLIPSE
  5
62E
330
1E
100
AcDbEntity
  8
STEMPEL
100
AcDbEllipse
 10
170.5321220065278
 20
662.4374484569694
 30
0.0
 11
0.0
 21
-7.5
 31
0.0
210
0.0
220
0.0
230
-1.0
 40
0.8660254037843856
 41
4.712388980384689
 42
6.24459510668465
  0
ARC
  5
62F
330
1E
100
AcDbEntity
  8
STEMPEL
100
AcDbCircle
 10
225.404132175649
 20
662.4374484569694
 30
0.0
 40
7.5
100
AcDbArc
 50
179.999999999987
 51
359.999999999974
  0
LINE
  5
630
330
1E
100
AcDbEntity
  8
MITTEL
100
AcDbLine
 10
209.4799367248024
 20
641.605191791368
 30
0.0
 11
209.479936724803
 21
616.5806753243728
 31
0.0
  0
ARC
  5
631
330
1E
100
AcDbEntity
  8
STEMPEL
100
AcDbCircle
 10
222.137793949376
 20
620.9374484569675
 30
0.0
 40
5.0
100
AcDbArc
 50
181.0000000000017
 51
270.0
  0
ARC
  5
632
330
1E
100
AcDbEntity
  8
STEMPEL
100
AcDbCircle
 10
196.8220795002291
 20
620.9374484569678
 30
0.0
 40
5.0
100
AcDbArc
 50
270.0
 51
358.9999999999982
  0
LWPOLYLINE
  5
633
330
1E
100
AcDbEntity
  8
STEMPEL
100
AcDbPolyline
 90
        9
 70
   128
 43
0.0
 10
-183.5987059239349
 20
649.9345748800076
 10
-184.9229153742648
 20
649.7557419729599
 10
-186.1908947714509
 20
649.3054660556356
 10
-187.3556134595365
 20
648.6004483234965
 10
-188.3738708281431
 20
647.666838607113
 10
-189.2078986674054
 20
646.5392654481368
 10
-189.8267620295993
 20
645.2595516911848
 10
-190.2075066380735
 20
643.8751632316495
 10
-190.3360102849053
 20
642.4374484569691
210
0.0
220
0.0
230
-1.0
  0
LWPOLYLINE
  5
634
330
1E
100
AcDbEntity
  8
STEMPEL
100
AcDbPolyline
 90
       10
 70
   128
 43
0.0
 10
187.9972512233733
 20
629.9374484569691
 10
188.4699811811268
 20
630.0286019388961
 10
188.928347478327
 20
630.2992927322539
 10
189.3584228869778
 20
630.7412960342626
 10
189.747139783416
 20
631.3411817982555
 10
190.0826872014437
 20
632.0807227988503
 10
190.3548697025593
 20
632.9374484569695
 10
190.5554171591974
 20
633.8853275970154
 10
190.6782360383698
 20
634.8955593909679
 10
190.7195945505823
 20
635.9374484569696
  0
LWPOLYLINE
  5
635
330
1E
100
AcDbEntity
  8
STEMPEL
100
AcDbPolyline
 90
        7
 70
   128
 43
0.0
 10
189.1184988521762
 20
630.9374484569691
 10
189.4690640665882
 20
631.5467863588101
 10
189.7697260455269
 20
632.2742166320993
 10
190.0123981074615
 20
633.1001741260431
 10
190.19055328251
 20
634.0024436765054
 10
190.2993998634905
 20
634.9567576107485
 10
190.3360102849053
 20
635.9374484569696
  0
LINE
  5
636
330
1E
100
AcDbEntity
  8
STEMPEL
100
AcDbLine
 10
190.3360102849053
 20
642.4374484569673
 30
0.0
 11
190.3360102849053
 21
635.9374484569709
 31
0.0
  0
LINE
  5
637
330
1E
100
AcDbEntity
  8
STEMPEL
100
AcDbLine
 10
201.8213179760111
 20
620.8501864247814
 30
0.0
 11
201.9799367248026
 21
629.9374484569675
 31
0.0
  0
LINE
  5
638
330
1E
100
AcDbEntity
  8
STEMPEL
100
AcDbLine
 10
190.7195945505823
 20
642.437448456966
 30
0.0
 11
190.7195945505823
 21
635.9374484569709
 31
0.0
  0
LWPOLYLINE
  5
639
330
1E
100
AcDbEntity
  8
STEMPEL
100
AcDbPolyline
 90
        9
 70
   128
 43
0.0
 10
-211.1450798069224
 20
649.937158216742
 10
-212.5864197908003
 20
649.7818568228185
 10
-213.9705006942498
 20
649.3474565758042
 10
-215.2447253067818
 20
648.6504653555289
 10
-216.3606711265117
 20
647.7173699040833
 10
-217.2759304899647
 20
646.5836292887397
 10
-217.9557221287398
 20
645.2923274026704
 10
-218.3742129113892
 20
643.8925357105108
 10
-218.5154995422831
 20
642.4374484569691
210
0.0
220
0.0
230
-1.0
  0
LWPOLYLINE
  5
63A
330
1E
100
AcDbEntity
  8
STEMPEL
100
AcDbPolyline
 90
       18
 70
   128
 43
0.0
 10
-203.7746600713622
 20
642.4374484569673
 10
-203.9012693175386
 20
643.8155698405919
 10
-204.2767855300402
 20
645.1467609533717
 10
-204.8884209546326
 20
646.3856896785484
 10
-205.715347080507
 20
647.4901657843177
 10
-206.7294039302352
 20
648.4225776615706
 10
-207.8960590140269
 20
649.1511731421317
 10
-209.1755832922522
 20
649.6511407807649
 10
-210.5244041002363
 20
649.9054547791818
 10
-211.8965889630956
 20
649.9054547791818
 10
-213.2454097710797
 20
649.6511407807649
 10
-214.524934049305
 20
649.1511731421317
 10
-215.6915891330967
 20
648.4225776615706
 10
-216.705645982825
 20
647.4901657843177
 10
-217.5325721086994
 20
646.3856896785484
 10
-218.1442075332917
 20
645.1467609533717
 10
-218.5197237457934
 20
643.8155698405919
 10
-218.6463329919698
 20
642.4374484569673
210
0.0
220
0.0
230
-1.0
  0
ARC
  5
63B
330
1E
100
AcDbEntity
  8
STEMPEL
100
AcDbCircle
 10
213.6206901067766
 20
634.357293471089
 30
0.0
 40
2.247898356545996
100
AcDbArc
 50
58.53080548383258
 51
127.8806357171811
  0
LINE
  5
63C
330
1E
100
AcDbEntity
  8
STEMPEL
100
AcDbLine
 10
203.1880855491051
 20
630.9374484569691
 30
0.0
 11
217.9289250200264
 21
630.9374484569691
 31
0.0
  0
LINE
  5
63D
330
1E
100
AcDbEntity
  8
STEMPEL
100
AcDbLine
 10
215.4799367248028
 20
630.9374484569677
 30
0.0
 11
203.4799367248025
 21
630.9374484569682
 31
0.0
  0
LINE
  5
63E
330
1E
100
AcDbEntity
  8
STEMPEL
100
AcDbLine
 10
203.5377174078031
 20
632.5374484569681
 30
0.0
 11
215.4799367248025
 21
632.5374484569681
 31
0.0
  0
LWPOLYLINE
  5
63F
330
1E
100
AcDbEntity
  8
STEMPEL
100
AcDbPolyline
 90
       10
 70
   128
 43
0.0
 10
202.4630853348542
 20
629.9374484569691
 10
202.6908378977227
 20
630.0286019388961
 10
202.9116703142169
 20
630.2992927322539
 10
203.1188727031082
 20
630.7412960342626
 10
203.3061493246594
 20
631.3411817982555
 10
203.4678098734913
 20
632.0807227988503
 10
203.598942375632
 20
632.9374484569695
 10
203.6955624363599
 20
633.8853275970154
 10
203.7547343040221
 20
634.8955593909679
 10
203.774660071362
 20
635.9374484569696
  0
LINE
  5
640
330
1E
100
AcDbEntity
  8
STEMPEL
100
AcDbLine
 10
203.958932215504
 20
636.155201246165
 30
0.0
 11
203.958932215504
 21
632.5374484569681
 31
0.0
  0
LINE
  5
641
330
1E
100
AcDbEntity
  8
STEMPEL
100
AcDbLine
 10
206.7194344701533
 20
636.1315408740408
 30
0.0
 11
206.7194344701533
 21
632.5374484569681
 31
0.0
  0
LINE
  5
642
330
1E
100
AcDbEntity
  8
STEMPEL
100
AcDbLine
 10
212.2404389794521
 20
636.1315408740408
 30
0.0
 11
212.2404389794518
 21
632.5374484569681
 31
0.0
  0
LINE
  5
643
330
1E
100
AcDbEntity
  8
STEMPEL
100
AcDbLine
 10
203.4799367248025
 20
632.1599509421473
 30
0.0
 11
203.4799367248025
 21
630.9374484569682
 31
0.0
  0
ARC
  5
644
330
1E
100
AcDbEntity
  8
STEMPEL
100
AcDbCircle
 10
209.4799367248025
 20
628.3240741977681
 30
0.0
 40
8.281117593600001
100
AcDbArc
 50
70.52782738138597
 51
109.472172618614
  0
LINE
  5
645
330
1E
100
AcDbEntity
  8
STEMPEL
100
AcDbLine
 10
205.3395871351767
 20
636.605191791368
 30
0.0
 11
213.6202863139195
 21
636.605191791368
 31
0.0
  0
LINE
  5
646
330
1E
100
AcDbEntity
  8
STEMPEL
100
AcDbLine
 10
203.774660071362
 20
642.4374484569691
 30
0.0
 11
203.774660071362
 21
635.9374484569709
 31
0.0
  0
ARC
  5
647
330
1E
100
AcDbEntity
  8
STEMPEL
100
AcDbCircle
 10
205.3391833428285
 20
634.357293471089
 30
0.0
 40
2.247898356545996
100
AcDbArc
 50
52.11936428281886
 51
121.4691945163666
  0
LINE
  5
648
330
1E
100
AcDbEntity
  8
STEMPEL
100
AcDbLine
 10
203.958932215504
 20
636.155201246165
 30
0.0
 11
204.1656903472893
 21
636.2745731092084
 31
0.0
  0
LINE
  5
649
330
1E
100
AcDbEntity
  8
STEMPEL
100
AcDbLine
 10
213.6167308814173
 20
636.605191791368
 30
0.0
 11
213.6202863144134
 21
636.605191791368
 31
0.0
  0
LWPOLYLINE
  5
64A
330
1E
100
AcDbEntity
  8
STEMPEL
100
AcDbPolyline
 90
       10
 70
   128
 43
0.0
 10
217.3347582554618
 20
629.9374484569691
 10
217.5625108183303
 20
630.0286019388961
 10
217.7833432348245
 20
630.2992927322539
 10
217.9905456237158
 20
630.7412960342626
 10
218.177822245267
 20
631.3411817982555
 10
218.3394827940989
 20
632.0807227988503
 10
218.4706152962395
 20
632.9374484569695
 10
218.5672353569675
 20
633.8853275970154
 10
218.6264072246297
 20
634.8955593909679
 10
218.6463329919696
 20
635.9374484569696
  0
LWPOLYLINE
  5
64B
330
1E
100
AcDbEntity
  8
STEMPEL
100
AcDbPolyline
 90
        7
 70
   128
 43
0.0
 10
217.9289250200261
 20
630.9374484569691
 10
218.0978208657946
 20
631.5467863588101
 10
218.2426742543672
 20
632.2742166320993
 10
218.3595891719343
 20
633.1001741260431
 10
218.445421044952
 20
634.0024436765054
 10
218.4978613173977
 20
634.9567576107485
 10
218.515499542283
 20
635.9374484569696
  0
LINE
  5
64C
330
1E
100
AcDbEntity
  8
STEMPEL
100
AcDbLine
 10
215.0009412341013
 20
636.155201246165
 30
0.0
 11
215.0009412341013
 21
632.5374484569681
 31
0.0
  0
LINE
  5
64D
330
1E
100
AcDbEntity
  8
STEMPEL
100
AcDbLine
 10
215.4799367248025
 20
632.5374484569681
 30
0.0
 11
215.4799367248025
 21
630.9374484569682
 31
0.0
  0
LINE
  5
64E
330
1E
100
AcDbEntity
  8
STEMPEL
100
AcDbLine
 10
217.138555473594
 20
620.8501864247812
 30
0.0
 11
216.9799367248026
 21
629.9374484569675
 31
0.0
  0
LINE
  5
64F
330
1E
100
AcDbEntity
  8
STEMPEL
100
AcDbLine
 10
218.6463329919696
 20
642.437448456966
 30
0.0
 11
218.6463329919696
 21
635.9374484569709
 31
0.0
  0
LINE
  5
650
330
1E
100
AcDbEntity
  8
STEMPEL
100
AcDbLine
 10
218.5154995422831
 20
642.4374484569673
 30
0.0
 11
218.5154995422831
 21
635.9374484569709
 31
0.0
  0
LINE
  5
651
330
1E
100
AcDbEntity
  8
STEMPEL
100
AcDbLine
 10
215.0009412341013
 20
636.155201246165
 30
0.0
 11
214.7941831023089
 21
636.2745731092124
 31
0.0
  0
LWPOLYLINE
  5
652
330
1E
100
AcDbEntity
  8
STEMPEL
100
AcDbPolyline
 90
       18
 70
   128
 43
0.0
 10
247.0336042799361
 20
642.4374484569673
 10
246.9069950337597
 20
643.8155698405919
 10
246.531478821258
 20
645.1467609533717
 10
245.9198433966657
 20
646.3856896785484
 10
245.0929172707913
 20
647.4901657843177
 10
244.078860421063
 20
648.4225776615706
 10
242.9122053372713
 20
649.1511731421317
 10
241.632681059046
 20
649.6511407807649
 10
240.2838602510619
 20
649.9054547791818
 10
238.9116753882027
 20
649.9054547791818
 10
237.5628545802185
 20
649.6511407807649
 10
236.2833303019932
 20
649.1511731421317
 10
235.1166752182015
 20
648.4225776615706
 10
234.1026183684733
 20
647.4901657843177
 10
233.2756922425989
 20
646.3856896785484
 10
232.6640568180065
 20
645.1467609533717
 10
232.2885406055049
 20
643.8155698405919
 10
232.1619313593285
 20
642.4374484569673
  0
LWPOLYLINE
  5
653
330
1E
100
AcDbEntity
  8
STEMPEL
100
AcDbPolyline
 90
        9
 70
   128
 43
0.0
 10
239.6631845443758
 20
649.937158216742
 10
238.221844560498
 20
649.7818568228185
 10
236.8377636570484
 20
649.3474565758042
 10
235.5635390445165
 20
648.6504653555289
 10
234.4475932247866
 20
647.7173699040833
 10
233.5323338613335
 20
646.5836292887397
 10
232.8525422225585
 20
645.2923274026704
 10
232.434051439909
 20
643.8925357105108
 10
232.2927648090151
 20
642.4374484569691
  0
LINE
  5
654
330
1E
100
AcDbEntity
  8
STEMPEL
100
AcDbLine
 10
247.6201788021932
 20
630.9374484569691
 30
0.0
 11
232.8793393312718
 21
630.9374484569691
 31
0.0
  0
LWPOLYLINE
  5
655
330
1E
100
AcDbEntity
  8
STEMPEL
100
AcDbPolyline
 90
       10
 70
   128
 43
0.0
 10
-233.4735060958365
 20
629.9374484569691
 10
-233.2457535329679
 20
630.0286019388961
 10
-233.0249211164737
 20
630.2992927322539
 10
-232.8177187275825
 20
630.7412960342626
 10
-232.6304421060313
 20
631.3411817982555
 10
-232.4687815571993
 20
632.0807227988503
 10
-232.3376490550587
 20
632.9374484569695
 10
-232.2410289943308
 20
633.8853275970154
 10
-232.1818571266685
 20
634.8955593909679
 10
-232.1619313593286
 20
635.9374484569696
210
0.0
220
0.0
230
-1.0
  0
LWPOLYLINE
  5
656
330
1E
100
AcDbEntity
  8
STEMPEL
100
AcDbPolyline
 90
        7
 70
   128
 43
0.0
 10
-232.8793393312722
 20
630.9374484569691
 10
-232.7104434855037
 20
631.5467863588101
 10
-232.565590096931
 20
632.2742166320993
 10
-232.4486751793639
 20
633.1001741260431
 10
-232.3628433063462
 20
634.0024436765054
 10
-232.3104030339006
 20
634.9567576107485
 10
-232.2927648090153
 20
635.9374484569696
210
0.0
220
0.0
230
-1.0
  0
LINE
  5
657
330
1E
100
AcDbEntity
  8
STEMPEL
100
AcDbLine
 10
232.2927648090151
 20
642.4374484569673
 30
0.0
 11
232.2927648090151
 21
635.9374484569709
 31
0.0
  0
LINE
  5
658
330
1E
100
AcDbEntity
  8
STEMPEL
100
AcDbLine
 10
232.1619313593286
 20
642.437448456966
 30
0.0
 11
232.1619313593286
 21
635.9374484569709
 31
0.0
  0
LWPOLYLINE
  5
659
330
1E
100
AcDbEntity
  8
STEMPEL
100
AcDbPolyline
 90
       10
 70
   128
 43
0.0
 10
-248.3451790164441
 20
629.9374484569691
 10
-248.1174264535755
 20
630.0286019388961
 10
-247.8965940370813
 20
630.2992927322539
 10
-247.6893916481901
 20
630.7412960342626
 10
-247.5021150266389
 20
631.3411817982555
 10
-247.3404544778069
 20
632.0807227988503
 10
-247.2093219756663
 20
632.9374484569695
 10
-247.1127019149384
 20
633.8853275970154
 10
-247.0535300472763
 20
634.8955593909679
 10
-247.0336042799362
 20
635.9374484569696
210
0.0
220
0.0
230
-1.0
  0
LINE
  5
65A
330
1E
100
AcDbEntity
  8
STEMPEL
100
AcDbLine
 10
247.0336042799363
 20
642.4374484569691
 30
0.0
 11
247.0336042799363
 21
635.9374484569709
 31
0.0
  0
LWPOLYLINE
  5
65B
330
1E
100
AcDbEntity
  8
STEMPEL
100
AcDbPolyline
 90
        9
 70
   128
 43
0.0
 10
267.2095584273633
 20
649.9345748800076
 10
265.8853489770335
 20
649.7557419729599
 10
264.6173695798474
 20
649.3054660556356
 10
263.4526508917618
 20
648.6004483234965
 10
262.4343935231551
 20
647.666838607113
 10
261.6003656838929
 20
646.5392654481368
 10
260.9815023216989
 20
645.2595516911848
 10
260.6007577132248
 20
643.8751632316495
 10
260.4722540663929
 20
642.4374484569691
  0
LWPOLYLINE
  5
65C
330
1E
100
AcDbEntity
  8
STEMPEL
100
AcDbPolyline
 90
       10
 70
   128
 43
0.0
 10
-262.811013127925
 20
629.9374484569691
 10
-262.3382831701714
 20
630.0286019388961
 10
-261.8799168729712
 20
630.2992927322539
 10
-261.4498414643204
 20
630.7412960342626
 10
-261.0611245678822
 20
631.3411817982555
 10
-260.7255771498545
 20
632.0807227988503
 10
-260.4533946487389
 20
632.9374484569695
 10
-260.2528471921008
 20
633.8853275970154
 10
-260.1300283129284
 20
634.8955593909679
 10
-260.0886698007159
 20
635.9374484569696
210
0.0
220
0.0
230
-1.0
  0
LINE
  5
65D
330
1E
100
AcDbEntity
  8
STEMPEL
100
AcDbLine
 10
260.0886698007159
 20
642.437448456966
 30
0.0
 11
260.0886698007159
 21
635.9374484569709
 31
0.0
  0
LWPOLYLINE
  5
65E
330
1E
100
AcDbEntity
  8
STEMPEL
100
AcDbPolyline
 90
        7
 70
   128
 43
0.0
 10
-261.689765499122
 20
630.9374484569691
 10
-261.33920028471
 20
631.5467863588101
 10
-261.0385383057713
 20
632.2742166320993
 10
-260.7958662438367
 20
633.1001741260431
 10
-260.6177110687883
 20
634.0024436765054
 10
-260.5088644878077
 20
634.9567576107485
 10
-260.4722540663929
 20
635.9374484569696
210
0.0
220
0.0
230
-1.0
  0
LINE
  5
65F
330
1E
100
AcDbEntity
  8
STEMPEL
100
AcDbLine
 10
260.4722540663929
 20
642.4374484569673
 30
0.0
 11
260.4722540663929
 21
635.9374484569709
 31
0.0
  0
LINE
  5
660
330
1E
100
AcDbEntity
  8
STEMPEL
100
AcDbLine
 10
145.4041321756489
 20
719.9374484569668
 30
0.0
 11
200.1424943479983
 21
719.9374484569673
 31
0.0
  0
LINE
  5
661
330
1E
100
AcDbEntity
  8
STEMPEL
100
AcDbLine
 10
118.371437553941
 20
705.1145290170113
 30
0.0
 11
142.3577404294079
 21
719.1065390276996
 31
0.0
  0
LINE
  5
662
330
1E
100
AcDbEntity
  8
STEMPEL
100
AcDbLine
 10
118.8847786075218
 20
704.2562859038487
 30
0.0
 11
142.863632500473
 21
718.243939070034
 31
0.0
  0
ELLIPSE
  5
663
330
1E
100
AcDbEntity
  8
STEMPEL
100
AcDbEllipse
 10
131.231086668986
 20
687.4374484569694
 30
0.0
 11
0.0
 21
7.499999999999999
 31
0.0
210
0.0
220
0.0
230
1.0
 40
0.4999999999999926
 41
4.712388980384689
 42
7.853981633974482
  0
ELLIPSE
  5
664
330
1E
100
AcDbEntity
  8
STEMPEL
100
AcDbEllipse
 10
130.363022649297
 20
687.4374484569694
 30
0.0
 11
0.0
 21
7.499999999999999
 31
0.0
210
0.0
220
0.0
230
1.0
 40
0.4999999999999926
 41
4.712388980384689
 42
6.167183451052224
  0
LINE
  5
665
330
1E
100
AcDbEntity
  8
STEMPEL
100
AcDbLine
 10
115.4041321756489
 20
694.9374484569691
 30
0.0
 11
116.4041321756489
 21
694.9374484569691
 31
0.0
  0
ARC
  5
666
330
1E
100
AcDbEntity
  8
STEMPEL
100
AcDbCircle
 10
121.404132175649
 20
699.9373904896522
 30
0.0
 40
6.0
100
AcDbArc
 50
120.2564164748199
 51
180.0
  0
ARC
  5
667
330
1E
100
AcDbEntity
  8
STEMPEL
100
AcDbCircle
 10
115.8929885713373
 20
709.4572854394298
 30
0.0
 40
5.0
100
AcDbArc
 50
300.0670458384858
 51
300.2564371635302
  0
ARC
  5
668
330
1E
100
AcDbEntity
  8
STEMPEL
100
AcDbCircle
 10
121.404132175649
 20
699.9373904896522
 30
0.0
 40
5.0
100
AcDbArc
 50
120.2564164748199
 51
180.0
  0
ARC
  5
669
330
1E
100
AcDbEntity
  8
STEMPEL
100
AcDbCircle
 10
145.4041321756489
 20
713.9374484569673
 30
0.0
 40
5.0
100
AcDbArc
 50
90.0
 51
120.5373500482996
  0
ARC
  5
66A
330
1E
100
AcDbEntity
  8
STEMPEL
100
AcDbCircle
 10
145.4041321756489
 20
713.9374484569673
 30
0.0
 40
6.0
100
AcDbArc
 50
90.0
 51
120.5128743276217
  0
ARC
  5
66B
330
1E
100
AcDbEntity
  8
STEMPEL
100
AcDbCircle
 10
145.4041321756489
 20
713.9374484569673
 30
0.0
 40
6.0
100
AcDbArc
 50
90.0
 51
90.0
  0
ELLIPSE
  5
66C
330
1E
100
AcDbEntity
  8
STEMPEL
100
AcDbEllipse
 10
171.0332990019698
 20
687.4374484569694
 30
0.0
 11
0.0
 21
7.5
 31
0.0
210
0.0
220
0.0
230
1.0
 40
0.8660254037843856
 41
4.712388980384689
 42
7.853981633974482
  0
ELLIPSE
  5
66D
330
1E
100
AcDbEntity
  8
STEMPEL
100
AcDbEllipse
 10
170.5321220065278
 20
687.4374484569694
 30
0.0
 11
0.0
 21
7.5
 31
0.0
210
0.0
220
0.0
230
1.0
 40
0.8660254037843856
 41
4.712388980384689
 42
6.24459510668465
  0
LINE
  5
66E
330
1E
100
AcDbEntity
  8
STEMPEL
100
AcDbLine
 10
222.0455705593516
 20
720.4374484569673
 30
0.0
 11
232.1338380205452
 21
720.4374484569673
 31
0.0
  0
LINE
  5
66F
330
1E
100
AcDbEntity
  8
STEMPEL
100
AcDbLine
 10
202.7405705593518
 20
721.4374484569673
 30
0.0
 11
248.2455705593517
 21
721.4374484569673
 31
0.0
  0
ARC
  5
670
330
1E
100
AcDbEntity
  8
STEMPEL
100
AcDbCircle
 10
225.4041321756491
 20
687.4374484569694
 30
0.0
 40
7.5
100
AcDbArc
 50
0.0000000000260551
 51
180.000000000013
  0
ARC
  5
671
330
1E
100
AcDbEntity
  8
STEMPEL
100
AcDbCircle
 10
202.7405705593518
 20
719.9374484569673
 30
0.0
 40
1.5
100
AcDbArc
 50
90.0
 51
150.0
  0
ARC
  5
672
330
1E
100
AcDbEntity
  8
STEMPEL
100
AcDbCircle
 10
200.1424943479983
 20
721.4374484569673
 30
0.0
 40
2.5
100
AcDbArc
 50
270.0
 51
330.0
  0
ARC
  5
673
330
1E
100
AcDbEntity
  8
STEMPEL
100
AcDbCircle
 10
200.1424943479983
 20
721.4374484569673
 30
0.0
 40
1.5
100
AcDbArc
 50
270.0
 51
330.0000000000001
  0
LINE
  5
674
330
1E
100
AcDbEntity
  8
STEMPEL
100
AcDbLine
 10
212.9936467707047
 20
719.9374484569673
 30
0.0
 11
219.4474943479989
 21
719.9374484569673
 31
0.0
  0
LINE
  5
675
330
1E
100
AcDbEntity
  8
STEMPEL
100
AcDbLine
 10
212.9936467707047
 20
719.9374484569673
 30
0.0
 11
219.4474943479989
 21
719.9374484569673
 31
0.0
  0
ARC
  5
676
330
1E
100
AcDbEntity
  8
STEMPEL
100
AcDbCircle
 10
207.597494347998
 20
721.4374484569673
 30
0.0
 40
1.5
100
AcDbArc
 50
270.0
 51
330.0000000000001
  0
ARC
  5
677
330
1E
100
AcDbEntity
  8
STEMPEL
100
AcDbCircle
 10
207.597494347998
 20
721.4374484569673
 30
0.0
 40
2.5
100
AcDbArc
 50
270.0
 51
330.0000000000001
  0
LINE
  5
678
330
1E
100
AcDbEntity
  8
STEMPEL
100
AcDbLine
 10
205.5386467707057
 20
719.9374484569673
 30
0.0
 11
207.597494347998
 21
719.9374484569673
 31
0.0
  0
LINE
  5
679
330
1E
100
AcDbEntity
  8
STEMPEL
100
AcDbLine
 10
205.5386467707057
 20
719.9374484569673
 30
0.0
 11
207.597494347998
 21
719.9374484569673
 31
0.0
  0
ARC
  5
67A
330
1E
100
AcDbEntity
  8
STEMPEL
100
AcDbCircle
 10
202.7405705593518
 20
719.9374484569673
 30
0.0
 40
0.5
100
AcDbArc
 50
90.0
 51
149.9999999999999
  0
LINE
  5
67B
330
1E
100
AcDbEntity
  8
STEMPEL
100
AcDbLine
 10
202.7405705593518
 20
720.4374484569673
 30
0.0
 11
202.9405705593518
 21
720.4374484569673
 31
0.0
  0
ARC
  5
67C
330
1E
100
AcDbEntity
  8
STEMPEL
100
AcDbCircle
 10
202.9405705593518
 20
719.9374484569673
 30
0.0
 40
0.5
100
AcDbArc
 50
30.00000000000003
 51
90.0
  0
ARC
  5
67D
330
1E
100
AcDbEntity
  8
STEMPEL
100
AcDbCircle
 10
202.9405705593518
 20
719.9374484569673
 30
0.0
 40
1.5
100
AcDbArc
 50
29.99999999999241
 51
90.0
  0
ARC
  5
67E
330
1E
100
AcDbEntity
  8
STEMPEL
100
AcDbCircle
 10
205.5386467707057
 20
721.4374484569673
 30
0.0
 40
2.5
100
AcDbArc
 50
209.9999999999924
 51
270.0
  0
ARC
  5
67F
330
1E
100
AcDbEntity
  8
STEMPEL
100
AcDbCircle
 10
205.5386467707057
 20
721.4374484569673
 30
0.0
 40
1.5
100
AcDbArc
 50
210.0
 51
270.0
  0
ARC
  5
680
330
1E
100
AcDbEntity
  8
STEMPEL
100
AcDbCircle
 10
212.9936467707047
 20
721.4374484569673
 30
0.0
 40
2.5
100
AcDbArc
 50
210.0
 51
270.0
  0
ARC
  5
681
330
1E
100
AcDbEntity
  8
STEMPEL
100
AcDbCircle
 10
212.9936467707047
 20
721.4374484569673
 30
0.0
 40
1.5
100
AcDbArc
 50
210.0
 51
270.0
  0
ARC
  5
682
330
1E
100
AcDbEntity
  8
STEMPEL
100
AcDbCircle
 10
210.1955705593517
 20
719.9374484569673
 30
0.0
 40
0.5
100
AcDbArc
 50
90.0
 51
150.0
  0
LINE
  5
683
330
1E
100
AcDbEntity
  8
STEMPEL
100
AcDbLine
 10
210.1955705593517
 20
720.4374484569673
 30
0.0
 11
210.3955705593518
 21
720.4374484569673
 31
0.0
  0
ARC
  5
684
330
1E
100
AcDbEntity
  8
STEMPEL
100
AcDbCircle
 10
210.3955705593518
 20
719.9374484569673
 30
0.0
 40
0.5
100
AcDbArc
 50
30.00000000000003
 51
90.0
  0
ARC
  5
685
330
1E
100
AcDbEntity
  8
STEMPEL
100
AcDbCircle
 10
210.3955705593518
 20
719.9374484569673
 30
0.0
 40
1.5
100
AcDbArc
 50
30.00000000000003
 51
90.0
  0
ARC
  5
686
330
1E
100
AcDbEntity
  8
STEMPEL
100
AcDbCircle
 10
210.1955705593517
 20
719.9374484569673
 30
0.0
 40
1.5
100
AcDbArc
 50
90.0
 51
150.0
  0
ARC
  5
687
330
1E
100
AcDbEntity
  8
STEMPEL
100
AcDbCircle
 10
219.4474943479989
 20
721.4374484569673
 30
0.0
 40
1.5
100
AcDbArc
 50
270.0
 51
330.0
  0
ARC
  5
688
330
1E
100
AcDbEntity
  8
STEMPEL
100
AcDbCircle
 10
219.4474943479989
 20
721.4374484569673
 30
0.0
 40
2.5
100
AcDbArc
 50
270.0
 51
330.0
  0
ARC
  5
689
330
1E
100
AcDbEntity
  8
STEMPEL
100
AcDbCircle
 10
222.0455705593516
 20
719.9374484569673
 30
0.0
 40
0.5
100
AcDbArc
 50
90.0
 51
149.9999999999999
  0
ARC
  5
68A
330
1E
100
AcDbEntity
  8
STEMPEL
100
AcDbCircle
 10
222.0455705593516
 20
719.9374484569673
 30
0.0
 40
1.5
100
AcDbArc
 50
90.0
 51
149.9999999999999
  0
ARC
  5
68B
330
1E
100
AcDbEntity
  8
STEMPEL
100
AcDbCircle
 10
250.8436467707057
 20
721.4374484569673
 30
0.0
 40
2.5
100
AcDbArc
 50
209.9999999999924
 51
270.0
  0
ARC
  5
68C
330
1E
100
AcDbEntity
  8
STEMPEL
100
AcDbCircle
 10
248.2455705593517
 20
719.9374484569673
 30
0.0
 40
0.5
100
AcDbArc
 50
29.99999999999241
 51
90.0
  0
ARC
  5
68D
330
1E
100
AcDbEntity
  8
STEMPEL
100
AcDbCircle
 10
248.2455705593517
 20
719.9374484569673
 30
0.0
 40
1.5
100
AcDbArc
 50
29.99999999999241
 51
90.0
  0
ARC
  5
68E
330
1E
100
AcDbEntity
  8
STEMPEL
100
AcDbCircle
 10
236.3955705593518
 20
719.9374484569673
 30
0.0
 40
1.5
100
AcDbArc
 50
29.99999999999993
 51
90.0
  0
ARC
  5
68F
330
1E
100
AcDbEntity
  8
STEMPEL
100
AcDbCircle
 10
238.9936467707053
 20
721.4374484569673
 30
0.0
 40
2.5
100
AcDbArc
 50
210.0
 51
270.0
  0
ARC
  5
690
330
1E
100
AcDbEntity
  8
STEMPEL
100
AcDbCircle
 10
234.2590788862477
 20
720.4374484569673
 30
0.0
 40
1.5
100
AcDbArc
 50
270.0
 51
345.5224878140768
  0
ARC
  5
691
330
1E
100
AcDbEntity
  8
STEMPEL
100
AcDbCircle
 10
236.1955705593517
 20
719.9374484569673
 30
0.0
 40
1.5
100
AcDbArc
 50
90.0
 51
165.5224878140768
  0
ARC
  5
692
330
1E
100
AcDbEntity
  8
STEMPEL
100
AcDbCircle
 10
234.2590788862477
 20
720.4374484569673
 30
0.0
 40
0.5
100
AcDbArc
 50
270.0
 51
345.5224878140768
  0
LINE
  5
693
330
1E
100
AcDbEntity
  8
STEMPEL
100
AcDbLine
 10
234.0703296936486
 20
719.9374484569673
 30
0.0
 11
234.2590788862477
 21
719.9374484569673
 31
0.0
  0
ARC
  5
694
330
1E
100
AcDbEntity
  8
STEMPEL
100
AcDbCircle
 10
236.1955705593517
 20
719.9374484569673
 30
0.0
 40
0.5
100
AcDbArc
 50
90.0
 51
165.5224878140768
  0
LINE
  5
695
330
1E
100
AcDbEntity
  8
STEMPEL
100
AcDbLine
 10
236.1955705593517
 20
720.4374484569673
 30
0.0
 11
236.3955705593518
 21
720.4374484569673
 31
0.0
  0
ARC
  5
696
330
1E
100
AcDbEntity
  8
STEMPEL
100
AcDbCircle
 10
232.1338380205452
 20
719.9374484569673
 30
0.0
 40
0.5
100
AcDbArc
 50
14.47751218592991
 51
90.0
  0
ARC
  5
697
330
1E
100
AcDbEntity
  8
STEMPEL
100
AcDbCircle
 10
234.0703296936486
 20
720.4374484569673
 30
0.0
 40
1.5
100
AcDbArc
 50
194.4775121859299
 51
270.0
  0
ARC
  5
698
330
1E
100
AcDbEntity
  8
STEMPEL
100
AcDbCircle
 10
234.0703296936486
 20
720.4374484569673
 30
0.0
 40
0.5
100
AcDbArc
 50
194.4775121859299
 51
270.0
  0
ARC
  5
699
330
1E
100
AcDbEntity
  8
STEMPEL
100
AcDbCircle
 10
232.1338380205452
 20
719.9374484569673
 30
0.0
 40
1.5
100
AcDbArc
 50
14.47751218592991
 51
90.0
  0
ARC
  5
69A
330
1E
100
AcDbEntity
  8
STEMPEL
100
AcDbCircle
 10
236.3955705593518
 20
719.9374484569673
 30
0.0
 40
0.5
100
AcDbArc
 50
29.99999999999993
 51
90.0
  0
LINE
  5
69B
330
1E
100
AcDbEntity
  8
STEMPEL
100
AcDbLine
 10
238.9936467707053
 20
719.9374484569673
 30
0.0
 11
245.4474943479993
 21
719.9374484569673
 31
0.0
  0
LINE
  5
69C
330
1E
100
AcDbEntity
  8
STEMPEL
100
AcDbLine
 10
238.9936467707053
 20
719.9374484569673
 30
0.0
 11
245.4474943479993
 21
719.9374484569673
 31
0.0
  0
ARC
  5
69D
330
1E
100
AcDbEntity
  8
STEMPEL
100
AcDbCircle
 10
238.9936467707053
 20
721.4374484569673
 30
0.0
 40
1.5
100
AcDbArc
 50
210.0
 51
270.0
  0
ARC
  5
69E
330
1E
100
AcDbEntity
  8
STEMPEL
100
AcDbCircle
 10
248.0455705593517
 20
719.9374484569673
 30
0.0
 40
1.5
100
AcDbArc
 50
90.0
 51
149.9999999999924
  0
ARC
  5
69F
330
1E
100
AcDbEntity
  8
STEMPEL
100
AcDbCircle
 10
248.0455705593517
 20
719.9374484569673
 30
0.0
 40
0.5
100
AcDbArc
 50
90.0
 51
149.9999999999924
  0
LINE
  5
6A0
330
1E
100
AcDbEntity
  8
STEMPEL
100
AcDbLine
 10
248.0455705593517
 20
720.4374484569673
 30
0.0
 11
248.2455705593517
 21
720.4374484569673
 31
0.0
  0
ARC
  5
6A1
330
1E
100
AcDbEntity
  8
STEMPEL
100
AcDbCircle
 10
245.4474943479993
 20
721.4374484569673
 30
0.0
 40
1.5
100
AcDbArc
 50
270.0
 51
329.9999999999924
  0
ARC
  5
6A2
330
1E
100
AcDbEntity
  8
STEMPEL
100
AcDbCircle
 10
245.4474943479993
 20
721.4374484569673
 30
0.0
 40
2.5
100
AcDbArc
 50
270.0
 51
329.9999999999924
  0
ARC
  5
6A3
330
1E
100
AcDbEntity
  8
STEMPEL
100
AcDbCircle
 10
250.8436467707057
 20
721.4374484569673
 30
0.0
 40
1.5
100
AcDbArc
 50
209.9999999999924
 51
270.0
  0
LINE
  5
6A4
330
1E
100
AcDbEntity
  8
STEMPEL
100
AcDbLine
 10
334.404132175649
 20
699.9373904896522
 30
0.0
 11
334.404132175649
 21
635.9374484569682
 31
0.0
  0
LINE
  5
6A5
330
1E
100
AcDbEntity
  8
STEMPEL
100
AcDbLine
 10
335.4041321756491
 20
699.9373904896522
 30
0.0
 11
335.4041321756491
 21
635.9374484569682
 31
0.0
  0
LINE
  5
6A6
330
1E
100
AcDbEntity
  8
STEMPEL
100
AcDbLine
 10
323.3271776823122
 20
687.4374484569694
 30
0.0
 11
323.3271776823122
 21
662.4374484569726
 31
0.0
  0
LINE
  5
6A7
330
1E
100
AcDbEntity
  8
STEMPEL
100
AcDbLine
 10
315.8271776823123
 20
687.4374484569694
 30
0.0
 11
315.8271776823123
 21
662.437448456971
 31
0.0
  0
LINE
  5
6A8
330
1E
100
AcDbEntity
  8
STEMPEL
100
AcDbLine
 10
316.6952417020012
 20
662.4374484569694
 30
0.0
 11
316.6952417020012
 21
687.437448456971
 31
0.0
  0
LINE
  5
6A9
330
1E
100
AcDbEntity
  8
STEMPEL
100
AcDbLine
 10
273.2797748209454
 20
687.4374484569694
 30
0.0
 11
273.2797748209454
 21
662.4374484569694
 31
0.0
  0
LINE
  5
6AA
330
1E
100
AcDbEntity
  8
STEMPEL
100
AcDbLine
 10
273.7809518163873
 20
687.4374484569694
 30
0.0
 11
273.7809518163873
 21
662.4374484569694
 31
0.0
  0
LINE
  5
6AB
330
1E
100
AcDbEntity
  8
STEMPEL
100
AcDbLine
 10
286.2701558777111
 20
687.4374484569694
 30
0.0
 11
286.2701558777111
 21
662.437448456971
 31
0.0
  0
LINE
  5
6AC
330
1E
100
AcDbEntity
  8
STEMPEL
100
AcDbLine
 10
311.6821885031975
 20
598.437448456967
 30
0.0
 11
388.2828118320888
 21
598.4374484569668
 31
0.0
  0
LINE
  5
6AD
102
{ACAD_REACTORS
330
588
102
}
330
1E
100
AcDbEntity
  8
STEMPEL
100
AcDbLine
 10
384.0401711449696
 20
601.4374484569677
 30
0.0
 11
315.2472052140531
 21
601.4374484569677
 31
0.0
  0
LINE
  5
6AE
330
1E
100
AcDbEntity
  8
STEMPEL
100
AcDbLine
 10
360.0619894002223
 20
615.937448456968
 30
0.0
 11
382.4041321756488
 21
615.937448456968
 31
0.0
  0
LINE
  5
6B1
330
1E
100
AcDbEntity
  8
STEMPEL
100
AcDbLine
 10
317.1932396911805
 20
628.4374484569684
 30
0.0
 11
327.1932396911805
 21
628.4374484569684
 31
0.0
  0
LINE
  5
6B4
330
1E
100
AcDbEntity
  8
STEMPEL
100
AcDbLine
 10
326.1932396911805
 20
629.4374484569685
 30
0.0
 11
318.1932396911805
 21
629.4374484569685
 31
0.0
  0
ELLIPSE
  5
6B5
330
1E
100
AcDbEntity
  8
STEMPEL
100
AcDbEllipse
 10
319.5771776823122
 20
662.437448456971
 30
0.0
 11
0.0
 21
-7.499999999999999
 31
0.0
210
0.0
220
0.0
230
1.0
 40
0.4999999999999926
 41
4.712388980384689
 42
7.853981633974482
  0
ELLIPSE
  5
6B6
330
1E
100
AcDbEntity
  8
STEMPEL
100
AcDbEllipse
 10
320.445241702001
 20
662.437448456971
 30
0.0
 11
0.0
 21
-7.499999999999999
 31
0.0
210
0.0
220
0.0
230
1.0
 40
0.4999999999999926
 41
4.712388980384689
 42
6.167183451052224
  0
LWPOLYLINE
  5
6B7
330
1E
100
AcDbEntity
  8
STEMPEL
100
AcDbPolyline
 90
       10
 70
   128
 43
0.0
 10
-320.6041132933265
 20
629.9374484569691
 10
-319.8463636682323
 20
630.0286019388961
 10
-319.1116378820567
 20
630.2992927322539
 10
-318.4222602060235
 20
630.7412960342626
 10
-317.7991770319771
 20
631.3411817982555
 10
-317.2613204268657
 20
632.0807227988503
 10
-316.8250328914668
 20
632.9374484569695
 10
-316.5035708017715
 20
633.8853275970154
 10
-316.3067016207075
 20
634.8955593909679
 10
-316.2404071187207
 20
635.9374484569696
210
0.0
220
0.0
230
-1.0
  0
LINE
  5
6B9
102
{ACAD_REACTORS
330
4A4
102
}
330
1E
100
AcDbEntity
  8
STEMPEL
100
AcDbLine
 10
302.5683457380219
 20
586.1771860336366
 30
0.0
 11
293.3685982697157
 21
576.9774385653313
 31
0.0
  0
LINE
  5
6BA
102
{ACAD_REACTORS
330
4A4
102
}
330
1E
100
AcDbEntity
  8
STEMPEL
100
AcDbLine
 10
301.1541321756488
 20
587.5913995960097
 30
0.0
 11
291.9543847073428
 21
578.3916521277046
 31
0.0
  0
ARC
  5
6BB
102
{ACAD_REACTORS
330
4A4
102
}
330
1E
100
AcDbEntity
  8
STEMPEL
100
AcDbCircle
 10
296.9041321756486
 20
573.4419046593984
 30
0.0
 40
5.0
100
AcDbArc
 50
134.9999999999996
 51
180.0
  0
ARC
  5
6BC
102
{ACAD_REACTORS
330
4A4
102
}
330
1E
100
AcDbEntity
  8
STEMPEL
100
AcDbCircle
 10
296.9041321756483
 20
573.4419046593984
 30
0.0
 40
7.0
100
AcDbArc
 50
134.9999999999996
 51
180.0
  0
LINE
  5
6BD
102
{ACAD_REACTORS
330
588
102
}
330
1E
100
AcDbEntity
  8
STEMPEL
100
AcDbLine
 10
310.1981405223814
 20
601.6788903798331
 30
0.0
 11
301.1541321756488
 21
587.5913995960097
 31
0.0
  0
LINE
  5
6BE
102
{ACAD_REACTORS
330
588
102
}
330
1E
100
AcDbEntity
  8
STEMPEL
100
AcDbLine
 10
312.7226728682172
 20
600.0581694184002
 30
0.0
 11
303.6786645214845
 21
585.9706786345769
 31
0.0
  0
HATCH
  5
6BF
330
1E
100
AcDbEntity
  8
SCHRAFF
100
AcDbHatch
 10
0.0
 20
0.0
 30
0.0
210
0.0
220
0.0
230
1.0
  2
_USER
 70
     0
 71
     0
 91
        1
 92
        7
 72
     1
 73
     1
 93
        4
 10
302.5683457380219
 20
586.1771860336367
 42
0.0
 10
300.9872069079373
 20
584.5960472035523
 42
0.2702405669853512
 10
303.6786645214845
 20
585.9706786345769
 42
0.0
 10
301.1541321756498
 20
587.5913995960091
 42
0.0
 97
        0
 75
     0
 76
     0
 52
0.0
 41
0.1
 77
     0
 78
     1
 53
0.0
 43
-25.21445812960156
 44
0.0
 45
0.0
 46
0.1
 79
     0
 47
0.0373967856075013
 98
        1
 10
302.9261550538145
 20
585.8326692136609
  0
ARC
  5
6C0
330
1E
100
AcDbEntity
  8
SCHRAFF
100
AcDbCircle
 10
301.154132175649
 20
587.5913995960095
 30
0.0
 40
3.0
100
AcDbArc
 50
266.8103148957646
 51
327.2999999999994
  0
LINE
  5
6C1
102
{ACAD_REACTORS
330
4A4
102
}
330
1E
100
AcDbEntity
  8
STEMPEL
100
AcDbLine
 10
301.1541321756488
 20
587.5913995960097
 30
0.0
 11
302.5683457380219
 21
586.1771860336366
 31
0.0
  0
LINE
  5
6C2
102
{ACAD_REACTORS
330
588
102
}
330
1E
100
AcDbEntity
  8
STEMPEL
100
AcDbLine
 10
301.1541321756486
 20
587.5913995960097
 30
0.0
 11
303.6786645214845
 21
585.9706786345769
 31
0.0
  0
ARC
  5
6C3
102
{ACAD_REACTORS
330
588
102
}
330
1E
100
AcDbEntity
  8
STEMPEL
100
AcDbCircle
 10
315.2472052140531
 20
598.4374484569673
 30
0.0
 40
3.0
100
AcDbArc
 50
90.0
 51
147.2999999999993
  0
ARC
  5
6C4
102
{ACAD_REACTORS
330
588
102
}
330
1E
100
AcDbEntity
  8
STEMPEL
100
AcDbCircle
 10
315.2472052140531
 20
598.4374484569673
 30
0.0
 40
6.0
100
AcDbArc
 50
90.0
 51
147.2999999999993
  0
LINE
  5
6C6
330
1E
100
AcDbEntity
  8
STEMPEL
100
AcDbLine
 10
317.1932396911805
 20
609.9374484569676
 30
0.0
 11
317.1932396911805
 21
607.4374484569678
 31
0.0
  0
LWPOLYLINE
  5
6C7
330
1E
100
AcDbEntity
  8
STEMPEL
100
AcDbPolyline
 90
       18
 70
   128
 43
0.0
 10
297.5520144262371
 20
642.4374484569673
 10
297.4507018144327
 20
643.8155698405919
 10
297.1502140585035
 20
645.1467609533717
 10
296.6607839085823
 20
646.3856896785484
 10
295.9990783214179
 20
647.4901657843177
 10
295.1876308871527
 20
648.4225776615706
 10
294.2540744749371
 20
649.1511731421317
 10
293.230200228711
 20
649.6511407807649
 10
292.1508749579282
 20
649.9054547791818
 10
291.0528537901771
 20
649.9054547791818
 10
289.9735285193943
 20
649.6511407807649
 10
288.9496542731682
 20
649.1511731421317
 10
288.0160978609525
 20
648.4225776615706
 10
287.2046504266874
 20
647.4901657843177
 10
286.542944839523
 20
646.3856896785484
 10
286.0535146896018
 20
645.1467609533717
 10
285.7530269336726
 20
643.8155698405919
 10
285.6517143218682
 20
642.4374484569673
  0
LINE
  5
6C8
330
1E
100
AcDbEntity
  8
STEMPEL
100
AcDbLine
 10
299.1900375023423
 20
630.9374484569691
 30
0.0
 11
287.8999318458352
 21
630.9374484569691
 31
0.0
  0
LWPOLYLINE
  5
6C9
330
1E
100
AcDbEntity
  8
STEMPEL
100
AcDbPolyline
 90
        9
 70
   128
 43
0.0
 10
291.9069615979721
 20
649.927582534791
 10
290.7905538766009
 20
649.720275398384
 10
289.7252746248587
 20
649.2510206709303
 10
288.7494396418203
 20
648.5366964337615
 10
287.8981476089624
 20
647.6029953903653
 10
287.202017666226
 20
646.4835007552048
 10
286.6860881075346
 20
645.2184783378661
 10
286.3689158073188
 20
643.8534282686569
 10
286.2619087697305
 20
642.4374484569691
  0
LWPOLYLINE
  5
6CA
330
1E
100
AcDbEntity
  8
STEMPEL
100
AcDbPolyline
 90
       10
 70
   128
 43
0.0
 10
-276.6692061155959
 20
629.9374484569691
 10
-276.1964761578423
 20
630.0286019388961
 10
-275.7381098606421
 20
630.2992927322539
 10
-275.3080344519914
 20
630.7412960342626
 10
-274.9193175555531
 20
631.3411817982555
 10
-274.5837701375255
 20
632.0807227988503
 10
-274.3115876364099
 20
632.9374484569695
 10
-274.1110401797718
 20
633.8853275970154
 10
-273.9882213005993
 20
634.8955593909679
 10
-273.9468627883868
 20
635.9374484569696
210
0.0
220
0.0
230
-1.0
  0
LINE
  5
6CB
330
1E
100
AcDbEntity
  8
STEMPEL
100
AcDbLine
 10
273.9468627883868
 20
642.4374484569673
 30
0.0
 11
273.9468627883868
 21
635.9374484569709
 31
0.0
  0
LWPOLYLINE
  5
6CC
330
1E
100
AcDbEntity
  8
STEMPEL
100
AcDbPolyline
 90
        7
 70
   128
 43
0.0
 10
-287.8999318458358
 20
630.9374484569691
 10
-287.428286245269
 20
631.5467863588101
 10
-287.0237797688862
 20
632.2742166320993
 10
-286.6972921263971
 20
633.1001741260431
 10
-286.4576046129888
 20
634.0024436765054
 10
-286.3111639253629
 20
634.9567576107485
 10
-286.2619087697304
 20
635.9374484569696
210
0.0
220
0.0
230
-1.0
  0
LWPOLYLINE
  5
6CD
330
1E
100
AcDbEntity
  8
STEMPEL
100
AcDbPolyline
 90
       10
 70
   128
 43
0.0
 10
-289.3143174573922
 20
629.9374484569691
 10
-288.6783130973913
 20
630.0286019388961
 10
-288.0616334080352
 20
630.2992927322539
 10
-287.4830158896301
 20
630.7412960342626
 10
-286.9600415426782
 20
631.3411817982555
 10
-286.5086006780738
 20
632.0807227988503
 10
-286.1424100980478
 20
632.9374484569695
 10
-285.8725963180729
 20
633.8853275970154
 10
-285.7073574933212
 20
634.8955593909679
 10
-285.6517143218681
 20
635.9374484569696
210
0.0
220
0.0
230
-1.0
  0
LINE
  5
6CE
330
1E
100
AcDbEntity
  8
STEMPEL
100
AcDbLine
 10
286.2619087697304
 20
642.4374484569673
 30
0.0
 11
286.2619087697304
 21
635.9374484569709
 31
0.0
  0
LINE
  5
6CF
330
1E
100
AcDbEntity
  8
STEMPEL
100
AcDbLine
 10
285.6517143218681
 20
642.4374484569673
 30
0.0
 11
285.6517143218681
 21
635.9374484569709
 31
0.0
  0
ELLIPSE
  5
6D0
330
1E
100
AcDbEntity
  8
STEMPEL
100
AcDbEllipse
 10
279.7749653493282
 20
662.4374484569694
 30
0.0
 11
0.0
 21
-7.5
 31
0.0
210
0.0
220
0.0
230
1.0
 40
0.8660254037843856
 41
4.712388980384689
 42
7.853981633974482
  0
ELLIPSE
  5
6D1
330
1E
100
AcDbEntity
  8
STEMPEL
100
AcDbEllipse
 10
280.2761423447702
 20
662.4374484569694
 30
0.0
 11
0.0
 21
-7.5
 31
0.0
210
0.0
220
0.0
230
1.0
 40
0.8660254037843856
 41
4.712388980384689
 42
6.24459510668465
  0
LWPOLYLINE
  5
6D2
330
1E
100
AcDbEntity
  8
STEMPEL
100
AcDbPolyline
 90
       18
 70
   128
 43
0.0
 10
316.2404071187205
 20
642.4374484569673
 10
316.1626672174604
 20
643.8155698405919
 10
315.9320948527785
 20
645.1467609533717
 10
315.5565418900134
 20
646.3856896785484
 10
315.0487973348857
 20
647.4901657843177
 10
314.4261518192477
 20
648.4225776615706
 10
313.7098087893536
 20
649.1511731421317
 10
312.9241624479278
 20
649.6511407807649
 10
312.0959670388483
 20
649.9054547791818
 10
311.2534257634607
 20
649.9054547791818
 10
310.4252303543812
 20
649.6511407807649
 10
309.6395840129554
 20
649.1511731421317
 10
308.9232409830613
 20
648.4225776615706
 10
308.3005954674234
 20
647.4901657843177
 10
307.7928509122957
 20
646.3856896785484
 10
307.4172979495305
 20
645.1467609533717
 10
307.1867255848486
 20
643.8155698405919
 10
307.1089856835886
 20
642.4374484569673
  0
LWPOLYLINE
  5
6D3
330
1E
100
AcDbEntity
  8
STEMPEL
100
AcDbPolyline
 90
       10
 70
   128
 43
0.0
 10
312.4699172879755
 20
649.9374484569705
 10
311.6770899421158
 20
649.8235066045622
 10
310.9083522539701
 20
649.4851431128648
 10
310.1870619291925
 20
648.9326389853538
 10
309.535135009311
 20
648.1827817803625
 10
308.9723799638954
 20
647.2583555296191
 10
308.5158958202324
 20
646.1874484569698
 10
308.1795526180357
 20
645.0025995319122
 10
307.9735699753056
 20
643.7398097894713
 10
307.9042065704095
 20
642.4374484569691
  0
LWPOLYLINE
  5
6D4
330
1E
100
AcDbEntity
  8
STEMPEL
100
AcDbPolyline
 90
       10
 70
   128
 43
0.0
 10
-301.2146175617611
 20
629.9374484569691
 10
-300.5786132017602
 20
630.0286019388961
 10
-299.961933512404
 20
630.2992927322539
 10
-299.383315993999
 20
630.7412960342626
 10
-298.8603416470471
 20
631.3411817982555
 10
-298.4089007824426
 20
632.0807227988503
 10
-298.0427102024166
 20
632.9374484569695
 10
-297.7728964224417
 20
633.8853275970154
 10
-297.60765759769
 20
634.8955593909679
 10
-297.552014426237
 20
635.9374484569696
210
0.0
220
0.0
230
-1.0
  0
LINE
  5
6D5
330
1E
100
AcDbEntity
  8
STEMPEL
100
AcDbLine
 10
297.552014426237
 20
642.4374484569673
 30
0.0
 11
297.552014426237
 21
635.9374484569709
 31
0.0
  0
LWPOLYLINE
  5
6D6
330
1E
100
AcDbEntity
  8
STEMPEL
100
AcDbPolyline
 90
       10
 70
   128
 43
0.0
 10
-311.4726918581946
 20
629.9374484569691
 10
-310.7149422331004
 20
630.0286019388961
 10
-309.9802164469248
 20
630.2992927322539
 10
-309.2908387708917
 20
630.7412960342626
 10
-308.6677555968453
 20
631.3411817982555
 10
-308.1298989917339
 20
632.0807227988503
 10
-307.6936114563349
 20
632.9374484569695
 10
-307.3721493666397
 20
633.8853275970154
 10
-307.1752801855756
 20
634.8955593909679
 10
-307.1089856835888
 20
635.9374484569696
210
0.0
220
0.0
230
-1.0
  0
LWPOLYLINE
  5
6D7
330
1E
100
AcDbEntity
  8
STEMPEL
100
AcDbPolyline
 90
        7
 70
   128
 43
0.0
 10
-309.8557833989278
 20
630.9374484569691
 10
-309.2938544256636
 20
631.5467863588101
 10
-308.8119164860765
 20
632.2742166320993
 10
-308.4229319063267
 20
633.1001741260431
 10
-308.1373629152202
 20
634.0024436765054
 10
-307.9628902494243
 20
634.9567576107485
 10
-307.9042065704093
 20
635.9374484569696
210
0.0
220
0.0
230
-1.0
  0
LINE
  5
6D8
330
1E
100
AcDbEntity
  8
STEMPEL
100
AcDbLine
 10
318.191983947239
 20
630.9374484569691
 30
0.0
 11
309.8557833989271
 21
630.9374484569691
 31
0.0
  0
LINE
  5
6DA
330
1E
100
AcDbEntity
  8
HILF
100
AcDbLine
 10
318.1932396911805
 20
629.4374484569685
 30
0.0
 11
318.1932396911805
 21
625.9374484569681
 31
0.0
  0
LINE
  5
6DB
330
1E
100
AcDbEntity
  8
STEMPEL
100
AcDbLine
 10
317.1932396911805
 20
628.4374484569684
 30
0.0
 11
317.1932396911805
 21
625.937448456968
 31
0.0
  0
LINE
  5
6DC
330
1E
100
AcDbEntity
  8
STEMPEL
100
AcDbLine
 10
318.1932396911805
 20
629.4374484569685
 30
0.0
 11
317.1932396911805
 21
628.4374484569684
 31
0.0
  0
LINE
  5
6E0
330
1E
100
AcDbEntity
  8
STEMPEL
100
AcDbLine
 10
307.9042065704094
 20
642.4374484569673
 30
0.0
 11
307.9042065704094
 21
635.9374484569709
 31
0.0
  0
LINE
  5
6E1
330
1E
100
AcDbEntity
  8
STEMPEL
100
AcDbLine
 10
307.1089856835887
 20
642.4374484569673
 30
0.0
 11
307.1089856835887
 21
635.9374484569709
 31
0.0
  0
LINE
  5
6E2
330
1E
100
AcDbEntity
  8
STEMPEL
100
AcDbLine
 10
316.2404071187205
 20
642.4374484569673
 30
0.0
 11
316.2404071187205
 21
635.9374484569709
 31
0.0
  0
LINE
  5
6E3
330
1E
100
AcDbEntity
  8
MITTEL
100
AcDbLine
 10
322.1932396911804
 20
634.437448456967
 30
0.0
 11
322.1932396911804
 21
604.4374484569673
 31
0.0
  0
ARC
  5
6E5
330
1E
100
AcDbEntity
  8
STEMPEL
100
AcDbCircle
 10
334.7462749510756
 20
620.9374484569682
 30
0.0
 40
5.0
100
AcDbArc
 50
270.0
 51
358.9999999999982
  0
ARC
  5
6E6
330
1E
100
AcDbEntity
  8
STEMPEL
100
AcDbCircle
 10
360.0619894002223
 20
620.9374484569679
 30
0.0
 40
4.99999999999995
100
AcDbArc
 50
181.0000000000017
 51
270.0
  0
LINE
  5
6E7
330
1E
100
AcDbEntity
  8
HILF
100
AcDbLine
 10
344.4041321756502
 20
623.1874484569682
 30
0.0
 11
344.4041321756484
 21
609.9374484569676
 31
0.0
  0
LINE
  5
6E8
330
1E
100
AcDbEntity
  8
STEMPEL
100
AcDbLine
 10
345.0541321756509
 20
622.5374484569672
 30
0.0
 11
345.0541321756491
 21
609.9374484569673
 31
0.0
  0
LINE
  5
6E9
330
1E
100
AcDbEntity
  8
HILF
100
AcDbLine
 10
350.404132175651
 20
623.1874484569689
 30
0.0
 11
350.4041321756501
 21
609.9374484569676
 31
0.0
  0
LINE
  5
6EA
330
1E
100
AcDbEntity
  8
STEMPEL
100
AcDbLine
 10
349.7541321756503
 20
622.5374484569681
 30
0.0
 11
349.7541321756492
 21
609.9374484569673
 31
0.0
  0
LINE
  5
6EB
330
1E
100
AcDbEntity
  8
STEMPEL
100
AcDbLine
 10
320.4041321756488
 20
609.9374484569677
 30
0.0
 11
320.4041321756488
 21
608.9374484569678
 31
0.0
  0
LINE
  5
6EC
102
{ACAD_REACTORS
330
973
102
}
330
1E
100
AcDbEntity
  8
STEMPEL
100
AcDbLine
 10
320.4041321756488
 20
607.4374484569678
 30
0.0
 11
320.4041321756488
 21
604.4374484569678
 31
0.0
  0
ARC
  5
6ED
330
1E
100
AcDbEntity
  8
STEMPEL
100
AcDbCircle
 10
322.4041321756488
 20
612.9374484569678
 30
0.0
 40
3.0
100
AcDbArc
 50
90.0
 51
270.0
  0
LINE
  5
6EE
330
1E
100
AcDbEntity
  8
STEMPEL
100
AcDbLine
 10
327.1932396911804
 20
609.9374484569676
 30
0.0
 11
327.1932396911804
 21
607.4374484569678
 31
0.0
  0
LINE
  5
6EF
330
1E
100
AcDbEntity
  8
HILF
100
AcDbLine
 10
326.1932396911805
 20
609.9374484569676
 30
0.0
 11
326.1932396911805
 21
607.4374484569678
 31
0.0
  0
LINE
  5
6F0
330
1E
100
AcDbEntity
  8
STEMPEL
100
AcDbLine
 10
355.4041321756487
 20
630.9374484569677
 30
0.0
 11
340.4041321756488
 21
630.9374484569682
 31
0.0
  0
LWPOLYLINE
  5
6F1
330
1E
100
AcDbEntity
  8
STEMPEL
100
AcDbPolyline
 90
       18
 70
   128
 43
0.0
 10
334.1944449346139
 20
642.4374484569673
 10
334.177776511137
 20
643.8155698405919
 10
334.1283388638767
 20
645.1467609533717
 10
334.0478155326163
 20
646.3856896785484
 10
333.9389486428246
 20
647.4901657843177
 10
333.8054455258623
 20
648.4225776615706
 10
333.6518524702582
 20
649.1511731421317
 10
333.4833999033061
 20
649.6511407807649
 10
333.3058242751372
 20
649.9054547791818
 10
333.1251727107901
 20
649.9054547791818
 10
332.9475970826212
 20
649.6511407807649
 10
332.7791445156691
 20
649.1511731421317
 10
332.625551460065
 20
648.4225776615706
 10
332.4920483431027
 20
647.4901657843177
 10
332.3831814533111
 20
646.3856896785484
 10
332.3026581220506
 20
645.1467609533717
 10
332.2532204747903
 20
643.8155698405919
 10
332.2365520513134
 20
642.4374484569673
  0
LWPOLYLINE
  5
6F2
330
1E
100
AcDbEntity
  8
STEMPEL
100
AcDbPolyline
 90
        9
 70
   128
 43
0.0
 10
326.3313592133933
 20
649.8392067016325
 10
325.8422986701245
 20
649.5127738038752
 10
325.3826857022235
 20
648.9675047906177
 10
324.9667358985993
 20
648.2202645474899
 10
324.6073143693077
 20
647.2941648247124
 10
324.3155378344202
 20
646.2178494027421
 10
324.100430789682
 20
645.0246081551113
 10
323.9686463835746
 20
643.7513474100353
 10
323.9242606389097
 20
642.4374484569691
  0
LWPOLYLINE
  5
6F3
330
1E
100
AcDbEntity
  8
STEMPEL
100
AcDbPolyline
 90
       18
 70
   128
 43
0.0
 10
328.7384577878801
 20
642.4374484569673
 10
328.6895884429638
 20
643.8155698405919
 10
328.5446445951437
 20
645.1467609533717
 10
328.3085621333165
 20
646.3856896785484
 10
327.9893805625698
 20
647.4901657843177
 10
327.5979692284794
 20
648.4225776615706
 10
327.1476571745815
 20
649.1511731421317
 10
326.653779237782
 20
649.6511407807649
 10
326.1331538388771
 20
649.9054547791818
 10
325.6035102514053
 20
649.9054547791818
 10
325.0828848525003
 20
649.6511407807649
 10
324.5890069157009
 20
649.1511731421317
 10
324.1386948618029
 20
648.4225776615706
 10
323.7472835277125
 20
647.4901657843177
 10
323.4281019569658
 20
646.3856896785484
 10
323.1920194951387
 20
645.1467609533717
 10
323.0470756473186
 20
643.8155698405919
 10
322.9982063024023
 20
642.4374484569673
  0
LINE
  5
6F6
330
1E
100
AcDbEntity
  8
STEMPEL
100
AcDbLine
 10
330.8920294205486
 20
630.9374484569691
 30
0.0
 11
326.0778322715772
 21
630.9374484569691
 31
0.0
  0
LWPOLYLINE
  5
6F7
330
1E
100
AcDbEntity
  8
STEMPEL
100
AcDbPolyline
 90
       10
 70
   128
 43
0.0
 10
-333.553822314454
 20
629.9374484569691
 10
-332.7176430396124
 20
630.0286019388961
 10
-331.9068706489098
 20
630.2992927322539
 10
-331.146140051167
 20
630.7412960342626
 10
-330.4585656606482
 20
631.3411817982555
 10
-329.8650390772798
 20
632.0807227988503
 10
-329.3835943059586
 20
632.9374484569695
 10
-329.0288598024382
 20
633.8853275970154
 10
-328.8116139951041
 20
634.8955593909679
 10
-328.7384577878801
 20
635.9374484569696
210
0.0
220
0.0
230
-1.0
  0
LWPOLYLINE
  5
6F8
330
1E
100
AcDbEntity
  8
STEMPEL
100
AcDbPolyline
 90
        7
 70
   128
 43
0.0
 10
-326.0778322715783
 20
630.9374484569691
 10
-325.457741748514
 20
631.5467863588101
 10
-324.9259216017305
 20
632.2742166320993
 10
-324.4966758019992
 20
633.1001741260431
 10
-324.1815494542019
 20
634.0024436765054
 10
-323.989018277236
 20
634.9567576107485
 10
-323.9242606389097
 20
635.9374484569696
210
0.0
220
0.0
230
-1.0
  0
LWPOLYLINE
  5
6F9
330
1E
100
AcDbEntity
  8
STEMPEL
100
AcDbPolyline
 90
       10
 70
   128
 43
0.0
 10
-327.8135708289763
 20
629.9374484569691
 10
-326.9773915541346
 20
630.0286019388961
 10
-326.1666191634321
 20
630.2992927322539
 10
-325.4058885656892
 20
630.7412960342626
 10
-324.7183141751705
 20
631.3411817982555
 10
-324.124787591802
 20
632.0807227988503
 10
-323.6433428204808
 20
632.9374484569695
 10
-323.2886083169605
 20
633.8853275970154
 10
-323.0713625096263
 20
634.8955593909679
 10
-322.9982063024023
 20
635.9374484569696
210
0.0
220
0.0
230
-1.0
  0
LINE
  5
6FA
330
1E
100
AcDbEntity
  8
STEMPEL
100
AcDbLine
 10
327.1932396911805
 20
628.4374484569684
 30
0.0
 11
326.1932396911805
 21
629.4374484569685
 31
0.0
  0
LINE
  5
6FB
330
1E
100
AcDbEntity
  8
HILF
100
AcDbLine
 10
326.1932396911805
 20
629.4374484569685
 30
0.0
 11
326.1932396911805
 21
625.9374484569681
 31
0.0
  0
LINE
  5
6FC
330
1E
100
AcDbEntity
  8
STEMPEL
100
AcDbLine
 10
327.1932396911805
 20
628.4374484569684
 30
0.0
 11
327.1932396911805
 21
625.9374484569681
 31
0.0
  0
LINE
  5
6FE
330
1E
100
AcDbEntity
  8
STEMPEL
100
AcDbLine
 10
323.9242606389096
 20
642.4374484569673
 30
0.0
 11
323.9242606389096
 21
635.9374484569709
 31
0.0
  0
LINE
  5
6FF
330
1E
100
AcDbEntity
  8
STEMPEL
100
AcDbLine
 10
322.9982063024023
 20
642.4374484569673
 30
0.0
 11
322.9982063024023
 21
635.9374484569709
 31
0.0
  0
LINE
  5
700
330
1E
100
AcDbEntity
  8
STEMPEL
100
AcDbLine
 10
328.7384577878801
 20
642.4374484569673
 30
0.0
 11
328.7384577878801
 21
635.9374484569709
 31
0.0
  0
ARC
  5
701
330
1E
100
AcDbEntity
  8
STEMPEL
100
AcDbCircle
 10
340.404132175649
 20
635.9374484569682
 30
0.0
 40
5.0
100
AcDbArc
 50
180.0
 51
270.0
  0
ARC
  5
702
330
1E
100
AcDbEntity
  8
STEMPEL
100
AcDbCircle
 10
340.404132175649
 20
635.9374484569682
 30
0.0
 40
6.0
100
AcDbArc
 50
180.0
 51
270.0
  0
LWPOLYLINE
  5
703
330
1E
100
AcDbEntity
  8
STEMPEL
100
AcDbPolyline
 90
       10
 70
   128
 43
0.0
 10
-339.7004336656447
 20
629.9374484569705
 10
-338.842360669372
 20
630.0035756715431
 10
-337.9895484697497
 20
630.2561294212733
 10
-337.1687901628327
 20
630.6871751375909
 10
-336.4058717964336
 20
631.2831705080307
 10
-335.7247622409345
 20
632.0253909397513
 10
-335.1468601509888
 20
632.8905178365487
 10
-334.6903216765826
 20
633.8513712072649
 10
-334.369490044985
 20
634.8777635889771
 10
-334.1944449346139
 20
635.9374484569696
210
0.0
220
0.0
230
-1.0
  0
LWPOLYLINE
  5
704
330
1E
100
AcDbEntity
  8
STEMPEL
100
AcDbPolyline
 90
       10
 70
   128
 43
0.0
 10
-337.7425407823442
 20
629.9374484569691
 10
-336.8844677860715
 20
630.0035756715419
 10
-336.0316555864492
 20
630.2561294212721
 10
-335.2108972795322
 20
630.6871751375897
 10
-334.4479789131332
 20
631.2831705080295
 10
-333.7668693576341
 20
632.0253909397502
 10
-333.1889672676883
 20
632.8905178365478
 10
-332.7324287932821
 20
633.8513712072638
 10
-332.4115971616846
 20
634.877763588976
 10
-332.2365520513134
 20
635.9374484569687
210
0.0
220
0.0
230
-1.0
  0
LWPOLYLINE
  5
705
330
1E
100
AcDbEntity
  8
STEMPEL
100
AcDbPolyline
 90
        7
 70
   128
 43
0.0
 10
-335.8507899485221
 20
630.9374484569696
 10
-335.1740880734447
 20
631.5470491848288
 10
-334.5745386498107
 20
632.2746082687404
 10
-334.0682499766611
 20
633.1005781304206
 10
-333.6688246846155
 20
634.0027671556238
 10
-333.3869942693526
 20
634.9569359238174
 10
-333.2303307648512
 20
635.9374484569696
210
0.0
220
0.0
230
-1.0
  0
LINE
  5
707
330
1E
100
AcDbEntity
  8
STEMPEL
100
AcDbLine
 10
336.8149041182845
 20
630.9374484569691
 30
0.0
 11
335.8507899485219
 21
630.9374484569691
 31
0.0
  0
LINE
  5
708
330
1E
100
AcDbEntity
  8
STEMPEL
100
AcDbLine
 10
339.7455134268576
 20
620.8501864247819
 30
0.0
 11
339.9041321756488
 21
629.937448456968
 31
0.0
  0
LINE
  5
709
330
1E
100
AcDbEntity
  8
STEMPEL
100
AcDbLine
 10
332.2365520513134
 20
642.4374484569673
 30
0.0
 11
332.2365520513134
 21
635.9374484569687
 31
0.0
  0
LINE
  5
70A
330
1E
100
AcDbEntity
  8
STEMPEL
100
AcDbLine
 10
333.2303307648512
 20
642.4374484569673
 30
0.0
 11
333.2303307648512
 21
635.9374484569696
 31
0.0
  0
LINE
  5
70B
330
1E
100
AcDbEntity
  8
STEMPEL
100
AcDbLine
 10
334.1944449346139
 20
642.4374484569673
 30
0.0
 11
334.1944449346139
 21
635.9374484569696
 31
0.0
  0
LWPOLYLINE
  5
70C
330
1E
100
AcDbEntity
  8
STEMPEL
100
AcDbPolyline
 90
        7
 70
   128
 43
0.0
 10
333.7123878497327
 20
648.8995025128072
 10
333.5745588401625
 20
648.1473962758687
 10
333.4556945631963
 20
647.224682665154
 10
333.3593465612951
 20
646.1589314152497
 10
333.288393613757
 20
644.9819860784284
 10
333.244955721749
 20
643.7290125720267
 10
333.2303307648514
 20
642.4374484569673
  0
LINE
  5
70D
330
1E
100
AcDbEntity
  8
STEMPEL
100
AcDbLine
 10
335.4041321756489
 20
654.9374484569691
 30
0.0
 11
334.4041321756489
 21
654.9374484569691
 31
0.0
  0
LINE
  5
70E
330
1E
100
AcDbEntity
  8
STEMPEL
100
AcDbLine
 10
350.4041321756487
 20
629.937448456968
 30
0.0
 11
355.404132175649
 21
629.9374484569677
 31
0.0
  0
LINE
  5
70F
330
1E
100
AcDbEntity
  8
STEMPEL
100
AcDbLine
 10
341.4041321756487
 20
632.5374484569681
 30
0.0
 11
353.4041321756486
 21
632.5374484569681
 31
0.0
  0
LINE
  5
710
330
1E
100
AcDbEntity
  8
STEMPEL
100
AcDbLine
 10
353.4041321756489
 20
630.9374484569677
 30
0.0
 11
341.4041321756487
 21
630.9374484569682
 31
0.0
  0
LINE
  5
711
330
1E
100
AcDbEntity
  8
STEMPEL
100
AcDbLine
 10
352.9251366849475
 20
636.155201246165
 30
0.0
 11
352.9251366849475
 21
632.5374484569681
 31
0.0
  0
LINE
  5
712
330
1E
100
AcDbEntity
  8
STEMPEL
100
AcDbLine
 10
350.1646344302982
 20
636.1315408740408
 30
0.0
 11
350.1646344302979
 21
632.5374484569681
 31
0.0
  0
LINE
  5
713
330
1E
100
AcDbEntity
  8
STEMPEL
100
AcDbLine
 10
344.6436299209994
 20
636.1315408740408
 30
0.0
 11
344.6436299209994
 21
632.5374484569681
 31
0.0
  0
LINE
  5
714
330
1E
100
AcDbEntity
  8
STEMPEL
100
AcDbLine
 10
341.8831276663501
 20
636.155201246165
 30
0.0
 11
341.8831276663501
 21
632.5374484569681
 31
0.0
  0
LINE
  5
715
330
1E
100
AcDbEntity
  8
MITTEL
100
AcDbLine
 10
347.4041321756489
 20
641.0051917913681
 30
0.0
 11
347.4041321756522
 21
609.9374484569676
 31
0.0
  0
LINE
  5
716
330
1E
100
AcDbEntity
  8
STEMPEL
100
AcDbLine
 10
344.4041321756503
 20
623.1874484569682
 30
0.0
 11
350.4041321756503
 21
623.1874484569682
 31
0.0
  0
LINE
  5
717
330
1E
100
AcDbEntity
  8
STEMPEL
100
AcDbLine
 10
345.0541321756499
 20
622.5374484569681
 30
0.0
 11
349.7541321756502
 21
622.5374484569681
 31
0.0
  0
LINE
  5
718
330
1E
100
AcDbEntity
  8
STEMPEL
100
AcDbLine
 10
344.4041321756483
 20
630.9374484569682
 30
0.0
 11
344.4041321756502
 21
623.1874484569675
 31
0.0
  0
LINE
  5
719
330
1E
100
AcDbEntity
  8
HILF
100
AcDbLine
 10
345.0541321756504
 20
630.9374484569682
 30
0.0
 11
345.0541321756509
 21
622.5374484569672
 31
0.0
  0
LINE
  5
71A
330
1E
100
AcDbEntity
  8
STEMPEL
100
AcDbLine
 10
344.4041321756503
 20
623.1874484569682
 30
0.0
 11
345.0541321756499
 21
622.5374484569681
 31
0.0
  0
LINE
  5
71B
330
1E
100
AcDbEntity
  8
STEMPEL
100
AcDbLine
 10
343.4041321756489
 20
630.9374484569682
 30
0.0
 11
343.4041321756489
 21
629.9374484569677
 31
0.0
  0
LINE
  5
71C
330
1E
100
AcDbEntity
  8
STEMPEL
100
AcDbLine
 10
341.4041321756487
 20
632.5374484569681
 30
0.0
 11
341.4041321756487
 21
630.9374484569682
 31
0.0
  0
LINE
  5
71D
330
1E
100
AcDbEntity
  8
STEMPEL
100
AcDbLine
 10
350.4041321756491
 20
630.9374484569682
 30
0.0
 11
350.404132175651
 21
623.1874484569682
 31
0.0
  0
LINE
  5
71E
330
1E
100
AcDbEntity
  8
HILF
100
AcDbLine
 10
349.7541321756498
 20
630.937448456968
 30
0.0
 11
349.7541321756502
 21
622.5374484569672
 31
0.0
  0
LINE
  5
71F
330
1E
100
AcDbEntity
  8
STEMPEL
100
AcDbLine
 10
349.7541321756502
 20
622.5374484569681
 30
0.0
 11
350.4041321756503
 21
623.1874484569682
 31
0.0
  0
LINE
  5
720
330
1E
100
AcDbEntity
  8
STEMPEL
100
AcDbLine
 10
351.4041321756489
 20
630.9374484569677
 30
0.0
 11
351.4041321756489
 21
629.9374484569677
 31
0.0
  0
ARC
  5
721
330
1E
100
AcDbEntity
  8
STEMPEL
100
AcDbCircle
 10
347.4041321756487
 20
628.3240741977681
 30
0.0
 40
8.281117593600001
100
AcDbArc
 50
70.52782738138597
 51
109.472172618614
  0
LINE
  5
722
330
1E
100
AcDbEntity
  8
STEMPEL
100
AcDbLine
 10
343.2637825860228
 20
636.605191791368
 30
0.0
 11
351.5444817647656
 21
636.605191791368
 31
0.0
  0
LINE
  5
723
330
1E
100
AcDbEntity
  8
STEMPEL
100
AcDbLine
 10
341.8831276663501
 20
636.155201246165
 30
0.0
 11
342.0898857981355
 21
636.2745731092084
 31
0.0
  0
ARC
  5
724
330
1E
100
AcDbEntity
  8
STEMPEL
100
AcDbCircle
 10
343.2633787936747
 20
634.357293471089
 30
0.0
 40
2.247898356545996
100
AcDbArc
 50
52.11936428281886
 51
121.4691945163666
  0
LINE
  5
725
330
1E
100
AcDbEntity
  8
STEMPEL
100
AcDbLine
 10
351.5409263322634
 20
636.605191791368
 30
0.0
 11
351.5444817652595
 21
636.605191791368
 31
0.0
  0
ARC
  5
726
330
1E
100
AcDbEntity
  8
STEMPEL
100
AcDbCircle
 10
351.5448855576227
 20
634.357293471089
 30
0.0
 40
2.247898356545996
100
AcDbArc
 50
58.53080548383258
 51
127.8806357171811
  0
LINE
  5
727
330
1E
100
AcDbEntity
  8
STEMPEL
100
AcDbLine
 10
352.9251366849475
 20
636.155201246165
 30
0.0
 11
352.718378553155
 21
636.2745731092124
 31
0.0
  0
LINE
  5
728
330
1E
100
AcDbEntity
  8
STEMPEL
100
AcDbLine
 10
355.4041321756488
 20
630.9374484569682
 30
0.0
 11
355.4041321756489
 21
629.9374484569677
 31
0.0
  0
LINE
  5
729
330
1E
100
AcDbEntity
  8
STEMPEL
100
AcDbLine
 10
353.4041321756486
 20
632.5374484569681
 30
0.0
 11
353.4041321756486
 21
630.9374484569682
 31
0.0
  0
LINE
  5
72A
330
1E
100
AcDbEntity
  8
STEMPEL
100
AcDbLine
 10
354.9041321756488
 20
629.9374484569682
 30
0.0
 11
355.0627509244404
 21
620.8501864247816
 31
0.0
  0
ARC
  5
72B
102
{ACAD_REACTORS
330
588
102
}
330
1E
100
AcDbEntity
  8
STEMPEL
100
AcDbCircle
 10
384.0401711449696
 20
598.4374484569677
 30
0.0
 40
6.0
100
AcDbArc
 50
45.00000000000036
 51
90.0
  0
LINE
  5
72C
102
{ACAD_REACTORS
330
588
102
}
330
1E
100
AcDbEntity
  8
STEMPEL
100
AcDbLine
 10
388.2828118320891
 20
598.4374484569677
 30
0.0
 11
386.1614914885291
 21
600.5587688005273
 31
0.0
  0
ARC
  5
72D
102
{ACAD_REACTORS
330
588
102
}
330
1E
100
AcDbEntity
  8
STEMPEL
100
AcDbCircle
 10
384.0401711449696
 20
598.4374484569677
 30
0.0
 40
3.0
100
AcDbArc
 50
45.00000000000036
 51
90.0
  0
ARC
  5
72E
330
1E
100
AcDbEntity
  8
STEMPEL
100
AcDbCircle
 10
382.4041321756488
 20
612.9374484569678
 30
0.0
 40
3.0
100
AcDbArc
 50
270.0
 51
90.0
  0
LINE
  5
72F
102
{ACAD_REACTORS
330
588
102
}
330
1E
100
AcDbEntity
  8
STEMPEL
100
AcDbLine
 10
390.4041321756487
 20
600.5587688005273
 30
0.0
 11
388.2828118320891
 21
598.4374484569675
 31
0.0
  0
LINE
  5
730
102
{ACAD_REACTORS
330
588
102
}
330
1E
100
AcDbEntity
  8
STEMPEL
100
AcDbLine
 10
390.4041321756487
 20
600.5587688005273
 30
0.0
 11
388.2828118320891
 21
602.6800891440871
 31
0.0
  0
LINE
  5
732
102
{ACAD_REACTORS
330
973
102
}
330
1E
100
AcDbEntity
  8
STEMPEL
100
AcDbLine
 10
390.4041321756488
 20
607.4374484569678
 30
0.0
 11
390.4041321756488
 21
604.4374484569678
 31
0.0
  0
LINE
  5
736
330
1E
100
AcDbEntity
  8
STEMPEL
100
AcDbLine
 10
331.9234857437761
 20
704.2562859038487
 30
0.0
 11
307.944631850825
 21
718.243939070034
 31
0.0
  0
LINE
  5
737
330
1E
100
AcDbEntity
  8
STEMPEL
100
AcDbLine
 10
332.436826797357
 20
705.1145290170113
 30
0.0
 11
308.4505239218901
 21
719.1065390276996
 31
0.0
  0
ELLIPSE
  5
738
330
1E
100
AcDbEntity
  8
STEMPEL
100
AcDbEllipse
 10
319.5771776823122
 20
687.4374484569694
 30
0.0
 11
0.0
 21
7.499999999999999
 31
0.0
210
0.0
220
0.0
230
-1.0
 40
0.4999999999999926
 41
4.712388980384689
 42
7.853981633974482
  0
ELLIPSE
  5
739
330
1E
100
AcDbEntity
  8
STEMPEL
100
AcDbEllipse
 10
320.445241702001
 20
687.4374484569694
 30
0.0
 11
0.0
 21
7.499999999999999
 31
0.0
210
0.0
220
0.0
230
-1.0
 40
0.4999999999999926
 41
4.712388980384689
 42
6.167183451052224
  0
ELLIPSE
  5
73A
330
1E
100
AcDbEntity
  8
STEMPEL
100
AcDbEllipse
 10
279.7749653493282
 20
687.4374484569694
 30
0.0
 11
0.0
 21
7.5
 31
0.0
210
0.0
220
0.0
230
-1.0
 40
0.8660254037843856
 41
4.712388980384689
 42
7.853981633974482
  0
ELLIPSE
  5
73B
330
1E
100
AcDbEntity
  8
STEMPEL
100
AcDbEllipse
 10
280.2761423447702
 20
687.4374484569694
 30
0.0
 11
0.0
 21
7.5
 31
0.0
210
0.0
220
0.0
230
-1.0
 40
0.8660254037843856
 41
4.712388980384689
 42
6.24459510668465
  0
ARC
  5
73C
330
1E
100
AcDbEntity
  8
STEMPEL
100
AcDbCircle
 10
305.4041321756491
 20
713.9374484569673
 30
0.0
 40
5.0
100
AcDbArc
 50
59.46264995170039
 51
90.0
  0
ARC
  5
73D
330
1E
100
AcDbEntity
  8
STEMPEL
100
AcDbCircle
 10
305.4041321756491
 20
713.9374484569673
 30
0.0
 40
6.0
100
AcDbArc
 50
59.48712567237827
 51
90.0
  0
ARC
  5
73E
330
1E
100
AcDbEntity
  8
STEMPEL
100
AcDbCircle
 10
305.4041321756491
 20
713.9374484569673
 30
0.0
 40
6.0
100
AcDbArc
 50
90.0
 51
90.0
  0
LINE
  5
741
330
1E
100
AcDbEntity
  8
STEMPEL
100
AcDbLine
 10
335.4041321756489
 20
694.9374484569691
 30
0.0
 11
334.4041321756489
 21
694.9374484569691
 31
0.0
  0
ARC
  5
742
330
1E
100
AcDbEntity
  8
STEMPEL
100
AcDbCircle
 10
329.404132175649
 20
699.9373904896522
 30
0.0
 40
6.0
100
AcDbArc
 50
0.0
 51
59.74358352518008
  0
ARC
  5
743
330
1E
100
AcDbEntity
  8
STEMPEL
100
AcDbCircle
 10
334.9152757799607
 20
709.4572854394298
 30
0.0
 40
5.0
100
AcDbArc
 50
239.7435628364698
 51
239.9329541615142
  0
ARC
  5
744
330
1E
100
AcDbEntity
  8
STEMPEL
100
AcDbCircle
 10
329.404132175649
 20
699.9373904896522
 30
0.0
 40
5.0
100
AcDbArc
 50
0.0
 51
59.74358352518008
  0
TEXT
  5
81B
330
1E
100
AcDbEntity
  8
TEXT
 62
     1
100
AcDbText
 10
508.2201636304418
 20
767.4377728175698
 30
0.0
 40
7.0
  1
21524125W
 50
90.0
 41
0.8
 72
     1
 11
508.2201636304418
 21
790.3711061509032
 31
0.0
100
AcDbText
  0
TEXT
  5
81C
330
1E
100
AcDbEntity
  8
TEXT
 62
     1
100
AcDbText
 10
507.9624175243587
 20
654.9791173409951
 30
0.0
 40
7.0
  1
Drainlet Kompletteinheit
 50
90.0
 41
0.7
100
AcDbText
  0
TEXT
  5
81D
330
1E
100
AcDbEntity
  8
TEXT
100
AcDbText
 10
522.0
 20
654.8629872542571
 30
0.0
 40
5.0
  1
DN125 seitlich, zweiteilig
 50
90.0
 41
0.8
100
AcDbText
  0
TEXT
  5
81E
330
1E
100
AcDbEntity
  8
TEXT
100
AcDbText
 10
532.0
 20
654.8629872542571
 30
0.0
 40
5.0
  1

 50
90.0
 41
0.8
100
AcDbText
  0
TEXT
  5
81F
330
1E
100
AcDbEntity
  8
TEXT
100
AcDbText
 10
542.0
 20
655.1623031583292
 30
0.0
 40
5.0
  1
EDV-Art.Nr. 21524.125X
 50
90.0
 41
0.8
100
AcDbText
  0
TEXT
  5
820
330
1E
100
AcDbEntity
  8
TEXT
100
AcDbText
 10
552.0
 20
654.9713400534565
 30
0.0
 40
4.0
  1
21524125W.DWG
 50
90.0
 41
0.8
100
AcDbText
  0
TEXT
  5
821
330
1E
100
AcDbEntity
  8
TEXT
100
AcDbText
 10
531.0
 20
624.7428571428572
 30
0.0
 40
4.0
  1
Koeh
 50
90.0
 41
0.8
 72
     4
 11
529.0
 21
630.0000000000001
 31
0.0
100
AcDbText
  0
TEXT
  5
822
330
1E
100
AcDbEntity
  8
TEXT
100
AcDbText
 10
531.0
 20
590.2952380952382
 30
0.0
 40
4.0
  1
29.10.
 50
90.0
 41
0.8
 72
     4
 11
529.0
 21
597.0000000000001
 31
0.0
100
AcDbText
  0
TEXT
  5
823
330
1E
100
AcDbEntity
  8
TEXT
100
AcDbText
 10
506.0254814117801
 20
613.0095238095239
 30
0.0
 40
4.0
  1
DIN EN1124-3
 50
90.0
 41
0.8
 72
     1
 11
506.0254814117801
 21
630.0000000000001
 31
0.0
100
AcDbText
  0
ARC
  5
848
330
1E
100
AcDbEntity
  8
SCHRAFF
100
AcDbCircle
 10
291.9041321756483
 20
311.9976175212172
 30
0.0
 40
4.0
100
AcDbArc
 50
357.0000000000001
 51
78.43298589444643
  0
HATCH
  5
84C
330
1E
100
AcDbEntity
  8
SCHRAFF
100
AcDbHatch
 10
0.0
 20
0.0
 30
0.0
210
0.0
220
0.0
230
1.0
  2
_USER
 70
     0
 71
     0
 91
        1
 92
        7
 72
     1
 73
     1
 93
        3
 10
292.7061879123387
 20
315.9163809225011
 42
0.0961160108874328
 10
291.9046684044504
 20
311.9975894186565
 42
0.0
 10
295.8986503146666
 20
311.7882736962454
 42
0.371067364990602
 97
        0
 75
     0
 76
     0
 52
0.0
 41
0.1
 77
     0
 78
     1
 53
0.0
 43
-25.21445812960156
 44
0.0
 45
0.0
 46
0.1
 79
     0
 47
0.0437039509760125
 98
        1
 10
294.3687680132703
 20
314.1309777562619
  0
HATCH
  5
8E9
330
1E
100
AcDbEntity
  8
SCHRAFF
100
AcDbHatch
 10
0.0
 20
0.0
 30
0.0
210
0.0
220
0.0
230
1.0
  2
_USER
 70
     0
 71
     1
 91
        2
 92
        7
 72
     0
 73
     1
 93
        6
 10
291.9041321756483
 20
311.9976175212173
 10
289.9041321756482
 20
310.0996883877875
 10
503.6938914691424
 20
298.8954418697587
 10
513.7269433394103
 20
297.3582707422625
 10
513.8321373095611
 20
299.3654912654348
 10
503.8981779182594
 20
300.8874803626187
 97
        6
330
4A6
330
521
330
586
330
581
330
587
330
520
 92
        7
 72
     0
 73
     1
 93
        6
 10
496.9374957379476
 20
168.0697522402605
 10
506.9761270417359
 20
168.5450222125855
 10
507.0813210118867
 20
170.5522427357578
 10
496.9425531138021
 20
170.0722318864187
 10
160.9041321756463
 20
187.6832592815684
 10
158.9041321756463
 20
185.7853301481387
 97
        6
330
4A6
330
4A9
330
584
330
581
330
585
330
4AA
 75
     0
 76
     0
 52
45.0
 41
2.0
 77
     0
 78
     1
 53
45.0
 43
0.0
 44
0.0
 45
-1.414213562373094
 46
1.414213562373095
 79
     0
 47
0.5476240479702187
 98
        2
 10
332.2263100790674
 20
308.9127302722034
 10
262.0824876457727
 20
181.3163253400516
  0
TEXT
  5
8F2
330
1E
100
AcDbEntity
  8
TEXT
 62
     1
100
AcDbText
 10
197.351797280669
 20
449.6110359352602
 30
0.0
 40
7.0
  1
DN125
 50
89.51938929120677
 41
0.8
  7
GREEKS
100
AcDbText
  0
LINE
  5
90D
330
1E
100
AcDbEntity
  8
TEXT
 62
     2
100
AcDbLine
 10
436.2398290161087
 20
429.9281694662657
 30
0.0
 11
374.035862614377
 21
365.6466154568571
 31
0.0
  0
TEXT
  5
90E
330
1E
100
AcDbEntity
  8
TEXT
 62
     1
100
AcDbText
 10
437.591198164285
 20
433.0908310968971
 30
0.0
 40
7.0
  1
Losflansch DN125
 41
0.8
  7
GREEKS
100
AcDbText
  0
LINE
  5
90F
330
1E
100
AcDbEntity
  8
TEXT
 62
     2
100
AcDbLine
 10
436.2398290161087
 20
429.9281694662657
 30
0.0
 11
544.5434337406206
 21
429.9281694662657
 31
0.0
  0
TEXT
  5
910
330
1E
100
AcDbEntity
  8
TEXT
 62
     1
100
AcDbText
 10
437.591198164285
 20
419.4144905791616
 30
0.0
 40
7.0
  1
EDV-Art.Nr. 21905.150X
 41
0.8
  7
GREEKS
100
AcDbText
  0
LINE
  5
912
330
1E
100
AcDbEntity
  8
TEXT
 62
     2
100
AcDbLine
 10
385.5272354279641
 20
357.3735824391225
 30
0.0
 11
436.2398290161087
 21
385.9285881610377
 31
0.0
  0
TEXT
  5
913
330
1E
100
AcDbEntity
  8
TEXT
 62
     1
100
AcDbText
 10
437.591198164285
 20
375.4149092739336
 30
0.0
 40
7.0
  1
EDV-Art.Nr. 21810.150X
 41
0.8
  7
GREEKS
100
AcDbText
  0
LINE
  5
914
330
1E
100
AcDbEntity
  8
TEXT
 62
     2
100
AcDbLine
 10
436.2398290161087
 20
385.9285881610377
 30
0.0
 11
563.9772087670624
 21
385.9285881610377
 31
0.0
  0
TEXT
  5
915
330
1E
100
AcDbEntity
  8
TEXT
 62
     1
100
AcDbText
 10
437.591198164285
 20
389.0912497916691
 30
0.0
 40
7.0
  1
Kompressionsdichtung DN150
 41
0.8
  7
GREEKS
100
AcDbText
  0
LINE
  5
916
330
1E
100
AcDbEntity
  8
TEXT
 62
     2
100
AcDbLine
 10
285.2620627829518
 20
719.3747170206282
 30
0.0
 11
298.1509691712251
 21
743.9322653403426
 31
0.0
  0
TEXT
  5
917
330
1E
100
AcDbEntity
  8
TEXT
 62
     1
100
AcDbText
 10
327.842829396631
 20
801.0927572032356
 30
0.0
 40
7.0
  1
Siebkorb
 41
0.8
  7
GREEKS
100
AcDbText
  0
LINE
  5
918
330
1E
100
AcDbEntity
  8
TEXT
 62
     2
100
AcDbLine
 10
326.4914602484548
 20
797.9300955726041
 30
0.0
 11
434.7950649729666
 21
797.9300955726041
 31
0.0
  0
TEXT
  5
919
330
1E
100
AcDbEntity
  8
TEXT
 62
     1
100
AcDbText
 10
327.842829396631
 20
787.4164166855
 30
0.0
 40
7.0
  1
EDV-Art.Nr. 21004.000X
 41
0.8
  7
GREEKS
100
AcDbText
  0
LINE
  5
91A
330
1E
100
AcDbEntity
  8
TEXT
 62
     2
100
AcDbLine
 10
176.966634659522
 20
126.8079398950133
 30
0.0
 11
197.974377486175
 21
184.7263240334364
 31
0.0
  0
TEXT
  5
91B
330
1E
100
AcDbEntity
  8
TEXT
 62
     1
100
AcDbText
 10
69.50028772552565
 20
130.4207081672069
 30
0.0
 40
7.0
  1
Ablaufkörper DN125
 41
0.8
  7
GREEKS
100
AcDbText
  0
LINE
  5
91C
330
1E
100
AcDbEntity
  8
TEXT
 62
     2
100
AcDbLine
 10
176.966634659522
 20
126.8079398950133
 30
0.0
 11
68.41960132668856
 21
126.8079398950133
 31
0.0
  0
TEXT
  5
91D
330
1E
100
AcDbEntity
  8
TEXT
 62
     1
100
AcDbText
 10
69.31973243137355
 20
117.3729360202276
 30
0.0
 40
7.0
  1
EDV-Art.Nr. 21987.125X
 41
0.8
  7
GREEKS
100
AcDbText
  0
LINE
  5
920
330
1E
100
AcDbEntity
  8
TEXT
 62
     2
100
AcDbLine
 10
300.0098743837861
 20
747.4740828696224
 30
0.0
 11
306.7931078529792
 21
760.3983433666317
 31
0.0
  0
LINE
  5
921
330
1E
100
AcDbEntity
  8
TEXT
 62
     2
100
AcDbLine
 10
308.6520130655401
 20
763.9401608959115
 30
0.0
 11
326.4914602484548
 21
797.9300955726041
 31
0.0
  0
TEXT
  5
922
330
1E
100
AcDbEntity
  8
TEXT
 62
     1
100
AcDbText
 10
452.2020189755174
 20
661.6866474058836
 30
0.0
 40
7.0
  1
EDV-Art.Nr. 21905.150X
 50
90.0
 41
0.8
  7
GREEKS
100
AcDbText
  0
LINE
  5
923
330
1E
100
AcDbEntity
  8
TEXT
 62
     2
100
AcDbLine
 10
441.6883400884132
 20
660.3352782577074
 30
0.0
 11
441.6883400884132
 21
768.6388829822192
 31
0.0
  0
TEXT
  5
924
330
1E
100
AcDbEntity
  8
TEXT
 62
     1
100
AcDbText
 10
438.5256784577818
 20
661.6866474058836
 30
0.0
 40
7.0
  1
Losflansch DN125
 50
90.0
 41
0.8
  7
GREEKS
100
AcDbText
  0
LINE
  5
925
330
1E
100
AcDbEntity
  8
TEXT
 62
     2
100
AcDbLine
 10
441.6883400884132
 20
660.3352782577074
 30
0.0
 11
372.6252147006111
 21
612.3761998569316
 31
0.0
  0
TEXT
  5
926
330
1E
100
AcDbEntity
  8
TEXT
 62
     1
100
AcDbText
 10
348.7203722530018
 20
575.1958510034112
 30
0.0
 40
7.0
  1
Kompressionsdichtung DN150
 41
0.8
  7
GREEKS
100
AcDbText
  0
LINE
  5
927
330
1E
100
AcDbEntity
  8
TEXT
 62
     2
100
AcDbLine
 10
347.3690031048256
 20
572.0331893727798
 30
0.0
 11
475.1063828557792
 21
572.0331893727798
 31
0.0
  0
TEXT
  5
928
330
1E
100
AcDbEntity
  8
TEXT
 62
     1
100
AcDbText
 10
348.7203722530018
 20
561.5195104856756
 30
0.0
 40
7.0
  1
EDV-Art.Nr. 21810.150X
 41
0.8
  7
GREEKS
100
AcDbText
  0
LINE
  5
929
330
1E
100
AcDbEntity
  8
TEXT
 62
     2
100
AcDbLine
 10
325.1865305833634
 20
606.3758466321369
 30
0.0
 11
347.3690031048256
 21
572.0331893727798
 31
0.0
  0
TEXT
  5
92C
330
1E
100
AcDbEntity
  8
TEXT
 62
     1
100
AcDbText
 10
342.9854570780793
 20
489.5821384437122
 30
0.0
 40
7.0
  1
EDV-Art.Nr. 21981.125X
 41
0.8
  7
GREEKS
100
AcDbText
  0
LINE
  5
92D
330
1E
100
AcDbEntity
  8
TEXT
 62
     2
100
AcDbLine
 10
445.5347898742068
 20
499.0171423184979
 30
0.0
 11
342.0853259733943
 21
499.0171423184979
 31
0.0
  0
TEXT
  5
92E
330
1E
100
AcDbEntity
  8
TEXT
 62
     1
100
AcDbText
 10
343.1660123722314
 20
502.6299105906915
 30
0.0
 40
7.0
  1
Ablaufkörper DN125
 41
0.8
  7
GREEKS
100
AcDbText
  0
LINE
  5
930
330
1E
100
AcDbEntity
  8
TEXT
 62
     2
100
AcDbLine
 10
290.7470446590151
 20
480.5835021594755
 30
0.0
 11
342.0853259733943
 21
499.0171423184979
 31
0.0
  0
HATCH
  5
973
330
1E
100
AcDbEntity
  8
SCHRAFF
100
AcDbHatch
 10
0.0
 20
0.0
 30
0.0
210
0.0
220
0.0
230
1.0
  2
NET
 70
     0
 71
     1
 91
        3
 92
        7
 72
     0
 73
     1
 93
        4
 10
320.4041321756488
 20
607.4374484569675
 10
320.4041321756487
 20
604.437448456967
 10
390.4041321756488
 20
604.4374484569669
 10
390.4041321756488
 20
607.4374484569675
 97
        4
330
598
330
6EC
330
59B
330
732
 92
        7
 72
     0
 73
     1
 93
        4
 10
130.4041321756488
 20
604.4374484569675
 10
130.4041321756488
 20
607.4374484569676
 10
105.4041321756487
 20
607.4374484569678
 10
105.4041321756487
 20
604.4374484569678
 97
        4
330
598
330
5C3
330
59B
330
5C7
 92
        7
 72
     0
 73
     1
 93
        4
 10
60.40413217564879
 20
607.4374484569678
 10
60.40413217564879
 20
604.4374484569678
 10
91.40413217564878
 20
604.4374484569678
 10
91.40413217564878
 20
607.4374484569679
 97
        4
330
5A1
330
5A7
330
59B
330
5BD
 75
     0
 76
     1
 52
45.0
 41
15.0
 77
     0
 78
     2
 53
45.0
 43
0.0
 44
0.0
 45
-1.325825214724776
 46
1.325825214724776
 79
     0
 53
135.0
 43
0.0
 44
0.0
 45
-1.325825214724776
 46
-1.325825214724776
 79
     0
 47
0.4592019642990613
 98
        3
 10
369.397829153545
 20
605.9495044386523
 10
120.4259153987127
 20
605.4903033067183
 10
82.75857521255103
 20
606.408707527248
  0
LINE
  5
974
102
{ACAD_REACTORS
330
99A
102
}
330
1E
100
AcDbEntity
  8
STEMPEL
100
AcDbLine
 10
298.0771956717354
 20
359.7895290139169
 30
0.0
 11
390.4041321756487
 21
359.7895290139168
 31
0.0
  0
LINE
  5
987
102
{ACAD_REACTORS
330
99A
102
}
330
1E
100
AcDbEntity
  8
STEMPEL
100
AcDbLine
 10
103.404132175649
 20
359.7895290139174
 30
0.0
 11
152.7310686795753
 21
359.7895290139174
 31
0.0
  0
LINE
  5
988
102
{ACAD_REACTORS
330
99A
102
}
330
1E
100
AcDbEntity
  8
STEMPEL
100
AcDbLine
 10
60.40413217564879
 20
359.7895290139177
 30
0.0
 11
93.40413217564901
 21
359.7895290139177
 31
0.0
  0
HATCH
  5
99A
330
1E
100
AcDbEntity
  8
SCHRAFF
100
AcDbHatch
 10
0.0
 20
0.0
 30
0.0
210
0.0
220
0.0
230
1.0
  2
NET
 70
     0
 71
     1
 91
        3
 92
        7
 72
     0
 73
     1
 93
        4
 10
320.4041321756487
 20
359.7895290139169
 10
320.4041321756488
 20
356.789529013917
 10
390.4041321756487
 20
356.7895290139166
 10
390.4041321756487
 20
359.7895290139168
 97
        4
330
55C
330
528
330
57F
330
974
 92
        7
 72
     0
 73
     1
 93
        4
 10
130.4041321756488
 20
359.7895290139174
 10
105.404132175649
 20
359.7895290139175
 10
105.404132175649
 20
356.7895290139176
 10
130.4041321756488
 20
356.7895290139176
 97
        4
330
987
330
4EE
330
4C0
330
4FB
 92
        7
 72
     0
 73
     1
 93
        4
 10
91.40413217564903
 20
359.7895290139176
 10
60.40413217564879
 20
359.7895290139177
 10
60.40413217564879
 20
356.7895290139177
 10
91.40413217564901
 20
356.7895290139177
 97
        4
330
988
330
4C6
330
4C0
330
4DC
 75
     0
 76
     1
 52
45.0
 41
15.0
 77
     0
 78
     2
 53
45.0
 43
0.0
 44
0.0
 45
-1.325825214724776
 46
1.325825214724776
 79
     0
 53
135.0
 43
0.0
 44
0.0
 45
-1.325825214724776
 46
-1.325825214724776
 79
     0
 47
0.3445820493470471
 98
        3
 10
335.6881681928399
 20
358.0972656549657
 10
122.319503855279
 20
357.7526838147983
 10
81.64502728787329
 20
358.7864293353005
  0
LINE
  5
99D
330
1E
100
AcDbEntity
  8
MITTEL
100
AcDbLine
 10
98.40413217564877
 20
386.7895290139183
 30
0.0
 11
98.40413217564877
 21
356.7895290139176
 31
0.0
  0
LINE
  5
99F
330
1E
100
AcDbEntity
  8
MITTEL
100
AcDbLine
 10
326.1932396911804
 20
387.7895290139181
 30
0.0
 11
326.1932396911804
 21
357.7895290139173
 31
0.0
  0
ARC
  5
9BB
330
1E
100
AcDbEntity
  8
STEMPEL
100
AcDbCircle
 10
98.40413217564879
 20
595.6265593245129
 30
0.0
 40
30.31088913245485
100
AcDbArc
 50
81.78678929826093
 51
98.21321070173826
  0
ARC
  5
9BC
330
1E
100
AcDbEntity
  8
STEMPEL
100
AcDbCircle
 10
91.90894164726548
 20
618.2431427491833
 30
0.0
 40
7.694305707784447
100
AcDbArc
 50
73.65710669401501
 51
106.342893305985
  0
ARC
  5
9BD
330
1E
100
AcDbEntity
  8
STEMPEL
100
AcDbCircle
 10
104.8993227040321
 20
618.2431427491833
 30
0.0
 40
7.694305707784447
100
AcDbArc
 50
73.65710669401501
 51
106.342893305985
  0
ARC
  5
9BE
330
1E
100
AcDbEntity
  8
HILF
100
AcDbCircle
 10
98.40413217564879
 20
596.0389874093065
 30
0.0
 40
22.41111549782308
100
AcDbArc
 50
78.85962783890473
 51
101.1403721610953
  0
ARC
  5
9BF
330
1E
100
AcDbEntity
  8
HILF
100
AcDbCircle
 10
104.8993227040321
 20
612.6889623074381
 30
0.0
 40
5.761140599691502
100
AcDbArc
 50
67.92594526326206
 51
112.0740547367379
  0
ARC
  5
9C0
330
1E
100
AcDbEntity
  8
HILF
100
AcDbCircle
 10
91.90894164726548
 20
612.6889623074381
 30
0.0
 40
5.761140599691502
100
AcDbArc
 50
67.92594526326206
 51
112.0740547367379
  0
POINT
  5
9C1
330
1E
100
AcDbEntity
  8
0
100
AcDbPoint
 10
98.40413217564879
 20
615.9374484569678
 30
0.0
210
0.0000000000000001
220
1.0
230
0.0
  0
LINE
  5
9C2
330
1E
100
AcDbEntity
  8
STEMPEL
100
AcDbLine
 10
90.90413217564881
 20
625.9374484569677
 30
0.0
 11
105.9041321756488
 21
625.9374484569677
 31
0.0
  0
LINE
  5
9C3
330
1E
100
AcDbEntity
  8
STEMPEL
100
AcDbLine
 10
107.0643862134931
 20
618.0278049731676
 30
0.0
 11
107.0643862134931
 21
625.6265593245124
 31
0.0
  0
LINE
  5
9C4
330
1E
100
AcDbEntity
  8
STEMPEL
100
AcDbLine
 10
102.7342591945709
 20
618.0278049731676
 30
0.0
 11
102.7342591945709
 21
625.6265593245124
 31
0.0
  0
LINE
  5
9C5
330
1E
100
AcDbEntity
  8
STEMPEL
100
AcDbLine
 10
94.07400515672659
 20
618.0278049731676
 30
0.0
 11
94.07400515672659
 21
625.6265593245124
 31
0.0
  0
LINE
  5
9C6
330
1E
100
AcDbEntity
  8
STEMPEL
100
AcDbLine
 10
108.810647283143
 20
617.3922179225571
 30
0.0
 11
87.99761706815452
 21
617.3922179225571
 31
0.0
  0
LINE
  5
9C7
330
1E
100
AcDbEntity
  8
STEMPEL
100
AcDbLine
 10
108.5541321756488
 20
615.9374484569678
 30
0.0
 11
88.25413217564877
 21
615.9374484569678
 31
0.0
  0
LINE
  5
9C8
330
1E
100
AcDbEntity
  8
STEMPEL
100
AcDbLine
 10
89.7438781378044
 20
618.0278049731676
 30
0.0
 11
89.7438781378044
 21
625.6265593245124
 31
0.0
  0
LINE
  5
9C9
330
1E
100
AcDbEntity
  8
STEMPEL
100
AcDbLine
 10
90.90413217564881
 20
625.9374484569677
 30
0.0
 11
89.7438781378044
 21
625.6265593245124
 31
0.0
  0
LINE
  5
9CA
330
1E
100
AcDbEntity
  8
STEMPEL
100
AcDbLine
 10
107.0643862134931
 20
625.6265593245124
 30
0.0
 11
105.9041321756488
 21
625.9374484569677
 31
0.0
  0
LINE
  5
9CB
330
1E
100
AcDbEntity
  8
STEMPEL
100
AcDbLine
 10
108.810647283143
 20
617.3922179225571
 30
0.0
 11
107.0643862134931
 21
618.0278049731676
 31
0.0
  0
LINE
  5
9CC
330
1E
100
AcDbEntity
  8
STEMPEL
100
AcDbLine
 10
89.7438781378044
 20
618.0278049731676
 30
0.0
 11
87.99761706815454
 21
617.3922179225571
 31
0.0
  0
ARC
  5
9CD
330
1E
100
AcDbEntity
  8
STEMPEL
100
AcDbCircle
 10
88.25413217564877
 20
616.6874484569677
 30
0.0
 40
0.7500000000000013
100
AcDbArc
 50
110.0000000000006
 51
269.9999991462263
  0
ARC
  5
9CE
330
1E
100
AcDbEntity
  8
STEMPEL
100
AcDbCircle
 10
108.5541321756488
 20
616.6874484569677
 30
0.0
 40
0.750000000000001
100
AcDbArc
 50
269.9999991462263
 51
69.99999999999935
  0
ARC
  5
9E8
330
1E
100
AcDbEntity
  8
STEMPEL
100
AcDbCircle
 10
161.9041321756488
 20
595.6265593245131
 30
0.0
 40
30.31088913245485
100
AcDbArc
 50
81.78678929826174
 51
98.21321070173826
  0
ARC
  5
9E9
330
1E
100
AcDbEntity
  8
STEMPEL
100
AcDbCircle
 10
155.4089416472655
 20
618.2431427491835
 30
0.0
 40
7.694305707784447
100
AcDbArc
 50
73.65710669401501
 51
106.342893305985
  0
ARC
  5
9EA
330
1E
100
AcDbEntity
  8
STEMPEL
100
AcDbCircle
 10
168.3993227040321
 20
618.2431427491835
 30
0.0
 40
7.694305707784447
100
AcDbArc
 50
73.65710669401501
 51
106.342893305985
  0
ARC
  5
9EB
330
1E
100
AcDbEntity
  8
HILF
100
AcDbCircle
 10
161.9041321756488
 20
596.0389874093066
 30
0.0
 40
22.41111549782308
100
AcDbArc
 50
78.85962783890552
 51
101.1403721610945
  0
ARC
  5
9EC
330
1E
100
AcDbEntity
  8
HILF
100
AcDbCircle
 10
168.3993227040321
 20
612.6889623074382
 30
0.0
 40
5.761140599691502
100
AcDbArc
 50
67.92594526326206
 51
112.0740547367379
  0
ARC
  5
9ED
330
1E
100
AcDbEntity
  8
HILF
100
AcDbCircle
 10
155.4089416472655
 20
612.6889623074382
 30
0.0
 40
5.761140599691502
100
AcDbArc
 50
67.92594526326206
 51
112.0740547367379
  0
POINT
  5
9EE
330
1E
100
AcDbEntity
  8
0
100
AcDbPoint
 10
161.9041321756488
 20
615.9374484569679
 30
0.0
210
0.0000000000000001
220
1.0
230
0.0
  0
LINE
  5
9EF
330
1E
100
AcDbEntity
  8
STEMPEL
100
AcDbLine
 10
154.4041321756488
 20
625.9374484569678
 30
0.0
 11
169.4041321756487
 21
625.9374484569678
 31
0.0
  0
LINE
  5
9F0
330
1E
100
AcDbEntity
  8
STEMPEL
100
AcDbLine
 10
170.5643862134932
 20
618.0278049731676
 30
0.0
 11
170.5643862134932
 21
625.6265593245124
 31
0.0
  0
LINE
  5
9F1
330
1E
100
AcDbEntity
  8
STEMPEL
100
AcDbLine
 10
166.2342591945709
 20
618.0278049731676
 30
0.0
 11
166.2342591945709
 21
625.6265593245124
 31
0.0
  0
LINE
  5
9F2
330
1E
100
AcDbEntity
  8
STEMPEL
100
AcDbLine
 10
157.5740051567266
 20
618.0278049731676
 30
0.0
 11
157.5740051567266
 21
625.6265593245124
 31
0.0
  0
LINE
  5
9F3
330
1E
100
AcDbEntity
  8
STEMPEL
100
AcDbLine
 10
172.310647283143
 20
617.3922179225573
 30
0.0
 11
151.4976170681545
 21
617.3922179225573
 31
0.0
  0
LINE
  5
9F4
330
1E
100
AcDbEntity
  8
STEMPEL
100
AcDbLine
 10
172.0541321756488
 20
615.9374484569679
 30
0.0
 11
151.7541321756487
 21
615.9374484569679
 31
0.0
  0
LINE
  5
9F5
330
1E
100
AcDbEntity
  8
STEMPEL
100
AcDbLine
 10
153.2438781378044
 20
618.0278049731676
 30
0.0
 11
153.2438781378044
 21
625.6265593245124
 31
0.0
  0
LINE
  5
9F6
330
1E
100
AcDbEntity
  8
STEMPEL
100
AcDbLine
 10
154.4041321756488
 20
625.9374484569678
 30
0.0
 11
153.2438781378044
 21
625.6265593245124
 31
0.0
  0
LINE
  5
9F7
330
1E
100
AcDbEntity
  8
STEMPEL
100
AcDbLine
 10
170.5643862134932
 20
625.6265593245124
 30
0.0
 11
169.4041321756487
 21
625.9374484569678
 31
0.0
  0
LINE
  5
9F8
330
1E
100
AcDbEntity
  8
STEMPEL
100
AcDbLine
 10
172.310647283143
 20
617.3922179225573
 30
0.0
 11
170.5643862134931
 21
618.0278049731676
 31
0.0
  0
LINE
  5
9F9
330
1E
100
AcDbEntity
  8
STEMPEL
100
AcDbLine
 10
153.2438781378044
 20
618.0278049731676
 30
0.0
 11
151.4976170681545
 21
617.3922179225573
 31
0.0
  0
ARC
  5
9FA
330
1E
100
AcDbEntity
  8
STEMPEL
100
AcDbCircle
 10
151.7541321756487
 20
616.6874484569679
 30
0.0
 40
0.7500000000000013
100
AcDbArc
 50
110.0000000000006
 51
269.9999991462263
  0
ARC
  5
9FB
330
1E
100
AcDbEntity
  8
STEMPEL
100
AcDbCircle
 10
172.0541321756488
 20
616.6874484569679
 30
0.0
 40
0.750000000000001
100
AcDbArc
 50
269.9999991462263
 51
69.99999999999935
  0
ARC
  5
A15
330
1E
100
AcDbEntity
  8
STEMPEL
100
AcDbCircle
 10
322.1932396911804
 20
595.6265593245132
 30
0.0
 40
30.31088913245485
100
AcDbArc
 50
81.78678929826011
 51
98.21321070173988
  0
ARC
  5
A16
330
1E
100
AcDbEntity
  8
STEMPEL
100
AcDbCircle
 10
315.6980491627972
 20
618.2431427491835
 30
0.0
 40
7.694305707784447
100
AcDbArc
 50
73.65710669401345
 51
106.3428933059834
  0
ARC
  5
A17
330
1E
100
AcDbEntity
  8
STEMPEL
100
AcDbCircle
 10
328.6884302195637
 20
618.2431427491835
 30
0.0
 40
7.694305707784447
100
AcDbArc
 50
73.65710669401345
 51
106.3428933059834
  0
ARC
  5
A18
330
1E
100
AcDbEntity
  8
HILF
100
AcDbCircle
 10
322.1932396911804
 20
596.0389874093067
 30
0.0
 40
22.41111549782308
100
AcDbArc
 50
78.85962783890391
 51
101.1403721610961
  0
ARC
  5
A19
330
1E
100
AcDbEntity
  8
HILF
100
AcDbCircle
 10
328.6884302195638
 20
612.6889623074383
 30
0.0
 40
5.761140599691502
100
AcDbArc
 50
67.92594526326054
 51
112.0740547367394
  0
ARC
  5
A1A
330
1E
100
AcDbEntity
  8
HILF
100
AcDbCircle
 10
315.6980491627972
 20
612.6889623074383
 30
0.0
 40
5.761140599691502
100
AcDbArc
 50
67.92594526326054
 51
112.0740547367394
  0
POINT
  5
A1B
330
1E
100
AcDbEntity
  8
0
100
AcDbPoint
 10
322.1932396911804
 20
615.937448456968
 30
0.0
210
0.0000000000000001
220
1.0
230
0.0
  0
LINE
  5
A1C
330
1E
100
AcDbEntity
  8
STEMPEL
100
AcDbLine
 10
314.6932396911804
 20
625.937448456968
 30
0.0
 11
329.6932396911805
 21
625.937448456968
 31
0.0
  0
LINE
  5
A1D
330
1E
100
AcDbEntity
  8
STEMPEL
100
AcDbLine
 10
330.8534937290248
 20
618.0278049731677
 30
0.0
 11
330.8534937290248
 21
625.6265593245126
 31
0.0
  0
LINE
  5
A1E
330
1E
100
AcDbEntity
  8
STEMPEL
100
AcDbLine
 10
326.5233667101027
 20
618.0278049731677
 30
0.0
 11
326.5233667101027
 21
625.6265593245126
 31
0.0
  0
LINE
  5
A1F
330
1E
100
AcDbEntity
  8
STEMPEL
100
AcDbLine
 10
317.8631126722582
 20
618.0278049731677
 30
0.0
 11
317.8631126722582
 21
625.6265593245126
 31
0.0
  0
LINE
  5
A20
330
1E
100
AcDbEntity
  8
STEMPEL
100
AcDbLine
 10
332.5997547986747
 20
617.3922179225574
 30
0.0
 11
311.7867245836862
 21
617.3922179225574
 31
0.0
  0
LINE
  5
A21
330
1E
100
AcDbEntity
  8
STEMPEL
100
AcDbLine
 10
332.3432396911804
 20
615.937448456968
 30
0.0
 11
312.0432396911805
 21
615.937448456968
 31
0.0
  0
LINE
  5
A22
330
1E
100
AcDbEntity
  8
STEMPEL
100
AcDbLine
 10
313.5329856533361
 20
618.0278049731677
 30
0.0
 11
313.5329856533361
 21
625.6265593245126
 31
0.0
  0
LINE
  5
A23
330
1E
100
AcDbEntity
  8
STEMPEL
100
AcDbLine
 10
314.6932396911804
 20
625.937448456968
 30
0.0
 11
313.5329856533361
 21
625.6265593245126
 31
0.0
  0
LINE
  5
A24
330
1E
100
AcDbEntity
  8
STEMPEL
100
AcDbLine
 10
330.8534937290248
 20
625.6265593245126
 30
0.0
 11
329.6932396911805
 21
625.937448456968
 31
0.0
  0
LINE
  5
A25
330
1E
100
AcDbEntity
  8
STEMPEL
100
AcDbLine
 10
332.5997547986747
 20
617.3922179225574
 30
0.0
 11
330.8534937290248
 21
618.0278049731677
 31
0.0
  0
LINE
  5
A26
330
1E
100
AcDbEntity
  8
STEMPEL
100
AcDbLine
 10
313.5329856533361
 20
618.0278049731677
 30
0.0
 11
311.7867245836862
 21
617.3922179225574
 31
0.0
  0
ARC
  5
A27
330
1E
100
AcDbEntity
  8
STEMPEL
100
AcDbCircle
 10
312.0432396911805
 20
616.687448456968
 30
0.0
 40
0.7500000000000013
100
AcDbArc
 50
110.0000000000006
 51
269.9999991462263
  0
ARC
  5
A28
330
1E
100
AcDbEntity
  8
STEMPEL
100
AcDbCircle
 10
332.3432396911804
 20
616.687448456968
 30
0.0
 40
0.750000000000001
100
AcDbArc
 50
269.9999991462263
 51
69.99999999999935
  0
ARC
  5
A42
330
1E
100
AcDbEntity
  8
STEMPEL
100
AcDbCircle
 10
326.1932396911804
 20
347.978639881463
 30
0.0
 40
30.31088913245485
100
AcDbArc
 50
81.78678929826059
 51
98.2132107017394
  0
ARC
  5
A43
330
1E
100
AcDbEntity
  8
STEMPEL
100
AcDbCircle
 10
319.6980491627972
 20
370.5952233061335
 30
0.0
 40
7.694305707784447
100
AcDbArc
 50
73.65710669401345
 51
106.3428933059834
  0
ARC
  5
A44
330
1E
100
AcDbEntity
  8
STEMPEL
100
AcDbCircle
 10
332.6884302195637
 20
370.5952233061335
 30
0.0
 40
7.694305707784447
100
AcDbArc
 50
73.65710669401345
 51
106.3428933059834
  0
ARC
  5
A45
330
1E
100
AcDbEntity
  8
HILF
100
AcDbCircle
 10
326.1932396911804
 20
348.3910679662566
 30
0.0
 40
22.41111549782308
100
AcDbArc
 50
78.85962783890455
 51
101.1403721610954
  0
ARC
  5
A46
330
1E
100
AcDbEntity
  8
HILF
100
AcDbCircle
 10
332.6884302195637
 20
365.0410428643882
 30
0.0
 40
5.761140599691502
100
AcDbArc
 50
67.92594526326054
 51
112.0740547367394
  0
ARC
  5
A47
330
1E
100
AcDbEntity
  8
HILF
100
AcDbCircle
 10
319.6980491627971
 20
365.0410428643882
 30
0.0
 40
5.761140599691502
100
AcDbArc
 50
67.92594526326054
 51
112.0740547367394
  0
POINT
  5
A48
330
1E
100
AcDbEntity
  8
0
100
AcDbPoint
 10
326.1932396911804
 20
368.2895290139179
 30
0.0
210
0.0000000000000001
220
1.0
230
0.0
  0
LINE
  5
A49
330
1E
100
AcDbEntity
  8
STEMPEL
100
AcDbLine
 10
318.6932396911804
 20
378.2895290139179
 30
0.0
 11
333.6932396911804
 21
378.2895290139179
 31
0.0
  0
LINE
  5
A4A
330
1E
100
AcDbEntity
  8
STEMPEL
100
AcDbLine
 10
334.8534937290247
 20
370.3798855301177
 30
0.0
 11
334.8534937290247
 21
377.9786398814625
 31
0.0
  0
LINE
  5
A4B
330
1E
100
AcDbEntity
  8
STEMPEL
100
AcDbLine
 10
330.5233667101026
 20
370.3798855301177
 30
0.0
 11
330.5233667101026
 21
377.9786398814625
 31
0.0
  0
LINE
  5
A4C
330
1E
100
AcDbEntity
  8
STEMPEL
100
AcDbLine
 10
321.8631126722582
 20
370.3798855301177
 30
0.0
 11
321.8631126722582
 21
377.9786398814625
 31
0.0
  0
LINE
  5
A4D
330
1E
100
AcDbEntity
  8
STEMPEL
100
AcDbLine
 10
336.5997547986747
 20
369.7442984795074
 30
0.0
 11
315.7867245836861
 21
369.7442984795074
 31
0.0
  0
LINE
  5
A4E
330
1E
100
AcDbEntity
  8
STEMPEL
100
AcDbLine
 10
334.7462749510757
 20
368.2895290139179
 30
0.0
 11
316.0432396911804
 21
368.2895290139179
 31
0.0
  0
LINE
  5
A4F
330
1E
100
AcDbEntity
  8
STEMPEL
100
AcDbLine
 10
317.532985653336
 20
370.3798855301177
 30
0.0
 11
317.532985653336
 21
377.9786398814625
 31
0.0
  0
LINE
  5
A50
330
1E
100
AcDbEntity
  8
STEMPEL
100
AcDbLine
 10
318.6932396911804
 20
378.2895290139179
 30
0.0
 11
317.532985653336
 21
377.9786398814625
 31
0.0
  0
LINE
  5
A51
330
1E
100
AcDbEntity
  8
STEMPEL
100
AcDbLine
 10
334.8534937290247
 20
377.9786398814625
 30
0.0
 11
333.6932396911804
 21
378.2895290139179
 31
0.0
  0
LINE
  5
A52
330
1E
100
AcDbEntity
  8
STEMPEL
100
AcDbLine
 10
336.5997547986747
 20
369.7442984795074
 30
0.0
 11
334.8534937290247
 21
370.3798855301177
 31
0.0
  0
LINE
  5
A53
330
1E
100
AcDbEntity
  8
STEMPEL
100
AcDbLine
 10
317.532985653336
 20
370.3798855301177
 30
0.0
 11
315.7867245836861
 21
369.7442984795074
 31
0.0
  0
ARC
  5
A54
330
1E
100
AcDbEntity
  8
STEMPEL
100
AcDbCircle
 10
316.0432396911804
 20
369.0395290139179
 30
0.0
 40
0.7500000000000013
100
AcDbArc
 50
109.9999999999995
 51
269.9999991462263
  0
ARC
  5
A55
330
1E
100
AcDbEntity
  8
STEMPEL
100
AcDbCircle
 10
336.3432396911804
 20
369.0395290139179
 30
0.0
 40
0.750000000000001
100
AcDbArc
 50
346.426528372022
 51
70.00000000000047
  0
ARC
  5
A6F
330
1E
100
AcDbEntity
  8
STEMPEL
100
AcDbCircle
 10
98.40413217564877
 20
347.9786398814629
 30
0.0
 40
30.31088913245485
100
AcDbArc
 50
81.78678929826139
 51
98.2132107017386
  0
ARC
  5
A70
330
1E
100
AcDbEntity
  8
STEMPEL
100
AcDbCircle
 10
91.90894164726548
 20
370.5952233061333
 30
0.0
 40
7.694305707784447
100
AcDbArc
 50
73.65710669401501
 51
106.342893305985
  0
ARC
  5
A71
330
1E
100
AcDbEntity
  8
STEMPEL
100
AcDbCircle
 10
104.899322704032
 20
370.5952233061333
 30
0.0
 40
7.694305707784447
100
AcDbArc
 50
73.65710669401501
 51
106.342893305985
  0
ARC
  5
A72
330
1E
100
AcDbEntity
  8
HILF
100
AcDbCircle
 10
98.40413217564877
 20
348.3910679662565
 30
0.0
 40
22.41111549782308
100
AcDbArc
 50
78.85962783890537
 51
101.1403721610946
  0
ARC
  5
A73
330
1E
100
AcDbEntity
  8
HILF
100
AcDbCircle
 10
104.899322704032
 20
365.0410428643881
 30
0.0
 40
5.761140599691502
100
AcDbArc
 50
67.92594526326131
 51
112.0740547367379
  0
ARC
  5
A74
330
1E
100
AcDbEntity
  8
HILF
100
AcDbCircle
 10
91.90894164726548
 20
365.0410428643881
 30
0.0
 40
5.761140599691502
100
AcDbArc
 50
67.92594526326131
 51
112.0740547367379
  0
POINT
  5
A75
330
1E
100
AcDbEntity
  8
0
100
AcDbPoint
 10
98.40413217564877
 20
368.2895290139177
 30
0.0
210
0.0000000000000001
220
1.0
230
0.0
  0
LINE
  5
A76
330
1E
100
AcDbEntity
  8
STEMPEL
100
AcDbLine
 10
90.90413217564877
 20
378.2895290139177
 30
0.0
 11
105.9041321756487
 21
378.2895290139177
 31
0.0
  0
LINE
  5
A77
330
1E
100
AcDbEntity
  8
STEMPEL
100
AcDbLine
 10
107.0643862134931
 20
370.3798855301176
 30
0.0
 11
107.0643862134931
 21
377.9786398814624
 31
0.0
  0
LINE
  5
A78
330
1E
100
AcDbEntity
  8
STEMPEL
100
AcDbLine
 10
102.7342591945709
 20
370.3798855301176
 30
0.0
 11
102.7342591945709
 21
377.9786398814624
 31
0.0
  0
LINE
  5
A79
330
1E
100
AcDbEntity
  8
STEMPEL
100
AcDbLine
 10
94.07400515672657
 20
370.3798855301176
 30
0.0
 11
94.07400515672657
 21
377.9786398814624
 31
0.0
  0
LINE
  5
A7A
330
1E
100
AcDbEntity
  8
STEMPEL
100
AcDbLine
 10
108.810647283143
 20
369.7442984795072
 30
0.0
 11
87.9976170681545
 21
369.7442984795072
 31
0.0
  0
LINE
  5
A7B
330
1E
100
AcDbEntity
  8
STEMPEL
100
AcDbLine
 10
108.5541321756487
 20
368.2895290139177
 30
0.0
 11
88.25413217564877
 21
368.2895290139177
 31
0.0
  0
LINE
  5
A7C
330
1E
100
AcDbEntity
  8
STEMPEL
100
AcDbLine
 10
89.74387813780438
 20
370.3798855301176
 30
0.0
 11
89.74387813780438
 21
377.9786398814624
 31
0.0
  0
LINE
  5
A7D
330
1E
100
AcDbEntity
  8
STEMPEL
100
AcDbLine
 10
90.90413217564877
 20
378.2895290139177
 30
0.0
 11
89.74387813780438
 21
377.9786398814624
 31
0.0
  0
LINE
  5
A7E
330
1E
100
AcDbEntity
  8
STEMPEL
100
AcDbLine
 10
107.0643862134931
 20
377.9786398814624
 30
0.0
 11
105.9041321756487
 21
378.2895290139177
 31
0.0
  0
LINE
  5
A7F
330
1E
100
AcDbEntity
  8
STEMPEL
100
AcDbLine
 10
108.810647283143
 20
369.7442984795072
 30
0.0
 11
107.0643862134931
 21
370.3798855301176
 31
0.0
  0
LINE
  5
A80
330
1E
100
AcDbEntity
  8
STEMPEL
100
AcDbLine
 10
89.74387813780438
 20
370.3798855301176
 30
0.0
 11
87.99761706815452
 21
369.7442984795072
 31
0.0
  0
ARC
  5
A81
330
1E
100
AcDbEntity
  8
STEMPEL
100
AcDbCircle
 10
88.25413217564877
 20
369.0395290139177
 30
0.0
 40
0.7500000000000013
100
AcDbArc
 50
109.9999999999995
 51
269.9999991462263
  0
ARC
  5
A82
330
1E
100
AcDbEntity
  8
STEMPEL
100
AcDbCircle
 10
108.5541321756487
 20
369.0395290139177
 30
0.0
 40
0.750000000000001
100
AcDbArc
 50
269.9999991462263
 51
70.00000000000047
  0
ENDSEC
  0
SECTION
  2
OBJECTS
  0
DICTIONARY
  5
C
330
0
100
AcDbDictionary
281
     1
  3
ACAD_COLOR
350
11A
  3
ACAD_GROUP
350
D
  3
ACAD_LAYOUT
350
19
  3
ACAD_MATERIAL
350
119
  3
ACAD_MLINESTYLE
350
16
  3
ACAD_PLOTSETTINGS
350
18
  3
ACAD_PLOTSTYLENAME
350
E
  3
AcDbVariableDictionary
350
125
  0
DICTIONARY
  5
DB
330
1E
100
AcDbDictionary
280
     1
281
     1
  3
ACAD_LAYOUTSELFREF
360
10F
  0
DICTIONARY
  5
DD
330
1A
100
AcDbDictionary
280
     1
281
     1
  3
ACAD_LAYOUTSELFREF
360
10E
  0
DICTIONARY
  5
11A
102
{ACAD_REACTORS
330
C
102
}
330
C
100
AcDbDictionary
281
     1
  0
DICTIONARY
  5
D
102
{ACAD_REACTORS
330
C
102
}
330
C
100
AcDbDictionary
281
     1
  0
DICTIONARY
  5
19
102
{ACAD_REACTORS
330
C
102
}
330
C
100
AcDbDictionary
281
     1
  3
Layout1
350
1D
  3
Model
350
21
  0
DICTIONARY
  5
119
102
{ACAD_REACTORS
330
C
102
}
330
C
100
AcDbDictionary
281
     1
  0
DICTIONARY
  5
16
102
{ACAD_REACTORS
330
C
102
}
330
C
100
AcDbDictionary
281
     1
  3
Standard
350
17
  0
DICTIONARY
  5
18
102
{ACAD_REACTORS
330
C
102
}
330
C
100
AcDbDictionary
281
     1
  0
ACDBDICTIONARYWDFLT
  5
E
102
{ACAD_REACTORS
330
C
102
}
330
C
100
AcDbDictionary
281
     1
  3
Normal
350
F
100
AcDbDictionaryWithDefault
340
F
  0
DICTIONARY
  5
125
102
{ACAD_REACTORS
330
C
102
}
330
C
100
AcDbDictionary
281
     1
  3
DIMASSOC
350
126
  3
PROJECTNAME
350
127
  0
XRECORD
  5
10F
102
{ACAD_REACTORS
330
DB
102
}
330
DB
100
AcDbXrecord
280
     1
340
1E
  0
XRECORD
  5
10E
102
{ACAD_REACTORS
330
DD
102
}
330
DD
100
AcDbXrecord
280
     1
340
1A
  0
LAYOUT
  5
1D
102
{ACAD_REACTORS
330
19
102
}
330
19
100
AcDbPlotSettings
  1

  2
\\NT_WORK01\HP LaserJet 5000 PCL 6
  4

  6

 40
0.0
 41
0.0
 42
0.0
 43
0.0
 44
0.0
 45
0.0
 46
0.0
 47
0.0
 48
0.0
 49
0.0
140
0.0
141
0.0
142
1.0
143
1.0
 70
   688
 72
     0
 73
     0
 74
     5
  7

 75
    16
147
1.0
 76
     0
 77
     2
 78
   300
148
0.0
149
0.0
100
AcDbLayout
  1
Layout1
 70
     0
 71
     1
 10
0.0
 20
0.0
 11
12.0
 21
9.0
 12
0.0
 22
0.0
 32
0.0
 14
1.000000000000000E+20
 24
1.000000000000000E+20
 34
1.000000000000000E+20
 15
-1.000000000000000E+20
 25
-1.000000000000000E+20
 35
-1.000000000000000E+20
146
0.0
 13
0.0
 23
0.0
 33
0.0
 16
1.0
 26
0.0
 36
0.0
 17
0.0
 27
1.0
 37
0.0
 76
     0
330
1A
  0
LAYOUT
  5
21
102
{ACAD_REACTORS
330
19
102
}
330
19
100
AcDbPlotSettings
  1

  2
none_device
  4
Letter_(8.50_x_11.00_Inches)
  6

 40
6.349999904632568
 41
6.349999904632568
 42
6.350006103515625
 43
6.350006103515625
 44
215.8999938964844
 45
279.3999938964844
 46
0.0
 47
0.0
 48
0.0
 49
0.0
140
0.0
141
0.0
142
1.0
143
1.0
 70
 11952
 72
     0
 73
     1
 74
     0
  7

 75
     0
147
1.0
 76
     0
 77
     2
 78
   300
148
3129.024026465952
149
4.824026465951988
100
AcDbLayout
  1
Model
 70
     1
 71
     0
 10
0.0
 20
0.0
 11
12.0
 21
9.0
 12
0.0
 22
0.0
 32
0.0
 14
0.0
 24
0.0
 34
0.0
 15
0.0
 25
0.0
 35
0.0
146
0.0
 13
0.0
 23
0.0
 33
0.0
 16
1.0
 26
0.0
 36
0.0
 17
0.0
 27
1.0
 37
0.0
 76
     0
330
1E
  0
MLINESTYLE
  5
17
102
{ACAD_REACTORS
330
16
102
}
330
16
100
AcDbMlineStyle
  2
STANDARD
 70
     0
  3

 62
   256
 51
90.0
 52
90.0
 71
     2
 49
0.5
 62
   256
  6
BYLAYER
 49
-0.5
 62
   256
  6
BYLAYER
  0
ACDBPLACEHOLDER
  5
F
102
{ACAD_REACTORS
330
E
102
}
330
E
  0
DICTIONARYVAR
  5
126
102
{ACAD_REACTORS
330
125
102
}
330
125
100
DictionaryVariables
280
     0
  1
1
  0
DICTIONARYVAR
  5
127
102
{ACAD_REACTORS
330
125
102
}
330
125
100
DictionaryVariables
280
     0
  1

  0
ENDSEC
  0
EOF
