  0
SECTION
  2
HEADER
  9
$ACADVER
  1
AC1018
  9
$ACADMAINTVER
 70
     2
  9
$DWGCODEPAGE
  3
ANSI_1252
  9
$INSBASE
 10
0.0
 20
0.0
 30
0.0
  9
$EXTMIN
 10
-0.0271749795954293
 20
-0.0384292640751483
 30
-0.000000000000013
  9
$EXTMAX
 10
594.0271991839242
 20
840.0384634924186
 30
0.0000000000000023
  9
$LIMMIN
 10
0.0
 20
0.0
  9
$LIMMAX
 10
594.0
 20
840.0
  9
$ORTHOMODE
 70
     1
  9
$REGENMODE
 70
     1
  9
$FILLMODE
 70
     1
  9
$QTEXTMODE
 70
     0
  9
$MIRRTEXT
 70
     1
  9
$LTSCALE
 40
20.0
  9
$ATTMODE
 70
     1
  9
$TEXTSIZE
 40
3.5
  9
$TRACEWID
 40
1.0
  9
$TEXTSTYLE
  7
STANDARD
  9
$CLAYER
  8
BEM
  9
$CELTYPE
  6
ByLayer
  9
$CECOLOR
 62
   256
  9
$CELTSCALE
 40
1.0
  9
$DISPSILH
 70
     0
  9
$DIMSCALE
 40
2.0
  9
$DIMASZ
 40
3.5
  9
$DIMEXO
 40
1.0
  9
$DIMDLI
 40
7.0
  9
$DIMRND
 40
0.0
  9
$DIMDLE
 40
0.0
  9
$DIMEXE
 40
1.0
  9
$DIMTP
 40
0.0
  9
$DIMTM
 40
0.0
  9
$DIMTXT
 40
3.5
  9
$DIMCEN
 40
1.5
  9
$DIMTSZ
 40
0.0
  9
$DIMTOL
 70
     0
  9
$DIMLIM
 70
     0
  9
$DIMTIH
 70
     0
  9
$DIMTOH
 70
     0
  9
$DIMSE1
 70
     0
  9
$DIMSE2
 70
     0
  9
$DIMTAD
 70
     1
  9
$DIMZIN
 70
     8
  9
$DIMBLK
  1

  9
$DIMASO
 70
     1
  9
$DIMSHO
 70
     0
  9
$DIMPOST
  1

  9
$DIMAPOST
  1

  9
$DIMALT
 70
     0
  9
$DIMALTD
 70
     2
  9
$DIMALTF
 40
25.4
  9
$DIMLFAC
 40
1.0
  9
$DIMTOFL
 70
     1
  9
$DIMTVP
 40
0.0
  9
$DIMTIX
 70
     0
  9
$DIMSOXD
 70
     0
  9
$DIMSAH
 70
     0
  9
$DIMBLK1
  1

  9
$DIMBLK2
  1

  9
$DIMSTYLE
  2
Standard
  9
$DIMCLRD
 70
     0
  9
$DIMCLRE
 70
     0
  9
$DIMCLRT
 70
     1
  9
$DIMTFAC
 40
0.5142857142857144
  9
$DIMGAP
 40
1.5
  9
$DIMJUST
 70
     0
  9
$DIMSD1
 70
     0
  9
$DIMSD2
 70
     0
  9
$DIMTOLJ
 70
     1
  9
$DIMTZIN
 70
     8
  9
$DIMALTZ
 70
     8
  9
$DIMALTTZ
 70
     8
  9
$DIMUPT
 70
     0
  9
$DIMDEC
 70
     2
  9
$DIMTDEC
 70
     2
  9
$DIMALTU
 70
     2
  9
$DIMALTTD
 70
     2
  9
$DIMTXSTY
  7
STANDARD
  9
$DIMAUNIT
 70
     0
  9
$DIMADEC
 70
     2
  9
$DIMALTRND
 40
0.0
  9
$DIMAZIN
 70
     2
  9
$DIMDSEP
 70
    46
  9
$DIMATFIT
 70
     3
  9
$DIMFRAC
 70
     0
  9
$DIMLDRBLK
  1

  9
$DIMLUNIT
 70
     2
  9
$DIMLWD
 70
    -2
  9
$DIMLWE
 70
    -2
  9
$DIMTMOVE
 70
     0
  9
$LUNITS
 70
     2
  9
$LUPREC
 70
     2
  9
$SKETCHINC
 40
1.0
  9
$FILLETRAD
 40
0.0
  9
$AUNITS
 70
     0
  9
$AUPREC
 70
     0
  9
$MENU
  1
ACAD
  9
$ELEVATION
 40
0.0
  9
$PELEVATION
 40
0.0
  9
$THICKNESS
 40
0.0
  9
$LIMCHECK
 70
     0
  9
$CHAMFERA
 40
0.0
  9
$CHAMFERB
 40
0.0
  9
$CHAMFERC
 40
0.0
  9
$CHAMFERD
 40
0.0
  9
$SKPOLY
 70
     0
  9
$TDCREATE
 40
2455397.825393172
  9
$TDUCREATE
 40
2455397.783726505
  9
$TDUPDATE
 40
2455583.465685857
  9
$TDUUPDATE
 40
2455583.424019190
  9
$TDINDWG
 40
0.1152692245
  9
$TDUSRTIMER
 40
0.1152692245
  9
$USRTIMER
 70
     1
  9
$ANGBASE
 50
0.0
  9
$ANGDIR
 70
     0
  9
$PDMODE
 70
     0
  9
$PDSIZE
 40
0.0
  9
$PLINEWID
 40
0.0
  9
$SPLFRAME
 70
     0
  9
$SPLINETYPE
 70
     6
  9
$SPLINESEGS
 70
     8
  9
$HANDSEED
  5
153D
  9
$SURFTAB1
 70
     6
  9
$SURFTAB2
 70
     6
  9
$SURFTYPE
 70
     6
  9
$SURFU
 70
     6
  9
$SURFV
 70
     6
  9
$UCSBASE
  2

  9
$UCSNAME
  2

  9
$UCSORG
 10
0.0
 20
0.0
 30
0.0
  9
$UCSXDIR
 10
1.0
 20
0.0
 30
0.0
  9
$UCSYDIR
 10
0.0
 20
1.0
 30
0.0
  9
$UCSORTHOREF
  2

  9
$UCSORTHOVIEW
 70
     0
  9
$UCSORGTOP
 10
0.0
 20
0.0
 30
0.0
  9
$UCSORGBOTTOM
 10
0.0
 20
0.0
 30
0.0
  9
$UCSORGLEFT
 10
0.0
 20
0.0
 30
0.0
  9
$UCSORGRIGHT
 10
0.0
 20
0.0
 30
0.0
  9
$UCSORGFRONT
 10
0.0
 20
0.0
 30
0.0
  9
$UCSORGBACK
 10
0.0
 20
0.0
 30
0.0
  9
$PUCSBASE
  2

  9
$PUCSNAME
  2

  9
$PUCSORG
 10
0.0
 20
0.0
 30
0.0
  9
$PUCSXDIR
 10
1.0
 20
0.0
 30
0.0
  9
$PUCSYDIR
 10
0.0
 20
1.0
 30
0.0
  9
$PUCSORTHOREF
  2

  9
$PUCSORTHOVIEW
 70
     0
  9
$PUCSORGTOP
 10
0.0
 20
0.0
 30
0.0
  9
$PUCSORGBOTTOM
 10
0.0
 20
0.0
 30
0.0
  9
$PUCSORGLEFT
 10
0.0
 20
0.0
 30
0.0
  9
$PUCSORGRIGHT
 10
0.0
 20
0.0
 30
0.0
  9
$PUCSORGFRONT
 10
0.0
 20
0.0
 30
0.0
  9
$PUCSORGBACK
 10
0.0
 20
0.0
 30
0.0
  9
$USERI1
 70
     0
  9
$USERI2
 70
     0
  9
$USERI3
 70
     0
  9
$USERI4
 70
     0
  9
$USERI5
 70
     0
  9
$USERR1
 40
0.0
  9
$USERR2
 40
0.0
  9
$USERR3
 40
0.0
  9
$USERR4
 40
0.0
  9
$USERR5
 40
0.0
  9
$WORLDVIEW
 70
     1
  9
$SHADEDGE
 70
     3
  9
$SHADEDIF
 70
    70
  9
$TILEMODE
 70
     1
  9
$MAXACTVP
 70
    16
  9
$PINSBASE
 10
0.0
 20
0.0
 30
0.0
  9
$PLIMCHECK
 70
     0
  9
$PEXTMIN
 10
1.000000000000000E+20
 20
1.000000000000000E+20
 30
1.000000000000000E+20
  9
$PEXTMAX
 10
-1.000000000000000E+20
 20
-1.000000000000000E+20
 30
-1.000000000000000E+20
  9
$PLIMMIN
 10
0.0
 20
0.0
  9
$PLIMMAX
 10
12.0
 20
9.0
  9
$UNITMODE
 70
     0
  9
$VISRETAIN
 70
     0
  9
$PLINEGEN
 70
     0
  9
$PSLTSCALE
 70
     0
  9
$TREEDEPTH
 70
  3020
  9
$CMLSTYLE
  2
Standard
  9
$CMLJUST
 70
     0
  9
$CMLSCALE
 40
1.0
  9
$PROXYGRAPHICS
 70
     1
  9
$MEASUREMENT
 70
     0
  9
$CELWEIGHT
370
    -1
  9
$ENDCAPS
280
     0
  9
$JOINSTYLE
280
     0
  9
$LWDISPLAY
290
     0
  9
$INSUNITS
 70
     0
  9
$HYPERLINKBASE
  1

  9
$STYLESHEET
  1
monochrome 1.ctb
  9
$XEDIT
290
     1
  9
$CEPSNTYPE
380
     0
  9
$PSTYLEMODE
290
     1
  9
$FINGERPRINTGUID
  2
{D68B0D0D-A558-11D7-B632-000102183313}
  9
$VERSIONGUID
  2
{A7C44983-83CC-41AF-9FC5-F3E5262C023B}
  9
$EXTNAMES
290
     1
  9
$PSVPSCALE
 40
0.0
  9
$OLESTARTUP
290
     0
  9
$SORTENTS
280
   127
  9
$INDEXCTL
280
     0
  9
$HIDETEXT
280
     0
  9
$XCLIPFRAME
290
     0
  9
$HALOGAP
280
     0
  9
$OBSCOLOR
 70
   257
  9
$OBSLTYPE
280
     0
  9
$INTERSECTIONDISPLAY
280
     0
  9
$INTERSECTIONCOLOR
 70
   257
  9
$DIMASSOC
280
     1
  9
$PROJECTNAME
  1

  0
ENDSEC
  0
SECTION
  2
CLASSES
  0
CLASS
  1
ACDBDICTIONARYWDFLT
  2
AcDbDictionaryWithDefault
  3
ObjectDBX Classes
 90
        0
 91
        1
280
     0
281
     0
  0
CLASS
  1
DICTIONARYVAR
  2
AcDbDictionaryVar
  3
ObjectDBX Classes
 90
        0
 91
        2
280
     0
281
     0
  0
CLASS
  1
DIMASSOC
  2
AcDbDimAssoc
  3
"AcDbDimAssoc|Product Desc:     AcDim ARX App For Dimension|Company:          Autodesk, Inc.|WEB Address:      www.autodesk.com"
 90
        0
 91
        0
280
     0
281
     0
  0
ENDSEC
  0
SECTION
  2
TABLES
  0
TABLE
  2
VPORT
  5
8
330
0
100
AcDbSymbolTable
 70
     3
  0
VPORT
  5
153C
330
8
100
AcDbSymbolTableRecord
100
AcDbViewportTableRecord
  2
*Active
 70
     0
 10
0.0
 20
0.0
 11
1.0
 21
1.0
 12
296.9999999999999
 22
420.0
 13
0.0
 23
0.0
 14
1.0
 24
1.0
 15
10.0
 25
10.0
 16
0.0
 26
0.0
 36
1.0
 17
0.0
 27
0.0
 37
0.0
 40
840.2546149102283
 41
1.336927223719676
 42
50.0
 43
0.0
 44
0.0
 50
0.0
 51
0.0
 71
     0
 72
  1500
 73
     1
 74
     0
 75
     0
 76
     0
 77
     0
 78
     0
281
     0
 65
     1
110
0.0
120
0.0
130
0.0
111
1.0
121
0.0
131
0.0
112
0.0
122
1.0
132
0.0
 79
     0
146
0.0
  0
ENDTAB
  0
TABLE
  2
LTYPE
  5
5
330
0
100
AcDbSymbolTable
 70
     3
  0
LTYPE
  5
13
330
5
100
AcDbSymbolTableRecord
100
AcDbLinetypeTableRecord
  2
ByBlock
 70
     0
  3

 72
    65
 73
     0
 40
0.0
  0
LTYPE
  5
14
330
5
100
AcDbSymbolTableRecord
100
AcDbLinetypeTableRecord
  2
ByLayer
 70
     0
  3

 72
    65
 73
     0
 40
0.0
  0
LTYPE
  5
15
330
5
100
AcDbSymbolTableRecord
100
AcDbLinetypeTableRecord
  2
Continuous
 70
     0
  3
Solid line
 72
    65
 73
     0
 40
0.0
  0
LTYPE
  5
25
330
5
100
AcDbSymbolTableRecord
100
AcDbLinetypeTableRecord
  2
STRICHPUNKT
 70
     0
  3
__ . __ . __ . __ . __ . __ . __ . __ . __ . __
 72
    65
 73
     4
 40
1.0
 49
0.5
 74
     0
 49
-0.25
 74
     0
 49
0.0
 74
     0
 49
-0.25
 74
     0
  0
LTYPE
  5
34
330
5
100
AcDbSymbolTableRecord
100
AcDbLinetypeTableRecord
  2
AUSGEZOGEN
 70
     0
  3
Ausgezogene Linie
 72
    65
 73
     0
 40
0.0
  0
ENDTAB
  0
TABLE
  2
LAYER
  5
2
330
0
100
AcDbSymbolTable
 70
     9
  0
LAYER
  5
10
330
2
100
AcDbSymbolTableRecord
100
AcDbLayerTableRecord
  2
0
 70
     0
 62
     7
  6
Continuous
370
    -3
390
F
  0
LAYER
  5
2B
330
2
100
AcDbSymbolTableRecord
100
AcDbLayerTableRecord
  2
VOLL
 70
     0
 62
     1
  6
Continuous
370
    -3
390
F
  0
LAYER
  5
2C
330
2
100
AcDbSymbolTableRecord
100
AcDbLayerTableRecord
  2
HILF
 70
     0
 62
     2
  6
Continuous
370
    -3
390
F
  0
LAYER
  5
2D
330
2
100
AcDbSymbolTableRecord
100
AcDbLayerTableRecord
  2
MITTEL
 70
     0
 62
     2
  6
STRICHPUNKT
370
    -3
390
F
  0
LAYER
  5
2F
330
2
100
AcDbSymbolTableRecord
100
AcDbLayerTableRecord
  2
BEM
 70
     0
 62
     7
  6
Continuous
370
    -3
390
F
  0
LAYER
  5
30
330
2
100
AcDbSymbolTableRecord
100
AcDbLayerTableRecord
  2
STEMPEL
 70
     0
 62
     3
  6
Continuous
370
    -3
390
F
  0
LAYER
  5
33
330
2
100
AcDbSymbolTableRecord
100
AcDbLayerTableRecord
  2
TEXT
 70
     0
 62
     7
  6
Continuous
370
    -3
390
F
  0
LAYER
  5
1DD
330
2
100
AcDbSymbolTableRecord
100
AcDbLayerTableRecord
  2
DEFPOINTS
 70
     0
 62
     7
  6
AUSGEZOGEN
290
     0
370
    -3
390
F
  0
LAYER
  5
1DE
330
2
100
AcDbSymbolTableRecord
100
AcDbLayerTableRecord
  2
SCHRAFF
 70
     0
 62
     7
  6
AUSGEZOGEN
370
    -3
390
F
  0
ENDTAB
  0
TABLE
  2
STYLE
  5
3
330
0
100
AcDbSymbolTable
 70
     2
  0
STYLE
  5
11
330
3
100
AcDbSymbolTableRecord
100
AcDbTextStyleTableRecord
  2
STANDARD
 70
     0
 40
0.0
 41
0.8
 50
0.0
 71
     0
 42
3.5
  3
simplex.shx
  4

  0
STYLE
  5
24
330
3
100
AcDbSymbolTableRecord
100
AcDbTextStyleTableRecord
  2
GREEKS
 70
     0
 40
0.0
 41
0.8
 50
0.0
 71
     0
 42
2.5
  3
SIMPLEX.shx
  4

  0
ENDTAB
  0
TABLE
  2
VIEW
  5
6
330
0
100
AcDbSymbolTable
 70
     0
  0
ENDTAB
  0
TABLE
  2
UCS
  5
7
330
0
100
AcDbSymbolTable
 70
     0
  0
ENDTAB
  0
TABLE
  2
APPID
  5
9
330
0
100
AcDbSymbolTable
 70
     1
  0
APPID
  5
12
330
9
100
AcDbSymbolTableRecord
100
AcDbRegAppTableRecord
  2
ACAD
 70
     0
  0
ENDTAB
  0
TABLE
  2
DIMSTYLE
  5
A
330
0
100
AcDbSymbolTable
 70
     1
100
AcDbDimStyleTable
 71
     1
340
A2
  0
DIMSTYLE
105
A2
102
{ACAD_REACTORS
330
F7F
330
F84
330
F8B
330
F9D
330
1334
330
1504
330
1511
102
}
330
A
100
AcDbSymbolTableRecord
100
AcDbDimStyleTableRecord
  2
Standard
 70
     0
340
11
  0
ENDTAB
  0
TABLE
  2
BLOCK_RECORD
  5
1
330
0
100
AcDbSymbolTable
 70
     9
  0
BLOCK_RECORD
  5
1E
102
{ACAD_XDICTIONARY
360
DB
102
}
330
1
100
AcDbSymbolTableRecord
100
AcDbBlockTableRecord
  2
*Model_Space
340
21
  0
BLOCK_RECORD
  5
1A
102
{ACAD_XDICTIONARY
360
DD
102
}
330
1
100
AcDbSymbolTableRecord
100
AcDbBlockTableRecord
  2
*Paper_Space
340
1D
  0
BLOCK_RECORD
  5
22
330
1
100
AcDbSymbolTableRecord
100
AcDbBlockTableRecord
  2
LOGO
340
0
102
{BLKREFS
331
56
102
}
  0
BLOCK_RECORD
  5
23
330
1
100
AcDbSymbolTableRecord
100
AcDbBlockTableRecord
  2
LORO
340
0
102
{BLKREFS
331
9B
102
}
  0
BLOCK_RECORD
  5
FA4
330
1
100
AcDbSymbolTableRecord
100
AcDbBlockTableRecord
  2
*D2
340
0
  0
BLOCK_RECORD
  5
FB0
330
1
100
AcDbSymbolTableRecord
100
AcDbBlockTableRecord
  2
*D3
340
0
  0
BLOCK_RECORD
  5
FBC
330
1
100
AcDbSymbolTableRecord
100
AcDbBlockTableRecord
  2
*D4
340
0
  0
BLOCK_RECORD
  5
FD4
330
1
100
AcDbSymbolTableRecord
100
AcDbBlockTableRecord
  2
*D5
340
0
  0
BLOCK_RECORD
  5
1336
330
1
100
AcDbSymbolTableRecord
100
AcDbBlockTableRecord
  2
*D6
340
0
  0
BLOCK_RECORD
  5
1505
330
1
100
AcDbSymbolTableRecord
100
AcDbBlockTableRecord
  2
*D7
340
0
  0
BLOCK_RECORD
  5
1512
330
1
100
AcDbSymbolTableRecord
100
AcDbBlockTableRecord
  2
*D8
340
0
  0
ENDTAB
  0
ENDSEC
  0
SECTION
  2
BLOCKS
  0
BLOCK
  5
37
330
1E
100
AcDbEntity
  8
0
100
AcDbBlockBegin
  2
*Model_Space
 70
     0
 10
0.0
 20
0.0
 30
0.0
  3
*Model_Space
  1

  0
ENDBLK
  5
38
330
1E
100
AcDbEntity
  8
0
100
AcDbBlockEnd
  0
BLOCK
  5
35
330
1A
100
AcDbEntity
 67
     1
  8
0
100
AcDbBlockBegin
  2
*Paper_Space
 70
     0
 10
0.0
 20
0.0
 30
0.0
  3
*Paper_Space
  1

  0
ENDBLK
  5
36
330
1A
100
AcDbEntity
 67
     1
  8
0
100
AcDbBlockEnd
  0
BLOCK
  5
39
330
22
100
AcDbEntity
  8
0
100
AcDbBlockBegin
  2
LOGO
 70
     0
 10
0.0
 20
0.0
 30
0.0
  3
LOGO
  1

  0
ARC
  5
3A
330
22
100
AcDbEntity
  8
0
100
AcDbCircle
 10
11.59973089678112
 20
-9.271599258481501
 30
0.0
 40
4.5
100
AcDbArc
 50
270.0
 51
231.0575587310159
  0
LINE
  5
3B
330
22
100
AcDbEntity
  8
0
100
AcDbLine
 10
3.599730896781125
 20
-4.771599258481529
 30
0.0
 11
3.599730896781153
 21
-11.77159925848133
 31
0.0
  0
LINE
  5
3C
330
22
100
AcDbEntity
  8
0
100
AcDbLine
 10
2.599730896781125
 20
-4.771599258481529
 30
0.0
 11
2.599730896781153
 21
-11.77159925848133
 31
0.0
  0
CIRCLE
  5
3D
330
22
100
AcDbEntity
  8
0
100
AcDbCircle
 10
11.59973089678112
 20
-9.271599258481501
 30
0.0
 40
3.5
  0
ARC
  5
3E
330
22
100
AcDbEntity
  8
0
100
AcDbCircle
 10
31.59973089678115
 20
-9.271599258481472
 30
0.0
 40
4.5
100
AcDbArc
 50
270.0
 51
231.0575587310182
  0
LINE
  5
3F
330
22
100
AcDbEntity
  8
0
100
AcDbLine
 10
17.59973089678112
 20
-4.771599258481472
 30
0.0
 11
17.59973089678115
 21
-13.77159925848147
 31
0.0
  0
ARC
  5
40
330
22
100
AcDbEntity
  8
0
100
AcDbCircle
 10
22.59973089678116
 20
-7.271599258481472
 30
0.0
 40
2.5
100
AcDbArc
 50
293.1161887722295
 51
90.0
  0
CIRCLE
  5
41
330
22
100
AcDbEntity
  8
0
100
AcDbCircle
 10
31.59973089678115
 20
-9.271599258481472
 30
0.0
 40
3.5
  0
ARC
  5
42
330
22
100
AcDbEntity
  8
0
100
AcDbCircle
 10
4.599730896781153
 20
-11.77159925848133
 30
0.0
 40
1.0
100
AcDbArc
 50
180.0
 51
270.0
  0
ARC
  5
43
330
22
100
AcDbEntity
  8
0
100
AcDbCircle
 10
4.599730896781153
 20
-11.77159925848133
 30
0.0
 40
2.0
100
AcDbArc
 50
179.9999999999992
 51
270.0
  0
LINE
  5
44
330
22
100
AcDbEntity
  8
0
100
AcDbLine
 10
11.59973089678115
 20
-13.77159925848144
 30
0.0
 11
4.599730896781153
 21
-13.77159925848147
 31
0.0
  0
LINE
  5
45
330
22
100
AcDbEntity
  8
0
100
AcDbLine
 10
8.771303772034769
 20
-12.77159925848136
 30
0.0
 11
4.599730896781153
 21
-12.77159925848133
 31
0.0
  0
LINE
  5
46
330
22
100
AcDbEntity
  8
0
100
AcDbLine
 10
31.59973089678115
 20
-13.77159925848147
 30
0.0
 11
23.6715276665056
 21
-13.77159925848144
 31
0.0
  0
LINE
  5
47
330
22
100
AcDbEntity
  8
0
100
AcDbLine
 10
23.56565672307022
 20
-9.51278021337896
 30
0.0
 11
24.4388546544846
 21
-12.77159925848144
 31
0.0
  0
LINE
  5
48
330
22
100
AcDbEntity
  8
0
100
AcDbLine
 10
22.59973089678116
 20
-9.771599258481472
 30
0.0
 11
18.59973089678112
 21
-9.771599258481472
 31
0.0
  0
LINE
  5
49
330
22
100
AcDbEntity
  8
0
100
AcDbLine
 10
18.59973089678115
 20
-13.77159925848144
 30
0.0
 11
17.59973089678115
 21
-13.77159925848144
 31
0.0
  0
LINE
  5
4A
330
22
100
AcDbEntity
  8
0
100
AcDbLine
 10
18.59973089678115
 20
-9.771599258481472
 30
0.0
 11
18.59973089678115
 21
-13.77159925848144
 31
0.0
  0
LINE
  5
4B
330
22
100
AcDbEntity
  8
0
100
AcDbLine
 10
22.59973089678116
 20
-9.771599258481472
 30
0.0
 11
23.67152766650562
 21
-13.77159925848147
 31
0.0
  0
ARC
  5
4C
330
22
100
AcDbEntity
  8
0
100
AcDbCircle
 10
22.59973089678116
 20
-7.271599258481472
 30
0.0
 40
2.5
100
AcDbArc
 50
270.0
 51
270.0000000000007
  0
LINE
  5
4D
330
22
100
AcDbEntity
  8
0
100
AcDbLine
 10
28.77130377203494
 20
-12.77159925848147
 30
0.0
 11
24.43885465448463
 21
-12.77159925848144
 31
0.0
  0
LINE
  5
4E
330
22
100
AcDbEntity
  8
0
100
AcDbLine
 10
3.599730896781125
 20
-4.771599258481472
 30
0.0
 11
2.599730896781125
 21
-4.771599258481472
 31
0.0
  0
LINE
  5
4F
330
22
100
AcDbEntity
  8
0
100
AcDbLine
 10
22.59973089678116
 20
-8.771599258481472
 30
0.0
 11
18.59973089678115
 21
-8.771599258481472
 31
0.0
  0
LINE
  5
50
330
22
100
AcDbEntity
  8
0
100
AcDbLine
 10
22.59973089678116
 20
-5.771599258481472
 30
0.0
 11
18.59973089678115
 21
-5.771599258481472
 31
0.0
  0
LINE
  5
51
330
22
100
AcDbEntity
  8
0
100
AcDbLine
 10
22.59973089678116
 20
-4.771599258481472
 30
0.0
 11
17.59973089678115
 21
-4.771599258481472
 31
0.0
  0
LINE
  5
52
330
22
100
AcDbEntity
  8
0
100
AcDbLine
 10
18.59973089678115
 20
-5.771599258481472
 30
0.0
 11
18.59973089678115
 21
-8.771599258481472
 31
0.0
  0
ARC
  5
53
330
22
100
AcDbEntity
  8
0
100
AcDbCircle
 10
22.59973089678116
 20
-7.271599258481472
 30
0.0
 40
1.5
100
AcDbArc
 50
270.0
 51
90.0
  0
ENDBLK
  5
54
330
22
100
AcDbEntity
  8
0
100
AcDbBlockEnd
  0
BLOCK
  5
55
330
23
100
AcDbEntity
  8
0
100
AcDbBlockBegin
  2
LORO
 70
     0
 10
0.0
 20
0.0
 30
0.0
  3
LORO
  1

  0
INSERT
  5
56
330
23
100
AcDbEntity
  8
STEMPEL
100
AcDbBlockReference
  2
LOGO
 10
-1.748032802467321
 20
3.771489518552062
 30
0.0
  0
ENDBLK
  5
57
330
23
100
AcDbEntity
  8
0
100
AcDbBlockEnd
  0
BLOCK
  5
FAE
330
FA4
100
AcDbEntity
  8
0
100
AcDbBlockBegin
  2
*D2
 70
     1
 10
0.0
 20
0.0
 30
0.0
  3
*D2
  1

  0
LINE
  5
12AF
330
FA4
100
AcDbEntity
  8
BEM
 62
     0
370
    -2
100
AcDbLine
 10
50.60421656764822
 20
546.5285467312545
 30
0.0
 11
30.34364266648137
 21
546.5285467312545
 31
0.0
  0
LINE
  5
12B0
330
FA4
100
AcDbEntity
  8
BEM
 62
     0
370
    -2
100
AcDbLine
 10
127.6042165676483
 20
656.5285467312539
 30
0.0
 11
30.3436426664814
 21
656.5285467312539
 31
0.0
  0
LINE
  5
12B1
330
FA4
100
AcDbEntity
  8
BEM
 62
     0
370
    -2
100
AcDbLine
 10
33.34364266648137
 20
553.5285467312546
 30
0.0
 11
33.34364266648139
 21
649.5285467312538
 31
0.0
  0
SOLID
  5
12B2
330
FA4
100
AcDbEntity
  8
BEM
 62
     0
100
AcDbTrace
 10
32.17697599981471
 20
553.5285467312546
 30
0.0
 11
34.51030933314804
 21
553.5285467312546
 31
0.0
 12
33.34364266648137
 22
546.5285467312545
 32
0.0
 13
33.34364266648137
 23
546.5285467312545
 33
0.0
  0
SOLID
  5
12B3
330
FA4
100
AcDbEntity
  8
BEM
 62
     0
100
AcDbTrace
 10
32.17697599981473
 20
649.5285467312538
 30
0.0
 11
34.51030933314806
 21
649.5285467312538
 31
0.0
 12
33.3436426664814
 22
656.5285467312539
 32
0.0
 13
33.3436426664814
 23
656.5285467312539
 33
0.0
  0
MTEXT
  5
12B4
330
FA4
100
AcDbEntity
  8
BEM
 62
     1
100
AcDbMText
 10
27.84364266648129
 20
601.5285467312541
 30
0.0
 40
7.0
 41
0.0
 71
     5
 72
     1
  1
\A1;110
  7
GREEKS
 11
0.0000000000000001
 21
1.0
 31
0.0
 73
     1
 44
1.0
  0
POINT
  5
12B5
330
FA4
100
AcDbEntity
  8
DEFPOINTS
 62
     0
100
AcDbPoint
 10
52.60421656764822
 20
546.5285467312545
 30
0.0
  0
POINT
  5
12B6
330
FA4
100
AcDbEntity
  8
DEFPOINTS
 62
     0
100
AcDbPoint
 10
129.6042165676483
 20
656.5285467312539
 30
0.0
  0
POINT
  5
12B7
330
FA4
100
AcDbEntity
  8
DEFPOINTS
 62
     0
100
AcDbPoint
 10
33.3436426664814
 20
656.5285467312539
 30
0.0
  0
ENDBLK
  5
FAF
330
FA4
100
AcDbEntity
  8
0
100
AcDbBlockEnd
  0
BLOCK
  5
FBA
330
FB0
100
AcDbEntity
  8
0
100
AcDbBlockBegin
  2
*D3
 70
     1
 10
0.0
 20
0.0
 30
0.0
  3
*D3
  1

  0
LINE
  5
134B
330
FB0
100
AcDbEntity
  8
BEM
 62
     0
370
    -2
100
AcDbLine
 10
144.4791032029073
 20
141.0285467312542
 30
0.0
 11
31.34364266648132
 21
141.0285467312542
 31
0.0
  0
LINE
  5
134C
330
FB0
100
AcDbEntity
  8
BEM
 62
     0
370
    -2
100
AcDbLine
 10
42.60421656764822
 20
541.0285467312546
 30
0.0
 11
31.3436426664814
 21
541.0285467312546
 31
0.0
  0
LINE
  5
134D
330
FB0
100
AcDbEntity
  8
BEM
 62
     0
370
    -2
100
AcDbLine
 10
33.34364266648132
 20
148.0285467312542
 30
0.0
 11
33.3436426664814
 21
534.0285467312545
 31
0.0
  0
SOLID
  5
134E
330
FB0
100
AcDbEntity
  8
BEM
 62
     0
100
AcDbTrace
 10
32.17697599981465
 20
148.0285467312542
 30
0.0
 11
34.51030933314798
 21
148.0285467312542
 31
0.0
 12
33.34364266648131
 22
141.0285467312542
 32
0.0
 13
33.34364266648131
 23
141.0285467312542
 33
0.0
  0
SOLID
  5
134F
330
FB0
100
AcDbEntity
  8
BEM
 62
     0
100
AcDbTrace
 10
32.17697599981474
 20
534.0285467312545
 30
0.0
 11
34.51030933314807
 21
534.0285467312545
 31
0.0
 12
33.3436426664814
 22
541.0285467312546
 32
0.0
 13
33.3436426664814
 23
541.0285467312546
 33
0.0
  0
MTEXT
  5
1350
330
FB0
100
AcDbEntity
  8
BEM
 62
     1
100
AcDbMText
 10
27.8436426664813
 20
341.0285467312544
 30
0.0
 40
7.0
 41
0.0
 71
     5
 72
     1
  1
\A1;400
  7
GREEKS
 11
0.0000000000000001
 21
1.0
 31
0.0
 73
     1
 44
1.0
  0
POINT
  5
1351
330
FB0
100
AcDbEntity
  8
DEFPOINTS
 62
     0
100
AcDbPoint
 10
146.4791032029074
 20
141.0285467312542
 30
0.0
  0
POINT
  5
1352
330
FB0
100
AcDbEntity
  8
DEFPOINTS
 62
     0
100
AcDbPoint
 10
44.60421656764822
 20
541.0285467312546
 30
0.0
  0
POINT
  5
1353
330
FB0
100
AcDbEntity
  8
DEFPOINTS
 62
     0
100
AcDbPoint
 10
33.3436426664814
 20
541.0285467312546
 30
0.0
  0
ENDBLK
  5
FBB
330
FB0
100
AcDbEntity
  8
0
100
AcDbBlockEnd
  0
BLOCK
  5
FC6
330
FBC
100
AcDbEntity
  8
0
100
AcDbBlockBegin
  2
*D4
 70
     1
 10
0.0
 20
0.0
 30
0.0
  3
*D4
  1

  0
LINE
  5
12B8
330
FBC
100
AcDbEntity
  8
BEM
 62
     0
370
    -2
100
AcDbLine
 10
44.60421656764833
 20
546.0285467312546
 30
0.0
 11
44.60421656764834
 21
682.3498985770427
 31
0.0
  0
LINE
  5
12B9
330
FBC
100
AcDbEntity
  8
BEM
 62
     0
370
    -2
100
AcDbLine
 10
374.6042165676482
 20
546.0285467312544
 30
0.0
 11
374.6042165676482
 21
682.3498985770427
 31
0.0
  0
LINE
  5
12BA
330
FBC
100
AcDbEntity
  8
BEM
 62
     0
370
    -2
100
AcDbLine
 10
51.60421656764834
 20
679.3498985770427
 30
0.0
 11
367.6042165676482
 21
679.3498985770427
 31
0.0
  0
SOLID
  5
12BB
330
FBC
100
AcDbEntity
  8
BEM
 62
     0
100
AcDbTrace
 10
51.60421656764834
 20
680.5165652437093
 30
0.0
 11
51.60421656764834
 21
678.183231910376
 31
0.0
 12
44.60421656764834
 22
679.3498985770427
 32
0.0
 13
44.60421656764834
 23
679.3498985770427
 33
0.0
  0
SOLID
  5
12BC
330
FBC
100
AcDbEntity
  8
BEM
 62
     0
100
AcDbTrace
 10
367.6042165676482
 20
680.5165652437093
 30
0.0
 11
367.6042165676482
 21
678.183231910376
 31
0.0
 12
374.6042165676482
 22
679.3498985770427
 32
0.0
 13
374.6042165676482
 23
679.3498985770427
 33
0.0
  0
MTEXT
  5
12BD
330
FBC
100
AcDbEntity
  8
BEM
 62
     1
100
AcDbMText
 10
209.6042165676483
 20
684.8498985770427
 30
0.0
 40
7.0
 41
0.0
 71
     5
 72
     1
  1
\A1;%%c330
  7
GREEKS
 73
     1
 44
1.0
  0
POINT
  5
12BE
330
FBC
100
AcDbEntity
  8
DEFPOINTS
 62
     0
100
AcDbPoint
 10
44.60421656764833
 20
544.0285467312547
 30
0.0
  0
POINT
  5
12BF
330
FBC
100
AcDbEntity
  8
DEFPOINTS
 62
     0
100
AcDbPoint
 10
374.6042165676482
 20
544.0285467312544
 30
0.0
  0
POINT
  5
12C0
330
FBC
100
AcDbEntity
  8
DEFPOINTS
 62
     0
100
AcDbPoint
 10
374.6042165676482
 20
679.3498985770427
 30
0.0
  0
ENDBLK
  5
FC7
330
FBC
100
AcDbEntity
  8
0
100
AcDbBlockEnd
  0
BLOCK
  5
FDE
330
FD4
100
AcDbEntity
  8
0
100
AcDbBlockBegin
  2
*D5
 70
     1
 10
0.0
 20
0.0
 30
0.0
  3
*D5
  1

  0
LINE
  5
11E4
330
FD4
100
AcDbEntity
  8
BEM
 62
     0
370
    -2
100
AcDbLine
 10
99.60421656764834
 20
638.5284887639392
 30
0.0
 11
99.60421656764834
 21
666.6091933072611
 31
0.0
  0
LINE
  5
11E5
330
FD4
100
AcDbEntity
  8
BEM
 62
     0
370
    -2
100
AcDbLine
 10
319.6042165676486
 20
638.5284887639392
 30
0.0
 11
319.6042165676486
 21
666.6091933072611
 31
0.0
  0
LINE
  5
11E6
330
FD4
100
AcDbEntity
  8
BEM
 62
     0
370
    -2
100
AcDbLine
 10
106.6042165676483
 20
664.6091933072612
 30
0.0
 11
312.6042165676486
 21
664.6091933072612
 31
0.0
  0
SOLID
  5
11E7
330
FD4
100
AcDbEntity
  8
BEM
 62
     0
100
AcDbTrace
 10
106.6042165676483
 20
665.7758599739278
 30
0.0
 11
106.6042165676483
 21
663.4425266405945
 31
0.0
 12
99.60421656764834
 22
664.6091933072612
 32
0.0
 13
99.60421656764834
 23
664.6091933072612
 33
0.0
  0
SOLID
  5
11E8
330
FD4
100
AcDbEntity
  8
BEM
 62
     0
100
AcDbTrace
 10
312.6042165676486
 20
665.7758599739278
 30
0.0
 11
312.6042165676486
 21
663.4425266405945
 31
0.0
 12
319.6042165676486
 22
664.6091933072612
 32
0.0
 13
319.6042165676486
 23
664.6091933072612
 33
0.0
  0
MTEXT
  5
11E9
330
FD4
100
AcDbEntity
  8
BEM
 62
     1
100
AcDbMText
 10
209.6042165676485
 20
670.1091933072611
 30
0.0
 40
7.0
 41
0.0
 71
     5
 72
     1
  1
\A1;%%c220
  7
GREEKS
 73
     1
 44
1.0
  0
POINT
  5
11EA
330
FD4
100
AcDbEntity
  8
DEFPOINTS
 62
     0
100
AcDbPoint
 10
99.60421656764834
 20
636.5284887639392
 30
0.0
  0
POINT
  5
11EB
330
FD4
100
AcDbEntity
  8
DEFPOINTS
 62
     0
100
AcDbPoint
 10
319.6042165676486
 20
636.5284887639392
 30
0.0
  0
POINT
  5
11EC
330
FD4
100
AcDbEntity
  8
DEFPOINTS
 62
     0
100
AcDbPoint
 10
319.6042165676486
 20
664.6091933072612
 30
0.0
  0
ENDBLK
  5
FDF
330
FD4
100
AcDbEntity
  8
0
100
AcDbBlockEnd
  0
BLOCK
  5
1340
330
1336
100
AcDbEntity
  8
0
100
AcDbBlockBegin
  2
*D6
 70
     1
 10
0.0
 20
0.0
 30
0.0
  3
*D6
  1

  0
LINE
  5
14FB
330
1336
100
AcDbEntity
  8
BEM
 62
     0
370
    -2
100
AcDbLine
 10
145.6042165676481
 20
149.0285467312541
 30
0.0
 11
145.6042165676481
 21
115.910199594786
 31
0.0
  0
LINE
  5
14FC
330
1336
100
AcDbEntity
  8
BEM
 62
     0
370
    -2
100
AcDbLine
 10
273.6042165676481
 20
149.0285467312543
 30
0.0
 11
273.6042165676481
 21
115.910199594786
 31
0.0
  0
LINE
  5
14FD
330
1336
100
AcDbEntity
  8
BEM
 62
     0
370
    -2
100
AcDbLine
 10
152.6042165676481
 20
117.910199594786
 30
0.0
 11
266.6042165676481
 21
117.910199594786
 31
0.0
  0
SOLID
  5
14FE
330
1336
100
AcDbEntity
  8
BEM
 62
     0
100
AcDbTrace
 10
152.6042165676481
 20
119.0768662614527
 30
0.0
 11
152.6042165676481
 21
116.7435329281194
 31
0.0
 12
145.6042165676481
 22
117.910199594786
 32
0.0
 13
145.6042165676481
 23
117.910199594786
 33
0.0
  0
SOLID
  5
14FF
330
1336
100
AcDbEntity
  8
BEM
 62
     0
100
AcDbTrace
 10
266.6042165676481
 20
119.0768662614527
 30
0.0
 11
266.6042165676481
 21
116.7435329281194
 31
0.0
 12
273.6042165676481
 22
117.910199594786
 32
0.0
 13
273.6042165676481
 23
117.910199594786
 33
0.0
  0
MTEXT
  5
1500
330
1336
100
AcDbEntity
  8
BEM
 62
     1
100
AcDbMText
 10
209.6042165676481
 20
124.410199594786
 30
0.0
 40
7.0
 41
0.0
 71
     5
 72
     1
  1
\A1;%%c128
 73
     1
 44
1.0
  0
POINT
  5
1501
330
1336
100
AcDbEntity
  8
DEFPOINTS
 62
     0
100
AcDbPoint
 10
145.6042165676481
 20
151.0285467312541
 30
0.0
  0
POINT
  5
1502
330
1336
100
AcDbEntity
  8
DEFPOINTS
 62
     0
100
AcDbPoint
 10
273.6042165676481
 20
151.0285467312543
 30
0.0
  0
POINT
  5
1503
330
1336
100
AcDbEntity
  8
DEFPOINTS
 62
     0
100
AcDbPoint
 10
273.6042165676481
 20
117.910199594786
 30
0.0
  0
ENDBLK
  5
1341
330
1336
100
AcDbEntity
  8
0
100
AcDbBlockEnd
  0
BLOCK
  5
150F
330
1505
100
AcDbEntity
  8
0
100
AcDbBlockBegin
  2
*D7
 70
     1
 10
0.0
 20
0.0
 30
0.0
  3
*D7
  1

  0
LINE
  5
151E
330
1505
100
AcDbEntity
  8
BEM
 62
     0
370
    -2
100
AcDbLine
 10
287.1042165676481
 20
142.5285467312541
 30
0.0
 11
287.1042165676481
 21
100.6271358001072
 31
0.0
  0
LINE
  5
151F
330
1505
100
AcDbEntity
  8
BEM
 62
     0
370
    -2
100
AcDbLine
 10
132.6042165676481
 20
142.5285467312541
 30
0.0
 11
132.6042165676481
 21
100.6271358001072
 31
0.0
  0
LINE
  5
1520
330
1505
100
AcDbEntity
  8
BEM
 62
     0
370
    -2
100
AcDbLine
 10
280.1042165676481
 20
102.6271358001072
 30
0.0
 11
139.6042165676481
 21
102.6271358001072
 31
0.0
  0
SOLID
  5
1521
330
1505
100
AcDbEntity
  8
BEM
 62
     0
100
AcDbTrace
 10
280.1042165676481
 20
103.7938024667739
 30
0.0
 11
280.1042165676481
 21
101.4604691334405
 31
0.0
 12
287.1042165676481
 22
102.6271358001072
 32
0.0
 13
287.1042165676481
 23
102.6271358001072
 33
0.0
  0
SOLID
  5
1522
330
1505
100
AcDbEntity
  8
BEM
 62
     0
100
AcDbTrace
 10
139.6042165676481
 20
103.7938024667739
 30
0.0
 11
139.6042165676481
 21
101.4604691334405
 31
0.0
 12
132.6042165676481
 22
102.6271358001072
 32
0.0
 13
132.6042165676481
 23
102.6271358001072
 33
0.0
  0
MTEXT
  5
1523
330
1505
100
AcDbEntity
  8
BEM
 62
     1
100
AcDbMText
 10
209.8542165676481
 20
109.1271358001072
 30
0.0
 40
7.0
 41
0.0
 71
     5
 72
     1
  1
\A1;%%c154.5
 73
     1
 44
1.0
  0
POINT
  5
1524
330
1505
100
AcDbEntity
  8
DEFPOINTS
 62
     0
100
AcDbPoint
 10
287.1042165676481
 20
144.5285467312541
 30
0.0
  0
POINT
  5
1525
330
1505
100
AcDbEntity
  8
DEFPOINTS
 62
     0
100
AcDbPoint
 10
132.6042165676481
 20
144.5285467312541
 30
0.0
  0
POINT
  5
1526
330
1505
100
AcDbEntity
  8
DEFPOINTS
 62
     0
100
AcDbPoint
 10
132.6042165676481
 20
102.6271358001072
 30
0.0
  0
ENDBLK
  5
1510
330
1505
100
AcDbEntity
  8
0
100
AcDbBlockEnd
  0
BLOCK
  5
151C
330
1512
100
AcDbEntity
  8
0
100
AcDbBlockBegin
  2
*D8
 70
     1
 10
0.0
 20
0.0
 30
0.0
  3
*D8
  1

  0
LINE
  5
1527
330
1512
100
AcDbEntity
  8
BEM
 62
     0
370
    -2
100
AcDbLine
 10
291.1042165676481
 20
190.7550892592595
 30
0.0
 11
291.1042165676481
 21
85.57874970480794
 31
0.0
  0
LINE
  5
1528
330
1512
100
AcDbEntity
  8
BEM
 62
     0
370
    -2
100
AcDbLine
 10
128.1042165676481
 20
191.0285467312541
 30
0.0
 11
128.1042165676481
 21
85.57874970480794
 31
0.0
  0
LINE
  5
1529
330
1512
100
AcDbEntity
  8
BEM
 62
     0
370
    -2
100
AcDbLine
 10
284.1042165676481
 20
87.57874970480793
 30
0.0
 11
135.1042165676481
 21
87.57874970480793
 31
0.0
  0
SOLID
  5
152A
330
1512
100
AcDbEntity
  8
BEM
 62
     0
100
AcDbTrace
 10
284.1042165676481
 20
88.7454163714746
 30
0.0
 11
284.1042165676481
 21
86.41208303814126
 31
0.0
 12
291.1042165676481
 22
87.57874970480793
 32
0.0
 13
291.1042165676481
 23
87.57874970480793
 33
0.0
  0
SOLID
  5
152B
330
1512
100
AcDbEntity
  8
BEM
 62
     0
100
AcDbTrace
 10
135.1042165676481
 20
88.7454163714746
 30
0.0
 11
135.1042165676481
 21
86.41208303814126
 31
0.0
 12
128.1042165676481
 22
87.57874970480793
 32
0.0
 13
128.1042165676481
 23
87.57874970480793
 33
0.0
  0
MTEXT
  5
152C
330
1512
100
AcDbEntity
  8
BEM
 62
     1
100
AcDbMText
 10
209.6042165676481
 20
94.07874970480794
 30
0.0
 40
7.0
 41
0.0
 71
     5
 72
     1
  1
\A1;%%c163
 73
     1
 44
1.0
  0
POINT
  5
152D
330
1512
100
AcDbEntity
  8
DEFPOINTS
 62
     0
100
AcDbPoint
 10
291.1042165676481
 20
192.7550892592595
 30
0.0
  0
POINT
  5
152E
330
1512
100
AcDbEntity
  8
DEFPOINTS
 62
     0
100
AcDbPoint
 10
128.1042165676481
 20
193.0285467312541
 30
0.0
  0
POINT
  5
152F
330
1512
100
AcDbEntity
  8
DEFPOINTS
 62
     0
100
AcDbPoint
 10
128.1042165676481
 20
87.57874970480793
 30
0.0
  0
ENDBLK
  5
151D
330
1512
100
AcDbEntity
  8
0
100
AcDbBlockEnd
  0
ENDSEC
  0
SECTION
  2
ENTITIES
  0
LINE
  5
58
330
1E
100
AcDbEntity
  8
STEMPEL
100
AcDbLine
 10
484.0
 20
830.0000000000002
 30
0.0
 11
484.0
 21
470.0000000000001
 31
0.0
  0
LINE
  5
59
330
1E
100
AcDbEntity
  8
STEMPEL
100
AcDbLine
 10
484.0
 20
470.0000000000001
 30
0.0
 11
584.0
 21
470.0000000000001
 31
0.0
  0
LINE
  5
5A
330
1E
100
AcDbEntity
  8
STEMPEL
100
AcDbLine
 10
484.0000000000001
 20
566.0000000000002
 30
0.0
 11
584.0000000000001
 21
566.0
 31
0.0
  0
LINE
  5
5B
330
1E
100
AcDbEntity
  8
STEMPEL
100
AcDbLine
 10
484.0
 20
650.0
 30
0.0
 11
584.0
 21
650.0
 31
0.0
  0
LINE
  5
5C
330
1E
100
AcDbEntity
  8
STEMPEL
100
AcDbLine
 10
484.0000000000003
 20
752.0000000000002
 30
0.0
 11
554.0
 21
752.0000000000002
 31
0.0
  0
LINE
  5
5D
330
1E
100
AcDbEntity
  8
STEMPEL
100
AcDbLine
 10
564.0
 20
566.0
 30
0.0
 11
564.0
 21
470.0000000000001
 31
0.0
  0
LINE
  5
5E
330
1E
100
AcDbEntity
  8
STEMPEL
100
AcDbLine
 10
554.0
 20
830.0000000000002
 30
0.0
 11
554.0
 21
566.0
 31
0.0
  0
LINE
  5
5F
330
1E
100
AcDbEntity
  8
STEMPEL
100
AcDbLine
 10
514.0
 20
830.0000000000002
 30
0.0
 11
514.0
 21
566.0000000000002
 31
0.0
  0
LINE
  5
60
330
1E
100
AcDbEntity
  8
VOLL
100
AcDbLine
 10
484.0
 20
484.0000000000001
 30
0.0
 11
584.0
 21
484.0
 31
0.0
  0
LINE
  5
61
330
1E
100
AcDbEntity
  8
VOLL
100
AcDbLine
 10
484.0000000000001
 20
524.0000000000001
 30
0.0
 11
584.0000000000001
 21
524.0
 31
0.0
  0
LINE
  5
62
330
1E
100
AcDbEntity
  8
VOLL
100
AcDbLine
 10
484.0000000000001
 20
544.0000000000002
 30
0.0
 11
584.0000000000001
 21
544.0
 31
0.0
  0
LINE
  5
63
330
1E
100
AcDbEntity
  8
VOLL
100
AcDbLine
 10
514.0
 20
584.0000000000002
 30
0.0
 11
554.0
 21
584.0000000000002
 31
0.0
  0
LINE
  5
64
330
1E
100
AcDbEntity
  8
VOLL
100
AcDbLine
 10
484.0000000000002
 20
610.0000000000002
 30
0.0
 11
554.0
 21
610.0
 31
0.0
  0
LINE
  5
65
330
1E
100
AcDbEntity
  8
HILF
100
AcDbLine
 10
494.0
 20
470.0000000000001
 30
0.0
 11
494.0
 21
566.0000000000002
 31
0.0
  0
LINE
  5
66
330
1E
100
AcDbEntity
  8
HILF
100
AcDbLine
 10
504.0
 20
470.0000000000001
 30
0.0
 11
504.0
 21
566.0000000000002
 31
0.0
  0
LINE
  5
67
330
1E
100
AcDbEntity
  8
HILF
100
AcDbLine
 10
514.0
 20
470.0000000000001
 30
0.0
 11
514.0
 21
566.0000000000002
 31
0.0
  0
LINE
  5
68
330
1E
100
AcDbEntity
  8
HILF
100
AcDbLine
 10
524.0
 20
470.0000000000001
 30
0.0
 11
524.0
 21
566.0000000000002
 31
0.0
  0
LINE
  5
69
330
1E
100
AcDbEntity
  8
HILF
100
AcDbLine
 10
534.0
 20
470.0000000000001
 30
0.0
 11
534.0
 21
566.0000000000002
 31
0.0
  0
LINE
  5
6A
330
1E
100
AcDbEntity
  8
HILF
100
AcDbLine
 10
544.0
 20
470.0000000000001
 30
0.0
 11
544.0
 21
566.0000000000002
 31
0.0
  0
LINE
  5
6B
330
1E
100
AcDbEntity
  8
HILF
100
AcDbLine
 10
554.0
 20
470.0000000000001
 30
0.0
 11
554.0
 21
566.0000000000002
 31
0.0
  0
LINE
  5
6C
330
1E
100
AcDbEntity
  8
HILF
100
AcDbLine
 10
524.0
 20
566.0000000000002
 30
0.0
 11
524.0
 21
650.0
 31
0.0
  0
LINE
  5
6D
330
1E
100
AcDbEntity
  8
HILF
100
AcDbLine
 10
534.0
 20
566.0000000000002
 30
0.0
 11
534.0
 21
650.0
 31
0.0
  0
LINE
  5
6E
330
1E
100
AcDbEntity
  8
HILF
100
AcDbLine
 10
544.0
 20
566.0000000000002
 30
0.0
 11
544.0
 21
650.0
 31
0.0
  0
LINE
  5
6F
330
1E
100
AcDbEntity
  8
HILF
100
AcDbLine
 10
509.9624175243587
 20
654.7736801096948
 30
0.0
 11
509.9624175243587
 21
746.6297842514811
 31
0.0
  0
LINE
  5
70
330
1E
100
AcDbEntity
  8
HILF
100
AcDbLine
 10
524.0
 20
654.7736801096948
 30
0.0
 11
524.0
 21
746.6297842514811
 31
0.0
  0
LINE
  5
71
330
1E
100
AcDbEntity
  8
HILF
100
AcDbLine
 10
534.0
 20
654.7736801096948
 30
0.0
 11
534.0
 21
746.6297842514811
 31
0.0
  0
LINE
  5
72
330
1E
100
AcDbEntity
  8
HILF
100
AcDbLine
 10
544.0
 20
654.7736801096948
 30
0.0
 11
544.0
 21
746.6297842514811
 31
0.0
  0
LINE
  5
73
330
1E
100
AcDbEntity
  8
VOLL
100
AcDbLine
 10
534.0
 20
752.0000000000002
 30
0.0
 11
534.0
 21
830.0000000000002
 31
0.0
  0
LINE
  5
74
330
1E
100
AcDbEntity
  8
HILF
100
AcDbLine
 10
510.2201636304418
 20
756.7238616296995
 30
0.0
 11
510.2201636304418
 21
824.858883932673
 31
0.0
  0
LINE
  5
75
330
1E
100
AcDbEntity
  8
HILF
100
AcDbLine
 10
579.1060174197169
 20
654.7736801096948
 30
0.0
 11
579.1060174197169
 21
824.858883932673
 31
0.0
  0
TEXT
  5
76
330
1E
100
AcDbEntity
  8
TEXT
100
AcDbText
 10
575.3261810501587
 20
492.3998239263297
 30
0.0
 40
4.0
  1
Änderung
 50
90.0
 41
0.8
  7
GREEKS
 72
     1
 11
575.3261810501587
 21
503.1426810691868
 31
0.0
100
AcDbText
  0
TEXT
  5
78
330
1E
100
AcDbEntity
  8
TEXT
100
AcDbText
 10
491.5379104912911
 20
573.5163572150376
 30
0.0
 40
5.0
  1
Maßstab
 50
90.0
 41
0.8
  7
GREEKS
100
AcDbText
  0
TEXT
  5
79
330
1E
100
AcDbEntity
  8
TEXT
100
AcDbText
 10
491.4510671988221
 20
654.8779403809009
 30
0.0
 40
5.0
  1
Benennung
 50
90.0
 41
0.8
  7
GREEKS
100
AcDbText
  0
TEXT
  5
7A
330
1E
100
AcDbEntity
  8
TEXT
100
AcDbText
 10
491.6867965462863
 20
756.1787549576343
 30
0.0
 40
5.0
  1
Zeichnungs Nr.
 50
90.0
 41
0.8
  7
GREEKS
100
AcDbText
  0
TEXT
  5
7B
330
1E
100
AcDbEntity
  8
TEXT
100
AcDbText
 10
563.1543942980694
 20
654.7422383911359
 30
0.0
 40
5.0
  1
Bauvorhaben
 50
90.0
 41
0.8
  7
GREEKS
100
AcDbText
  0
TEXT
  5
7C
330
1E
100
AcDbEntity
  8
TEXT
100
AcDbText
 10
520.8188176290003
 20
756.7238616296995
 30
0.0
 40
5.0
  1
Ersatz für:
 50
90.0
 41
0.8
  7
GREEKS
100
AcDbText
  0
TEXT
  5
7D
330
1E
100
AcDbEntity
  8
TEXT
100
AcDbText
 10
580.3453415397281
 20
478.2664110704577
 30
0.0
 40
4.0
  1
Index
 50
180.0
 41
0.8
  7
GREEKS
100
AcDbText
  0
TEXT
  5
7E
330
1E
100
AcDbEntity
  8
TEXT
100
AcDbText
 10
575.3284373066019
 20
529.8990113186978
 30
0.0
 40
4.0
  1
Tag
 50
90.0
 41
0.8
  7
GREEKS
 72
     1
 11
575.3284373066019
 21
533.6323446520311
 31
0.0
100
AcDbText
  0
TEXT
  5
7F
330
1E
100
AcDbEntity
  8
TEXT
100
AcDbText
 10
575.4067578303359
 20
548.9795678138292
 30
0.0
 40
4.0
  1
Name
 50
90.0
 41
0.8
  7
GREEKS
 72
     1
 11
575.4067578303359
 21
555.3033773376387
 31
0.0
100
AcDbText
  0
TEXT
  5
80
330
1E
100
AcDbEntity
  8
TEXT
100
AcDbText
 10
520.6811949877008
 20
592.3311673153651
 30
0.0
 40
4.0
  1
Tag
 50
90.0
 41
0.8
  7
GREEKS
100
AcDbText
  0
TEXT
  5
81
330
1E
100
AcDbEntity
  8
TEXT
100
AcDbText
 10
520.6903890808478
 20
622.4626584226296
 30
0.0
 40
4.0
  1
Name
 50
90.0
 41
0.8
  7
GREEKS
100
AcDbText
  0
TEXT
  5
82
330
1E
100
AcDbEntity
  8
TEXT
100
AcDbText
 10
530.3700963038204
 20
567.5836127167615
 30
0.0
 40
4.0
  1
Gez.
 50
90.0
 41
0.8
  7
GREEKS
100
AcDbText
  0
TEXT
  5
83
330
1E
100
AcDbEntity
  8
TEXT
100
AcDbText
 10
540.3107370857163
 20
567.5515086571672
 30
0.0
 40
4.0
  1
Gepr.
 50
90.0
 41
0.8
  7
GREEKS
100
AcDbText
  0
TEXT
  5
84
330
1E
100
AcDbEntity
  8
TEXT
100
AcDbText
 10
550.470536103502
 20
567.6006777387303
 30
0.0
 40
4.0
  1
Norm.
 50
90.0
 41
0.8
  7
GREEKS
100
AcDbText
  0
TEXT
  5
85
330
1E
100
AcDbEntity
  8
TEXT
100
AcDbText
 10
541.925838221214
 20
757.2400861497007
 30
0.0
 40
5.0
  1
ersetzt durch:
 50
90.0
 41
0.8
  7
GREEKS
100
AcDbText
  0
TEXT
  5
86
330
1E
100
AcDbEntity
  8
TEXT
100
AcDbText
 10
521.0331740347627
 20
568.8693027807324
 30
0.0
 40
4.0
  1
2011
 50
90.0
 41
0.8
  7
GREEKS
100
AcDbText
  0
LINE
  5
87
330
1E
100
AcDbEntity
  8
HILF
100
AcDbLine
 10
594.0
 20
-0.0000000000000568
 30
0.0
 11
594.0
 21
840.0
 31
0.0
  0
LINE
  5
88
330
1E
100
AcDbEntity
  8
HILF
100
AcDbLine
 10
594.0
 20
840.0
 30
0.0
 11
0.0
 21
840.0
 31
0.0
  0
LINE
  5
89
330
1E
100
AcDbEntity
  8
HILF
100
AcDbLine
 10
0.0
 20
840.0
 30
0.0
 11
0.0
 21
0.0
 31
0.0
  0
LINE
  5
8B
330
1E
100
AcDbEntity
  8
STEMPEL
100
AcDbLine
 10
10.0
 20
830.0
 30
0.0
 11
10.0
 21
39.99999999999995
 31
0.0
  0
LINE
  5
8D
330
1E
100
AcDbEntity
  8
STEMPEL
100
AcDbLine
 10
584.0
 20
39.99999999999995
 30
0.0
 11
584.0
 21
830.0
 31
0.0
  0
LINE
  5
8E
330
1E
100
AcDbEntity
  8
STEMPEL
100
AcDbLine
 10
584.0
 20
830.0
 30
0.0
 11
10.0
 21
830.0
 31
0.0
  0
TEXT
  5
8F
330
1E
100
AcDbEntity
  8
TEXT
 62
     1
100
AcDbText
 10
506.6265692434746
 20
655.0390572473189
 30
0.0
 40
7.0
  1
Drainlet-Sanierungsablauf
 50
90.0
 41
0.6800000000000001
  7
GREEKS
100
AcDbText
  0
TEXT
  5
90
330
1E
100
AcDbEntity
  8
TEXT
 62
     1
100
AcDbText
 10
506.6265692434746
 20
767.7294755517469
 30
0.0
 40
7.0
  1
21518125W
 50
90.0
 41
0.8
  7
GREEKS
 72
     1
 11
506.6265692434746
 21
790.1294755517469
 31
0.0
100
AcDbText
  0
TEXT
  5
91
330
1E
100
AcDbEntity
  8
TEXT
100
AcDbText
 10
491.16010388621
 20
618.5090226415829
 30
0.0
 40
5.0
  1
Zul.Abw.
 50
90.0
 41
0.8
  7
GREEKS
100
AcDbText
  0
TEXT
  5
93
330
1E
100
AcDbEntity
  8
TEXT
100
AcDbText
 10
530.8491412387978
 20
590.7660475607107
 30
0.0
 40
4.0
  1
21.01.
 50
90.0
 41
0.8
  7
GREEKS
 72
     1
 11
530.8491412387978
 21
597.1660475607107
 31
0.0
100
AcDbText
  0
TEXT
  5
94
330
1E
100
AcDbEntity
  8
TEXT
100
AcDbText
 10
531.0570234483452
 20
624.0231753226609
 30
0.0
 40
4.0
  1
Koeh
 50
90.0
 41
0.8
  7
GREEKS
 72
     1
 11
531.0570234483452
 21
629.2803181798038
 31
0.0
100
AcDbText
  0
TEXT
  5
95
330
1E
100
AcDbEntity
  8
TEXT
100
AcDbText
 10
521.8997861689246
 20
654.3410940884991
 30
0.0
 40
5.0
  1
DN125/DN150-KA
 50
90.0
 41
0.8
  7
GREEKS
100
AcDbText
  0
TEXT
  5
96
330
1E
100
AcDbEntity
  8
TEXT
100
AcDbText
 10
531.6544091479096
 20
654.3410940884991
 30
0.0
 40
5.0
  1

 50
90.0
 41
0.8
  7
GREEKS
100
AcDbText
  0
TEXT
  5
97
330
1E
100
AcDbEntity
  8
TEXT
100
AcDbText
 10
541.4090266215394
 20
654.3410940884991
 30
0.0
 40
5.0
  1
EDV-Art.Nr. 21518.125X
 50
90.0
 41
0.8
  7
GREEKS
100
AcDbText
  0
TEXT
  5
98
330
1E
100
AcDbEntity
  8
TEXT
100
AcDbText
 10
550.6887237520849
 20
654.1676050109347
 30
0.0
 40
4.0
  1
21518125W.DWG
 50
90.0
 41
0.8
  7
GREEKS
100
AcDbText
  0
TEXT
  5
99
330
1E
100
AcDbEntity
  8
TEXT
 62
     1
100
AcDbText
 10
506.5292291158502
 20
582.703491203422
 30
0.0
 40
7.0
  1
1:2
 50
90.0
 41
0.8
  7
GREEKS
100
AcDbText
  0
TEXT
  5
9A
330
1E
100
AcDbEntity
  8
TEXT
100
AcDbText
 10
479.8856414948956
 20
470.0441139350127
 30
0.0
 40
5.0
  1
Erstellt mit AUTOCAD 2004
 50
90.0
 41
0.8
  7
GREEKS
100
AcDbText
  0
INSERT
  5
9B
330
1E
100
AcDbEntity
  8
HILF
100
AcDbBlockReference
  2
LORO
 10
557.0194069970104
 20
573.0624985962354
 30
0.0
 41
2.0
 42
2.0
 43
2.0
 50
90.0
  0
LINE
  5
9C
330
1E
100
AcDbEntity
  8
BEM
100
AcDbLine
 10
594.0
 20
455.9999999999999
 30
0.0
 11
584.0
 21
455.9999999999999
 31
0.0
  0
LINE
  5
13E
330
1E
100
AcDbEntity
  8
HILF
100
AcDbLine
 10
594.0
 20
-0.0000000000000568
 30
0.0
 11
0.0
 21
0.0
 31
0.0
  0
LINE
  5
13F
330
1E
100
AcDbEntity
  8
STEMPEL
100
AcDbLine
 10
584.0
 20
39.99999999999995
 30
0.0
 11
10.0
 21
39.99999999999995
 31
0.0
  0
LINE
  5
14A
330
1E
100
AcDbEntity
  8
HILF
100
AcDbLine
 10
297.0
 20
-0.0000000000000568
 30
0.0
 11
297.0
 21
39.99999999999995
 31
0.0
  0
TEXT
  5
15B
330
1E
100
AcDbEntity
  8
BEM
100
AcDbText
 10
583.8320989200114
 20
837.3022923857165
 30
0.0
 40
4.0
  1
Diese Zeichnung ist urheberrechtlich geschützt und bleibt unser Eigentum. Sie darf weder ganz noch teilweise verfielfältigt und nicht an Dritte weitergegeben werden.
 50
180.0
 41
0.8
  7
GREEKS
100
AcDbText
  0
LINE
  5
19C
330
1E
100
AcDbEntity
  8
BEM
100
AcDbLine
 10
0.0
 20
455.9999999999999
 30
0.0
 11
10.0
 21
455.9999999999999
 31
0.0
  0
TEXT
  5
663
330
1E
100
AcDbEntity
  8
TEXT
100
AcDbText
 10
504.5307583482736
 20
612.2898419893275
 30
0.0
 40
4.0
  1
DIN EN1124-3
 50
90.0
 41
0.8
  7
GREEKS
 72
     1
 11
504.5307583482736
 21
629.2803181798038
 31
0.0
100
AcDbText
  0
TEXT
  5
B6D
330
1E
100
AcDbEntity
  8
TEXT
 62
     1
100
AcDbText
 10
358.5238785416029
 20
506.4304561637574
 30
0.0
 40
7.0
  1
EDV-Art.Nr. 21905.125X
 41
0.8
100
AcDbText
  0
LINE
  5
B6E
330
1E
100
AcDbEntity
  8
TEXT
 62
     2
100
AcDbLine
 10
463.8670872379818
 20
515.7229529715565
 30
0.0
 11
357.9285226628488
 21
515.7229529715565
 31
0.0
  0
TEXT
  5
B6F
330
1E
100
AcDbEntity
  8
TEXT
 62
     1
100
AcDbText
 10
358.5238785416029
 20
519.2067871324669
 30
0.0
 40
7.0
  1
Losflansch DN125
 41
0.8
100
AcDbText
  0
LINE
  5
B70
102
{ACAD_REACTORS
330
12F1
102
}
330
1E
100
AcDbEntity
  8
TEXT
 62
     2
100
AcDbLine
 10
357.9285226628488
 20
515.7229529715565
 30
0.0
 11
343.9178058391532
 21
551.1933717085184
 31
0.0
  0
LINE
  5
B74
330
1E
100
AcDbEntity
  8
TEXT
 62
     2
100
AcDbLine
 10
359.5658566204503
 20
478.2513289394181
 30
0.0
 11
316.8549023496686
 21
543.5797645872361
 31
0.0
  0
TEXT
  5
B76
330
1E
100
AcDbEntity
  8
TEXT
 62
     1
100
AcDbText
 10
355.50783693552
 20
293.0671859878095
 30
0.0
 40
7.0
  1
Ablaufkörper DN125
 41
0.8
  7
GREEKS
100
AcDbText
  0
LINE
  5
B77
330
1E
100
AcDbEntity
  8
TEXT
 62
     2
100
AcDbLine
 10
354.4271505366829
 20
289.4544177156157
 30
0.0
 11
274.8020855350313
 21
311.9541249950334
 31
0.0
  0
LINE
  5
B78
330
1E
100
AcDbEntity
  8
TEXT
 62
     2
100
AcDbLine
 10
460.0122578627017
 20
289.4544177156159
 30
0.0
 11
354.4271505366829
 21
289.4544177156157
 31
0.0
  0
TEXT
  5
B79
330
1E
100
AcDbEntity
  8
TEXT
 62
     1
100
AcDbText
 10
355.3272816413679
 20
280.0194138408302
 30
0.0
 40
7.0
  1
EDV-Art.Nr. 21519.125X
 41
0.8
  7
GREEKS
100
AcDbText
  0
TEXT
  5
BB1
330
1E
100
AcDbEntity
  8
TEXT
 62
     1
100
AcDbText
 10
360.5493400289861
 20
481.2378694314713
 30
0.0
 40
7.0
  1
Kompressionsdichtung
 41
0.8
100
AcDbText
  0
TEXT
  5
BB2
330
1E
100
AcDbEntity
  8
TEXT
 62
     1
100
AcDbText
 10
360.9052990318228
 20
467.6998561264229
 30
0.0
 40
7.0
  1
EDV-Art.Nr. 21810.150X
 41
0.8
100
AcDbText
  0
LINE
  5
BB3
330
1E
100
AcDbEntity
  8
TEXT
 62
     2
100
AcDbLine
 10
359.5658566204503
 20
478.2513289394181
 30
0.0
 11
465.3532546630438
 21
478.2513289394181
 31
0.0
  0
LINE
  5
DD0
330
1E
100
AcDbEntity
  8
STEMPEL
100
AcDbLine
 10
319.6042165676483
 20
631.528546731256
 30
0.0
 11
318.6042165676483
 21
631.528546731256
 31
0.0
  0
LINE
  5
DD1
330
1E
100
AcDbEntity
  8
STEMPEL
100
AcDbLine
 10
339.6042165676482
 20
567.528546731255
 30
0.0
 11
339.6042165676484
 21
566.5285467312547
 31
0.0
  0
LINE
  5
DD2
330
1E
100
AcDbEntity
  8
STEMPEL
100
AcDbLine
 10
334.3647188222976
 20
572.7226391483276
 30
0.0
 11
334.3647188222974
 21
569.1285467312551
 31
0.0
  0
LINE
  5
DD3
330
1E
100
AcDbEntity
  8
STEMPEL
100
AcDbLine
 10
337.1252210769469
 20
572.7462995204518
 30
0.0
 11
337.1252210769469
 21
569.1285467312551
 31
0.0
  0
LINE
  5
DD4
330
1E
100
AcDbEntity
  8
STEMPEL
100
AcDbLine
 10
335.6042165676484
 20
567.5285467312547
 30
0.0
 11
335.6042165676484
 21
566.5285467312547
 31
0.0
  0
LINE
  5
DD5
330
1E
100
AcDbEntity
  8
STEMPEL
100
AcDbLine
 10
337.6042165676481
 20
569.1285467312549
 30
0.0
 11
337.6042165676481
 21
567.528546731255
 31
0.0
  0
LINE
  5
DD6
330
1E
100
AcDbEntity
  8
STEMPEL
100
AcDbLine
 10
337.1252210769469
 20
572.7462995204519
 30
0.0
 11
336.9184629451545
 21
572.8656713834993
 31
0.0
  0
ARC
  5
DD7
330
1E
100
AcDbEntity
  8
STEMPEL
100
AcDbCircle
 10
335.7449699496222
 20
570.9483917453759
 30
0.0
 40
2.247898356545996
100
AcDbArc
 50
58.53080548383034
 51
127.8806357171815
  0
LINE
  5
DD8
330
1E
100
AcDbEntity
  8
STEMPEL
100
AcDbLine
 10
335.7410107242629
 20
573.196290065655
 30
0.0
 11
335.744566157259
 21
573.196290065655
 31
0.0
  0
LINE
  5
DD9
330
1E
100
AcDbEntity
  8
STEMPEL
100
AcDbLine
 10
334.6042165676481
 20
566.5285467312549
 30
0.0
 11
339.6042165676484
 21
566.5285467312547
 31
0.0
  0
LINE
  5
DDA
330
1E
100
AcDbEntity
  8
STEMPEL
100
AcDbLine
 10
333.9542165676496
 20
559.128546731255
 30
0.0
 11
334.6042165676497
 21
559.7785467312551
 31
0.0
  0
LINE
  5
DDB
330
1E
100
AcDbEntity
  8
STEMPEL
100
AcDbLine
 10
339.1042165676483
 20
566.5285467312551
 30
0.0
 11
339.2628353164398
 21
557.4412846990685
 31
0.0
  0
LINE
  5
DDC
330
1E
100
AcDbEntity
  8
HILF
100
AcDbLine
 10
333.9542165676491
 20
567.5285467312549
 30
0.0
 11
333.9542165676496
 21
559.1285467312541
 31
0.0
  0
LINE
  5
DDD
330
1E
100
AcDbEntity
  8
STEMPEL
100
AcDbLine
 10
334.6042165676486
 20
567.528546731255
 30
0.0
 11
334.6042165676504
 21
559.7785467312551
 31
0.0
  0
LINE
  5
DDE
330
1E
100
AcDbEntity
  8
STEMPEL
100
AcDbLine
 10
319.6042165676483
 20
591.528546731256
 30
0.0
 11
318.6042165676483
 21
591.528546731256
 31
0.0
  0
LWPOLYLINE
  5
DDF
330
1E
100
AcDbEntity
  8
STEMPEL
100
AcDbPolyline
 90
        7
 70
   128
 43
0.0
 10
317.9124722417322
 20
585.490600787094
 10
317.7746432321619
 20
584.7384945501556
 10
317.6557789551957
 20
583.8157809394409
 10
317.5594309532945
 20
582.7500296895366
 10
317.4884780057564
 20
581.5730843527155
 10
317.4450401137484
 20
580.3201108463135
 10
317.4304151568508
 20
579.0285467312543
  0
LINE
  5
DE0
330
1E
100
AcDbEntity
  8
STEMPEL
100
AcDbLine
 10
326.0832120583495
 20
572.7462995204519
 30
0.0
 11
326.0832120583495
 21
569.1285467312551
 31
0.0
  0
LINE
  5
DE1
330
1E
100
AcDbEntity
  8
STEMPEL
100
AcDbLine
 10
328.8437143129988
 20
572.7226391483276
 30
0.0
 11
328.8437143129988
 21
569.1285467312551
 31
0.0
  0
LINE
  5
DE2
330
1E
100
AcDbEntity
  8
STEMPEL
100
AcDbLine
 10
325.6042165676481
 20
569.1285467312551
 30
0.0
 11
325.6042165676481
 21
567.528546731255
 31
0.0
  0
LINE
  5
DE3
330
1E
100
AcDbEntity
  8
STEMPEL
100
AcDbLine
 10
327.6042165676483
 20
567.5285467312552
 30
0.0
 11
327.6042165676483
 21
566.5285467312547
 31
0.0
  0
ARC
  5
DE4
330
1E
100
AcDbEntity
  8
STEMPEL
100
AcDbCircle
 10
327.4634631856741
 20
570.9483917453759
 30
0.0
 40
2.247898356545996
100
AcDbArc
 50
52.11936428281847
 51
121.4691945163685
  0
LINE
  5
DE5
330
1E
100
AcDbEntity
  8
STEMPEL
100
AcDbLine
 10
326.0832120583495
 20
572.7462995204519
 30
0.0
 11
326.2899701901349
 21
572.8656713834953
 31
0.0
  0
LINE
  5
DE6
330
1E
100
AcDbEntity
  8
STEMPEL
100
AcDbLine
 10
328.6042165676497
 20
559.7785467312551
 30
0.0
 11
329.2542165676493
 21
559.128546731255
 31
0.0
  0
LINE
  5
DE7
330
1E
100
AcDbEntity
  8
HILF
100
AcDbLine
 10
329.2542165676498
 20
567.5285467312551
 30
0.0
 11
329.2542165676502
 21
559.1285467312541
 31
0.0
  0
LINE
  5
DE8
330
1E
100
AcDbEntity
  8
STEMPEL
100
AcDbLine
 10
328.6042165676477
 20
567.5285467312551
 30
0.0
 11
328.6042165676497
 21
559.7785467312544
 31
0.0
  0
LWPOLYLINE
  5
DE9
330
1E
100
AcDbEntity
  8
STEMPEL
100
AcDbPolyline
 90
        7
 70
   128
 43
0.0
 10
-320.0508743405216
 20
567.5285467312566
 10
-319.3741724654442
 20
568.1381474591156
 10
-318.7746230418102
 20
568.8657065430272
 10
-318.2683343686606
 20
569.6916764047075
 10
-317.868909076615
 20
570.5938654299106
 10
-317.5870786613521
 20
571.5480341981042
 10
-317.4304151568506
 20
572.5285467312565
210
0.0
220
0.0
230
-1.0
  0
LINE
  5
DEA
330
1E
100
AcDbEntity
  8
STEMPEL
100
AcDbLine
 10
321.014988510284
 20
567.5285467312561
 30
0.0
 11
320.0508743405213
 21
567.5285467312561
 31
0.0
  0
LWPOLYLINE
  5
DEB
330
1E
100
AcDbEntity
  8
STEMPEL
100
AcDbPolyline
 90
       10
 70
   128
 43
0.0
 10
-323.9005180576441
 20
566.5285467312572
 10
-323.0424450613714
 20
566.5946739458299
 10
-322.1896328617491
 20
566.8472276955601
 10
-321.3688745548321
 20
567.2782734118777
 10
-320.6059561884331
 20
567.8742687823175
 10
-319.924846632934
 20
568.6164892140381
 10
-319.3469445429883
 20
569.4816161108357
 10
-318.890406068582
 20
570.4424694815518
 10
-318.5695744369845
 20
571.4688618632639
 10
-318.3945293266134
 20
572.5285467312565
210
0.0
220
0.0
230
-1.0
  0
ARC
  5
DEC
330
1E
100
AcDbEntity
  8
STEMPEL
100
AcDbCircle
 10
324.6042165676485
 20
572.5285467312552
 30
0.0
 40
5.0
100
AcDbArc
 50
180.0
 51
270.0
  0
LINE
  5
DED
330
1E
100
AcDbEntity
  8
STEMPEL
100
AcDbLine
 10
323.945597818857
 20
557.4412846990687
 30
0.0
 11
324.1042165676483
 21
566.5285467312549
 31
0.0
  0
ARC
  5
DEE
330
1E
100
AcDbEntity
  8
STEMPEL
100
AcDbCircle
 10
324.6042165676485
 20
572.5285467312552
 30
0.0
 40
6.0
100
AcDbArc
 50
180.0
 51
270.0
  0
LINE
  5
DEF
330
1E
100
AcDbEntity
  8
STEMPEL
100
AcDbLine
 10
318.3945293266134
 20
579.0285467312543
 30
0.0
 11
318.3945293266134
 21
572.5285467312565
 31
0.0
  0
LINE
  5
DF0
330
1E
100
AcDbEntity
  8
STEMPEL
100
AcDbLine
 10
317.4304151568507
 20
579.0285467312543
 30
0.0
 11
317.4304151568507
 21
572.5285467312565
 31
0.0
  0
LINE
  5
DF1
330
1E
100
AcDbEntity
  8
STEMPEL
100
AcDbLine
 10
339.6042165676481
 20
567.5285467312547
 30
0.0
 11
324.6042165676482
 21
567.5285467312552
 31
0.0
  0
LINE
  5
DF2
330
1E
100
AcDbEntity
  8
STEMPEL
100
AcDbLine
 10
337.6042165676484
 20
567.5285467312547
 30
0.0
 11
325.6042165676481
 21
567.5285467312552
 31
0.0
  0
LINE
  5
DF3
330
1E
100
AcDbEntity
  8
STEMPEL
100
AcDbLine
 10
325.6042165676481
 20
569.1285467312551
 30
0.0
 11
337.6042165676481
 21
569.1285467312549
 31
0.0
  0
LINE
  5
DF4
330
1E
100
AcDbEntity
  8
STEMPEL
100
AcDbLine
 10
327.4638669780222
 20
573.196290065655
 30
0.0
 11
335.744566156765
 21
573.196290065655
 31
0.0
  0
ARC
  5
DF5
330
1E
100
AcDbEntity
  8
STEMPEL
100
AcDbCircle
 10
331.6042165676481
 20
564.9151724720551
 30
0.0
 40
8.281117593600001
100
AcDbArc
 50
70.52782738138624
 51
109.4721726186137
  0
LINE
  5
DF6
330
1E
100
AcDbEntity
  8
STEMPEL
100
AcDbLine
 10
329.2542165676493
 20
559.128546731255
 30
0.0
 11
333.9542165676496
 21
559.128546731255
 31
0.0
  0
LINE
  5
DF7
330
1E
100
AcDbEntity
  8
STEMPEL
100
AcDbLine
 10
328.6042165676497
 20
559.7785467312551
 30
0.0
 11
334.6042165676497
 21
559.7785467312551
 31
0.0
  0
LINE
  5
DF8
330
1E
100
AcDbEntity
  8
STEMPEL
100
AcDbLine
 10
319.6042165676486
 20
636.5284887639392
 30
0.0
 11
319.6042165676486
 21
572.5285467312552
 31
0.0
  0
LINE
  5
DF9
330
1E
100
AcDbEntity
  8
STEMPEL
100
AcDbLine
 10
318.6042165676485
 20
636.5284887639392
 30
0.0
 11
318.6042165676485
 21
572.5285467312552
 31
0.0
  0
ARC
  5
DFB
330
1E
100
AcDbEntity
  8
STEMPEL
100
AcDbCircle
 10
366.6042165676482
 20
549.5285467312545
 30
0.0
 40
3.0
100
AcDbArc
 50
270.0
 51
90.0
  0
LINE
  5
DFC
330
1E
100
AcDbEntity
  8
STEMPEL
100
AcDbLine
 10
374.6042165676481
 20
537.1498670748142
 30
0.0
 11
372.4828962240886
 21
535.0285467312544
 31
0.0
  0
LINE
  5
DFD
330
1E
100
AcDbEntity
  8
STEMPEL
100
AcDbLine
 10
374.6042165676481
 20
537.1498670748142
 30
0.0
 11
372.4828962240886
 21
539.2711874183739
 31
0.0
  0
ARC
  5
DFE
330
1E
100
AcDbEntity
  8
STEMPEL
100
AcDbCircle
 10
368.240255536969
 20
535.0285467312545
 30
0.0
 40
3.0
100
AcDbArc
 50
45.0
 51
90.0
  0
LINE
  5
DFF
330
1E
100
AcDbEntity
  8
STEMPEL
100
AcDbLine
 10
372.4828962240886
 20
535.0285467312545
 30
0.0
 11
370.3615758805286
 21
537.1498670748142
 31
0.0
  0
ARC
  5
E00
330
1E
100
AcDbEntity
  8
STEMPEL
100
AcDbCircle
 10
368.240255536969
 20
535.0285467312545
 30
0.0
 40
6.0
100
AcDbArc
 50
45.0
 51
90.0
  0
LINE
  5
E01
102
{ACAD_REACTORS
330
12F1
102
}
330
1E
100
AcDbEntity
  8
STEMPEL
100
AcDbLine
 10
374.6042165676482
 20
544.0285467312545
 30
0.0
 11
374.6042165676482
 21
541.0285467312546
 31
0.0
  0
LINE
  5
E02
330
1E
100
AcDbEntity
  8
STEMPEL
100
AcDbLine
 10
344.2620737922218
 20
552.5285467312548
 30
0.0
 11
366.6042165676482
 21
552.5285467312548
 31
0.0
  0
LINE
  5
E03
330
1E
100
AcDbEntity
  8
MITTEL
100
AcDbLine
 10
331.6042165676484
 20
578.1962900656551
 30
0.0
 11
331.6042165676516
 21
546.5285467312544
 31
0.0
  0
LINE
  5
E04
330
1E
100
AcDbEntity
  8
STEMPEL
100
AcDbLine
 10
333.9542165676497
 20
559.1285467312551
 30
0.0
 11
333.9542165676487
 21
546.5285467312543
 31
0.0
  0
LINE
  5
E05
330
1E
100
AcDbEntity
  8
HILF
100
AcDbLine
 10
334.6042165676504
 20
559.7785467312558
 30
0.0
 11
334.6042165676495
 21
546.5285467312544
 31
0.0
  0
LINE
  5
E06
330
1E
100
AcDbEntity
  8
STEMPEL
100
AcDbLine
 10
329.2542165676502
 20
559.1285467312541
 30
0.0
 11
329.2542165676487
 21
546.5285467312543
 31
0.0
  0
LINE
  5
E07
330
1E
100
AcDbEntity
  8
HILF
100
AcDbLine
 10
328.6042165676497
 20
559.7785467312551
 30
0.0
 11
328.6042165676479
 21
546.5285467312544
 31
0.0
  0
ARC
  5
E08
330
1E
100
AcDbEntity
  8
STEMPEL
100
AcDbCircle
 10
344.2620737922218
 20
557.5285467312548
 30
0.0
 40
4.99999999999995
100
AcDbArc
 50
181.0000000000017
 51
270.0
  0
ARC
  5
E09
330
1E
100
AcDbEntity
  8
STEMPEL
100
AcDbCircle
 10
318.9463593430751
 20
557.5285467312551
 30
0.0
 40
5.0
100
AcDbArc
 50
270.0
 51
358.9999999999982
  0
ARC
  5
E0B
330
1E
100
AcDbEntity
  8
STEMPEL
100
AcDbCircle
 10
289.6042165676486
 20
650.5285467312543
 30
0.0
 40
5.0
100
AcDbArc
 50
59.46264995170093
 51
90.0
  0
ARC
  5
E0C
330
1E
100
AcDbEntity
  8
STEMPEL
100
AcDbCircle
 10
289.6042165676486
 20
650.5285467312543
 30
0.0
 40
6.0
100
AcDbArc
 50
90.0
 51
90.0
  0
ARC
  5
E0D
330
1E
100
AcDbEntity
  8
STEMPEL
100
AcDbCircle
 10
289.6042165676486
 20
650.5285467312543
 30
0.0
 40
6.0
100
AcDbArc
 50
59.48712567237889
 51
90.0
  0
ARC
  5
E0E
330
1E
100
AcDbEntity
  8
STEMPEL
100
AcDbCircle
 10
232.4456549513511
 20
656.5285467312543
 30
0.0
 40
1.5
100
AcDbArc
 50
29.99999999999165
 51
90.0
  0
ARC
  5
E0F
330
1E
100
AcDbEntity
  8
STEMPEL
100
AcDbCircle
 10
232.4456549513511
 20
656.5285467312543
 30
0.0
 40
0.5
100
AcDbArc
 50
29.99999999999165
 51
90.0
  0
LINE
  5
E10
330
1E
100
AcDbEntity
  8
STEMPEL
100
AcDbLine
 10
232.245654951351
 20
657.0285467312543
 30
0.0
 11
232.4456549513511
 21
657.0285467312543
 31
0.0
  0
ARC
  5
E11
330
1E
100
AcDbEntity
  8
STEMPEL
100
AcDbCircle
 10
232.245654951351
 20
656.5285467312543
 30
0.0
 40
0.5
100
AcDbArc
 50
90.0
 51
149.9999999999938
  0
ARC
  5
E12
330
1E
100
AcDbEntity
  8
STEMPEL
100
AcDbCircle
 10
235.0437311627052
 20
658.0285467312543
 30
0.0
 40
1.5
100
AcDbArc
 50
209.9999999999917
 51
270.0
  0
ARC
  5
E13
330
1E
100
AcDbEntity
  8
STEMPEL
100
AcDbCircle
 10
235.0437311627052
 20
658.0285467312543
 30
0.0
 40
2.5
100
AcDbArc
 50
209.9999999999917
 51
270.0
  0
ARC
  5
E14
330
1E
100
AcDbEntity
  8
STEMPEL
100
AcDbCircle
 10
229.6475787399987
 20
658.0285467312543
 30
0.0
 40
1.5
100
AcDbArc
 50
270.0
 51
329.9999999999938
  0
ARC
  5
E15
330
1E
100
AcDbEntity
  8
STEMPEL
100
AcDbCircle
 10
229.6475787399987
 20
658.0285467312543
 30
0.0
 40
2.5
100
AcDbArc
 50
270.0
 51
329.9999999999938
  0
ARC
  5
E16
330
1E
100
AcDbEntity
  8
STEMPEL
100
AcDbCircle
 10
232.245654951351
 20
656.5285467312543
 30
0.0
 40
1.5
100
AcDbArc
 50
90.0
 51
149.9999999999938
  0
ARC
  5
E17
330
1E
100
AcDbEntity
  8
STEMPEL
100
AcDbCircle
 10
220.5956549513512
 20
656.5285467312543
 30
0.0
 40
0.5
100
AcDbArc
 50
30.00000000000055
 51
90.0
  0
ARC
  5
E18
330
1E
100
AcDbEntity
  8
STEMPEL
100
AcDbCircle
 10
220.5956549513512
 20
656.5285467312543
 30
0.0
 40
1.5
100
AcDbArc
 50
30.00000000000055
 51
90.0
  0
LINE
  5
E19
330
1E
100
AcDbEntity
  8
STEMPEL
100
AcDbLine
 10
220.3956549513512
 20
657.0285467312543
 30
0.0
 11
220.5956549513512
 21
657.0285467312543
 31
0.0
  0
ARC
  5
E1A
330
1E
100
AcDbEntity
  8
STEMPEL
100
AcDbCircle
 10
220.3956549513512
 20
656.5285467312543
 30
0.0
 40
0.5
100
AcDbArc
 50
90.0
 51
165.5224878140769
  0
ARC
  5
E1B
330
1E
100
AcDbEntity
  8
STEMPEL
100
AcDbCircle
 10
223.1937311627047
 20
658.0285467312543
 30
0.0
 40
2.5
100
AcDbArc
 50
210.0000000000005
 51
270.0
  0
ARC
  5
E1C
330
1E
100
AcDbEntity
  8
STEMPEL
100
AcDbCircle
 10
223.1937311627047
 20
658.0285467312543
 30
0.0
 40
1.5
100
AcDbArc
 50
210.0000000000005
 51
270.0
  0
LINE
  5
E1D
330
1E
100
AcDbEntity
  8
STEMPEL
100
AcDbLine
 10
223.1937311627047
 20
656.5285467312543
 30
0.0
 11
229.6475787399987
 21
656.5285467312543
 31
0.0
  0
LINE
  5
E1E
330
1E
100
AcDbEntity
  8
STEMPEL
100
AcDbLine
 10
223.1937311627047
 20
656.5285467312543
 30
0.0
 11
229.6475787399987
 21
656.5285467312543
 31
0.0
  0
ARC
  5
E1F
330
1E
100
AcDbEntity
  8
STEMPEL
100
AcDbCircle
 10
216.3339224125447
 20
656.5285467312543
 30
0.0
 40
1.5
100
AcDbArc
 50
14.47751218592945
 51
90.0
  0
ARC
  5
E20
330
1E
100
AcDbEntity
  8
STEMPEL
100
AcDbCircle
 10
218.270414085648
 20
657.0285467312543
 30
0.0
 40
0.5
100
AcDbArc
 50
194.4775121859295
 51
270.0
  0
ARC
  5
E21
330
1E
100
AcDbEntity
  8
STEMPEL
100
AcDbCircle
 10
218.270414085648
 20
657.0285467312543
 30
0.0
 40
1.5
100
AcDbArc
 50
194.4775121859295
 51
270.0
  0
ARC
  5
E22
330
1E
100
AcDbEntity
  8
STEMPEL
100
AcDbCircle
 10
216.3339224125447
 20
656.5285467312543
 30
0.0
 40
0.5
100
AcDbArc
 50
14.47751218592945
 51
90.0
  0
LINE
  5
E23
330
1E
100
AcDbEntity
  8
STEMPEL
100
AcDbLine
 10
218.270414085648
 20
656.5285467312543
 30
0.0
 11
218.4591632782471
 21
656.5285467312543
 31
0.0
  0
ARC
  5
E24
330
1E
100
AcDbEntity
  8
STEMPEL
100
AcDbCircle
 10
206.2456549513511
 20
656.5285467312543
 30
0.0
 40
1.5
100
AcDbArc
 50
90.0
 51
149.9999999999994
  0
ARC
  5
E25
330
1E
100
AcDbEntity
  8
STEMPEL
100
AcDbCircle
 10
203.6475787399984
 20
658.0285467312543
 30
0.0
 40
2.5
100
AcDbArc
 50
270.0
 51
329.9999999999995
  0
ARC
  5
E26
330
1E
100
AcDbEntity
  8
STEMPEL
100
AcDbCircle
 10
203.6475787399984
 20
658.0285467312543
 30
0.0
 40
1.5
100
AcDbArc
 50
270.0
 51
329.9999999999995
  0
ARC
  5
E27
330
1E
100
AcDbEntity
  8
STEMPEL
100
AcDbCircle
 10
206.2456549513511
 20
656.5285467312543
 30
0.0
 40
0.5
100
AcDbArc
 50
90.0
 51
149.9999999999994
  0
LINE
  5
E28
330
1E
100
AcDbEntity
  8
STEMPEL
100
AcDbLine
 10
206.2456549513511
 20
657.0285467312543
 30
0.0
 11
216.3339224125447
 21
657.0285467312543
 31
0.0
  0
ARC
  5
E29
330
1E
100
AcDbEntity
  8
STEMPEL
100
AcDbCircle
 10
194.5956549513512
 20
656.5285467312543
 30
0.0
 40
1.5
100
AcDbArc
 50
30.00000000000055
 51
90.0
  0
ARC
  5
E2A
330
1E
100
AcDbEntity
  8
STEMPEL
100
AcDbCircle
 10
194.5956549513512
 20
656.5285467312543
 30
0.0
 40
0.5
100
AcDbArc
 50
30.00000000000055
 51
90.0
  0
LINE
  5
E2B
330
1E
100
AcDbEntity
  8
STEMPEL
100
AcDbLine
 10
194.3956549513511
 20
657.0285467312543
 30
0.0
 11
194.5956549513512
 21
657.0285467312543
 31
0.0
  0
ARC
  5
E2C
330
1E
100
AcDbEntity
  8
STEMPEL
100
AcDbCircle
 10
197.1937311627041
 20
658.0285467312543
 30
0.0
 40
1.5
100
AcDbArc
 50
210.0000000000005
 51
270.0
  0
ARC
  5
E2D
330
1E
100
AcDbEntity
  8
STEMPEL
100
AcDbCircle
 10
197.1937311627041
 20
658.0285467312543
 30
0.0
 40
2.5
100
AcDbArc
 50
210.0000000000005
 51
270.0
  0
ARC
  5
E2E
330
1E
100
AcDbEntity
  8
STEMPEL
100
AcDbCircle
 10
191.7975787399974
 20
658.0285467312543
 30
0.0
 40
2.5
100
AcDbArc
 50
270.0
 51
329.9999999999995
  0
ARC
  5
E2F
330
1E
100
AcDbEntity
  8
STEMPEL
100
AcDbCircle
 10
191.7975787399974
 20
658.0285467312543
 30
0.0
 40
1.5
100
AcDbArc
 50
270.0
 51
329.9999999999995
  0
ARC
  5
E30
330
1E
100
AcDbEntity
  8
STEMPEL
100
AcDbCircle
 10
189.7387311627051
 20
658.0285467312543
 30
0.0
 40
1.5
100
AcDbArc
 50
210.0000000000005
 51
270.0
  0
ARC
  5
E31
330
1E
100
AcDbEntity
  8
STEMPEL
100
AcDbCircle
 10
189.7387311627051
 20
658.0285467312543
 30
0.0
 40
2.5
100
AcDbArc
 50
209.9999999999917
 51
270.0
  0
ARC
  5
E32
330
1E
100
AcDbEntity
  8
STEMPEL
100
AcDbCircle
 10
187.1406549513513
 20
656.5285467312543
 30
0.0
 40
1.5
100
AcDbArc
 50
29.99999999999165
 51
90.0
  0
ARC
  5
E33
330
1E
100
AcDbEntity
  8
STEMPEL
100
AcDbCircle
 10
187.1406549513513
 20
656.5285467312543
 30
0.0
 40
0.5
100
AcDbArc
 50
30.00000000000055
 51
90.0
  0
LINE
  5
E34
330
1E
100
AcDbEntity
  8
STEMPEL
100
AcDbLine
 10
186.9406549513512
 20
657.0285467312543
 30
0.0
 11
187.1406549513513
 21
657.0285467312543
 31
0.0
  0
ARC
  5
E35
330
1E
100
AcDbEntity
  8
STEMPEL
100
AcDbCircle
 10
186.9406549513512
 20
656.5285467312543
 30
0.0
 40
0.5
100
AcDbArc
 50
90.0
 51
149.9999999999994
  0
LINE
  5
E36
330
1E
100
AcDbEntity
  8
STEMPEL
100
AcDbLine
 10
189.7387311627051
 20
656.5285467312543
 30
0.0
 11
191.7975787399974
 21
656.5285467312543
 31
0.0
  0
LINE
  5
E37
330
1E
100
AcDbEntity
  8
STEMPEL
100
AcDbLine
 10
189.7387311627051
 20
656.5285467312543
 30
0.0
 11
191.7975787399974
 21
656.5285467312543
 31
0.0
  0
ARC
  5
E38
330
1E
100
AcDbEntity
  8
STEMPEL
100
AcDbCircle
 10
194.3956549513511
 20
656.5285467312543
 30
0.0
 40
1.5
100
AcDbArc
 50
90.0
 51
149.9999999999994
  0
ARC
  5
E39
330
1E
100
AcDbEntity
  8
STEMPEL
100
AcDbCircle
 10
194.3956549513511
 20
656.5285467312543
 30
0.0
 40
0.5
100
AcDbArc
 50
90.0
 51
149.9999999999994
  0
LINE
  5
E3A
330
1E
100
AcDbEntity
  8
STEMPEL
100
AcDbLine
 10
197.1937311627041
 20
656.5285467312543
 30
0.0
 11
203.6475787399984
 21
656.5285467312543
 31
0.0
  0
LINE
  5
E3B
330
1E
100
AcDbEntity
  8
STEMPEL
100
AcDbLine
 10
197.1937311627041
 20
656.5285467312543
 30
0.0
 11
203.6475787399984
 21
656.5285467312543
 31
0.0
  0
LINE
  5
E3C
330
1E
100
AcDbEntity
  8
STEMPEL
100
AcDbLine
 10
186.9406549513512
 20
658.0285467312543
 30
0.0
 11
232.4456549513511
 21
658.0285467312543
 31
0.0
  0
ARC
  5
E3D
330
1E
100
AcDbEntity
  8
STEMPEL
100
AcDbCircle
 10
218.4591632782471
 20
657.0285467312543
 30
0.0
 40
0.5
100
AcDbArc
 50
270.0
 51
345.5224878140768
  0
ARC
  5
E3E
330
1E
100
AcDbEntity
  8
STEMPEL
100
AcDbCircle
 10
220.3956549513512
 20
656.5285467312543
 30
0.0
 40
1.5
100
AcDbArc
 50
90.0
 51
165.5224878140769
  0
ARC
  5
E3F
330
1E
100
AcDbEntity
  8
STEMPEL
100
AcDbCircle
 10
218.4591632782471
 20
657.0285467312543
 30
0.0
 40
1.5
100
AcDbArc
 50
270.0
 51
345.5224878140768
  0
LINE
  5
E40
330
1E
100
AcDbEntity
  8
STEMPEL
100
AcDbLine
 10
235.0437311627052
 20
656.5285467312543
 30
0.0
 11
289.6042165676486
 21
656.5285467312548
 31
0.0
  0
ARC
  5
E41
330
1E
100
AcDbEntity
  8
STEMPEL
100
AcDbCircle
 10
319.1153601719601
 20
646.0483837137165
 30
0.0
 40
5.0
100
AcDbArc
 50
239.743562836472
 51
239.9329541615164
  0
ELLIPSE
  5
E42
330
1E
100
AcDbEntity
  8
STEMPEL
100
AcDbEllipse
 10
304.6453260940004
 20
624.0285467312562
 30
0.0
 11
0.0
 21
7.499999999999999
 31
0.0
210
0.0
220
0.0
230
-1.0
 40
0.4999999999999926
 41
4.712388980384689
 42
6.167183451052224
  0
ELLIPSE
  5
E43
330
1E
100
AcDbEntity
  8
STEMPEL
100
AcDbEllipse
 10
303.7772620743117
 20
624.0285467312562
 30
0.0
 11
0.0
 21
7.499999999999999
 31
0.0
210
0.0
220
0.0
230
-1.0
 40
0.4999999999999926
 41
4.712388980384689
 42
7.853981633974482
  0
ELLIPSE
  5
E44
330
1E
100
AcDbEntity
  8
STEMPEL
100
AcDbEllipse
 10
304.6453260940004
 20
599.0285467312578
 30
0.0
 11
0.0
 21
-7.499999999999999
 31
0.0
210
0.0
220
0.0
230
1.0
 40
0.4999999999999926
 41
4.712388980384689
 42
6.167183451052224
  0
LWPOLYLINE
  5
E45
330
1E
100
AcDbEntity
  8
STEMPEL
100
AcDbPolyline
 90
       18
 70
   128
 43
0.0
 10
312.9385421798795
 20
579.0285467312543
 10
312.8896728349632
 20
580.4066681148788
 10
312.7447289871432
 20
581.7378592276585
 10
312.508646525316
 20
582.9767879528353
 10
312.1894649545693
 20
584.0812640586046
 10
311.7980536204789
 20
585.0136759358575
 10
311.3477415665809
 20
585.7422714164187
 10
310.8538636297815
 20
586.2422390550519
 10
310.3332382308765
 20
586.4965530534687
 10
309.8035946434047
 20
586.4965530534687
 10
309.2829692444998
 20
586.2422390550519
 10
308.7890913077004
 20
585.7422714164187
 10
308.3387792538024
 20
585.0136759358575
 10
307.947367919712
 20
584.0812640586046
 10
307.6281863489653
 20
582.9767879528353
 10
307.3921038871381
 20
581.7378592276585
 10
307.247160039318
 20
580.4066681148788
 10
307.1982906944017
 20
579.0285467312543
  0
LWPOLYLINE
  5
E46
330
1E
100
AcDbEntity
  8
STEMPEL
100
AcDbPolyline
 90
        9
 70
   128
 43
0.0
 10
310.5314436053927
 20
586.4303049759193
 10
310.0423830621239
 20
586.1038720781619
 10
309.5827700942229
 20
585.5586030649048
 10
309.1668202905987
 20
584.8113628217768
 10
308.8073987613071
 20
583.8852630989992
 10
308.5156222264196
 20
582.808947677029
 10
308.3005151816815
 20
581.6157064293982
 10
308.168730775574
 20
580.3424456843222
 10
308.1243450309091
 20
579.0285467312559
  0
LINE
  5
E47
330
1E
100
AcDbEntity
  8
STEMPEL
100
AcDbLine
 10
315.0921138125481
 20
567.5285467312561
 30
0.0
 11
310.2779166635766
 21
567.5285467312561
 31
0.0
  0
LINE
  5
E4A
330
1E
100
AcDbEntity
  8
STEMPEL
100
AcDbLine
 10
311.39332408318
 20
565.0285467312553
 30
0.0
 11
311.39332408318
 21
562.5285467312547
 31
0.0
  0
LINE
  5
E4D
330
1E
100
AcDbEntity
  8
HILF
100
AcDbLine
 10
310.39332408318
 20
566.0285467312553
 30
0.0
 11
310.39332408318
 21
562.5285467312547
 31
0.0
  0
LINE
  5
E4E
330
1E
100
AcDbEntity
  8
STEMPEL
100
AcDbLine
 10
311.39332408318
 20
565.0285467312553
 30
0.0
 11
310.39332408318
 21
566.0285467312553
 31
0.0
  0
LINE
  5
E50
330
1E
100
AcDbEntity
  8
STEMPEL
100
AcDbLine
 10
301.39332408318
 20
565.0285467312553
 30
0.0
 11
301.39332408318
 21
562.5285467312547
 31
0.0
  0
LINE
  5
E51
330
1E
100
AcDbEntity
  8
STEMPEL
100
AcDbLine
 10
302.39332408318
 20
566.0285467312553
 30
0.0
 11
301.39332408318
 21
565.0285467312553
 31
0.0
  0
LINE
  5
E52
330
1E
100
AcDbEntity
  8
HILF
100
AcDbLine
 10
302.39332408318
 20
566.0285467312553
 30
0.0
 11
302.39332408318
 21
562.5285467312547
 31
0.0
  0
LWPOLYLINE
  5
E53
330
1E
100
AcDbEntity
  8
STEMPEL
100
AcDbPolyline
 90
       10
 70
   128
 43
0.0
 10
-312.0136552209757
 20
566.5285467312561
 10
-311.1774759461341
 20
566.6197002131829
 10
-310.3667035554315
 20
566.8903910065408
 10
-309.6059729576887
 20
567.3323943085494
 10
-308.9183985671699
 20
567.9322800725424
 10
-308.3248719838015
 20
568.6718210731371
 10
-307.8434272124803
 20
569.5285467312563
 10
-307.4886927089599
 20
570.4764258713023
 10
-307.2714469016257
 20
571.4866576652549
 10
-307.1982906944017
 20
572.5285467312565
210
0.0
220
0.0
230
-1.0
  0
LWPOLYLINE
  5
E54
330
1E
100
AcDbEntity
  8
STEMPEL
100
AcDbPolyline
 90
        7
 70
   128
 43
0.0
 10
-310.2779166635777
 20
567.5285467312561
 10
-309.6578261405134
 20
568.137884633097
 10
-309.1260059937299
 20
568.8653149063862
 10
-308.6967601939987
 20
569.6912724003299
 10
-308.3816338462014
 20
570.5935419507921
 10
-308.1891026692355
 20
571.5478558850354
 10
-308.1243450309091
 20
572.5285467312565
210
0.0
220
0.0
230
-1.0
  0
LINE
  5
E55
330
1E
100
AcDbEntity
  8
STEMPEL
100
AcDbLine
 10
310.39332408318
 20
566.0285467312553
 30
0.0
 11
302.39332408318
 21
566.0285467312553
 31
0.0
  0
LINE
  5
E57
330
1E
100
AcDbEntity
  8
STEMPEL
100
AcDbLine
 10
301.39332408318
 20
565.0285467312553
 30
0.0
 11
311.39332408318
 21
565.0285467312553
 31
0.0
  0
LINE
  5
E59
330
1E
100
AcDbEntity
  8
STEMPEL
100
AcDbLine
 10
307.1982906944017
 20
579.0285467312543
 30
0.0
 11
307.1982906944017
 21
572.5285467312577
 31
0.0
  0
LINE
  5
E5A
330
1E
100
AcDbEntity
  8
STEMPEL
100
AcDbLine
 10
312.9385421798795
 20
579.0285467312543
 30
0.0
 11
312.9385421798795
 21
572.5285467312577
 31
0.0
  0
LINE
  5
E5B
330
1E
100
AcDbEntity
  8
STEMPEL
100
AcDbLine
 10
308.124345030909
 20
579.0285467312543
 30
0.0
 11
308.124345030909
 21
572.5285467312577
 31
0.0
  0
LINE
  5
E5C
330
1E
100
AcDbEntity
  8
STEMPEL
100
AcDbLine
 10
316.4366364433129
 20
579.0285467312543
 30
0.0
 11
316.4366364433129
 21
572.5285467312554
 31
0.0
  0
LWPOLYLINE
  5
E5D
330
1E
100
AcDbEntity
  8
STEMPEL
100
AcDbPolyline
 90
       10
 70
   128
 43
0.0
 10
296.6700016799749
 20
586.5285467312575
 10
295.8771743341152
 20
586.4146048788491
 10
295.1084366459695
 20
586.0762413871516
 10
294.387146321192
 20
585.5237372596405
 10
293.7352194013105
 20
584.7738800546494
 10
293.1724643558948
 20
583.849453803906
 10
292.7159802122319
 20
582.7785467312566
 10
292.3796370100351
 20
581.593697806199
 10
292.1736543673051
 20
580.3309080637582
 10
292.104290962409
 20
579.0285467312559
  0
LWPOLYLINE
  5
E5E
330
1E
100
AcDbEntity
  8
STEMPEL
100
AcDbPolyline
 90
       18
 70
   128
 43
0.0
 10
300.4404915107199
 20
579.0285467312543
 10
300.3627516094598
 20
580.4066681148788
 10
300.1321792447779
 20
581.7378592276585
 10
299.7566262820128
 20
582.9767879528353
 10
299.2488817268851
 20
584.0812640586046
 10
298.6262362112471
 20
585.0136759358575
 10
297.909893181353
 20
585.7422714164187
 10
297.1242468399272
 20
586.2422390550519
 10
296.2960514308478
 20
586.4965530534687
 10
295.4535101554601
 20
586.4965530534687
 10
294.6253147463807
 20
586.2422390550519
 10
293.8396684049548
 20
585.7422714164187
 10
293.1233253750607
 20
585.0136759358575
 10
292.5006798594228
 20
584.0812640586046
 10
291.9929353042951
 20
582.9767879528353
 10
291.61738234153
 20
581.7378592276585
 10
291.3868099768481
 20
580.4066681148788
 10
291.309070075588
 20
579.0285467312543
  0
LWPOLYLINE
  5
E60
330
1E
100
AcDbEntity
  8
STEMPEL
100
AcDbPolyline
 90
        7
 70
   128
 43
0.0
 10
-294.0558677909272
 20
567.5285467312561
 10
-293.4939388176631
 20
568.137884633097
 10
-293.0120008780759
 20
568.8653149063862
 10
-292.6230162983261
 20
569.6912724003299
 10
-292.3374473072197
 20
570.5935419507921
 10
-292.1629746414237
 20
571.5478558850354
 10
-292.1042909624087
 20
572.5285467312565
210
0.0
220
0.0
230
-1.0
  0
LWPOLYLINE
  5
E61
330
1E
100
AcDbEntity
  8
STEMPEL
100
AcDbPolyline
 90
       10
 70
   128
 43
0.0
 10
-295.6727762501941
 20
566.5285467312561
 10
-294.9150266250998
 20
566.6197002131829
 10
-294.1803008389243
 20
566.8903910065408
 10
-293.4909231628911
 20
567.3323943085494
 10
-292.8678399888447
 20
567.9322800725424
 10
-292.3299833837333
 20
568.6718210731371
 10
-291.8936958483343
 20
569.5285467312563
 10
-291.5722337586391
 20
570.4764258713023
 10
-291.375364577575
 20
571.4866576652549
 10
-291.3090700755883
 20
572.5285467312565
210
0.0
220
0.0
230
-1.0
  0
LINE
  5
E62
330
1E
100
AcDbEntity
  8
STEMPEL
100
AcDbLine
 10
291.3090700755881
 20
579.0285467312543
 30
0.0
 11
291.3090700755881
 21
572.5285467312577
 31
0.0
  0
LINE
  5
E63
330
1E
100
AcDbEntity
  8
STEMPEL
100
AcDbLine
 10
292.1042909624089
 20
579.0285467312543
 30
0.0
 11
292.1042909624089
 21
572.5285467312577
 31
0.0
  0
LINE
  5
E64
330
1E
100
AcDbEntity
  8
STEMPEL
100
AcDbLine
 10
300.44049151072
 20
579.0285467312543
 30
0.0
 11
300.44049151072
 21
572.5285467312577
 31
0.0
  0
LWPOLYLINE
  5
E65
330
1E
100
AcDbEntity
  8
STEMPEL
100
AcDbPolyline
 90
       10
 70
   128
 43
0.0
 10
-304.8041976853259
 20
566.5285467312561
 10
-304.0464480602317
 20
566.6197002131829
 10
-303.3117222740561
 20
566.8903910065408
 10
-302.622344598023
 20
567.3323943085494
 10
-301.9992614239766
 20
567.9322800725424
 10
-301.4614048188652
 20
568.6718210731371
 10
-301.0251172834662
 20
569.5285467312563
 10
-300.703655193771
 20
570.4764258713023
 10
-300.5067860127069
 20
571.4866576652549
 10
-300.4404915107201
 20
572.5285467312565
210
0.0
220
0.0
230
-1.0
  0
LINE
  5
E66
330
1E
100
AcDbEntity
  8
STEMPEL
100
AcDbLine
 10
302.3920683392384
 20
567.5285467312561
 30
0.0
 11
294.0558677909265
 21
567.5285467312561
 31
0.0
  0
ELLIPSE
  5
E67
330
1E
100
AcDbEntity
  8
STEMPEL
100
AcDbEllipse
 10
303.7772620743117
 20
599.0285467312578
 30
0.0
 11
0.0
 21
-7.499999999999999
 31
0.0
210
0.0
220
0.0
230
1.0
 40
0.4999999999999926
 41
4.712388980384689
 42
7.853981633974482
  0
LINE
  5
E6C
330
1E
100
AcDbEntity
  8
STEMPEL
100
AcDbLine
 10
300.8953260940007
 20
599.0285467312562
 30
0.0
 11
300.8953260940007
 21
624.0285467312578
 31
0.0
  0
LINE
  5
E6D
330
1E
100
AcDbEntity
  8
STEMPEL
100
AcDbLine
 10
300.0272620743117
 20
624.0285467312562
 30
0.0
 11
300.0272620743117
 21
599.0285467312578
 31
0.0
  0
LINE
  5
E6E
330
1E
100
AcDbEntity
  8
STEMPEL
100
AcDbLine
 10
307.5272620743116
 20
624.0285467312562
 30
0.0
 11
307.5272620743116
 21
599.0285467312594
 31
0.0
  0
ELLIPSE
  5
E6F
330
1E
100
AcDbEntity
  8
STEMPEL
100
AcDbEllipse
 10
264.4762267367696
 20
624.0285467312562
 30
0.0
 11
0.0
 21
7.5
 31
0.0
210
0.0
220
0.0
230
-1.0
 40
0.8660254037843856
 41
4.712388980384689
 42
6.24459510668465
  0
ELLIPSE
  5
E70
330
1E
100
AcDbEntity
  8
STEMPEL
100
AcDbEllipse
 10
263.9750497413277
 20
624.0285467312562
 30
0.0
 11
0.0
 21
7.5
 31
0.0
210
0.0
220
0.0
230
-1.0
 40
0.8660254037843856
 41
4.712388980384689
 42
7.853981633974482
  0
LWPOLYLINE
  5
E71
330
1E
100
AcDbEntity
  8
STEMPEL
100
AcDbPolyline
 90
        9
 70
   128
 43
0.0
 10
276.1070459899715
 20
586.5186808090779
 10
274.9906382686004
 20
586.3113736726709
 10
273.9253590168581
 20
585.8421189452172
 10
272.9495240338198
 20
585.1277947080485
 10
272.0982320009619
 20
584.1940936646522
 10
271.4021020582254
 20
583.0745990294917
 10
270.886172499534
 20
581.809576612153
 10
270.5690001993182
 20
580.4445265429437
 10
270.46199316173
 20
579.0285467312559
  0
LWPOLYLINE
  5
E72
330
1E
100
AcDbEntity
  8
STEMPEL
100
AcDbPolyline
 90
       18
 70
   128
 43
0.0
 10
281.7520988182365
 20
579.0285467312543
 10
281.6507862064321
 20
580.4066681148788
 10
281.3502984505029
 20
581.7378592276585
 10
280.8608683005817
 20
582.9767879528353
 10
280.1991627134173
 20
584.0812640586046
 10
279.3877152791522
 20
585.0136759358575
 10
278.4541588669365
 20
585.7422714164187
 10
277.4302846207104
 20
586.2422390550519
 10
276.3509593499276
 20
586.4965530534687
 10
275.2529381821765
 20
586.4965530534687
 10
274.1736129113938
 20
586.2422390550519
 10
273.1497386651676
 20
585.7422714164187
 10
272.216182252952
 20
585.0136759358575
 10
271.4047348186868
 20
584.0812640586046
 10
270.7430292315224
 20
582.9767879528353
 10
270.2535990816012
 20
581.7378592276585
 10
269.953111325672
 20
580.4066681148788
 10
269.8517987138676
 20
579.0285467312543
  0
LWPOLYLINE
  5
E73
330
1E
100
AcDbEntity
  8
STEMPEL
100
AcDbPolyline
 90
        7
 70
   128
 43
0.0
 10
-272.1000162378352
 20
567.5285467312561
 10
-271.6283706372684
 20
568.137884633097
 10
-271.2238641608855
 20
568.8653149063862
 10
-270.8973765183965
 20
569.6912724003299
 10
-270.6576890049882
 20
570.5935419507921
 10
-270.5112483173623
 20
571.5478558850354
 10
-270.4619931617299
 20
572.5285467312565
210
0.0
220
0.0
230
-1.0
  0
LWPOLYLINE
  5
E74
330
1E
100
AcDbEntity
  8
STEMPEL
100
AcDbPolyline
 90
       10
 70
   128
 43
0.0
 10
-273.5144018493917
 20
566.5285467312561
 10
-272.8783974893907
 20
566.6197002131829
 10
-272.2617178000346
 20
566.8903910065408
 10
-271.6831002816296
 20
567.3323943085494
 10
-271.1601259346777
 20
567.9322800725424
 10
-270.7086850700732
 20
568.6718210731371
 10
-270.3424944900472
 20
569.5285467312563
 10
-270.0726807100723
 20
570.4764258713023
 10
-269.9074418853206
 20
571.4866576652549
 10
-269.8517987138675
 20
572.5285467312565
210
0.0
220
0.0
230
-1.0
  0
LINE
  5
E75
330
1E
100
AcDbEntity
  8
STEMPEL
100
AcDbLine
 10
283.3901218943418
 20
567.5285467312561
 30
0.0
 11
272.1000162378347
 21
567.5285467312561
 31
0.0
  0
LINE
  5
E76
330
1E
100
AcDbEntity
  8
STEMPEL
100
AcDbLine
 10
269.8517987138675
 20
579.0285467312543
 30
0.0
 11
269.8517987138675
 21
572.5285467312577
 31
0.0
  0
LINE
  5
E77
330
1E
100
AcDbEntity
  8
STEMPEL
100
AcDbLine
 10
270.4619931617299
 20
579.0285467312543
 30
0.0
 11
270.4619931617299
 21
572.5285467312577
 31
0.0
  0
LINE
  5
E78
330
1E
100
AcDbEntity
  8
STEMPEL
100
AcDbLine
 10
281.7520988182364
 20
579.0285467312543
 30
0.0
 11
281.7520988182364
 21
572.5285467312577
 31
0.0
  0
ELLIPSE
  5
E79
330
1E
100
AcDbEntity
  8
STEMPEL
100
AcDbEllipse
 10
264.4762267367696
 20
599.0285467312562
 30
0.0
 11
0.0
 21
-7.5
 31
0.0
210
0.0
220
0.0
230
1.0
 40
0.8660254037843856
 41
4.712388980384689
 42
6.24459510668465
  0
LWPOLYLINE
  5
E7A
330
1E
100
AcDbEntity
  8
STEMPEL
100
AcDbPolyline
 90
       10
 70
   128
 43
0.0
 10
-260.8692905075953
 20
566.5285467312561
 10
-260.3965605498418
 20
566.6197002131829
 10
-259.9381942526416
 20
566.8903910065408
 10
-259.5081188439908
 20
567.3323943085494
 10
-259.1194019475525
 20
567.9322800725424
 10
-258.7838545295249
 20
568.6718210731371
 10
-258.5116720284093
 20
569.5285467312563
 10
-258.3111245717712
 20
570.4764258713023
 10
-258.1883056925988
 20
571.4866576652549
 10
-258.1469471803863
 20
572.5285467312565
210
0.0
220
0.0
230
-1.0
  0
LINE
  5
E7B
330
1E
100
AcDbEntity
  8
STEMPEL
100
AcDbLine
 10
258.1469471803863
 20
579.0285467312543
 30
0.0
 11
258.1469471803863
 21
572.5285467312577
 31
0.0
  0
ELLIPSE
  5
E7C
330
1E
100
AcDbEntity
  8
STEMPEL
100
AcDbEllipse
 10
263.9750497413277
 20
599.0285467312562
 30
0.0
 11
0.0
 21
-7.5
 31
0.0
210
0.0
220
0.0
230
1.0
 40
0.8660254037843856
 41
4.712388980384689
 42
7.853981633974482
  0
LINE
  5
E7D
330
1E
100
AcDbEntity
  8
STEMPEL
100
AcDbLine
 10
270.4702402697105
 20
624.0285467312562
 30
0.0
 11
270.4702402697105
 21
599.0285467312578
 31
0.0
  0
LINE
  5
E7E
330
1E
100
AcDbEntity
  8
STEMPEL
100
AcDbLine
 10
257.9810362083867
 20
624.0285467312562
 30
0.0
 11
257.9810362083867
 21
599.0285467312562
 31
0.0
  0
LINE
  5
E7F
330
1E
100
AcDbEntity
  8
STEMPEL
100
AcDbLine
 10
257.4798592129448
 20
624.0285467312562
 30
0.0
 11
257.4798592129448
 21
599.0285467312562
 31
0.0
  0
LWPOLYLINE
  5
E80
330
1E
100
AcDbEntity
  8
STEMPEL
100
AcDbPolyline
 90
       10
 70
   128
 43
0.0
 10
-285.4147019537606
 20
566.5285467312561
 10
-284.7786975937596
 20
566.6197002131829
 10
-284.1620179044035
 20
566.8903910065408
 10
-283.5834003859984
 20
567.3323943085494
 10
-283.0604260390465
 20
567.9322800725424
 10
-282.6089851744421
 20
568.6718210731371
 10
-282.2427945944161
 20
569.5285467312563
 10
-281.9729808144412
 20
570.4764258713023
 10
-281.8077419896895
 20
571.4866576652549
 10
-281.7520988182364
 20
572.5285467312565
210
0.0
220
0.0
230
-1.0
  0
LINE
  5
E81
330
1E
100
AcDbEntity
  8
HILF
100
AcDbLine
 10
310.3933240831799
 20
546.5285467312544
 30
0.0
 11
310.3933240831799
 21
544.0285467312547
 31
0.0
  0
LINE
  5
E82
330
1E
100
AcDbEntity
  8
STEMPEL
100
AcDbLine
 10
311.3933240831799
 20
546.5285467312544
 30
0.0
 11
311.3933240831799
 21
544.0285467312547
 31
0.0
  0
LINE
  5
E83
330
1E
100
AcDbEntity
  8
STEMPEL
100
AcDbLine
 10
301.3933240831799
 20
546.5285467312544
 30
0.0
 11
301.3933240831799
 21
544.0285467312547
 31
0.0
  0
LINE
  5
E84
330
1E
100
AcDbEntity
  8
HILF
100
AcDbLine
 10
302.3933240831799
 20
546.5285467312544
 30
0.0
 11
302.3933240831799
 21
544.0285467312547
 31
0.0
  0
ARC
  5
E86
330
1E
100
AcDbEntity
  8
STEMPEL
100
AcDbCircle
 10
306.6042165676482
 20
549.5285467312545
 30
0.0
 40
3.0
100
AcDbArc
 50
90.0
 51
270.0
  0
LINE
  5
E87
102
{ACAD_REACTORS
330
12F1
102
}
330
1E
100
AcDbEntity
  8
STEMPEL
100
AcDbLine
 10
304.6042165676482
 20
544.0285467312545
 30
0.0
 11
304.6042165676482
 21
541.0285467312546
 31
0.0
  0
ARC
  5
E88
330
1E
100
AcDbEntity
  8
STEMPEL
100
AcDbCircle
 10
299.4472896060528
 20
535.0285467312546
 30
0.0
 40
3.0
100
AcDbArc
 50
90.0
 51
147.2999999999998
  0
ARC
  5
E89
330
1E
100
AcDbEntity
  8
STEMPEL
100
AcDbCircle
 10
299.4472896060528
 20
535.0285467312546
 30
0.0
 40
6.0
100
AcDbArc
 50
90.0
 51
147.2999999999998
  0
LINE
  5
E8A
330
1E
100
AcDbEntity
  8
STEMPEL
100
AcDbLine
 10
285.3542165676482
 20
524.1824978702971
 30
0.0
 11
287.8787489134842
 21
522.5617769088642
 31
0.0
  0
ARC
  5
E8B
330
1E
100
AcDbEntity
  8
SCHRAFF
100
AcDbCircle
 10
287.0372381315389
 20
523.1020172293417
 30
0.0
 40
2.0
100
AcDbArc
 50
237.2999999999999
 51
27.29999999999825
  0
LINE
  5
E8C
330
1E
100
AcDbEntity
  8
STEMPEL
100
AcDbLine
 10
296.9227572602168
 20
536.6492676926875
 30
0.0
 11
287.8787489134842
 21
522.5617769088642
 31
0.0
  0
LINE
  5
E93
102
{ACAD_REACTORS
330
12F1
102
}
330
1E
100
AcDbEntity
  8
MITTEL
100
AcDbLine
 10
306.39332408318
 20
571.0285467312553
 30
0.0
 11
306.3933240831799
 21
541.0285467312542
 31
0.0
  0
LWPOLYLINE
  5
E94
330
1E
100
AcDbEntity
  8
STEMPEL
100
AcDbPolyline
 90
        9
 70
   128
 43
0.0
 10
251.4096428193627
 20
586.5256731542944
 10
250.0854333690329
 20
586.3468402472466
 10
248.8174539718468
 20
585.8965643299224
 10
247.6527352837612
 20
585.1915465977834
 10
246.6344779151545
 20
584.2579368813998
 10
245.8004500758923
 20
583.1303637224237
 10
245.1815867136984
 20
581.8506499654719
 10
244.8008421052242
 20
580.4662615059364
 10
244.6723384583923
 20
579.0285467312559
  0
LWPOLYLINE
  5
E95
330
1E
100
AcDbEntity
  8
STEMPEL
100
AcDbPolyline
 90
        7
 70
   128
 43
0.0
 10
-245.8898498911215
 20
567.5285467312561
 10
-245.5392846767095
 20
568.137884633097
 10
-245.2386226977708
 20
568.8653149063862
 10
-244.9959506358362
 20
569.6912724003299
 10
-244.8177954607877
 20
570.5935419507921
 10
-244.7089488798072
 20
571.5478558850354
 10
-244.6723384583923
 20
572.5285467312565
210
0.0
220
0.0
230
-1.0
  0
LWPOLYLINE
  5
E96
330
1E
100
AcDbEntity
  8
STEMPEL
100
AcDbPolyline
 90
       10
 70
   128
 43
0.0
 10
-247.0110975199244
 20
566.5285467312561
 10
-246.5383675621708
 20
566.6197002131829
 10
-246.0800012649706
 20
566.8903910065408
 10
-245.6499258563199
 20
567.3323943085494
 10
-245.2612089598816
 20
567.9322800725424
 10
-244.925661541854
 20
568.6718210731371
 10
-244.6534790407384
 20
569.5285467312563
 10
-244.4529315841003
 20
570.4764258713023
 10
-244.3301127049279
 20
571.4866576652549
 10
-244.2887541927154
 20
572.5285467312565
210
0.0
220
0.0
230
-1.0
  0
LINE
  5
E97
330
1E
100
AcDbEntity
  8
STEMPEL
100
AcDbLine
 10
244.2887541927154
 20
579.0285467312527
 30
0.0
 11
244.2887541927154
 21
572.5285467312577
 31
0.0
  0
LINE
  5
E98
330
1E
100
AcDbEntity
  8
STEMPEL
100
AcDbLine
 10
244.6723384583923
 20
579.0285467312543
 30
0.0
 11
244.6723384583923
 21
572.5285467312577
 31
0.0
  0
LWPOLYLINE
  5
E99
330
1E
100
AcDbEntity
  8
STEMPEL
100
AcDbPolyline
 90
       10
 70
   128
 43
0.0
 10
-232.5452634084435
 20
566.5285467312561
 10
-232.3175108455749
 20
566.6197002131829
 10
-232.0966784290807
 20
566.8903910065408
 10
-231.8894760401895
 20
567.3323943085494
 10
-231.7021994186383
 20
567.9322800725424
 10
-231.5405388698064
 20
568.6718210731371
 10
-231.4094063676657
 20
569.5285467312563
 10
-231.3127863069378
 20
570.4764258713023
 10
-231.2536144392757
 20
571.4866576652549
 10
-231.2336886719356
 20
572.5285467312565
210
0.0
220
0.0
230
-1.0
  0
LINE
  5
E9A
330
1E
100
AcDbEntity
  8
STEMPEL
100
AcDbLine
 10
231.2336886719357
 20
579.0285467312559
 30
0.0
 11
231.2336886719357
 21
572.5285467312577
 31
0.0
  0
ARC
  5
E9B
330
1E
100
AcDbEntity
  8
STEMPEL
100
AcDbCircle
 10
209.6042165676486
 20
624.0285467312562
 30
0.0
 40
7.5
100
AcDbArc
 50
0.0000000000260551
 51
180.000000000013
  0
LWPOLYLINE
  5
E9C
330
1E
100
AcDbEntity
  8
STEMPEL
100
AcDbPolyline
 90
        7
 70
   128
 43
0.0
 10
-217.0794237232716
 20
567.5285467312561
 10
-216.9105278775031
 20
568.137884633097
 10
-216.7656744889305
 20
568.8653149063862
 10
-216.6487595713634
 20
569.6912724003299
 10
-216.5629276983457
 20
570.5935419507921
 10
-216.5104874259
 20
571.5478558850354
 10
-216.4928492010147
 20
572.5285467312565
210
0.0
220
0.0
230
-1.0
  0
LWPOLYLINE
  5
E9D
330
1E
100
AcDbEntity
  8
STEMPEL
100
AcDbPolyline
 90
       10
 70
   128
 43
0.0
 10
-217.6735904878359
 20
566.5285467312561
 10
-217.4458379249673
 20
566.6197002131829
 10
-217.2250055084731
 20
566.8903910065408
 10
-217.0178031195819
 20
567.3323943085494
 10
-216.8305264980308
 20
567.9322800725424
 10
-216.6688659491988
 20
568.6718210731371
 10
-216.5377334470581
 20
569.5285467312563
 10
-216.4411133863302
 20
570.4764258713023
 10
-216.381941518668
 20
571.4866576652549
 10
-216.362015751328
 20
572.5285467312565
210
0.0
220
0.0
230
-1.0
  0
LINE
  5
E9E
330
1E
100
AcDbEntity
  8
STEMPEL
100
AcDbLine
 10
202.7155839342825
 20
579.0285467312543
 30
0.0
 11
202.7155839342825
 21
572.5285467312577
 31
0.0
  0
LINE
  5
E9F
330
1E
100
AcDbEntity
  8
STEMPEL
100
AcDbLine
 10
202.8464173839691
 20
579.0285467312527
 30
0.0
 11
202.8464173839691
 21
572.5285467312577
 31
0.0
  0
LINE
  5
EA0
330
1E
100
AcDbEntity
  8
STEMPEL
100
AcDbLine
 10
216.362015751328
 20
579.0285467312527
 30
0.0
 11
216.362015751328
 21
572.5285467312577
 31
0.0
  0
LINE
  5
EA1
330
1E
100
AcDbEntity
  8
STEMPEL
100
AcDbLine
 10
216.4928492010146
 20
579.0285467312543
 30
0.0
 11
216.4928492010146
 21
572.5285467312577
 31
0.0
  0
LINE
  5
EA2
330
1E
100
AcDbEntity
  8
STEMPEL
100
AcDbLine
 10
199.2010256261007
 20
572.7462995204518
 30
0.0
 11
199.2010256261007
 21
569.1285467312551
 31
0.0
  0
LINE
  5
EA3
330
1E
100
AcDbEntity
  8
STEMPEL
100
AcDbLine
 10
199.680021116802
 20
569.1285467312549
 30
0.0
 11
199.680021116802
 21
567.528546731255
 31
0.0
  0
LINE
  5
EA4
330
1E
100
AcDbEntity
  8
STEMPEL
100
AcDbLine
 10
199.2010256261007
 20
572.7462995204519
 30
0.0
 11
198.9942674943083
 21
572.8656713834993
 31
0.0
  0
LINE
  5
EA5
330
1E
100
AcDbEntity
  8
STEMPEL
100
AcDbLine
 10
196.4405233714515
 20
572.7226391483276
 30
0.0
 11
196.4405233714512
 21
569.1285467312551
 31
0.0
  0
LINE
  5
EA6
330
1E
100
AcDbEntity
  8
STEMPEL
100
AcDbLine
 10
197.8168152734167
 20
573.196290065655
 30
0.0
 11
197.8203707064128
 21
573.196290065655
 31
0.0
  0
ARC
  5
EA7
330
1E
100
AcDbEntity
  8
STEMPEL
100
AcDbCircle
 10
197.820774498776
 20
570.9483917453759
 30
0.0
 40
2.247898356545996
100
AcDbArc
 50
58.53080548383034
 51
127.8806357171815
  0
LINE
  5
EA8
330
1E
100
AcDbEntity
  8
STEMPEL
100
AcDbLine
 10
201.3386398655935
 20
557.441284699068
 30
0.0
 11
201.180021116802
 21
566.5285467312544
 31
0.0
  0
LINE
  5
EA9
330
1E
100
AcDbEntity
  8
STEMPEL
100
AcDbLine
 10
190.9195188621527
 20
572.7226391483276
 30
0.0
 11
190.9195188621527
 21
569.1285467312551
 31
0.0
  0
LINE
  5
EAA
330
1E
100
AcDbEntity
  8
STEMPEL
100
AcDbLine
 10
188.1590166075034
 20
572.7462995204519
 30
0.0
 11
188.1590166075034
 21
569.1285467312551
 31
0.0
  0
LWPOLYLINE
  5
EAB
330
1E
100
AcDbEntity
  8
STEMPEL
100
AcDbPolyline
 90
       10
 70
   128
 43
0.0
 10
186.6631697268536
 20
566.5285467312561
 10
186.8909222897222
 20
566.6197002131829
 10
187.1117547062164
 20
566.8903910065408
 10
187.3189570951076
 20
567.3323943085494
 10
187.5062337166588
 20
567.9322800725424
 10
187.6678942654907
 20
568.6718210731371
 10
187.7990267676314
 20
569.5285467312563
 10
187.8956468283593
 20
570.4764258713023
 10
187.9548186960215
 20
571.4866576652549
 10
187.9747444633615
 20
572.5285467312565
  0
LINE
  5
EAC
330
1E
100
AcDbEntity
  8
STEMPEL
100
AcDbLine
 10
187.680021116802
 20
568.7510492164343
 30
0.0
 11
187.680021116802
 21
567.528546731255
 31
0.0
  0
LINE
  5
EAD
330
1E
100
AcDbEntity
  8
STEMPEL
100
AcDbLine
 10
188.1590166075034
 20
572.7462995204519
 30
0.0
 11
188.3657747392888
 21
572.8656713834953
 31
0.0
  0
ARC
  5
EAE
330
1E
100
AcDbEntity
  8
STEMPEL
100
AcDbCircle
 10
189.5392677348279
 20
570.9483917453759
 30
0.0
 40
2.247898356545996
100
AcDbArc
 50
52.11936428281847
 51
121.4691945163685
  0
LINE
  5
EAF
330
1E
100
AcDbEntity
  8
STEMPEL
100
AcDbLine
 10
186.0214023680105
 20
557.4412846990683
 30
0.0
 11
186.180021116802
 21
566.5285467312544
 31
0.0
  0
LINE
  5
EB0
330
1E
100
AcDbEntity
  8
STEMPEL
100
AcDbLine
 10
187.7378017998026
 20
569.1285467312551
 30
0.0
 11
199.680021116802
 21
569.1285467312549
 31
0.0
  0
LINE
  5
EB1
330
1E
100
AcDbEntity
  8
STEMPEL
100
AcDbLine
 10
199.6800211168022
 20
567.5285467312547
 30
0.0
 11
187.680021116802
 21
567.5285467312552
 31
0.0
  0
LINE
  5
EB2
330
1E
100
AcDbEntity
  8
STEMPEL
100
AcDbLine
 10
187.3881699411045
 20
567.5285467312561
 30
0.0
 11
202.1290094120259
 21
567.5285467312561
 31
0.0
  0
LINE
  5
EB3
330
1E
100
AcDbEntity
  8
STEMPEL
100
AcDbLine
 10
189.5396715271761
 20
573.196290065655
 30
0.0
 11
197.8203707059189
 21
573.196290065655
 31
0.0
  0
ARC
  5
EB4
330
1E
100
AcDbEntity
  8
STEMPEL
100
AcDbCircle
 10
193.6800211168019
 20
564.9151724720551
 30
0.0
 40
8.281117593600001
100
AcDbArc
 50
70.52782738138624
 51
109.4721726186137
  0
LINE
  5
EB5
330
1E
100
AcDbEntity
  8
STEMPEL
100
AcDbLine
 10
187.9747444633614
 20
579.0285467312559
 30
0.0
 11
187.9747444633614
 21
572.5285467312577
 31
0.0
  0
ARC
  5
EB6
330
1E
100
AcDbEntity
  8
STEMPEL
100
AcDbCircle
 10
209.6042165676485
 20
599.0285467312562
 30
0.0
 40
7.5
100
AcDbArc
 50
179.999999999987
 51
359.999999999974
  0
LWPOLYLINE
  5
EB7
330
1E
100
AcDbEntity
  8
STEMPEL
100
AcDbPolyline
 90
        7
 70
   128
 43
0.0
 10
202.1290094120256
 20
567.5285467312561
 10
202.297905257794
 20
568.137884633097
 10
202.4427586463667
 20
568.8653149063862
 10
202.5596735639338
 20
569.6912724003299
 10
202.6455054369515
 20
570.5935419507921
 10
202.6979457093971
 20
571.5478558850354
 10
202.7155839342825
 20
572.5285467312565
  0
LWPOLYLINE
  5
EB8
330
1E
100
AcDbEntity
  8
STEMPEL
100
AcDbPolyline
 90
       10
 70
   128
 43
0.0
 10
201.5348426474612
 20
566.5285467312561
 10
201.7625952103298
 20
566.6197002131829
 10
201.983427626824
 20
566.8903910065408
 10
202.1906300157152
 20
567.3323943085494
 10
202.3779066372664
 20
567.9322800725424
 10
202.5395671860983
 20
568.6718210731371
 10
202.670699688239
 20
569.5285467312563
 10
202.7673197489669
 20
570.4764258713023
 10
202.8264916166291
 20
571.4866576652549
 10
202.8464173839691
 20
572.5285467312565
  0
LWPOLYLINE
  5
EB9
330
1E
100
AcDbEntity
  8
STEMPEL
100
AcDbPolyline
 90
       18
 70
   128
 43
0.0
 10
-187.9747444633616
 20
579.0285467312543
 10
-188.101353709538
 20
580.4066681148788
 10
-188.4768699220396
 20
581.7378592276585
 10
-189.088505346632
 20
582.9767879528353
 10
-189.9154314725064
 20
584.0812640586046
 10
-190.9294883222346
 20
585.0136759358575
 10
-192.0961434060264
 20
585.7422714164187
 10
-193.3756676842516
 20
586.2422390550519
 10
-194.7244884922357
 20
586.4965530534687
 10
-196.096673355095
 20
586.4965530534687
 10
-197.4454941630791
 20
586.2422390550519
 10
-198.7250184413044
 20
585.7422714164187
 10
-199.8916735250961
 20
585.0136759358575
 10
-200.9057303748244
 20
584.0812640586046
 10
-201.7326565006988
 20
582.9767879528353
 10
-202.3442919252911
 20
581.7378592276585
 10
-202.7198081377928
 20
580.4066681148788
 10
-202.8464173839692
 20
579.0285467312543
210
0.0
220
0.0
230
-1.0
  0
LWPOLYLINE
  5
EBA
330
1E
100
AcDbEntity
  8
STEMPEL
100
AcDbPolyline
 90
        9
 70
   128
 43
0.0
 10
-195.3451641989219
 20
586.528256491029
 10
-196.7865041827997
 20
586.3729550971054
 10
-198.1705850862493
 20
585.938554850091
 10
-199.4448096987812
 20
585.2415636298157
 10
-200.5607555185111
 20
584.3084681783701
 10
-201.4760148819641
 20
583.1747275630266
 10
-202.1558065207393
 20
581.8834256769573
 10
-202.5742973033887
 20
580.4836339847977
 10
-202.7155839342825
 20
579.0285467312559
210
0.0
220
0.0
230
-1.0
  0
LINE
  5
EBB
330
1E
100
AcDbEntity
  8
STEMPEL
100
AcDbLine
 10
202.1042165676486
 20
624.0285467312546
 30
0.0
 11
202.1042165676486
 21
599.0285467312546
 31
0.0
  0
LINE
  5
EBC
330
1E
100
AcDbEntity
  8
STEMPEL
100
AcDbLine
 10
217.1042165676486
 20
624.0285467312562
 30
0.0
 11
217.1042165676486
 21
599.0285467312562
 31
0.0
  0
LINE
  5
EBD
330
1E
100
AcDbEntity
  8
STEMPEL
100
AcDbLine
 10
231.8202631941927
 20
567.5285467312561
 30
0.0
 11
217.0794237232712
 21
567.5285467312561
 31
0.0
  0
LWPOLYLINE
  5
EBE
330
1E
100
AcDbEntity
  8
STEMPEL
100
AcDbPolyline
 90
        9
 70
   128
 43
0.0
 10
223.8632689363752
 20
586.528256491029
 10
222.4219289524974
 20
586.3729550971054
 10
221.0378480490478
 20
585.938554850091
 10
219.7636234365159
 20
585.2415636298157
 10
218.647677616786
 20
584.3084681783701
 10
217.732418253333
 20
583.1747275630266
 10
217.0526266145579
 20
581.8834256769573
 10
216.6341358319085
 20
580.4836339847977
 10
216.4928492010146
 20
579.0285467312559
  0
LWPOLYLINE
  5
EBF
330
1E
100
AcDbEntity
  8
STEMPEL
100
AcDbPolyline
 90
       18
 70
   128
 43
0.0
 10
231.2336886719355
 20
579.0285467312543
 10
231.1070794257592
 20
580.4066681148788
 10
230.7315632132575
 20
581.7378592276585
 10
230.1199277886651
 20
582.9767879528353
 10
229.2930016627908
 20
584.0812640586046
 10
228.2789448130625
 20
585.0136759358575
 10
227.1122897292707
 20
585.7422714164187
 10
225.8327654510455
 20
586.2422390550519
 10
224.4839446430614
 20
586.4965530534687
 10
223.1117597802021
 20
586.4965530534687
 10
221.762938972218
 20
586.2422390550519
 10
220.4834146939927
 20
585.7422714164187
 10
219.316759610201
 20
585.0136759358575
 10
218.3027027604727
 20
584.0812640586046
 10
217.4757766345983
 20
582.9767879528353
 10
216.864141210006
 20
581.7378592276585
 10
216.4886249975043
 20
580.4066681148788
 10
216.3620157513279
 20
579.0285467312543
  0
ARC
  5
EC0
330
1E
100
AcDbEntity
  8
STEMPEL
100
AcDbCircle
 10
206.3378783413755
 20
557.5285467312544
 30
0.0
 40
5.0
100
AcDbArc
 50
181.0000000000017
 51
270.0
  0
LINE
  5
EC1
330
1E
100
AcDbEntity
  8
MITTEL
100
AcDbLine
 10
193.6800211168018
 20
578.1962900656551
 30
0.0
 11
193.6800211168024
 21
553.1717735986596
 31
0.0
  0
LWPOLYLINE
  5
EC2
330
1E
100
AcDbEntity
  8
STEMPEL
100
AcDbPolyline
 90
       18
 70
   128
 43
0.0
 10
258.1469471803863
 20
579.0285467312543
 10
258.0289661451052
 20
580.4066681148788
 10
257.6790407419155
 20
581.7378592276585
 10
257.1090872607338
 20
582.9767879528353
 10
256.3385147837777
 20
584.0812640586046
 10
255.3935642325502
 20
585.0136759358575
 10
254.3064147647301
 20
585.7422714164187
 10
253.1140879515518
 20
586.2422390550519
 10
251.8571870526
 20
586.4965530534687
 10
250.5785143205017
 20
586.4965530534687
 10
249.3216134215499
 20
586.2422390550519
 10
248.1292866083716
 20
585.7422714164187
 10
247.0421371405515
 20
585.0136759358575
 10
246.097186589324
 20
584.0812640586046
 10
245.3266141123679
 20
582.9767879528353
 10
244.7566606311862
 20
581.7378592276585
 10
244.4067352279965
 20
580.4066681148788
 10
244.2887541927154
 20
579.0285467312543
  0
LINE
  5
EC3
330
1E
100
AcDbEntity
  8
STEMPEL
100
AcDbLine
 10
259.3644586131154
 20
567.5285467312561
 30
0.0
 11
245.889849891121
 21
567.5285467312561
 31
0.0
  0
LINE
  5
EC4
330
1E
100
AcDbEntity
  8
STEMPEL
100
AcDbLine
 10
316.6369111893564
 20
641.7056272912981
 30
0.0
 11
292.6506083138895
 21
655.6976373019867
 31
0.0
  0
LINE
  5
EC5
330
1E
100
AcDbEntity
  8
STEMPEL
100
AcDbLine
 10
316.1235701357756
 20
640.8473841781354
 30
0.0
 11
292.1447162428244
 21
654.8350373443209
 31
0.0
  0
ARC
  5
EC6
330
1E
100
AcDbEntity
  8
STEMPEL
100
AcDbCircle
 10
313.6042165676485
 20
636.5284887639392
 30
0.0
 40
6.0
100
AcDbArc
 50
0.0
 51
59.74358352518194
  0
ARC
  5
EC7
330
1E
100
AcDbEntity
  8
STEMPEL
100
AcDbCircle
 10
313.6042165676485
 20
636.5284887639392
 30
0.0
 40
5.0
100
AcDbArc
 50
0.0
 51
59.74358352518194
  0
LWPOLYLINE
  5
EC8
330
1E
100
AcDbEntity
  8
STEMPEL
100
AcDbPolyline
 90
       10
 70
   128
 43
0.0
 10
-321.9426251743437
 20
566.5285467312561
 10
-321.0845521780709
 20
566.5946739458288
 10
-320.2317399784487
 20
566.847227695559
 10
-319.4109816715317
 20
567.2782734118766
 10
-318.6480633051326
 20
567.8742687823164
 10
-317.9669537496335
 20
568.6164892140371
 10
-317.3890516596878
 20
569.4816161108345
 10
-316.9325131852815
 20
570.4424694815506
 10
-316.611681553684
 20
571.4688618632628
 10
-316.4366364433129
 20
572.5285467312554
210
0.0
220
0.0
230
-1.0
  0
LWPOLYLINE
  5
EC9
330
1E
100
AcDbEntity
  8
STEMPEL
100
AcDbPolyline
 90
       10
 70
   128
 43
0.0
 10
-317.7539067064535
 20
566.5285467312561
 10
-316.9177274316119
 20
566.6197002131829
 10
-316.1069550409093
 20
566.8903910065408
 10
-315.3462244431664
 20
567.3323943085494
 10
-314.6586500526477
 20
567.9322800725424
 10
-314.0651234692792
 20
568.6718210731371
 10
-313.583678697958
 20
569.5285467312563
 10
-313.2289441944376
 20
570.4764258713023
 10
-313.0116983871035
 20
571.4866576652549
 10
-312.9385421798795
 20
572.5285467312565
210
0.0
220
0.0
230
-1.0
  0
LWPOLYLINE
  5
ECA
330
1E
100
AcDbEntity
  8
STEMPEL
100
AcDbPolyline
 90
       18
 70
   128
 43
0.0
 10
318.3945293266134
 20
579.0285467312543
 10
318.3778609031365
 20
580.4066681148788
 10
318.3284232558762
 20
581.7378592276585
 10
318.2478999246157
 20
582.9767879528353
 10
318.139033034824
 20
584.0812640586046
 10
318.0055299178617
 20
585.0136759358575
 10
317.8519368622576
 20
585.7422714164187
 10
317.6834842953056
 20
586.2422390550519
 10
317.5059086671366
 20
586.4965530534687
 10
317.3252571027896
 20
586.4965530534687
 10
317.1476814746207
 20
586.2422390550519
 10
316.9792289076686
 20
585.7422714164187
 10
316.8256358520645
 20
585.0136759358575
 10
316.6921327351022
 20
584.0812640586046
 10
316.5832658453105
 20
582.9767879528353
 10
316.5027425140501
 20
581.7378592276585
 10
316.4533048667897
 20
580.4066681148788
 10
316.4366364433129
 20
579.0285467312543
  0
LINE
  5
ECB
330
1E
100
AcDbEntity
  8
STEMPEL
100
AcDbLine
 10
368.240255536969
 20
538.0285467312545
 30
0.0
 11
299.4472896060528
 21
538.0285467312545
 31
0.0
  0
LINE
  5
ECC
330
1E
100
AcDbEntity
  8
STEMPEL
100
AcDbLine
 10
372.4828962240888
 20
535.0285467312541
 30
0.0
 11
295.882272895197
 21
535.0285467312541
 31
0.0
  0
LINE
  5
ED5
330
1E
100
AcDbEntity
  8
MITTEL
100
AcDbLine
 10
209.6042165676483
 20
663.0285467312544
 30
0.0
 11
209.6042165676482
 21
132.0285467312541
 31
0.0
  0
TEXT
  5
ED8
330
1E
100
AcDbEntity
  8
TEXT
 62
     1
100
AcDbText
 10
206.4517278258163
 20
368.5798277709374
 30
0.0
 40
7.0
  1
DN125
 50
90.0
 41
0.8
  7
GREEKS
100
AcDbText
  0
ARC
  5
ED9
330
1E
100
AcDbEntity
  8
STEMPEL
100
AcDbCircle
 10
184.3425787399977
 20
658.0285467312543
 30
0.0
 40
1.5
100
AcDbArc
 50
270.0
 51
329.9999999999995
  0
ARC
  5
EDC
330
1E
100
AcDbEntity
  8
STEMPEL
100
AcDbCircle
 10
129.6042165676483
 20
650.5285467312543
 30
0.0
 40
6.0
100
AcDbArc
 50
90.0
 51
90.0
  0
ARC
  5
EDD
330
1E
100
AcDbEntity
  8
STEMPEL
100
AcDbCircle
 10
129.6042165676483
 20
650.5285467312543
 30
0.0
 40
6.0
100
AcDbArc
 50
90.0
 51
120.5128743276211
  0
ARC
  5
EDE
330
1E
100
AcDbEntity
  8
STEMPEL
100
AcDbCircle
 10
129.6042165676483
 20
650.5285467312543
 30
0.0
 40
5.0
100
AcDbArc
 50
90.0
 51
120.5373500482991
  0
LINE
  5
EE0
330
1E
100
AcDbEntity
  8
STEMPEL
100
AcDbLine
 10
129.6042165676483
 20
656.5285467312539
 30
0.0
 11
184.3425787399977
 21
656.5285467312543
 31
0.0
  0
ELLIPSE
  5
EE1
330
1E
100
AcDbEntity
  8
STEMPEL
100
AcDbEllipse
 10
154.7322063985273
 20
624.0285467312562
 30
0.0
 11
0.0
 21
7.5
 31
0.0
210
0.0
220
0.0
230
1.0
 40
0.8660254037843856
 41
4.712388980384689
 42
6.24459510668465
  0
LWPOLYLINE
  5
EE2
330
1E
100
AcDbEntity
  8
STEMPEL
100
AcDbPolyline
 90
        7
 70
   128
 43
0.0
 10
173.3185832441757
 20
567.5285467312561
 10
173.6691484585876
 20
568.137884633097
 10
173.9698104375263
 20
568.8653149063862
 10
174.2124824994609
 20
569.6912724003299
 10
174.3906376745094
 20
570.5935419507921
 10
174.4994842554899
 20
571.5478558850354
 10
174.5360946769048
 20
572.5285467312565
  0
LWPOLYLINE
  5
EE3
330
1E
100
AcDbEntity
  8
STEMPEL
100
AcDbPolyline
 90
       10
 70
   128
 43
0.0
 10
172.1973356153727
 20
566.5285467312561
 10
172.6700655731263
 20
566.6197002131829
 10
173.1284318703265
 20
566.8903910065408
 10
173.5585072789772
 20
567.3323943085494
 10
173.9472241754155
 20
567.9322800725424
 10
174.2827715934431
 20
568.6718210731371
 10
174.5549540945587
 20
569.5285467312563
 10
174.7555015511968
 20
570.4764258713023
 10
174.8783204303693
 20
571.4866576652549
 10
174.9196789425817
 20
572.5285467312565
  0
LINE
  5
EE4
330
1E
100
AcDbEntity
  8
STEMPEL
100
AcDbLine
 10
174.5360946769048
 20
579.0285467312543
 30
0.0
 11
174.5360946769048
 21
572.5285467312577
 31
0.0
  0
LINE
  5
EE5
330
1E
100
AcDbEntity
  8
STEMPEL
100
AcDbLine
 10
174.9196789425817
 20
579.0285467312527
 30
0.0
 11
174.9196789425817
 21
572.5285467312577
 31
0.0
  0
ELLIPSE
  5
EE6
330
1E
100
AcDbEntity
  8
STEMPEL
100
AcDbEllipse
 10
154.7322063985273
 20
599.0285467312562
 30
0.0
 11
0.0
 21
-7.5
 31
0.0
210
0.0
220
0.0
230
-1.0
 40
0.8660254037843856
 41
4.712388980384689
 42
6.24459510668465
  0
LWPOLYLINE
  5
EE7
330
1E
100
AcDbEntity
  8
STEMPEL
100
AcDbPolyline
 90
       10
 70
   128
 43
0.0
 10
158.3391426277018
 20
566.5285467312561
 10
158.8118725854553
 20
566.6197002131829
 10
159.2702388826556
 20
566.8903910065408
 10
159.7003142913063
 20
567.3323943085494
 10
160.0890311877446
 20
567.9322800725424
 10
160.4245786057722
 20
568.6718210731371
 10
160.6967611068878
 20
569.5285467312563
 10
160.8973085635259
 20
570.4764258713023
 10
161.0201274426984
 20
571.4866576652549
 10
161.0614859549108
 20
572.5285467312565
  0
LINE
  5
EE9
330
1E
100
AcDbEntity
  8
STEMPEL
100
AcDbLine
 10
161.0614859549108
 20
579.0285467312543
 30
0.0
 11
161.0614859549108
 21
572.5285467312577
 31
0.0
  0
LINE
  5
EEA
330
1E
100
AcDbEntity
  8
STEMPEL
100
AcDbLine
 10
159.8439745221817
 20
567.5285467312561
 30
0.0
 11
173.3185832441761
 21
567.5285467312561
 31
0.0
  0
LWPOLYLINE
  5
EEB
330
1E
100
AcDbEntity
  8
STEMPEL
100
AcDbPolyline
 90
       18
 70
   128
 43
0.0
 10
-161.0614859549108
 20
579.0285467312543
 10
-161.1794669901919
 20
580.4066681148788
 10
-161.5293923933816
 20
581.7378592276585
 10
-162.0993458745634
 20
582.9767879528353
 10
-162.8699183515194
 20
584.0812640586046
 10
-163.814868902747
 20
585.0136759358575
 10
-164.9020183705671
 20
585.7422714164187
 10
-166.0943451837453
 20
586.2422390550519
 10
-167.3512460826971
 20
586.4965530534687
 10
-168.6299188147954
 20
586.4965530534687
 10
-169.8868197137473
 20
586.2422390550519
 10
-171.0791465269254
 20
585.7422714164187
 10
-172.1662959947456
 20
585.0136759358575
 10
-173.1112465459731
 20
584.0812640586046
 10
-173.8818190229292
 20
582.9767879528353
 10
-174.451772504111
 20
581.7378592276585
 10
-174.8016979073006
 20
580.4066681148788
 10
-174.9196789425817
 20
579.0285467312543
210
0.0
220
0.0
230
-1.0
  0
LWPOLYLINE
  5
EEC
330
1E
100
AcDbEntity
  8
STEMPEL
100
AcDbPolyline
 90
        9
 70
   128
 43
0.0
 10
-167.7987903159344
 20
586.5256731542944
 10
-169.1229997662642
 20
586.3468402472466
 10
-170.3909791634503
 20
585.8965643299224
 10
-171.5556978515359
 20
585.1915465977834
 10
-172.5739552201426
 20
584.2579368813998
 10
-173.4079830594048
 20
583.1303637224237
 10
-174.0268464215987
 20
581.8506499654719
 10
-174.4075910300729
 20
580.4662615059364
 10
-174.5360946769048
 20
579.0285467312559
210
0.0
220
0.0
230
-1.0
  0
LINE
  5
EED
330
1E
100
AcDbEntity
  8
STEMPEL
100
AcDbLine
 10
161.7285739223522
 20
624.0285467312562
 30
0.0
 11
161.7285739223522
 21
599.0285467312562
 31
0.0
  0
LINE
  5
EEE
330
1E
100
AcDbEntity
  8
STEMPEL
100
AcDbLine
 10
161.2273969269101
 20
624.0285467312562
 30
0.0
 11
161.2273969269101
 21
599.0285467312562
 31
0.0
  0
LWPOLYLINE
  5
EEF
330
1E
100
AcDbEntity
  8
STEMPEL
100
AcDbPolyline
 90
       18
 70
   128
 43
0.0
 10
-137.4563343170606
 20
579.0285467312543
 10
-137.557646928865
 20
580.4066681148788
 10
-137.8581346847942
 20
581.7378592276585
 10
-138.3475648347154
 20
582.9767879528353
 10
-139.0092704218798
 20
584.0812640586046
 10
-139.8207178561449
 20
585.0136759358575
 10
-140.7542742683606
 20
585.7422714164187
 10
-141.7781485145867
 20
586.2422390550519
 10
-142.8574737853695
 20
586.4965530534687
 10
-143.9554949531206
 20
586.4965530534687
 10
-145.0348202239033
 20
586.2422390550519
 10
-146.0586944701294
 20
585.7422714164187
 10
-146.9922508823451
 20
585.0136759358575
 10
-147.8036983166103
 20
584.0812640586046
 10
-148.4654039037747
 20
582.9767879528353
 10
-148.9548340536959
 20
581.7378592276585
 10
-149.2553218096251
 20
580.4066681148788
 10
-149.3566344214294
 20
579.0285467312543
210
0.0
220
0.0
230
-1.0
  0
LWPOLYLINE
  5
EF0
330
1E
100
AcDbEntity
  8
STEMPEL
100
AcDbPolyline
 90
        9
 70
   128
 43
0.0
 10
-143.1013871453256
 20
586.5186808090779
 10
-144.2177948666967
 20
586.3113736726709
 10
-145.283074118439
 20
585.8421189452172
 10
-146.2589091014773
 20
585.1277947080485
 10
-147.1102011343353
 20
584.1940936646522
 10
-147.8063310770717
 20
583.0745990294917
 10
-148.3222606357631
 20
581.809576612153
 10
-148.639432935979
 20
580.4445265429437
 10
-148.7464399735671
 20
579.0285467312559
210
0.0
220
0.0
230
-1.0
  0
LWPOLYLINE
  5
EF1
330
1E
100
AcDbEntity
  8
STEMPEL
100
AcDbPolyline
 90
        7
 70
   128
 43
0.0
 10
147.1084168974619
 20
567.5285467312561
 10
147.5800624980287
 20
568.137884633097
 10
147.9845689744115
 20
568.8653149063862
 10
148.3110566169006
 20
569.6912724003299
 10
148.5507441303087
 20
570.5935419507921
 10
148.6971848179348
 20
571.5478558850354
 10
148.7464399735672
 20
572.5285467312565
  0
LWPOLYLINE
  5
EF2
330
1E
100
AcDbEntity
  8
STEMPEL
100
AcDbPolyline
 90
       10
 70
   128
 43
0.0
 10
145.6940312859054
 20
566.5285467312561
 10
146.3300356459064
 20
566.6197002131829
 10
146.9467153352625
 20
566.8903910065408
 10
147.5253328536676
 20
567.3323943085494
 10
148.0483072006194
 20
567.9322800725424
 10
148.4997480652239
 20
568.6718210731371
 10
148.8659386452499
 20
569.5285467312563
 10
149.1357524252248
 20
570.4764258713023
 10
149.3009912499765
 20
571.4866576652549
 10
149.3566344214296
 20
572.5285467312565
  0
LINE
  5
EF4
330
1E
100
AcDbEntity
  8
STEMPEL
100
AcDbLine
 10
151.1042165676482
 20
565.0285467312553
 30
0.0
 11
151.1042165676482
 21
562.5285467312547
 31
0.0
  0
LINE
  5
EF5
330
1E
100
AcDbEntity
  8
STEMPEL
100
AcDbLine
 10
151.1042165676482
 20
565.0285467312553
 30
0.0
 11
150.1042165676482
 21
566.0285467312553
 31
0.0
  0
LINE
  5
EF6
330
1E
100
AcDbEntity
  8
HILF
100
AcDbLine
 10
150.1042165676482
 20
566.0285467312553
 30
0.0
 11
150.1042165676482
 21
562.5285467312546
 31
0.0
  0
LINE
  5
EF8
330
1E
100
AcDbEntity
  8
STEMPEL
100
AcDbLine
 10
141.1042165676482
 20
565.0285467312553
 30
0.0
 11
141.1042165676482
 21
562.5285467312546
 31
0.0
  0
LINE
  5
EFC
330
1E
100
AcDbEntity
  8
HILF
100
AcDbLine
 10
142.1042165676482
 20
566.0285467312553
 30
0.0
 11
142.1042165676482
 21
562.5285467312546
 31
0.0
  0
LINE
  5
EFD
330
1E
100
AcDbEntity
  8
STEMPEL
100
AcDbLine
 10
142.1042165676482
 20
566.0285467312553
 30
0.0
 11
141.1042165676482
 21
565.0285467312553
 31
0.0
  0
LINE
  5
EFF
330
1E
100
AcDbEntity
  8
STEMPEL
100
AcDbLine
 10
141.1042165676482
 20
565.0285467312553
 30
0.0
 11
151.1042165676482
 21
565.0285467312553
 31
0.0
  0
LINE
  5
F02
330
1E
100
AcDbEntity
  8
STEMPEL
100
AcDbLine
 10
150.1042165676482
 20
566.0285467312553
 30
0.0
 11
142.1042165676482
 21
566.0285467312553
 31
0.0
  0
LINE
  5
F03
330
1E
100
AcDbEntity
  8
STEMPEL
100
AcDbLine
 10
137.4563343170607
 20
579.0285467312543
 30
0.0
 11
137.4563343170607
 21
572.5285467312577
 31
0.0
  0
LINE
  5
F04
330
1E
100
AcDbEntity
  8
STEMPEL
100
AcDbLine
 10
148.7464399735672
 20
579.0285467312543
 30
0.0
 11
148.7464399735672
 21
572.5285467312577
 31
0.0
  0
LINE
  5
F05
330
1E
100
AcDbEntity
  8
STEMPEL
100
AcDbLine
 10
149.3566344214296
 20
579.0285467312543
 30
0.0
 11
149.3566344214296
 21
572.5285467312577
 31
0.0
  0
LWPOLYLINE
  5
F06
330
1E
100
AcDbEntity
  8
STEMPEL
100
AcDbPolyline
 90
       10
 70
   128
 43
0.0
 10
-122.5384314553222
 20
586.5285467312575
 10
-123.3312588011819
 20
586.4146048788491
 10
-124.0999964893276
 20
586.0762413871516
 10
-124.8212868141052
 20
585.5237372596405
 10
-125.4732137339866
 20
584.7738800546494
 10
-126.0359687794023
 20
583.849453803906
 10
-126.4924529230652
 20
582.7785467312566
 10
-126.828796125262
 20
581.593697806199
 10
-127.034778767992
 20
580.3309080637582
 10
-127.1041421728881
 20
579.0285467312559
210
0.0
220
0.0
230
-1.0
  0
LWPOLYLINE
  5
F07
330
1E
100
AcDbEntity
  8
STEMPEL
100
AcDbPolyline
 90
        7
 70
   128
 43
0.0
 10
125.1525653443699
 20
567.5285467312561
 10
125.714494317634
 20
568.137884633097
 10
126.1964322572212
 20
568.8653149063862
 10
126.585416836971
 20
569.6912724003299
 10
126.8709858280775
 20
570.5935419507921
 10
127.0454584938734
 20
571.5478558850354
 10
127.1041421728883
 20
572.5285467312565
  0
LWPOLYLINE
  5
F08
330
1E
100
AcDbEntity
  8
STEMPEL
100
AcDbPolyline
 90
       10
 70
   128
 43
0.0
 10
123.5356568851031
 20
566.5285467312561
 10
124.2934065101973
 20
566.6197002131829
 10
125.0281322963728
 20
566.8903910065408
 10
125.717509972406
 20
567.3323943085494
 10
126.3405931464523
 20
567.9322800725424
 10
126.8784497515638
 20
568.6718210731371
 10
127.3147372869628
 20
569.5285467312563
 10
127.636199376658
 20
570.4764258713023
 10
127.833068557722
 20
571.4866576652549
 10
127.8993630597089
 20
572.5285467312565
  0
LINE
  5
F09
330
1E
100
AcDbEntity
  8
STEMPEL
100
AcDbLine
 10
127.1041421728882
 20
579.0285467312543
 30
0.0
 11
127.1041421728882
 21
572.5285467312577
 31
0.0
  0
LINE
  5
F0A
330
1E
100
AcDbEntity
  8
STEMPEL
100
AcDbLine
 10
127.899363059709
 20
579.0285467312543
 30
0.0
 11
127.899363059709
 21
572.5285467312577
 31
0.0
  0
LWPOLYLINE
  5
F0B
330
1E
100
AcDbEntity
  8
STEMPEL
100
AcDbPolyline
 90
       10
 70
   128
 43
0.0
 10
133.7937311815366
 20
566.5285467312561
 10
134.4297355415375
 20
566.6197002131829
 10
135.0464152308936
 20
566.8903910065408
 10
135.6250327492987
 20
567.3323943085494
 10
136.1480070962506
 20
567.9322800725424
 10
136.599447960855
 20
568.6718210731371
 10
136.965638540881
 20
569.5285467312563
 10
137.235452320856
 20
570.4764258713023
 10
137.4006911456076
 20
571.4866576652549
 10
137.4563343170607
 20
572.5285467312565
  0
LINE
  5
F0C
330
1E
100
AcDbEntity
  8
STEMPEL
100
AcDbLine
 10
135.8183112409554
 20
567.5285467312561
 30
0.0
 11
147.1084168974624
 21
567.5285467312561
 31
0.0
  0
LINE
  5
F0D
330
1E
100
AcDbEntity
  8
STEMPEL
100
AcDbLine
 10
148.7381928655864
 20
624.0285467312562
 30
0.0
 11
148.7381928655864
 21
599.0285467312578
 31
0.0
  0
ELLIPSE
  5
F0E
330
1E
100
AcDbEntity
  8
STEMPEL
100
AcDbEllipse
 10
155.2333833939692
 20
599.0285467312562
 30
0.0
 11
0.0
 21
-7.5
 31
0.0
210
0.0
220
0.0
230
-1.0
 40
0.8660254037843856
 41
4.712388980384689
 42
7.853981633974482
  0
ELLIPSE
  5
F0F
330
1E
100
AcDbEntity
  8
STEMPEL
100
AcDbEllipse
 10
155.2333833939692
 20
624.0285467312562
 30
0.0
 11
0.0
 21
7.5
 31
0.0
210
0.0
220
0.0
230
1.0
 40
0.8660254037843856
 41
4.712388980384689
 42
7.853981633974482
  0
LINE
  5
F13
330
1E
100
AcDbEntity
  8
STEMPEL
100
AcDbLine
 10
151.1042165676481
 20
546.5285467312544
 30
0.0
 11
151.1042165676481
 21
544.0285467312547
 31
0.0
  0
LINE
  5
F14
330
1E
100
AcDbEntity
  8
HILF
100
AcDbLine
 10
150.1042165676482
 20
546.5285467312544
 30
0.0
 11
150.1042165676482
 21
544.0285467312547
 31
0.0
  0
LINE
  5
F15
330
1E
100
AcDbEntity
  8
HILF
100
AcDbLine
 10
142.1042165676479
 20
546.5285467312544
 30
0.0
 11
142.1042165676482
 21
544.0285467312547
 31
0.0
  0
LINE
  5
F16
330
1E
100
AcDbEntity
  8
STEMPEL
100
AcDbLine
 10
141.1042165676481
 20
546.5285467312544
 30
0.0
 11
141.1042165676481
 21
544.0285467312547
 31
0.0
  0
ARC
  5
F17
330
1E
100
AcDbEntity
  8
SCHRAFF
100
AcDbCircle
 10
132.1711950037578
 20
523.1020172293417
 30
0.0
 40
2.0
100
AcDbArc
 50
152.7000000000017
 51
302.7000000000001
  0
LINE
  5
F18
330
1E
100
AcDbEntity
  8
STEMPEL
100
AcDbLine
 10
133.8542165676484
 20
524.1824978702971
 30
0.0
 11
131.3296842218125
 21
522.5617769088642
 31
0.0
  0
LINE
  5
F19
330
1E
100
AcDbEntity
  8
STEMPEL
100
AcDbLine
 10
122.2856758750798
 20
536.6492676926875
 30
0.0
 11
131.3296842218125
 21
522.5617769088642
 31
0.0
  0
LINE
  5
F20
330
1E
100
AcDbEntity
  8
MITTEL
100
AcDbLine
 10
146.1042165676482
 20
571.0285467312553
 30
0.0
 11
146.1042165676481
 21
541.0285467312542
 31
0.0
  0
ELLIPSE
  5
F21
330
1E
100
AcDbEntity
  8
STEMPEL
100
AcDbEllipse
 10
114.5631070412964
 20
624.0285467312562
 30
0.0
 11
0.0
 21
7.499999999999999
 31
0.0
210
0.0
220
0.0
230
1.0
 40
0.4999999999999926
 41
4.712388980384689
 42
6.167183451052224
  0
ELLIPSE
  5
F22
330
1E
100
AcDbEntity
  8
STEMPEL
100
AcDbEllipse
 10
115.4311710609854
 20
624.0285467312562
 30
0.0
 11
0.0
 21
7.499999999999999
 31
0.0
210
0.0
220
0.0
230
1.0
 40
0.4999999999999926
 41
4.712388980384689
 42
7.853981633974482
  0
ARC
  5
F23
330
1E
100
AcDbEntity
  8
STEMPEL
100
AcDbCircle
 10
105.6042165676484
 20
636.5284887639392
 30
0.0
 40
5.0
100
AcDbArc
 50
120.256416474818
 51
180.0
  0
ARC
  5
F24
330
1E
100
AcDbEntity
  8
STEMPEL
100
AcDbCircle
 10
100.0930729633368
 20
646.0483837137165
 30
0.0
 40
5.0
100
AcDbArc
 50
300.0670458384836
 51
300.2564371635279
  0
ARC
  5
F25
330
1E
100
AcDbEntity
  8
STEMPEL
100
AcDbCircle
 10
105.6042165676484
 20
636.5284887639392
 30
0.0
 40
6.0
100
AcDbArc
 50
120.256416474818
 51
180.0
  0
LINE
  5
F26
330
1E
100
AcDbEntity
  8
STEMPEL
100
AcDbLine
 10
99.60421656764834
 20
631.528546731256
 30
0.0
 11
100.6042165676483
 21
631.528546731256
 31
0.0
  0
ELLIPSE
  5
F27
330
1E
100
AcDbEntity
  8
STEMPEL
100
AcDbEllipse
 10
114.5631070412964
 20
599.0285467312578
 30
0.0
 11
0.0
 21
-7.499999999999999
 31
0.0
210
0.0
220
0.0
230
-1.0
 40
0.4999999999999926
 41
4.712388980384689
 42
6.167183451052224
  0
LWPOLYLINE
  5
F28
330
1E
100
AcDbEntity
  8
STEMPEL
100
AcDbPolyline
 90
        9
 70
   128
 43
0.0
 10
-108.6769895299045
 20
586.4303049759193
 10
-109.1660500731732
 20
586.1038720781619
 10
-109.6256630410741
 20
585.5586030649048
 10
-110.0416128446984
 20
584.8113628217768
 10
-110.40103437399
 20
583.8852630989992
 10
-110.6928109088775
 20
582.808947677029
 10
-110.9079179536156
 20
581.6157064293982
 10
-111.0397023597231
 20
580.3424456843222
 10
-111.084088104388
 20
579.0285467312559
210
0.0
220
0.0
230
-1.0
  0
LWPOLYLINE
  5
F29
330
1E
100
AcDbEntity
  8
STEMPEL
100
AcDbPolyline
 90
       18
 70
   128
 43
0.0
 10
-106.2698909554176
 20
579.0285467312543
 10
-106.3187603003339
 20
580.4066681148788
 10
-106.4637041481539
 20
581.7378592276585
 10
-106.6997866099812
 20
582.9767879528353
 10
-107.0189681807279
 20
584.0812640586046
 10
-107.4103795148182
 20
585.0136759358575
 10
-107.8606915687162
 20
585.7422714164187
 10
-108.3545695055156
 20
586.2422390550519
 10
-108.8751949044206
 20
586.4965530534687
 10
-109.4048384918924
 20
586.4965530534687
 10
-109.9254638907973
 20
586.2422390550519
 10
-110.4193418275968
 20
585.7422714164187
 10
-110.8696538814947
 20
585.0136759358575
 10
-111.261065215585
 20
584.0812640586046
 10
-111.5802467863318
 20
582.9767879528353
 10
-111.816329248159
 20
581.7378592276585
 10
-111.9612730959791
 20
580.4066681148788
 10
-112.0101424408953
 20
579.0285467312543
210
0.0
220
0.0
230
-1.0
  0
ELLIPSE
  5
F2A
330
1E
100
AcDbEntity
  8
STEMPEL
100
AcDbEllipse
 10
115.4311710609854
 20
599.0285467312578
 30
0.0
 11
0.0
 21
-7.499999999999999
 31
0.0
210
0.0
220
0.0
230
-1.0
 40
0.4999999999999926
 41
4.712388980384689
 42
7.853981633974482
  0
LWPOLYLINE
  5
F2B
330
1E
100
AcDbEntity
  8
STEMPEL
100
AcDbPolyline
 90
       10
 70
   128
 43
0.0
 10
114.4042354499712
 20
566.5285467312561
 10
115.1619850750654
 20
566.6197002131829
 10
115.896710861241
 20
566.8903910065408
 10
116.5860885372741
 20
567.3323943085494
 10
117.2091717113204
 20
567.9322800725424
 10
117.747028316432
 20
568.6718210731371
 10
118.1833158518309
 20
569.5285467312563
 10
118.5047779415262
 20
570.4764258713023
 10
118.7016471225902
 20
571.4866576652549
 10
118.767941624577
 20
572.5285467312565
  0
LWPOLYLINE
  5
F2C
330
1E
100
AcDbEntity
  8
STEMPEL
100
AcDbPolyline
 90
        7
 70
   128
 43
0.0
 10
108.9305164717194
 20
567.5285467312561
 10
109.5506069947838
 20
568.137884633097
 10
110.0824271415672
 20
568.8653149063862
 10
110.5116729412984
 20
569.6912724003299
 10
110.8267992890958
 20
570.5935419507921
 10
111.0193304660616
 20
571.5478558850354
 10
111.084088104388
 20
572.5285467312565
  0
LWPOLYLINE
  5
F2D
330
1E
100
AcDbEntity
  8
STEMPEL
100
AcDbPolyline
 90
       10
 70
   128
 43
0.0
 10
107.1947779143214
 20
566.5285467312561
 10
108.030957189163
 20
566.6197002131829
 10
108.8417295798656
 20
566.8903910065408
 10
109.6024601776084
 20
567.3323943085494
 10
110.2900345681272
 20
567.9322800725424
 10
110.8835611514956
 20
568.6718210731371
 10
111.3650059228168
 20
569.5285467312563
 10
111.7197404263372
 20
570.4764258713023
 10
111.9369862336714
 20
571.4866576652549
 10
112.0101424408953
 20
572.5285467312565
  0
LINE
  5
F2E
330
1E
100
AcDbEntity
  8
STEMPEL
100
AcDbLine
 10
104.116319322749
 20
567.5285467312561
 30
0.0
 11
108.9305164717204
 21
567.5285467312561
 31
0.0
  0
LINE
  5
F2F
330
1E
100
AcDbEntity
  8
STEMPEL
100
AcDbLine
 10
106.2698909554176
 20
579.0285467312543
 30
0.0
 11
106.2698909554176
 21
572.5285467312577
 31
0.0
  0
LINE
  5
F30
330
1E
100
AcDbEntity
  8
STEMPEL
100
AcDbLine
 10
111.0840881043881
 20
579.0285467312543
 30
0.0
 11
111.0840881043881
 21
572.5285467312577
 31
0.0
  0
LINE
  5
F31
330
1E
100
AcDbEntity
  8
STEMPEL
100
AcDbLine
 10
112.0101424408953
 20
579.0285467312543
 30
0.0
 11
112.0101424408953
 21
572.5285467312577
 31
0.0
  0
LINE
  5
F32
330
1E
100
AcDbEntity
  8
STEMPEL
100
AcDbLine
 10
118.7679416245771
 20
579.0285467312543
 30
0.0
 11
118.7679416245771
 21
572.5285467312577
 31
0.0
  0
LINE
  5
F33
330
1E
100
AcDbEntity
  8
STEMPEL
100
AcDbLine
 10
99.60421656764811
 20
591.528546731256
 30
0.0
 11
100.6042165676483
 21
591.528546731256
 31
0.0
  0
LWPOLYLINE
  5
F34
330
1E
100
AcDbEntity
  8
STEMPEL
100
AcDbPolyline
 90
        7
 70
   128
 43
0.0
 10
-101.2959608935649
 20
585.490600787094
 10
-101.4337899031352
 20
584.7384945501556
 10
-101.5526541801014
 20
583.8157809394409
 10
-101.6490021820026
 20
582.7500296895366
 10
-101.7199551295408
 20
581.5730843527155
 10
-101.7633930215487
 20
580.3201108463135
 10
-101.7780179784463
 20
579.0285467312543
210
0.0
220
0.0
230
-1.0
  0
LWPOLYLINE
  5
F35
330
1E
100
AcDbEntity
  8
STEMPEL
100
AcDbPolyline
 90
       18
 70
   128
 43
0.0
 10
-100.8139038086838
 20
579.0285467312543
 10
-100.8305722321605
 20
580.4066681148788
 10
-100.880009879421
 20
581.7378592276585
 10
-100.9605332106814
 20
582.9767879528353
 10
-101.0694001004731
 20
584.0812640586046
 10
-101.2029032174354
 20
585.0136759358575
 10
-101.3564962730395
 20
585.7422714164187
 10
-101.5249488399915
 20
586.2422390550519
 10
-101.7025244681605
 20
586.4965530534687
 10
-101.8831760325075
 20
586.4965530534687
 10
-102.0607516606765
 20
586.2422390550519
 10
-102.2292042276285
 20
585.7422714164187
 10
-102.3827972832326
 20
585.0136759358575
 10
-102.5163004001949
 20
584.0812640586046
 10
-102.6251672899866
 20
582.9767879528353
 10
-102.7056906212471
 20
581.7378592276585
 10
-102.7551282685075
 20
580.4066681148788
 10
-102.7717966919842
 20
579.0285467312543
210
0.0
220
0.0
230
-1.0
  0
LINE
  5
F36
330
1E
100
AcDbEntity
  8
STEMPEL
100
AcDbLine
 10
98.19344462501318
 20
567.5285467312561
 30
0.0
 11
99.15755879477581
 21
567.5285467312561
 31
0.0
  0
LWPOLYLINE
  5
F37
330
1E
100
AcDbEntity
  8
STEMPEL
100
AcDbPolyline
 90
        7
 70
   128
 43
0.0
 10
99.15755879477558
 20
567.5285467312566
 10
99.83426066985305
 20
568.1381474591156
 10
100.4338100934869
 20
568.8657065430272
 10
100.9400987666366
 20
569.6916764047075
 10
101.3395240586822
 20
570.5938654299106
 10
101.621354473945
 20
571.5480341981042
 10
101.7780179784465
 20
572.5285467312565
  0
LWPOLYLINE
  5
F38
330
1E
100
AcDbEntity
  8
STEMPEL
100
AcDbPolyline
 90
       10
 70
   128
 43
0.0
 10
97.26580796095346
 20
566.5285467312561
 10
98.12388095722623
 20
566.5946739458288
 10
98.97669315684845
 20
566.847227695559
 10
99.79745146376547
 20
567.2782734118766
 10
100.5603698301644
 20
567.8742687823164
 10
101.2414793856636
 20
568.6164892140371
 10
101.8193814756093
 20
569.4816161108345
 10
102.2759199500155
 20
570.4424694815506
 10
102.5967515816131
 20
571.4688618632628
 10
102.7717966919842
 20
572.5285467312554
  0
LINE
  5
F3A
330
1E
100
AcDbEntity
  8
STEMPEL
100
AcDbLine
 10
87.60421656764833
 20
565.0285467312553
 30
0.0
 11
87.60421656764833
 21
562.5285467312544
 31
0.0
  0
LWPOLYLINE
  5
F3B
330
1E
100
AcDbEntity
  8
STEMPEL
100
AcDbPolyline
 90
       10
 70
   128
 43
0.0
 10
95.30791507765298
 20
566.5285467312572
 10
96.16598807392575
 20
566.5946739458299
 10
97.01880027354798
 20
566.8472276955601
 10
97.839558580465
 20
567.2782734118777
 10
98.60247694686393
 20
567.8742687823175
 10
99.28358650236317
 20
568.6164892140381
 10
99.86148859230889
 20
569.4816161108357
 10
100.3180270667151
 20
570.4424694815518
 10
100.6388586983127
 20
571.4688618632639
 10
100.8139038086838
 20
572.5285467312565
  0
ARC
  5
F3C
330
1E
100
AcDbEntity
  8
STEMPEL
100
AcDbCircle
 10
94.60421656764845
 20
572.5285467312552
 30
0.0
 40
6.0
100
AcDbArc
 50
270.0
 51
0.0
  0
ARC
  5
F3D
330
1E
100
AcDbEntity
  8
STEMPEL
100
AcDbCircle
 10
94.60421656764845
 20
572.5285467312552
 30
0.0
 40
5.0
100
AcDbArc
 50
270.0
 51
0.0
  0
LINE
  5
F3E
330
1E
100
AcDbEntity
  8
STEMPEL
100
AcDbLine
 10
102.7717966919842
 20
579.0285467312543
 30
0.0
 11
102.7717966919842
 21
572.5285467312554
 31
0.0
  0
LINE
  5
F3F
330
1E
100
AcDbEntity
  8
STEMPEL
100
AcDbLine
 10
101.7780179784464
 20
579.0285467312543
 30
0.0
 11
101.7780179784464
 21
572.5285467312565
 31
0.0
  0
LINE
  5
F40
330
1E
100
AcDbEntity
  8
STEMPEL
100
AcDbLine
 10
100.8139038086838
 20
579.0285467312543
 30
0.0
 11
100.8139038086838
 21
572.5285467312565
 31
0.0
  0
LWPOLYLINE
  5
F41
330
1E
100
AcDbEntity
  8
STEMPEL
100
AcDbPolyline
 90
       10
 70
   128
 43
0.0
 10
101.4545264288436
 20
566.5285467312561
 10
102.2907057036852
 20
566.6197002131829
 10
103.1014780943878
 20
566.8903910065408
 10
103.8622086921307
 20
567.3323943085494
 10
104.5497830826494
 20
567.9322800725424
 10
105.1433096660179
 20
568.6718210731371
 10
105.6247544373391
 20
569.5285467312563
 10
105.9794889408595
 20
570.4764258713023
 10
106.1967347481936
 20
571.4866576652549
 10
106.2698909554176
 20
572.5285467312565
  0
LINE
  5
F42
330
1E
100
AcDbEntity
  8
STEMPEL
100
AcDbLine
 10
111.6811710609854
 20
624.0285467312562
 30
0.0
 11
111.6811710609854
 21
599.0285467312594
 31
0.0
  0
LINE
  5
F43
330
1E
100
AcDbEntity
  8
STEMPEL
100
AcDbLine
 10
100.6042165676484
 20
636.5284887639392
 30
0.0
 11
100.6042165676484
 21
572.5285467312552
 31
0.0
  0
LINE
  5
F44
330
1E
100
AcDbEntity
  8
STEMPEL
100
AcDbLine
 10
99.60421656764834
 20
636.5284887639392
 30
0.0
 11
99.60421656764834
 21
572.5285467312552
 31
0.0
  0
LINE
  5
F45
330
1E
100
AcDbEntity
  8
STEMPEL
100
AcDbLine
 10
119.1811710609853
 20
624.0285467312562
 30
0.0
 11
119.1811710609853
 21
599.0285467312578
 31
0.0
  0
LINE
  5
F46
330
1E
100
AcDbEntity
  8
STEMPEL
100
AcDbLine
 10
118.3131070412964
 20
599.0285467312562
 30
0.0
 11
118.3131070412964
 21
624.0285467312578
 31
0.0
  0
LINE
  5
F47
330
1E
100
AcDbEntity
  8
STEMPEL
100
AcDbLine
 10
79.60421656764822
 20
567.528546731255
 30
0.0
 11
79.60421656764811
 21
566.5285467312547
 31
0.0
  0
LINE
  5
F49
330
1E
100
AcDbEntity
  8
HILF
100
AcDbLine
 10
86.60421656764833
 20
566.0285467312553
 30
0.0
 11
86.60421656764833
 21
562.5285467312545
 31
0.0
  0
LINE
  5
F4B
330
1E
100
AcDbEntity
  8
STEMPEL
100
AcDbLine
 10
77.60421656764833
 20
565.0285467312553
 30
0.0
 11
77.60421656764833
 21
562.5285467312545
 31
0.0
  0
LINE
  5
F4F
330
1E
100
AcDbEntity
  8
STEMPEL
100
AcDbLine
 10
78.60421656764834
 20
566.0285467312553
 30
0.0
 11
77.60421656764833
 21
565.0285467312553
 31
0.0
  0
LINE
  5
F50
330
1E
100
AcDbEntity
  8
HILF
100
AcDbLine
 10
78.60421656764834
 20
566.0285467312553
 30
0.0
 11
78.60421656764834
 21
562.5285467312545
 31
0.0
  0
LINE
  5
F53
330
1E
100
AcDbEntity
  8
STEMPEL
100
AcDbLine
 10
86.60421656764833
 20
566.0285467312553
 30
0.0
 11
78.60421656764834
 21
566.0285467312553
 31
0.0
  0
LINE
  5
F57
330
1E
100
AcDbEntity
  8
STEMPEL
100
AcDbLine
 10
77.60421656764833
 20
565.0285467312553
 30
0.0
 11
87.60421656764833
 21
565.0285467312553
 31
0.0
  0
LINE
  5
F58
330
1E
100
AcDbEntity
  8
STEMPEL
100
AcDbLine
 10
79.60421656764833
 20
567.5285467312547
 30
0.0
 11
94.60421656764856
 21
567.5285467312552
 31
0.0
  0
LINE
  5
F5A
330
1E
100
AcDbEntity
  8
STEMPEL
100
AcDbLine
 10
87.60421656764833
 20
565.0285467312553
 30
0.0
 11
86.60421656764833
 21
566.0285467312553
 31
0.0
  0
ARC
  5
F5C
330
1E
100
AcDbEntity
  8
STEMPEL
100
AcDbCircle
 10
112.6042165676483
 20
549.5285467312545
 30
0.0
 40
3.0
100
AcDbArc
 50
270.0
 51
90.0
  0
LINE
  5
F5D
102
{ACAD_REACTORS
330
12F1
102
}
330
1E
100
AcDbEntity
  8
STEMPEL
100
AcDbLine
 10
114.6042165676483
 20
544.0285467312545
 30
0.0
 11
114.6042165676483
 21
541.0285467312546
 31
0.0
  0
LINE
  5
F5E
330
1E
100
AcDbEntity
  8
STEMPEL
100
AcDbLine
 10
89.60421656764834
 20
552.5285467312547
 30
0.0
 11
89.60421656764834
 21
546.5285467312544
 31
0.0
  0
LINE
  5
F5F
330
1E
100
AcDbEntity
  8
STEMPEL
100
AcDbLine
 10
87.60421656764833
 20
552.5285467312547
 30
0.0
 11
87.60421656764833
 21
541.0285467312542
 31
0.0
  0
LINE
  5
F60
102
{ACAD_REACTORS
330
12F1
102
}
330
1E
100
AcDbEntity
  8
STEMPEL
100
AcDbLine
 10
89.60421656764834
 20
544.0285467312547
 30
0.0
 11
89.60421656764834
 21
541.0285467312542
 31
0.0
  0
LINE
  5
F61
330
1E
100
AcDbEntity
  8
HILF
100
AcDbLine
 10
86.60421656764833
 20
552.5285467312547
 30
0.0
 11
86.60421656764833
 21
541.0285467312542
 31
0.0
  0
LINE
  5
F62
330
1E
100
AcDbEntity
  8
STEMPEL
100
AcDbLine
 10
75.60421656764834
 20
552.5285467312547
 30
0.0
 11
75.60421656764834
 21
546.5285467312545
 31
0.0
  0
LINE
  5
F63
330
1E
100
AcDbEntity
  8
HILF
100
AcDbLine
 10
78.60421656764834
 20
552.5285467312547
 30
0.0
 11
78.60421656764834
 21
541.0285467312542
 31
0.0
  0
LINE
  5
F64
330
1E
100
AcDbEntity
  8
STEMPEL
100
AcDbLine
 10
77.60421656764833
 20
552.5285467312547
 30
0.0
 11
77.60421656764833
 21
541.0285467312542
 31
0.0
  0
LINE
  5
F65
102
{ACAD_REACTORS
330
12F1
102
}
330
1E
100
AcDbEntity
  8
STEMPEL
100
AcDbLine
 10
75.60421656764834
 20
544.0285467312547
 30
0.0
 11
75.60421656764834
 21
541.0285467312542
 31
0.0
  0
LINE
  5
F66
330
1E
100
AcDbEntity
  8
MITTEL
100
AcDbLine
 10
82.60421656764833
 20
571.0285467312553
 30
0.0
 11
82.60421656764833
 21
541.0285467312542
 31
0.0
  0
LINE
  5
F69
330
1E
100
AcDbEntity
  8
STEMPEL
100
AcDbLine
 10
116.8163647960587
 20
567.5285467312561
 30
0.0
 11
125.1525653443706
 21
567.5285467312561
 31
0.0
  0
LWPOLYLINE
  5
F6A
330
1E
100
AcDbEntity
  8
STEMPEL
100
AcDbPolyline
 90
       18
 70
   128
 43
0.0
 10
-118.7679416245772
 20
579.0285467312543
 10
-118.8456815258373
 20
580.4066681148788
 10
-119.0762538905192
 20
581.7378592276585
 10
-119.4518068532843
 20
582.9767879528353
 10
-119.959551408412
 20
584.0812640586046
 10
-120.58219692405
 20
585.0136759358575
 10
-121.298539953944
 20
585.7422714164187
 10
-122.0841862953699
 20
586.2422390550519
 10
-122.9123817044493
 20
586.4965530534687
 10
-123.754922979837
 20
586.4965530534687
 10
-124.5831183889164
 20
586.2422390550519
 10
-125.3687647303423
 20
585.7422714164187
 10
-126.0851077602364
 20
585.0136759358575
 10
-126.7077532758743
 20
584.0812640586046
 10
-127.215497831002
 20
582.9767879528353
 10
-127.5910507937672
 20
581.7378592276585
 10
-127.821623158449
 20
580.4066681148788
 10
-127.8993630597091
 20
579.0285467312543
210
0.0
220
0.0
230
-1.0
  0
ARC
  5
F6B
330
1E
100
AcDbEntity
  8
STEMPEL
100
AcDbCircle
 10
119.7611435292439
 20
535.0285467312546
 30
0.0
 40
3.0
100
AcDbArc
 50
32.70000000000014
 51
90.0
  0
ARC
  5
F6C
330
1E
100
AcDbEntity
  8
STEMPEL
100
AcDbCircle
 10
119.7611435292439
 20
535.0285467312546
 30
0.0
 40
6.0
100
AcDbArc
 50
32.70000000000014
 51
90.0
  0
LINE
  5
F6D
330
1E
100
AcDbEntity
  8
STEMPEL
100
AcDbLine
 10
103.0848629995213
 20
640.8473841781354
 30
0.0
 11
127.0637168924725
 21
654.8350373443209
 31
0.0
  0
LINE
  5
F6E
330
1E
100
AcDbEntity
  8
STEMPEL
100
AcDbLine
 10
102.5715219459405
 20
641.7056272912981
 30
0.0
 11
126.5578248214074
 21
655.6976373019867
 31
0.0
  0
ARC
  5
F6F
330
1E
100
AcDbEntity
  8
STEMPEL
100
AcDbCircle
 10
52.60421656764822
 20
549.5285467312545
 30
0.0
 40
3.0
100
AcDbArc
 50
90.0
 51
270.0
  0
LINE
  5
F70
330
1E
100
AcDbEntity
  8
STEMPEL
100
AcDbLine
 10
46.72553691120788
 20
535.0285467312545
 30
0.0
 11
48.84685725476789
 21
537.1498670748142
 31
0.0
  0
ARC
  5
F71
330
1E
100
AcDbEntity
  8
STEMPEL
100
AcDbCircle
 10
50.96817759832743
 20
535.0285467312545
 30
0.0
 40
3.0
100
AcDbArc
 50
90.0
 51
135.0
  0
ARC
  5
F72
330
1E
100
AcDbEntity
  8
STEMPEL
100
AcDbCircle
 10
50.96817759832743
 20
535.0285467312545
 30
0.0
 40
6.0
100
AcDbArc
 50
90.0
 51
135.0
  0
LINE
  5
F74
102
{ACAD_REACTORS
330
12F1
102
}
330
1E
100
AcDbEntity
  8
STEMPEL
100
AcDbLine
 10
44.60421656764822
 20
544.0285467312545
 30
0.0
 11
44.60421656764822
 21
541.0285467312546
 31
0.0
  0
LINE
  5
F75
330
1E
100
AcDbEntity
  8
STEMPEL
100
AcDbLine
 10
44.60421656764833
 20
537.1498670748142
 30
0.0
 11
46.72553691120788
 21
535.0285467312544
 31
0.0
  0
LINE
  5
F76
330
1E
100
AcDbEntity
  8
STEMPEL
100
AcDbLine
 10
44.60421656764833
 20
537.1498670748142
 30
0.0
 11
46.72553691120788
 21
539.2711874183739
 31
0.0
  0
LINE
  5
F77
102
{ACAD_REACTORS
330
12F1
102
}
330
1E
100
AcDbEntity
  8
STEMPEL
100
AcDbLine
 10
44.60421656764822
 20
544.0285467312547
 30
0.0
 11
77.60421656764833
 21
544.0285467312547
 31
0.0
  0
LINE
  5
F78
330
1E
100
AcDbEntity
  8
STEMPEL
100
AcDbLine
 10
52.60421656764822
 20
546.5285467312544
 30
0.0
 11
77.60421656764833
 21
546.5285467312545
 31
0.0
  0
LINE
  5
F7D
330
1E
100
AcDbEntity
  8
STEMPEL
100
AcDbLine
 10
46.72553691120765
 20
535.0285467312541
 30
0.0
 11
123.3261602400996
 21
535.0285467312541
 31
0.0
  0
LINE
  5
F7E
330
1E
100
AcDbEntity
  8
STEMPEL
100
AcDbLine
 10
50.96817759832743
 20
538.0285467312545
 30
0.0
 11
119.7611435292439
 21
538.0285467312545
 31
0.0
  0
DIMENSION
  5
F7F
330
1E
100
AcDbEntity
  8
BEM
100
AcDbDimension
  2
*D2
 10
33.3436426664814
 20
656.5285467312539
 30
0.0
 11
27.84364266648129
 21
601.5285467312541
 31
0.0
 70
    32
 71
     5
 42
109.9999999999993
  3
Standard
100
AcDbAlignedDimension
 13
52.60421656764822
 23
546.5285467312545
 33
0.0
 14
129.6042165676483
 24
656.5285467312539
 34
0.0
 50
90.0
100
AcDbRotatedDimension
1001
ACAD
1000
DSTYLE
1002
{
1070
    40
1040
2.0
1070
    41
1040
3.5
1070
    42
1040
1.0
1070
    43
1040
8.0
1070
    44
1040
1.5
1070
    47
1040
1.199999999999999
1070
    48
1040
1.199999999999999
1070
    73
1070
     0
1070
    74
1070
     0
1070
    77
1070
     1
1070
    78
1070
     8
1070
   140
1040
3.5
1070
   141
1040
1.5
1070
   147
1040
1.0
1070
   172
1070
     1
1070
   178
1070
     1
1070
   271
1070
     2
1070
   272
1070
     2
1070
   285
1070
     8
1070
   286
1070
     8
1070
   289
1070
     0
1070
   340
1005
24
1002
}
  0
DIMENSION
  5
F84
330
1E
100
AcDbEntity
  8
BEM
100
AcDbDimension
  2
*D3
 10
33.3436426664814
 20
541.0285467312546
 30
0.0
 11
27.8436426664813
 21
341.0285467312544
 31
0.0
 70
    32
 71
     5
 42
400.0000000000003
  3
Standard
100
AcDbAlignedDimension
 13
146.4791032029074
 23
141.0285467312542
 33
0.0
 14
44.60421656764822
 24
541.0285467312546
 34
0.0
 50
90.0
100
AcDbRotatedDimension
1001
ACAD
1000
DSTYLE
1002
{
1070
    40
1040
2.0
1070
    41
1040
3.5
1070
    42
1040
1.0
1070
    43
1040
7.0
1070
    44
1040
1.0
1070
    47
1040
0.7
1070
    48
1040
0.7
1070
    73
1070
     0
1070
    74
1070
     0
1070
    77
1070
     1
1070
    78
1070
     8
1070
   140
1040
3.5
1070
   141
1040
1.5
1070
   146
1040
0.5142857142857144
1070
   147
1040
1.0
1070
   172
1070
     1
1070
   178
1070
     1
1070
   271
1070
     2
1070
   272
1070
     2
1070
   279
1070
     2
1070
   284
1070
     8
1070
   285
1070
     8
1070
   286
1070
     8
1070
   340
1005
24
1002
}
  0
LINE
  5
F87
102
{ACAD_REACTORS
330
12F1
102
}
330
1E
100
AcDbEntity
  8
STEMPEL
100
AcDbLine
 10
44.60421656764822
 20
541.0285467312546
 30
0.0
 11
374.6042165676482
 21
541.0285467312538
 31
0.0
  0
LINE
  5
F88
330
1E
100
AcDbEntity
  8
STEMPEL
100
AcDbLine
 10
87.60421656764833
 20
546.5285467312544
 30
0.0
 11
366.6042165676482
 21
546.5285467312544
 31
0.0
  0
LINE
  5
F8A
102
{ACAD_REACTORS
330
12F1
102
}
330
1E
100
AcDbEntity
  8
STEMPEL
100
AcDbLine
 10
87.60421656764833
 20
544.0285467312547
 30
0.0
 11
374.6042165676482
 21
544.0285467312544
 31
0.0
  0
DIMENSION
  5
F8B
330
1E
100
AcDbEntity
  8
BEM
100
AcDbDimension
  2
*D4
 10
374.6042165676482
 20
679.3498985770427
 30
0.0
 11
209.6042165676483
 21
684.8498985770427
 31
0.0
 70
    32
  1
%%c<>
 71
     5
 42
329.9999999999999
  3
Standard
100
AcDbAlignedDimension
 13
44.60421656764833
 23
544.0285467312547
 33
0.0
 14
374.6042165676482
 24
544.0285467312544
 34
0.0
100
AcDbRotatedDimension
1001
ACAD
1000
DSTYLE
1002
{
1070
    40
1040
2.0
1070
    41
1040
3.5
1070
    42
1040
1.0
1070
    43
1040
8.0
1070
    44
1040
1.5
1070
    47
1040
1.199999999999999
1070
    48
1040
1.199999999999999
1070
    73
1070
     0
1070
    74
1070
     0
1070
    77
1070
     1
1070
    78
1070
     8
1070
   140
1040
3.5
1070
   141
1040
1.5
1070
   147
1040
1.0
1070
   172
1070
     1
1070
   178
1070
     1
1070
   271
1070
     2
1070
   272
1070
     2
1070
   285
1070
     8
1070
   286
1070
     8
1070
   289
1070
     0
1070
   340
1005
24
1002
}
  0
LINE
  5
F92
330
1E
100
AcDbEntity
  8
STEMPEL
100
AcDbLine
 10
52.60421656764822
 20
552.5285467312545
 30
0.0
 11
318.9463593430751
 21
552.5285467312548
 31
0.0
  0
ARC
  5
F93
330
1E
100
AcDbEntity
  8
STEMPEL
100
AcDbCircle
 10
181.0221638922286
 20
557.5285467312546
 30
0.0
 40
5.0
100
AcDbArc
 50
270.0
 51
358.9999999999982
  0
HATCH
  5
F94
330
1E
100
AcDbEntity
  8
SCHRAFF
100
AcDbHatch
 10
0.0
 20
0.0
 30
0.0
210
0.0
220
0.0
230
1.0
  2
_U
 70
     0
 71
     0
 91
        6
 92
        7
 72
     1
 73
     1
 93
        6
 10
79.60421656764822
 20
567.5285467312549
 42
0.0
 10
79.60421656764811
 20
566.5285467312577
 42
0.0
 10
94.60421656764834
 20
566.5285467312575
 42
0.131652497587392
 10
97.60421656764833
 20
567.3323943085507
 42
0.0
 10
97.60421656764833
 20
568.5285467312551
 42
-0.1622776601683613
 10
94.60421656764868
 20
567.5285467312552
 42
0.0
 97
        0
 92
        7
 72
     1
 73
     1
 93
        6
 10
100.6042165676484
 20
591.528546731256
 42
0.0
 10
99.60421656764834
 20
591.5285467312561
 42
0.0
 10
99.60421656764834
 20
572.5285467312552
 42
-0.2360679774997897
 10
97.60421656764833
 20
568.5285467312552
 42
0.0
 10
97.60421656764833
 20
567.3323943085485
 42
0.2679491924311254
 10
100.6042165676484
 20
572.5285467312551
 42
0.0
 97
        0
 92
        7
 72
     1
 73
     1
 93
       40
 10
102.5715219459513
 20
641.7056272913044
 42
0.2662608607109159
 10
99.60421656764834
 20
636.5284887639393
 42
0.0
 10
99.60421656764834
 20
631.528546731256
 42
0.0
 10
100.6042165676484
 20
631.528546731256
 42
0.0
 10
100.6042165676484
 20
636.5284887639392
 42
-0.2667503951500923
 10
103.0848629995212
 20
640.8473841781354
 42
0.0
 10
127.0637168924686
 20
654.8350373443187
 42
-0.1340385084115268
 10
129.6042165676482
 20
655.5285467312538
 42
0.0
 10
184.3425787399977
 20
655.5285467312542
 42
0.2679491924311331
 10
186.5076422494588
 20
656.7785467312543
 42
-0.2679491924311204
 10
186.9406549513511
 20
657.0285467312543
 42
0.0
 10
187.1406549513513
 20
657.0285467312543
 42
-0.2679491924312903
 10
187.5736676532438
 20
656.7785467312544
 42
0.2679491924311459
 10
189.738731162705
 20
655.5285467312542
 42
0.0
 10
191.7975787399974
 20
655.5285467312542
 42
0.2679491924311487
 10
193.9626422494587
 20
656.7785467312544
 42
-0.2679491924310494
 10
194.3956549513507
 20
657.0285467312543
 42
0.0
 10
194.5956549513512
 20
657.0285467312543
 42
-0.2679491924309788
 10
195.0286676532431
 20
656.7785467312542
 42
0.2679491924311188
 10
197.1937311627041
 20
655.5285467312542
 42
0.0
 10
203.6475787399984
 20
655.5285467312542
 42
0.2679491924310907
 10
205.8126422494593
 20
656.7785467312541
 42
-0.2679491924312511
 10
206.2456549513515
 20
657.0285467312543
 42
0.0
 10
209.6042165676483
 20
657.0285467312542
 42
0.0
 10
209.6042165676483
 20
658.0285467312543
 42
0.0
 10
206.2456549513511
 20
658.0285467312543
 42
0.2679491924310706
 10
204.9466168456747
 20
657.2785467312542
 42
-0.2679491924311248
 10
203.6475787399981
 20
656.5285467312543
 42
0.0
 10
197.1937311627041
 20
656.5285467312543
 42
-0.2679491924310946
 10
195.8946930570276
 20
657.2785467312542
 42
0.285907654623734
 10
194.4956549513516
 20
658.0252096859639
 42
0.2859076546239871
 10
193.0966168456743
 20
657.2785467312542
 42
-0.2679491924311237
 10
191.7975787399976
 20
656.5285467312543
 42
0.0
 10
189.7387311627051
 20
656.5285467312543
 42
-0.2679491924311664
 10
188.4396930570282
 20
657.2785467312542
 42
0.2859076546237742
 10
187.040654951352
 20
658.0252096859639
 42
0.2859076546240356
 10
185.6416168456744
 20
657.2785467312542
 42
-0.2679491924311194
 10
184.3425787399978
 20
656.5285467312543
 42
0.0
 10
129.6042165676482
 20
656.5285467312539
 42
0.1316524975840433
 10
126.6042165677165
 20
655.7246991540004
 42
0.0
 97
        0
 92
        7
 72
     1
 73
     1
 93
       39
 10
292.6042165675663
 20
655.7246991540084
 42
0.1316524975833739
 10
289.6042165676486
 20
656.5285467312548
 42
0.0
 10
235.0437311627052
 20
656.5285467312543
 42
-0.2679491924311991
 10
233.7446930570282
 20
657.2785467312542
 42
0.2859076546238128
 10
232.3456549513517
 20
658.0252096859639
 42
0.2859076546238881
 10
230.9466168456749
 20
657.2785467312542
 42
-0.2679491924311304
 10
229.6475787399983
 20
656.5285467312543
 42
0.0
 10
223.1937311627048
 20
656.5285467312543
 42
-0.2679491924311332
 10
221.894693057028
 20
657.2785467312542
 42
0.2859076546241097
 10
220.4956549513501
 20
658.0252096859639
 42
0.3607372083885869
 10
218.9432861965233
 20
656.9035467312541
 42
-0.3419987131195785
 10
218.4591632782474
 20
656.5285467312543
 42
0.0
 10
218.270414085648
 20
656.5285467312543
 42
-0.3419987131194884
 10
217.7862911673724
 20
656.9035467312543
 42
0.3419987131196405
 10
216.3339224125445
 20
658.0285467312543
 42
0.0
 10
209.6042165676483
 20
658.0285467312542
 42
0.0
 10
209.6042165676483
 20
657.0285467312542
 42
0.0
 10
216.3339224125447
 20
657.0285467312543
 42
-0.3419987131194818
 10
216.8180453308202
 20
656.6535467312543
 42
0.3596757619904723
 10
218.3647886819475
 20
655.5315185299256
 42
0.359675761990524
 10
219.911532033075
 20
656.6535467312543
 42
-0.3419987131196628
 10
220.395654951351
 20
657.0285467312543
 42
0.0
 10
220.5956549513512
 20
657.0285467312543
 42
-0.2679491924311947
 10
221.0286676532435
 20
656.7785467312543
 42
0.2679491924311145
 10
223.1937311627046
 20
655.5285467312544
 42
0.0
 10
229.6475787399988
 20
655.5285467312544
 42
0.2679491924310684
 10
231.8126422494595
 20
656.7785467312541
 42
-0.2679491924312787
 10
232.2456549513518
 20
657.0285467312543
 42
0.0
 10
232.4456549513511
 20
657.0285467312543
 42
-0.2679491924313323
 10
232.8786676532438
 20
656.7785467312544
 42
0.2679491924311285
 10
235.0437311627049
 20
655.5285467312544
 42
0.0
 10
289.6042165676486
 20
655.5285467312548
 42
-0.1340385084120632
 10
292.1447162428371
 20
654.8350373443136
 42
0.0
 10
316.1235701357757
 20
640.8473841781354
 42
-0.2667503951500853
 10
318.6042165676485
 20
636.5284887639393
 42
0.0
 10
318.6042165676485
 20
631.528546731256
 42
0.0
 10
319.6042165676486
 20
631.5285467312561
 42
0.0
 10
319.6042165676486
 20
636.5284887639393
 42
0.2662608607118826
 10
316.6369111893268
 20
641.7056272913153
 42
0.0
 97
        0
 92
        7
 72
     1
 73
     1
 93
        9
 10
319.6042165676486
 20
591.528546731256
 42
0.0
 10
318.6042165676485
 20
591.5285467312561
 42
0.0
 10
318.6042165676485
 20
572.5285467312552
 42
0.4142135623731085
 10
324.6042165676483
 20
566.5285467312549
 42
0.0
 10
327.6042165676483
 20
566.528546731255
 42
0.0
 10
327.6042165676483
 20
567.5285467312551
 42
0.0
 10
325.6042165676481
 20
567.5285467312552
 42
0.0
 10
324.6042165676485
 20
567.5285467312552
 42
-0.4142135623730885
 10
319.6042165676486
 20
572.5285467312552
 42
0.0
 97
        0
 92
        7
 72
     0
 73
     1
 93
        4
 10
335.6042165676484
 20
567.5285467312549
 10
335.6042165676484
 20
566.528546731255
 10
339.6042165676484
 20
566.5285467312549
 10
339.6042165676484
 20
567.5285467312547
 97
        0
 75
     0
 76
     0
 52
45.0
 41
2.0
 77
     0
 78
     1
 53
45.0
 43
-24.04525054446935
 44
164.0614570384093
 45
-1.414213562373094
 46
1.414213562373095
 79
     0
 47
0.3139380610148735
 98
        6
 10
88.13863748407925
 20
567.1655234042189
 10
100.3903747556126
 20
590.0830011001278
 10
122.6948199351516
 20
653.184551768006
 10
297.0464710440372
 20
652.8706136361336
 10
319.3509193682046
 20
588.8272485726381
 10
337.257302676059
 20
567.1655234042189
  0
LINE
  5
F95
330
1E
100
AcDbEntity
  8
STEMPEL
100
AcDbLine
 10
129.6042165676483
 20
655.5285467312538
 30
0.0
 11
289.6042165676486
 21
655.5285467312548
 31
0.0
  0
LINE
  5
F96
330
1E
100
AcDbEntity
  8
HILF
100
AcDbLine
 10
311.930549625179
 20
639.5285467312575
 30
0.0
 11
106.7778835101176
 21
639.5285467312572
 31
0.0
  0
LINE
  5
F97
330
1E
100
AcDbEntity
  8
STEMPEL
100
AcDbLine
 10
79.60421656764811
 20
566.5285467312576
 30
0.0
 11
328.6042165676481
 21
566.5285467312549
 31
0.0
  0
ARC
  5
F98
330
1E
100
AcDbEntity
  8
STEMPEL
100
AcDbCircle
 10
184.3425787399977
 20
658.0285467312543
 30
0.0
 40
2.5
100
AcDbArc
 50
270.0
 51
329.9999999999995
  0
ARC
  5
F99
330
1E
100
AcDbEntity
  8
STEMPEL
100
AcDbCircle
 10
186.9406549513512
 20
656.5285467312543
 30
0.0
 40
1.5
100
AcDbArc
 50
90.0
 51
149.9999999999994
  0
DIMENSION
  5
F9D
330
1E
100
AcDbEntity
  8
BEM
100
AcDbDimension
  2
*D5
 10
319.6042165676486
 20
664.6091933072612
 30
0.0
 11
209.6042165676485
 21
670.1091933072611
 31
0.0
 70
    32
  1
%%c<>
 71
     5
 42
220.0000000000002
  3
Standard
100
AcDbAlignedDimension
 13
99.60421656764834
 23
636.5284887639392
 33
0.0
 14
319.6042165676486
 24
636.5284887639392
 34
0.0
100
AcDbRotatedDimension
1001
ACAD
1000
DSTYLE
1002
{
1070
    40
1040
2.0
1070
    41
1040
3.5
1070
    42
1040
1.0
1070
    43
1040
7.0
1070
    44
1040
1.0
1070
    47
1040
2.399999999999999
1070
    48
1040
2.399999999999999
1070
    73
1070
     0
1070
    74
1070
     0
1070
    77
1070
     1
1070
    78
1070
     8
1070
   140
1040
3.5
1070
   141
1040
1.5
1070
   145
1040
0.5714285714285714
1070
   147
1040
1.0
1070
   172
1070
     1
1070
   178
1070
     1
1070
   271
1070
     1
1070
   272
1070
     1
1070
   279
1070
     1
1070
   284
1070
     8
1070
   285
1070
     8
1070
   286
1070
     8
1070
   340
1005
24
1002
}
  0
HATCH
  5
F9E
330
1E
100
AcDbEntity
  8
SCHRAFF
100
AcDbHatch
 10
0.0
 20
0.0
 30
0.0
210
0.0
220
0.0
230
1.0
  2
_USER
 70
     0
 71
     0
 91
        7
 92
        7
 72
     1
 73
     1
 93
       10
 10
318.9463593430751
 20
552.5285467312548
 42
0.0
 10
306.6042165676482
 20
552.5285467312548
 42
0.0175906946879192
 10
306.3933240831799
 20
552.5211249440999
 42
0.0
 10
306.3933240831799
 20
546.5359685184095
 42
0.0175906946879065
 10
306.6042165676481
 20
546.5285467312544
 42
0.0
 10
328.6042165676479
 20
546.5285467312544
 42
0.0
 10
328.6042165676497
 20
559.7785467312551
 42
0.0
 10
328.604216567648
 20
566.5285467312549
 42
0.0
 10
324.1042165676482
 20
566.5285467312549
 42
0.0
 10
323.945597818857
 20
557.4412846990687
 42
-0.4091108014277268
 97
        0
 92
        7
 72
     1
 73
     1
 93
        8
 10
339.2628353164398
 20
557.4412846990685
 42
0.0
 10
339.1042165676483
 20
566.5285467312549
 42
0.0
 10
334.6042165676488
 20
566.5285467312549
 42
0.0
 10
334.6042165676504
 20
559.7785467312551
 42
0.0
 10
334.6042165676495
 20
546.5285467312544
 42
0.0
 10
366.6042165676482
 20
546.5285467312544
 42
1.0
 10
366.6042165676482
 20
552.5285467312548
 42
0.0
 10
344.2620737922218
 20
552.5285467312548
 42
-0.4091108014277239
 97
        0
 92
        7
 72
     1
 73
     1
 93
        2
 10
306.3933240831799
 20
546.5359685184095
 42
0.0
 10
306.3933240831799
 20
552.5211249440996
 42
0.9320082274074453
 97
        0
 92
        7
 72
     1
 73
     1
 93
        4
 10
112.6042165676483
 20
546.5285467312544
 42
1.0
 10
112.6042165676483
 20
552.5285467312547
 42
0.0
 10
89.60421656764834
 20
552.5285467312547
 42
0.0
 10
89.60421656764834
 20
546.5285467312545
 42
0.0
 97
        0
 92
        7
 72
     1
 73
     1
 93
        4
 10
52.60421656764822
 20
552.5285467312545
 42
1.0
 10
52.60421656764822
 20
546.5285467312545
 42
0.0
 10
75.60421656764834
 20
546.5285467312545
 42
0.0
 10
75.60421656764834
 20
552.5285467312547
 42
0.0
 97
        0
 92
        7
 72
     0
 73
     1
 93
        4
 10
334.6042165676504
 20
559.7785467312558
 10
333.9542165676498
 20
559.1285467312552
 10
333.9542165676487
 20
546.5285467312544
 10
334.6042165676495
 20
546.5285467312544
 97
        0
 92
        7
 72
     0
 73
     1
 93
        4
 10
328.6042165676477
 20
546.5285467312544
 10
329.2542165676487
 20
546.5285467312544
 10
329.2542165676504
 20
559.1285467312541
 10
328.6042165676497
 20
559.7785467312551
 97
        0
 75
     0
 76
     0
 52
135.0
 41
5.0
 77
     0
 78
     1
 53
135.0
 43
-24.04525054446935
 44
164.0614570384093
 45
-3.535533905932737
 46
-3.535533905932737
 79
     0
 47
0.0632476346549042
 98
        7
 10
321.7032048664535
 20
551.0576820735129
 10
343.8489718820399
 20
549.6144865549977
 10
304.8531631465764
 20
549.6144865549977
 10
101.6898184734702
 20
549.1334209159331
 10
71.35974773732482
 20
549.6144865549977
 10
334.4208130789668
 20
556.099285441393
 10
328.787510496378
 20
556.0360386035947
  0
HATCH
  5
F9F
330
1E
100
AcDbEntity
  8
SCHRAFF
100
AcDbHatch
 10
0.0
 20
0.0
 30
0.0
210
0.0
220
0.0
230
1.0
  2
_USER
 70
     0
 71
     0
 91
        2
 92
        7
 72
     1
 73
     1
 93
        4
 10
132.1711950037577
 20
523.1020172293417
 42
0.0
 10
131.3296842218125
 20
522.5617769088643
 42
0.0
 10
130.393960538448
 20
524.0193163383105
 42
0.7673269879789756
 10
133.2516756447131
 20
521.4189956654511
 42
0.0
 97
        0
 92
        7
 72
     1
 73
     1
 93
        4
 10
288.8144725968487
 20
524.0193163383105
 42
0.0
 10
287.8787489134841
 20
522.5617769088642
 42
0.0
 10
287.0372381315389
 20
523.1020172293418
 42
0.0
 10
285.9567574905835
 20
521.4189956654511
 42
0.7673269879790372
 97
        0
 75
     0
 76
     0
 52
45.0
 41
0.1
 77
     0
 78
     1
 53
45.0
 43
-24.04525054446924
 44
98.80475718047888
 45
-0.0707106781186548
 46
0.0707106781186548
 79
     0
 47
0.4024564740976492
 98
        2
 10
132.651050506572
 20
521.7710894488736
 10
287.2951724665689
 20
521.7710894488736
  0
LINE
  5
FA0
330
1E
100
AcDbEntity
  8
STEMPEL
100
AcDbLine
 10
133.8542165676484
 20
524.1824978702971
 30
0.0
 11
285.3542165676484
 21
524.1824978702971
 31
0.0
  0
HATCH
  5
FA2
330
1E
100
AcDbEntity
  8
SCHRAFF
100
AcDbHatch
 10
0.0
 20
0.0
 30
0.0
210
0.0
220
0.0
230
1.0
  2
_USER
 70
     0
 71
     0
 91
        2
 92
        7
 72
     1
 73
     1
 93
       12
 10
119.7611435292439
 20
538.0285467312545
 42
-0.2553615373329036
 10
122.2856758750798
 20
536.6492676926875
 42
0.0
 10
131.3296842218124
 20
522.5617769088642
 42
0.0
 10
133.8542165676485
 20
524.1824978702971
 42
0.0
 10
124.8102082209158
 20
538.2699886541204
 42
0.2553615373328997
 10
119.7611435292438
 20
541.0285467312543
 42
0.0
 10
50.96817759832741
 20
541.0285467312546
 42
0.1989123673796664
 10
46.72553691120788
 20
539.2711874183739
 42
0.0
 10
44.60421656764835
 20
537.1498670748143
 42
0.0
 10
46.72553691120786
 20
535.0285467312545
 42
0.0
 10
48.84685725476789
 20
537.1498670748142
 42
-0.1989123673796561
 10
50.96817759832751
 20
538.0285467312545
 42
0.0
 97
        0
 92
        7
 72
     1
 73
     1
 93
       12
 10
368.240255536969
 20
538.0285467312545
 42
-0.1989123673796481
 10
370.3615758805286
 20
537.1498670748142
 42
0.0
 10
372.4828962240886
 20
535.0285467312544
 42
0.0
 10
374.6042165676481
 20
537.1498670748142
 42
0.0
 10
372.4828962240886
 20
539.2711874183739
 42
0.1989123673796343
 10
368.2402555369695
 20
541.0285467312538
 42
0.0
 10
299.4472896060527
 20
541.0285467312538
 42
0.2553615373329116
 10
294.3982249143807
 20
538.2699886541197
 42
0.0
 10
285.3542165676484
 20
524.1824978702968
 42
0.0
 10
287.8787489134842
 20
522.5617769088641
 42
0.0
 10
296.9227572602168
 20
536.6492676926875
 42
-0.2553615373329037
 10
299.4472896060528
 20
538.0285467312545
 42
0.0
 97
        0
 75
     0
 76
     0
 52
45.0
 41
2.0
 77
     0
 78
     1
 53
45.0
 43
-24.04525054446935
 44
164.0614570384093
 45
-1.414213562373094
 46
1.414213562373095
 79
     0
 47
0.5802597139239696
 98
        2
 10
108.0275144079567
 20
539.3976027657799
 10
311.2554160934012
 20
538.8173433705137
  0
LINE
  5
1043
330
1E
100
AcDbEntity
  8
TEXT
 62
     2
100
AcDbLine
 10
269.6450183417528
 20
681.2873162189321
 30
0.0
 11
284.0303702780012
 21
734.629468028306
 31
0.0
  0
TEXT
  5
1044
330
1E
100
AcDbEntity
  8
TEXT
 62
     1
100
AcDbText
 10
285.3817394261774
 20
737.7921296589375
 30
0.0
 40
7.0
  1
Siebkorb
 41
0.8
  7
GREEKS
100
AcDbText
  0
LINE
  5
1045
330
1E
100
AcDbEntity
  8
TEXT
 62
     2
100
AcDbLine
 10
284.0303702780012
 20
734.629468028306
 30
0.0
 11
392.3339750025132
 21
734.629468028306
 31
0.0
  0
TEXT
  5
1046
330
1E
100
AcDbEntity
  8
TEXT
 62
     1
100
AcDbText
 10
285.3817394261774
 20
724.115789141202
 30
0.0
 40
7.0
  1
EDV-Art.Nr. 21004.000X
 41
0.8
  7
GREEKS
100
AcDbText
  0
LINE
  5
1047
330
1E
100
AcDbEntity
  8
TEXT
 62
     2
100
AcDbLine
 10
266.0711161245552
 20
668.0349720659024
 30
0.0
 11
268.3621039394792
 21
676.5301566368941
 31
0.0
  0
LINE
  5
1048
330
1E
100
AcDbEntity
  8
TEXT
 62
     2
100
AcDbLine
 10
262.7308904822369
 20
655.6491212309888
 30
0.0
 11
264.6800616095614
 21
662.8768194226613
 31
0.0
  0
ARC
  5
122B
330
1E
100
AcDbEntity
  8
STEMPEL
100
AcDbCircle
 10
82.60421656764833
 20
532.2176575987997
 30
0.0
 40
30.31088913245485
100
AcDbArc
 50
81.78678929826093
 51
98.21321070173826
  0
ARC
  5
122C
330
1E
100
AcDbEntity
  8
STEMPEL
100
AcDbCircle
 10
76.10902603926504
 20
554.8342410234701
 30
0.0
 40
7.694305707784447
100
AcDbArc
 50
73.65710669401501
 51
106.342893305985
  0
ARC
  5
122D
330
1E
100
AcDbEntity
  8
STEMPEL
100
AcDbCircle
 10
89.09940709603162
 20
554.8342410234701
 30
0.0
 40
7.694305707784447
100
AcDbArc
 50
73.65710669401501
 51
106.342893305985
  0
ARC
  5
122E
330
1E
100
AcDbEntity
  8
HILF
100
AcDbCircle
 10
82.60421656764833
 20
532.6300856835932
 30
0.0
 40
22.41111549782308
100
AcDbArc
 50
78.85962783890473
 51
101.1403721610953
  0
ARC
  5
122F
330
1E
100
AcDbEntity
  8
HILF
100
AcDbCircle
 10
89.09940709603162
 20
549.2800605817249
 30
0.0
 40
5.761140599691502
100
AcDbArc
 50
67.92594526326206
 51
112.0740547367379
  0
ARC
  5
1230
330
1E
100
AcDbEntity
  8
HILF
100
AcDbCircle
 10
76.10902603926504
 20
549.2800605817249
 30
0.0
 40
5.761140599691502
100
AcDbArc
 50
67.92594526326206
 51
112.0740547367379
  0
POINT
  5
1231
330
1E
100
AcDbEntity
  8
0
100
AcDbPoint
 10
82.60421656764833
 20
552.5285467312545
 30
0.0
210
0.0000000000000001
220
1.0
230
0.0
  0
LINE
  5
1232
330
1E
100
AcDbEntity
  8
STEMPEL
100
AcDbLine
 10
75.10421656764837
 20
562.5285467312545
 30
0.0
 11
90.10421656764831
 21
562.5285467312545
 31
0.0
  0
LINE
  5
1233
330
1E
100
AcDbEntity
  8
STEMPEL
100
AcDbLine
 10
91.26447060549272
 20
554.6189032474543
 30
0.0
 11
91.26447060549272
 21
562.2176575987992
 31
0.0
  0
LINE
  5
1234
330
1E
100
AcDbEntity
  8
STEMPEL
100
AcDbLine
 10
86.93434358657054
 20
554.6189032474543
 30
0.0
 11
86.93434358657054
 21
562.2176575987992
 31
0.0
  0
LINE
  5
1235
330
1E
100
AcDbEntity
  8
STEMPEL
100
AcDbLine
 10
78.27408954872614
 20
554.6189032474543
 30
0.0
 11
78.27408954872614
 21
562.2176575987992
 31
0.0
  0
LINE
  5
1236
330
1E
100
AcDbEntity
  8
STEMPEL
100
AcDbLine
 10
93.01073167514259
 20
553.9833161968439
 30
0.0
 11
72.19770146015408
 21
553.9833161968439
 31
0.0
  0
LINE
  5
1237
330
1E
100
AcDbEntity
  8
STEMPEL
100
AcDbLine
 10
92.75421656764834
 20
552.5285467312545
 30
0.0
 11
72.45421656764833
 21
552.5285467312545
 31
0.0
  0
LINE
  5
1238
330
1E
100
AcDbEntity
  8
STEMPEL
100
AcDbLine
 10
73.94396252980396
 20
554.6189032474543
 30
0.0
 11
73.94396252980396
 21
562.2176575987992
 31
0.0
  0
LINE
  5
1239
330
1E
100
AcDbEntity
  8
STEMPEL
100
AcDbLine
 10
75.10421656764837
 20
562.5285467312545
 30
0.0
 11
73.94396252980396
 21
562.2176575987992
 31
0.0
  0
LINE
  5
123A
330
1E
100
AcDbEntity
  8
STEMPEL
100
AcDbLine
 10
91.26447060549272
 20
562.2176575987992
 30
0.0
 11
90.10421656764831
 21
562.5285467312545
 31
0.0
  0
LINE
  5
123B
330
1E
100
AcDbEntity
  8
STEMPEL
100
AcDbLine
 10
93.01073167514259
 20
553.9833161968439
 30
0.0
 11
91.26447060549272
 21
554.6189032474543
 31
0.0
  0
LINE
  5
123C
330
1E
100
AcDbEntity
  8
STEMPEL
100
AcDbLine
 10
73.94396252980396
 20
554.6189032474543
 30
0.0
 11
72.1977014601541
 21
553.9833161968439
 31
0.0
  0
ARC
  5
123D
330
1E
100
AcDbEntity
  8
STEMPEL
100
AcDbCircle
 10
72.45421656764833
 20
553.2785467312545
 30
0.0
 40
0.7500000000000013
100
AcDbArc
 50
110.0000000000006
 51
269.9999991462263
  0
ARC
  5
123E
330
1E
100
AcDbEntity
  8
STEMPEL
100
AcDbCircle
 10
92.75421656764834
 20
553.2785467312545
 30
0.0
 40
0.750000000000001
100
AcDbArc
 50
269.9999991462263
 51
69.99999999999935
  0
ARC
  5
1258
330
1E
100
AcDbEntity
  8
STEMPEL
100
AcDbCircle
 10
146.1042165676481
 20
532.2176575987998
 30
0.0
 40
30.31088913245485
100
AcDbArc
 50
81.78678929826174
 51
98.21321070173826
  0
ARC
  5
1259
330
1E
100
AcDbEntity
  8
STEMPEL
100
AcDbCircle
 10
139.6090260392649
 20
554.8342410234702
 30
0.0
 40
7.694305707784447
100
AcDbArc
 50
73.65710669401501
 51
106.342893305985
  0
ARC
  5
125A
330
1E
100
AcDbEntity
  8
STEMPEL
100
AcDbCircle
 10
152.5994070960314
 20
554.8342410234702
 30
0.0
 40
7.694305707784447
100
AcDbArc
 50
73.65710669401501
 51
106.342893305985
  0
ARC
  5
125B
330
1E
100
AcDbEntity
  8
HILF
100
AcDbCircle
 10
146.1042165676481
 20
532.6300856835934
 30
0.0
 40
22.41111549782308
100
AcDbArc
 50
78.85962783890552
 51
101.1403721610945
  0
ARC
  5
125C
330
1E
100
AcDbEntity
  8
HILF
100
AcDbCircle
 10
152.5994070960314
 20
549.280060581725
 30
0.0
 40
5.761140599691502
100
AcDbArc
 50
67.92594526326206
 51
112.0740547367379
  0
ARC
  5
125D
330
1E
100
AcDbEntity
  8
HILF
100
AcDbCircle
 10
139.6090260392649
 20
549.280060581725
 30
0.0
 40
5.761140599691502
100
AcDbArc
 50
67.92594526326206
 51
112.0740547367379
  0
POINT
  5
125E
330
1E
100
AcDbEntity
  8
0
100
AcDbPoint
 10
146.1042165676481
 20
552.5285467312547
 30
0.0
210
0.0000000000000001
220
1.0
230
0.0
  0
LINE
  5
125F
330
1E
100
AcDbEntity
  8
STEMPEL
100
AcDbLine
 10
138.6042165676482
 20
562.5285467312546
 30
0.0
 11
153.6042165676481
 21
562.5285467312546
 31
0.0
  0
LINE
  5
1260
330
1E
100
AcDbEntity
  8
STEMPEL
100
AcDbLine
 10
154.7644706054925
 20
554.6189032474544
 30
0.0
 11
154.7644706054925
 21
562.2176575987992
 31
0.0
  0
LINE
  5
1261
330
1E
100
AcDbEntity
  8
STEMPEL
100
AcDbLine
 10
150.4343435865703
 20
554.6189032474544
 30
0.0
 11
150.4343435865703
 21
562.2176575987992
 31
0.0
  0
LINE
  5
1262
330
1E
100
AcDbEntity
  8
STEMPEL
100
AcDbLine
 10
141.774089548726
 20
554.6189032474544
 30
0.0
 11
141.774089548726
 21
562.2176575987992
 31
0.0
  0
LINE
  5
1263
330
1E
100
AcDbEntity
  8
STEMPEL
100
AcDbLine
 10
156.5107316751424
 20
553.983316196844
 30
0.0
 11
135.6977014601539
 21
553.983316196844
 31
0.0
  0
LINE
  5
1264
330
1E
100
AcDbEntity
  8
STEMPEL
100
AcDbLine
 10
156.2542165676481
 20
552.5285467312547
 30
0.0
 11
135.9542165676481
 21
552.5285467312547
 31
0.0
  0
LINE
  5
1265
330
1E
100
AcDbEntity
  8
STEMPEL
100
AcDbLine
 10
137.4439625298037
 20
554.6189032474544
 30
0.0
 11
137.4439625298037
 21
562.2176575987992
 31
0.0
  0
LINE
  5
1266
330
1E
100
AcDbEntity
  8
STEMPEL
100
AcDbLine
 10
138.6042165676482
 20
562.5285467312546
 30
0.0
 11
137.4439625298037
 21
562.2176575987992
 31
0.0
  0
LINE
  5
1267
330
1E
100
AcDbEntity
  8
STEMPEL
100
AcDbLine
 10
154.7644706054925
 20
562.2176575987992
 30
0.0
 11
153.6042165676481
 21
562.5285467312546
 31
0.0
  0
LINE
  5
1268
330
1E
100
AcDbEntity
  8
STEMPEL
100
AcDbLine
 10
156.5107316751424
 20
553.983316196844
 30
0.0
 11
154.7644706054925
 21
554.6189032474544
 31
0.0
  0
LINE
  5
1269
330
1E
100
AcDbEntity
  8
STEMPEL
100
AcDbLine
 10
137.4439625298038
 20
554.6189032474544
 30
0.0
 11
135.6977014601539
 21
553.983316196844
 31
0.0
  0
ARC
  5
126A
330
1E
100
AcDbEntity
  8
STEMPEL
100
AcDbCircle
 10
135.9542165676481
 20
553.2785467312546
 30
0.0
 40
0.7500000000000013
100
AcDbArc
 50
110.0000000000006
 51
269.9999991462263
  0
ARC
  5
126B
330
1E
100
AcDbEntity
  8
STEMPEL
100
AcDbCircle
 10
156.2542165676481
 20
553.2785467312546
 30
0.0
 40
0.750000000000001
100
AcDbArc
 50
269.9999991462263
 51
69.99999999999935
  0
ARC
  5
1285
330
1E
100
AcDbEntity
  8
STEMPEL
100
AcDbCircle
 10
306.6042165676482
 20
532.2176575988
 30
0.0
 40
30.31088913245485
100
AcDbArc
 50
81.78678929826011
 51
98.21321070173988
  0
ARC
  5
1286
330
1E
100
AcDbEntity
  8
STEMPEL
100
AcDbCircle
 10
300.109026039265
 20
554.8342410234702
 30
0.0
 40
7.694305707784447
100
AcDbArc
 50
73.65710669401345
 51
106.3428933059834
  0
ARC
  5
1287
330
1E
100
AcDbEntity
  8
STEMPEL
100
AcDbCircle
 10
313.0994070960315
 20
554.8342410234702
 30
0.0
 40
7.694305707784447
100
AcDbArc
 50
73.65710669401345
 51
106.3428933059834
  0
ARC
  5
1288
330
1E
100
AcDbEntity
  8
HILF
100
AcDbCircle
 10
306.6042165676482
 20
532.6300856835935
 30
0.0
 40
22.41111549782308
100
AcDbArc
 50
78.85962783890391
 51
101.1403721610961
  0
ARC
  5
1289
330
1E
100
AcDbEntity
  8
HILF
100
AcDbCircle
 10
313.0994070960316
 20
549.2800605817251
 30
0.0
 40
5.761140599691502
100
AcDbArc
 50
67.92594526326054
 51
112.0740547367394
  0
ARC
  5
128A
330
1E
100
AcDbEntity
  8
HILF
100
AcDbCircle
 10
300.1090260392649
 20
549.2800605817251
 30
0.0
 40
5.761140599691502
100
AcDbArc
 50
67.92594526326054
 51
112.0740547367394
  0
POINT
  5
128B
330
1E
100
AcDbEntity
  8
0
100
AcDbPoint
 10
306.6042165676482
 20
552.5285467312547
 30
0.0
210
0.0000000000000001
220
1.0
230
0.0
  0
LINE
  5
128C
330
1E
100
AcDbEntity
  8
STEMPEL
100
AcDbLine
 10
299.1042165676482
 20
562.5285467312547
 30
0.0
 11
314.1042165676482
 21
562.5285467312547
 31
0.0
  0
LINE
  5
128D
330
1E
100
AcDbEntity
  8
STEMPEL
100
AcDbLine
 10
315.2644706054926
 20
554.6189032474545
 30
0.0
 11
315.2644706054926
 21
562.2176575987993
 31
0.0
  0
LINE
  5
128E
330
1E
100
AcDbEntity
  8
STEMPEL
100
AcDbLine
 10
310.9343435865704
 20
554.6189032474545
 30
0.0
 11
310.9343435865704
 21
562.2176575987993
 31
0.0
  0
LINE
  5
128F
330
1E
100
AcDbEntity
  8
STEMPEL
100
AcDbLine
 10
302.274089548726
 20
554.6189032474545
 30
0.0
 11
302.274089548726
 21
562.2176575987993
 31
0.0
  0
LINE
  5
1290
330
1E
100
AcDbEntity
  8
STEMPEL
100
AcDbLine
 10
317.0107316751425
 20
553.9833161968441
 30
0.0
 11
296.197701460154
 21
553.9833161968441
 31
0.0
  0
LINE
  5
1291
330
1E
100
AcDbEntity
  8
STEMPEL
100
AcDbLine
 10
316.7542165676482
 20
552.5285467312547
 30
0.0
 11
296.4542165676482
 21
552.5285467312547
 31
0.0
  0
LINE
  5
1292
330
1E
100
AcDbEntity
  8
STEMPEL
100
AcDbLine
 10
297.9439625298038
 20
554.6189032474545
 30
0.0
 11
297.9439625298038
 21
562.2176575987993
 31
0.0
  0
LINE
  5
1293
330
1E
100
AcDbEntity
  8
STEMPEL
100
AcDbLine
 10
299.1042165676482
 20
562.5285467312547
 30
0.0
 11
297.9439625298038
 21
562.2176575987993
 31
0.0
  0
LINE
  5
1294
330
1E
100
AcDbEntity
  8
STEMPEL
100
AcDbLine
 10
315.2644706054926
 20
562.2176575987993
 30
0.0
 11
314.1042165676482
 21
562.5285467312547
 31
0.0
  0
LINE
  5
1295
330
1E
100
AcDbEntity
  8
STEMPEL
100
AcDbLine
 10
317.0107316751425
 20
553.9833161968441
 30
0.0
 11
315.2644706054926
 21
554.6189032474545
 31
0.0
  0
LINE
  5
1296
330
1E
100
AcDbEntity
  8
STEMPEL
100
AcDbLine
 10
297.9439625298038
 20
554.6189032474545
 30
0.0
 11
296.197701460154
 21
553.9833161968441
 31
0.0
  0
ARC
  5
1297
330
1E
100
AcDbEntity
  8
STEMPEL
100
AcDbCircle
 10
296.4542165676482
 20
553.2785467312548
 30
0.0
 40
0.7500000000000013
100
AcDbArc
 50
110.0000000000006
 51
269.9999991462263
  0
ARC
  5
1298
330
1E
100
AcDbEntity
  8
STEMPEL
100
AcDbCircle
 10
316.7542165676482
 20
553.2785467312548
 30
0.0
 40
0.750000000000001
100
AcDbArc
 50
269.9999991462263
 51
69.99999999999935
  0
HATCH
  5
12F1
330
1E
100
AcDbEntity
  8
SCHRAFF
100
AcDbHatch
 10
0.0
 20
0.0
 30
0.0
210
0.0
220
0.0
230
1.0
  2
NET
 70
     0
 71
     1
 91
        5
 92
        7
 72
     0
 73
     1
 93
        4
 10
346.7478917930915
 20
544.0285467312544
 10
347.9328834556595
 20
541.0285467312538
 10
374.6042165676482
 20
541.0285467312538
 10
374.6042165676482
 20
544.0285467312544
 97
        4
330
F8A
330
B70
330
F87
330
E01
 92
        7
 72
     0
 73
     1
 93
        4
 10
306.3933240831799
 20
544.0285467312544
 10
306.3933240831799
 20
541.0285467312538
 10
347.9328834556595
 20
541.0285467312538
 10
346.7478917930914
 20
544.0285467312544
 97
        4
330
F8A
330
E93
330
F87
330
B70
 92
        7
 72
     0
 73
     1
 93
        4
 10
304.6042165676482
 20
541.0285467312539
 10
306.3933240831799
 20
541.028546731254
 10
306.3933240831799
 20
544.0285467312545
 10
304.6042165676482
 20
544.0285467312545
 97
        4
330
F8A
330
E87
330
F87
330
E93
 92
        7
 72
     0
 73
     1
 93
        4
 10
89.60421656764834
 20
544.0285467312547
 10
89.60421656764834
 20
541.0285467312544
 10
114.6042165676483
 20
541.0285467312544
 10
114.6042165676483
 20
544.0285467312547
 97
        4
330
F8A
330
F60
330
F87
330
F5D
 92
        7
 72
     0
 73
     1
 93
        4
 10
44.60421656764822
 20
544.0285467312547
 10
44.60421656764821
 20
541.0285467312544
 10
75.60421656764834
 20
541.0285467312544
 10
75.60421656764834
 20
544.0285467312547
 97
        4
330
F77
330
F74
330
F87
330
F65
 75
     0
 76
     1
 52
45.0
 41
15.0
 77
     0
 78
     2
 53
45.0
 43
0.0
 44
0.0
 45
-1.325825214724776
 46
1.325825214724776
 79
     0
 53
135.0
 43
0.0
 44
0.0
 45
-1.325825214724776
 46
-1.325825214724776
 79
     0
 47
0.3940048676298354
 98
        5
 10
363.9451955273084
 20
542.5537340755274
 10
333.5965276782876
 20
542.5537340755274
 10
305.2185506789274
 20
542.5537340755274
 10
106.1785813582682
 20
542.9477398434626
 10
65.18816984642217
 20
542.9477398434626
  0
ARC
  5
130A
330
1E
100
AcDbEntity
  8
STEMPEL
100
AcDbCircle
 10
277.604216567648
 20
501.9299778261671
 30
0.0
 40
5.5
100
AcDbArc
 50
147.2999999999998
 51
180.0
  0
ARC
  5
130B
330
1E
100
AcDbEntity
  8
STEMPEL
100
AcDbCircle
 10
277.604216567648
 20
501.9299778261671
 30
0.0
 40
4.0
100
AcDbArc
 50
147.2999999999998
 51
180.0
  0
LINE
  5
130C
102
{ACAD_REACTORS
330
14E2
102
}
330
1E
100
AcDbEntity
  8
STEMPEL
100
AcDbLine
 10
273.604216567648
 20
501.9299778261671
 30
0.0
 11
273.604216567648
 21
151.0285467312528
 31
0.0
  0
LINE
  5
130D
330
1E
100
AcDbEntity
  8
STEMPEL
100
AcDbLine
 10
272.1042165676481
 20
501.9299778261671
 30
0.0
 11
272.1042165676486
 21
151.0940381456224
 31
0.0
  0
LINE
  5
130E
330
1E
100
AcDbEntity
  8
STEMPEL
100
AcDbLine
 10
286.6164827405662
 20
523.3721373895805
 30
0.0
 11
274.2381734398668
 21
504.0909391080778
 31
0.0
  0
LINE
  5
130F
330
1E
100
AcDbEntity
  8
STEMPEL
100
AcDbLine
 10
294.3982249143809
 20
538.2699886541205
 30
0.0
 11
272.9759072669487
 21
504.9012995887943
 31
0.0
  0
LINE
  5
1310
330
1E
100
AcDbEntity
  8
HILF
100
AcDbLine
 10
148.4800401247221
 20
503.0559945864498
 30
0.0
 11
270.6953754017533
 21
503.0559945864498
 31
0.0
  0
LINE
  5
1311
330
1E
100
AcDbEntity
  8
STEMPEL
100
AcDbLine
 10
124.8102082209156
 20
538.2699886541208
 30
0.0
 11
146.2325258683477
 21
504.9012995887944
 31
0.0
  0
LINE
  5
1312
330
1E
100
AcDbEntity
  8
STEMPEL
100
AcDbLine
 10
132.5919503947303
 20
523.3721373895807
 30
0.0
 11
144.9702596954296
 21
504.090939108078
 31
0.0
  0
ARC
  5
1313
330
1E
100
AcDbEntity
  8
STEMPEL
100
AcDbCircle
 10
141.6042165676484
 20
501.9299778261673
 30
0.0
 40
4.0
100
AcDbArc
 50
0.0
 51
32.70000000000014
  0
ARC
  5
1314
330
1E
100
AcDbEntity
  8
STEMPEL
100
AcDbCircle
 10
141.6042165676484
 20
501.9299778261673
 30
0.0
 40
5.5
100
AcDbArc
 50
0.0
 51
32.70000000000014
  0
LINE
  5
1315
330
1E
100
AcDbEntity
  8
STEMPEL
100
AcDbLine
 10
147.1042165676482
 20
501.9299778261673
 30
0.0
 11
147.1042165676481
 21
151.0940381456165
 31
0.0
  0
LINE
  5
1316
102
{ACAD_REACTORS
330
14E2
102
}
330
1E
100
AcDbEntity
  8
STEMPEL
100
AcDbLine
 10
145.6042165676482
 20
501.9299778261673
 30
0.0
 11
145.6042165676482
 21
151.0285467312528
 31
0.0
  0
LINE
  5
132F
330
1E
100
AcDbEntity
  8
STEMPEL
100
AcDbLine
 10
273.6042165676481
 20
151.0285467312543
 30
0.0
 11
272.7293299323889
 21
141.0285467312541
 31
0.0
  0
LINE
  5
1330
330
1E
100
AcDbEntity
  8
STEMPEL
100
AcDbLine
 10
272.1042165676481
 20
151.0940381456171
 30
0.0
 11
271.2350378852512
 21
141.1592803453756
 31
0.0
  0
LINE
  5
1331
330
1E
100
AcDbEntity
  8
STEMPEL
100
AcDbLine
 10
147.1042165676481
 20
151.0940381456171
 30
0.0
 11
147.973395250045
 21
141.1592803453756
 31
0.0
  0
LINE
  5
1332
330
1E
100
AcDbEntity
  8
HILF
100
AcDbLine
 10
148.6156760802781
 20
151.0285467312542
 30
0.0
 11
270.5927570550181
 21
151.0285467312541
 31
0.0
  0
DIMENSION
  5
1334
330
1E
100
AcDbEntity
  8
BEM
100
AcDbDimension
  2
*D6
 10
273.6042165676481
 20
117.910199594786
 30
0.0
 11
209.6042165676481
 21
124.410199594786
 31
0.0
 70
    32
  1
%%c<>
 71
     5
 42
128.0
  3
Standard
100
AcDbAlignedDimension
 13
145.6042165676481
 23
151.0285467312541
 33
0.0
 14
273.6042165676481
 24
151.0285467312543
 34
0.0
100
AcDbRotatedDimension
1001
ACAD
1000
DSTYLE
1002
{
1070
    40
1040
2.0
1070
    41
1040
3.5
1070
    42
1040
1.0
1070
    43
1040
7.0
1070
    44
1040
1.0
1070
    73
1070
     0
1070
    74
1070
     0
1070
    77
1070
     1
1070
    78
1070
     8
1070
    79
1070
     2
1070
   140
1040
3.5
1070
   141
1040
1.5
1070
   146
1040
0.5142857142857144
1070
   147
1040
1.5
1070
   172
1070
     1
1070
   178
1070
     1
1070
   179
1070
     2
1070
   271
1070
     2
1070
   272
1070
     2
1070
   284
1070
     8
1070
   285
1070
     8
1070
   286
1070
     8
1002
}
  0
LINE
  5
1335
330
1E
100
AcDbEntity
  8
STEMPEL
100
AcDbLine
 10
145.6042165676481
 20
151.0285467312543
 30
0.0
 11
146.4791032029074
 21
141.0285467312542
 31
0.0
  0
HATCH
  5
136A
330
1E
100
AcDbEntity
  8
SCHRAFF
100
AcDbHatch
 10
0.0
 20
0.0
 30
0.0
210
0.0
220
0.0
230
1.0
  2
_USER
 70
     0
 71
     0
 91
        2
 92
        7
 72
     1
 73
     1
 93
       10
 10
273.604216567648
 20
501.9299778261671
 42
-0.1436568363649785
 10
274.2381734398668
 20
504.0909391080778
 42
0.0
 10
286.6164827405663
 20
523.3721373895805
 42
0.0
 10
285.3542165676482
 20
524.1824978702971
 42
0.0
 10
272.9759072669487
 20
504.9012995887943
 42
0.1436568363649688
 10
272.1042165676481
 20
501.9299778261673
 42
0.0
 10
272.1042165676486
 20
151.0940381456234
 42
0.0
 10
271.2236001760739
 20
141.0285467312541
 42
0.0
 10
272.7293299323889
 20
141.0285467312541
 42
0.0
 10
273.604216567648
 20
151.0285467312528
 42
0.0
 97
        0
 92
        7
 72
     1
 73
     1
 93
       10
 10
147.1042165676482
 20
501.9299778261673
 42
0.1436568363649738
 10
146.2325258683477
 20
504.9012995887944
 42
0.0
 10
133.8542165676484
 20
524.1824978702971
 42
0.0
 10
132.5919503947303
 20
523.3721373895805
 42
0.0
 10
144.9702596954296
 20
504.090939108078
 42
-0.1436568363649701
 10
145.6042165676482
 20
501.9299778261673
 42
0.0
 10
145.6042165676482
 20
151.0285467312525
 42
0.0
 10
146.4791032029074
 20
141.0285467312541
 42
0.0
 10
147.9848329592224
 20
141.0285467312541
 42
0.0
 10
147.1042165676481
 20
151.0940381456163
 42
0.0
 97
        0
 75
     0
 76
     0
 52
135.0
 41
2.0
 77
     0
 78
     1
 53
135.0
 43
0.0
 44
0.0
 45
-1.414213562373095
 46
-1.414213562373094
 79
     0
 47
0.5630069262138519
 98
        2
 10
272.9075665275646
 20
410.9374428053826
 10
146.1880275590438
 20
423.3235952268385
  0
LINE
  5
13FA
102
{ACAD_REACTORS
330
14E2
102
}
330
1E
100
AcDbEntity
  8
STEMPEL
 48
0.3
100
AcDbLine
 10
268.6042165676481
 20
149.0285467312541
 30
0.0
 11
268.6042165676481
 21
141.0285467312541
 31
0.0
  0
LINE
  5
13FB
102
{ACAD_REACTORS
330
14E2
102
}
330
1E
100
AcDbEntity
  8
STEMPEL
 48
0.3
100
AcDbLine
 10
264.6042165676481
 20
149.0285467312541
 30
0.0
 11
264.6042165676481
 21
137.0285467312541
 31
0.0
  0
LINE
  5
13FC
102
{ACAD_REACTORS
330
14E2
102
}
330
1E
100
AcDbEntity
  8
STEMPEL
 48
0.3
100
AcDbLine
 10
264.6042165676481
 20
149.0285467312541
 30
0.0
 11
268.6042165676481
 21
149.0285467312541
 31
0.0
  0
LINE
  5
13FD
102
{ACAD_REACTORS
330
14E2
102
}
330
1E
100
AcDbEntity
  8
STEMPEL
 48
0.3
100
AcDbLine
 10
268.6042165676481
 20
141.0285467312541
 30
0.0
 11
273.604216567648
 21
141.0285467312541
 31
0.0
  0
LINE
  5
13FE
102
{ACAD_REACTORS
330
14E2
102
}
330
1E
100
AcDbEntity
  8
STEMPEL
 48
0.3
100
AcDbLine
 10
277.6042165676481
 20
187.6421308321098
 30
0.0
 11
277.6042165676481
 21
181.0285467312541
 31
0.0
  0
LINE
  5
1400
102
{ACAD_REACTORS
330
14E2
102
}
330
1E
100
AcDbEntity
  8
STEMPEL
 48
0.3
100
AcDbLine
 10
291.1042165676481
 20
193.0285467312542
 30
0.0
 11
291.1042165676481
 21
192.7550892592596
 31
0.0
  0
LINE
  5
1401
102
{ACAD_REACTORS
330
14E2
102
}
330
1E
100
AcDbEntity
  8
STEMPEL
 48
0.3
100
AcDbLine
 10
277.6042165676481
 20
181.0285467312541
 30
0.0
 11
290.1042165676481
 21
181.0285467312541
 31
0.0
  0
LINE
  5
1402
102
{ACAD_REACTORS
330
14E2
102
}
330
1E
100
AcDbEntity
  8
STEMPEL
 48
0.3
100
AcDbLine
 10
290.413233562023
 20
191.8040327429643
 30
0.0
 11
277.6042165676481
 21
187.6421308321098
 31
0.0
  0
LINE
  5
1403
102
{ACAD_REACTORS
330
14E2
102
}
330
1E
100
AcDbEntity
  8
STEMPEL
 48
0.3
100
AcDbLine
 10
290.4132335620229
 20
178.8040327429643
 30
0.0
 11
277.6042165676481
 21
174.6421308321098
 31
0.0
  0
LINE
  5
1404
102
{ACAD_REACTORS
330
14E2
102
}
330
1E
100
AcDbEntity
  8
STEMPEL
 48
0.3
100
AcDbLine
 10
291.1042165676481
 20
180.0285467312541
 30
0.0
 11
291.1042165676481
 21
179.7550892592595
 31
0.0
  0
LINE
  5
1405
102
{ACAD_REACTORS
330
14E2
102
}
330
1E
100
AcDbEntity
  8
STEMPEL
 48
0.3
100
AcDbLine
 10
277.6042165676481
 20
174.6421308321098
 30
0.0
 11
277.6042165676481
 21
169.0285467312541
 31
0.0
  0
LINE
  5
1406
102
{ACAD_REACTORS
330
14E2
102
}
330
1E
100
AcDbEntity
  8
STEMPEL
 48
0.3
100
AcDbLine
 10
277.6042165676481
 20
169.0285467312541
 30
0.0
 11
287.6042165676481
 21
169.0285467312541
 31
0.0
  0
LINE
  5
1407
102
{ACAD_REACTORS
330
14E2
102
}
330
1E
100
AcDbEntity
  8
STEMPEL
 48
0.3
100
AcDbLine
 10
277.6042165676481
 20
157.0285467312541
 30
0.0
 11
287.6042165676481
 21
157.0285467312541
 31
0.0
  0
ARC
  5
1408
102
{ACAD_REACTORS
330
14E2
102
}
330
1E
100
AcDbEntity
  8
STEMPEL
 48
0.3
100
AcDbCircle
 10
287.6042165676481
 20
168.5285467312541
 30
0.0
 40
0.5
100
AcDbArc
 50
287.999999999999
 51
90.0
  0
LINE
  5
1409
102
{ACAD_REACTORS
330
14E2
102
}
330
1E
100
AcDbEntity
  8
STEMPEL
 48
0.3
100
AcDbLine
 10
287.7587250648355
 20
168.0530184731065
 30
0.0
 11
277.604216567648
 21
164.7536186568059
 31
0.0
  0
LINE
  5
140A
102
{ACAD_REACTORS
330
14E2
102
}
330
1E
100
AcDbEntity
  8
STEMPEL
 48
0.3
100
AcDbLine
 10
287.7587250648355
 20
156.0530184731065
 30
0.0
 11
277.604216567648
 21
152.7536186568059
 31
0.0
  0
ARC
  5
140B
102
{ACAD_REACTORS
330
14E2
102
}
330
1E
100
AcDbEntity
  8
STEMPEL
 48
0.3
100
AcDbCircle
 10
287.6042165676481
 20
156.5285467312541
 30
0.0
 40
0.5
100
AcDbArc
 50
287.999999999999
 51
90.0
  0
LINE
  5
140C
102
{ACAD_REACTORS
330
14E2
102
}
330
1E
100
AcDbEntity
  8
STEMPEL
 48
0.3
100
AcDbLine
 10
277.6042165676481
 20
164.7536186568059
 30
0.0
 11
277.6042165676481
 21
157.0285467312541
 31
0.0
  0
LINE
  5
140D
102
{ACAD_REACTORS
330
14E2
102
}
330
1E
100
AcDbEntity
  8
STEMPEL
 48
0.3
100
AcDbLine
 10
277.6042165676481
 20
152.7536186568059
 30
0.0
 11
277.6042165676481
 21
145.0285467312541
 31
0.0
  0
LINE
  5
140E
102
{ACAD_REACTORS
330
14E2
102
}
330
1E
100
AcDbEntity
  8
STEMPEL
 48
0.3
100
AcDbLine
 10
277.6042165676481
 20
145.0285467312541
 30
0.0
 11
286.6042165676481
 21
145.0285467312541
 31
0.0
  0
LINE
  5
140F
102
{ACAD_REACTORS
330
14E2
102
}
330
1E
100
AcDbEntity
  8
STEMPEL
 48
0.3
100
AcDbLine
 10
286.7587250648355
 20
144.0530184731065
 30
0.0
 11
277.6042165676481
 21
141.0785383530388
 31
0.0
  0
ARC
  5
1410
102
{ACAD_REACTORS
330
14E2
102
}
330
1E
100
AcDbEntity
  8
STEMPEL
 48
0.3
100
AcDbCircle
 10
286.6042165676481
 20
144.5285467312541
 30
0.0
 40
0.5
100
AcDbArc
 50
287.999999999999
 51
90.0
  0
LINE
  5
1411
102
{ACAD_REACTORS
330
14E2
102
}
330
1E
100
AcDbEntity
  8
STEMPEL
 48
0.3
100
AcDbLine
 10
277.6042165676481
 20
141.0785383530388
 30
0.0
 11
277.604216567648
 21
137.0285467312541
 31
0.0
  0
ARC
  5
1412
102
{ACAD_REACTORS
330
14E2
102
}
330
1E
100
AcDbEntity
  8
STEMPEL
 48
0.3
100
AcDbCircle
 10
290.1042165676481
 20
193.0285467312541
 30
0.0
 40
1.0
100
AcDbArc
 50
0.0000000000016284
 51
90.0
  0
ARC
  5
1413
102
{ACAD_REACTORS
330
14E2
102
}
330
1E
100
AcDbEntity
  8
STEMPEL
 48
0.3
100
AcDbCircle
 10
290.1042165676481
 20
192.7550892592595
 30
0.0
 40
1.0
100
AcDbArc
 50
287.999999999999
 51
0.0000000000032569
  0
ARC
  5
1414
102
{ACAD_REACTORS
330
14E2
102
}
330
1E
100
AcDbEntity
  8
STEMPEL
 48
0.3
100
AcDbCircle
 10
290.1042165676481
 20
180.0285467312541
 30
0.0
 40
1.0
100
AcDbArc
 50
0.0
 51
90.0
  0
ARC
  5
1415
102
{ACAD_REACTORS
330
14E2
102
}
330
1E
100
AcDbEntity
  8
STEMPEL
 48
0.3
100
AcDbCircle
 10
290.1042165676481
 20
179.7550892592595
 30
0.0
 40
1.0
100
AcDbArc
 50
287.999999999999
 51
0.0000000000032569
  0
LINE
  5
141B
102
{ACAD_REACTORS
330
14E2
102
}
330
1E
100
AcDbEntity
  8
STEMPEL
 48
0.3
100
AcDbLine
 10
273.604216567648
 20
154.1769398511758
 30
0.0
 11
273.604216567648
 21
141.0285467312541
 31
0.0
  0
LINE
  5
141C
102
{ACAD_REACTORS
330
14E2
102
}
330
1E
100
AcDbEntity
  8
STEMPEL
 48
0.3
100
AcDbLine
 10
145.6042165676482
 20
154.1769398511758
 30
0.0
 11
145.6042165676481
 21
141.0285467312541
 31
0.0
  0
ARC
  5
1422
102
{ACAD_REACTORS
330
14E2
102
}
330
1E
100
AcDbEntity
  8
STEMPEL
 48
0.3
100
AcDbCircle
 10
129.1042165676481
 20
179.7550892592595
 30
0.0
 40
1.0
100
AcDbArc
 50
179.9999999999967
 51
252.000000000001
  0
ARC
  5
1423
102
{ACAD_REACTORS
330
14E2
102
}
330
1E
100
AcDbEntity
  8
STEMPEL
 48
0.3
100
AcDbCircle
 10
129.1042165676481
 20
180.0285467312541
 30
0.0
 40
1.0
100
AcDbArc
 50
90.0
 51
180.0
  0
ARC
  5
1424
102
{ACAD_REACTORS
330
14E2
102
}
330
1E
100
AcDbEntity
  8
STEMPEL
 48
0.3
100
AcDbCircle
 10
129.1042165676481
 20
192.7550892592595
 30
0.0
 40
1.0
100
AcDbArc
 50
179.9999999999967
 51
252.000000000001
  0
ARC
  5
1425
102
{ACAD_REACTORS
330
14E2
102
}
330
1E
100
AcDbEntity
  8
STEMPEL
 48
0.3
100
AcDbCircle
 10
129.1042165676481
 20
193.0285467312541
 30
0.0
 40
1.0
100
AcDbArc
 50
90.0
 51
179.9999999999984
  0
LINE
  5
1426
102
{ACAD_REACTORS
330
14E2
102
}
330
1E
100
AcDbEntity
  8
STEMPEL
 48
0.3
100
AcDbLine
 10
141.6042165676481
 20
141.0785383530388
 30
0.0
 11
141.6042165676481
 21
137.0285467312541
 31
0.0
  0
ARC
  5
1427
102
{ACAD_REACTORS
330
14E2
102
}
330
1E
100
AcDbEntity
  8
STEMPEL
 48
0.3
100
AcDbCircle
 10
132.6042165676481
 20
144.5285467312541
 30
0.0
 40
0.5
100
AcDbArc
 50
90.0
 51
252.000000000001
  0
LINE
  5
1428
102
{ACAD_REACTORS
330
14E2
102
}
330
1E
100
AcDbEntity
  8
STEMPEL
 48
0.3
100
AcDbLine
 10
132.4497080704606
 20
144.0530184731065
 30
0.0
 11
141.6042165676481
 21
141.0785383530388
 31
0.0
  0
LINE
  5
1429
102
{ACAD_REACTORS
330
14E2
102
}
330
1E
100
AcDbEntity
  8
STEMPEL
 48
0.3
100
AcDbLine
 10
141.6042165676481
 20
145.0285467312541
 30
0.0
 11
132.6042165676481
 21
145.0285467312541
 31
0.0
  0
LINE
  5
142A
102
{ACAD_REACTORS
330
14E2
102
}
330
1E
100
AcDbEntity
  8
STEMPEL
 48
0.3
100
AcDbLine
 10
141.6042165676481
 20
152.7536186568059
 30
0.0
 11
141.6042165676481
 21
145.0285467312541
 31
0.0
  0
LINE
  5
142B
102
{ACAD_REACTORS
330
14E2
102
}
330
1E
100
AcDbEntity
  8
STEMPEL
 48
0.3
100
AcDbLine
 10
141.6042165676481
 20
164.7536186568059
 30
0.0
 11
141.6042165676481
 21
157.0285467312541
 31
0.0
  0
ARC
  5
142C
102
{ACAD_REACTORS
330
14E2
102
}
330
1E
100
AcDbEntity
  8
STEMPEL
 48
0.3
100
AcDbCircle
 10
131.6042165676481
 20
156.5285467312541
 30
0.0
 40
0.5
100
AcDbArc
 50
90.0
 51
252.000000000001
  0
LINE
  5
142D
102
{ACAD_REACTORS
330
14E2
102
}
330
1E
100
AcDbEntity
  8
STEMPEL
 48
0.3
100
AcDbLine
 10
131.4497080704606
 20
156.0530184731065
 30
0.0
 11
141.6042165676481
 21
152.7536186568059
 31
0.0
  0
LINE
  5
142E
102
{ACAD_REACTORS
330
14E2
102
}
330
1E
100
AcDbEntity
  8
STEMPEL
 48
0.3
100
AcDbLine
 10
131.4497080704606
 20
168.0530184731065
 30
0.0
 11
141.6042165676481
 21
164.7536186568059
 31
0.0
  0
ARC
  5
142F
102
{ACAD_REACTORS
330
14E2
102
}
330
1E
100
AcDbEntity
  8
STEMPEL
 48
0.3
100
AcDbCircle
 10
131.6042165676481
 20
168.5285467312541
 30
0.0
 40
0.5
100
AcDbArc
 50
90.0
 51
252.000000000001
  0
LINE
  5
1430
102
{ACAD_REACTORS
330
14E2
102
}
330
1E
100
AcDbEntity
  8
STEMPEL
 48
0.3
100
AcDbLine
 10
141.6042165676481
 20
157.0285467312541
 30
0.0
 11
131.6042165676481
 21
157.0285467312541
 31
0.0
  0
LINE
  5
1431
102
{ACAD_REACTORS
330
14E2
102
}
330
1E
100
AcDbEntity
  8
STEMPEL
 48
0.3
100
AcDbLine
 10
141.6042165676481
 20
169.0285467312541
 30
0.0
 11
131.6042165676481
 21
169.0285467312541
 31
0.0
  0
LINE
  5
1432
102
{ACAD_REACTORS
330
14E2
102
}
330
1E
100
AcDbEntity
  8
STEMPEL
 48
0.3
100
AcDbLine
 10
141.6042165676481
 20
174.6421308321098
 30
0.0
 11
141.6042165676481
 21
169.0285467312541
 31
0.0
  0
LINE
  5
1433
102
{ACAD_REACTORS
330
14E2
102
}
330
1E
100
AcDbEntity
  8
STEMPEL
 48
0.3
100
AcDbLine
 10
128.1042165676481
 20
180.0285467312541
 30
0.0
 11
128.1042165676481
 21
179.7550892592595
 31
0.0
  0
LINE
  5
1434
102
{ACAD_REACTORS
330
14E2
102
}
330
1E
100
AcDbEntity
  8
STEMPEL
 48
0.3
100
AcDbLine
 10
128.7951995732732
 20
178.8040327429643
 30
0.0
 11
141.6042165676481
 21
174.6421308321098
 31
0.0
  0
LINE
  5
1435
102
{ACAD_REACTORS
330
14E2
102
}
330
1E
100
AcDbEntity
  8
STEMPEL
 48
0.3
100
AcDbLine
 10
128.7951995732732
 20
191.8040327429643
 30
0.0
 11
141.6042165676481
 21
187.6421308321098
 31
0.0
  0
LINE
  5
1436
102
{ACAD_REACTORS
330
14E2
102
}
330
1E
100
AcDbEntity
  8
STEMPEL
 48
0.3
100
AcDbLine
 10
141.6042165676481
 20
181.0285467312541
 30
0.0
 11
129.1042165676481
 21
181.0285467312541
 31
0.0
  0
LINE
  5
1437
102
{ACAD_REACTORS
330
14E2
102
}
330
1E
100
AcDbEntity
  8
STEMPEL
 48
0.3
100
AcDbLine
 10
128.1042165676481
 20
193.0285467312542
 30
0.0
 11
128.1042165676481
 21
192.7550892592596
 31
0.0
  0
LINE
  5
1438
102
{ACAD_REACTORS
330
14E2
102
}
330
1E
100
AcDbEntity
  8
STEMPEL
 48
0.3
100
AcDbLine
 10
290.1042165676481
 20
194.0285467312541
 30
0.0
 11
273.6042165676479
 21
194.0285467312541
 31
0.0
  0
LINE
  5
1439
102
{ACAD_REACTORS
330
14E2
102
}
330
1E
100
AcDbEntity
  8
STEMPEL
 48
0.3
100
AcDbLine
 10
141.6042165676481
 20
187.6421308321098
 30
0.0
 11
141.6042165676481
 21
181.0285467312541
 31
0.0
  0
LINE
  5
143A
102
{ACAD_REACTORS
330
14E2
102
}
330
1E
100
AcDbEntity
  8
STEMPEL
 48
0.3
100
AcDbLine
 10
150.6042165676481
 20
141.0285467312541
 30
0.0
 11
145.6042165676482
 21
141.0285467312541
 31
0.0
  0
LINE
  5
143B
102
{ACAD_REACTORS
330
14E2
102
}
330
1E
100
AcDbEntity
  8
STEMPEL
 48
0.3
100
AcDbLine
 10
154.6042165676481
 20
149.0285467312541
 30
0.0
 11
150.6042165676481
 21
149.0285467312541
 31
0.0
  0
LINE
  5
143C
102
{ACAD_REACTORS
330
14E2
102
}
330
1E
100
AcDbEntity
  8
STEMPEL
 48
0.3
100
AcDbLine
 10
154.6042165676481
 20
149.0285467312541
 30
0.0
 11
154.6042165676481
 21
137.0285467312541
 31
0.0
  0
LINE
  5
143D
102
{ACAD_REACTORS
330
14E2
102
}
330
1E
100
AcDbEntity
  8
STEMPEL
 48
0.3
100
AcDbLine
 10
150.6042165676481
 20
149.0285467312541
 30
0.0
 11
150.6042165676481
 21
141.0285467312541
 31
0.0
  0
LINE
  5
143E
102
{ACAD_REACTORS
330
14E2
102
}
330
1E
100
AcDbEntity
  8
STEMPEL
 48
0.3
100
AcDbLine
 10
277.604216567648
 20
137.0285467312541
 30
0.0
 11
141.6042165676481
 21
137.0285467312541
 31
0.0
  0
LINE
  5
14A0
330
1E
100
AcDbEntity
  8
STEMPEL
100
AcDbLine
 10
268.6042165676481
 20
141.0285467312542
 30
0.0
 11
272.7293299323889
 21
141.0285467312541
 31
0.0
  0
LINE
  5
14A1
102
{ACAD_REACTORS
330
14E2
102
}
330
1E
100
AcDbEntity
  8
STEMPEL
 48
0.3
100
AcDbLine
 10
145.6042165676482
 20
194.0285467312541
 30
0.0
 11
129.1042165676481
 21
194.0285467312541
 31
0.0
  0
HATCH
  5
14E2
330
1E
100
AcDbEntity
  8
SCHRAFF
100
AcDbHatch
 10
0.0
 20
0.0
 30
0.0
210
0.0
220
0.0
230
1.0
  2
NET
 70
     0
 71
     1
 91
        2
 92
        7
 72
     1
 73
     1
 93
       31
 10
273.604216567648
 20
151.0285467312528
 42
0.0
 10
273.604216567648
 20
141.0285467312541
 42
0.0
 10
268.6042165676481
 20
141.0285467312541
 42
0.0
 10
268.6042165676481
 20
149.0285467312541
 42
0.0
 10
264.6042165676481
 20
149.0285467312541
 42
0.0
 10
264.6042165676481
 20
137.0285467312541
 42
0.0
 10
277.6042165676479
 20
137.0285467312541
 42
0.0
 10
277.6042165676481
 20
141.0785383530388
 42
0.0
 10
286.7587250648355
 20
144.0530184731065
 42
0.8540806854634253
 10
286.6042165676481
 20
145.0285467312541
 42
0.0
 10
277.6042165676481
 20
145.0285467312541
 42
0.0
 10
277.6042165676482
 20
152.7536186568059
 42
0.0
 10
287.7587250648355
 20
156.0530184731065
 42
0.8540806854634253
 10
287.6042165676481
 20
157.0285467312541
 42
0.0
 10
277.6042165676481
 20
157.0285467312541
 42
0.0
 10
277.6042165676482
 20
164.753618656806
 42
0.0
 10
287.7587250648355
 20
168.0530184731065
 42
0.8540806854632704
 10
287.6042165676481
 20
169.0285467312541
 42
0.0
 10
277.6042165676482
 20
169.0285467312541
 42
0.0
 10
277.604216567648
 20
174.6421308321098
 42
0.0
 10
290.4132335620229
 20
178.8040327429643
 42
0.3249196962329576
 10
291.1042165676481
 20
179.7550892592595
 42
0.0
 10
291.1042165676481
 20
180.0285467312541
 42
0.4142135623730951
 10
290.1042165676481
 20
181.0285467312541
 42
0.0
 10
277.6042165676481
 20
181.0285467312541
 42
0.0
 10
277.6042165676481
 20
187.6421308321098
 42
0.0
 10
290.413233562023
 20
191.8040327429643
 42
0.3249196962329348
 10
291.1042165676481
 20
192.7550892592596
 42
0.0
 10
291.1042165676481
 20
193.0285467312542
 42
0.4142135623730866
 10
290.1042165676481
 20
194.0285467312541
 42
0.0
 10
273.604216567648
 20
194.0285467312541
 42
0.0
 97
       31
330
1413
330
1400
330
1412
330
1438
330
130C
330
141B
330
13FD
330
13FA
330
13FC
330
13FB
330
143E
330
1411
330
140F
330
1410
330
140E
330
140D
330
140A
330
140B
330
1407
330
140C
330
1409
330
1408
330
1406
330
1405
330
1403
330
1415
330
1404
330
1414
330
1401
330
13FE
330
1402
 92
        7
 72
     1
 73
     1
 93
       31
 10
141.6042165676481
 20
187.6421308321099
 42
0.0
 10
141.6042165676481
 20
181.0285467312541
 42
0.0
 10
129.1042165676481
 20
181.0285467312541
 42
0.4142135623730951
 10
128.1042165676481
 20
180.0285467312541
 42
0.0
 10
128.1042165676481
 20
179.7550892592595
 42
0.3249196962329291
 10
128.7951995732731
 20
178.8040327429643
 42
0.0
 10
141.6042165676481
 20
174.6421308321098
 42
0.0
 10
141.6042165676481
 20
169.0285467312541
 42
0.0
 10
131.6042165676481
 20
169.0285467312541
 42
0.8540806854634745
 10
131.4497080704606
 20
168.0530184731065
 42
0.0
 10
141.6042165676481
 20
164.7536186568059
 42
0.0
 10
141.6042165676481
 20
157.0285467312541
 42
0.0
 10
131.6042165676481
 20
157.0285467312541
 42
0.8540806854635482
 10
131.4497080704605
 20
156.0530184731065
 42
0.0
 10
141.6042165676481
 20
152.7536186568059
 42
0.0
 10
141.6042165676481
 20
145.0285467312541
 42
0.0
 10
132.6042165676481
 20
145.0285467312541
 42
0.8540806854634988
 10
132.4497080704606
 20
144.0530184731065
 42
0.0
 10
141.6042165676481
 20
141.0785383530388
 42
0.0
 10
141.6042165676481
 20
137.0285467312541
 42
0.0
 10
154.6042165676481
 20
137.0285467312541
 42
0.0
 10
154.6042165676481
 20
149.0285467312541
 42
0.0
 10
150.6042165676481
 20
149.0285467312541
 42
0.0
 10
150.6042165676481
 20
141.0285467312541
 42
0.0
 10
145.6042165676481
 20
141.0285467312541
 42
0.0
 10
145.6042165676482
 20
154.1769398511758
 42
0.0
 10
145.6042165676482
 20
194.0285467312541
 42
0.0
 10
129.1042165676481
 20
194.0285467312541
 42
0.4142135623730951
 10
128.1042165676481
 20
193.0285467312541
 42
0.0
 10
128.1042165676481
 20
192.7550892592596
 42
0.3249196962329291
 10
128.7951995732731
 20
191.8040327429643
 42
0.0
 97
       31
330
14A1
330
1425
330
1437
330
1424
330
1435
330
1439
330
1436
330
1423
330
1433
330
1422
330
1434
330
1432
330
1431
330
142F
330
142E
330
142B
330
1430
330
142C
330
142D
330
142A
330
1429
330
1427
330
1428
330
1426
330
143E
330
143C
330
143B
330
143D
330
143A
330
141C
330
1316
 75
     0
 76
     1
 52
45.0
 41
15.0
 77
     0
 78
     2
 53
45.0
 43
0.0
 44
0.0
 45
-1.325825214724776
 46
1.325825214724776
 79
     0
 53
135.0
 43
0.0
 44
0.0
 45
-1.325825214724776
 46
-1.325825214724776
 79
     0
 47
0.1778199067633833
 98
        2
 10
276.5605335265395
 20
190.9351862079791
 10
138.3475861778461
 20
190.4017271010454
  0
LINE
  5
14EC
330
1E
100
AcDbEntity
  8
TEXT
 62
     2
100
AcDbLine
 10
352.0021063347276
 20
191.5626171672063
 30
0.0
 11
289.6066087485707
 21
180.035795104341
 31
0.0
  0
TEXT
  5
14ED
330
1E
100
AcDbEntity
  8
TEXT
 62
     1
100
AcDbText
 10
353.4645598738965
 20
181.8561017038303
 30
0.0
 40
7.0
  1
EDV-Art.Nr. 00940.125X
 41
0.8
100
AcDbText
  0
TEXT
  5
14EE
330
1E
100
AcDbEntity
  8
TEXT
 62
     1
100
AcDbText
 10
353.4645598738965
 20
194.5491576592594
 30
0.0
 40
7.0
  1
Dichtelement DN125/155
 41
0.8
100
AcDbText
  0
LINE
  5
14EF
330
1E
100
AcDbEntity
  8
TEXT
 62
     2
100
AcDbLine
 10
352.0021063347276
 20
191.5626171672063
 30
0.0
 11
461.5234069569233
 21
191.5626171672063
 31
0.0
  0
DIMENSION
  5
1504
330
1E
100
AcDbEntity
  8
BEM
100
AcDbDimension
  2
*D7
 10
132.6042165676481
 20
102.6271358001072
 30
0.0
 11
209.8542165676481
 21
109.1271358001072
 31
0.0
 70
    32
  1
%%c<>
 71
     5
 42
154.5
  3
Standard
100
AcDbAlignedDimension
 13
287.1042165676481
 23
144.5285467312541
 33
0.0
 14
132.6042165676481
 24
144.5285467312541
 34
0.0
100
AcDbRotatedDimension
1001
ACAD
1000
DSTYLE
1002
{
1070
    40
1040
2.0
1070
    41
1040
3.5
1070
    42
1040
1.0
1070
    43
1040
7.0
1070
    44
1040
1.0
1070
    73
1070
     0
1070
    74
1070
     0
1070
    77
1070
     1
1070
    78
1070
     8
1070
    79
1070
     2
1070
   140
1040
3.5
1070
   141
1040
1.5
1070
   146
1040
0.5142857142857144
1070
   147
1040
1.5
1070
   172
1070
     1
1070
   178
1070
     1
1070
   179
1070
     2
1070
   271
1070
     2
1070
   272
1070
     2
1070
   284
1070
     8
1070
   285
1070
     8
1070
   286
1070
     8
1002
}
  0
DIMENSION
  5
1511
330
1E
100
AcDbEntity
  8
BEM
100
AcDbDimension
  2
*D8
 10
128.1042165676481
 20
87.57874970480793
 30
0.0
 11
209.6042165676481
 21
94.07874970480794
 31
0.0
 70
    32
  1
%%c<>
 71
     5
 42
163.0
  3
Standard
100
AcDbAlignedDimension
 13
291.1042165676481
 23
192.7550892592595
 33
0.0
 14
128.1042165676481
 24
193.0285467312541
 34
0.0
100
AcDbRotatedDimension
1001
ACAD
1000
DSTYLE
1002
{
1070
    40
1040
2.0
1070
    41
1040
3.5
1070
    42
1040
1.0
1070
    43
1040
7.0
1070
    44
1040
1.0
1070
    73
1070
     0
1070
    74
1070
     0
1070
    77
1070
     1
1070
    78
1070
     8
1070
    79
1070
     2
1070
   140
1040
3.5
1070
   141
1040
1.5
1070
   146
1040
0.5142857142857144
1070
   147
1040
1.5
1070
   172
1070
     1
1070
   178
1070
     1
1070
   179
1070
     2
1070
   271
1070
     2
1070
   272
1070
     2
1070
   284
1070
     8
1070
   285
1070
     8
1070
   286
1070
     8
1002
}
  0
TEXT
  5
1536
330
1E
100
AcDbEntity
  8
TEXT
 62
     1
100
AcDbText
 10
531.2042459112782
 20
790.1294755517469
 30
0.0
 40
7.0
  1

 50
90.0
 41
0.8
  7
GREEKS
 72
     1
 11
531.2042459112782
 21
790.1294755517469
 31
0.0
100
AcDbText
  0
ENDSEC
  0
SECTION
  2
OBJECTS
  0
DICTIONARY
  5
C
330
0
100
AcDbDictionary
281
     1
  3
ACAD_COLOR
350
11A
  3
ACAD_GROUP
350
D
  3
ACAD_LAYOUT
350
19
  3
ACAD_MATERIAL
350
119
  3
ACAD_MLINESTYLE
350
16
  3
ACAD_PLOTSETTINGS
350
18
  3
ACAD_PLOTSTYLENAME
350
E
  3
AcDbVariableDictionary
350
125
  0
DICTIONARY
  5
DB
330
1E
100
AcDbDictionary
280
     1
281
     1
  3
ACAD_LAYOUTSELFREF
360
10F
  0
DICTIONARY
  5
DD
330
1A
100
AcDbDictionary
280
     1
281
     1
  3
ACAD_LAYOUTSELFREF
360
10E
  0
DICTIONARY
  5
11A
102
{ACAD_REACTORS
330
C
102
}
330
C
100
AcDbDictionary
281
     1
  0
DICTIONARY
  5
D
102
{ACAD_REACTORS
330
C
102
}
330
C
100
AcDbDictionary
281
     1
  0
DICTIONARY
  5
19
102
{ACAD_REACTORS
330
C
102
}
330
C
100
AcDbDictionary
281
     1
  3
Layout1
350
1D
  3
Model
350
21
  0
DICTIONARY
  5
119
102
{ACAD_REACTORS
330
C
102
}
330
C
100
AcDbDictionary
281
     1
  0
DICTIONARY
  5
16
102
{ACAD_REACTORS
330
C
102
}
330
C
100
AcDbDictionary
281
     1
  3
Standard
350
17
  0
DICTIONARY
  5
18
102
{ACAD_REACTORS
330
C
102
}
330
C
100
AcDbDictionary
281
     1
  0
ACDBDICTIONARYWDFLT
  5
E
102
{ACAD_REACTORS
330
C
102
}
330
C
100
AcDbDictionary
281
     1
  3
Normal
350
F
100
AcDbDictionaryWithDefault
340
F
  0
DICTIONARY
  5
125
102
{ACAD_REACTORS
330
C
102
}
330
C
100
AcDbDictionary
281
     1
  3
DIMASSOC
350
126
  3
PROJECTNAME
350
127
  0
XRECORD
  5
10F
102
{ACAD_REACTORS
330
DB
102
}
330
DB
100
AcDbXrecord
280
     1
340
1E
  0
XRECORD
  5
10E
102
{ACAD_REACTORS
330
DD
102
}
330
DD
100
AcDbXrecord
280
     1
340
1A
  0
LAYOUT
  5
1D
102
{ACAD_REACTORS
330
19
102
}
330
19
100
AcDbPlotSettings
  1

  2
\\NT_WORK01\HP LaserJet 5000 PCL 6
  4

  6

 40
0.0
 41
0.0
 42
0.0
 43
0.0
 44
0.0
 45
0.0
 46
0.0
 47
0.0
 48
0.0
 49
0.0
140
0.0
141
0.0
142
1.0
143
1.0
 70
   688
 72
     0
 73
     0
 74
     5
  7

 75
    16
147
1.0
 76
     0
 77
     2
 78
   300
148
0.0
149
0.0
100
AcDbLayout
  1
Layout1
 70
     0
 71
     1
 10
0.0
 20
0.0
 11
12.0
 21
9.0
 12
0.0
 22
0.0
 32
0.0
 14
1.000000000000000E+20
 24
1.000000000000000E+20
 34
1.000000000000000E+20
 15
-1.000000000000000E+20
 25
-1.000000000000000E+20
 35
-1.000000000000000E+20
146
0.0
 13
0.0
 23
0.0
 33
0.0
 16
1.0
 26
0.0
 36
0.0
 17
0.0
 27
1.0
 37
0.0
 76
     0
330
1A
  0
LAYOUT
  5
21
102
{ACAD_REACTORS
330
19
102
}
330
19
100
AcDbPlotSettings
  1

  2
none_device
  4
Letter_(8.50_x_11.00_Inches)
  6

 40
6.349999904632568
 41
6.349999904632568
 42
6.350006103515625
 43
6.350006103515625
 44
215.8999938964844
 45
279.3999938964844
 46
0.0
 47
0.0
 48
0.0
 49
0.0
140
0.0
141
0.0
142
1.0
143
1.0
 70
 11952
 72
     0
 73
     1
 74
     0
  7

 75
     0
147
1.0
 76
     0
 77
     2
 78
   300
148
3124.2
149
0.0
100
AcDbLayout
  1
Model
 70
     1
 71
     0
 10
0.0
 20
0.0
 11
12.0
 21
9.0
 12
0.0
 22
0.0
 32
0.0
 14
0.0
 24
0.0
 34
0.0
 15
0.0
 25
0.0
 35
0.0
146
0.0
 13
0.0
 23
0.0
 33
0.0
 16
1.0
 26
0.0
 36
0.0
 17
0.0
 27
1.0
 37
0.0
 76
     0
330
1E
  0
MLINESTYLE
  5
17
102
{ACAD_REACTORS
330
16
102
}
330
16
100
AcDbMlineStyle
  2
STANDARD
 70
     0
  3

 62
   256
 51
90.0
 52
90.0
 71
     2
 49
0.5
 62
   256
  6
BYLAYER
 49
-0.5
 62
   256
  6
BYLAYER
  0
ACDBPLACEHOLDER
  5
F
102
{ACAD_REACTORS
330
E
102
}
330
E
  0
DICTIONARYVAR
  5
126
102
{ACAD_REACTORS
330
125
102
}
330
125
100
DictionaryVariables
280
     0
  1
1
  0
DICTIONARYVAR
  5
127
102
{ACAD_REACTORS
330
125
102
}
330
125
100
DictionaryVariables
280
     0
  1

  0
ENDSEC
  0
EOF
