  0
SECTION
  2
HEADER
  9
$ACADVER
  1
AC1018
  9
$ACADMAINTVER
 70
     2
  9
$DWGCODEPAGE
  3
ANSI_1252
  9
$INSBASE
 10
0.0
 20
0.0
 30
0.0
  9
$EXTMIN
 10
-0.0000000000001137
 20
-0.0000000000001137
 30
0.0
  9
$EXTMAX
 10
420.0
 20
594.0000000000002
 30
0.0
  9
$LIMMIN
 10
0.0
 20
0.0
  9
$LIMMAX
 10
419.9999999999999
 20
594.0
  9
$ORTHOMODE
 70
     1
  9
$REGENMODE
 70
     1
  9
$FILLMODE
 70
     1
  9
$QTEXTMODE
 70
     0
  9
$MIRRTEXT
 70
     1
  9
$LTSCALE
 40
20.0
  9
$ATTMODE
 70
     1
  9
$TEXTSIZE
 40
2.5
  9
$TRACEWID
 40
0.5
  9
$TEXTSTYLE
  7
GREEKS
  9
$CLAYER
  8
SCHRAFF
  9
$CELTYPE
  6
BYLAYER
  9
$CECOLOR
 62
   256
  9
$CELTSCALE
 40
1.0
  9
$DISPSILH
 70
     0
  9
$DIMSCALE
 40
2.0
  9
$DIMASZ
 40
3.5
  9
$DIMEXO
 40
1.0
  9
$DIMDLI
 40
7.0
  9
$DIMRND
 40
0.0
  9
$DIMDLE
 40
0.0
  9
$DIMEXE
 40
1.0
  9
$DIMTP
 40
2.0
  9
$DIMTM
 40
2.0
  9
$DIMTXT
 40
3.5
  9
$DIMCEN
 40
1.5
  9
$DIMTSZ
 40
0.0
  9
$DIMTOL
 70
     0
  9
$DIMLIM
 70
     0
  9
$DIMTIH
 70
     0
  9
$DIMTOH
 70
     0
  9
$DIMSE1
 70
     0
  9
$DIMSE2
 70
     0
  9
$DIMTAD
 70
     1
  9
$DIMZIN
 70
     8
  9
$DIMBLK
  1

  9
$DIMASO
 70
     1
  9
$DIMSHO
 70
     0
  9
$DIMPOST
  1

  9
$DIMAPOST
  1

  9
$DIMALT
 70
     0
  9
$DIMALTD
 70
     2
  9
$DIMALTF
 40
25.4
  9
$DIMLFAC
 40
1.0
  9
$DIMTOFL
 70
     1
  9
$DIMTVP
 40
0.0
  9
$DIMTIX
 70
     0
  9
$DIMSOXD
 70
     0
  9
$DIMSAH
 70
     0
  9
$DIMBLK1
  1

  9
$DIMBLK2
  1

  9
$DIMSTYLE
  2
STANDARD
  9
$DIMCLRD
 70
     0
  9
$DIMCLRE
 70
     0
  9
$DIMCLRT
 70
     1
  9
$DIMTFAC
 40
1.0
  9
$DIMGAP
 40
1.5
  9
$DIMJUST
 70
     0
  9
$DIMSD1
 70
     0
  9
$DIMSD2
 70
     0
  9
$DIMTOLJ
 70
     1
  9
$DIMTZIN
 70
     8
  9
$DIMALTZ
 70
     8
  9
$DIMALTTZ
 70
     8
  9
$DIMUPT
 70
     0
  9
$DIMDEC
 70
     1
  9
$DIMTDEC
 70
     1
  9
$DIMALTU
 70
     2
  9
$DIMALTTD
 70
     2
  9
$DIMTXSTY
  7
GREEKS
  9
$DIMAUNIT
 70
     0
  9
$DIMADEC
 70
     2
  9
$DIMALTRND
 40
0.0
  9
$DIMAZIN
 70
     2
  9
$DIMDSEP
 70
    46
  9
$DIMATFIT
 70
     3
  9
$DIMFRAC
 70
     0
  9
$DIMLDRBLK
  1

  9
$DIMLUNIT
 70
     2
  9
$DIMLWD
 70
    -2
  9
$DIMLWE
 70
    -2
  9
$DIMTMOVE
 70
     0
  9
$LUNITS
 70
     2
  9
$LUPREC
 70
     2
  9
$SKETCHINC
 40
1.0
  9
$FILLETRAD
 40
3.0
  9
$AUNITS
 70
     0
  9
$AUPREC
 70
     0
  9
$MENU
  1
ACAD
  9
$ELEVATION
 40
0.0
  9
$PELEVATION
 40
0.0
  9
$THICKNESS
 40
0.0
  9
$LIMCHECK
 70
     0
  9
$CHAMFERA
 40
0.0
  9
$CHAMFERB
 40
0.0
  9
$CHAMFERC
 40
0.0
  9
$CHAMFERD
 40
0.0
  9
$SKPOLY
 70
     0
  9
$TDCREATE
 40
2452389.590727894
  9
$TDUCREATE
 40
2452389.549061227
  9
$TDUPDATE
 40
2455587.340563114
  9
$TDUUPDATE
 40
2455587.298896447
  9
$TDINDWG
 40
1.7028306829
  9
$TDUSRTIMER
 40
1.7028306829
  9
$USRTIMER
 70
     1
  9
$ANGBASE
 50
0.0
  9
$ANGDIR
 70
     0
  9
$PDMODE
 70
     0
  9
$PDSIZE
 40
0.0
  9
$PLINEWID
 40
0.0
  9
$SPLFRAME
 70
     0
  9
$SPLINETYPE
 70
     6
  9
$SPLINESEGS
 70
     8
  9
$HANDSEED
  5
211E
  9
$SURFTAB1
 70
     6
  9
$SURFTAB2
 70
     6
  9
$SURFTYPE
 70
     6
  9
$SURFU
 70
     6
  9
$SURFV
 70
     6
  9
$UCSBASE
  2

  9
$UCSNAME
  2

  9
$UCSORG
 10
0.0
 20
0.0
 30
0.0
  9
$UCSXDIR
 10
1.0
 20
0.0
 30
0.0
  9
$UCSYDIR
 10
0.0
 20
1.0
 30
0.0
  9
$UCSORTHOREF
  2

  9
$UCSORTHOVIEW
 70
     0
  9
$UCSORGTOP
 10
0.0
 20
0.0
 30
0.0
  9
$UCSORGBOTTOM
 10
0.0
 20
0.0
 30
0.0
  9
$UCSORGLEFT
 10
0.0
 20
0.0
 30
0.0
  9
$UCSORGRIGHT
 10
0.0
 20
0.0
 30
0.0
  9
$UCSORGFRONT
 10
0.0
 20
0.0
 30
0.0
  9
$UCSORGBACK
 10
0.0
 20
0.0
 30
0.0
  9
$PUCSBASE
  2

  9
$PUCSNAME
  2

  9
$PUCSORG
 10
0.0
 20
0.0
 30
0.0
  9
$PUCSXDIR
 10
1.0
 20
0.0
 30
0.0
  9
$PUCSYDIR
 10
0.0
 20
1.0
 30
0.0
  9
$PUCSORTHOREF
  2

  9
$PUCSORTHOVIEW
 70
     0
  9
$PUCSORGTOP
 10
0.0
 20
0.0
 30
0.0
  9
$PUCSORGBOTTOM
 10
0.0
 20
0.0
 30
0.0
  9
$PUCSORGLEFT
 10
0.0
 20
0.0
 30
0.0
  9
$PUCSORGRIGHT
 10
0.0
 20
0.0
 30
0.0
  9
$PUCSORGFRONT
 10
0.0
 20
0.0
 30
0.0
  9
$PUCSORGBACK
 10
0.0
 20
0.0
 30
0.0
  9
$USERI1
 70
     0
  9
$USERI2
 70
     0
  9
$USERI3
 70
     0
  9
$USERI4
 70
     0
  9
$USERI5
 70
     0
  9
$USERR1
 40
0.0
  9
$USERR2
 40
0.0
  9
$USERR3
 40
0.0
  9
$USERR4
 40
0.0
  9
$USERR5
 40
0.0
  9
$WORLDVIEW
 70
     1
  9
$SHADEDGE
 70
     3
  9
$SHADEDIF
 70
    70
  9
$TILEMODE
 70
     1
  9
$MAXACTVP
 70
    16
  9
$PINSBASE
 10
2.245140564963854
 20
50.00000000000001
 30
-1.032422173993944
  9
$PLIMCHECK
 70
     0
  9
$PEXTMIN
 10
1.000000000000000E+20
 20
1.000000000000000E+20
 30
1.000000000000000E+20
  9
$PEXTMAX
 10
-1.000000000000000E+20
 20
-1.000000000000000E+20
 30
-1.000000000000000E+20
  9
$PLIMMIN
 10
0.0
 20
0.0
  9
$PLIMMAX
 10
12.0
 20
9.0
  9
$UNITMODE
 70
     0
  9
$VISRETAIN
 70
     0
  9
$PLINEGEN
 70
     0
  9
$PSLTSCALE
 70
     0
  9
$TREEDEPTH
 70
  3020
  9
$CMLSTYLE
  2
STANDARD
  9
$CMLJUST
 70
     0
  9
$CMLSCALE
 40
1.0
  9
$PROXYGRAPHICS
 70
     1
  9
$MEASUREMENT
 70
     0
  9
$CELWEIGHT
370
    -1
  9
$ENDCAPS
280
     0
  9
$JOINSTYLE
280
     0
  9
$LWDISPLAY
290
     0
  9
$INSUNITS
 70
     0
  9
$HYPERLINKBASE
  1

  9
$STYLESHEET
  1
monochrome1.ctb
  9
$XEDIT
290
     1
  9
$CEPSNTYPE
380
     0
  9
$PSTYLEMODE
290
     1
  9
$FINGERPRINTGUID
  2
{3696DBDF-0A71-4E06-A3EC-E15F0A672ECC}
  9
$VERSIONGUID
  2
{D108264D-80DD-436D-98F0-9E9D93A78D91}
  9
$EXTNAMES
290
     1
  9
$PSVPSCALE
 40
0.0
  9
$OLESTARTUP
290
     0
  9
$SORTENTS
280
    96
  9
$INDEXCTL
280
     0
  9
$HIDETEXT
280
     0
  9
$XCLIPFRAME
290
     0
  9
$HALOGAP
280
     0
  9
$OBSCOLOR
 70
   257
  9
$OBSLTYPE
280
     0
  9
$INTERSECTIONDISPLAY
280
     0
  9
$INTERSECTIONCOLOR
 70
   257
  9
$DIMASSOC
280
     1
  9
$PROJECTNAME
  1

  0
ENDSEC
  0
SECTION
  2
CLASSES
  0
CLASS
  1
DICTIONARYVAR
  2
AcDbDictionaryVar
  3
ObjectDBX Classes
 90
        0
 91
        3
280
     0
281
     0
  0
CLASS
  1
ACDBDICTIONARYWDFLT
  2
AcDbDictionaryWithDefault
  3
ObjectDBX Classes
 90
        0
 91
        1
280
     1
281
     0
  0
ENDSEC
  0
SECTION
  2
TABLES
  0
TABLE
  2
VPORT
  5
16
330
0
100
AcDbSymbolTable
 70
     2
  0
VPORT
  5
211D
330
16
100
AcDbSymbolTableRecord
100
AcDbViewportTableRecord
  2
*Active
 70
     0
 10
0.0
 20
0.0
 11
1.0
 21
1.0
 12
210.0
 22
297.0
 13
0.0
 23
0.0
 14
1.0
 24
1.0
 15
20.0
 25
20.0
 16
0.0
 26
0.0
 36
1.0
 17
0.0
 27
0.0
 37
0.0
 40
594.0
 41
1.336927223719676
 42
50.0
 43
0.0
 44
0.0
 50
0.0
 51
0.0
 71
     0
 72
  1500
 73
     1
 74
     0
 75
     0
 76
     0
 77
     0
 78
     0
281
     0
 65
     1
110
0.0
120
0.0
130
0.0
111
1.0
121
0.0
131
0.0
112
0.0
122
1.0
132
0.0
 79
     0
146
0.0
  0
ENDTAB
  0
TABLE
  2
LTYPE
  5
11
330
0
100
AcDbSymbolTable
 70
     3
  0
LTYPE
  5
12
330
11
100
AcDbSymbolTableRecord
100
AcDbLinetypeTableRecord
  2
BYBLOCK
 70
     0
  3

 72
    65
 73
     0
 40
0.0
  0
LTYPE
  5
13
330
11
100
AcDbSymbolTableRecord
100
AcDbLinetypeTableRecord
  2
BYLAYER
 70
     0
  3

 72
    65
 73
     0
 40
0.0
  0
LTYPE
  5
7
330
11
100
AcDbSymbolTableRecord
100
AcDbLinetypeTableRecord
  2
AUSGEZOGEN
 70
     0
  3
Ausgezogene Linie
 72
    65
 73
     0
 40
0.0
  0
LTYPE
  5
10A
330
11
100
AcDbSymbolTableRecord
100
AcDbLinetypeTableRecord
  2
STRICHPUNKT
 70
     0
  3
__ . __ . __ . __ . __ . __ . __ . __ . __ . __
 72
    65
 73
     4
 40
1.0
 49
0.5
 74
     0
 49
-0.25
 74
     0
 49
0.0
 74
     0
 49
-0.25
 74
     0
  0
LTYPE
  5
24
330
11
100
AcDbSymbolTableRecord
100
AcDbLinetypeTableRecord
  2
Continuous
 70
     0
  3
Solid line
 72
    65
 73
     0
 40
0.0
  0
ENDTAB
  0
TABLE
  2
LAYER
  5
E
330
0
100
AcDbSymbolTable
 70
     9
  0
LAYER
  5
6
330
E
100
AcDbSymbolTableRecord
100
AcDbLayerTableRecord
  2
0
 70
     0
 62
     7
  6
AUSGEZOGEN
370
    -3
390
1252
  0
LAYER
  5
BA
330
E
100
AcDbSymbolTableRecord
100
AcDbLayerTableRecord
  2
VOLL
 70
     0
 62
     1
  6
AUSGEZOGEN
370
    -3
390
1252
  0
LAYER
  5
31
330
E
100
AcDbSymbolTableRecord
100
AcDbLayerTableRecord
  2
HILF
 70
     0
 62
     2
  6
AUSGEZOGEN
370
    -3
390
1252
  0
LAYER
  5
109
330
E
100
AcDbSymbolTableRecord
100
AcDbLayerTableRecord
  2
MITTEL
 70
     0
 62
     2
  6
STRICHPUNKT
370
    -3
390
1252
  0
LAYER
  5
33
330
E
100
AcDbSymbolTableRecord
100
AcDbLayerTableRecord
  2
BEM
 70
     0
 62
     7
  6
AUSGEZOGEN
370
    -3
390
1252
  0
LAYER
  5
28
330
E
100
AcDbSymbolTableRecord
100
AcDbLayerTableRecord
  2
STEMPEL
 70
     0
 62
     3
  6
AUSGEZOGEN
370
    -3
390
1252
  0
LAYER
  5
81
330
E
100
AcDbSymbolTableRecord
100
AcDbLayerTableRecord
  2
TEXT
 70
     0
 62
     7
  6
AUSGEZOGEN
370
    -3
390
1252
  0
LAYER
  5
3C
330
E
100
AcDbSymbolTableRecord
100
AcDbLayerTableRecord
  2
DEFPOINTS
 70
     0
 62
     7
  6
AUSGEZOGEN
290
     0
370
    -3
390
1252
  0
LAYER
  5
1F
330
E
100
AcDbSymbolTableRecord
100
AcDbLayerTableRecord
  2
SCHRAFF
 70
     0
 62
     7
  6
AUSGEZOGEN
370
    -3
390
1252
  0
ENDTAB
  0
TABLE
  2
STYLE
  5
F
330
0
100
AcDbSymbolTable
 70
     2
  0
STYLE
  5
10
330
F
100
AcDbSymbolTableRecord
100
AcDbTextStyleTableRecord
  2
STANDARD
 70
     0
 40
0.0
 41
0.8
 50
0.0
 71
     0
 42
3.5
  3
simplex.shx
  4

  0
STYLE
  5
20
330
F
100
AcDbSymbolTableRecord
100
AcDbTextStyleTableRecord
  2
GREEKS
 70
     0
 40
0.0
 41
0.8
 50
0.0
 71
     0
 42
2.5
  3
SIMPLEX.shx
  4

  0
ENDTAB
  0
TABLE
  2
VIEW
  5
14
330
0
100
AcDbSymbolTable
 70
     0
  0
ENDTAB
  0
TABLE
  2
UCS
  5
15
330
0
100
AcDbSymbolTable
 70
     0
  0
ENDTAB
  0
TABLE
  2
APPID
  5
18
330
0
100
AcDbSymbolTable
 70
     1
  0
APPID
  5
19
330
18
100
AcDbSymbolTableRecord
100
AcDbRegAppTableRecord
  2
ACAD
 70
     0
  0
ENDTAB
  0
TABLE
  2
DIMSTYLE
  5
1A
330
0
100
AcDbSymbolTable
 70
     1
100
AcDbDimStyleTable
 71
     1
340
22
  0
DIMSTYLE
105
22
102
{ACAD_REACTORS
330
43
330
32
330
1585
330
FBB
330
DC
330
1B73
102
}
330
1A
100
AcDbSymbolTableRecord
100
AcDbDimStyleTableRecord
  2
STANDARD
 70
     0
 40
2.0
 41
3.5
 42
1.0
 43
7.0
 44
1.0
 47
2.0
 48
2.0
 73
     0
 74
     0
 77
     1
 78
     8
 79
     2
140
3.5
141
1.5
147
1.5
172
     1
178
     1
179
     2
271
     1
272
     1
284
     8
285
     8
286
     8
340
20
  0
ENDTAB
  0
TABLE
  2
BLOCK_RECORD
  5
1
330
0
100
AcDbSymbolTable
 70
     7
  0
BLOCK_RECORD
  5
2
102
{ACAD_XDICTIONARY
360
3
102
}
330
1
100
AcDbSymbolTableRecord
100
AcDbBlockTableRecord
  2
*MODEL_SPACE
340
1257
  0
BLOCK_RECORD
  5
9
102
{ACAD_XDICTIONARY
360
A
102
}
330
1
100
AcDbSymbolTableRecord
100
AcDbBlockTableRecord
  2
*PAPER_SPACE
340
1258
  0
BLOCK_RECORD
  5
63
330
1
100
AcDbSymbolTableRecord
100
AcDbBlockTableRecord
  2
LOGO
340
0
102
{BLKREFS
331
62
102
}
  0
BLOCK_RECORD
  5
40F
330
1
100
AcDbSymbolTableRecord
100
AcDbBlockTableRecord
  2
*D1
340
0
  0
BLOCK_RECORD
  5
108E
330
1
100
AcDbSymbolTableRecord
100
AcDbBlockTableRecord
  2
*D2
340
0
  0
BLOCK_RECORD
  5
12E8
330
1
100
AcDbSymbolTableRecord
100
AcDbBlockTableRecord
  2
*D3
340
0
  0
BLOCK_RECORD
  5
12F4
330
1
100
AcDbSymbolTableRecord
100
AcDbBlockTableRecord
  2
*D4
340
0
  0
BLOCK_RECORD
  5
1586
330
1
100
AcDbSymbolTableRecord
100
AcDbBlockTableRecord
  2
*D5
340
0
  0
BLOCK_RECORD
  5
1B74
330
1
100
AcDbSymbolTableRecord
100
AcDbBlockTableRecord
  2
*D6
340
0
  0
ENDTAB
  0
ENDSEC
  0
SECTION
  2
BLOCKS
  0
BLOCK
  5
5
330
2
100
AcDbEntity
  8
0
100
AcDbBlockBegin
  2
*MODEL_SPACE
 70
     0
 10
0.0
 20
0.0
 30
0.0
  3
*MODEL_SPACE
  1

  0
ENDBLK
  5
8
330
2
100
AcDbEntity
  8
0
100
AcDbBlockEnd
  0
BLOCK
  5
C
330
9
100
AcDbEntity
 67
     1
  8
0
100
AcDbBlockBegin
  2
*PAPER_SPACE
 70
     0
 10
0.0
 20
0.0
 30
0.0
  3
*PAPER_SPACE
  1

  0
ENDBLK
  5
D
330
9
100
AcDbEntity
 67
     1
  8
0
100
AcDbBlockEnd
  0
BLOCK
  5
7E
330
63
100
AcDbEntity
  8
0
100
AcDbBlockBegin
  2
LOGO
 70
     0
 10
0.0
 20
0.0
 30
0.0
  3
LOGO
  1

  0
ARC
  5
64
330
63
100
AcDbEntity
  8
0
100
AcDbCircle
 10
11.59973089678112
 20
-9.271599258481501
 30
0.0
 40
4.5
100
AcDbArc
 50
270.0
 51
231.0575587310159
  0
LINE
  5
65
330
63
100
AcDbEntity
  8
0
100
AcDbLine
 10
3.599730896781125
 20
-4.771599258481529
 30
0.0
 11
3.599730896781153
 21
-11.77159925848133
 31
0.0
  0
LINE
  5
66
330
63
100
AcDbEntity
  8
0
100
AcDbLine
 10
2.599730896781125
 20
-4.771599258481529
 30
0.0
 11
2.599730896781153
 21
-11.77159925848133
 31
0.0
  0
CIRCLE
  5
67
330
63
100
AcDbEntity
  8
0
100
AcDbCircle
 10
11.59973089678112
 20
-9.271599258481501
 30
0.0
 40
3.5
  0
ARC
  5
68
330
63
100
AcDbEntity
  8
0
100
AcDbCircle
 10
31.59973089678115
 20
-9.271599258481472
 30
0.0
 40
4.5
100
AcDbArc
 50
270.0
 51
231.0575587310182
  0
LINE
  5
69
330
63
100
AcDbEntity
  8
0
100
AcDbLine
 10
17.59973089678112
 20
-4.771599258481472
 30
0.0
 11
17.59973089678115
 21
-13.77159925848147
 31
0.0
  0
ARC
  5
6A
330
63
100
AcDbEntity
  8
0
100
AcDbCircle
 10
22.59973089678116
 20
-7.271599258481472
 30
0.0
 40
2.5
100
AcDbArc
 50
293.1161887722295
 51
90.0
  0
CIRCLE
  5
6B
330
63
100
AcDbEntity
  8
0
100
AcDbCircle
 10
31.59973089678115
 20
-9.271599258481472
 30
0.0
 40
3.5
  0
ARC
  5
6C
330
63
100
AcDbEntity
  8
0
100
AcDbCircle
 10
4.599730896781153
 20
-11.77159925848133
 30
0.0
 40
1.0
100
AcDbArc
 50
180.0
 51
270.0
  0
ARC
  5
6D
330
63
100
AcDbEntity
  8
0
100
AcDbCircle
 10
4.599730896781153
 20
-11.77159925848133
 30
0.0
 40
2.0
100
AcDbArc
 50
179.9999999999992
 51
270.0
  0
LINE
  5
6E
330
63
100
AcDbEntity
  8
0
100
AcDbLine
 10
11.59973089678115
 20
-13.77159925848144
 30
0.0
 11
4.599730896781153
 21
-13.77159925848147
 31
0.0
  0
LINE
  5
6F
330
63
100
AcDbEntity
  8
0
100
AcDbLine
 10
8.771303772034769
 20
-12.77159925848136
 30
0.0
 11
4.599730896781153
 21
-12.77159925848133
 31
0.0
  0
LINE
  5
70
330
63
100
AcDbEntity
  8
0
100
AcDbLine
 10
31.59973089678115
 20
-13.77159925848147
 30
0.0
 11
23.6715276665056
 21
-13.77159925848144
 31
0.0
  0
LINE
  5
71
330
63
100
AcDbEntity
  8
0
100
AcDbLine
 10
23.56565672307022
 20
-9.51278021337896
 30
0.0
 11
24.4388546544846
 21
-12.77159925848144
 31
0.0
  0
LINE
  5
72
330
63
100
AcDbEntity
  8
0
100
AcDbLine
 10
22.59973089678116
 20
-9.771599258481472
 30
0.0
 11
18.59973089678112
 21
-9.771599258481472
 31
0.0
  0
LINE
  5
73
330
63
100
AcDbEntity
  8
0
100
AcDbLine
 10
18.59973089678115
 20
-13.77159925848144
 30
0.0
 11
17.59973089678115
 21
-13.77159925848144
 31
0.0
  0
LINE
  5
74
330
63
100
AcDbEntity
  8
0
100
AcDbLine
 10
18.59973089678115
 20
-9.771599258481472
 30
0.0
 11
18.59973089678115
 21
-13.77159925848144
 31
0.0
  0
LINE
  5
75
330
63
100
AcDbEntity
  8
0
100
AcDbLine
 10
22.59973089678116
 20
-9.771599258481472
 30
0.0
 11
23.67152766650562
 21
-13.77159925848147
 31
0.0
  0
ARC
  5
76
330
63
100
AcDbEntity
  8
0
100
AcDbCircle
 10
22.59973089678116
 20
-7.271599258481472
 30
0.0
 40
2.5
100
AcDbArc
 50
270.0
 51
270.0000000000007
  0
LINE
  5
77
330
63
100
AcDbEntity
  8
0
100
AcDbLine
 10
28.77130377203494
 20
-12.77159925848147
 30
0.0
 11
24.43885465448463
 21
-12.77159925848144
 31
0.0
  0
LINE
  5
78
330
63
100
AcDbEntity
  8
0
100
AcDbLine
 10
3.599730896781125
 20
-4.771599258481472
 30
0.0
 11
2.599730896781125
 21
-4.771599258481472
 31
0.0
  0
LINE
  5
79
330
63
100
AcDbEntity
  8
0
100
AcDbLine
 10
22.59973089678116
 20
-8.771599258481472
 30
0.0
 11
18.59973089678115
 21
-8.771599258481472
 31
0.0
  0
LINE
  5
7A
330
63
100
AcDbEntity
  8
0
100
AcDbLine
 10
22.59973089678116
 20
-5.771599258481472
 30
0.0
 11
18.59973089678115
 21
-5.771599258481472
 31
0.0
  0
LINE
  5
7B
330
63
100
AcDbEntity
  8
0
100
AcDbLine
 10
22.59973089678116
 20
-4.771599258481472
 30
0.0
 11
17.59973089678115
 21
-4.771599258481472
 31
0.0
  0
LINE
  5
7C
330
63
100
AcDbEntity
  8
0
100
AcDbLine
 10
18.59973089678115
 20
-5.771599258481472
 30
0.0
 11
18.59973089678115
 21
-8.771599258481472
 31
0.0
  0
ARC
  5
7D
330
63
100
AcDbEntity
  8
0
100
AcDbCircle
 10
22.59973089678116
 20
-7.271599258481472
 30
0.0
 40
1.5
100
AcDbArc
 50
270.0
 51
90.0
  0
ENDBLK
  5
7F
330
63
100
AcDbEntity
  8
0
100
AcDbBlockEnd
  0
BLOCK
  5
432
330
40F
100
AcDbEntity
  8
0
100
AcDbBlockBegin
  2
*D1
 70
     1
 10
0.0
 20
0.0
 30
0.0
  3
*D1
  1

  0
LINE
  5
20CD
330
40F
100
AcDbEntity
  8
BEM
 62
     0
370
    -2
100
AcDbLine
 10
82.44799042165732
 20
346.9970859407317
 30
0.0
 11
56.65162248140084
 21
346.9970859407317
 31
0.0
  0
LINE
  5
20CE
330
40F
100
AcDbEntity
  8
BEM
 62
     0
370
    -2
100
AcDbLine
 10
144.4479904216573
 20
456.9970859407309
 30
0.0
 11
56.65162248140086
 21
456.997085940731
 31
0.0
  0
LINE
  5
20CF
330
40F
100
AcDbEntity
  8
BEM
 62
     0
370
    -2
100
AcDbLine
 10
58.65162248140084
 20
353.9970859407317
 30
0.0
 11
58.65162248140086
 21
449.997085940731
 31
0.0
  0
SOLID
  5
20D0
330
40F
100
AcDbEntity
  8
BEM
 62
     0
100
AcDbTrace
 10
57.48495581473417
 20
353.9970859407317
 30
0.0
 11
59.81828914806751
 21
353.9970859407317
 31
0.0
 12
58.65162248140084
 22
346.9970859407317
 32
0.0
 13
58.65162248140084
 23
346.9970859407317
 33
0.0
  0
SOLID
  5
20D1
330
40F
100
AcDbEntity
  8
BEM
 62
     0
100
AcDbTrace
 10
57.4849558147342
 20
449.997085940731
 30
0.0
 11
59.81828914806753
 21
449.997085940731
 31
0.0
 12
58.65162248140086
 22
456.997085940731
 32
0.0
 13
58.65162248140086
 23
456.997085940731
 33
0.0
  0
MTEXT
  5
20D2
330
40F
100
AcDbEntity
  8
BEM
 62
     1
100
AcDbMText
 10
52.15162248140078
 20
401.9970859407313
 30
0.0
 40
7.0
 41
0.0
 71
     5
 72
     1
  1
\A1;110
  7
GREEKS
 11
0.0000000000000001
 21
1.0
 31
0.0
 73
     1
 44
1.0
  0
POINT
  5
20D3
330
40F
100
AcDbEntity
  8
DEFPOINTS
 62
     0
100
AcDbPoint
 10
84.44799042165731
 20
346.9970859407317
 30
0.0
  0
POINT
  5
20D4
330
40F
100
AcDbEntity
  8
DEFPOINTS
 62
     0
100
AcDbPoint
 10
146.4479904216573
 20
456.9970859407309
 30
0.0
  0
POINT
  5
20D5
330
40F
100
AcDbEntity
  8
DEFPOINTS
 62
     0
100
AcDbPoint
 10
58.65162248140086
 20
456.997085940731
 30
0.0
  0
ENDBLK
  5
43C
330
40F
100
AcDbEntity
  8
0
100
AcDbBlockEnd
  0
BLOCK
  5
1167
330
108E
100
AcDbEntity
  8
0
100
AcDbBlockBegin
  2
*D2
 70
     1
 10
0.0
 20
0.0
 30
0.0
  3
*D2
  1

  0
LINE
  5
1C32
330
108E
100
AcDbEntity
  8
BEM
 62
     0
370
    -2
100
AcDbLine
 10
74.44799042165726
 20
340.9970859407327
 30
0.0
 11
56.65162248140091
 21
340.9970859407327
 31
0.0
  0
LINE
  5
1C33
330
108E
100
AcDbEntity
  8
BEM
 62
     0
370
    -2
100
AcDbLine
 10
180.3767704790713
 20
156.8985417421625
 30
0.0
 11
56.65162248140087
 21
156.8985417421625
 31
0.0
  0
LINE
  5
1C34
330
108E
100
AcDbEntity
  8
BEM
 62
     0
370
    -2
100
AcDbLine
 10
58.6516224814009
 20
333.9970859407326
 30
0.0
 11
58.65162248140086
 21
163.8985417421625
 31
0.0
  0
SOLID
  5
1C35
330
108E
100
AcDbEntity
  8
BEM
 62
     0
100
AcDbTrace
 10
57.48495581473424
 20
333.9970859407326
 30
0.0
 11
59.81828914806756
 21
333.9970859407326
 31
0.0
 12
58.65162248140091
 22
340.9970859407327
 32
0.0
 13
58.65162248140091
 23
340.9970859407327
 33
0.0
  0
SOLID
  5
1C36
330
108E
100
AcDbEntity
  8
BEM
 62
     0
100
AcDbTrace
 10
57.4849558147342
 20
163.8985417421625
 30
0.0
 11
59.81828914806753
 21
163.8985417421625
 31
0.0
 12
58.65162248140086
 22
156.8985417421625
 32
0.0
 13
58.65162248140086
 23
156.8985417421625
 33
0.0
  0
MTEXT
  5
1C37
330
108E
100
AcDbEntity
  8
BEM
 62
     1
100
AcDbMText
 10
52.15162248140084
 20
248.9478138414476
 30
0.0
 40
7.0
 41
0.0
 71
     5
 72
     1
  1
\A1;400
  7
GREEKS
 11
0.0000000000000001
 21
1.0
 31
0.0
 73
     1
 44
1.0
  0
POINT
  5
1C38
330
108E
100
AcDbEntity
  8
DEFPOINTS
 62
     0
100
AcDbPoint
 10
76.44799042165726
 20
340.9970859407327
 30
0.0
  0
POINT
  5
1C39
330
108E
100
AcDbEntity
  8
DEFPOINTS
 62
     0
100
AcDbPoint
 10
182.3767704790713
 20
156.8985417421625
 30
0.0
  0
POINT
  5
1C3A
330
108E
100
AcDbEntity
  8
DEFPOINTS
 62
     0
100
AcDbPoint
 10
58.65162248140086
 20
156.8985417421625
 30
0.0
  0
ENDBLK
  5
1171
330
108E
100
AcDbEntity
  8
0
100
AcDbBlockEnd
  0
BLOCK
  5
12F2
330
12E8
100
AcDbEntity
  8
0
100
AcDbBlockBegin
  2
*D3
 70
     1
 10
0.0
 20
0.0
 30
0.0
  3
*D3
  1

  0
LINE
  5
1509
330
12E8
100
AcDbEntity
  8
BEM
 62
     0
370
    -2
100
AcDbLine
 10
116.4479904216573
 20
438.9970279734162
 30
0.0
 11
116.4479904216573
 21
470.3577348510913
 31
0.0
  0
LINE
  5
150A
330
12E8
100
AcDbEntity
  8
BEM
 62
     0
370
    -2
100
AcDbLine
 10
336.4479904216576
 20
438.9970279734162
 30
0.0
 11
336.4479904216576
 21
470.3577348510913
 31
0.0
  0
LINE
  5
150B
330
12E8
100
AcDbEntity
  8
BEM
 62
     0
370
    -2
100
AcDbLine
 10
123.4479904216573
 20
468.3577348510913
 30
0.0
 11
329.4479904216576
 21
468.3577348510913
 31
0.0
  0
SOLID
  5
150C
330
12E8
100
AcDbEntity
  8
BEM
 62
     0
100
AcDbTrace
 10
123.4479904216573
 20
469.5244015177579
 30
0.0
 11
123.4479904216573
 21
467.1910681844246
 31
0.0
 12
116.4479904216573
 22
468.3577348510913
 32
0.0
 13
116.4479904216573
 23
468.3577348510913
 33
0.0
  0
SOLID
  5
150D
330
12E8
100
AcDbEntity
  8
BEM
 62
     0
100
AcDbTrace
 10
329.4479904216576
 20
469.5244015177579
 30
0.0
 11
329.4479904216576
 21
467.1910681844246
 31
0.0
 12
336.4479904216576
 22
468.3577348510913
 32
0.0
 13
336.4479904216576
 23
468.3577348510913
 33
0.0
  0
MTEXT
  5
150E
330
12E8
100
AcDbEntity
  8
BEM
 62
     1
100
AcDbMText
 10
226.4479904216575
 20
474.8577348510913
 30
0.0
 40
7.0
 41
0.0
 71
     5
 72
     1
  1
\A1;%%c220
  7
GREEKS
 73
     1
 44
1.0
  0
POINT
  5
150F
330
12E8
100
AcDbEntity
  8
DEFPOINTS
 62
     0
100
AcDbPoint
 10
116.4479904216573
 20
436.9970279734162
 30
0.0
  0
POINT
  5
1510
330
12E8
100
AcDbEntity
  8
DEFPOINTS
 62
     0
100
AcDbPoint
 10
336.4479904216576
 20
436.9970279734162
 30
0.0
  0
POINT
  5
1511
330
12E8
100
AcDbEntity
  8
DEFPOINTS
 62
     0
100
AcDbPoint
 10
336.4479904216576
 20
468.3577348510913
 30
0.0
  0
ENDBLK
  5
12F3
330
12E8
100
AcDbEntity
  8
0
100
AcDbBlockEnd
  0
BLOCK
  5
12FE
330
12F4
100
AcDbEntity
  8
0
100
AcDbBlockBegin
  2
*D4
 70
     1
 10
0.0
 20
0.0
 30
0.0
  3
*D4
  1

  0
LINE
  5
20D6
330
12F4
100
AcDbEntity
  8
BEM
 62
     0
370
    -2
100
AcDbLine
 10
76.49353006707196
 20
345.9970859407317
 30
0.0
 11
76.49353006707197
 21
486.7914999084888
 31
0.0
  0
LINE
  5
20D7
330
12F4
100
AcDbEntity
  8
BEM
 62
     0
370
    -2
100
AcDbLine
 10
376.4479904216573
 20
345.9970859407317
 30
0.0
 11
376.4479904216573
 21
486.7914999084888
 31
0.0
  0
LINE
  5
20D8
330
12F4
100
AcDbEntity
  8
BEM
 62
     0
370
    -2
100
AcDbLine
 10
83.49353006707197
 20
484.7914999084888
 30
0.0
 11
369.4479904216573
 21
484.7914999084888
 31
0.0
  0
SOLID
  5
20D9
330
12F4
100
AcDbEntity
  8
BEM
 62
     0
100
AcDbTrace
 10
83.49353006707197
 20
485.9581665751555
 30
0.0
 11
83.49353006707197
 21
483.6248332418221
 31
0.0
 12
76.49353006707197
 22
484.7914999084888
 32
0.0
 13
76.49353006707197
 23
484.7914999084888
 33
0.0
  0
SOLID
  5
20DA
330
12F4
100
AcDbEntity
  8
BEM
 62
     0
100
AcDbTrace
 10
369.4479904216573
 20
485.9581665751555
 30
0.0
 11
369.4479904216573
 21
483.6248332418221
 31
0.0
 12
376.4479904216573
 22
484.7914999084888
 32
0.0
 13
376.4479904216573
 23
484.7914999084888
 33
0.0
  0
MTEXT
  5
20DB
330
12F4
100
AcDbEntity
  8
BEM
 62
     1
100
AcDbMText
 10
226.4707602443646
 20
491.2914999084888
 30
0.0
 40
7.0
 41
0.0
 71
     5
 72
     1
  1
\A1;%%c300
  7
GREEKS
 73
     1
 44
1.0
  0
POINT
  5
20DC
330
12F4
100
AcDbEntity
  8
DEFPOINTS
 62
     0
100
AcDbPoint
 10
76.49353006707196
 20
343.9970859407317
 30
0.0
  0
POINT
  5
20DD
330
12F4
100
AcDbEntity
  8
DEFPOINTS
 62
     0
100
AcDbPoint
 10
376.4479904216573
 20
343.9970859407317
 30
0.0
  0
POINT
  5
20DE
330
12F4
100
AcDbEntity
  8
DEFPOINTS
 62
     0
100
AcDbPoint
 10
376.4479904216573
 20
484.7914999084888
 30
0.0
  0
ENDBLK
  5
12FF
330
12F4
100
AcDbEntity
  8
0
100
AcDbBlockEnd
  0
BLOCK
  5
1590
330
1586
100
AcDbEntity
  8
0
100
AcDbBlockBegin
  2
*D5
 70
     1
 10
0.0
 20
0.0
 30
0.0
  3
*D5
  1

  0
LINE
  5
1592
330
1586
100
AcDbEntity
  8
BEM
 62
     0
370
    -2
100
AcDbLine
 10
181.9479904216574
 20
159.8279520551938
 30
0.0
 11
181.9479904216574
 21
136.5354321486591
 31
0.0
  0
LINE
  5
1593
330
1586
100
AcDbEntity
  8
BEM
 62
     0
370
    -2
100
AcDbLine
 10
270.9479904216573
 20
159.8279520551938
 30
0.0
 11
270.9479904216573
 21
136.5354321486591
 31
0.0
  0
LINE
  5
1594
330
1586
100
AcDbEntity
  8
BEM
 62
     0
370
    -2
100
AcDbLine
 10
188.9479904216574
 20
138.5354321486591
 30
0.0
 11
263.9479904216573
 21
138.5354321486591
 31
0.0
  0
SOLID
  5
1595
330
1586
100
AcDbEntity
  8
BEM
 62
     0
100
AcDbTrace
 10
188.9479904216574
 20
139.7020988153257
 30
0.0
 11
188.9479904216574
 21
137.3687654819924
 31
0.0
 12
181.9479904216574
 22
138.5354321486591
 32
0.0
 13
181.9479904216574
 23
138.5354321486591
 33
0.0
  0
SOLID
  5
1596
330
1586
100
AcDbEntity
  8
BEM
 62
     0
100
AcDbTrace
 10
263.9479904216573
 20
139.7020988153257
 30
0.0
 11
263.9479904216573
 21
137.3687654819924
 31
0.0
 12
270.9479904216573
 22
138.5354321486591
 32
0.0
 13
270.9479904216573
 23
138.5354321486591
 33
0.0
  0
MTEXT
  5
1597
330
1586
100
AcDbEntity
  8
BEM
 62
     1
100
AcDbMText
 10
226.4479904216573
 20
145.0354321486591
 30
0.0
 40
7.0
 41
0.0
 71
     5
 72
     1
  1
\A1;%%c89
  7
GREEKS
 73
     1
 44
1.0
  0
POINT
  5
1598
330
1586
100
AcDbEntity
  8
DEFPOINTS
 62
     0
100
AcDbPoint
 10
181.9479904216574
 20
161.8279520551937
 30
0.0
  0
POINT
  5
1599
330
1586
100
AcDbEntity
  8
DEFPOINTS
 62
     0
100
AcDbPoint
 10
270.9479904216573
 20
161.8279520551937
 30
0.0
  0
POINT
  5
159A
330
1586
100
AcDbEntity
  8
DEFPOINTS
 62
     0
100
AcDbPoint
 10
270.9479904216573
 20
138.5354321486591
 30
0.0
  0
ENDBLK
  5
1591
330
1586
100
AcDbEntity
  8
0
100
AcDbBlockEnd
  0
BLOCK
  5
1B7E
330
1B74
100
AcDbEntity
  8
0
100
AcDbBlockBegin
  2
*D6
 70
     1
 10
0.0
 20
0.0
 30
0.0
  3
*D6
  1

  0
LINE
  5
1B89
330
1B74
100
AcDbEntity
  8
BEM
 62
     0
370
    -2
100
AcDbLine
 10
190.4479904216572
 20
242.3163230024655
 30
0.0
 11
197.4479904216572
 21
242.3163230024655
 31
0.0
  0
LINE
  5
1B8A
330
1B74
100
AcDbEntity
  8
BEM
 62
     0
370
    -2
100
AcDbLine
 10
174.9479904216573
 20
242.3163230024655
 30
0.0
 11
151.2813237549906
 21
242.3163230024655
 31
0.0
  0
LINE
  5
1B8B
330
1B74
100
AcDbEntity
  8
BEM
 62
     0
370
    -2
100
AcDbLine
 10
183.4479904216572
 20
242.3163230024655
 30
0.0
 11
181.9479904216573
 21
242.3163230024655
 31
0.0
  0
SOLID
  5
1B8C
330
1B74
100
AcDbEntity
  8
BEM
 62
     0
100
AcDbTrace
 10
190.4479904216572
 20
243.4829896691321
 30
0.0
 11
190.4479904216572
 21
241.1496563357988
 31
0.0
 12
183.4479904216572
 22
242.3163230024655
 32
0.0
 13
183.4479904216572
 23
242.3163230024655
 33
0.0
  0
SOLID
  5
1B8D
330
1B74
100
AcDbEntity
  8
BEM
 62
     0
100
AcDbTrace
 10
174.9479904216573
 20
243.4829896691321
 30
0.0
 11
174.9479904216573
 21
241.1496563357988
 31
0.0
 12
181.9479904216573
 22
242.3163230024655
 32
0.0
 13
181.9479904216573
 23
242.3163230024655
 33
0.0
  0
MTEXT
  5
1B8E
330
1B74
100
AcDbEntity
  8
BEM
 62
     1
100
AcDbMText
 10
159.614657088324
 20
248.8163230024655
 30
0.0
 40
7.0
 41
0.0
 71
     5
 72
     1
  1
\A1;1.5
  7
GREEKS
 73
     1
 44
1.0
  0
POINT
  5
1B8F
330
1B74
100
AcDbEntity
  8
DEFPOINTS
 62
     0
100
AcDbPoint
 10
183.4479904216572
 20
242.3163230024655
 30
0.0
  0
POINT
  5
1B90
330
1B74
100
AcDbEntity
  8
DEFPOINTS
 62
     0
100
AcDbPoint
 10
181.9479904216573
 20
242.3163230024655
 30
0.0
  0
POINT
  5
1B91
330
1B74
100
AcDbEntity
  8
DEFPOINTS
 62
     0
100
AcDbPoint
 10
181.9479904216573
 20
242.3163230024655
 30
0.0
  0
ENDBLK
  5
1B7F
330
1B74
100
AcDbEntity
  8
0
100
AcDbBlockEnd
  0
ENDSEC
  0
SECTION
  2
ENTITIES
  0
LINE
  5
27
330
2
100
AcDbEntity
  8
STEMPEL
100
AcDbLine
 10
214.0375050167131
 20
456.9970859407313
 30
0.0
 11
220.4913525940074
 21
456.9970859407313
 31
0.0
  0
LINE
  5
29
330
2
100
AcDbEntity
  8
STEMPEL
100
AcDbLine
 10
214.0375050167131
 20
456.9970859407313
 30
0.0
 11
220.4913525940074
 21
456.9970859407313
 31
0.0
  0
LINE
  5
2A
330
2
100
AcDbEntity
  8
STEMPEL
100
AcDbLine
 10
203.7844288053602
 20
458.4970859407313
 30
0.0
 11
249.2894288053601
 21
458.4970859407313
 31
0.0
  0
LINE
  5
2F
330
2
100
AcDbEntity
  8
STEMPEL
100
AcDbLine
 10
146.4479904216573
 20
455.9970859407309
 30
0.0
 11
306.4479904216576
 21
455.9970859407318
 31
0.0
  0
LINE
  5
30
330
2
100
AcDbEntity
  8
HILF
100
AcDbLine
 10
328.774323479188
 20
439.9970859407345
 30
0.0
 11
123.6216573641266
 21
439.9970859407343
 31
0.0
  0
DIMENSION
  5
32
330
2
100
AcDbEntity
  8
BEM
100
AcDbDimension
  2
*D4
 10
376.4479904216573
 20
484.7914999084888
 30
0.0
 11
226.4707602443646
 21
491.2914999084888
 31
0.0
 70
    32
  1
%%c<>
 71
     5
 42
299.9544603545853
  3
STANDARD
100
AcDbAlignedDimension
 13
76.49353006707196
 23
343.9970859407317
 33
0.0
 14
376.4479904216573
 24
343.9970859407317
 34
0.0
100
AcDbRotatedDimension
  0
DIMENSION
  5
43
330
2
100
AcDbEntity
  8
BEM
100
AcDbDimension
  2
*D3
 10
336.4479904216576
 20
468.3577348510913
 30
0.0
 11
226.4479904216575
 21
474.8577348510913
 31
0.0
 70
    32
  1
%%c<>
 71
     5
 42
220.0000000000002
  3
STANDARD
100
AcDbAlignedDimension
 13
116.4479904216573
 23
436.9970279734162
 33
0.0
 14
336.4479904216576
 24
436.9970279734162
 34
0.0
100
AcDbRotatedDimension
  0
LINE
  5
50
102
{ACAD_REACTORS
330
3FD
102
}
330
2
100
AcDbEntity
  8
STEMPEL
100
AcDbLine
 10
368.4479904216573
 20
346.9970859407318
 30
0.0
 11
119.4479904216573
 21
346.9970859407317
 31
0.0
  0
LINE
  5
51
102
{ACAD_REACTORS
330
3FD
102
}
330
2
100
AcDbEntity
  8
STEMPEL
100
AcDbLine
 10
84.44799042165731
 20
352.9970859407317
 30
0.0
 11
335.7901331970841
 21
352.997085940732
 31
0.0
  0
LINE
  5
53
102
{ACAD_REACTORS
330
2114
102
}
330
2
100
AcDbEntity
  8
STEMPEL
100
AcDbLine
 10
119.4479904216573
 20
343.9970859407317
 30
0.0
 11
376.4479904216573
 21
343.9970859407317
 31
0.0
  0
LINE
  5
57
330
2
100
AcDbEntity
  8
HILF
100
AcDbLine
 10
420.0
 20
0.0
 30
0.0
 11
0.0
 21
0.0
 31
0.0
  0
LINE
  5
58
330
2
100
AcDbEntity
  8
STEMPEL
100
AcDbLine
 10
410.0
 20
10.0
 30
0.0
 11
39.99999999999989
 21
10.0
 31
0.0
  0
LINE
  5
59
330
2
100
AcDbEntity
  8
STEMPEL
100
AcDbLine
 10
49.99999999999989
 20
10.0
 30
0.0
 11
410.0
 21
10.0
 31
0.0
  0
LINE
  5
5A
330
2
100
AcDbEntity
  8
STEMPEL
100
AcDbLine
 10
410.0
 20
110.0
 30
0.0
 11
40.0
 21
110.0
 31
0.0
  0
LINE
  5
5B
330
2
100
AcDbEntity
  8
STEMPEL
100
AcDbLine
 10
410.0
 20
80.0
 30
0.0
 11
146.0000000000001
 21
79.99999999999994
 31
0.0
  0
LINE
  5
5C
330
2
100
AcDbEntity
  8
STEMPEL
100
AcDbLine
 10
410.0
 20
40.0
 30
0.0
 11
146.0000000000001
 21
39.99999999999997
 31
0.0
  0
LINE
  5
5D
330
2
100
AcDbEntity
  8
HILF
100
AcDbLine
 10
419.9999999999999
 20
594.0000000000002
 30
0.0
 11
0.0
 21
594.0
 31
0.0
  0
LINE
  5
5E
330
2
100
AcDbEntity
  8
STEMPEL
100
AcDbLine
 10
410.0
 20
584.0
 30
0.0
 11
39.99999999999989
 21
584.0
 31
0.0
  0
LINE
  5
5F
330
2
100
AcDbEntity
  8
HILF
100
AcDbLine
 10
146.0000000000001
 20
49.99999999999997
 30
0.0
 11
230.0
 21
49.99999999999997
 31
0.0
  0
LINE
  5
60
330
2
100
AcDbEntity
  8
HILF
100
AcDbLine
 10
146.0000000000001
 20
59.99999999999997
 30
0.0
 11
230.0
 21
59.99999999999997
 31
0.0
  0
LINE
  5
61
330
2
100
AcDbEntity
  8
HILF
100
AcDbLine
 10
146.0000000000001
 20
69.99999999999994
 30
0.0
 11
230.0
 21
69.99999999999994
 31
0.0
  0
INSERT
  5
62
330
2
100
AcDbEntity
  8
STEMPEL
100
AcDbBlockReference
  2
LOGO
 10
150.9955485457794
 20
45.02105276448321
 30
0.0
 41
2.0
 42
2.0
 43
2.0
  0
TEXT
  5
80
330
2
100
AcDbEntity
  8
TEXT
100
AcDbText
 10
202.4626584226295
 20
73.30961091915225
 30
0.0
 40
4.0
  1
Name
 41
0.8
  7
GREEKS
100
AcDbText
  0
TEXT
  5
82
330
2
100
AcDbEntity
  8
TEXT
100
AcDbText
 10
204.4216048581258
 20
63.0896391972351
 30
0.0
 40
4.0
  1
Koeh
 41
0.8
  7
GREEKS
 72
     1
 11
209.6787477152686
 21
63.0896391972351
 31
0.0
100
AcDbText
  0
TEXT
  5
83
330
2
100
AcDbEntity
  8
TEXT
100
AcDbText
 10
194.2858954734051
 20
102.4184168434819
 30
0.0
 40
5.0
  1
Zul. Abw.
 41
0.8
  7
GREEKS
100
AcDbText
  0
TEXT
  5
84
330
2
100
AcDbEntity
  8
TEXT
100
AcDbText
 10
192.626132208084
 20
90.76363841023022
 30
0.0
 40
4.0
  1
DIN EN1124-3
 41
0.8
  7
GREEKS
 72
     1
 11
209.6166083985602
 21
90.76363841023022
 31
0.0
100
AcDbText
  0
LINE
  5
85
102
{ACAD_REACTORS
330
2114
102
}
330
2
100
AcDbEntity
  8
STEMPEL
100
AcDbLine
 10
76.44799042165726
 20
340.9970859407327
 30
0.0
 11
376.4479904216573
 21
340.9970859407317
 31
0.0
  0
LINE
  5
9E
330
2
100
AcDbEntity
  8
HILF
100
AcDbLine
 10
0.0
 20
0.0
 30
0.0
 11
-0.0000000000001137
 21
594.0
 31
0.0
  0
LINE
  5
9F
330
2
100
AcDbEntity
  8
STEMPEL
100
AcDbLine
 10
40.0
 20
10.0
 30
0.0
 11
39.99999999999989
 21
584.0
 31
0.0
  0
LINE
  5
AF
330
2
100
AcDbEntity
  8
HILF
100
AcDbLine
 10
40.00000000000011
 20
39.99999999999997
 30
0.0
 11
146.0000000000001
 21
39.99999999999997
 31
0.0
  0
LINE
  5
B0
330
2
100
AcDbEntity
  8
HILF
100
AcDbLine
 10
40.00000000000011
 20
49.99999999999997
 30
0.0
 11
146.0000000000001
 21
49.99999999999997
 31
0.0
  0
LINE
  5
B1
330
2
100
AcDbEntity
  8
HILF
100
AcDbLine
 10
40.00000000000011
 20
59.99999999999997
 30
0.0
 11
146.0000000000001
 21
59.99999999999997
 31
0.0
  0
LINE
  5
B2
330
2
100
AcDbEntity
  8
HILF
100
AcDbLine
 10
40.00000000000011
 20
69.99999999999994
 30
0.0
 11
146.0000000000001
 21
69.99999999999994
 31
0.0
  0
LINE
  5
B3
330
2
100
AcDbEntity
  8
STEMPEL
100
AcDbLine
 10
145.9999999999999
 20
29.99999999999997
 30
0.0
 11
40.0
 21
29.99999999999997
 31
0.0
  0
LINE
  5
B4
330
2
100
AcDbEntity
  8
HILF
100
AcDbLine
 10
40.00000000000011
 20
79.99999999999994
 30
0.0
 11
146.0000000000001
 21
79.99999999999994
 31
0.0
  0
LINE
  5
B5
330
2
100
AcDbEntity
  8
HILF
100
AcDbLine
 10
40.00000000000011
 20
90.00000000000005
 30
0.0
 11
146.0000000000001
 21
90.00000000000005
 31
0.0
  0
LINE
  5
B6
330
2
100
AcDbEntity
  8
HILF
100
AcDbLine
 10
40.00000000000011
 20
100.0
 30
0.0
 11
146.0000000000001
 21
100.0
 31
0.0
  0
TEXT
  5
B7
330
2
100
AcDbEntity
  8
TEXT
100
AcDbText
 10
67.7748182905991
 20
18.67381894984132
 30
0.0
 40
4.0
  1
Änderung
 41
0.8
  7
GREEKS
 72
     1
 11
78.51767543345625
 21
18.67381894984132
 31
0.0
100
AcDbText
  0
TEXT
  5
B8
330
2
100
AcDbEntity
  8
TEXT
100
AcDbText
 10
42.59108645678998
 20
112.9572572751345
 30
0.0
 40
5.0
  1
Erstellt mit AUTOCAD 2004
 41
0.8
  7
GREEKS
100
AcDbText
  0
LINE
  5
B9
330
2
100
AcDbEntity
  8
VOLL
100
AcDbLine
 10
54.00000000000011
 20
110.0
 30
0.0
 11
54.0
 21
9.999999999999971
 31
0.0
  0
TEXT
  5
BB
330
2
100
AcDbEntity
  8
TEXT
100
AcDbText
 10
48.26641107045759
 20
13.65465846027192
 30
0.0
 40
4.0
  1
Index
 50
90.0
 41
0.8
  7
GREEKS
100
AcDbText
  0
LINE
  5
BC
330
2
100
AcDbEntity
  8
HILF
100
AcDbLine
 10
31.08767135713856
 20
297.0
 30
0.0
 11
0.0000000000001137
 21
297.0
 31
0.0
  0
LINE
  5
BD
330
2
100
AcDbEntity
  8
VOLL
100
AcDbLine
 10
104.0000000000001
 20
109.9999999999999
 30
0.0
 11
104.0
 21
9.999999999999971
 31
0.0
  0
LINE
  5
BE
330
2
100
AcDbEntity
  8
VOLL
100
AcDbLine
 10
124.0000000000001
 20
109.9999999999999
 30
0.0
 11
124.0
 21
9.999999999999971
 31
0.0
  0
TEXT
  5
BF
330
2
100
AcDbEntity
  8
TEXT
100
AcDbText
 10
110.893518220618
 20
18.6715626933981
 30
0.0
 40
4.0
  1
Tag
 41
0.8
  7
GREEKS
 72
     1
 11
114.6268515539514
 21
18.6715626933981
 31
0.0
100
AcDbText
  0
TEXT
  5
C0
330
2
100
AcDbEntity
  8
TEXT
100
AcDbText
 10
129.145724181754
 20
18.59324216966408
 30
0.0
 40
4.0
  1
Name
 41
0.8
  7
GREEKS
 72
     1
 11
135.4695337055635
 21
18.59324216966408
 31
0.0
100
AcDbText
  0
LINE
  5
C1
330
2
100
AcDbEntity
  8
STEMPEL
100
AcDbLine
 10
146.0000000000001
 20
109.9999999999999
 30
0.0
 11
146.0
 21
9.999999999999971
 31
0.0
  0
TEXT
  5
C2
330
2
100
AcDbEntity
  8
TEXT
100
AcDbText
 10
170.703759012998
 20
63.10765040825732
 30
0.0
 40
4.0
  1
24.01.
 41
0.8
  7
GREEKS
 72
     1
 11
177.4085209177599
 21
63.10765040825732
 31
0.0
100
AcDbText
  0
TEXT
  5
C3
330
2
100
AcDbEntity
  8
TEXT
100
AcDbText
 10
172.331167315365
 20
73.31880501229926
 30
0.0
 40
4.0
  1
Tag
 41
0.8
  7
GREEKS
100
AcDbText
  0
TEXT
  5
C4
330
2
100
AcDbEntity
  8
TEXT
100
AcDbText
 10
153.5163572150377
 20
102.4620895087088
 30
0.0
 40
5.0
  1
Maßstab
 41
0.8
  7
GREEKS
100
AcDbText
  0
TEXT
  5
C5
330
2
100
AcDbEntity
  8
TEXT
100
AcDbText
 10
147.5836127167615
 20
63.62990369617964
 30
0.0
 40
4.0
  1
Gez.
 41
0.8
  7
GREEKS
100
AcDbText
  0
LINE
  5
C6
330
2
100
AcDbEntity
  8
VOLL
100
AcDbLine
 10
164.0000000000001
 20
79.99999999999994
 30
0.0
 11
164.0000000000001
 21
39.99999999999997
 31
0.0
  0
TEXT
  5
C7
330
2
100
AcDbEntity
  8
TEXT
100
AcDbText
 10
147.6006777387303
 20
43.52946389649807
 30
0.0
 40
4.0
  1
Norm.
 41
0.8
  7
GREEKS
100
AcDbText
  0
TEXT
  5
C8
330
2
100
AcDbEntity
  8
TEXT
100
AcDbText
 10
147.5515086571672
 20
53.68926291428377
 30
0.0
 40
4.0
  1
Gepr.
 41
0.8
  7
GREEKS
100
AcDbText
  0
TEXT
  5
C9
330
2
100
AcDbEntity
  8
TEXT
 62
     1
100
AcDbText
 10
160.5006306481887
 20
88.14901428913959
 30
0.0
 40
7.0
  1
1:2
 41
0.8
  7
GREEKS
100
AcDbText
  0
TEXT
  5
CB
330
2
100
AcDbEntity
  8
TEXT
100
AcDbText
 10
148.622109822104
 20
73.14025471151666
 30
0.0
 40
4.0
  1
2011
 41
0.8
  7
GREEKS
100
AcDbText
  0
LINE
  5
CC
330
2
100
AcDbEntity
  8
VOLL
100
AcDbLine
 10
190.0000000000001
 20
109.9999999999998
 30
0.0
 11
190.0
 21
39.99999999999997
 31
0.0
  0
DIMENSION
  5
DC
330
2
100
AcDbEntity
  8
BEM
100
AcDbDimension
  2
*D1
 10
58.65162248140086
 20
456.997085940731
 30
0.0
 11
52.15162248140078
 21
401.9970859407313
 31
0.0
 70
    32
 71
     5
 42
109.9999999999993
  3
STANDARD
100
AcDbAlignedDimension
 13
84.44799042165731
 23
346.9970859407317
 33
0.0
 14
146.4479904216573
 24
456.9970859407309
 34
0.0
 50
90.0
100
AcDbRotatedDimension
  0
LINE
  5
E9
330
2
100
AcDbEntity
  8
STEMPEL
100
AcDbLine
 10
109.4479904216573
 20
346.9970859407317
 30
0.0
 11
84.44799042165731
 21
346.9970859407317
 31
0.0
  0
LINE
  5
EA
330
2
100
AcDbEntity
  8
TEXT
 62
     2
100
AcDbLine
 10
278.4619540590565
 20
522.7873302468958
 30
0.0
 11
266.7197079301727
 21
486.6933865183999
 31
0.0
  0
LINE
  5
EB
330
2
100
AcDbEntity
  8
TEXT
 62
     2
100
AcDbLine
 10
278.4619540590565
 20
522.7873302468958
 30
0.0
 11
384.9085060319763
 21
522.7873302468958
 31
0.0
  0
TEXT
  5
EC
330
2
100
AcDbEntity
  8
TEXT
 62
     1
100
AcDbText
 10
280.1179175467222
 20
526.8834521857061
 30
0.0
 40
7.0
  1
Siebkorb
 41
0.8
100
AcDbText
  0
TEXT
  5
ED
330
2
100
AcDbEntity
  8
TEXT
 62
     1
100
AcDbText
 10
280.4738765495589
 20
513.3454388806577
 30
0.0
 40
7.0
  1
EDV-Art.Nr. 21004.000X
 41
0.8
100
AcDbText
  0
LINE
  5
EE
102
{ACAD_REACTORS
330
3FD
102
}
330
2
100
AcDbEntity
  8
STEMPEL
100
AcDbLine
 10
84.44799042165731
 20
346.9970859407317
 30
0.0
 11
109.4479904216573
 21
346.9970859407317
 31
0.0
  0
LINE
  5
F0
102
{ACAD_REACTORS
330
2114
102
}
330
2
100
AcDbEntity
  8
STEMPEL
100
AcDbLine
 10
76.44799042165726
 20
343.9970859407317
 30
0.0
 11
109.4479904216573
 21
343.9970859407317
 31
0.0
  0
ARC
  5
F1
102
{ACAD_REACTORS
330
3FD
102
}
330
2
100
AcDbEntity
  8
STEMPEL
100
AcDbCircle
 10
84.44799042165731
 20
349.9970859407317
 30
0.0
 40
3.0
100
AcDbArc
 50
89.99999999999946
 51
270.0000000000005
  0
LINE
  5
F7
102
{ACAD_REACTORS
330
2114
102
}
330
2
100
AcDbEntity
  8
STEMPEL
100
AcDbLine
 10
76.44799042165726
 20
340.9970859407317
 30
0.0
 11
76.44799042165726
 21
343.9970859407317
 31
0.0
  0
LINE
  5
FB
330
2
100
AcDbEntity
  8
STEMPEL
100
AcDbLine
 10
117.4479904216574
 20
436.9970279734162
 30
0.0
 11
117.4479904216574
 21
372.9970859407323
 31
0.0
  0
LINE
  5
FC
330
2
100
AcDbEntity
  8
STEMPEL
100
AcDbLine
 10
116.4479904216573
 20
436.9970279734162
 30
0.0
 11
116.4479904216573
 21
372.9970859407323
 31
0.0
  0
ARC
  5
FD
330
2
100
AcDbEntity
  8
STEMPEL
100
AcDbCircle
 10
111.4479904216574
 20
372.9970859407323
 30
0.0
 40
6.0
100
AcDbArc
 50
270.0000000000017
 51
0.0
  0
ARC
  5
FE
330
2
100
AcDbEntity
  8
STEMPEL
100
AcDbCircle
 10
111.4479904216574
 20
372.9970859407323
 30
0.0
 40
5.0
100
AcDbArc
 50
270.0000000000017
 51
0.0
  0
LINE
  5
106
330
2
100
AcDbEntity
  8
STEMPEL
100
AcDbLine
 10
109.4479904216573
 20
364.9970859407325
 30
0.0
 11
119.4479904216573
 21
364.9970859407325
 31
0.0
  0
LINE
  5
107
330
2
100
AcDbEntity
  8
STEMPEL
100
AcDbLine
 10
118.4479904216573
 20
365.9970859407324
 30
0.0
 11
110.4479904216573
 21
365.9970859407324
 31
0.0
  0
LINE
  5
108
330
2
100
AcDbEntity
  8
MITTEL
100
AcDbLine
 10
114.4479904216573
 20
370.9970859407324
 30
0.0
 11
114.4479904216573
 21
340.9970859407325
 31
0.0
  0
LINE
  5
10B
330
2
100
AcDbEntity
  8
STEMPEL
100
AcDbLine
 10
96.44799042165733
 20
367.9970859407319
 30
0.0
 11
111.4479904216575
 21
367.9970859407323
 31
0.0
  0
LINE
  5
10C
330
2
100
AcDbEntity
  8
STEMPEL
100
AcDbLine
 10
96.44799042165722
 20
367.9970859407321
 30
0.0
 11
96.44799042165709
 21
366.9970859407318
 31
0.0
  0
LINE
  5
10D
330
2
100
AcDbEntity
  8
HILF
100
AcDbLine
 10
110.4479904216573
 20
352.9970859407317
 30
0.0
 11
110.4479904216573
 21
340.9970859407325
 31
0.0
  0
LINE
  5
10E
330
2
100
AcDbEntity
  8
STEMPEL
100
AcDbLine
 10
109.4479904216573
 20
352.9970859407317
 30
0.0
 11
109.4479904216573
 21
340.9970859407325
 31
0.0
  0
LINE
  5
114
102
{ACAD_REACTORS
330
3FD
102
}
330
2
100
AcDbEntity
  8
STEMPEL
100
AcDbLine
 10
107.4479904216573
 20
352.9970859407317
 30
0.0
 11
107.4479904216573
 21
346.9970859407317
 31
0.0
  0
LINE
  5
117
330
2
100
AcDbEntity
  8
STEMPEL
100
AcDbLine
 10
110.4479904216573
 20
365.9970859407324
 30
0.0
 11
109.4479904216573
 21
364.9970859407324
 31
0.0
  0
LINE
  5
118
330
2
100
AcDbEntity
  8
STEMPEL
100
AcDbLine
 10
109.4479904216573
 20
364.9970859407324
 30
0.0
 11
109.4479904216573
 21
362.9970859407318
 31
0.0
  0
LINE
  5
119
330
2
100
AcDbEntity
  8
HILF
100
AcDbLine
 10
110.4479904216573
 20
365.9970859407324
 30
0.0
 11
110.4479904216573
 21
362.9970859407317
 31
0.0
  0
LINE
  5
122
330
2
100
AcDbEntity
  8
STEMPEL
100
AcDbLine
 10
119.4479904216573
 20
352.9970859407317
 30
0.0
 11
119.4479904216573
 21
340.9970859407325
 31
0.0
  0
LINE
  5
123
330
2
100
AcDbEntity
  8
HILF
100
AcDbLine
 10
118.4479904216573
 20
352.9970859407317
 30
0.0
 11
118.4479904216573
 21
340.9970859407325
 31
0.0
  0
LINE
  5
12D
102
{ACAD_REACTORS
330
3FD
102
}
330
2
100
AcDbEntity
  8
STEMPEL
100
AcDbLine
 10
121.4479904216573
 20
352.9970859407318
 30
0.0
 11
121.4479904216573
 21
346.9970859407317
 31
0.0
  0
LINE
  5
12F
330
2
100
AcDbEntity
  8
STEMPEL
100
AcDbLine
 10
119.4479904216573
 20
364.9970859407324
 30
0.0
 11
118.4479904216573
 21
365.9970859407324
 31
0.0
  0
LINE
  5
130
330
2
100
AcDbEntity
  8
STEMPEL
100
AcDbLine
 10
119.4479904216573
 20
364.9970859407324
 30
0.0
 11
119.4479904216573
 21
362.9970859407318
 31
0.0
  0
LINE
  5
131
330
2
100
AcDbEntity
  8
HILF
100
AcDbLine
 10
118.4479904216573
 20
365.9970859407324
 30
0.0
 11
118.4479904216573
 21
362.9970859407318
 31
0.0
  0
LINE
  5
136
102
{ACAD_REACTORS
330
2114
102
}
330
2
100
AcDbEntity
  8
STEMPEL
100
AcDbLine
 10
146.4479904216572
 20
340.9970859407317
 30
0.0
 11
146.4479904216572
 21
343.9970859407317
 31
0.0
  0
ARC
  5
138
102
{ACAD_REACTORS
330
3FD
102
}
330
2
100
AcDbEntity
  8
STEMPEL
100
AcDbCircle
 10
144.4479904216574
 20
349.9970859407317
 30
0.0
 40
3.0
100
AcDbArc
 50
269.9999999999995
 51
90.00000000000055
  0
LINE
  5
160
330
2
100
AcDbEntity
  8
MITTEL
100
AcDbLine
 10
170.4479904216574
 20
370.9970859407323
 30
0.0
 11
170.4479904216574
 21
340.9970859407323
 31
0.0
  0
LINE
  5
16E
330
2
100
AcDbEntity
  8
HILF
100
AcDbLine
 10
166.4479904216574
 20
346.9970859407317
 30
0.0
 11
166.4479904216574
 21
343.9970859407318
 31
0.0
  0
LINE
  5
16F
330
2
100
AcDbEntity
  8
STEMPEL
100
AcDbLine
 10
165.4479904216574
 20
346.9970859407317
 30
0.0
 11
165.4479904216574
 21
343.9970859407318
 31
0.0
  0
LINE
  5
170
330
2
100
AcDbEntity
  8
STEMPEL
100
AcDbLine
 10
175.4479904216574
 20
346.9970859407317
 30
0.0
 11
175.4479904216574
 21
343.9970859407318
 31
0.0
  0
LINE
  5
171
330
2
100
AcDbEntity
  8
HILF
100
AcDbLine
 10
174.4479904216574
 20
346.9970859407317
 30
0.0
 11
174.4479904216574
 21
343.9970859407318
 31
0.0
  0
LINE
  5
174
330
2
100
AcDbEntity
  8
STEMPEL
100
AcDbLine
 10
174.4479904216574
 20
365.9970859407322
 30
0.0
 11
166.4479904216574
 21
365.9970859407323
 31
0.0
  0
LINE
  5
175
330
2
100
AcDbEntity
  8
STEMPEL
100
AcDbLine
 10
165.4479904216575
 20
364.9970859407324
 30
0.0
 11
175.4479904216573
 21
364.9970859407324
 31
0.0
  0
LINE
  5
177
330
2
100
AcDbEntity
  8
STEMPEL
100
AcDbLine
 10
166.4479904216574
 20
365.9970859407323
 30
0.0
 11
165.4479904216574
 21
364.9970859407323
 31
0.0
  0
LINE
  5
178
330
2
100
AcDbEntity
  8
HILF
100
AcDbLine
 10
166.4479904216574
 20
365.9970859407323
 30
0.0
 11
166.4479904216574
 21
362.9970859407318
 31
0.0
  0
LINE
  5
179
330
2
100
AcDbEntity
  8
STEMPEL
100
AcDbLine
 10
165.4479904216574
 20
364.9970859407323
 30
0.0
 11
165.4479904216574
 21
362.9970859407318
 31
0.0
  0
LINE
  5
17F
330
2
100
AcDbEntity
  8
STEMPEL
100
AcDbLine
 10
175.4479904216574
 20
364.9970859407322
 30
0.0
 11
174.4479904216574
 21
365.9970859407322
 31
0.0
  0
LINE
  5
180
330
2
100
AcDbEntity
  8
HILF
100
AcDbLine
 10
174.4479904216574
 20
365.9970859407322
 30
0.0
 11
174.4479904216574
 21
362.9970859407318
 31
0.0
  0
LINE
  5
181
330
2
100
AcDbEntity
  8
STEMPEL
100
AcDbLine
 10
175.4479904216574
 20
364.9970859407322
 30
0.0
 11
175.4479904216574
 21
362.9970859407318
 31
0.0
  0
LINE
  5
18B
330
2
100
AcDbEntity
  8
MITTEL
100
AcDbLine
 10
210.523794970811
 20
341.9970859407318
 30
0.0
 11
210.523794970811
 21
379.5970859407321
 31
0.0
  0
ARC
  5
18C
330
2
100
AcDbEntity
  8
STEMPEL
100
AcDbCircle
 10
197.8659377462376
 20
357.9970859407319
 30
0.0
 40
5.0
100
AcDbArc
 50
270.0
 51
358.9999999999999
  0
LINE
  5
18D
330
2
100
AcDbEntity
  8
STEMPEL
100
AcDbLine
 10
202.8651762220195
 20
357.9098239085455
 30
0.0
 11
203.023794970811
 21
366.9970859407317
 31
0.0
  0
LINE
  5
192
330
2
100
AcDbEntity
  8
STEMPEL
100
AcDbLine
 10
146.4479904216573
 20
456.9970859407309
 30
0.0
 11
201.1863525940067
 21
456.9970859407313
 31
0.0
  0
ARC
  5
193
330
2
100
AcDbEntity
  8
STEMPEL
100
AcDbCircle
 10
122.4479904216574
 20
436.9970279734162
 30
0.0
 40
6.0
100
AcDbArc
 50
120.2564164748152
 51
180.0
  0
LINE
  5
194
330
2
100
AcDbEntity
  8
STEMPEL
100
AcDbLine
 10
119.9286368535303
 20
441.3159233876125
 30
0.0
 11
143.9074907464815
 21
455.303576553798
 31
0.0
  0
LINE
  5
195
330
2
100
AcDbEntity
  8
STEMPEL
100
AcDbLine
 10
119.4152957999495
 20
442.1741665007751
 30
0.0
 11
143.4015986754164
 21
456.1661765114637
 31
0.0
  0
ARC
  5
196
330
2
100
AcDbEntity
  8
STEMPEL
100
AcDbCircle
 10
122.4479904216574
 20
436.9970279734162
 30
0.0
 40
5.0
100
AcDbArc
 50
120.2564164748152
 51
180.0
  0
ARC
  5
197
330
2
100
AcDbEntity
  8
STEMPEL
100
AcDbCircle
 10
116.9368468173457
 20
446.5169229231936
 30
0.0
 40
5.0
100
AcDbArc
 50
300.0670458384848
 51
300.2564371635294
  0
ARC
  5
198
330
2
100
AcDbEntity
  8
STEMPEL
100
AcDbCircle
 10
146.4479904216573
 20
450.9970859407314
 30
0.0
 40
6.0
100
AcDbArc
 50
90.0
 51
120.512874327619
  0
ARC
  5
199
330
2
100
AcDbEntity
  8
STEMPEL
100
AcDbCircle
 10
146.4479904216573
 20
450.9970859407314
 30
0.0
 40
5.0
100
AcDbArc
 50
90.0
 51
120.5373500483013
  0
ARC
  5
19A
330
2
100
AcDbEntity
  8
STEMPEL
100
AcDbCircle
 10
146.4479904216573
 20
450.9970859407314
 30
0.0
 40
6.0
100
AcDbArc
 50
90.0
 51
90.0
  0
ARC
  5
19B
330
2
100
AcDbEntity
  8
STEMPEL
100
AcDbCircle
 10
206.5825050167141
 20
458.4970859407313
 30
0.0
 40
1.5
100
AcDbArc
 50
209.9999999999947
 51
270.0
  0
ARC
  5
19C
330
2
100
AcDbEntity
  8
STEMPEL
100
AcDbCircle
 10
206.5825050167141
 20
458.4970859407313
 30
0.0
 40
2.5
100
AcDbArc
 50
209.9999999999937
 51
270.0
  0
ARC
  5
19D
330
2
100
AcDbEntity
  8
STEMPEL
100
AcDbCircle
 10
201.1863525940067
 20
458.4970859407313
 30
0.0
 40
1.5
100
AcDbArc
 50
270.0
 51
330.0000000000029
  0
ARC
  5
19E
330
2
100
AcDbEntity
  8
STEMPEL
100
AcDbCircle
 10
201.1863525940067
 20
458.4970859407313
 30
0.0
 40
2.5
100
AcDbArc
 50
270.0
 51
330.0000000000015
  0
ARC
  5
19F
330
2
100
AcDbEntity
  8
STEMPEL
100
AcDbCircle
 10
203.7844288053602
 20
456.9970859407313
 30
0.0
 40
1.5
100
AcDbArc
 50
89.99999999999994
 51
150.0000000000024
  0
ARC
  5
1A0
330
2
100
AcDbEntity
  8
STEMPEL
100
AcDbCircle
 10
203.9844288053603
 20
456.9970859407313
 30
0.0
 40
1.5
100
AcDbArc
 50
29.99999999999394
 51
89.99999999999994
  0
ARC
  5
1A1
330
2
100
AcDbEntity
  8
STEMPEL
100
AcDbCircle
 10
203.9844288053603
 20
456.9970859407313
 30
0.0
 40
0.5
100
AcDbArc
 50
29.99999999999891
 51
89.99999999999994
  0
LINE
  5
1A2
330
2
100
AcDbEntity
  8
STEMPEL
100
AcDbLine
 10
203.7844288053602
 20
457.4970859407313
 30
0.0
 11
203.9844288053603
 21
457.4970859407313
 31
0.0
  0
ARC
  5
1A3
330
2
100
AcDbEntity
  8
STEMPEL
100
AcDbCircle
 10
203.7844288053602
 20
456.9970859407313
 30
0.0
 40
0.5
100
AcDbArc
 50
89.99999999999994
 51
149.9999999999994
  0
ARC
  5
1A4
330
2
100
AcDbEntity
  8
STEMPEL
100
AcDbCircle
 10
211.2394288053601
 20
456.9970859407313
 30
0.0
 40
1.5
100
AcDbArc
 50
89.99999999999994
 51
150.0000000000048
  0
ARC
  5
1A5
330
2
100
AcDbEntity
  8
STEMPEL
100
AcDbCircle
 10
208.6413525940064
 20
458.4970859407313
 30
0.0
 40
2.5
100
AcDbArc
 50
270.0
 51
330.000000000005
  0
LINE
  5
1A6
330
2
100
AcDbEntity
  8
STEMPEL
100
AcDbLine
 10
206.5825050167141
 20
456.9970859407313
 30
0.0
 11
208.6413525940064
 21
456.9970859407313
 31
0.0
  0
LINE
  5
1A7
330
2
100
AcDbEntity
  8
STEMPEL
100
AcDbLine
 10
206.5825050167141
 20
456.9970859407313
 30
0.0
 11
208.6413525940064
 21
456.9970859407313
 31
0.0
  0
ARC
  5
1A8
330
2
100
AcDbEntity
  8
STEMPEL
100
AcDbCircle
 10
208.6413525940064
 20
458.4970859407313
 30
0.0
 40
1.5
100
AcDbArc
 50
270.0
 51
330.000000000005
  0
ARC
  5
1A9
330
2
100
AcDbEntity
  8
STEMPEL
100
AcDbCircle
 10
211.4394288053602
 20
456.9970859407313
 30
0.0
 40
1.5
100
AcDbArc
 50
30.00000000000242
 51
89.99999999999994
  0
ARC
  5
1AA
330
2
100
AcDbEntity
  8
STEMPEL
100
AcDbCircle
 10
211.4394288053602
 20
456.9970859407313
 30
0.0
 40
0.5
100
AcDbArc
 50
30.00000000000242
 51
89.99999999999994
  0
LINE
  5
1AB
330
2
100
AcDbEntity
  8
STEMPEL
100
AcDbLine
 10
211.2394288053601
 20
457.4970859407313
 30
0.0
 11
211.4394288053602
 21
457.4970859407313
 31
0.0
  0
ARC
  5
1AC
330
2
100
AcDbEntity
  8
STEMPEL
100
AcDbCircle
 10
211.2394288053601
 20
456.9970859407313
 30
0.0
 40
0.5
100
AcDbArc
 50
89.99999999999994
 51
150.0000000000048
  0
ARC
  5
1AD
330
2
100
AcDbEntity
  8
STEMPEL
100
AcDbCircle
 10
214.0375050167131
 20
458.4970859407313
 30
0.0
 40
1.5
100
AcDbArc
 50
210.0000000000016
 51
270.0
  0
ARC
  5
1AE
330
2
100
AcDbEntity
  8
STEMPEL
100
AcDbCircle
 10
214.0375050167131
 20
458.4970859407313
 30
0.0
 40
2.5
100
AcDbArc
 50
210.0000000000016
 51
270.0
  0
LINE
  5
1AF
330
2
100
AcDbEntity
  8
HILF
100
AcDbLine
 10
420.0
 20
-0.0000000000001137
 30
0.0
 11
419.9999999999999
 21
594.0
 31
0.0
  0
LINE
  5
1B0
330
2
100
AcDbEntity
  8
STEMPEL
100
AcDbLine
 10
410.0
 20
10.0
 30
0.0
 11
410.0
 21
584.0
 31
0.0
  0
LINE
  5
1B6
330
2
100
AcDbEntity
  8
MITTEL
100
AcDbLine
 10
226.4479904216575
 20
463.4970859407314
 30
0.0
 11
226.4479904216573
 21
149.8934434695569
 31
0.0
  0
LINE
  5
1B9
330
2
100
AcDbEntity
  8
TEXT
 62
     2
100
AcDbLine
 10
291.0654105204226
 20
246.1472478014614
 30
0.0
 11
400.9916994333948
 21
246.1472478014614
 31
0.0
  0
TEXT
  5
1BA
330
2
100
AcDbEntity
  8
TEXT
 62
     1
100
AcDbText
 10
292.5278640595915
 20
249.1337882935145
 30
0.0
 40
7.0
  1
Ablaufkörper DN80
 41
0.8
100
AcDbText
  0
LINE
  5
1BC
330
2
100
AcDbEntity
  8
HILF
100
AcDbLine
 10
233.4909699289885
 20
14.89398258028314
 30
0.0
 11
404.8588839326728
 21
14.89398258028314
 31
0.0
  0
LINE
  5
1BD
330
2
100
AcDbEntity
  8
VOLL
100
AcDbLine
 10
332.0
 20
60.0
 30
0.0
 11
410.0
 21
60.0
 31
0.0
  0
LINE
  5
1BE
330
2
100
AcDbEntity
  8
HILF
100
AcDbLine
 10
336.7238616296993
 20
83.77983636955827
 30
0.0
 11
404.8588839326728
 21
83.77983636955827
 31
0.0
  0
TEXT
  5
1BF
330
2
100
AcDbEntity
  8
TEXT
100
AcDbText
 10
337.2400861497006
 20
52.07416177878602
 30
0.0
 40
5.0
  1
ersetzt durch:
 41
0.8
  7
GREEKS
100
AcDbText
  0
TEXT
  5
1C0
330
2
100
AcDbEntity
  8
TEXT
100
AcDbText
 10
336.7238616296993
 20
73.1811823709997
 30
0.0
 40
5.0
  1
Ersatz für:
 41
0.8
  7
GREEKS
100
AcDbText
  0
TEXT
  5
1C1
330
2
100
AcDbEntity
  8
TEXT
100
AcDbText
 10
336.178754957634
 20
102.3132034537136
 30
0.0
 40
5.0
  1
Zeichnungs Nr.
 41
0.8
  7
GREEKS
100
AcDbText
  0
TEXT
  5
1C3
330
2
100
AcDbEntity
  8
TEXT
100
AcDbText
 10
235.1296391125316
 20
72.42800866696649
 30
0.0
 40
5.0
  1
DN80/DN100-KA
 41
0.8
  7
GREEKS
100
AcDbText
  0
TEXT
  5
1C4
330
2
100
AcDbEntity
  8
TEXT
 62
     1
100
AcDbText
 10
234.7736801096947
 20
87.41748789253779
 30
0.0
 40
7.0
  1
Drainlet-Sanierungsablauf
 41
0.65
  7
GREEKS
100
AcDbText
  0
LINE
  5
1C5
330
2
100
AcDbEntity
  8
HILF
100
AcDbLine
 10
234.7736801096947
 20
49.99999999999997
 30
0.0
 11
324.8353916556309
 21
49.99999999999997
 31
0.0
  0
LINE
  5
1C6
330
2
100
AcDbEntity
  8
HILF
100
AcDbLine
 10
234.7736801096947
 20
59.99999999999997
 30
0.0
 11
324.8353916556309
 21
59.99999999999997
 31
0.0
  0
LINE
  5
1C7
330
2
100
AcDbEntity
  8
HILF
100
AcDbLine
 10
234.7736801096947
 20
69.99999999999994
 30
0.0
 11
324.8353916556309
 21
69.99999999999994
 31
0.0
  0
LINE
  5
1C8
330
2
100
AcDbEntity
  8
HILF
100
AcDbLine
 10
234.7736801096947
 20
84.03758247564139
 30
0.0
 11
324.8353916556311
 21
84.03758247564139
 31
0.0
  0
LINE
  5
1CA
330
2
100
AcDbEntity
  8
STEMPEL
100
AcDbLine
 10
230.0
 20
110.0
 30
0.0
 11
230.0
 21
9.999999999999971
 31
0.0
  0
TEXT
  5
1CB
330
2
100
AcDbEntity
  8
TEXT
100
AcDbText
 10
234.9837501577827
 20
42.62974153022632
 30
0.0
 40
4.0
  1
21518080W.DWG
 41
0.8
  7
GREEKS
100
AcDbText
  0
TEXT
  5
1CC
330
2
100
AcDbEntity
  8
TEXT
100
AcDbText
 10
234.742238391136
 20
30.84560570193057
 30
0.0
 40
5.0
  1
Bauvorhaben
 41
0.8
  7
GREEKS
100
AcDbText
  0
TEXT
  5
1CD
330
2
100
AcDbEntity
  8
TEXT
100
AcDbText
 10
234.877940380901
 20
102.5489328011779
 30
0.0
 40
5.0
  1
Benennung
 41
0.8
  7
GREEKS
100
AcDbText
  0
LINE
  5
1CE
330
2
100
AcDbEntity
  8
STEMPEL
100
AcDbLine
 10
332.0
 20
109.9999999999997
 30
0.0
 11
332.0
 21
40.0
 31
0.0
  0
LINE
  5
1CF
330
2
100
AcDbEntity
  8
TEXT
 62
     2
100
AcDbLine
 10
291.0654105204226
 20
246.1472478014614
 30
0.0
 11
270.6064251170125
 21
237.4165821101571
 31
0.0
  0
TEXT
  5
1D2
330
2
100
AcDbEntity
  8
TEXT
 62
     1
100
AcDbText
 10
346.6277756941587
 20
87.41748789253779
 30
0.0
 40
7.0
  1
21518080W
 41
0.8
  7
GREEKS
 72
     1
 11
369.5611090274921
 21
87.41748789253779
 31
0.0
100
AcDbText
  0
LINE
  5
1D7
330
2
100
AcDbEntity
  8
STEMPEL
100
AcDbLine
 10
345.4479904216575
 20
358.6470859407322
 30
0.0
 11
351.4479904216575
 21
358.6470859407322
 31
0.0
  0
LINE
  5
1D8
330
2
100
AcDbEntity
  8
STEMPEL
100
AcDbLine
 10
345.4479904216575
 20
358.6470859407322
 30
0.0
 11
346.0979904216571
 21
357.9970859407321
 31
0.0
  0
LINE
  5
1D9
330
2
100
AcDbEntity
  8
STEMPEL
100
AcDbLine
 10
356.4479904216571
 20
367.9970859407319
 30
0.0
 11
341.4479904216572
 21
367.9970859407323
 31
0.0
  0
LINE
  5
1DF
330
2
100
AcDbEntity
  8
STEMPEL
100
AcDbLine
 10
336.4479904216576
 20
436.9970279734162
 30
0.0
 11
336.4479904216576
 21
372.9970859407323
 31
0.0
  0
LINE
  5
1E0
330
2
100
AcDbEntity
  8
STEMPEL
100
AcDbLine
 10
335.4479904216574
 20
436.9970279734162
 30
0.0
 11
335.4479904216574
 21
372.9970859407323
 31
0.0
  0
LINE
  5
1F4
330
2
100
AcDbEntity
  8
MITTEL
100
AcDbLine
 10
241.0669239503032
 20
370.9970859407323
 30
0.0
 11
241.0669239503032
 21
340.9970859407323
 31
0.0
  0
ARC
  5
1F5
330
2
100
AcDbEntity
  8
STEMPEL
100
AcDbCircle
 10
223.1816521953845
 20
357.9970859407317
 30
0.0
 40
5.0
100
AcDbArc
 50
181.0
 51
270.0
  0
LINE
  5
1F6
330
2
100
AcDbEntity
  8
STEMPEL
100
AcDbLine
 10
218.1824137196024
 20
357.9098239085454
 30
0.0
 11
218.023794970811
 21
366.9970859407317
 31
0.0
  0
LINE
  5
1F8
330
2
100
AcDbEntity
  8
HILF
100
AcDbLine
 10
237.0669239503031
 20
346.9970859407317
 30
0.0
 11
237.0669239503031
 21
343.9970859407317
 31
0.0
  0
LINE
  5
1F9
330
2
100
AcDbEntity
  8
STEMPEL
100
AcDbLine
 10
236.0669239503031
 20
346.9970859407317
 30
0.0
 11
236.0669239503031
 21
343.9970859407317
 31
0.0
  0
LINE
  5
1FA
330
2
100
AcDbEntity
  8
HILF
100
AcDbLine
 10
245.0669239503031
 20
346.9970859407317
 30
0.0
 11
245.0669239503031
 21
343.9970859407317
 31
0.0
  0
LINE
  5
1FB
330
2
100
AcDbEntity
  8
STEMPEL
100
AcDbLine
 10
246.0669239503031
 20
346.9970859407317
 30
0.0
 11
246.0669239503031
 21
343.9970859407317
 31
0.0
  0
LINE
  5
1FC
330
2
100
AcDbEntity
  8
STEMPEL
100
AcDbLine
 10
236.0669239503033
 20
364.9970859407324
 30
0.0
 11
246.066923950303
 21
364.9970859407324
 31
0.0
  0
LINE
  5
1FD
330
2
100
AcDbEntity
  8
STEMPEL
100
AcDbLine
 10
245.0669239503032
 20
365.9970859407322
 30
0.0
 11
237.0669239503031
 21
365.9970859407323
 31
0.0
  0
LINE
  5
204
330
2
100
AcDbEntity
  8
STEMPEL
100
AcDbLine
 10
237.0669239503031
 20
365.9970859407323
 30
0.0
 11
236.0669239503031
 21
364.9970859407323
 31
0.0
  0
LINE
  5
205
330
2
100
AcDbEntity
  8
HILF
100
AcDbLine
 10
237.0669239503031
 20
365.9970859407323
 30
0.0
 11
237.0669239503031
 21
362.9970859407318
 31
0.0
  0
LINE
  5
206
330
2
100
AcDbEntity
  8
STEMPEL
100
AcDbLine
 10
236.0669239503031
 20
364.9970859407323
 30
0.0
 11
236.0669239503031
 21
362.9970859407319
 31
0.0
  0
LINE
  5
208
330
2
100
AcDbEntity
  8
STEMPEL
100
AcDbLine
 10
246.0669239503031
 20
364.9970859407322
 30
0.0
 11
245.0669239503032
 21
365.9970859407322
 31
0.0
  0
LINE
  5
209
330
2
100
AcDbEntity
  8
STEMPEL
100
AcDbLine
 10
246.0669239503031
 20
364.9970859407322
 30
0.0
 11
246.0669239503031
 21
362.9970859407319
 31
0.0
  0
LINE
  5
20A
330
2
100
AcDbEntity
  8
HILF
100
AcDbLine
 10
245.0669239503032
 20
365.9970859407322
 30
0.0
 11
245.0669239503032
 21
362.9970859407319
 31
0.0
  0
LINE
  5
238
102
{ACAD_REACTORS
330
2114
102
}
330
2
100
AcDbEntity
  8
STEMPEL
100
AcDbLine
 10
306.4479904216573
 20
340.9970859407317
 30
0.0
 11
306.4479904216573
 21
343.9970859407317
 31
0.0
  0
ARC
  5
239
102
{ACAD_REACTORS
330
3FD
102
}
330
2
100
AcDbEntity
  8
STEMPEL
100
AcDbCircle
 10
308.4479904216574
 20
349.9970859407321
 30
0.0
 40
2.999999999999886
100
AcDbArc
 50
90.0
 51
270.0
  0
ARC
  5
245
330
2
100
AcDbEntity
  8
STEMPEL
100
AcDbCircle
 10
341.4479904216574
 20
372.9970859407323
 30
0.0
 40
6.0
100
AcDbArc
 50
180.0
 51
269.9999999999983
  0
ARC
  5
247
330
2
100
AcDbEntity
  8
STEMPEL
100
AcDbCircle
 10
341.4479904216574
 20
372.9970859407323
 30
0.0
 40
5.0
100
AcDbArc
 50
180.0
 51
269.9999999999981
  0
LINE
  5
24B
102
{ACAD_REACTORS
330
3FD
330
2114
102
}
330
2
100
AcDbEntity
  8
MITTEL
100
AcDbLine
 10
329.9224980629215
 20
370.9970859407324
 30
0.0
 11
329.9224980629215
 21
340.9970859407325
 31
0.0
  0
LINE
  5
251
330
2
100
AcDbEntity
  8
STEMPEL
100
AcDbLine
 10
325.9224980629215
 20
365.9970859407324
 30
0.0
 11
333.9224980629215
 21
365.9970859407324
 31
0.0
  0
LINE
  5
252
330
2
100
AcDbEntity
  8
STEMPEL
100
AcDbLine
 10
334.9224980629215
 20
364.9970859407325
 30
0.0
 11
324.9224980629215
 21
364.9970859407325
 31
0.0
  0
LINE
  5
253
330
2
100
AcDbEntity
  8
STEMPEL
100
AcDbLine
 10
324.9224980629216
 20
346.9970859407319
 30
0.0
 11
324.9224980629215
 21
343.9970859407317
 31
0.0
  0
LINE
  5
254
330
2
100
AcDbEntity
  8
HILF
100
AcDbLine
 10
325.9224980629217
 20
346.9970859407319
 30
0.0
 11
325.9224980629214
 21
343.9970859407317
 31
0.0
  0
LINE
  5
25A
330
2
100
AcDbEntity
  8
STEMPEL
100
AcDbLine
 10
324.9224980629215
 20
364.9970859407324
 30
0.0
 11
325.9224980629215
 21
365.9970859407324
 31
0.0
  0
LINE
  5
25B
330
2
100
AcDbEntity
  8
STEMPEL
100
AcDbLine
 10
324.9224980629215
 20
364.9970859407324
 30
0.0
 11
324.9224980629215
 21
362.997085940732
 31
0.0
  0
LINE
  5
25C
330
2
100
AcDbEntity
  8
HILF
100
AcDbLine
 10
325.9224980629215
 20
365.9970859407324
 30
0.0
 11
325.9224980629215
 21
362.997085940732
 31
0.0
  0
LINE
  5
25D
330
2
100
AcDbEntity
  8
STEMPEL
100
AcDbLine
 10
334.9224980629215
 20
346.9970859407318
 30
0.0
 11
334.9224980629215
 21
343.9970859407317
 31
0.0
  0
LINE
  5
25E
330
2
100
AcDbEntity
  8
HILF
100
AcDbLine
 10
333.9224980629215
 20
346.9970859407319
 30
0.0
 11
333.9224980629215
 21
343.9970859407318
 31
0.0
  0
ARC
  5
262
102
{ACAD_REACTORS
330
3FD
102
}
330
2
100
AcDbEntity
  8
STEMPEL
100
AcDbCircle
 10
335.7901331970841
 20
357.9970859407319
 30
0.0
 40
5.0
100
AcDbArc
 50
270.0
 51
359.0000000000015
  0
LINE
  5
264
330
2
100
AcDbEntity
  8
STEMPEL
100
AcDbLine
 10
333.9224980629215
 20
365.9970859407324
 30
0.0
 11
334.9224980629215
 21
364.9970859407324
 31
0.0
  0
LINE
  5
265
330
2
100
AcDbEntity
  8
HILF
100
AcDbLine
 10
333.9224980629215
 20
365.9970859407324
 30
0.0
 11
333.9224980629215
 21
362.997085940732
 31
0.0
  0
LINE
  5
266
330
2
100
AcDbEntity
  8
STEMPEL
100
AcDbLine
 10
334.9224980629215
 20
364.9970859407324
 30
0.0
 11
334.9224980629215
 21
362.997085940732
 31
0.0
  0
LINE
  5
267
102
{ACAD_REACTORS
330
3FD
102
}
330
2
100
AcDbEntity
  8
STEMPEL
100
AcDbLine
 10
345.4479904216571
 20
367.9970859407321
 30
0.0
 11
345.4479904216575
 21
358.6470859407322
 31
0.0
  0
LINE
  5
269
102
{ACAD_REACTORS
330
3FD
102
}
330
2
100
AcDbEntity
  8
HILF
100
AcDbLine
 10
345.4479904216575
 20
358.6470859407322
 30
0.0
 11
345.4479904216568
 21
346.9970859407318
 31
0.0
  0
LINE
  5
26A
102
{ACAD_REACTORS
330
3FD
102
}
330
2
100
AcDbEntity
  8
STEMPEL
100
AcDbLine
 10
340.789371672866
 20
357.9098239085457
 30
0.0
 11
340.9479904216573
 21
366.9970859407317
 31
0.0
  0
LINE
  5
26B
330
2
100
AcDbEntity
  8
STEMPEL
100
AcDbLine
 10
344.4479904216573
 20
367.9970859407323
 30
0.0
 11
344.4479904216573
 21
366.9970859407318
 31
0.0
  0
LINE
  5
279
330
2
100
AcDbEntity
  8
STEMPEL
100
AcDbLine
 10
251.8875050167141
 20
456.9970859407313
 30
0.0
 11
306.4479904216576
 21
456.9970859407318
 31
0.0
  0
ARC
  5
27A
330
2
100
AcDbEntity
  8
STEMPEL
100
AcDbCircle
 10
246.4913525940077
 20
458.4970859407313
 30
0.0
 40
2.5
100
AcDbArc
 50
270.0
 51
329.9999999999922
  0
ARC
  5
27B
330
2
100
AcDbEntity
  8
STEMPEL
100
AcDbCircle
 10
246.4913525940077
 20
458.4970859407313
 30
0.0
 40
1.5
100
AcDbArc
 50
270.0
 51
329.9999999999922
  0
LINE
  5
27C
330
2
100
AcDbEntity
  8
STEMPEL
100
AcDbLine
 10
223.0894288053601
 20
457.4970859407313
 30
0.0
 11
233.1776962665537
 21
457.4970859407313
 31
0.0
  0
ARC
  5
27D
330
2
100
AcDbEntity
  8
STEMPEL
100
AcDbCircle
 10
223.0894288053601
 20
456.9970859407313
 30
0.0
 40
1.5
100
AcDbArc
 50
89.99999999999998
 51
149.9999999999961
  0
ARC
  5
27E
330
2
100
AcDbEntity
  8
STEMPEL
100
AcDbCircle
 10
220.4913525940074
 20
458.4970859407313
 30
0.0
 40
2.5
100
AcDbArc
 50
270.0
 51
329.9999999999958
  0
ARC
  5
27F
330
2
100
AcDbEntity
  8
STEMPEL
100
AcDbCircle
 10
220.4913525940074
 20
458.4970859407313
 30
0.0
 40
1.5
100
AcDbArc
 50
270.0
 51
329.9999999999958
  0
ARC
  5
280
330
2
100
AcDbEntity
  8
STEMPEL
100
AcDbCircle
 10
223.0894288053601
 20
456.9970859407313
 30
0.0
 40
0.5
100
AcDbArc
 50
89.99999999999998
 51
149.9999999999961
  0
ARC
  5
281
330
2
100
AcDbEntity
  8
STEMPEL
100
AcDbCircle
 10
240.0375050167137
 20
458.4970859407313
 30
0.0
 40
1.5
100
AcDbArc
 50
209.9999999999974
 51
270.0
  0
ARC
  5
282
330
2
100
AcDbEntity
  8
STEMPEL
100
AcDbCircle
 10
240.0375050167137
 20
458.4970859407313
 30
0.0
 40
2.5
100
AcDbArc
 50
209.9999999999974
 51
270.0
  0
ARC
  5
283
330
2
100
AcDbEntity
  8
STEMPEL
100
AcDbCircle
 10
233.1776962665537
 20
456.9970859407313
 30
0.0
 40
1.5
100
AcDbArc
 50
14.47751218593105
 51
89.99999999999992
  0
ARC
  5
284
330
2
100
AcDbEntity
  8
STEMPEL
100
AcDbCircle
 10
235.114187939657
 20
457.4970859407313
 30
0.0
 40
0.5
100
AcDbArc
 50
194.4775121859298
 51
270.0
  0
ARC
  5
285
330
2
100
AcDbEntity
  8
STEMPEL
100
AcDbCircle
 10
235.114187939657
 20
457.4970859407313
 30
0.0
 40
1.5
100
AcDbArc
 50
194.4775121859298
 51
270.0
  0
ARC
  5
286
330
2
100
AcDbEntity
  8
STEMPEL
100
AcDbCircle
 10
233.1776962665537
 20
456.9970859407313
 30
0.0
 40
0.5
100
AcDbArc
 50
14.47751218593105
 51
89.99999999999992
  0
ARC
  5
287
330
2
100
AcDbEntity
  8
STEMPEL
100
AcDbCircle
 10
237.4394288053602
 20
456.9970859407313
 30
0.0
 40
0.5
100
AcDbArc
 50
29.99999999999758
 51
89.99999999999994
  0
LINE
  5
288
330
2
100
AcDbEntity
  8
STEMPEL
100
AcDbLine
 10
237.2394288053602
 20
457.4970859407313
 30
0.0
 11
237.4394288053602
 21
457.4970859407313
 31
0.0
  0
ARC
  5
289
330
2
100
AcDbEntity
  8
STEMPEL
100
AcDbCircle
 10
237.2394288053602
 20
456.9970859407313
 30
0.0
 40
0.5
100
AcDbArc
 50
89.99999999999998
 51
165.5224878140734
  0
LINE
  5
28A
330
2
100
AcDbEntity
  8
STEMPEL
100
AcDbLine
 10
235.114187939657
 20
456.9970859407313
 30
0.0
 11
235.3029371322561
 21
456.9970859407313
 31
0.0
  0
ARC
  5
28B
330
2
100
AcDbEntity
  8
STEMPEL
100
AcDbCircle
 10
235.3029371322561
 20
457.4970859407313
 30
0.0
 40
0.5
100
AcDbArc
 50
270.0
 51
345.5224878140727
  0
ARC
  5
28C
330
2
100
AcDbEntity
  8
STEMPEL
100
AcDbCircle
 10
237.2394288053602
 20
456.9970859407313
 30
0.0
 40
1.5
100
AcDbArc
 50
89.99999999999998
 51
165.5224878140734
  0
ARC
  5
28D
330
2
100
AcDbEntity
  8
STEMPEL
100
AcDbCircle
 10
237.4394288053602
 20
456.9970859407313
 30
0.0
 40
1.5
100
AcDbArc
 50
29.99999999999758
 51
89.99999999999994
  0
ARC
  5
28E
330
2
100
AcDbEntity
  8
STEMPEL
100
AcDbCircle
 10
235.3029371322561
 20
457.4970859407313
 30
0.0
 40
1.5
100
AcDbArc
 50
270.0
 51
345.5224878140727
  0
LINE
  5
28F
330
2
100
AcDbEntity
  8
STEMPEL
100
AcDbLine
 10
240.0375050167137
 20
456.9970859407313
 30
0.0
 11
246.4913525940077
 21
456.9970859407313
 31
0.0
  0
LINE
  5
290
330
2
100
AcDbEntity
  8
STEMPEL
100
AcDbLine
 10
240.0375050167137
 20
456.9970859407313
 30
0.0
 11
246.4913525940077
 21
456.9970859407313
 31
0.0
  0
ARC
  5
291
330
2
100
AcDbEntity
  8
STEMPEL
100
AcDbCircle
 10
251.8875050167141
 20
458.4970859407313
 30
0.0
 40
1.5
100
AcDbArc
 50
209.9999999999917
 51
270.0
  0
ARC
  5
292
330
2
100
AcDbEntity
  8
STEMPEL
100
AcDbCircle
 10
251.8875050167141
 20
458.4970859407313
 30
0.0
 40
2.5
100
AcDbArc
 50
209.9999999999917
 51
270.0
  0
ARC
  5
293
330
2
100
AcDbEntity
  8
STEMPEL
100
AcDbCircle
 10
249.2894288053601
 20
456.9970859407313
 30
0.0
 40
1.5
100
AcDbArc
 50
29.99999999999219
 51
89.99999999999992
  0
ARC
  5
294
330
2
100
AcDbEntity
  8
STEMPEL
100
AcDbCircle
 10
249.2894288053601
 20
456.9970859407313
 30
0.0
 40
0.5
100
AcDbArc
 50
29.99999999999219
 51
89.99999999999992
  0
LINE
  5
295
330
2
100
AcDbEntity
  8
STEMPEL
100
AcDbLine
 10
249.08942880536
 20
457.4970859407313
 30
0.0
 11
249.2894288053601
 21
457.4970859407313
 31
0.0
  0
ARC
  5
296
330
2
100
AcDbEntity
  8
STEMPEL
100
AcDbCircle
 10
249.08942880536
 20
456.9970859407313
 30
0.0
 40
0.5
100
AcDbArc
 50
89.99999999999998
 51
149.9999999999912
  0
ARC
  5
297
330
2
100
AcDbEntity
  8
STEMPEL
100
AcDbCircle
 10
249.08942880536
 20
456.9970859407313
 30
0.0
 40
1.5
100
AcDbArc
 50
89.99999999999998
 51
149.9999999999912
  0
LINE
  5
298
330
2
100
AcDbEntity
  8
STEMPEL
100
AcDbLine
 10
333.4806850433654
 20
442.1741665007751
 30
0.0
 11
309.4943821678985
 21
456.1661765114637
 31
0.0
  0
LINE
  5
299
330
2
100
AcDbEntity
  8
STEMPEL
100
AcDbLine
 10
332.9673439897846
 20
441.3159233876125
 30
0.0
 11
308.9884900968334
 21
455.303576553798
 31
0.0
  0
ARC
  5
29A
330
2
100
AcDbEntity
  8
STEMPEL
100
AcDbCircle
 10
306.4479904216576
 20
450.9970859407314
 30
0.0
 40
6.0
100
AcDbArc
 50
59.48712567238093
 51
90.0
  0
ARC
  5
29B
330
2
100
AcDbEntity
  8
STEMPEL
100
AcDbCircle
 10
306.4479904216576
 20
450.9970859407314
 30
0.0
 40
5.0
100
AcDbArc
 50
59.46264995169869
 51
90.0
  0
ARC
  5
29C
330
2
100
AcDbEntity
  8
STEMPEL
100
AcDbCircle
 10
306.4479904216576
 20
450.9970859407314
 30
0.0
 40
6.0
100
AcDbArc
 50
90.0
 51
90.0
  0
ARC
  5
29D
330
2
100
AcDbEntity
  8
STEMPEL
100
AcDbCircle
 10
330.4479904216574
 20
436.9970279734162
 30
0.0
 40
6.0
100
AcDbArc
 50
0.000000000000007
 51
59.74358352518475
  0
ARC
  5
29E
330
2
100
AcDbEntity
  8
STEMPEL
100
AcDbCircle
 10
330.4479904216574
 20
436.9970279734162
 30
0.0
 40
5.0
100
AcDbArc
 50
0.000000000000007
 51
59.74358352518475
  0
ARC
  5
29F
330
2
100
AcDbEntity
  8
STEMPEL
100
AcDbCircle
 10
335.9591340259691
 20
446.5169229231936
 30
0.0
 40
5.0
100
AcDbArc
 50
239.7435628364705
 51
239.9329541615152
  0
LINE
  5
2B2
330
2
100
AcDbEntity
  8
MITTEL
100
AcDbLine
 10
348.4479904216573
 20
346.9970859407319
 30
0.0
 11
348.4479904216573
 21
379.5970859407321
 31
0.0
  0
LINE
  5
2B3
102
{ACAD_REACTORS
330
3FD
102
}
330
2
100
AcDbEntity
  8
STEMPEL
100
AcDbLine
 10
361.1058476462307
 20
352.9970859407318
 30
0.0
 11
368.4479904216573
 21
352.9970859407318
 31
0.0
  0
LINE
  5
2B4
102
{ACAD_REACTORS
330
3FD
102
}
330
2
100
AcDbEntity
  8
STEMPEL
100
AcDbLine
 10
96.44799042165709
 20
366.9970859407347
 30
0.0
 11
345.4479904216571
 21
366.997085940732
 31
0.0
  0
LINE
  5
2B5
330
2
100
AcDbEntity
  8
HILF
100
AcDbLine
 10
346.0979904216566
 20
357.9970859407321
 30
0.0
 11
346.0979904216564
 21
367.9970859407321
 31
0.0
  0
LINE
  5
2B6
102
{ACAD_REACTORS
330
3FD
102
}
330
2
100
AcDbEntity
  8
STEMPEL
100
AcDbLine
 10
351.4479904216571
 20
367.9970859407319
 30
0.0
 11
351.4479904216575
 21
358.6470859407322
 31
0.0
  0
LINE
  5
2B7
330
2
100
AcDbEntity
  8
HILF
100
AcDbLine
 10
350.7979904216569
 20
357.9970859407321
 30
0.0
 11
350.7979904216565
 21
367.9970859407319
 31
0.0
  0
LINE
  5
2B8
330
2
100
AcDbEntity
  8
STEMPEL
100
AcDbLine
 10
346.0979904216571
 20
357.9970859407321
 30
0.0
 11
350.7979904216573
 21
357.9970859407321
 31
0.0
  0
LINE
  5
2B9
330
2
100
AcDbEntity
  8
STEMPEL
100
AcDbLine
 10
346.097990421658
 20
357.9970859407316
 30
0.0
 11
346.0979904216576
 21
346.9970859407317
 31
0.0
  0
LINE
  5
2BA
102
{ACAD_REACTORS
330
3FD
102
}
330
2
100
AcDbEntity
  8
HILF
100
AcDbLine
 10
351.4479904216575
 20
358.6470859407322
 30
0.0
 11
351.4479904216581
 21
346.9970859407318
 31
0.0
  0
LINE
  5
2BB
330
2
100
AcDbEntity
  8
STEMPEL
100
AcDbLine
 10
350.7979904216569
 20
357.9970859407316
 30
0.0
 11
350.7979904216573
 21
346.9970859407317
 31
0.0
  0
LINE
  5
2BC
330
2
100
AcDbEntity
  8
STEMPEL
100
AcDbLine
 10
350.7979904216573
 20
357.9970859407321
 30
0.0
 11
351.4479904216575
 21
358.6470859407322
 31
0.0
  0
LINE
  5
2BD
330
2
100
AcDbEntity
  8
STEMPEL
100
AcDbLine
 10
352.4479904216573
 20
367.9970859407319
 30
0.0
 11
352.4479904216573
 21
366.9970859407318
 31
0.0
  0
ARC
  5
2BE
102
{ACAD_REACTORS
330
3FD
102
}
330
2
100
AcDbEntity
  8
STEMPEL
100
AcDbCircle
 10
361.1058476462308
 20
357.9970859407318
 30
0.0
 40
4.99999999999995
100
AcDbArc
 50
181.0000000000005
 51
269.9999999999994
  0
LINE
  5
2BF
330
2
100
AcDbEntity
  8
STEMPEL
100
AcDbLine
 10
356.4479904216572
 20
367.9970859407321
 30
0.0
 11
356.4479904216573
 21
366.9970859407318
 31
0.0
  0
LINE
  5
2C0
102
{ACAD_REACTORS
330
3FD
102
}
330
2
100
AcDbEntity
  8
STEMPEL
100
AcDbLine
 10
355.9479904216573
 20
366.9970859407319
 30
0.0
 11
356.1066091704489
 21
357.9098239085453
 31
0.0
  0
LINE
  5
2C6
102
{ACAD_REACTORS
330
2114
102
}
330
2
100
AcDbEntity
  8
STEMPEL
100
AcDbLine
 10
376.4479904216573
 20
340.9970859407317
 30
0.0
 11
376.4479904216573
 21
343.9970859407317
 31
0.0
  0
ARC
  5
2C8
102
{ACAD_REACTORS
330
3FD
102
}
330
2
100
AcDbEntity
  8
STEMPEL
100
AcDbCircle
 10
368.4479904216573
 20
349.9970859407318
 30
0.0
 40
3.000000000000028
100
AcDbArc
 50
270.0
 51
90.0
  0
LINE
  5
346
102
{ACAD_REACTORS
330
3FD
102
}
330
2
100
AcDbEntity
  8
STEMPEL
100
AcDbLine
 10
351.4479904216571
 20
366.9970859407319
 30
0.0
 11
356.4479904216574
 21
366.9970859407318
 31
0.0
  0
HATCH
  5
3FD
330
2
100
AcDbEntity
  8
SCHRAFF
100
AcDbHatch
 10
0.0
 20
0.0
 30
0.0
210
0.0
220
0.0
230
1.0
  2
_U
 70
     0
 71
     1
 91
        5
 92
        7
 72
     1
 73
     1
 93
        4
 10
329.9224980629215
 20
346.9970859407317
 42
0.0
 10
329.9224980629215
 20
352.997085940732
 42
0.0
 10
308.4479904216574
 20
352.997085940732
 42
1.0
 10
308.4479904216574
 20
346.9970859407317
 42
0.0
 97
        4
330
51
330
239
330
50
330
24B
 92
        7
 72
     1
 73
     1
 93
        8
 10
335.7901331970841
 20
352.997085940732
 42
0.0
 10
329.9224980629215
 20
352.997085940732
 42
0.0
 10
329.9224980629215
 20
346.9970859407317
 42
0.0
 10
345.4479904216568
 20
346.9970859407317
 42
0.0
 10
345.4479904216575
 20
358.6470859407322
 42
0.0
 10
345.4479904216571
 20
366.997085940732
 42
0.0
 10
340.9479904216573
 20
366.9970859407321
 42
0.0
 10
340.789371672866
 20
357.9098239085457
 42
-0.409110801427714
 97
        8
330
267
330
2B4
330
26A
330
262
330
51
330
24B
330
50
330
269
 92
        7
 72
     1
 73
     1
 93
        8
 10
368.4479904216573
 20
346.9970859407317
 42
1.0
 10
368.4479904216573
 20
352.9970859407318
 42
0.0
 10
361.1058476462307
 20
352.9970859407318
 42
-0.4091108014277044
 10
356.1066091704489
 20
357.9098239085453
 42
0.0
 10
355.9479904216572
 20
366.9970859407319
 42
0.0
 10
351.4479904216571
 20
366.9970859407319
 42
0.0
 10
351.4479904216575
 20
358.6470859407322
 42
0.0
 10
351.4479904216581
 20
346.9970859407317
 42
0.0
 97
        8
330
2B3
330
2BE
330
2C0
330
346
330
2B6
330
2BA
330
50
330
2C8
 92
        7
 72
     1
 73
     1
 93
        4
 10
121.4479904216573
 20
352.9970859407318
 42
0.0
 10
121.4479904216573
 20
346.9970859407317
 42
0.0
 10
144.4479904216574
 20
346.9970859407317
 42
1.0
 10
144.4479904216574
 20
352.9970859407318
 42
0.0
 97
        4
330
51
330
12D
330
50
330
138
 92
        7
 72
     1
 73
     1
 93
        4
 10
84.44799042165731
 20
352.9970859407317
 42
1.0
 10
84.44799042165733
 20
346.9970859407317
 42
0.0
 10
107.4479904216573
 20
346.9970859407317
 42
0.0
 10
107.4479904216573
 20
352.9970859407317
 42
0.0
 97
        4
330
51
330
F1
330
EE
330
114
 75
     0
 76
     0
 52
135.0
 41
5.0
 77
     0
 78
     1
 53
135.0
 43
0.0
 44
0.0
 45
-3.535533905932737
 46
-3.535533905932737
 79
     0
 47
0.4233752505078366
 98
        5
 10
321.606963981993
 20
348.1653270216466
 10
341.0951948193337
 20
351.975704050727
 10
363.1253661021278
 20
349.0120787152523
 10
136.0451157688808
 20
351.1289551531945
 10
87.32454089933572
 20
351.5523309999976
  0
ELLIPSE
  5
544
330
2
100
AcDbEntity
  8
STEMPEL
100
AcDbEllipse
 10
132.2749449149944
 20
424.4970859407334
 30
0.0
 11
0.0
 21
7.499999999999999
 31
0.0
210
0.0
220
0.0
230
1.0
 40
0.4999999999999926
 41
4.712388980384689
 42
7.853981633974482
  0
ELLIPSE
  5
545
330
2
100
AcDbEntity
  8
STEMPEL
100
AcDbEllipse
 10
131.4068808953055
 20
424.4970859407334
 30
0.0
 11
0.0
 21
7.499999999999999
 31
0.0
210
0.0
220
0.0
230
1.0
 40
0.4999999999999926
 41
4.712388980384689
 42
6.167183451052224
  0
ELLIPSE
  5
546
330
2
100
AcDbEntity
  8
STEMPEL
100
AcDbEllipse
 10
131.4068808953055
 20
399.497085940735
 30
0.0
 11
0.0
 21
-7.499999999999999
 31
0.0
210
0.0
220
0.0
230
-1.0
 40
0.4999999999999926
 41
4.712388980384689
 42
6.167183451052224
  0
ELLIPSE
  5
547
330
2
100
AcDbEntity
  8
STEMPEL
100
AcDbEllipse
 10
132.2749449149944
 20
399.497085940735
 30
0.0
 11
0.0
 21
-7.499999999999999
 31
0.0
210
0.0
220
0.0
230
-1.0
 40
0.4999999999999926
 41
4.712388980384689
 42
7.853981633974482
  0
LINE
  5
548
330
2
100
AcDbEntity
  8
STEMPEL
100
AcDbLine
 10
128.5249449149945
 20
424.4970859407334
 30
0.0
 11
128.5249449149945
 21
399.4970859407366
 31
0.0
  0
LINE
  5
549
330
2
100
AcDbEntity
  8
STEMPEL
100
AcDbLine
 10
116.4479904216571
 20
391.9970859407331
 30
0.0
 11
117.4479904216574
 21
391.9970859407331
 31
0.0
  0
LINE
  5
54A
330
2
100
AcDbEntity
  8
STEMPEL
100
AcDbLine
 10
116.4479904216574
 20
431.997085940733
 30
0.0
 11
117.4479904216574
 21
431.997085940733
 31
0.0
  0
LINE
  5
54B
330
2
100
AcDbEntity
  8
STEMPEL
100
AcDbLine
 10
135.1568808953055
 20
399.4970859407334
 30
0.0
 11
135.1568808953055
 21
424.497085940735
 31
0.0
  0
LINE
  5
54C
330
2
100
AcDbEntity
  8
STEMPEL
100
AcDbLine
 10
136.0249449149943
 20
424.4970859407334
 30
0.0
 11
136.0249449149943
 21
399.497085940735
 31
0.0
  0
LINE
  5
54D
330
2
100
AcDbEntity
  8
STEMPEL
100
AcDbLine
 10
178.0711707809192
 20
424.4970859407334
 30
0.0
 11
178.0711707809192
 21
399.4970859407334
 31
0.0
  0
LINE
  5
54E
330
2
100
AcDbEntity
  8
STEMPEL
100
AcDbLine
 10
165.5819667195954
 20
424.4970859407334
 30
0.0
 11
165.5819667195954
 21
399.497085940735
 31
0.0
  0
LINE
  5
54F
330
2
100
AcDbEntity
  8
STEMPEL
100
AcDbLine
 10
178.5723477763612
 20
424.4970859407334
 30
0.0
 11
178.5723477763612
 21
399.4970859407334
 31
0.0
  0
ELLIPSE
  5
550
330
2
100
AcDbEntity
  8
STEMPEL
100
AcDbEllipse
 10
171.5759802525363
 20
399.4970859407334
 30
0.0
 11
0.0
 21
-7.5
 31
0.0
210
0.0
220
0.0
230
-1.0
 40
0.8660254037843856
 41
4.712388980384689
 42
6.24459510668465
  0
ELLIPSE
  5
551
330
2
100
AcDbEntity
  8
STEMPEL
100
AcDbEllipse
 10
172.0771572479782
 20
399.4970859407334
 30
0.0
 11
0.0
 21
-7.5
 31
0.0
210
0.0
220
0.0
230
-1.0
 40
0.8660254037843856
 41
4.712388980384689
 42
7.853981633974482
  0
ELLIPSE
  5
552
330
2
100
AcDbEntity
  8
STEMPEL
100
AcDbEllipse
 10
171.5759802525363
 20
424.4970859407334
 30
0.0
 11
0.0
 21
7.5
 31
0.0
210
0.0
220
0.0
230
1.0
 40
0.8660254037843856
 41
4.712388980384689
 42
6.24459510668465
  0
ELLIPSE
  5
553
330
2
100
AcDbEntity
  8
STEMPEL
100
AcDbEllipse
 10
172.0771572479782
 20
424.4970859407334
 30
0.0
 11
0.0
 21
7.5
 31
0.0
210
0.0
220
0.0
230
1.0
 40
0.8660254037843856
 41
4.712388980384689
 42
7.853981633974482
  0
ARC
  5
554
330
2
100
AcDbEntity
  8
STEMPEL
100
AcDbCircle
 10
226.4479904216576
 20
424.4970859407334
 30
0.0
 40
7.5
100
AcDbArc
 50
0.0000000000260551
 51
180.000000000013
  0
ARC
  5
555
330
2
100
AcDbEntity
  8
STEMPEL
100
AcDbCircle
 10
226.4479904216575
 20
399.4970859407334
 30
0.0
 40
7.5
100
AcDbArc
 50
179.999999999987
 51
359.999999999974
  0
LINE
  5
556
330
2
100
AcDbEntity
  8
STEMPEL
100
AcDbLine
 10
218.9479904216576
 20
424.4970859407318
 30
0.0
 11
218.9479904216576
 21
399.4970859407318
 31
0.0
  0
LINE
  5
557
330
2
100
AcDbEntity
  8
STEMPEL
100
AcDbLine
 10
233.9479904216576
 20
424.4970859407334
 30
0.0
 11
233.9479904216576
 21
399.4970859407334
 31
0.0
  0
ELLIPSE
  5
558
330
2
100
AcDbEntity
  8
STEMPEL
100
AcDbEllipse
 10
280.8188235953367
 20
424.4970859407334
 30
0.0
 11
0.0
 21
7.5
 31
0.0
210
0.0
220
0.0
230
-1.0
 40
0.8660254037843856
 41
4.712388980384689
 42
7.853981633974482
  0
ELLIPSE
  5
559
330
2
100
AcDbEntity
  8
STEMPEL
100
AcDbEllipse
 10
281.3200005907786
 20
424.4970859407334
 30
0.0
 11
0.0
 21
7.5
 31
0.0
210
0.0
220
0.0
230
-1.0
 40
0.8660254037843856
 41
4.712388980384689
 42
6.24459510668465
  0
ELLIPSE
  5
55A
330
2
100
AcDbEntity
  8
STEMPEL
100
AcDbEllipse
 10
280.8188235953367
 20
399.4970859407334
 30
0.0
 11
0.0
 21
-7.5
 31
0.0
210
0.0
220
0.0
230
1.0
 40
0.8660254037843856
 41
4.712388980384689
 42
7.853981633974482
  0
ELLIPSE
  5
55B
330
2
100
AcDbEntity
  8
STEMPEL
100
AcDbEllipse
 10
281.3200005907786
 20
399.4970859407334
 30
0.0
 11
0.0
 21
-7.5
 31
0.0
210
0.0
220
0.0
230
1.0
 40
0.8660254037843856
 41
4.712388980384689
 42
6.24459510668465
  0
LINE
  5
55C
330
2
100
AcDbEntity
  8
STEMPEL
100
AcDbLine
 10
274.3236330669538
 20
424.4970859407334
 30
0.0
 11
274.3236330669538
 21
399.4970859407334
 31
0.0
  0
LINE
  5
55D
330
2
100
AcDbEntity
  8
STEMPEL
100
AcDbLine
 10
274.8248100623958
 20
424.4970859407334
 30
0.0
 11
274.8248100623958
 21
399.4970859407334
 31
0.0
  0
LINE
  5
55E
330
2
100
AcDbEntity
  8
STEMPEL
100
AcDbLine
 10
287.3140141237196
 20
424.4970859407334
 30
0.0
 11
287.3140141237196
 21
399.497085940735
 31
0.0
  0
LINE
  5
55F
330
2
100
AcDbEntity
  8
STEMPEL
100
AcDbLine
 10
324.3710359283206
 20
424.4970859407334
 30
0.0
 11
324.3710359283206
 21
399.4970859407366
 31
0.0
  0
LINE
  5
560
330
2
100
AcDbEntity
  8
STEMPEL
100
AcDbLine
 10
316.8710359283207
 20
424.4970859407334
 30
0.0
 11
316.8710359283207
 21
399.497085940735
 31
0.0
  0
LINE
  5
561
330
2
100
AcDbEntity
  8
STEMPEL
100
AcDbLine
 10
317.7390999480097
 20
399.4970859407334
 30
0.0
 11
317.7390999480097
 21
424.497085940735
 31
0.0
  0
ELLIPSE
  5
562
330
2
100
AcDbEntity
  8
STEMPEL
100
AcDbEllipse
 10
320.6210359283208
 20
399.497085940735
 30
0.0
 11
0.0
 21
-7.499999999999999
 31
0.0
210
0.0
220
0.0
230
1.0
 40
0.4999999999999926
 41
4.712388980384689
 42
7.853981633974482
  0
ELLIPSE
  5
563
330
2
100
AcDbEntity
  8
STEMPEL
100
AcDbEllipse
 10
321.4890999480095
 20
399.497085940735
 30
0.0
 11
0.0
 21
-7.499999999999999
 31
0.0
210
0.0
220
0.0
230
1.0
 40
0.4999999999999926
 41
4.712388980384689
 42
6.167183451052224
  0
ELLIPSE
  5
564
330
2
100
AcDbEntity
  8
STEMPEL
100
AcDbEllipse
 10
320.6210359283208
 20
424.4970859407334
 30
0.0
 11
0.0
 21
7.499999999999999
 31
0.0
210
0.0
220
0.0
230
-1.0
 40
0.4999999999999926
 41
4.712388980384689
 42
7.853981633974482
  0
ELLIPSE
  5
565
330
2
100
AcDbEntity
  8
STEMPEL
100
AcDbEllipse
 10
321.4890999480095
 20
424.4970859407334
 30
0.0
 11
0.0
 21
7.499999999999999
 31
0.0
210
0.0
220
0.0
230
-1.0
 40
0.4999999999999926
 41
4.712388980384689
 42
6.167183451052224
  0
LINE
  5
566
330
2
100
AcDbEntity
  8
STEMPEL
100
AcDbLine
 10
336.4479904216574
 20
391.9970859407331
 30
0.0
 11
335.4479904216574
 21
391.9970859407331
 31
0.0
  0
LINE
  5
567
330
2
100
AcDbEntity
  8
STEMPEL
100
AcDbLine
 10
336.4479904216574
 20
431.997085940733
 30
0.0
 11
335.4479904216574
 21
431.997085940733
 31
0.0
  0
LWPOLYLINE
  5
568
330
2
100
AcDbEntity
  8
STEMPEL
100
AcDbPolyline
 90
       10
 70
   128
 43
0.0
 10
131.2480093039802
 20
366.9970859407333
 10
132.0057589290745
 20
367.08823942266
 10
132.74048471525
 20
367.3589302160178
 10
133.4298623912831
 20
367.8009335180267
 10
134.0529455653294
 20
368.4008192820195
 10
134.590802170441
 20
369.1403602826142
 10
135.0270897058399
 20
369.9970859407335
 10
135.3485517955352
 20
370.9449650807795
 10
135.5454209765992
 20
371.9551968747321
 10
135.611715478586
 20
372.9970859407337
  0
LWPOLYLINE
  5
569
330
2
100
AcDbEntity
  8
STEMPEL
100
AcDbPolyline
 90
       18
 70
   128
 43
0.0
 10
-123.1136648094266
 20
379.4970859407314
 10
-123.1625341543429
 20
380.875207324356
 10
-123.307478002163
 20
382.2063984371356
 10
-123.5435604639902
 20
383.4453271623124
 10
-123.862742034737
 20
384.5498032680817
 10
-124.2541533688273
 20
385.4822151453345
 10
-124.7044654227252
 20
386.2108106258958
 10
-125.1983433595247
 20
386.7107782645291
 10
-125.7189687584296
 20
386.9650922629458
 10
-126.2486123459014
 20
386.9650922629458
 10
-126.7692377448064
 20
386.7107782645291
 10
-127.2631156816058
 20
386.2108106258958
 10
-127.7134277355038
 20
385.4822151453345
 10
-128.1048390695941
 20
384.5498032680817
 10
-128.4240206403408
 20
383.4453271623124
 10
-128.6601031021681
 20
382.2063984371356
 10
-128.8050469499881
 20
380.875207324356
 10
-128.8539162949044
 20
379.4970859407314
210
0.0
220
0.0
230
-1.0
  0
LWPOLYLINE
  5
56A
330
2
100
AcDbEntity
  8
STEMPEL
100
AcDbPolyline
 90
        9
 70
   128
 43
0.0
 10
-125.5207633839135
 20
386.8988441853966
 10
-126.0098239271822
 20
386.5724112876391
 10
-126.4694368950832
 20
386.0271422743819
 10
-126.8853866987074
 20
385.2799020312539
 10
-127.244808227999
 20
384.3538023084763
 10
-127.5365847628865
 20
383.2774868865061
 10
-127.7516918076247
 20
382.0842456388752
 10
-127.8834762137322
 20
380.8109848937994
 10
-127.927861958397
 20
379.497085940733
210
0.0
220
0.0
230
-1.0
  0
LWPOLYLINE
  5
56B
330
2
100
AcDbEntity
  8
STEMPEL
100
AcDbPolyline
 90
       10
 70
   128
 43
0.0
 10
124.0385517683304
 20
366.9970859407333
 10
124.874731043172
 20
367.08823942266
 10
125.6855034338746
 20
367.3589302160178
 10
126.4462340316175
 20
367.8009335180267
 10
127.1338084221362
 20
368.4008192820195
 10
127.7273350055047
 20
369.1403602826142
 10
128.2087797768259
 20
369.9970859407335
 10
128.5635142803463
 20
370.9449650807795
 10
128.7807600876804
 20
371.9551968747321
 10
128.8539162949044
 20
372.9970859407337
  0
LINE
  5
56C
330
2
100
AcDbEntity
  8
STEMPEL
100
AcDbLine
 10
123.1136648094266
 20
379.4970859407314
 30
0.0
 11
123.1136648094266
 21
372.9970859407349
 31
0.0
  0
LINE
  5
56D
330
2
100
AcDbEntity
  8
STEMPEL
100
AcDbLine
 10
128.8539162949044
 20
379.4970859407314
 30
0.0
 11
128.8539162949044
 21
372.9970859407349
 31
0.0
  0
LINE
  5
56E
330
2
100
AcDbEntity
  8
STEMPEL
100
AcDbLine
 10
127.9278619583971
 20
379.4970859407314
 30
0.0
 11
127.9278619583971
 21
372.9970859407349
 31
0.0
  0
LWPOLYLINE
  5
56F
330
2
100
AcDbEntity
  8
STEMPEL
100
AcDbPolyline
 90
        7
 70
   128
 43
0.0
 10
125.7742903257285
 20
367.9970859407333
 10
126.3943808487929
 20
368.6064238425741
 10
126.9262009955762
 20
369.3338541158634
 10
127.3554467953075
 20
370.159811609807
 10
127.6705731431048
 20
371.0620811602693
 10
127.8631043200707
 20
372.0163950945125
 10
127.927861958397
 20
372.9970859407337
  0
LWPOLYLINE
  5
570
330
2
100
AcDbEntity
  8
STEMPEL
100
AcDbPolyline
 90
        7
 70
   128
 43
0.0
 10
163.9521907514709
 20
367.9970859407333
 10
164.4238363520377
 20
368.6064238425741
 10
164.8283428284206
 20
369.3338541158634
 10
165.1548304709096
 20
370.159811609807
 10
165.3945179843178
 20
371.0620811602693
 10
165.5409586719439
 20
372.0163950945126
 10
165.5902138275763
 20
372.9970859407337
  0
LWPOLYLINE
  5
571
330
2
100
AcDbEntity
  8
STEMPEL
100
AcDbPolyline
 90
       10
 70
   128
 43
0.0
 10
162.5378051399145
 20
366.9970859407333
 10
163.1738094999154
 20
367.08823942266
 10
163.7904891892715
 20
367.3589302160178
 10
164.3691067076766
 20
367.8009335180267
 10
164.8920810546284
 20
368.4008192820195
 10
165.3435219192329
 20
369.1403602826142
 10
165.7097124992589
 20
369.9970859407335
 10
165.9795262792339
 20
370.9449650807795
 10
166.1447651039855
 20
371.9551968747321
 10
166.2004082754386
 20
372.9970859407337
  0
LWPOLYLINE
  5
572
330
2
100
AcDbEntity
  8
STEMPEL
100
AcDbPolyline
 90
        9
 70
   128
 43
0.0
 10
-159.9451609993346
 20
386.9872200185552
 10
-161.0615687207058
 20
386.779912882148
 10
-162.126847972448
 20
386.3106581546942
 10
-163.1026829554864
 20
385.5963339175257
 10
-163.9539749883443
 20
384.6626328741293
 10
-164.6501049310807
 20
383.5431382389689
 10
-165.1660344897721
 20
382.2781158216302
 10
-165.483206789988
 20
380.9130657524209
 10
-165.5902138275761
 20
379.497085940733
210
0.0
220
0.0
230
-1.0
  0
LWPOLYLINE
  5
573
330
2
100
AcDbEntity
  8
STEMPEL
100
AcDbPolyline
 90
       18
 70
   128
 43
0.0
 10
-154.3001081710696
 20
379.4970859407314
 10
-154.401420782874
 20
380.875207324356
 10
-154.7019085388032
 20
382.2063984371356
 10
-155.1913386887244
 20
383.4453271623124
 10
-155.8530442758888
 20
384.5498032680817
 10
-156.6644917101539
 20
385.4822151453345
 10
-157.5980481223697
 20
386.2108106258958
 10
-158.6219223685958
 20
386.7107782645291
 10
-159.7012476393785
 20
386.9650922629458
 10
-160.7992688071296
 20
386.9650922629458
 10
-161.8785940779124
 20
386.7107782645291
 10
-162.9024683241385
 20
386.2108106258958
 10
-163.8360247363542
 20
385.4822151453345
 10
-164.6474721706193
 20
384.5498032680817
 10
-165.3091777577837
 20
383.4453271623124
 10
-165.7986079077049
 20
382.2063984371356
 10
-166.0990956636341
 20
380.875207324356
 10
-166.2004082754385
 20
379.4970859407314
210
0.0
220
0.0
230
-1.0
  0
LWPOLYLINE
  5
574
330
2
100
AcDbEntity
  8
STEMPEL
100
AcDbPolyline
 90
       10
 70
   128
 43
0.0
 10
-139.3822053093312
 20
386.9970859407346
 10
-140.1750326551909
 20
386.8831440883262
 10
-140.9437703433366
 20
386.5447805966288
 10
-141.6650606681142
 20
385.9922764691177
 10
-142.3169875879957
 20
385.2424192641266
 10
-142.8797426334113
 20
384.3179930133831
 10
-143.3362267770742
 20
383.2470859407338
 10
-143.672569979271
 20
382.0622370156761
 10
-143.8785526220011
 20
380.7994472732353
 10
-143.9479160268972
 20
379.497085940733
210
0.0
220
0.0
230
-1.0
  0
LWPOLYLINE
  5
575
330
2
100
AcDbEntity
  8
STEMPEL
100
AcDbPolyline
 90
       18
 70
   128
 43
0.0
 10
-135.6117154785863
 20
379.4970859407314
 10
-135.6894553798464
 20
380.875207324356
 10
-135.9200277445282
 20
382.2063984371356
 10
-136.2955807072933
 20
383.4453271623124
 10
-136.8033252624211
 20
384.5498032680817
 10
-137.425970778059
 20
385.4822151453345
 10
-138.142313807953
 20
386.2108106258958
 10
-138.927960149379
 20
386.7107782645291
 10
-139.7561555584583
 20
386.9650922629458
 10
-140.598696833846
 20
386.9650922629458
 10
-141.4268922429255
 20
386.7107782645291
 10
-142.2125385843514
 20
386.2108106258958
 10
-142.9288816142454
 20
385.4822151453345
 10
-143.5515271298833
 20
384.5498032680817
 10
-144.0592716850111
 20
383.4453271623124
 10
-144.4348246477762
 20
382.2063984371356
 10
-144.6653970124581
 20
380.875207324356
 10
-144.7431369137181
 20
379.4970859407314
210
0.0
220
0.0
230
-1.0
  0
LINE
  5
576
330
2
100
AcDbEntity
  8
STEMPEL
100
AcDbLine
 10
133.6601386500677
 20
367.9970859407333
 30
0.0
 11
141.9963391983796
 21
367.9970859407333
 31
0.0
  0
LWPOLYLINE
  5
577
330
2
100
AcDbEntity
  8
STEMPEL
100
AcDbPolyline
 90
       10
 70
   128
 43
0.0
 10
140.3794307391121
 20
366.9970859407333
 10
141.1371803642063
 20
367.08823942266
 10
141.8719061503819
 20
367.3589302160178
 10
142.561283826415
 20
367.8009335180267
 10
143.1843670004613
 20
368.4008192820195
 10
143.7222236055728
 20
369.1403602826142
 10
144.1585111409718
 20
369.9970859407335
 10
144.4799732306671
 20
370.9449650807795
 10
144.6768424117311
 20
371.9551968747321
 10
144.7431369137179
 20
372.9970859407337
  0
LINE
  5
578
330
2
100
AcDbEntity
  8
STEMPEL
100
AcDbLine
 10
135.6117154785861
 20
379.4970859407314
 30
0.0
 11
135.6117154785861
 21
372.9970859407349
 31
0.0
  0
LINE
  5
579
330
2
100
AcDbEntity
  8
STEMPEL
100
AcDbLine
 10
144.743136913718
 20
379.4970859407314
 30
0.0
 11
144.743136913718
 21
372.9970859407349
 31
0.0
  0
LINE
  5
57A
330
2
100
AcDbEntity
  8
STEMPEL
100
AcDbLine
 10
143.9479160268973
 20
379.4970859407314
 30
0.0
 11
143.9479160268973
 21
372.9970859407349
 31
0.0
  0
LWPOLYLINE
  5
57B
330
2
100
AcDbEntity
  8
STEMPEL
100
AcDbPolyline
 90
        7
 70
   128
 43
0.0
 10
141.9963391983789
 20
367.9970859407333
 10
142.5582681716431
 20
368.6064238425741
 10
143.0402061112302
 20
369.3338541158634
 10
143.4291906909801
 20
370.159811609807
 10
143.7147596820866
 20
371.0620811602693
 10
143.8892323478824
 20
372.0163950945126
 10
143.9479160268974
 20
372.9970859407337
  0
LINE
  5
57C
330
2
100
AcDbEntity
  8
STEMPEL
100
AcDbLine
 10
152.6620850949644
 20
367.9970859407333
 30
0.0
 11
163.9521907514715
 21
367.9970859407333
 31
0.0
  0
LINE
  5
57D
330
2
100
AcDbEntity
  8
STEMPEL
100
AcDbLine
 10
154.3001081710698
 20
379.4970859407314
 30
0.0
 11
154.3001081710698
 21
372.9970859407349
 31
0.0
  0
LWPOLYLINE
  5
57E
330
2
100
AcDbEntity
  8
STEMPEL
100
AcDbPolyline
 90
       10
 70
   128
 43
0.0
 10
150.6375050355456
 20
366.9970859407333
 10
151.2735093955465
 20
367.08823942266
 10
151.8901890849027
 20
367.3589302160178
 10
152.4688066033077
 20
367.8009335180267
 10
152.9917809502596
 20
368.4008192820195
 10
153.4432218148641
 20
369.1403602826142
 10
153.8094123948901
 20
369.9970859407335
 10
154.079226174865
 20
370.9449650807795
 10
154.2444649996167
 20
371.9551968747321
 10
154.3001081710698
 20
372.9970859407337
  0
LWPOLYLINE
  5
57F
330
2
100
AcDbEntity
  8
STEMPEL
100
AcDbPolyline
 90
        9
 70
   128
 43
0.0
 10
-184.6425641699434
 20
386.9942123637716
 10
-185.9667736202732
 20
386.8153794567238
 10
-187.2347530174593
 20
386.3651035393997
 10
-188.3994717055449
 20
385.6600858072604
 10
-189.4177290741516
 20
384.7264760908769
 10
-190.2517569134139
 20
383.5989029319009
 10
-190.8706202756078
 20
382.319189174949
 10
-191.2513648840819
 20
380.9348007154136
 10
-191.3798685309138
 20
379.497085940733
210
0.0
220
0.0
230
-1.0
  0
LWPOLYLINE
  5
580
330
2
100
AcDbEntity
  8
STEMPEL
100
AcDbPolyline
 90
       18
 70
   128
 43
0.0
 10
-177.9052598089199
 20
379.4970859407314
 10
-178.0232408442009
 20
380.875207324356
 10
-178.3731662473906
 20
382.2063984371356
 10
-178.9431197285724
 20
383.4453271623124
 10
-179.7136922055285
 20
384.5498032680817
 10
-180.658642756756
 20
385.4822151453345
 10
-181.7457922245761
 20
386.2108106258958
 10
-182.9381190377543
 20
386.7107782645291
 10
-184.1950199367061
 20
386.9650922629458
 10
-185.4736926688045
 20
386.9650922629458
 10
-186.7305935677563
 20
386.7107782645291
 10
-187.9229203809345
 20
386.2108106258958
 10
-189.0100698487546
 20
385.4822151453345
 10
-189.9550203999821
 20
384.5498032680817
 10
-190.7255928769382
 20
383.4453271623124
 10
-191.29554635812
 20
382.2063984371356
 10
-191.6454717613097
 20
380.875207324356
 10
-191.7634527965908
 20
379.4970859407314
210
0.0
220
0.0
230
-1.0
  0
LINE
  5
581
330
2
100
AcDbEntity
  8
STEMPEL
100
AcDbLine
 10
176.6877483761907
 20
367.9970859407333
 30
0.0
 11
190.1623570981851
 21
367.9970859407333
 31
0.0
  0
LINE
  5
582
330
2
100
AcDbEntity
  8
STEMPEL
100
AcDbLine
 10
166.2004082754386
 20
379.4970859407314
 30
0.0
 11
166.2004082754386
 21
372.9970859407349
 31
0.0
  0
LINE
  5
583
330
2
100
AcDbEntity
  8
STEMPEL
100
AcDbLine
 10
165.5902138275763
 20
379.4970859407314
 30
0.0
 11
165.5902138275763
 21
372.9970859407349
 31
0.0
  0
LINE
  5
584
330
2
100
AcDbEntity
  8
STEMPEL
100
AcDbLine
 10
177.9052598089199
 20
379.4970859407314
 30
0.0
 11
177.9052598089199
 21
372.9970859407349
 31
0.0
  0
LWPOLYLINE
  5
585
330
2
100
AcDbEntity
  8
STEMPEL
100
AcDbPolyline
 90
       10
 70
   128
 43
0.0
 10
175.1829164817108
 20
366.9970859407333
 10
175.6556464394644
 20
367.08823942266
 10
176.1140127366646
 20
367.3589302160178
 10
176.5440881453153
 20
367.8009335180267
 10
176.9328050417536
 20
368.4008192820195
 10
177.2683524597813
 20
369.1403602826142
 10
177.5405349608969
 20
369.9970859407335
 10
177.741082417535
 20
370.9449650807795
 10
177.8639012967074
 20
371.9551968747321
 10
177.9052598089199
 20
372.9970859407337
  0
LWPOLYLINE
  5
586
330
2
100
AcDbEntity
  8
STEMPEL
100
AcDbPolyline
 90
       10
 70
   128
 43
0.0
 10
189.0411094693817
 20
366.9970859407333
 10
189.5138394271353
 20
367.08823942266
 10
189.9722057243355
 20
367.3589302160178
 10
190.4022811329862
 20
367.8009335180267
 10
190.7909980294245
 20
368.4008192820195
 10
191.1265454474522
 20
369.1403602826142
 10
191.3987279485678
 20
369.9970859407335
 10
191.5992754052059
 20
370.9449650807795
 10
191.7220942843783
 20
371.9551968747321
 10
191.7634527965908
 20
372.9970859407337
  0
LINE
  5
587
330
2
100
AcDbEntity
  8
STEMPEL
100
AcDbLine
 10
191.7634527965908
 20
379.4970859407298
 30
0.0
 11
191.7634527965908
 21
372.9970859407349
 31
0.0
  0
LINE
  5
588
330
2
100
AcDbEntity
  8
STEMPEL
100
AcDbLine
 10
191.3798685309138
 20
379.4970859407314
 30
0.0
 11
191.3798685309138
 21
372.9970859407349
 31
0.0
  0
LWPOLYLINE
  5
589
330
2
100
AcDbEntity
  8
STEMPEL
100
AcDbPolyline
 90
        7
 70
   128
 43
0.0
 10
190.1623570981847
 20
367.9970859407333
 10
190.5129223125967
 20
368.6064238425741
 10
190.8135842915354
 20
369.3338541158634
 10
191.05625635347
 20
370.159811609807
 10
191.2344115285184
 20
371.0620811602693
 10
191.343258109499
 20
372.0163950945125
 10
191.3798685309138
 20
372.9970859407337
  0
LINE
  5
58A
330
2
100
AcDbEntity
  8
STEMPEL
100
AcDbLine
 10
331.9358876665571
 20
367.9970859407333
 30
0.0
 11
327.1216905175857
 21
367.9970859407333
 31
0.0
  0
LWPOLYLINE
  5
58B
330
2
100
AcDbEntity
  8
STEMPEL
100
AcDbPolyline
 90
       18
 70
   128
 43
0.0
 10
329.7823160338885
 20
379.4970859407314
 10
329.7334466889723
 20
380.875207324356
 10
329.5885028411522
 20
382.2063984371356
 10
329.352420379325
 20
383.4453271623124
 10
329.0332388085783
 20
384.5498032680817
 10
328.6418274744879
 20
385.4822151453345
 10
328.19151542059
 20
386.2108106258958
 10
327.6976374837905
 20
386.7107782645291
 10
327.1770120848856
 20
386.9650922629458
 10
326.6473684974138
 20
386.9650922629458
 10
326.1267430985088
 20
386.7107782645291
 10
325.6328651617094
 20
386.2108106258958
 10
325.1825531078115
 20
385.4822151453345
 10
324.791141773721
 20
384.5498032680817
 10
324.4719602029743
 20
383.4453271623124
 10
324.2358777411471
 20
382.2063984371356
 10
324.0909338933271
 20
380.875207324356
 10
324.0420645484108
 20
379.4970859407314
  0
LWPOLYLINE
  5
58C
330
2
100
AcDbEntity
  8
STEMPEL
100
AcDbPolyline
 90
       10
 70
   128
 43
0.0
 10
-263.8548713739335
 20
366.9970859407333
 10
-263.3821414161799
 20
367.08823942266
 10
-262.9237751189797
 20
367.3589302160178
 10
-262.493699710329
 20
367.8009335180267
 10
-262.1049828138907
 20
368.4008192820195
 10
-261.769435395863
 20
369.1403602826142
 10
-261.4972528947474
 20
369.9970859407335
 10
-261.2967054381093
 20
370.9449650807795
 10
-261.1738865589369
 20
371.9551968747321
 10
-261.1325280467244
 20
372.9970859407337
210
0.0
220
0.0
230
-1.0
  0
LINE
  5
58D
330
2
100
AcDbEntity
  8
STEMPEL
100
AcDbLine
 10
276.2082324671244
 20
367.9970859407333
 30
0.0
 11
262.73362374513
 21
367.9970859407333
 31
0.0
  0
LWPOLYLINE
  5
58E
330
2
100
AcDbEntity
  8
STEMPEL
100
AcDbPolyline
 90
        9
 70
   128
 43
0.0
 10
268.2534166733717
 20
386.9942123637716
 10
266.9292072230419
 20
386.8153794567238
 10
265.6612278258559
 20
386.3651035393997
 10
264.4965091377703
 20
385.6600858072604
 10
263.4782517691636
 20
384.7264760908769
 10
262.6442239299013
 20
383.5989029319009
 10
262.0253605677074
 20
382.319189174949
 10
261.6446159592332
 20
380.9348007154136
 10
261.5161123124014
 20
379.497085940733
  0
LWPOLYLINE
  5
58F
330
2
100
AcDbEntity
  8
STEMPEL
100
AcDbPolyline
 90
       18
 70
   128
 43
0.0
 10
274.9907210343953
 20
379.4970859407314
 10
274.8727399991143
 20
380.875207324356
 10
274.5228145959246
 20
382.2063984371356
 10
273.9528611147428
 20
383.4453271623124
 10
273.1822886377867
 20
384.5498032680817
 10
272.2373380865592
 20
385.4822151453345
 10
271.1501886187392
 20
386.2108106258958
 10
269.9578618055609
 20
386.7107782645291
 10
268.7009609066091
 20
386.9650922629458
 10
267.4222881745107
 20
386.9650922629458
 10
266.1653872755589
 20
386.7107782645291
 10
264.9730604623806
 20
386.2108106258958
 10
263.8859109945606
 20
385.4822151453345
 10
262.940960443333
 20
384.5498032680817
 10
262.1703879663769
 20
383.4453271623124
 10
261.6004344851952
 20
382.2063984371356
 10
261.2505090820055
 20
380.875207324356
 10
261.1325280467244
 20
379.4970859407314
  0
LWPOLYLINE
  5
590
330
2
100
AcDbEntity
  8
STEMPEL
100
AcDbPolyline
 90
        9
 70
   128
 43
0.0
 10
-212.188938052931
 20
386.9967957005062
 10
-213.6302780368088
 20
386.8414943065825
 10
-215.0143589402583
 20
386.4070940595682
 10
-216.2885835527903
 20
385.710102839293
 10
-217.4045293725201
 20
384.7770073878473
 10
-218.3197887359732
 20
383.6432667725038
 10
-218.9995803747483
 20
382.3519648864344
 10
-219.4180711573977
 20
380.9521731942748
 10
-219.5593577882916
 20
379.497085940733
210
0.0
220
0.0
230
-1.0
  0
LWPOLYLINE
  5
591
330
2
100
AcDbEntity
  8
STEMPEL
100
AcDbPolyline
 90
       18
 70
   128
 43
0.0
 10
-204.8185183173707
 20
379.4970859407314
 10
-204.945127563547
 20
380.875207324356
 10
-205.3206437760487
 20
382.2063984371356
 10
-205.932279200641
 20
383.4453271623124
 10
-206.7592053265154
 20
384.5498032680817
 10
-207.7732621762437
 20
385.4822151453345
 10
-208.9399172600354
 20
386.2108106258958
 10
-210.2194415382607
 20
386.7107782645291
 10
-211.5682623462448
 20
386.9650922629458
 10
-212.9404472091041
 20
386.9650922629458
 10
-214.2892680170882
 20
386.7107782645291
 10
-215.5687922953135
 20
386.2108106258958
 10
-216.7354473791052
 20
385.4822151453345
 10
-217.7495042288335
 20
384.5498032680817
 10
-218.5764303547078
 20
383.4453271623124
 10
-219.1880657793002
 20
382.2063984371356
 10
-219.5635819918019
 20
380.875207324356
 10
-219.6901912379782
 20
379.4970859407314
210
0.0
220
0.0
230
-1.0
  0
LINE
  5
592
330
2
100
AcDbEntity
  8
STEMPEL
100
AcDbLine
 10
204.2319437951135
 20
367.9970859407333
 30
0.0
 11
218.9727832660349
 21
367.9970859407333
 31
0.0
  0
LINE
  5
593
330
2
100
AcDbEntity
  8
STEMPEL
100
AcDbLine
 10
204.8185183173704
 20
379.497085940733
 30
0.0
 11
204.8185183173704
 21
372.9970859407349
 31
0.0
  0
LWPOLYLINE
  5
594
330
2
100
AcDbEntity
  8
STEMPEL
100
AcDbPolyline
 90
       10
 70
   128
 43
0.0
 10
203.5069435808627
 20
366.9970859407333
 10
203.7346961437312
 20
367.08823942266
 10
203.9555285602254
 20
367.3589302160178
 10
204.1627309491167
 20
367.8009335180267
 10
204.3500075706679
 20
368.4008192820195
 10
204.5116681194998
 20
369.1403602826142
 10
204.6428006216404
 20
369.9970859407335
 10
204.7394206823684
 20
370.9449650807795
 10
204.7985925500306
 20
371.9551968747321
 10
204.8185183173706
 20
372.9970859407337
  0
LINE
  5
595
330
2
100
AcDbEntity
  8
STEMPEL
100
AcDbLine
 10
219.6901912379781
 20
379.4970859407298
 30
0.0
 11
219.6901912379781
 21
372.9970859407349
 31
0.0
  0
LINE
  5
596
330
2
100
AcDbEntity
  8
STEMPEL
100
AcDbLine
 10
219.5593577882916
 20
379.4970859407314
 30
0.0
 11
219.5593577882916
 21
372.9970859407349
 31
0.0
  0
LWPOLYLINE
  5
597
330
2
100
AcDbEntity
  8
STEMPEL
100
AcDbPolyline
 90
       10
 70
   128
 43
0.0
 10
218.3786165014703
 20
366.9970859407333
 10
218.6063690643388
 20
367.08823942266
 10
218.827201480833
 20
367.3589302160178
 10
219.0344038697243
 20
367.8009335180267
 10
219.2216804912754
 20
368.4008192820195
 10
219.3833410401074
 20
369.1403602826142
 10
219.514473542248
 20
369.9970859407335
 10
219.6110936029759
 20
370.9449650807795
 10
219.6702654706382
 20
371.9551968747321
 10
219.6901912379781
 20
372.9970859407337
  0
LWPOLYLINE
  5
598
330
2
100
AcDbEntity
  8
STEMPEL
100
AcDbPolyline
 90
        7
 70
   128
 43
0.0
 10
218.9727832660346
 20
367.9970859407333
 10
219.141679111803
 20
368.6064238425741
 10
219.2865325003757
 20
369.3338541158634
 10
219.4034474179428
 20
370.159811609807
 10
219.4892792909605
 20
371.0620811602693
 10
219.5417195634062
 20
372.0163950945126
 10
219.5593577882915
 20
372.9970859407337
  0
LWPOLYLINE
  5
599
330
2
100
AcDbEntity
  8
STEMPEL
100
AcDbPolyline
 90
       18
 70
   128
 43
0.0
 10
248.0774625259446
 20
379.4970859407314
 10
247.9508532797682
 20
380.875207324356
 10
247.5753370672665
 20
382.2063984371356
 10
246.9637016426741
 20
383.4453271623124
 10
246.1367755167998
 20
384.5498032680817
 10
245.1227186670715
 20
385.4822151453345
 10
243.9560635832798
 20
386.2108106258958
 10
242.6765393050545
 20
386.7107782645291
 10
241.3277184970704
 20
386.9650922629458
 10
239.9555336342111
 20
386.9650922629458
 10
238.606712826227
 20
386.7107782645291
 10
237.3271885480018
 20
386.2108106258958
 10
236.16053346421
 20
385.4822151453345
 10
235.1464766144817
 20
384.5498032680817
 10
234.3195504886074
 20
383.4453271623124
 10
233.707915064015
 20
382.2063984371356
 10
233.3323988515133
 20
380.875207324356
 10
233.205789605337
 20
379.4970859407314
  0
LWPOLYLINE
  5
59A
330
2
100
AcDbEntity
  8
STEMPEL
100
AcDbPolyline
 90
        9
 70
   128
 43
0.0
 10
240.7070427903843
 20
386.9967957005062
 10
239.2657028065065
 20
386.8414943065825
 10
237.8816219030569
 20
386.4070940595682
 10
236.6073972905249
 20
385.710102839293
 10
235.4914514707951
 20
384.7770073878473
 10
234.576192107342
 20
383.6432667725038
 10
233.8964004685669
 20
382.3519648864344
 10
233.4779096859175
 20
380.9521731942748
 10
233.3366230550236
 20
379.497085940733
  0
LINE
  5
59B
330
2
100
AcDbEntity
  8
STEMPEL
100
AcDbLine
 10
248.6640370482017
 20
367.9970859407333
 30
0.0
 11
233.9231975772803
 21
367.9970859407333
 31
0.0
  0
LINE
  5
59C
330
2
100
AcDbEntity
  8
STEMPEL
100
AcDbLine
 10
233.3366230550236
 20
379.4970859407314
 30
0.0
 11
233.3366230550236
 21
372.9970859407349
 31
0.0
  0
LINE
  5
59D
330
2
100
AcDbEntity
  8
STEMPEL
100
AcDbLine
 10
233.2057896053371
 20
379.4970859407298
 30
0.0
 11
233.2057896053371
 21
372.9970859407349
 31
0.0
  0
LWPOLYLINE
  5
59E
330
2
100
AcDbEntity
  8
STEMPEL
100
AcDbPolyline
 90
       10
 70
   128
 43
0.0
 10
-234.517364341845
 20
366.9970859407333
 10
-234.2896117789764
 20
367.08823942266
 10
-234.0687793624822
 20
367.3589302160178
 10
-233.861576973591
 20
367.8009335180267
 10
-233.6743003520398
 20
368.4008192820195
 10
-233.5126398032078
 20
369.1403602826142
 10
-233.3815073010672
 20
369.9970859407335
 10
-233.2848872403393
 20
370.9449650807795
 10
-233.225715372677
 20
371.9551968747321
 10
-233.2057896053371
 20
372.9970859407337
210
0.0
220
0.0
230
-1.0
  0
LWPOLYLINE
  5
59F
330
2
100
AcDbEntity
  8
STEMPEL
100
AcDbPolyline
 90
        7
 70
   128
 43
0.0
 10
-233.9231975772806
 20
367.9970859407333
 10
-233.7543017315121
 20
368.6064238425741
 10
-233.6094483429395
 20
369.3338541158634
 10
-233.4925334253724
 20
370.159811609807
 10
-233.4067015523547
 20
371.0620811602693
 10
-233.3542612799091
 20
372.0163950945126
 10
-233.3366230550237
 20
372.9970859407337
210
0.0
220
0.0
230
-1.0
  0
LINE
  5
5A0
330
2
100
AcDbEntity
  8
STEMPEL
100
AcDbLine
 10
248.0774625259448
 20
379.497085940733
 30
0.0
 11
248.0774625259448
 21
372.9970859407349
 31
0.0
  0
LWPOLYLINE
  5
5A1
330
2
100
AcDbEntity
  8
STEMPEL
100
AcDbPolyline
 90
       10
 70
   128
 43
0.0
 10
-249.3890372624525
 20
366.9970859407333
 10
-249.161284699584
 20
367.08823942266
 10
-248.9404522830898
 20
367.3589302160178
 10
-248.7332498941985
 20
367.8009335180267
 10
-248.5459732726474
 20
368.4008192820195
 10
-248.3843127238154
 20
369.1403602826142
 10
-248.2531802216747
 20
369.9970859407335
 10
-248.1565601609469
 20
370.9449650807795
 10
-248.0973882932847
 20
371.9551968747321
 10
-248.0774625259447
 20
372.9970859407337
210
0.0
220
0.0
230
-1.0
  0
LINE
  5
5A2
330
2
100
AcDbEntity
  8
STEMPEL
100
AcDbLine
 10
261.5161123124014
 20
379.4970859407314
 30
0.0
 11
261.5161123124014
 21
372.9970859407349
 31
0.0
  0
LINE
  5
5A3
330
2
100
AcDbEntity
  8
STEMPEL
100
AcDbLine
 10
261.1325280467244
 20
379.4970859407298
 30
0.0
 11
261.1325280467244
 21
372.9970859407349
 31
0.0
  0
LWPOLYLINE
  5
5A4
330
2
100
AcDbEntity
  8
STEMPEL
100
AcDbPolyline
 90
        7
 70
   128
 43
0.0
 10
-262.7336237451305
 20
367.9970859407333
 10
-262.3830585307185
 20
368.6064238425741
 10
-262.0823965517798
 20
369.3338541158634
 10
-261.8397244898452
 20
370.159811609807
 10
-261.6615693147967
 20
371.0620811602693
 10
-261.5527227338162
 20
372.0163950945125
 10
-261.5161123124014
 20
372.9970859407337
210
0.0
220
0.0
230
-1.0
  0
LINE
  5
5A5
330
2
100
AcDbEntity
  8
STEMPEL
100
AcDbLine
 10
300.2338957483508
 20
367.9970859407333
 30
0.0
 11
288.9437900918437
 21
367.9970859407333
 31
0.0
  0
LWPOLYLINE
  5
5A6
330
2
100
AcDbEntity
  8
STEMPEL
100
AcDbPolyline
 90
       18
 70
   128
 43
0.0
 10
298.5958726722456
 20
379.4970859407314
 10
298.4945600604412
 20
380.875207324356
 10
298.194072304512
 20
382.2063984371356
 10
297.7046421545908
 20
383.4453271623124
 10
297.0429365674263
 20
384.5498032680817
 10
296.2314891331612
 20
385.4822151453345
 10
295.2979327209455
 20
386.2108106258958
 10
294.2740584747194
 20
386.7107782645291
 10
293.1947332039367
 20
386.9650922629458
 10
292.0967120361856
 20
386.9650922629458
 10
291.0173867654028
 20
386.7107782645291
 10
289.9935125191767
 20
386.2108106258958
 10
289.059956106961
 20
385.4822151453345
 10
288.2485086726959
 20
384.5498032680817
 10
287.5868030855315
 20
383.4453271623124
 10
287.0973729356103
 20
382.2063984371356
 10
286.7968851796811
 20
380.875207324356
 10
286.6955725678767
 20
379.4970859407314
  0
LWPOLYLINE
  5
5A7
330
2
100
AcDbEntity
  8
STEMPEL
100
AcDbPolyline
 90
        9
 70
   128
 43
0.0
 10
292.9508198439806
 20
386.9872200185552
 10
291.8344121226094
 20
386.779912882148
 10
290.7691328708672
 20
386.3106581546942
 10
289.7932978878288
 20
385.5963339175257
 10
288.9420058549709
 20
384.6626328741293
 10
288.2458759122345
 20
383.5431382389689
 10
287.7299463535431
 20
382.2781158216302
 10
287.4127740533273
 20
380.9130657524209
 10
287.305767015739
 20
379.497085940733
  0
LINE
  5
5A8
330
2
100
AcDbEntity
  8
STEMPEL
100
AcDbLine
 10
274.9907210343953
 20
379.4970859407314
 30
0.0
 11
274.9907210343953
 21
372.9970859407349
 31
0.0
  0
LWPOLYLINE
  5
5A9
330
2
100
AcDbEntity
  8
STEMPEL
100
AcDbPolyline
 90
       10
 70
   128
 43
0.0
 10
-277.7130643616044
 20
366.9970859407333
 10
-277.2403344038508
 20
367.08823942266
 10
-276.7819681066506
 20
367.3589302160178
 10
-276.3518926979998
 20
367.8009335180267
 10
-275.9631758015616
 20
368.4008192820195
 10
-275.6276283835339
 20
369.1403602826142
 10
-275.3554458824183
 20
369.9970859407335
 10
-275.1548984257802
 20
370.9449650807795
 10
-275.0320795466078
 20
371.9551968747321
 10
-274.9907210343953
 20
372.9970859407337
210
0.0
220
0.0
230
-1.0
  0
LWPOLYLINE
  5
5AA
330
2
100
AcDbEntity
  8
STEMPEL
100
AcDbPolyline
 90
        7
 70
   128
 43
0.0
 10
-288.9437900918443
 20
367.9970859407333
 10
-288.4721444912774
 20
368.6064238425741
 10
-288.0676380148946
 20
369.3338541158634
 10
-287.7411503724056
 20
370.159811609807
 10
-287.5014628589973
 20
371.0620811602693
 10
-287.3550221713713
 20
372.0163950945126
 10
-287.3057670157389
 20
372.9970859407337
210
0.0
220
0.0
230
-1.0
  0
LWPOLYLINE
  5
5AB
330
2
100
AcDbEntity
  8
STEMPEL
100
AcDbPolyline
 90
       10
 70
   128
 43
0.0
 10
-290.3581757034007
 20
366.9970859407333
 10
-289.7221713433998
 20
367.08823942266
 10
-289.1054916540436
 20
367.3589302160178
 10
-288.5268741356386
 20
367.8009335180267
 10
-288.0038997886867
 20
368.4008192820195
 10
-287.5524589240823
 20
369.1403602826142
 10
-287.1862683440562
 20
369.9970859407335
 10
-286.9164545640813
 20
370.9449650807795
 10
-286.7512157393297
 20
371.9551968747321
 10
-286.6955725678766
 20
372.9970859407337
210
0.0
220
0.0
230
-1.0
  0
LINE
  5
5AC
330
2
100
AcDbEntity
  8
STEMPEL
100
AcDbLine
 10
287.3057670157389
 20
379.4970859407314
 30
0.0
 11
287.3057670157389
 21
372.9970859407349
 31
0.0
  0
LINE
  5
5AD
330
2
100
AcDbEntity
  8
STEMPEL
100
AcDbLine
 10
286.6955725678766
 20
379.4970859407314
 30
0.0
 11
286.6955725678766
 21
372.9970859407349
 31
0.0
  0
LWPOLYLINE
  5
5AE
330
2
100
AcDbEntity
  8
STEMPEL
100
AcDbPolyline
 90
        9
 70
   128
 43
0.0
 10
327.3752174594018
 20
386.8988441853966
 10
326.886156916133
 20
386.5724112876391
 10
326.426543948232
 20
386.0271422743819
 10
326.0105941446078
 20
385.2799020312539
 10
325.6511726153162
 20
384.3538023084763
 10
325.3593960804287
 20
383.2774868865061
 10
325.1442890356905
 20
382.0842456388752
 10
325.012504629583
 20
380.8109848937994
 10
324.9681188849182
 20
379.497085940733
  0
LWPOLYLINE
  5
5AF
330
2
100
AcDbEntity
  8
STEMPEL
100
AcDbPolyline
 90
       18
 70
   128
 43
0.0
 10
317.2842653647289
 20
379.4970859407314
 10
317.2065254634688
 20
380.875207324356
 10
316.975953098787
 20
382.2063984371356
 10
316.6004001360219
 20
383.4453271623124
 10
316.0926555808941
 20
384.5498032680817
 10
315.4700100652562
 20
385.4822151453345
 10
314.7536670353621
 20
386.2108106258958
 10
313.9680206939362
 20
386.7107782645291
 10
313.1398252848569
 20
386.9650922629458
 10
312.2972840094691
 20
386.9650922629458
 10
311.4690886003897
 20
386.7107782645291
 10
310.6834422589639
 20
386.2108106258958
 10
309.9670992290698
 20
385.4822151453345
 10
309.3444537134319
 20
384.5498032680817
 10
308.8367091583041
 20
383.4453271623124
 10
308.461156195539
 20
382.2063984371356
 10
308.2305838308571
 20
380.875207324356
 10
308.1528439295971
 20
379.4970859407314
  0
LWPOLYLINE
  5
5B0
330
2
100
AcDbEntity
  8
STEMPEL
100
AcDbPolyline
 90
       10
 70
   128
 43
0.0
 10
313.513775533984
 20
386.9970859407346
 10
312.7209481881243
 20
386.8831440883262
 10
311.9522104999786
 20
386.5447805966288
 10
311.230920175201
 20
385.9922764691177
 10
310.5789932553195
 20
385.2424192641266
 10
310.0162382099039
 20
384.3179930133831
 10
309.559754066241
 20
383.2470859407338
 10
309.2234108640442
 20
382.0622370156761
 10
309.0174282213141
 20
380.7994472732353
 10
308.948064816418
 20
379.497085940733
  0
LINE
  5
5B1
330
2
100
AcDbEntity
  8
STEMPEL
100
AcDbLine
 10
319.2358421932475
 20
367.9970859407333
 30
0.0
 11
310.8996416449356
 21
367.9970859407333
 31
0.0
  0
LINE
  5
5B2
330
2
100
AcDbEntity
  8
STEMPEL
100
AcDbLine
 10
298.5958726722454
 20
379.4970859407314
 30
0.0
 11
298.5958726722454
 21
372.9970859407349
 31
0.0
  0
LWPOLYLINE
  5
5B3
330
2
100
AcDbEntity
  8
STEMPEL
100
AcDbPolyline
 90
       10
 70
   128
 43
0.0
 10
-302.2584758077696
 20
366.9970859407333
 10
-301.6224714477687
 20
367.08823942266
 10
-301.0057917584125
 20
367.3589302160178
 10
-300.4271742400074
 20
367.8009335180267
 10
-299.9041998930556
 20
368.4008192820195
 10
-299.4527590284511
 20
369.1403602826142
 10
-299.0865684484251
 20
369.9970859407335
 10
-298.8167546684502
 20
370.9449650807795
 10
-298.6515158436985
 20
371.9551968747321
 10
-298.5958726722454
 20
372.9970859407337
210
0.0
220
0.0
230
-1.0
  0
LINE
  5
5B4
330
2
100
AcDbEntity
  8
STEMPEL
100
AcDbLine
 10
308.9480648164179
 20
379.4970859407314
 30
0.0
 11
308.9480648164179
 21
372.9970859407349
 31
0.0
  0
LINE
  5
5B5
330
2
100
AcDbEntity
  8
STEMPEL
100
AcDbLine
 10
308.1528439295972
 20
379.4970859407314
 30
0.0
 11
308.1528439295972
 21
372.9970859407349
 31
0.0
  0
LWPOLYLINE
  5
5B6
330
2
100
AcDbEntity
  8
STEMPEL
100
AcDbPolyline
 90
       10
 70
   128
 43
0.0
 10
-312.5165501042031
 20
366.9970859407333
 10
-311.7588004791088
 20
367.08823942266
 10
-311.0240746929333
 20
367.3589302160178
 10
-310.3346970169002
 20
367.8009335180267
 10
-309.7116138428538
 20
368.4008192820195
 10
-309.1737572377423
 20
369.1403602826142
 10
-308.7374697023434
 20
369.9970859407335
 10
-308.4160076126481
 20
370.9449650807795
 10
-308.2191384315841
 20
371.9551968747321
 10
-308.1528439295973
 20
372.9970859407337
210
0.0
220
0.0
230
-1.0
  0
LWPOLYLINE
  5
5B7
330
2
100
AcDbEntity
  8
STEMPEL
100
AcDbPolyline
 90
        7
 70
   128
 43
0.0
 10
-310.8996416449362
 20
367.9970859407333
 10
-310.3377126716722
 20
368.6064238425741
 10
-309.855774732085
 20
369.3338541158634
 10
-309.4667901523351
 20
370.159811609807
 10
-309.1812211612287
 20
371.0620811602693
 10
-309.0067484954328
 20
372.0163950945126
 10
-308.9480648164178
 20
372.9970859407337
210
0.0
220
0.0
230
-1.0
  0
LWPOLYLINE
  5
5B8
330
2
100
AcDbEntity
  8
STEMPEL
100
AcDbPolyline
 90
       10
 70
   128
 43
0.0
 10
-321.6479715393349
 20
366.9970859407333
 10
-320.8902219142407
 20
367.08823942266
 10
-320.1554961280652
 20
367.3589302160178
 10
-319.4661184520321
 20
367.8009335180267
 10
-318.8430352779856
 20
368.4008192820195
 10
-318.3051786728742
 20
369.1403602826142
 10
-317.8688911374753
 20
369.9970859407335
 10
-317.54742904778
 20
370.9449650807795
 10
-317.350559866716
 20
371.9551968747321
 10
-317.2842653647292
 20
372.9970859407337
210
0.0
220
0.0
230
-1.0
  0
LINE
  5
5B9
330
2
100
AcDbEntity
  8
STEMPEL
100
AcDbLine
 10
317.284265364729
 20
379.4970859407314
 30
0.0
 11
317.284265364729
 21
372.9970859407349
 31
0.0
  0
LINE
  5
5BA
330
2
100
AcDbEntity
  8
STEMPEL
100
AcDbLine
 10
324.9681188849181
 20
379.4970859407314
 30
0.0
 11
324.9681188849181
 21
372.9970859407349
 31
0.0
  0
LINE
  5
5BB
330
2
100
AcDbEntity
  8
STEMPEL
100
AcDbLine
 10
324.0420645484108
 20
379.4970859407314
 30
0.0
 11
324.0420645484108
 21
372.9970859407349
 31
0.0
  0
LWPOLYLINE
  5
5BC
330
2
100
AcDbEntity
  8
STEMPEL
100
AcDbPolyline
 90
        7
 70
   128
 43
0.0
 10
-327.1216905175867
 20
367.9970859407333
 10
-326.5015999945224
 20
368.6064238425741
 10
-325.969779847739
 20
369.3338541158634
 10
-325.5405340480077
 20
370.159811609807
 10
-325.2254077002104
 20
371.0620811602693
 10
-325.0328765232445
 20
372.0163950945125
 10
-324.9681188849182
 20
372.9970859407337
210
0.0
220
0.0
230
-1.0
  0
LWPOLYLINE
  5
5BD
330
2
100
AcDbEntity
  8
STEMPEL
100
AcDbPolyline
 90
       10
 70
   128
 43
0.0
 10
-328.8574290749847
 20
366.9970859407333
 10
-328.0212498001432
 20
367.08823942266
 10
-327.2104774094406
 20
367.3589302160178
 10
-326.4497468116977
 20
367.8009335180267
 10
-325.7621724211789
 20
368.4008192820195
 10
-325.1686458378105
 20
369.1403602826142
 10
-324.6872010664893
 20
369.9970859407335
 10
-324.3324665629689
 20
370.9449650807795
 10
-324.1152207556348
 20
371.9551968747321
 10
-324.0420645484108
 20
372.9970859407337
210
0.0
220
0.0
230
-1.0
  0
LINE
  5
5BE
330
2
100
AcDbEntity
  8
STEMPEL
100
AcDbLine
 10
329.7823160338885
 20
379.4970859407314
 30
0.0
 11
329.7823160338885
 21
372.9970859407349
 31
0.0
  0
LINE
  5
5BF
330
2
100
AcDbEntity
  8
STEMPEL
100
AcDbLine
 10
333.2804102973219
 20
379.4970859407314
 30
0.0
 11
333.2804102973219
 21
372.9970859407326
 31
0.0
  0
LINE
  5
5C0
330
2
100
AcDbEntity
  8
STEMPEL
100
AcDbLine
 10
334.2741890108598
 20
379.4970859407314
 30
0.0
 11
334.2741890108598
 21
372.9970859407337
 31
0.0
  0
LWPOLYLINE
  5
5C1
330
2
100
AcDbEntity
  8
STEMPEL
100
AcDbPolyline
 90
       10
 70
   128
 43
0.0
 10
114.1095818149625
 20
366.9970859407333
 10
114.9676548112352
 20
367.0632131553059
 10
115.8204670108575
 20
367.3157669050362
 10
116.6412253177745
 20
367.7468126213537
 10
117.4041436841734
 20
368.3428079917936
 10
118.0852532396727
 20
369.0850284235143
 10
118.6631553296184
 20
369.9501553203117
 10
119.1196938040246
 20
370.9110086910277
 10
119.4405254356222
 20
371.93740107274
 10
119.6155705459933
 20
372.9970859407326
  0
LWPOLYLINE
  5
5C2
330
2
100
AcDbEntity
  8
STEMPEL
100
AcDbPolyline
 90
       10
 70
   128
 43
0.0
 10
118.2983002828527
 20
366.9970859407333
 10
119.1344795576943
 20
367.08823942266
 10
119.9452519483969
 20
367.3589302160178
 10
120.7059825461397
 20
367.8009335180267
 10
121.3935569366585
 20
368.4008192820195
 10
121.9870835200269
 20
369.1403602826142
 10
122.4685282913481
 20
369.9970859407335
 10
122.8232627948685
 20
370.9449650807795
 10
123.0405086022027
 20
371.9551968747321
 10
123.1136648094266
 20
372.9970859407337
  0
LWPOLYLINE
  5
5C3
330
2
100
AcDbEntity
  8
STEMPEL
100
AcDbPolyline
 90
        7
 70
   128
 43
0.0
 10
116.0013326487846
 20
367.9970859407337
 10
116.6780345238621
 20
368.6066866685928
 10
117.277583947496
 20
369.3342457525044
 10
117.7838726206457
 20
370.1602156141846
 10
118.1832979126912
 20
371.0624046393877
 10
118.4651283279541
 20
372.0165734075814
 10
118.6217918324556
 20
372.9970859407337
  0
LWPOLYLINE
  5
5C4
330
2
100
AcDbEntity
  8
STEMPEL
100
AcDbPolyline
 90
       18
 70
   128
 43
0.0
 10
-117.6576776626928
 20
379.4970859407314
 10
-117.6743460861696
 20
380.875207324356
 10
-117.72378373343
 20
382.2063984371356
 10
-117.8043070646904
 20
383.4453271623124
 10
-117.9131739544821
 20
384.5498032680817
 10
-118.0466770714444
 20
385.4822151453345
 10
-118.2002701270485
 20
386.2108106258958
 10
-118.3687226940006
 20
386.7107782645291
 10
-118.5462983221695
 20
386.9650922629458
 10
-118.7269498865166
 20
386.9650922629458
 10
-118.9045255146855
 20
386.7107782645291
 10
-119.0729780816376
 20
386.2108106258958
 10
-119.2265711372417
 20
385.4822151453345
 10
-119.360074254204
 20
384.5498032680817
 10
-119.4689411439956
 20
383.4453271623124
 10
-119.5494644752561
 20
382.2063984371356
 10
-119.5989021225165
 20
380.875207324356
 10
-119.6155705459933
 20
379.4970859407314
210
0.0
220
0.0
230
-1.0
  0
LINE
  5
5C5
330
2
100
AcDbEntity
  8
STEMPEL
100
AcDbLine
 10
117.6576776626928
 20
379.4970859407314
 30
0.0
 11
117.6576776626928
 21
372.9970859407337
 31
0.0
  0
LINE
  5
5C6
330
2
100
AcDbEntity
  8
STEMPEL
100
AcDbLine
 10
118.6217918324554
 20
379.4970859407314
 30
0.0
 11
118.6217918324554
 21
372.9970859407337
 31
0.0
  0
LINE
  5
5C7
330
2
100
AcDbEntity
  8
STEMPEL
100
AcDbLine
 10
119.6155705459933
 20
379.4970859407314
 30
0.0
 11
119.6155705459933
 21
372.9970859407326
 31
0.0
  0
LWPOLYLINE
  5
5C8
330
2
100
AcDbEntity
  8
STEMPEL
100
AcDbPolyline
 90
        7
 70
   128
 43
0.0
 10
-118.1397347475739
 20
385.9591399965712
 10
-118.2775637571442
 20
385.2070337596328
 10
-118.3964280341104
 20
384.2843201489179
 10
-118.4927760360116
 20
383.2185688990137
 10
-118.5637289835498
 20
382.0416235621926
 10
-118.6071668755577
 20
380.7886500557907
 10
-118.6217918324553
 20
379.4970859407314
210
0.0
220
0.0
230
-1.0
  0
LINE
  5
5C9
330
2
100
AcDbEntity
  8
STEMPEL
100
AcDbLine
 10
120.9600931767581
 20
367.9970859407333
 30
0.0
 11
125.7742903257295
 21
367.9970859407333
 31
0.0
  0
LINE
  5
5CA
330
2
100
AcDbEntity
  8
STEMPEL
100
AcDbLine
 10
115.0372184790222
 20
367.9970859407333
 30
0.0
 11
116.0013326487848
 21
367.9970859407333
 31
0.0
  0
LWPOLYLINE
  5
5CB
330
2
100
AcDbEntity
  8
STEMPEL
100
AcDbPolyline
 90
       10
 70
   128
 43
0.0
 10
112.151688931662
 20
366.9970859407344
 10
113.0097619279348
 20
367.063213155307
 10
113.862574127557
 20
367.3157669050373
 10
114.683332434474
 20
367.7468126213548
 10
115.446250800873
 20
368.3428079917947
 10
116.1273603563722
 20
369.0850284235154
 10
116.7052624463179
 20
369.9501553203128
 10
117.1618009207241
 20
370.9110086910289
 10
117.4826325523217
 20
371.9374010727411
 10
117.6576776626928
 20
372.9970859407337
  0
LWPOLYLINE
  5
5CC
330
2
100
AcDbEntity
  8
STEMPEL
100
AcDbPolyline
 90
       10
 70
   128
 43
0.0
 10
-334.5976805604625
 20
366.9970859407333
 10
-333.7615012856209
 20
367.08823942266
 10
-332.9507288949183
 20
367.3589302160178
 10
-332.1899982971755
 20
367.8009335180267
 10
-331.5024239066567
 20
368.4008192820195
 10
-330.9088973232883
 20
369.1403602826142
 10
-330.4274525519671
 20
369.9970859407335
 10
-330.0727180484467
 20
370.9449650807795
 10
-329.8554722411125
 20
371.9551968747321
 10
-329.7823160338885
 20
372.9970859407337
210
0.0
220
0.0
230
-1.0
  0
LWPOLYLINE
  5
5CD
330
2
100
AcDbEntity
  8
STEMPEL
100
AcDbPolyline
 90
       18
 70
   128
 43
0.0
 10
335.2383031806224
 20
379.4970859407314
 10
335.2216347571455
 20
380.875207324356
 10
335.1721971098852
 20
382.2063984371356
 10
335.0916737786247
 20
383.4453271623124
 10
334.9828068888331
 20
384.5498032680817
 10
334.8493037718708
 20
385.4822151453345
 10
334.6957107162666
 20
386.2108106258958
 10
334.5272581493146
 20
386.7107782645291
 10
334.3496825211456
 20
386.9650922629458
 10
334.1690309567986
 20
386.9650922629458
 10
333.9914553286297
 20
386.7107782645291
 10
333.8230027616776
 20
386.2108106258958
 10
333.6694097060735
 20
385.4822151453345
 10
333.5359065891112
 20
384.5498032680817
 10
333.4270396993196
 20
383.4453271623124
 10
333.3465163680591
 20
382.2063984371356
 10
333.2970787207988
 20
380.875207324356
 10
333.2804102973219
 20
379.4970859407314
  0
LWPOLYLINE
  5
5CE
330
2
100
AcDbEntity
  8
STEMPEL
100
AcDbPolyline
 90
       10
 70
   128
 43
0.0
 10
-340.7442919116532
 20
366.9970859407344
 10
-339.8862189153804
 20
367.063213155307
 10
-339.0334067157582
 20
367.3157669050373
 10
-338.2126484088412
 20
367.7468126213548
 10
-337.4497300424421
 20
368.3428079917947
 10
-336.768620486943
 20
369.0850284235154
 10
-336.1907183969973
 20
369.9501553203128
 10
-335.7341799225911
 20
370.9110086910289
 10
-335.4133482909935
 20
371.9374010727411
 10
-335.2383031806224
 20
372.9970859407337
210
0.0
220
0.0
230
-1.0
  0
LWPOLYLINE
  5
5CF
330
2
100
AcDbEntity
  8
STEMPEL
100
AcDbPolyline
 90
       10
 70
   128
 43
0.0
 10
-338.7863990283527
 20
366.9970859407333
 10
-337.92832603208
 20
367.0632131553059
 10
-337.0755138324577
 20
367.3157669050362
 10
-336.2547555255407
 20
367.7468126213537
 10
-335.4918371591417
 20
368.3428079917936
 10
-334.8107276036425
 20
369.0850284235143
 10
-334.2328255136968
 20
369.9501553203117
 10
-333.7762870392906
 20
370.9110086910277
 10
-333.455455407693
 20
371.93740107274
 10
-333.2804102973219
 20
372.9970859407326
210
0.0
220
0.0
230
-1.0
  0
LINE
  5
5D0
330
2
100
AcDbEntity
  8
STEMPEL
100
AcDbLine
 10
335.2383031806224
 20
379.4970859407314
 30
0.0
 11
335.2383031806224
 21
372.9970859407337
 31
0.0
  0
LWPOLYLINE
  5
5D1
330
2
100
AcDbEntity
  8
STEMPEL
100
AcDbPolyline
 90
        7
 70
   128
 43
0.0
 10
-336.8946481945306
 20
367.9970859407337
 10
-336.2179463194532
 20
368.6066866685928
 10
-335.6183968958192
 20
369.3342457525044
 10
-335.1121082226697
 20
370.1602156141846
 10
-334.712682930624
 20
371.0624046393877
 10
-334.4308525153611
 20
372.0165734075814
 10
-334.2741890108596
 20
372.9970859407337
210
0.0
220
0.0
230
-1.0
  0
LWPOLYLINE
  5
5D2
330
2
100
AcDbEntity
  8
STEMPEL
100
AcDbPolyline
 90
        7
 70
   128
 43
0.0
 10
334.7562460957413
 20
385.9591399965712
 10
334.618417086171
 20
385.2070337596328
 10
334.4995528092048
 20
384.2843201489179
 10
334.4032048073036
 20
383.2185688990137
 10
334.3322518597655
 20
382.0416235621926
 10
334.2888139677575
 20
380.7886500557907
 10
334.2741890108599
 20
379.4970859407314
  0
LINE
  5
5D3
330
2
100
AcDbEntity
  8
STEMPEL
100
AcDbLine
 10
337.858762364293
 20
367.9970859407333
 30
0.0
 11
336.8946481945304
 21
367.9970859407333
 31
0.0
  0
DIMENSION
  5
FBB
330
2
100
AcDbEntity
  8
BEM
100
AcDbDimension
  2
*D2
 10
58.65162248140086
 20
156.8985417421625
 30
0.0
 11
52.15162248140084
 21
248.9478138414476
 31
0.0
 70
    32
  1
400
 71
     5
 42
184.0985441985701
  3
STANDARD
100
AcDbAlignedDimension
 13
76.44799042165726
 23
340.9970859407327
 33
0.0
 14
182.3767704790713
 24
156.8985417421625
 34
0.0
 50
90.0
100
AcDbRotatedDimension
  0
LINE
  5
1052
330
2
100
AcDbEntity
  8
STEMPEL
100
AcDbLine
 10
81.27641754640364
 20
337.9970859407326
 30
0.0
 11
153.0840293909772
 21
337.9970859407325
 31
0.0
  0
LINE
  5
1053
330
2
100
AcDbEntity
  8
STEMPEL
100
AcDbLine
 10
78.56931076521698
 20
335.289979159546
 30
0.0
 11
157.0337768592833
 21
335.289979159546
 31
0.0
  0
LINE
  5
1054
330
2
100
AcDbEntity
  8
STEMPEL
100
AcDbLine
 10
78.56931076521698
 20
335.289979159546
 30
0.0
 11
81.27641754640364
 21
337.9970859407327
 31
0.0
  0
LINE
  5
1055
330
2
100
AcDbEntity
  8
STEMPEL
100
AcDbLine
 10
76.44799042165743
 20
337.4112995031058
 30
0.0
 11
79.15509720284399
 21
340.1184062842923
 31
0.0
  0
LINE
  5
1056
330
2
100
AcDbEntity
  8
STEMPEL
100
AcDbLine
 10
76.44799042165743
 20
337.4112995031058
 30
0.0
 11
78.56931076521698
 21
335.289979159546
 31
0.0
  0
ARC
  5
1057
330
2
100
AcDbEntity
  8
STEMPEL
100
AcDbCircle
 10
81.27641754640364
 20
337.9970859407327
 30
0.0
 40
3.0
100
AcDbArc
 50
89.99999999999982
 51
135.0
  0
LINE
  5
105D
330
2
100
AcDbEntity
  8
STEMPEL
100
AcDbLine
 10
374.3266700780979
 20
335.289979159546
 30
0.0
 11
295.8622039840317
 21
335.2899791595461
 31
0.0
  0
LINE
  5
1063
330
2
100
AcDbEntity
  8
STEMPEL
100
AcDbLine
 10
299.8119514523377
 20
337.997085940732
 30
0.0
 11
371.6195632969122
 21
337.9970859407314
 31
0.0
  0
LINE
  5
1064
330
2
100
AcDbEntity
  8
STEMPEL
100
AcDbLine
 10
374.3266700780979
 20
335.289979159546
 30
0.0
 11
371.6195632969112
 21
337.9970859407327
 31
0.0
  0
LINE
  5
1065
330
2
100
AcDbEntity
  8
STEMPEL
100
AcDbLine
 10
376.4479904216575
 20
337.4112995031058
 30
0.0
 11
373.7408836404709
 21
340.1184062842923
 31
0.0
  0
LINE
  5
1066
330
2
100
AcDbEntity
  8
STEMPEL
100
AcDbLine
 10
376.4479904216575
 20
337.4112995031058
 30
0.0
 11
374.3266700780979
 21
335.289979159546
 31
0.0
  0
ARC
  5
1067
330
2
100
AcDbEntity
  8
STEMPEL
100
AcDbCircle
 10
371.6195632969112
 20
337.9970859407327
 30
0.0
 40
3.0
100
AcDbArc
 50
45.00000000000001
 51
90.00000000000019
  0
LINE
  5
11E8
102
{ACAD_REACTORS
330
2114
102
}
330
2
100
AcDbEntity
  8
STEMPEL
100
AcDbLine
 10
107.4479904216573
 20
343.9970859407316
 30
0.0
 11
107.4479904216573
 21
340.9970859407325
 31
0.0
  0
LINE
  5
11E9
102
{ACAD_REACTORS
330
2114
102
}
330
2
100
AcDbEntity
  8
STEMPEL
100
AcDbLine
 10
121.4479904216573
 20
343.9970859407317
 30
0.0
 11
121.4479904216573
 21
340.9970859407325
 31
0.0
  0
TEXT
  5
12B4
330
2
100
AcDbEntity
  8
TEXT
 62
     1
100
AcDbText
 10
292.5278640595915
 20
236.4407323380854
 30
0.0
 40
7.0
  1
EDV-Art.Nr. 21519.080X
 41
0.8
100
AcDbText
  0
TEXT
  5
12BF
330
2
100
AcDbEntity
  8
TEXT
100
AcDbText
 10
416.5811541437437
 20
12.14804815338303
 30
0.0
 40
4.0
  1
Diese Zeichnung ist urheberrechtlich geschützt und bleibt unser Eigentum. Sie darf weder ganz noch teilweise vervielfältigt und nicht an Dritte weitergegeben werden.
 50
90.0
 41
0.8
  7
GREEKS
100
AcDbText
  0
TEXT
  5
12CA
330
2
100
AcDbEntity
  8
TEXT
 62
     1
100
AcDbText
 10
291.7898935741781
 20
299.1745133176443
 30
0.0
 40
7.0
  1
EDV-Art.Nr. 21810.125X
 41
0.8
100
AcDbText
  0
TEXT
  5
12CB
330
2
100
AcDbEntity
  8
TEXT
 62
     1
100
AcDbText
 10
291.4339345713414
 20
312.7125266226926
 30
0.0
 40
7.0
  1
Kompressionsdichtung
 41
0.8
100
AcDbText
  0
LINE
  5
12CC
330
2
100
AcDbEntity
  8
TEXT
 62
     2
100
AcDbLine
 10
290.4022484152315
 20
308.6164046838824
 30
0.0
 11
396.9545508726196
 21
308.6164046838824
 31
0.0
  0
LINE
  5
1312
330
2
100
AcDbEntity
  8
TEXT
 62
     2
100
AcDbLine
 10
374.7044106163539
 20
341.9970859407318
 30
0.0
 11
396.9545508726196
 21
308.6164046838824
 31
0.0
  0
TEXT
  5
1327
330
2
100
AcDbEntity
  8
TEXT
 62
     1
100
AcDbText
 10
69.77975586681697
 20
497.7521761531721
 30
0.0
 40
7.0
  1
EDV-Art.Nr. 21905.100X
 41
0.8
100
AcDbText
  0
LINE
  5
1328
330
2
100
AcDbEntity
  8
TEXT
 62
     2
100
AcDbLine
 10
63.69846663390536
 20
507.2644382172208
 30
0.0
 11
170.438065922302
 21
507.2644382172208
 31
0.0
  0
TEXT
  5
1329
330
2
100
AcDbEntity
  8
TEXT
 62
     1
100
AcDbText
 10
69.71934714321855
 20
509.3246999642762
 30
0.0
 40
7.0
  1
Losflansch DN100
 41
0.8
100
AcDbText
  0
LINE
  5
132A
330
2
100
AcDbEntity
  8
TEXT
 62
     2
100
AcDbLine
 10
63.69846663390536
 20
507.2644382172208
 30
0.0
 11
98.70146022729153
 21
349.456226387694
 31
0.0
  0
TEXT
  5
1463
330
2
100
AcDbEntity
  8
TEXT
100
AcDbText
 10
235.1296391125316
 20
52.42800866696653
 30
0.0
 40
5.0
  1
EDV-Art.Nr. 21518.080X
 41
0.8
  7
GREEKS
100
AcDbText
  0
LINE
  5
1500
102
{ACAD_REACTORS
330
1EED
102
}
330
2
100
AcDbEntity
  8
STEMPEL
100
AcDbLine
 10
270.9479904216573
 20
298.7955942931191
 30
0.0
 11
270.9479904216573
 21
268.0710350937459
 31
0.0
  0
LINE
  5
1541
102
{ACAD_REACTORS
330
1EED
102
}
330
2
100
AcDbEntity
  8
STEMPEL
100
AcDbLine
 10
269.4479904216574
 20
298.7955942931191
 30
0.0
 11
269.4479904216574
 21
267.5980340809106
 31
0.0
  0
LINE
  5
1542
330
2
100
AcDbEntity
  8
HILF
100
AcDbLine
 10
184.9537201779723
 20
161.8934434695572
 30
0.0
 11
267.9422606653423
 21
161.8934434695568
 31
0.0
  0
LINE
  5
1543
102
{ACAD_REACTORS
330
1EED
102
}
330
2
100
AcDbEntity
  8
STEMPEL
100
AcDbLine
 10
269.4479904216573
 20
161.8934434695568
 30
0.0
 11
269.0302527089714
 21
157.1186795647222
 31
0.0
  0
LINE
  5
1544
102
{ACAD_REACTORS
330
1EED
102
}
330
2
100
AcDbEntity
  8
STEMPEL
100
AcDbLine
 10
270.9479904216573
 20
161.8279520551937
 30
0.0
 11
270.516691763465
 21
156.8981858339431
 31
0.0
  0
LINE
  5
1546
102
{ACAD_REACTORS
330
1EED
102
}
330
2
100
AcDbEntity
  8
STEMPEL
100
AcDbLine
 10
183.4479904216573
 20
161.8934434695568
 30
0.0
 11
183.8657281343432
 21
157.1186795647224
 31
0.0
  0
LINE
  5
1547
102
{ACAD_REACTORS
330
1EED
330
1FB2
102
}
330
2
100
AcDbEntity
  8
STEMPEL
100
AcDbLine
 10
181.9479904216574
 20
161.8279520551937
 30
0.0
 11
182.3792890798498
 21
156.8981858339431
 31
0.0
  0
LINE
  5
1548
102
{ACAD_REACTORS
330
1EED
102
}
330
2
100
AcDbEntity
  8
STEMPEL
100
AcDbLine
 10
181.9479904216573
 20
298.7955942931191
 30
0.0
 11
181.9479904216573
 21
270.997554011453
 31
0.0
  0
LINE
  5
1549
102
{ACAD_REACTORS
330
1EED
102
}
330
2
100
AcDbEntity
  8
STEMPEL
100
AcDbLine
 10
183.4479904216572
 20
298.7955942931191
 30
0.0
 11
183.4479904216572
 21
271.3549074496656
 31
0.0
  0
SPLINE
  5
155B
102
{ACAD_REACTORS
330
1EED
102
}
330
2
100
AcDbEntity
  8
HILF
100
AcDbSpline
210
0.0
220
0.0
230
1.0
 70
     8
 71
     3
 72
    11
 73
     7
 74
     0
 42
0.0000000001
 43
0.0000000001
 40
3.211732325462887
 40
3.211732325462887
 40
3.211732325462887
 40
3.211732325462887
 40
24.44798847596714
 40
50.62517480269413
 40
76.0971449749253
 40
94.10661041895762
 40
94.10661041895762
 40
94.10661041895762
 40
94.10661041895762
 10
181.9479904216573
 20
270.997554011453
 30
0.0
 10
188.9092628024702
 20
272.6698957673126
 30
0.0
 10
204.4618896215352
 20
276.0326152111657
 30
0.0
 10
228.6425873432945
 20
271.5077435677204
 30
0.0
 10
251.3320872560633
 20
263.4578394052347
 30
0.0
 10
265.221260414444
 20
266.1986192332673
 30
0.0
 10
270.9479904216506
 20
268.0710350937437
 30
0.0
  0
SPLINE
  5
155C
102
{ACAD_REACTORS
330
1EED
102
}
330
2
100
AcDbEntity
  8
HILF
100
AcDbSpline
210
0.0
220
0.0
230
1.0
 70
     8
 71
     3
 72
    11
 73
     7
 74
     0
 42
0.0000000001
 43
0.0000000001
 40
3.211732325462887
 40
3.211732325462887
 40
3.211732325462887
 40
3.211732325462887
 40
24.44798847596714
 40
50.62517480269413
 40
76.0971449749253
 40
94.10661041895764
 40
94.10661041895764
 40
94.10661041895764
 40
94.10661041895764
 10
181.9479904216573
 20
263.9338386563203
 30
0.0
 10
188.9092628024702
 20
265.60618041218
 30
0.0
 10
204.4618896215352
 20
268.968899856033
 30
0.0
 10
228.6425873432945
 20
264.4440282125877
 30
0.0
 10
251.3320872560633
 20
256.394124050102
 30
0.0
 10
265.221260414444
 20
259.1349038781347
 30
0.0
 10
270.9479904216506
 20
261.007319738611
 30
0.0
  0
LINE
  5
155D
102
{ACAD_REACTORS
330
1EED
102
}
330
2
100
AcDbEntity
  8
STEMPEL
100
AcDbLine
 10
181.9479904216573
 20
263.9338386563203
 30
0.0
 11
181.9479904216574
 21
161.8279520551937
 31
0.0
  0
LINE
  5
155E
102
{ACAD_REACTORS
330
1EED
102
}
330
2
100
AcDbEntity
  8
STEMPEL
100
AcDbLine
 10
183.4479904216572
 20
264.2911920945329
 30
0.0
 11
183.4479904216573
 21
161.8934434695568
 31
0.0
  0
LINE
  5
155F
102
{ACAD_REACTORS
330
1EED
102
}
330
2
100
AcDbEntity
  8
STEMPEL
100
AcDbLine
 10
270.9479904216573
 20
261.0073197386132
 30
0.0
 11
270.9479904216573
 21
161.8279520551937
 31
0.0
  0
LINE
  5
1560
102
{ACAD_REACTORS
330
1EED
102
}
330
2
100
AcDbEntity
  8
STEMPEL
100
AcDbLine
 10
269.4479904216574
 20
260.5343187257779
 30
0.0
 11
269.4479904216573
 21
161.8934434695568
 31
0.0
  0
DIMENSION
  5
1585
330
2
100
AcDbEntity
  8
BEM
100
AcDbDimension
  2
*D5
 10
270.9479904216573
 20
138.5354321486591
 30
0.0
 11
226.4479904216573
 21
145.0354321486591
 31
0.0
 70
    32
  1
%%c<>
 71
     5
 42
88.99999999999989
  3
STANDARD
100
AcDbAlignedDimension
 13
181.9479904216574
 23
161.8279520551937
 33
0.0
 14
270.9479904216573
 24
161.8279520551937
 34
0.0
100
AcDbRotatedDimension
  0
HATCH
  5
1688
330
2
100
AcDbEntity
  8
SCHRAFF
100
AcDbHatch
 10
0.0
 20
0.0
 30
0.0
210
0.0
220
0.0
230
1.0
  2
_USER
 70
     0
 71
     0
 91
        7
 92
        7
 72
     1
 73
     1
 93
       40
 10
201.1863525940067
 20
455.9970859407313
 42
0.2679491924311371
 10
203.3514161034679
 20
457.2470859407314
 42
-0.2679491924310875
 10
203.7844288053601
 20
457.4970859407313
 42
0.0
 10
203.9844288053603
 20
457.4970859407313
 42
-0.2679491924311275
 10
204.4174415072525
 20
457.2470859407314
 42
0.2679491924311328
 10
206.5825050167136
 20
455.9970859407313
 42
0.0
 10
208.6413525940065
 20
455.9970859407313
 42
0.2679491924311431
 10
210.8064161034676
 20
457.2470859407315
 42
-0.2679491924310623
 10
211.2394288053598
 20
457.4970859407313
 42
0.0
 10
211.4394288053602
 20
457.4970859407313
 42
-0.2679491924311112
 10
211.8724415072524
 20
457.2470859407314
 42
0.2679491924311312
 10
214.0375050167135
 20
455.9970859407313
 42
0.0
 10
220.4913525940074
 20
455.9970859407314
 42
0.2679491924310906
 10
222.6564161034683
 20
457.2470859407312
 42
-0.2679491924312358
 10
223.0894288053606
 20
457.4970859407313
 42
0.0
 10
226.4479904216575
 20
457.4970859407314
 42
0.0
 10
226.4479904216575
 20
458.4970859407314
 42
0.0
 10
223.0894288053601
 20
458.4970859407314
 42
0.2679491924310655
 10
221.7903906996837
 20
457.7470859407314
 42
-0.2679491924310798
 10
220.4913525940074
 20
456.9970859407313
 42
0.0
 10
214.0375050167131
 20
456.9970859407313
 42
-0.267949192431115
 10
212.7384669110365
 20
457.7470859407313
 42
0.2859076546238473
 10
211.3394288053599
 20
458.4937488954409
 42
0.285907654623854
 10
209.9403906996833
 20
457.7470859407314
 42
-0.2679491924311593
 10
208.6413525940064
 20
456.9970859407313
 42
0.0
 10
206.5825050167141
 20
456.9970859407313
 42
-0.2679491924311477
 10
205.2834669110374
 20
457.7470859407315
 42
0.2859076546238853
 10
203.8844288053605
 20
458.4937488954409
 42
0.2859076546239334
 10
202.4853906996835
 20
457.7470859407314
 42
-0.2679491924311405
 10
201.1863525940067
 20
456.9970859407313
 42
0.0
 10
146.4479904216573
 20
456.9970859407309
 42
0.1316524975841574
 10
143.4479904217234
 20
456.1932383634761
 42
0.0
 10
119.4152957999602
 20
442.1741665007814
 42
0.2662608607109134
 10
116.4479904216573
 20
436.9970279734162
 42
0.0
 10
116.4479904216573
 20
431.997085940733
 42
0.0
 10
117.4479904216574
 20
431.997085940733
 42
0.0
 10
117.4479904216574
 20
436.9970279734162
 42
-0.2667503951500906
 10
119.9286368535303
 20
441.3159233876125
 42
0.0
 10
143.9074907464815
 20
455.303576553798
 42
-0.1340385084112991
 10
146.4479904216573
 20
455.9970859407309
 42
0.0
 97
        0
 92
        7
 72
     1
 73
     1
 93
       39
 10
251.8875050167141
 20
456.9970859407313
 42
-0.2679491924311617
 10
250.5884669110374
 20
457.7470859407315
 42
0.2859076546238872
 10
249.1894288053605
 20
458.4937488954409
 42
0.285907654623839
 10
247.7903906996839
 20
457.7470859407314
 42
-0.2679491924310434
 10
246.4913525940077
 20
456.9970859407313
 42
0.0
 10
240.0375050167137
 20
456.9970859407313
 42
-0.2679491924311347
 10
238.738466911037
 20
457.7470859407314
 42
0.2859076546238899
 10
237.3394288053602
 20
458.4937488954409
 42
0.3607372083888074
 10
235.7870600505323
 20
457.3720859407313
 42
-0.3419987131197461
 10
235.3029371322561
 20
456.9970859407313
 42
0.0
 10
235.114187939657
 20
456.9970859407313
 42
-0.3419987131196471
 10
234.6300650213811
 20
457.3720859407313
 42
0.3419987131196487
 10
233.1776962665533
 20
458.4970859407313
 42
0.0
 10
226.4479904216575
 20
458.4970859407313
 42
0.0
 10
226.4479904216575
 20
457.4970859407314
 42
0.0
 10
233.1776962665537
 20
457.4970859407313
 42
-0.3419987131196405
 10
233.6618191848296
 20
457.1220859407313
 42
0.3596757619904585
 10
235.2085625359567
 20
456.0000577394027
 42
0.3596757619904935
 10
236.755305887084
 20
457.1220859407314
 42
-0.3419987131196223
 10
237.2394288053599
 20
457.4970859407313
 42
0.0
 10
237.4394288053602
 20
457.4970859407313
 42
-0.2679491924311338
 10
237.8724415072524
 20
457.2470859407314
 42
0.2679491924311211
 10
240.0375050167136
 20
455.9970859407314
 42
0.0
 10
246.4913525940077
 20
455.9970859407314
 42
0.2679491924310644
 10
248.6564161034685
 20
457.247085940731
 42
-0.267949192431294
 10
249.0894288053609
 20
457.4970859407313
 42
0.0
 10
249.2894288053601
 20
457.4970859407313
 42
-0.2679491924311589
 10
249.7224415072524
 20
457.2470859407313
 42
0.2679491924311051
 10
251.8875050167134
 20
455.9970859407315
 42
0.0
 10
306.4479904216576
 20
455.9970859407318
 42
-0.1340385084113146
 10
308.9884900968334
 20
455.303576553798
 42
0.0
 10
332.9673439897846
 20
441.3159233876125
 42
-0.2667503951500871
 10
335.4479904216574
 20
436.9970279734163
 42
0.0
 10
335.4479904216575
 20
431.9970859407331
 42
0.0
 10
336.4479904216576
 20
431.997085940733
 42
0.0
 10
336.4479904216576
 20
436.9970279734162
 42
0.2662608607095104
 10
333.4806850433819
 20
442.1741665007655
 42
0.0
 10
309.447990421596
 20
456.1932383634735
 42
0.131652497584389
 10
306.4479904216576
 20
456.9970859407318
 42
0.0
 97
        0
 92
        7
 72
     1
 73
     1
 93
        6
 10
117.4479904216574
 20
391.9970859407331
 42
0.0
 10
116.4479904216573
 20
391.9970859407331
 42
0.0
 10
116.4479904216573
 20
372.9970859407323
 42
-0.2360679774997897
 10
114.4479904216573
 20
368.9970859407323
 42
0.0
 10
114.4479904216573
 20
367.8009335180256
 42
0.2679491924311283
 10
117.4479904216574
 20
372.9970859407323
 42
0.0
 97
        0
 92
        7
 72
     1
 73
     1
 93
        6
 10
96.44799042165722
 20
367.9970859407318
 42
0.0
 10
96.44799042165711
 20
366.9970859407347
 42
0.0
 10
111.4479904216573
 20
366.9970859407346
 42
0.1316524975873934
 10
114.4479904216573
 20
367.8009335180279
 42
0.0
 10
114.4479904216573
 20
368.9970859407322
 42
-0.1622776601683657
 10
111.4479904216575
 20
367.9970859407323
 42
0.0
 97
        0
 92
        7
 72
     0
 73
     1
 93
        4
 10
335.4479904216574
 20
384.9227625784407
 10
336.4479904216576
 20
388.96324896196
 10
336.4479904216576
 20
391.9970859407331
 10
335.4479904216574
 20
391.9970859407331
 97
        0
 92
        7
 72
     1
 73
     1
 93
        8
 10
336.4479904216575
 20
388.9632489619598
 42
0.0
 10
335.4479904216574
 20
384.9227625784409
 42
0.0
 10
335.4479904216574
 20
372.9970859407323
 42
0.4142135623731057
 10
341.4479904216574
 20
366.997085940732
 42
0.0
 10
344.4479904216574
 20
366.997085940732
 42
0.0
 10
344.4479904216573
 20
367.9970859407322
 42
0.0
 10
341.4479904216572
 20
367.9970859407323
 42
-0.4142135623730752
 10
336.4479904216576
 20
372.9970859407323
 42
0.0
 97
        0
 92
        7
 72
     0
 73
     1
 93
        4
 10
352.4479904216573
 20
367.9970859407319
 10
352.4479904216573
 20
366.9970859407319
 10
356.4479904216573
 20
366.9970859407318
 10
356.4479904216572
 20
367.9970859407318
 97
        0
 75
     0
 76
     0
 52
45.0
 41
2.0
 77
     0
 78
     1
 53
45.0
 43
0.0
 44
0.0
 45
-1.414213562373094
 46
1.414213562373095
 79
     0
 47
0.3507853058519117
 98
        7
 10
192.806733642783
 20
456.340928588909
 10
260.9100294782211
 20
456.6917145978615
 10
116.9803850932876
 20
387.9377925935616
 10
103.6405638125115
 20
367.5922446594848
 10
335.6832386641681
 20
390.3932904577634
 10
336.0342860220576
 20
375.3095214620657
 10
354.288778443652
 20
367.5922446594848
  0
TEXT
  5
1689
330
2
100
AcDbEntity
  8
TEXT
 62
     1
100
AcDbText
 10
218.2042230662479
 20
220.8638715853537
 30
0.0
 40
7.0
  1
DN80
 50
90.0
 41
0.8
100
AcDbText
  0
TEXT
  5
18DE
330
2
100
AcDbEntity
  8
VOLL
100
AcDbText
 10
532.4279306537341
 20
145.8685329144674
 30
0.0
 40
1.8
  1

  7
GREEKS
100
AcDbText
  0
LINE
  5
18EB
102
{ACAD_REACTORS
330
1FB2
102
}
330
2
100
AcDbEntity
  8
STEMPEL
100
AcDbLine
 10
281.4479904216573
 20
214.8934434695569
 30
0.0
 11
270.9479904216573
 21
214.893443469557
 31
0.0
  0
LINE
  5
18EC
102
{ACAD_REACTORS
330
1FB2
102
}
330
2
100
AcDbEntity
  8
STEMPEL
100
AcDbLine
 10
272.9479904216574
 20
154.893443469557
 30
0.0
 11
179.9479904216572
 21
154.8934434695569
 31
0.0
  0
LINE
  5
18ED
102
{ACAD_REACTORS
330
1EED
330
1FB2
102
}
330
2
100
AcDbEntity
  8
STEMPEL
100
AcDbLine
 10
270.9479904216573
 20
212.8934434695569
 30
0.0
 11
270.9479904216573
 21
157.3934434695569
 31
0.0
  0
LINE
  5
18EE
102
{ACAD_REACTORS
330
1EED
330
1FB2
102
}
330
2
100
AcDbEntity
  8
STEMPEL
100
AcDbLine
 10
270.4479904216573
 20
156.8934434695569
 30
0.0
 11
269.4479904216572
 21
156.8934434695569
 31
0.0
  0
LINE
  5
18EF
102
{ACAD_REACTORS
330
1FB2
102
}
330
2
100
AcDbEntity
  8
STEMPEL
100
AcDbLine
 10
268.9479904216573
 20
161.8934434695569
 30
0.0
 11
268.9479904216572
 21
157.3934434695569
 31
0.0
  0
LINE
  5
18F0
102
{ACAD_REACTORS
330
1FB2
102
}
330
2
100
AcDbEntity
  8
STEMPEL
100
AcDbLine
 10
266.9479904216573
 20
161.8934434695569
 30
0.0
 11
266.9479904216573
 21
154.8934434695569
 31
0.0
  0
LINE
  5
18F2
102
{ACAD_REACTORS
330
1FB2
102
}
330
2
100
AcDbEntity
  8
STEMPEL
100
AcDbLine
 10
272.9479904216573
 20
172.7539153738762
 30
0.0
 11
272.9479904216573
 21
154.8934434695569
 31
0.0
  0
LINE
  5
18FF
102
{ACAD_REACTORS
330
1FB2
102
}
330
2
100
AcDbEntity
  8
STEMPEL
100
AcDbLine
 10
183.9479904216573
 20
161.8934434695569
 30
0.0
 11
268.9479904216573
 21
161.8934434695569
 31
0.0
  0
ARC
  5
1901
102
{ACAD_REACTORS
330
1EED
330
1FB2
102
}
330
2
100
AcDbEntity
  8
STEMPEL
100
AcDbCircle
 10
270.4479904216573
 20
157.3934434695569
 30
0.0
 40
0.5
100
AcDbArc
 50
270.0
 51
0.0
  0
ARC
  5
1902
102
{ACAD_REACTORS
330
1EED
330
1FB2
102
}
330
2
100
AcDbEntity
  8
STEMPEL
100
AcDbCircle
 10
269.4479904216572
 20
157.3934434695569
 30
0.0
 40
0.5
100
AcDbArc
 50
180.0
 51
270.0
  0
LINE
  5
1909
102
{ACAD_REACTORS
330
1FB2
102
}
330
2
100
AcDbEntity
  8
STEMPEL
100
AcDbLine
 10
272.9479904216573
 20
214.8934434695569
 30
0.0
 11
270.9479904216573
 21
212.8934434695569
 31
0.0
  0
LINE
  5
1932
102
{ACAD_REACTORS
330
1FB2
102
}
330
2
100
AcDbEntity
  8
STEMPEL
100
AcDbLine
 10
273.0209028486582
 20
191.9615483336585
 30
0.0
 11
273.2365651525598
 21
195.1208171342636
 31
0.0
  0
ARC
  5
1934
330
2
100
AcDbEntity
  8
STEMPEL
100
AcDbCircle
 10
274.0030487913998
 20
202.8934434695568
 30
0.0
 40
1.0
100
AcDbArc
 50
176.9306392463219
 51
270.0
  0
LINE
  5
1935
102
{ACAD_REACTORS
330
1FB2
102
}
330
2
100
AcDbEntity
  8
STEMPEL
100
AcDbLine
 10
273.0044833448927
 20
202.9469883016301
 30
0.0
 11
273.2810298951362
 21
208.104345580224
 31
0.0
  0
LINE
  5
1936
102
{ACAD_REACTORS
330
1FB2
102
}
330
2
100
AcDbEntity
  8
STEMPEL
100
AcDbLine
 10
273.0209028486583
 20
180.9615483336585
 30
0.0
 11
273.2365651525598
 21
184.1208171342634
 31
0.0
  0
LINE
  5
1937
102
{ACAD_REACTORS
330
1FB2
102
}
330
2
100
AcDbEntity
  8
STEMPEL
100
AcDbLine
 10
281.4479904216573
 20
190.3934434695569
 30
0.0
 11
281.4479904216573
 21
190.8934434695569
 31
0.0
  0
LINE
  5
1938
102
{ACAD_REACTORS
330
1FB2
102
}
330
2
100
AcDbEntity
  8
STEMPEL
100
AcDbLine
 10
281.4479904216573
 20
179.3934434695569
 30
0.0
 11
281.4479904216573
 21
179.8934434695569
 31
0.0
  0
LINE
  5
1939
102
{ACAD_REACTORS
330
1FB2
102
}
330
2
100
AcDbEntity
  8
STEMPEL
100
AcDbLine
 10
281.4479904216573
 20
201.3934434695569
 30
0.0
 11
281.4479904216573
 21
201.8934434695569
 31
0.0
  0
LINE
  5
193A
102
{ACAD_REACTORS
330
1FB2
102
}
330
2
100
AcDbEntity
  8
STEMPEL
100
AcDbLine
 10
281.4479904216573
 20
214.8934434695569
 30
0.0
 11
281.4479904216573
 21
214.3934434695569
 31
0.0
  0
LINE
  5
193C
102
{ACAD_REACTORS
330
1FB2
102
}
330
2
100
AcDbEntity
  8
STEMPEL
100
AcDbLine
 10
281.4479904216573
 20
179.8934434695569
 30
0.0
 11
274.0185810169499
 21
179.8934434695568
 31
0.0
  0
LINE
  5
193D
102
{ACAD_REACTORS
330
1FB2
102
}
330
2
100
AcDbEntity
  8
STEMPEL
100
AcDbLine
 10
281.4479904216573
 20
179.3934434695569
 30
0.0
 11
274.4479904216573
 21
175.3519915852295
 31
0.0
  0
LINE
  5
193E
102
{ACAD_REACTORS
330
1FB2
102
}
330
2
100
AcDbEntity
  8
STEMPEL
100
AcDbLine
 10
281.4479904216573
 20
190.3934434695569
 30
0.0
 11
274.7295996574345
 21
186.5145787533116
 31
0.0
  0
LINE
  5
193F
102
{ACAD_REACTORS
330
1FB2
102
}
330
2
100
AcDbEntity
  8
STEMPEL
100
AcDbLine
 10
281.4479904216573
 20
190.8934434695569
 30
0.0
 11
274.0185810169498
 21
190.8934434695567
 31
0.0
  0
LINE
  5
1940
102
{ACAD_REACTORS
330
1FB2
102
}
330
2
100
AcDbEntity
  8
STEMPEL
100
AcDbLine
 10
281.4479904216573
 20
201.8934434695569
 30
0.0
 11
274.0030487913998
 21
201.8934434695568
 31
0.0
  0
LINE
  5
1941
102
{ACAD_REACTORS
330
1FB2
102
}
330
2
100
AcDbEntity
  8
STEMPEL
100
AcDbLine
 10
281.4479904216573
 20
201.3934434695569
 30
0.0
 11
274.7295996574346
 21
197.5145787533118
 31
0.0
  0
LINE
  5
1942
102
{ACAD_REACTORS
330
1FB2
102
}
330
2
100
AcDbEntity
  8
STEMPEL
100
AcDbLine
 10
281.4479904216573
 20
214.3934434695569
 30
0.0
 11
274.7767262346579
 21
210.5417872953577
 31
0.0
  0
LINE
  5
1963
102
{ACAD_REACTORS
330
1FB2
102
}
330
2
100
AcDbEntity
  8
BEM
100
AcDbLine
 10
272.9479904216574
 20
201.8934434695569
 30
0.0
 11
273.0044833448927
 21
202.9469883016301
 31
0.0
  0
LINE
  5
196C
102
{ACAD_REACTORS
330
1FB2
102
}
330
2
100
AcDbEntity
  8
STEMPEL
100
AcDbLine
 10
179.9479904216572
 20
214.8934434695569
 30
0.0
 11
181.9479904216573
 21
212.8934434695569
 31
0.0
  0
ARC
  5
196D
102
{ACAD_REACTORS
330
1EED
330
1FB2
102
}
330
2
100
AcDbEntity
  8
STEMPEL
100
AcDbCircle
 10
183.4479904216573
 20
157.393443469557
 30
0.0
 40
0.5
100
AcDbArc
 50
270.0
 51
0.0
  0
ARC
  5
196E
102
{ACAD_REACTORS
330
1EED
330
1FB2
102
}
330
2
100
AcDbEntity
  8
STEMPEL
100
AcDbCircle
 10
182.4479904216573
 20
157.393443469557
 30
0.0
 40
0.5
100
AcDbArc
 50
180.0
 51
270.0
  0
LINE
  5
196F
102
{ACAD_REACTORS
330
1FB2
102
}
330
2
100
AcDbEntity
  8
STEMPEL
100
AcDbLine
 10
185.9479904216573
 20
161.893443469557
 30
0.0
 11
185.9479904216573
 21
154.8934434695569
 31
0.0
  0
LINE
  5
1970
102
{ACAD_REACTORS
330
1FB2
102
}
330
2
100
AcDbEntity
  8
STEMPEL
100
AcDbLine
 10
183.9479904216573
 20
161.893443469557
 30
0.0
 11
183.9479904216573
 21
157.393443469557
 31
0.0
  0
LINE
  5
1971
102
{ACAD_REACTORS
330
1EED
330
1FB2
102
}
330
2
100
AcDbEntity
  8
STEMPEL
100
AcDbLine
 10
182.4479904216573
 20
156.8934434695569
 30
0.0
 11
183.4479904216573
 21
156.8934434695569
 31
0.0
  0
LINE
  5
1972
102
{ACAD_REACTORS
330
1FB2
102
}
330
2
100
AcDbEntity
  8
STEMPEL
100
AcDbLine
 10
181.9479904216573
 20
212.8934434695569
 30
0.0
 11
181.9479904216573
 21
157.393443469557
 31
0.0
  0
DIMENSION
  5
1B73
330
2
100
AcDbEntity
  8
BEM
100
AcDbDimension
  2
*D6
 10
181.9479904216573
 20
242.3163230024655
 30
0.0
 11
159.614657088324
 21
248.8163230024655
 31
0.0
 70
    32
 71
     5
 42
1.499999999999943
  3
STANDARD
100
AcDbAlignedDimension
 13
183.4479904216572
 23
242.3163230024655
 33
0.0
 14
181.9479904216573
 24
242.3163230024655
 34
0.0
 50
180.0
100
AcDbRotatedDimension
  0
LINE
  5
1B93
102
{ACAD_REACTORS
330
1FB2
102
}
330
2
100
AcDbEntity
  8
STEMPEL
100
AcDbLine
 10
181.9479904216573
 20
214.8934434695569
 30
0.0
 11
171.4479904216573
 21
214.8934434695569
 31
0.0
  0
TEXT
  5
1B9D
330
2
100
AcDbEntity
  8
TEXT
 62
     1
100
AcDbText
 10
292.5278640595915
 20
176.1183211679815
 30
0.0
 40
7.0
  1
EDV-Art.Nr. 00940.080X
 41
0.8
100
AcDbText
  0
TEXT
  5
1B9E
330
2
100
AcDbEntity
  8
TEXT
 62
     1
100
AcDbText
 10
292.5278640595915
 20
188.8113771234107
 30
0.0
 40
7.0
  1
Dichtelement DN80/100
 41
0.8
100
AcDbText
  0
LINE
  5
1B9F
330
2
100
AcDbEntity
  8
TEXT
 62
     2
100
AcDbLine
 10
291.0654105204226
 20
185.8248366313576
 30
0.0
 11
397.6534978378222
 21
185.8248366313576
 31
0.0
  0
LINE
  5
1BA0
330
2
100
AcDbEntity
  8
TEXT
 62
     2
100
AcDbLine
 10
291.0654105204226
 20
185.8248366313576
 30
0.0
 11
273.4235780429141
 21
177.0941709400533
 31
0.0
  0
TEXT
  5
1DC9
330
2
100
AcDbEntity
  8
VOLL
100
AcDbText
 10
427.6116084858825
 20
1142.229291071976
 30
0.0
 40
1.8
  1

  7
GREEKS
100
AcDbText
  0
TEXT
  5
1DCA
330
2
100
AcDbEntity
  8
VOLL
100
AcDbText
 10
1096.840670511832
 20
1113.794107528354
 30
0.0
 40
1.8
  1

  7
GREEKS
100
AcDbText
  0
LINE
  5
1DD7
330
2
100
AcDbEntity
  8
HILF
100
AcDbLine
 10
268.2730516118198
 20
302.7226641038945
 30
0.0
 11
184.6229292314951
 21
302.7226641038946
 31
0.0
  0
LINE
  5
1DE2
330
2
100
AcDbEntity
  8
STEMPEL
100
AcDbLine
 10
177.4479904216581
 20
319.1184062842923
 30
0.0
 11
275.4479904216571
 21
319.1184062842921
 31
0.0
  0
LINE
  5
1DE3
102
{ACAD_REACTORS
330
1EED
102
}
330
2
100
AcDbEntity
  8
STEMPEL
100
AcDbLine
 10
174.6195632969117
 20
317.704192721919
 30
0.0
 11
181.6393333727477
 21
305.5455942931191
 31
0.0
  0
LINE
  5
1DE4
102
{ACAD_REACTORS
330
1E8E
102
}
330
2
100
AcDbEntity
  8
STEMPEL
100
AcDbLine
 10
155.2053497345369
 20
337.1184062842924
 30
0.0
 11
175.3266700780983
 21
316.9970859407324
 31
0.0
  0
LINE
  5
1DE5
330
2
100
AcDbEntity
  8
STEMPEL
100
AcDbLine
 10
155.5693107652159
 20
340.9970859407326
 30
0.0
 11
177.4479904216579
 21
319.1184062842921
 31
0.0
  0
LINE
  5
1DE6
102
{ACAD_REACTORS
330
1E8E
330
1EED
102
}
330
2
100
AcDbEntity
  8
STEMPEL
100
AcDbLine
 10
173.3205251912349
 20
316.954192721919
 30
0.0
 11
180.3402952670708
 21
304.7955942931189
 31
0.0
  0
LINE
  5
1DE7
330
2
100
AcDbEntity
  8
STEMPEL
100
AcDbLine
 10
177.4479904216579
 20
319.1184062842921
 30
0.0
 11
175.3266700780983
 21
316.9970859407324
 31
0.0
  0
LINE
  5
1DE8
102
{ACAD_REACTORS
330
1E8E
330
1EED
102
}
330
2
100
AcDbEntity
  8
STEMPEL
100
AcDbLine
 10
174.6195632969117
 20
317.704192721919
 30
0.0
 11
173.3205251912349
 21
316.954192721919
 31
0.0
  0
LINE
  5
1DE9
330
2
100
AcDbEntity
  8
STEMPEL
100
AcDbLine
 10
175.3266700780982
 20
316.9970859407324
 30
0.0
 11
277.5693107652165
 21
316.9970859407324
 31
0.0
  0
ARC
  5
1DEB
330
2
100
AcDbEntity
  8
STEMPEL
100
AcDbCircle
 10
153.0840293909772
 20
334.9970859407326
 30
0.0
 40
3.0
100
AcDbArc
 50
45.00000000000345
 51
90.0
  0
ARC
  5
1DEC
330
2
100
AcDbEntity
  8
STEMPEL
100
AcDbCircle
 10
153.0840293909772
 20
334.9970859407326
 30
0.0
 40
6.0
100
AcDbArc
 50
45.00000000000345
 51
90.0
  0
ARC
  5
1DED
102
{ACAD_REACTORS
330
1EED
102
}
330
2
100
AcDbEntity
  8
STEMPEL
100
AcDbCircle
 10
169.9479904216574
 20
298.7955942931191
 30
0.0
 40
12.0
100
AcDbArc
 50
0.0
 51
29.9999999999975
  0
ARC
  5
1DEE
102
{ACAD_REACTORS
330
1EED
102
}
330
2
100
AcDbEntity
  8
STEMPEL
100
AcDbCircle
 10
169.9479904216574
 20
298.7955942931191
 30
0.0
 40
13.5
100
AcDbArc
 50
0.0
 51
29.9999999999975
  0
LINE
  5
1DEF
102
{ACAD_REACTORS
330
1E8E
330
1EED
102
}
330
2
100
AcDbEntity
  8
STEMPEL
100
AcDbLine
 10
279.57545565208
 20
316.954192721919
 30
0.0
 11
272.555685576244
 21
304.7955942931189
 31
0.0
  0
LINE
  5
1DF0
102
{ACAD_REACTORS
330
1E8E
330
1EED
102
}
330
2
100
AcDbEntity
  8
STEMPEL
100
AcDbLine
 10
278.2764175464032
 20
317.704192721919
 30
0.0
 11
279.57545565208
 21
316.954192721919
 31
0.0
  0
LINE
  5
1DF1
102
{ACAD_REACTORS
330
1E8E
102
}
330
2
100
AcDbEntity
  8
STEMPEL
100
AcDbLine
 10
297.690631108778
 20
337.1184062842924
 30
0.0
 11
277.5693107652165
 21
316.9970859407324
 31
0.0
  0
LINE
  5
1DF2
330
2
100
AcDbEntity
  8
STEMPEL
100
AcDbLine
 10
297.3266700780989
 20
340.9970859407326
 30
0.0
 11
275.447990421657
 21
319.1184062842921
 31
0.0
  0
ARC
  5
1DF3
330
2
100
AcDbEntity
  8
STEMPEL
100
AcDbCircle
 10
299.8119514523377
 20
334.9970859407326
 30
0.0
 40
6.0
100
AcDbArc
 50
90.0
 51
134.9999999999965
  0
ARC
  5
1DF4
330
2
100
AcDbEntity
  8
STEMPEL
100
AcDbCircle
 10
299.8119514523377
 20
334.9970859407326
 30
0.0
 40
3.0
100
AcDbArc
 50
90.0
 51
134.9999999999965
  0
LINE
  5
1DF5
330
2
100
AcDbEntity
  8
STEMPEL
100
AcDbLine
 10
275.447990421657
 20
319.1184062842921
 30
0.0
 11
277.5693107652165
 21
316.9970859407324
 31
0.0
  0
ARC
  5
1DF6
102
{ACAD_REACTORS
330
1EED
102
}
330
2
100
AcDbEntity
  8
STEMPEL
100
AcDbCircle
 10
282.9479904216574
 20
298.7955942931191
 30
0.0
 40
13.5
100
AcDbArc
 50
150.0000000000025
 51
180.0
  0
ARC
  5
1DF7
102
{ACAD_REACTORS
330
1EED
102
}
330
2
100
AcDbEntity
  8
STEMPEL
100
AcDbCircle
 10
282.9479904216574
 20
298.7955942931191
 30
0.0
 40
12.0
100
AcDbArc
 50
150.0000000000025
 51
180.0
  0
LINE
  5
1DF8
102
{ACAD_REACTORS
330
1EED
102
}
330
2
100
AcDbEntity
  8
STEMPEL
100
AcDbLine
 10
278.2764175464032
 20
317.704192721919
 30
0.0
 11
271.2566474705671
 21
305.5455942931191
 31
0.0
  0
ARC
  5
1E7B
102
{ACAD_REACTORS
330
1E8E
102
}
330
2
100
AcDbEntity
  8
SCHRAFF
100
AcDbCircle
 10
174.6195632969116
 20
317.704192721919
 30
0.0
 40
2.0
100
AcDbArc
 50
135.0000000000017
 51
251.4096221092632
  0
ARC
  5
1E7C
102
{ACAD_REACTORS
330
1E8E
102
}
330
2
100
AcDbEntity
  8
SCHRAFF
100
AcDbCircle
 10
278.2764175464032
 20
317.704192721919
 30
0.0
 40
2.0
100
AcDbArc
 50
288.590377890736
 51
44.99999999999654
  0
HATCH
  5
1E8E
330
2
100
AcDbEntity
  8
SCHRAFF
100
AcDbHatch
 10
0.0
 20
0.0
 30
0.0
210
0.0
220
0.0
230
1.0
  2
_USER
 70
     0
 71
     1
 91
        2
 92
        7
 72
     1
 73
     1
 93
        4
 10
174.6195632969116
 20
317.704192721919
 42
0.0
 10
173.2053497345385
 20
319.1184062842921
 42
0.556647852020162
 10
173.9819630190009
 20
315.8085487981801
 42
0.0
 10
173.3205251912348
 20
316.954192721919
 42
0.0
 97
        4
330
1DE4
330
1E7B
330
1DE6
330
1DE8
 92
        7
 72
     1
 73
     1
 93
        4
 10
279.6906311087763
 20
319.118406284292
 42
0.0
 10
278.2764175464033
 20
317.704192721919
 42
0.0
 10
279.57545565208
 20
316.954192721919
 42
0.0
 10
278.914017824314
 20
315.8085487981801
 42
0.5566478520201485
 97
        4
330
1DF1
330
1DF0
330
1DEF
330
1E7C
 75
     0
 76
     0
 52
45.0
 41
0.1
 77
     0
 78
     1
 53
45.0
 43
0.0
 44
0.0
 45
-0.0707106781186548
 46
0.0707106781186548
 79
     0
 47
0.1690929400758288
 98
        2
 10
173.0493820114257
 20
317.5645945201893
 10
279.8162440291189
 20
317.5645945201893
  0
HATCH
  5
1EC2
330
2
100
AcDbEntity
  8
SCHRAFF
100
AcDbHatch
 10
0.0
 20
0.0
 30
0.0
210
0.0
220
0.0
230
1.0
  2
_USER
 70
     0
 71
     0
 91
        2
 92
        7
 72
     1
 73
     1
 93
       11
 10
153.0840293909772
 20
337.9970859407325
 42
-0.1989123673796645
 10
155.205349734537
 20
337.1184062842922
 42
0.0
 10
175.3266700780983
 20
316.9970859407324
 42
0.0
 10
177.4479904216578
 20
319.1184062842921
 42
0.0
 10
157.3266700780965
 20
339.2397266278521
 42
0.1989123673796368
 10
153.0840293909775
 20
340.9970859407324
 42
0.0
 10
81.27641754640364
 20
340.9970859407327
 42
0.1989123673796568
 10
79.15509720284399
 20
340.1184062842923
 42
0.0
 10
76.44799042165742
 20
337.4112995031057
 42
0.0
 10
78.56931076521696
 20
335.289979159546
 42
0.0
 10
81.27641754640361
 20
337.9970859407326
 42
0.0
 97
        0
 92
        7
 72
     1
 73
     1
 93
       11
 10
371.6195632969125
 20
337.9970859407315
 42
0.0
 10
374.3266700780978
 20
335.289979159546
 42
0.0
 10
375.4571579878949
 20
336.4204670693431
 42
0.0
 10
371.9311799538023
 20
340.9808578923315
 42
0.0260208501057535
 10
371.6195632969111
 20
340.9970859407317
 42
0.0
 10
299.8119514523376
 20
340.9970859407319
 42
0.1989123673796807
 10
295.5693107652177
 20
339.2397266278515
 42
0.0
 10
275.447990421657
 20
319.1184062842922
 42
0.0
 10
277.5693107652165
 20
316.9970859407324
 42
0.0
 10
297.690631108778
 20
337.1184062842924
 42
-0.1989123673796219
 10
299.8119514523375
 20
337.997085940732
 42
0.0
 97
        0
 75
     0
 76
     0
 52
45.0
 41
2.0
 77
     0
 78
     1
 53
45.0
 43
0.0
 44
0.0
 45
-1.414213562373094
 46
1.414213562373095
 79
     0
 47
0.4114622154205453
 98
        2
 10
150.0371860646037
 20
339.0825637899427
 10
325.0220685466266
 20
339.4940262533235
  0
HATCH
  5
1EED
330
2
100
AcDbEntity
  8
SCHRAFF
100
AcDbHatch
 10
0.0
 20
0.0
 30
0.0
210
0.0
220
0.0
230
1.0
  2
_USER
 70
     0
 71
     1
 91
        4
 92
        5
 93
        8
 72
     2
 10
169.9479904216572
 20
298.7955942931201
 40
13.5
 50
359.9999999999959
 51
389.9999999999952
 73
     1
 72
     1
 10
181.6393333727477
 20
305.5455942931191
 11
174.6195632969117
 21
317.704192721919
 72
     1
 10
174.6195632969117
 20
317.704192721919
 11
173.3205251912348
 21
316.954192721919
 72
     1
 10
173.3205251912348
 20
316.954192721919
 11
180.3402952670708
 21
304.7955942931189
 72
     2
 10
169.9479904216573
 20
298.7955942931193
 40
12.0
 50
330.0000000000022
 51
360.0000000000011
 73
     0
 72
     1
 10
181.9479904216573
 20
298.795594293119
 11
181.9479904216573
 21
270.997554011453
 72
     4
 94
        3
 73
     0
 74
     0
 95
        8
 96
        4
 40
3.211732325462887
 40
3.211732325462887
 40
3.211732325462887
 40
3.211732325462887
 40
4.736961370768926
 40
4.736961370768926
 40
4.736961370768926
 40
4.736961370768926
 10
181.9479904216573
 20
270.997554011453
 10
182.4479624860483
 20
271.1176648352083
 10
182.9479586682547
 20
271.2369183568554
 10
183.4479904216572
 20
271.3549074496654
 72
     1
 10
183.4479904216572
 20
271.3549074496654
 11
183.4479904216572
 21
298.7955942931191
 97
        8
330
1DEE
330
1DE3
330
1DE8
330
1DE6
330
1DED
330
1548
330
155B
330
1549
 92
        5
 93
        8
 72
     4
 94
        3
 73
     0
 74
     0
 95
        8
 96
        4
 40
3.211732325462887
 40
3.211732325462887
 40
3.211732325462887
 40
3.211732325462887
 40
4.736961370768955
 40
4.736961370768955
 40
4.736961370768955
 40
4.736961370768955
 10
183.4479904216572
 20
264.2911920945327
 10
182.9479586682547
 20
264.1732030017227
 10
182.4479624860483
 20
264.0539494800756
 10
181.9479904216573
 20
263.9338386563203
 72
     1
 10
181.9479904216573
 20
263.9338386563202
 11
181.9479904216574
 21
161.8279520551937
 72
     1
 10
181.9479904216574
 20
161.8279520551937
 11
182.3792890798498
 21
156.8981858339431
 72
     2
 10
182.4479904216572
 20
157.393443469557
 40
0.5
 50
262.1024215145533
 51
270.0
 73
     1
 72
     1
 10
182.4479904216572
 20
156.8934434695569
 11
183.4479904216573
 21
156.8934434695569
 72
     2
 10
183.4479904216573
 20
157.393443469557
 40
0.5000000000000001
 50
270.0
 51
326.6653752305826
 73
     1
 72
     1
 10
183.8657281343432
 20
157.1186795647224
 11
183.4479904216573
 21
161.8934434695568
 72
     1
 10
183.4479904216573
 20
161.8934434695568
 11
183.4479904216572
 21
264.2911920945327
 97
        8
330
155C
330
155D
330
1547
330
196E
330
1971
330
196D
330
1546
330
155E
 92
        5
 93
        8
 72
     2
 10
282.9479904216573
 20
298.7955942931188
 40
11.99999999999999
 50
180.0000000000013
 51
210.0000000000004
 73
     0
 72
     1
 10
272.555685576244
 20
304.7955942931189
 11
279.5754556520801
 21
316.954192721919
 72
     1
 10
279.5754556520801
 20
316.954192721919
 11
278.2764175464031
 21
317.7041927219189
 72
     1
 10
278.2764175464031
 20
317.7041927219189
 11
271.2566474705671
 21
305.5455942931191
 72
     2
 10
282.9479904216574
 20
298.7955942931196
 40
13.49999999999999
 50
150.0000000000025
 51
179.9999999999995
 73
     1
 72
     1
 10
269.4479904216574
 20
298.7955942931197
 11
269.4479904216574
 21
267.5980340809106
 72
     4
 94
        3
 73
     0
 74
     0
 95
        8
 96
        4
 40
92.53484369827644
 40
92.53484369827644
 40
92.53484369827644
 40
92.53484369827644
 40
94.10661041895762
 40
94.10661041895762
 40
94.10661041895762
 40
94.10661041895762
 10
269.4479904216515
 20
267.5980340809088
 10
269.9481976897573
 20
267.7498221318832
 10
270.4481930416769
 20
267.9076209743231
 10
270.9479904216506
 20
268.0710350937437
 72
     1
 10
270.9479904216573
 20
268.0710350937459
 11
270.9479904216573
 21
298.7955942931191
 97
        8
330
1DF7
330
1DEF
330
1DF0
330
1DF8
330
1DF6
330
1541
330
155B
330
1500
 92
        5
 93
        9
 72
     4
 94
        3
 73
     0
 74
     0
 95
        8
 96
        4
 40
92.5348436982826
 40
92.5348436982826
 40
92.5348436982826
 40
92.5348436982826
 40
94.10661041895762
 40
94.10661041895762
 40
94.10661041895762
 40
94.10661041895762
 10
270.9479904216506
 20
261.007319738611
 10
270.4481930416789
 20
260.843905619191
 10
269.9481976897613
 20
260.6861067767517
 10
269.4479904216574
 20
260.5343187257779
 72
     1
 10
269.4479904216574
 20
260.5343187257779
 11
269.4479904216573
 21
161.8934434695564
 72
     1
 10
269.4479904216573
 20
161.8934434695564
 11
269.0302527089714
 21
157.1186795647222
 72
     2
 10
269.4479904216573
 20
157.3934434695569
 40
0.5
 50
213.3346247694373
 51
269.9999999999935
 73
     1
 72
     1
 10
269.4479904216572
 20
156.8934434695569
 11
270.4479904216573
 21
156.8934434695569
 72
     2
 10
270.4479904216573
 20
157.3934434695569
 40
0.5
 50
270.0000000000065
 51
277.897578485473
 73
     1
 72
     1
 10
270.516691763465
 20
156.8981858339431
 11
270.9479904216573
 21
161.8279520551942
 72
     1
 10
270.9479904216573
 20
161.8279520551942
 11
270.9479904216573
 21
212.8934434695569
 72
     1
 10
270.9479904216573
 20
212.8934434695569
 11
270.9479904216573
 21
261.0073197386132
 97
        9
330
155C
330
1560
330
1543
330
1902
330
18EE
330
1901
330
1544
330
18ED
330
155F
 75
     0
 76
     0
 52
135.0
 41
2.0
 77
     0
 78
     1
 53
135.0
 43
0.0
 44
0.0
 45
-1.414213562373095
 46
-1.414213562373094
 79
     0
 47
0.4114622154205453
 98
        4
 10
182.9755170121952
 20
295.8790317024939
 10
182.5637861691666
 20
254.3213480702768
 10
270.6738225914296
 20
295.8790317024939
 10
270.262091748401
 20
251.4411122249028
  0
ARC
  5
1F4C
102
{ACAD_REACTORS
330
1FB2
102
}
330
2
100
AcDbEntity
  8
STEMPEL
100
AcDbCircle
 10
276.2767262346579
 20
207.9437110840043
 30
0.0
 40
3.0
100
AcDbArc
 50
120.0000000000004
 51
176.930639246322
  0
LINE
  5
1F4D
102
{ACAD_REACTORS
330
1FB2
102
}
330
2
100
AcDbEntity
  8
SCHRAFF
100
AcDbLine
 10
274.0030487913998
 20
201.8934434695568
 30
0.0
 11
272.9479904216573
 21
201.8934434695561
 31
0.0
  0
ARC
  5
1F4E
102
{ACAD_REACTORS
330
1FB2
102
}
330
2
100
AcDbEntity
  8
STEMPEL
100
AcDbCircle
 10
276.2295996574346
 20
194.9165025419585
 30
0.0
 40
3.0
100
AcDbArc
 50
120.0000000000001
 51
176.0948558921004
  0
ARC
  5
1F50
102
{ACAD_REACTORS
330
1FB2
102
}
330
2
100
AcDbEntity
  8
STEMPEL
100
AcDbCircle
 10
274.0185810169499
 20
180.8934434695568
 30
0.0
 40
1.0
100
AcDbArc
 50
176.0948558921016
 51
270.0000000000005
  0
ARC
  5
1F51
102
{ACAD_REACTORS
330
1FB2
102
}
330
2
100
AcDbEntity
  8
STEMPEL
100
AcDbCircle
 10
274.0185810169498
 20
191.8934434695567
 30
0.0
 40
1.0
100
AcDbArc
 50
176.0948558921003
 51
270.0000000000013
  0
ARC
  5
1F52
102
{ACAD_REACTORS
330
1FB2
102
}
330
2
100
AcDbEntity
  8
STEMPEL
100
AcDbCircle
 10
276.2295996574346
 20
183.9165025419583
 30
0.0
 40
3.0
100
AcDbArc
 50
120.0000000000008
 51
176.0948558921016
  0
ARC
  5
1F53
102
{ACAD_REACTORS
330
1FB2
102
}
330
2
100
AcDbEntity
  8
STEMPEL
100
AcDbCircle
 10
275.9479904216573
 20
172.7539153738762
 30
0.0
 40
3.0
100
AcDbArc
 50
119.9999999999998
 51
180.0
  0
LINE
  5
1F54
102
{ACAD_REACTORS
330
1FB2
102
}
330
2
100
AcDbEntity
  8
STEMPEL
100
AcDbLine
 10
171.4479904216572
 20
179.3934434695569
 30
0.0
 11
178.4479904216572
 21
175.3519915852295
 31
0.0
  0
LINE
  5
1F55
102
{ACAD_REACTORS
330
1FB2
102
}
330
2
100
AcDbEntity
  8
STEMPEL
100
AcDbLine
 10
171.4479904216572
 20
190.3934434695569
 30
0.0
 11
178.1663811858801
 21
186.5145787533116
 31
0.0
  0
LINE
  5
1F56
102
{ACAD_REACTORS
330
1FB2
102
}
330
2
100
AcDbEntity
  8
STEMPEL
100
AcDbLine
 10
171.4479904216572
 20
190.8934434695569
 30
0.0
 11
178.8773998263648
 21
190.8934434695567
 31
0.0
  0
LINE
  5
1F57
102
{ACAD_REACTORS
330
1FB2
102
}
330
2
100
AcDbEntity
  8
STEMPEL
100
AcDbLine
 10
171.4479904216572
 20
179.8934434695569
 30
0.0
 11
178.8773998263647
 21
179.8934434695568
 31
0.0
  0
LINE
  5
1F58
102
{ACAD_REACTORS
330
1FB2
102
}
330
2
100
AcDbEntity
  8
STEMPEL
100
AcDbLine
 10
171.4479904216572
 20
201.3934434695569
 30
0.0
 11
178.1663811858799
 21
197.5145787533118
 31
0.0
  0
LINE
  5
1F59
102
{ACAD_REACTORS
330
1FB2
102
}
330
2
100
AcDbEntity
  8
STEMPEL
100
AcDbLine
 10
171.4479904216572
 20
201.8934434695569
 30
0.0
 11
178.8929320519147
 21
201.8934434695568
 31
0.0
  0
LINE
  5
1F5A
102
{ACAD_REACTORS
330
1FB2
102
}
330
2
100
AcDbEntity
  8
STEMPEL
100
AcDbLine
 10
179.8914974984219
 20
202.9469883016301
 30
0.0
 11
179.6149509481784
 21
208.104345580224
 31
0.0
  0
LINE
  5
1F5B
102
{ACAD_REACTORS
330
1FB2
102
}
330
2
100
AcDbEntity
  8
STEMPEL
100
AcDbLine
 10
179.8750779946563
 20
180.9615483336585
 30
0.0
 11
179.6594156907548
 21
184.1208171342634
 31
0.0
  0
ARC
  5
1F5C
102
{ACAD_REACTORS
330
1FB2
102
}
330
2
100
AcDbEntity
  8
STEMPEL
100
AcDbCircle
 10
176.9479904216573
 20
172.7539153738762
 30
0.0
 40
3.0
100
AcDbArc
 50
0.000000000000007
 51
60.00000000000014
  0
ARC
  5
1F5D
102
{ACAD_REACTORS
330
1FB2
102
}
330
2
100
AcDbEntity
  8
STEMPEL
100
AcDbCircle
 10
178.8773998263647
 20
180.8934434695568
 30
0.0
 40
1.0
100
AcDbArc
 50
269.9999999999995
 51
3.905144107898386
  0
LINE
  5
1F5E
102
{ACAD_REACTORS
330
1FB2
102
}
330
2
100
AcDbEntity
  8
STEMPEL
100
AcDbLine
 10
179.8750779946564
 20
191.9615483336585
 30
0.0
 11
179.6594156907547
 21
195.1208171342636
 31
0.0
  0
ARC
  5
1F5F
102
{ACAD_REACTORS
330
1FB2
102
}
330
2
100
AcDbEntity
  8
STEMPEL
100
AcDbCircle
 10
176.66638118588
 20
183.9165025419583
 30
0.0
 40
3.0
100
AcDbArc
 50
3.90514410789836
 51
59.9999999999992
  0
ARC
  5
1F60
102
{ACAD_REACTORS
330
1FB2
102
}
330
2
100
AcDbEntity
  8
STEMPEL
100
AcDbCircle
 10
178.8773998263648
 20
191.8934434695567
 30
0.0
 40
1.0
100
AcDbArc
 50
269.9999999999987
 51
3.905144107899683
  0
ARC
  5
1F61
102
{ACAD_REACTORS
330
1FB2
102
}
330
2
100
AcDbEntity
  8
STEMPEL
100
AcDbCircle
 10
176.66638118588
 20
194.9165025419585
 30
0.0
 40
3.0
100
AcDbArc
 50
3.905144107899531
 51
59.99999999999988
  0
ARC
  5
1F64
102
{ACAD_REACTORS
330
1FB2
102
}
330
2
100
AcDbEntity
  8
STEMPEL
100
AcDbCircle
 10
178.8929320519147
 20
202.8934434695568
 30
0.0
 40
1.0
100
AcDbArc
 50
270.0
 51
3.069360753678036
  0
ARC
  5
1F65
102
{ACAD_REACTORS
330
1FB2
102
}
330
2
100
AcDbEntity
  8
STEMPEL
100
AcDbCircle
 10
176.6192546086566
 20
207.9437110840043
 30
0.0
 40
3.0
100
AcDbArc
 50
3.06936075367801
 51
59.99999999999952
  0
LINE
  5
1F66
102
{ACAD_REACTORS
330
1FB2
102
}
330
2
100
AcDbEntity
  8
STEMPEL
100
AcDbLine
 10
171.4479904216572
 20
179.3934434695569
 30
0.0
 11
171.4479904216572
 21
179.8934434695569
 31
0.0
  0
LINE
  5
1F67
102
{ACAD_REACTORS
330
1FB2
102
}
330
2
100
AcDbEntity
  8
STEMPEL
100
AcDbLine
 10
171.4479904216572
 20
190.3934434695569
 30
0.0
 11
171.4479904216572
 21
190.8934434695569
 31
0.0
  0
LINE
  5
1F68
102
{ACAD_REACTORS
330
1FB2
102
}
330
2
100
AcDbEntity
  8
STEMPEL
100
AcDbLine
 10
171.4479904216572
 20
201.3934434695569
 30
0.0
 11
171.4479904216572
 21
201.8934434695569
 31
0.0
  0
LINE
  5
1F69
102
{ACAD_REACTORS
330
1FB2
102
}
330
2
100
AcDbEntity
  8
STEMPEL
100
AcDbLine
 10
179.9479904216573
 20
172.7539153738762
 30
0.0
 11
179.9479904216573
 21
154.8934434695569
 31
0.0
  0
LINE
  5
1F6A
102
{ACAD_REACTORS
330
1FB2
102
}
330
2
100
AcDbEntity
  8
STEMPEL
100
AcDbLine
 10
171.4479904216572
 20
214.3934434695569
 30
0.0
 11
178.1192546086566
 21
210.5417872953577
 31
0.0
  0
LINE
  5
1F6B
102
{ACAD_REACTORS
330
1FB2
102
}
330
2
100
AcDbEntity
  8
STEMPEL
100
AcDbLine
 10
171.4479904216572
 20
214.8934434695569
 30
0.0
 11
171.4479904216572
 21
214.3934434695569
 31
0.0
  0
HATCH
  5
1FB2
330
2
100
AcDbEntity
  8
SCHRAFF
100
AcDbHatch
 10
0.0
 20
0.0
 30
0.0
210
0.0
220
0.0
230
1.0
  2
NET
 70
     0
 71
     1
 91
        2
 92
        7
 72
     1
 73
     1
 93
       33
 10
179.9479904216572
 20
214.8934434695569
 42
0.0
 10
171.4479904216572
 20
214.8934434695569
 42
0.0
 10
171.4479904216572
 20
214.393443469557
 42
0.0
 10
178.1192546086566
 20
210.5417872953577
 42
-0.253645507477845
 10
179.6149509481784
 20
208.104345580224
 42
0.0
 10
179.8914974984219
 20
202.9469883016301
 42
-0.4299924594970158
 10
178.8929320519147
 20
201.8934434695568
 42
0.0
 10
171.4479904216572
 20
201.8934434695569
 42
0.0
 10
171.4479904216573
 20
201.3934434695569
 42
0.0
 10
178.1663811858799
 20
197.5145787533118
 42
-0.2497676641997805
 10
179.6594156907547
 20
195.1208171342636
 42
0.0
 10
179.8750779946564
 20
191.9615483336585
 42
-0.4343203263710194
 10
178.8773998263648
 20
190.8934434695567
 42
0.0
 10
171.4479904216573
 20
190.8934434695569
 42
0.0
 10
171.4479904216572
 20
190.3934434695569
 42
0.0
 10
178.1663811858801
 20
186.5145787533116
 42
-0.2497676641997812
 10
179.6594156907548
 20
184.1208171342634
 42
0.0
 10
179.8750779946563
 20
180.9615483336585
 42
-0.434320326371017
 10
178.8773998263647
 20
179.8934434695568
 42
0.0
 10
171.4479904216572
 20
179.8934434695569
 42
0.0
 10
171.4479904216572
 20
179.3934434695569
 42
0.0
 10
178.4479904216572
 20
175.3519915852295
 42
-0.2679491924311232
 10
179.9479904216573
 20
172.7539153738762
 42
0.0
 10
179.9479904216573
 20
154.8934434695569
 42
0.0
 10
185.9479904216573
 20
154.893443469557
 42
0.0
 10
185.9479904216573
 20
161.8934434695569
 42
0.0
 10
183.9479904216573
 20
161.8934434695569
 42
0.0
 10
183.9479904216573
 20
157.393443469557
 42
-0.4142135623730951
 10
183.4479904216573
 20
156.8934434695569
 42
0.0
 10
182.3797039829718
 20
156.8934434695569
 42
0.0
 10
182.3792890798497
 20
156.8981858339431
 42
-0.3743941345903103
 10
181.9479904216573
 20
157.393443469557
 42
0.0
 10
181.9479904216573
 20
212.893443469557
 42
0.0
 97
       33
330
196C
330
1B93
330
1F6B
330
1F6A
330
1F65
330
1F5A
330
1F64
330
1F59
330
1F68
330
1F58
330
1F61
330
1F5E
330
1F60
330
1F56
330
1F67
330
1F55
330
1F5F
330
1F5B
330
1F5D
330
1F57
330
1F66
330
1F54
330
1F5C
330
1F69
330
18EC
330
196F
330
18FF
330
1970
330
196D
330
1971
330
1547
330
196E
330
1972
 92
        7
 72
     1
 73
     1
 93
       33
 10
281.4479904216574
 20
214.393443469557
 42
0.0
 10
281.4479904216573
 20
214.8934434695569
 42
0.0
 10
272.9479904216574
 20
214.893443469557
 42
0.0
 10
270.9479904216573
 20
212.8934434695569
 42
0.0
 10
270.9479904216573
 20
157.3934434695569
 42
-0.4142135623730951
 10
270.4479904216573
 20
156.8934434695569
 42
0.0
 10
269.4479904216572
 20
156.8934434695569
 42
-0.4142135623730951
 10
268.9479904216572
 20
157.3934434695569
 42
0.0
 10
268.9479904216574
 20
161.893443469557
 42
0.0
 10
266.9479904216573
 20
161.893443469557
 42
0.0
 10
266.9479904216573
 20
154.8934434695569
 42
0.0
 10
272.9479904216573
 20
154.8934434695569
 42
0.0
 10
272.9479904216573
 20
172.7539153738762
 42
-0.2679491924311233
 10
274.4479904216573
 20
175.3519915852295
 42
0.0
 10
281.4479904216573
 20
179.3934434695569
 42
0.0
 10
281.4479904216573
 20
179.8934434695569
 42
0.0
 10
274.0185810169499
 20
179.8934434695568
 42
-0.4343203263710169
 10
273.0209028486583
 20
180.9615483336585
 42
0.0
 10
273.2365651525598
 20
184.1208171342634
 42
-0.2497676641997828
 10
274.7295996574345
 20
186.5145787533116
 42
0.0
 10
281.4479904216573
 20
190.3934434695568
 42
0.0
 10
281.4479904216573
 20
190.8934434695569
 42
0.0
 10
274.0185810169498
 20
190.8934434695567
 42
-0.4343203263710369
 10
273.0209028486582
 20
191.9615483336585
 42
0.0
 10
273.2365651525598
 20
195.1208171342636
 42
-0.2497676641997806
 10
274.7295996574346
 20
197.5145787533118
 42
0.0
 10
281.4479904216573
 20
201.3934434695569
 42
0.0
 10
281.4479904216573
 20
201.8934434695569
 42
0.0
 10
274.0030487913998
 20
201.8934434695568
 42
0.0
 10
272.9479904216574
 20
201.8934434695562
 42
0.0
 10
273.0044833448927
 20
202.9469883016301
 42
0.0
 10
273.2810298951362
 20
208.104345580224
 42
-0.2536455074778452
 10
274.7767262346579
 20
210.5417872953577
 42
0.0
 97
       33
330
193A
330
18EB
330
1909
330
18ED
330
1901
330
18EE
330
1902
330
18EF
330
18FF
330
18F0
330
18EC
330
18F2
330
1F53
330
193D
330
1938
330
193C
330
1F50
330
1936
330
1F52
330
193E
330
1937
330
193F
330
1F51
330
1932
330
1F4E
330
1941
330
1939
330
1940
330
1F4D
330
1963
330
1935
330
1F4C
330
1942
 75
     0
 76
     1
 52
45.0
 41
15.0
 77
     0
 78
     2
 53
45.0
 43
0.0
 44
0.0
 45
-1.325825214724776
 46
1.325825214724776
 79
     0
 53
135.0
 43
0.0
 44
0.0
 45
-1.325825214724776
 46
-1.325825214724776
 79
     0
 47
0.2583249184945035
 98
        2
 10
179.0994940586593
 20
212.8136738582839
 10
274.7426846989101
 20
212.5553486544893
  0
LINE
  5
1FD0
330
2
100
AcDbEntity
  8
TEXT
 62
     2
100
AcDbLine
 10
265.4822471056758
 20
482.8896132985778
 30
0.0
 11
261.3734006499332
 21
470.2596214610023
 31
0.0
  0
LINE
  5
1FD1
330
2
100
AcDbEntity
  8
TEXT
 62
     2
100
AcDbLine
 10
260.1359398254363
 20
466.4558482411803
 30
0.0
 11
256.8843476881673
 21
456.4609305446489
 31
0.0
  0
TEXT
  5
1FF8
330
2
100
AcDbEntity
  8
VOLL
100
AcDbText
 10
402.2115854860134
 20
324.5729007007059
 30
0.0
 40
1.8
  1

 50
270.0
  7
GREEKS
100
AcDbText
  0
ARC
  5
1FFE
330
2
100
AcDbEntity
  8
STEMPEL
100
AcDbCircle
 10
217.073794970811
 20
368.5470859407333
 30
0.0
 40
0.5500000000000009
100
AcDbArc
 50
270.0
 51
70.00000000000047
  0
LINE
  5
1FFF
330
2
100
AcDbEntity
  8
STEMPEL
100
AcDbLine
 10
217.2619060496401
 20
369.0639168821655
 30
0.0
 11
216.2972976627072
 21
369.4150056227326
 31
0.0
  0
LINE
  5
2000
330
2
100
AcDbEntity
  8
STEMPEL
100
AcDbLine
 10
204.7502922789147
 20
369.4150056227326
 30
0.0
 11
204.5421080204537
 21
369.33923274941
 31
0.0
  0
LINE
  5
2003
330
2
100
AcDbEntity
  8
STEMPEL
100
AcDbLine
 10
215.523794970811
 20
374.5970859407333
 30
0.0
 11
205.523794970811
 21
374.5970859407333
 31
0.0
  0
LINE
  5
2004
330
2
100
AcDbEntity
  8
STEMPEL
100
AcDbLine
 10
216.2972976627072
 20
374.3898265190964
 30
0.0
 11
216.2972976627072
 21
369.4150056227326
 31
0.0
  0
LINE
  5
2005
330
2
100
AcDbEntity
  8
STEMPEL
100
AcDbLine
 10
213.4105463167591
 20
374.3898265190964
 30
0.0
 11
213.4105463167591
 21
369.4150056227326
 31
0.0
  0
LINE
  5
2006
330
2
100
AcDbEntity
  8
STEMPEL
100
AcDbLine
 10
207.6370436248628
 20
374.3898265190964
 30
0.0
 11
207.6370436248628
 21
369.4150056227326
 31
0.0
  0
LINE
  5
2007
330
2
100
AcDbEntity
  8
STEMPEL
100
AcDbLine
 10
204.7502922789147
 20
371.1305741027023
 30
0.0
 11
204.7502922789147
 21
369.4150056227326
 31
0.0
  0
LINE
  5
2009
330
2
100
AcDbEntity
  8
STEMPEL
100
AcDbLine
 10
217.2619060496401
 20
369.0639168821655
 30
0.0
 11
204.4949579140329
 21
369.0639168821655
 31
0.0
  0
ARC
  5
2011
330
2
100
AcDbEntity
  8
STEMPEL
100
AcDbCircle
 10
214.8539219897332
 20
369.4675488022101
 30
0.0
 40
5.129537138523076
100
AcDbArc
 50
73.65710669401657
 51
106.3428933059834
  0
LINE
  5
2012
330
2
100
AcDbEntity
  8
STEMPEL
100
AcDbLine
 10
215.523794970811
 20
374.5970859407333
 30
0.0
 11
216.2972976627072
 21
374.3898265190964
 31
0.0
  0
LINE
  5
2013
330
2
100
AcDbEntity
  8
STEMPEL
100
AcDbLine
 10
205.523794970811
 20
374.5970859407333
 30
0.0
 11
204.8185183173704
 21
374.4081076310034
 31
0.0
  0
ARC
  5
2014
330
2
100
AcDbEntity
  8
STEMPEL
100
AcDbCircle
 10
206.1936679518888
 20
369.4675488022101
 30
0.0
 40
5.129537138523076
100
AcDbArc
 50
73.65710669401657
 51
105.5503179106605
  0
ARC
  5
2015
330
2
100
AcDbEntity
  8
STEMPEL
100
AcDbCircle
 10
210.523794970811
 20
354.3898265190963
 30
0.0
 40
20.20725942163691
100
AcDbArc
 50
81.78678929826059
 51
98.2132107017394
  0
ARC
  5
2016
330
2
100
AcDbEntity
  8
HILF
100
AcDbCircle
 10
214.8539219897332
 20
365.8546126170286
 30
0.0
 40
3.841839622940954
100
AcDbArc
 50
67.93247218100944
 51
112.0675278189905
  0
ARC
  5
2017
330
2
100
AcDbEntity
  8
HILF
100
AcDbCircle
 10
206.1936679518888
 20
365.8557771789169
 30
0.0
 40
3.840760399790701
100
AcDbArc
 50
67.92594526323878
 51
112.0740547367612
  0
ARC
  5
2018
330
2
100
AcDbEntity
  8
HILF
100
AcDbCircle
 10
210.523794970811
 20
354.7557939135071
 30
0.0
 40
14.94074366520046
100
AcDbArc
 50
78.85962783889434
 51
101.1403721611056
  0
LINE
  5
2019
330
2
100
AcDbEntity
  8
STEMPEL
100
AcDbLine
 10
342.674487729761
 20
369.4150056227314
 30
0.0
 11
341.7098793428282
 21
369.0639168821643
 31
0.0
  0
LINE
  5
201A
330
2
100
AcDbEntity
  8
STEMPEL
100
AcDbLine
 10
355.1861015004864
 20
369.0639168821643
 30
0.0
 11
354.2214931135536
 21
369.4150056227314
 31
0.0
  0
ARC
  5
201B
330
2
100
AcDbEntity
  8
STEMPEL
100
AcDbCircle
 10
354.9979904216574
 20
368.5470859407321
 30
0.0
 40
0.5500000000000009
100
AcDbArc
 50
270.0
 51
70.00000000000047
  0
LINE
  5
201C
330
2
100
AcDbEntity
  8
STEMPEL
100
AcDbLine
 10
355.1861015004864
 20
369.0639168821643
 30
0.0
 11
341.7098793428282
 21
369.0639168821643
 31
0.0
  0
LINE
  5
201D
330
2
100
AcDbEntity
  8
STEMPEL
100
AcDbLine
 10
354.9979904216574
 20
367.9970859407321
 30
0.0
 11
341.8979904216573
 21
367.9970859407321
 31
0.0
  0
ARC
  5
201E
330
2
100
AcDbEntity
  8
STEMPEL
100
AcDbCircle
 10
341.8979904216573
 20
368.5470859407321
 30
0.0
 40
0.5500000000000003
100
AcDbArc
 50
109.9999999999995
 51
270.0
  0
ARC
  5
201F
330
2
100
AcDbEntity
  8
HILF
100
AcDbCircle
 10
348.4479904216573
 20
354.7557939135059
 30
0.0
 40
14.94074366520046
100
AcDbArc
 50
78.85962783889434
 51
101.1403721611056
  0
ARC
  5
2020
330
2
100
AcDbEntity
  8
STEMPEL
100
AcDbCircle
 10
348.4479904216573
 20
354.3898265190951
 30
0.0
 40
20.20725942163691
100
AcDbArc
 50
81.78678929826059
 51
98.2132107017394
  0
LINE
  5
2021
330
2
100
AcDbEntity
  8
STEMPEL
100
AcDbLine
 10
353.4479904216573
 20
374.5970859407321
 30
0.0
 11
343.4479904216573
 21
374.5970859407321
 31
0.0
  0
ARC
  5
2022
330
2
100
AcDbEntity
  8
HILF
100
AcDbCircle
 10
344.1178634027351
 20
365.8557771789157
 30
0.0
 40
3.840760399790701
100
AcDbArc
 50
67.92594526323878
 51
112.0740547367612
  0
ARC
  5
2023
330
2
100
AcDbEntity
  8
STEMPEL
100
AcDbCircle
 10
344.1178634027351
 20
369.467548802209
 30
0.0
 40
5.129537138523076
100
AcDbArc
 50
73.65710669401657
 51
106.3428933059834
  0
LINE
  5
2024
330
2
100
AcDbEntity
  8
STEMPEL
100
AcDbLine
 10
343.4479904216573
 20
374.5970859407321
 30
0.0
 11
342.674487729761
 21
374.3898265190952
 31
0.0
  0
LINE
  5
2025
330
2
100
AcDbEntity
  8
STEMPEL
100
AcDbLine
 10
342.674487729761
 20
374.3898265190952
 30
0.0
 11
342.674487729761
 21
369.4150056227314
 31
0.0
  0
LINE
  5
2026
330
2
100
AcDbEntity
  8
STEMPEL
100
AcDbLine
 10
345.5612390757092
 20
374.3898265190952
 30
0.0
 11
345.5612390757092
 21
369.4150056227314
 31
0.0
  0
ARC
  5
2027
330
2
100
AcDbEntity
  8
HILF
100
AcDbCircle
 10
352.7781174405796
 20
365.8546126170274
 30
0.0
 40
3.841839622940954
100
AcDbArc
 50
67.93247218100944
 51
112.0675278189905
  0
ARC
  5
2028
330
2
100
AcDbEntity
  8
STEMPEL
100
AcDbCircle
 10
352.7781174405796
 20
369.467548802209
 30
0.0
 40
5.129537138523076
100
AcDbArc
 50
73.65710669401657
 51
106.3428933059834
  0
LINE
  5
2029
330
2
100
AcDbEntity
  8
STEMPEL
100
AcDbLine
 10
351.3347417676055
 20
374.3898265190952
 30
0.0
 11
351.3347417676055
 21
369.4150056227314
 31
0.0
  0
LINE
  5
202A
330
2
100
AcDbEntity
  8
STEMPEL
100
AcDbLine
 10
353.4479904216573
 20
374.5970859407321
 30
0.0
 11
354.2214931135536
 21
374.3898265190952
 31
0.0
  0
LINE
  5
202B
330
2
100
AcDbEntity
  8
STEMPEL
100
AcDbLine
 10
354.2214931135536
 20
374.3898265190952
 30
0.0
 11
354.2214931135536
 21
369.4150056227314
 31
0.0
  0
TEXT
  5
204C
330
2
100
AcDbEntity
  8
VOLL
100
AcDbText
 10
179.3423382215277
 20
315.0230402591536
 30
0.0
 40
1.8
  1

  7
GREEKS
100
AcDbText
  0
LINE
  5
2062
330
2
100
AcDbEntity
  8
STEMPEL
100
AcDbLine
 10
123.1082444595017
 20
355.0874424569316
 30
0.0
 11
123.1082444595017
 21
362.6861968082764
 31
0.0
  0
LINE
  5
2063
330
2
100
AcDbEntity
  8
STEMPEL
100
AcDbLine
 10
118.7781174405795
 20
355.0874424569316
 30
0.0
 11
118.7781174405795
 21
362.6861968082764
 31
0.0
  0
LINE
  5
2064
330
2
100
AcDbEntity
  8
STEMPEL
100
AcDbLine
 10
110.1178634027351
 20
355.0874424569316
 30
0.0
 11
110.1178634027351
 21
362.6861968082764
 31
0.0
  0
LINE
  5
2065
330
2
100
AcDbEntity
  8
STEMPEL
100
AcDbLine
 10
105.7877363838129
 20
355.0874424569316
 30
0.0
 11
105.7877363838129
 21
362.6861968082764
 31
0.0
  0
ARC
  5
2066
330
2
100
AcDbEntity
  8
HILF
100
AcDbCircle
 10
107.952799893274
 20
349.7485997912021
 30
0.0
 40
5.761140599691502
100
AcDbArc
 50
67.92594526326206
 51
112.0740547367379
  0
LINE
  5
2067
330
2
100
AcDbEntity
  8
STEMPEL
100
AcDbLine
 10
124.8545055291516
 20
354.4518554063212
 30
0.0
 11
104.0414753141631
 21
354.4518554063212
 31
0.0
  0
LINE
  5
2068
330
2
100
AcDbEntity
  8
STEMPEL
100
AcDbLine
 10
124.5979904216573
 20
352.9970859407317
 30
0.0
 11
104.2979904216573
 21
352.9970859407317
 31
0.0
  0
LINE
  5
2069
330
2
100
AcDbEntity
  8
STEMPEL
100
AcDbLine
 10
105.7877363838129
 20
355.0874424569316
 30
0.0
 11
104.0414753141631
 21
354.4518554063212
 31
0.0
  0
ARC
  5
206A
330
2
100
AcDbEntity
  8
STEMPEL
100
AcDbCircle
 10
104.2979904216573
 20
353.7470859407317
 30
0.0
 40
0.7500000000000013
100
AcDbArc
 50
109.9999999999995
 51
269.9999991462263
  0
LINE
  5
206B
330
2
100
AcDbEntity
  8
STEMPEL
100
AcDbLine
 10
124.8545055291516
 20
354.4518554063212
 30
0.0
 11
123.1082444595017
 21
355.0874424569316
 31
0.0
  0
ARC
  5
206C
330
2
100
AcDbEntity
  8
HILF
100
AcDbCircle
 10
114.4479904216573
 20
333.0986248930705
 30
0.0
 40
22.41111549782308
100
AcDbArc
 50
78.85962783890537
 51
101.1403721610946
  0
POINT
  5
206D
330
2
100
AcDbEntity
  8
0
100
AcDbPoint
 10
114.4479904216573
 20
352.9970859407317
 30
0.0
210
0.0000000000000001
220
1.0
230
0.0
  0
ARC
  5
206E
330
2
100
AcDbEntity
  8
HILF
100
AcDbCircle
 10
120.9431809500406
 20
349.7485997912021
 30
0.0
 40
5.761140599691502
100
AcDbArc
 50
67.92594526326206
 51
112.0740547367379
  0
ARC
  5
206F
330
2
100
AcDbEntity
  8
STEMPEL
100
AcDbCircle
 10
124.5979904216573
 20
353.7470859407317
 30
0.0
 40
0.750000000000001
100
AcDbArc
 50
269.9999991462263
 51
70.00000000000047
  0
ARC
  5
2070
330
2
100
AcDbEntity
  8
STEMPEL
100
AcDbCircle
 10
107.952799893274
 20
355.3027802329473
 30
0.0
 40
7.694305707784447
100
AcDbArc
 50
73.65710669401501
 51
106.342893305985
  0
LINE
  5
2071
330
2
100
AcDbEntity
  8
STEMPEL
100
AcDbLine
 10
106.9479904216573
 20
362.9970859407317
 30
0.0
 11
105.7877363838129
 21
362.6861968082764
 31
0.0
  0
ARC
  5
2072
330
2
100
AcDbEntity
  8
STEMPEL
100
AcDbCircle
 10
114.4479904216573
 20
332.6861968082769
 30
0.0
 40
30.31088913245485
100
AcDbArc
 50
81.78678929826221
 51
98.2132107017378
  0
LINE
  5
2073
330
2
100
AcDbEntity
  8
STEMPEL
100
AcDbLine
 10
106.9479904216573
 20
362.9970859407317
 30
0.0
 11
121.9479904216573
 21
362.9970859407317
 31
0.0
  0
ARC
  5
2074
330
2
100
AcDbEntity
  8
STEMPEL
100
AcDbCircle
 10
120.9431809500406
 20
355.3027802329473
 30
0.0
 40
7.694305707784447
100
AcDbArc
 50
73.65710669401501
 51
106.342893305985
  0
LINE
  5
2075
330
2
100
AcDbEntity
  8
STEMPEL
100
AcDbLine
 10
123.1082444595017
 20
362.6861968082764
 30
0.0
 11
121.9479904216573
 21
362.9970859407317
 31
0.0
  0
LINE
  5
2076
330
2
100
AcDbEntity
  8
STEMPEL
100
AcDbLine
 10
179.1082444595018
 20
355.0874424569316
 30
0.0
 11
179.1082444595018
 21
362.6861968082764
 31
0.0
  0
LINE
  5
2077
330
2
100
AcDbEntity
  8
STEMPEL
100
AcDbLine
 10
174.7781174405796
 20
355.0874424569316
 30
0.0
 11
174.7781174405796
 21
362.6861968082764
 31
0.0
  0
LINE
  5
2078
330
2
100
AcDbEntity
  8
STEMPEL
100
AcDbLine
 10
166.1178634027352
 20
355.0874424569316
 30
0.0
 11
166.1178634027352
 21
362.6861968082764
 31
0.0
  0
LINE
  5
2079
330
2
100
AcDbEntity
  8
STEMPEL
100
AcDbLine
 10
161.7877363838131
 20
355.0874424569316
 30
0.0
 11
161.7877363838131
 21
362.6861968082764
 31
0.0
  0
ARC
  5
207A
330
2
100
AcDbEntity
  8
HILF
100
AcDbCircle
 10
163.9527998932741
 20
349.7485997912022
 30
0.0
 40
5.761140599691502
100
AcDbArc
 50
67.92594526326206
 51
112.0740547367379
  0
LINE
  5
207B
330
2
100
AcDbEntity
  8
STEMPEL
100
AcDbLine
 10
180.8545055291517
 20
354.4518554063212
 30
0.0
 11
160.0414753141632
 21
354.4518554063212
 31
0.0
  0
LINE
  5
207C
330
2
100
AcDbEntity
  8
STEMPEL
100
AcDbLine
 10
180.5979904216574
 20
352.9970859407318
 30
0.0
 11
160.2979904216574
 21
352.9970859407318
 31
0.0
  0
LINE
  5
207D
330
2
100
AcDbEntity
  8
STEMPEL
100
AcDbLine
 10
161.7877363838131
 20
355.0874424569316
 30
0.0
 11
160.0414753141632
 21
354.4518554063212
 31
0.0
  0
ARC
  5
207E
330
2
100
AcDbEntity
  8
STEMPEL
100
AcDbCircle
 10
160.2979904216574
 20
353.7470859407318
 30
0.0
 40
0.7500000000000013
100
AcDbArc
 50
109.9999999999995
 51
269.9999991462263
  0
LINE
  5
207F
330
2
100
AcDbEntity
  8
STEMPEL
100
AcDbLine
 10
180.8545055291517
 20
354.4518554063212
 30
0.0
 11
179.1082444595018
 21
355.0874424569316
 31
0.0
  0
ARC
  5
2080
330
2
100
AcDbEntity
  8
HILF
100
AcDbCircle
 10
170.4479904216574
 20
333.0986248930706
 30
0.0
 40
22.41111549782308
100
AcDbArc
 50
78.85962783890537
 51
101.1403721610946
  0
POINT
  5
2081
330
2
100
AcDbEntity
  8
0
100
AcDbPoint
 10
170.4479904216574
 20
352.9970859407318
 30
0.0
210
0.0000000000000001
220
1.0
230
0.0
  0
ARC
  5
2082
330
2
100
AcDbEntity
  8
HILF
100
AcDbCircle
 10
176.9431809500407
 20
349.7485997912022
 30
0.0
 40
5.761140599691502
100
AcDbArc
 50
67.92594526326206
 51
112.0740547367379
  0
ARC
  5
2083
330
2
100
AcDbEntity
  8
STEMPEL
100
AcDbCircle
 10
180.5979904216574
 20
353.7470859407318
 30
0.0
 40
0.750000000000001
100
AcDbArc
 50
269.9999991462263
 51
70.00000000000047
  0
ARC
  5
2084
330
2
100
AcDbEntity
  8
STEMPEL
100
AcDbCircle
 10
163.9527998932742
 20
355.3027802329473
 30
0.0
 40
7.694305707784447
100
AcDbArc
 50
73.65710669401501
 51
106.342893305985
  0
LINE
  5
2085
330
2
100
AcDbEntity
  8
STEMPEL
100
AcDbLine
 10
162.9479904216574
 20
362.9970859407318
 30
0.0
 11
161.7877363838131
 21
362.6861968082764
 31
0.0
  0
ARC
  5
2086
330
2
100
AcDbEntity
  8
STEMPEL
100
AcDbCircle
 10
170.4479904216574
 20
332.6861968082769
 30
0.0
 40
30.31088913245485
100
AcDbArc
 50
81.78678929826221
 51
98.2132107017378
  0
LINE
  5
2087
330
2
100
AcDbEntity
  8
STEMPEL
100
AcDbLine
 10
162.9479904216574
 20
362.9970859407318
 30
0.0
 11
177.9479904216574
 21
362.9970859407318
 31
0.0
  0
ARC
  5
2088
330
2
100
AcDbEntity
  8
STEMPEL
100
AcDbCircle
 10
176.9431809500407
 20
355.3027802329473
 30
0.0
 40
7.694305707784447
100
AcDbArc
 50
73.65710669401501
 51
106.342893305985
  0
LINE
  5
2089
330
2
100
AcDbEntity
  8
STEMPEL
100
AcDbLine
 10
179.1082444595018
 20
362.6861968082764
 30
0.0
 11
177.9479904216574
 21
362.9970859407318
 31
0.0
  0
LINE
  5
208A
330
2
100
AcDbEntity
  8
STEMPEL
100
AcDbLine
 10
249.7271779881475
 20
355.0874424569317
 30
0.0
 11
249.7271779881475
 21
362.6861968082764
 31
0.0
  0
LINE
  5
208B
330
2
100
AcDbEntity
  8
STEMPEL
100
AcDbLine
 10
245.3970509692254
 20
355.0874424569317
 30
0.0
 11
245.3970509692254
 21
362.6861968082764
 31
0.0
  0
LINE
  5
208C
330
2
100
AcDbEntity
  8
STEMPEL
100
AcDbLine
 10
236.7367969313809
 20
355.0874424569317
 30
0.0
 11
236.7367969313809
 21
362.6861968082764
 31
0.0
  0
LINE
  5
208D
330
2
100
AcDbEntity
  8
STEMPEL
100
AcDbLine
 10
232.4066699124588
 20
355.0874424569317
 30
0.0
 11
232.4066699124588
 21
362.6861968082764
 31
0.0
  0
ARC
  5
208E
330
2
100
AcDbEntity
  8
HILF
100
AcDbCircle
 10
234.5717334219199
 20
349.7485997912022
 30
0.0
 40
5.761140599691502
100
AcDbArc
 50
67.92594526326206
 51
112.0740547367379
  0
LINE
  5
208F
330
2
100
AcDbEntity
  8
STEMPEL
100
AcDbLine
 10
251.4734390577974
 20
354.4518554063213
 30
0.0
 11
230.6604088428089
 21
354.4518554063213
 31
0.0
  0
LINE
  5
2090
330
2
100
AcDbEntity
  8
STEMPEL
100
AcDbLine
 10
251.2169239503031
 20
352.9970859407318
 30
0.0
 11
230.9169239503031
 21
352.9970859407318
 31
0.0
  0
LINE
  5
2091
330
2
100
AcDbEntity
  8
STEMPEL
100
AcDbLine
 10
232.4066699124588
 20
355.0874424569317
 30
0.0
 11
230.6604088428089
 21
354.4518554063213
 31
0.0
  0
ARC
  5
2092
330
2
100
AcDbEntity
  8
STEMPEL
100
AcDbCircle
 10
230.9169239503031
 20
353.7470859407318
 30
0.0
 40
0.7500000000000013
100
AcDbArc
 50
109.9999999999995
 51
269.9999991462263
  0
LINE
  5
2093
330
2
100
AcDbEntity
  8
STEMPEL
100
AcDbLine
 10
251.4734390577974
 20
354.4518554063213
 30
0.0
 11
249.7271779881475
 21
355.0874424569317
 31
0.0
  0
ARC
  5
2094
330
2
100
AcDbEntity
  8
HILF
100
AcDbCircle
 10
241.0669239503032
 20
333.0986248930706
 30
0.0
 40
22.41111549782308
100
AcDbArc
 50
78.85962783890537
 51
101.1403721610946
  0
POINT
  5
2095
330
2
100
AcDbEntity
  8
0
100
AcDbPoint
 10
241.0669239503032
 20
352.9970859407318
 30
0.0
210
0.0000000000000001
220
1.0
230
0.0
  0
ARC
  5
2096
330
2
100
AcDbEntity
  8
HILF
100
AcDbCircle
 10
247.5621144786864
 20
349.7485997912022
 30
0.0
 40
5.761140599691502
100
AcDbArc
 50
67.92594526326206
 51
112.0740547367379
  0
ARC
  5
2097
330
2
100
AcDbEntity
  8
STEMPEL
100
AcDbCircle
 10
251.2169239503031
 20
353.7470859407318
 30
0.0
 40
0.750000000000001
100
AcDbArc
 50
269.9999991462263
 51
70.00000000000047
  0
ARC
  5
2098
330
2
100
AcDbEntity
  8
STEMPEL
100
AcDbCircle
 10
234.5717334219199
 20
355.3027802329474
 30
0.0
 40
7.694305707784447
100
AcDbArc
 50
73.65710669401501
 51
106.342893305985
  0
LINE
  5
2099
330
2
100
AcDbEntity
  8
STEMPEL
100
AcDbLine
 10
233.5669239503032
 20
362.9970859407318
 30
0.0
 11
232.4066699124588
 21
362.6861968082764
 31
0.0
  0
ARC
  5
209A
330
2
100
AcDbEntity
  8
STEMPEL
100
AcDbCircle
 10
241.0669239503032
 20
332.686196808277
 30
0.0
 40
30.31088913245485
100
AcDbArc
 50
81.78678929826221
 51
98.2132107017378
  0
LINE
  5
209B
330
2
100
AcDbEntity
  8
STEMPEL
100
AcDbLine
 10
233.5669239503032
 20
362.9970859407318
 30
0.0
 11
248.5669239503031
 21
362.9970859407318
 31
0.0
  0
ARC
  5
209C
330
2
100
AcDbEntity
  8
STEMPEL
100
AcDbCircle
 10
247.5621144786864
 20
355.3027802329474
 30
0.0
 40
7.694305707784447
100
AcDbArc
 50
73.65710669401501
 51
106.342893305985
  0
LINE
  5
209D
330
2
100
AcDbEntity
  8
STEMPEL
100
AcDbLine
 10
249.7271779881475
 20
362.6861968082764
 30
0.0
 11
248.5669239503031
 21
362.9970859407318
 31
0.0
  0
LINE
  5
209E
330
2
100
AcDbEntity
  8
STEMPEL
100
AcDbLine
 10
338.5827521007659
 20
355.0874424569318
 30
0.0
 11
338.5827521007659
 21
362.6861968082766
 31
0.0
  0
LINE
  5
209F
330
2
100
AcDbEntity
  8
STEMPEL
100
AcDbLine
 10
334.2526250818437
 20
355.0874424569318
 30
0.0
 11
334.2526250818437
 21
362.6861968082766
 31
0.0
  0
LINE
  5
20A0
330
2
100
AcDbEntity
  8
STEMPEL
100
AcDbLine
 10
325.5923710439993
 20
355.0874424569318
 30
0.0
 11
325.5923710439993
 21
362.6861968082766
 31
0.0
  0
LINE
  5
20A1
330
2
100
AcDbEntity
  8
STEMPEL
100
AcDbLine
 10
321.2622440250771
 20
355.0874424569318
 30
0.0
 11
321.2622440250771
 21
362.6861968082766
 31
0.0
  0
ARC
  5
20A2
330
2
100
AcDbEntity
  8
HILF
100
AcDbCircle
 10
323.4273075345381
 20
349.7485997912023
 30
0.0
 40
5.761140599691502
100
AcDbArc
 50
67.92594526326206
 51
112.0740547367379
  0
LINE
  5
20A3
330
2
100
AcDbEntity
  8
STEMPEL
100
AcDbLine
 10
339.3159438071258
 20
354.4518554063214
 30
0.0
 11
319.5159829554273
 21
354.4518554063214
 31
0.0
  0
LINE
  5
20A5
330
2
100
AcDbEntity
  8
STEMPEL
100
AcDbLine
 10
321.2622440250771
 20
355.0874424569318
 30
0.0
 11
319.5159829554273
 21
354.4518554063214
 31
0.0
  0
ARC
  5
20A6
330
2
100
AcDbEntity
  8
STEMPEL
100
AcDbCircle
 10
319.7724980629215
 20
353.7470859407319
 30
0.0
 40
0.7500000000000013
100
AcDbArc
 50
109.9999999999995
 51
269.9999991462263
  0
LINE
  5
20A7
330
2
100
AcDbEntity
  8
STEMPEL
100
AcDbLine
 10
339.5726580043302
 20
354.72714617331
 30
0.0
 11
338.5827521007659
 21
355.0874424569318
 31
0.0
  0
ARC
  5
20A8
330
2
100
AcDbEntity
  8
HILF
100
AcDbCircle
 10
329.9224980629215
 20
333.0986248930707
 30
0.0
 40
22.41111549782308
100
AcDbArc
 50
78.85962783890537
 51
101.1403721610946
  0
POINT
  5
20A9
330
2
100
AcDbEntity
  8
0
100
AcDbPoint
 10
329.9224980629215
 20
352.997085940732
 30
0.0
210
0.0000000000000001
220
1.0
230
0.0
  0
ARC
  5
20AA
330
2
100
AcDbEntity
  8
HILF
100
AcDbCircle
 10
336.4176885913048
 20
349.7485997912023
 30
0.0
 40
5.761140599691502
100
AcDbArc
 50
67.92594526326206
 51
112.0740547367379
  0
ARC
  5
20AC
330
2
100
AcDbEntity
  8
STEMPEL
100
AcDbCircle
 10
323.4273075345382
 20
355.3027802329475
 30
0.0
 40
7.694305707784447
100
AcDbArc
 50
73.65710669401501
 51
106.342893305985
  0
LINE
  5
20AD
330
2
100
AcDbEntity
  8
STEMPEL
100
AcDbLine
 10
322.4224980629215
 20
362.997085940732
 30
0.0
 11
321.2622440250771
 21
362.6861968082766
 31
0.0
  0
ARC
  5
20AE
330
2
100
AcDbEntity
  8
STEMPEL
100
AcDbCircle
 10
329.9224980629215
 20
332.6861968082771
 30
0.0
 40
30.31088913245485
100
AcDbArc
 50
81.78678929826221
 51
98.2132107017378
  0
LINE
  5
20AF
330
2
100
AcDbEntity
  8
STEMPEL
100
AcDbLine
 10
322.4224980629215
 20
362.997085940732
 30
0.0
 11
337.4224980629215
 21
362.997085940732
 31
0.0
  0
ARC
  5
20B0
330
2
100
AcDbEntity
  8
STEMPEL
100
AcDbCircle
 10
336.4176885913048
 20
355.3027802329475
 30
0.0
 40
7.694305707784447
100
AcDbArc
 50
73.65710669401501
 51
106.342893305985
  0
LINE
  5
20B1
330
2
100
AcDbEntity
  8
STEMPEL
100
AcDbLine
 10
338.5827521007659
 20
362.6861968082766
 30
0.0
 11
337.4224980629215
 21
362.997085940732
 31
0.0
  0
HATCH
  5
2114
330
2
100
AcDbEntity
  8
SCHRAFF
100
AcDbHatch
 10
0.0
 20
0.0
 30
0.0
210
0.0
220
0.0
230
1.0
  2
NET
 70
     0
 71
     1
 91
        4
 92
        7
 72
     0
 73
     1
 93
        4
 10
376.4479904216573
 20
340.9970859407317
 10
376.4479904216573
 20
343.9970859407318
 10
329.9224980629215
 20
343.9970859407317
 10
329.9224980629216
 20
340.9970859407319
 97
        4
330
53
330
24B
330
85
330
2C6
 92
        7
 72
     0
 73
     1
 93
        4
 10
306.4479904216573
 20
343.9970859407318
 10
306.4479904216573
 20
340.9970859407319
 10
329.9224980629215
 20
340.9970859407319
 10
329.9224980629215
 20
343.9970859407317
 97
        4
330
53
330
238
330
85
330
24B
 92
        7
 72
     0
 73
     1
 93
        4
 10
121.4479904216573
 20
343.9970859407317
 10
121.4479904216573
 20
340.9970859407325
 10
146.4479904216572
 20
340.9970859407324
 10
146.4479904216572
 20
343.9970859407317
 97
        4
330
53
330
11E9
330
85
330
136
 92
        7
 72
     0
 73
     1
 93
        4
 10
107.4479904216573
 20
340.9970859407326
 10
107.4479904216573
 20
343.9970859407316
 10
76.44799042165726
 20
343.9970859407317
 10
76.44799042165728
 20
340.9970859407327
 97
        4
330
F0
330
F7
330
85
330
11E8
 75
     0
 76
     1
 52
45.0
 41
15.0
 77
     0
 78
     2
 53
45.0
 43
0.0
 44
0.0
 45
-1.325825214724776
 46
1.325825214724776
 79
     0
 53
135.0
 43
0.0
 44
0.0
 45
-1.325825214724776
 46
-1.325825214724776
 79
     0
 47
0.3308485435801296
 98
        4
 10
348.3688630650227
 20
342.3994016041115
 10
322.8848823287763
 20
342.7302506357698
 10
139.5325966330447
 20
342.7302506357698
 10
102.4649859443407
 20
342.0685539556359
  0
ENDSEC
  0
SECTION
  2
OBJECTS
  0
DICTIONARY
  5
1E
330
0
100
AcDbDictionary
281
     1
  3
ACAD_COLOR
350
1254
  3
ACAD_GROUP
350
1C
  3
ACAD_LAYOUT
350
1255
  3
ACAD_MATERIAL
350
1253
  3
ACAD_MLINESTYLE
350
1D
  3
ACAD_PLOTSETTINGS
350
1256
  3
ACAD_PLOTSTYLENAME
350
1251
  3
ACDBVARIABLEDICTIONARY
350
2D4
  0
DICTIONARY
  5
3
330
2
100
AcDbDictionary
280
     1
281
     1
  3
ACAD_LAYOUTSELFREF
360
4
  0
DICTIONARY
  5
A
330
9
100
AcDbDictionary
280
     1
281
     1
  3
ACAD_LAYOUTSELFREF
360
B
  0
DICTIONARY
  5
1254
102
{ACAD_REACTORS
330
1E
102
}
330
1E
100
AcDbDictionary
281
     1
  0
DICTIONARY
  5
1C
102
{ACAD_REACTORS
330
1E
102
}
330
1E
100
AcDbDictionary
281
     1
  0
DICTIONARY
  5
1255
102
{ACAD_REACTORS
330
1E
102
}
330
1E
100
AcDbDictionary
281
     1
  3
Layout1
350
1258
  3
Model
350
1257
  0
DICTIONARY
  5
1253
102
{ACAD_REACTORS
330
1E
102
}
330
1E
100
AcDbDictionary
281
     1
  0
DICTIONARY
  5
1D
102
{ACAD_REACTORS
330
1E
102
}
330
1E
100
AcDbDictionary
281
     1
  3
STANDARD
350
21
  0
DICTIONARY
  5
1256
102
{ACAD_REACTORS
330
1E
102
}
330
1E
100
AcDbDictionary
281
     1
  0
ACDBDICTIONARYWDFLT
  5
1251
102
{ACAD_REACTORS
330
1E
102
}
330
1E
100
AcDbDictionary
281
     1
  3
Normal
350
1252
100
AcDbDictionaryWithDefault
340
1252
  0
DICTIONARY
  5
2D4
102
{ACAD_REACTORS
330
1E
102
}
330
1E
100
AcDbDictionary
281
     1
  3
DIMASSOC
350
13B6
  3
PROJECTNAME
350
13B7
  3
SORTENTS
350
2D5
  0
XRECORD
  5
4
102
{ACAD_REACTORS
330
3
102
}
330
3
100
AcDbXrecord
280
     1
340
2
  0
XRECORD
  5
B
102
{ACAD_REACTORS
330
A
102
}
330
A
100
AcDbXrecord
280
     1
340
9
  0
LAYOUT
  5
1258
102
{ACAD_REACTORS
330
1255
102
}
330
1255
100
AcDbPlotSettings
  1

  2
RICOH Aficio 2027 PCL 6
  4

  6

 40
0.0
 41
0.0
 42
0.0
 43
0.0
 44
0.0
 45
0.0
 46
0.0
 47
0.0
 48
0.0
 49
0.0
140
0.0
141
0.0
142
1.0
143
1.0
 70
   688
 72
     0
 73
     0
 74
     5
  7
monochrome1.ctb
 75
    16
147
1.0
 76
     0
 77
     2
 78
   300
148
0.0
149
0.0
100
AcDbLayout
  1
Layout1
 70
     0
 71
     1
 10
0.0
 20
0.0
 11
12.0
 21
9.0
 12
2.245140564963854
 22
50.00000000000001
 32
-1.032422173993944
 14
1.000000000000000E+20
 24
1.000000000000000E+20
 34
1.000000000000000E+20
 15
-1.000000000000000E+20
 25
-1.000000000000000E+20
 35
-1.000000000000000E+20
146
0.0
 13
0.0
 23
0.0
 33
0.0
 16
1.0
 26
0.0
 36
0.0
 17
0.0
 27
1.0
 37
0.0
 76
     0
330
9
  0
LAYOUT
  5
1257
102
{ACAD_REACTORS
330
1255
102
}
330
1255
100
AcDbPlotSettings
  1

  2
RICOH Aficio 2027 PCL 6
  4
A4
  6

 40
5.027083396911621
 41
5.027085304260253
 42
5.027084350585937
 43
5.027069091796875
 44
209.9733276367187
 45
296.9259948730469
 46
0.0
 47
2.06
 48
0.0
 49
0.0
140
0.0
141
0.0
142
1.0
143
2.100849164395896
 70
 11956
 72
     1
 73
     0
 74
     2
  7
monochrome1.ctb
 75
     0
147
0.4759979997362411
 76
     0
 77
     2
 78
   300
148
0.0
149
0.0
100
AcDbLayout
  1
Model
 70
     1
 71
     0
 10
0.0
 20
0.0
 11
12.0
 21
9.0
 12
0.0
 22
0.0
 32
0.0
 14
0.0
 24
0.0
 34
0.0
 15
0.0
 25
0.0
 35
0.0
146
0.0
 13
0.0
 23
0.0
 33
0.0
 16
1.0
 26
0.0
 36
0.0
 17
0.0
 27
1.0
 37
0.0
 76
     0
330
2
  0
MLINESTYLE
  5
21
102
{ACAD_REACTORS
330
1D
102
}
330
1D
100
AcDbMlineStyle
  2
STANDARD
 70
     0
  3

 62
   256
 51
90.0
 52
90.0
 71
     2
 49
0.5
 62
   256
  6
BYLAYER
 49
-0.5
 62
   256
  6
BYLAYER
  0
ACDBPLACEHOLDER
  5
1252
102
{ACAD_REACTORS
330
1251
102
}
330
1251
  0
DICTIONARYVAR
  5
13B6
102
{ACAD_REACTORS
330
2D4
102
}
330
2D4
100
DictionaryVariables
280
     0
  1
1
  0
DICTIONARYVAR
  5
13B7
102
{ACAD_REACTORS
330
2D4
102
}
330
2D4
100
DictionaryVariables
280
     0
  1

  0
DICTIONARYVAR
  5
2D5
102
{ACAD_REACTORS
330
2D4
102
}
330
2D4
100
DictionaryVariables
280
     0
  1
96
  0
ENDSEC
  0
EOF
