  0
SECTION
  2
HEADER
  9
$ACADVER
  1
AC1018
  9
$ACADMAINTVER
 70
     2
  9
$DWGCODEPAGE
  3
ANSI_1252
  9
$INSBASE
 10
0.0
 20
0.0
 30
0.0
  9
$EXTMIN
 10
0.0
 20
-0.0000000000000568
 30
0.0
  9
$EXTMAX
 10
594.0
 20
840.0
 30
0.0
  9
$LIMMIN
 10
0.0
 20
0.0
  9
$LIMMAX
 10
594.0
 20
840.0
  9
$ORTHOMODE
 70
     1
  9
$REGENMODE
 70
     1
  9
$FILLMODE
 70
     1
  9
$QTEXTMODE
 70
     0
  9
$MIRRTEXT
 70
     1
  9
$LTSCALE
 40
20.0
  9
$ATTMODE
 70
     1
  9
$TEXTSIZE
 40
3.5
  9
$TRACEWID
 40
1.0
  9
$TEXTSTYLE
  7
STANDARD
  9
$CLAYER
  8
VOLL
  9
$CELTYPE
  6
ByLayer
  9
$CECOLOR
 62
   256
  9
$CELTSCALE
 40
1.0
  9
$DISPSILH
 70
     0
  9
$DIMSCALE
 40
2.0
  9
$DIMASZ
 40
3.5
  9
$DIMEXO
 40
1.0
  9
$DIMDLI
 40
7.0
  9
$DIMRND
 40
0.0
  9
$DIMDLE
 40
0.0
  9
$DIMEXE
 40
1.0
  9
$DIMTP
 40
0.0
  9
$DIMTM
 40
0.0
  9
$DIMTXT
 40
3.5
  9
$DIMCEN
 40
1.5
  9
$DIMTSZ
 40
0.0
  9
$DIMTOL
 70
     0
  9
$DIMLIM
 70
     0
  9
$DIMTIH
 70
     0
  9
$DIMTOH
 70
     0
  9
$DIMSE1
 70
     0
  9
$DIMSE2
 70
     0
  9
$DIMTAD
 70
     1
  9
$DIMZIN
 70
     8
  9
$DIMBLK
  1

  9
$DIMASO
 70
     1
  9
$DIMSHO
 70
     0
  9
$DIMPOST
  1

  9
$DIMAPOST
  1

  9
$DIMALT
 70
     0
  9
$DIMALTD
 70
     2
  9
$DIMALTF
 40
25.4
  9
$DIMLFAC
 40
1.0
  9
$DIMTOFL
 70
     1
  9
$DIMTVP
 40
0.0
  9
$DIMTIX
 70
     0
  9
$DIMSOXD
 70
     0
  9
$DIMSAH
 70
     0
  9
$DIMBLK1
  1

  9
$DIMBLK2
  1

  9
$DIMSTYLE
  2
Standard
  9
$DIMCLRD
 70
     0
  9
$DIMCLRE
 70
     0
  9
$DIMCLRT
 70
     1
  9
$DIMTFAC
 40
0.5142857142857144
  9
$DIMGAP
 40
1.5
  9
$DIMJUST
 70
     0
  9
$DIMSD1
 70
     0
  9
$DIMSD2
 70
     0
  9
$DIMTOLJ
 70
     1
  9
$DIMTZIN
 70
     8
  9
$DIMALTZ
 70
     8
  9
$DIMALTTZ
 70
     8
  9
$DIMUPT
 70
     0
  9
$DIMDEC
 70
     2
  9
$DIMTDEC
 70
     2
  9
$DIMALTU
 70
     2
  9
$DIMALTTD
 70
     2
  9
$DIMTXSTY
  7
STANDARD
  9
$DIMAUNIT
 70
     0
  9
$DIMADEC
 70
     2
  9
$DIMALTRND
 40
0.0
  9
$DIMAZIN
 70
     2
  9
$DIMDSEP
 70
    46
  9
$DIMATFIT
 70
     3
  9
$DIMFRAC
 70
     0
  9
$DIMLDRBLK
  1

  9
$DIMLUNIT
 70
     2
  9
$DIMLWD
 70
    -2
  9
$DIMLWE
 70
    -2
  9
$DIMTMOVE
 70
     0
  9
$LUNITS
 70
     2
  9
$LUPREC
 70
     2
  9
$SKETCHINC
 40
1.0
  9
$FILLETRAD
 40
0.0
  9
$AUNITS
 70
     0
  9
$AUPREC
 70
     0
  9
$MENU
  1
ACAD
  9
$ELEVATION
 40
0.0
  9
$PELEVATION
 40
0.0
  9
$THICKNESS
 40
0.0
  9
$LIMCHECK
 70
     0
  9
$CHAMFERA
 40
0.0
  9
$CHAMFERB
 40
0.0
  9
$CHAMFERC
 40
0.0
  9
$CHAMFERD
 40
0.0
  9
$SKPOLY
 70
     0
  9
$TDCREATE
 40
2455397.825393172
  9
$TDUCREATE
 40
2455397.783726505
  9
$TDUPDATE
 40
2455593.606652859
  9
$TDUUPDATE
 40
2455593.564986192
  9
$TDINDWG
 40
0.1076966204
  9
$TDUSRTIMER
 40
0.1076966204
  9
$USRTIMER
 70
     1
  9
$ANGBASE
 50
0.0
  9
$ANGDIR
 70
     0
  9
$PDMODE
 70
     0
  9
$PDSIZE
 40
0.0
  9
$PLINEWID
 40
0.0
  9
$SPLFRAME
 70
     0
  9
$SPLINETYPE
 70
     6
  9
$SPLINESEGS
 70
     8
  9
$HANDSEED
  5
12E5
  9
$SURFTAB1
 70
     6
  9
$SURFTAB2
 70
     6
  9
$SURFTYPE
 70
     6
  9
$SURFU
 70
     6
  9
$SURFV
 70
     6
  9
$UCSBASE
  2

  9
$UCSNAME
  2

  9
$UCSORG
 10
0.0
 20
0.0
 30
0.0
  9
$UCSXDIR
 10
1.0
 20
0.0
 30
0.0
  9
$UCSYDIR
 10
0.0
 20
1.0
 30
0.0
  9
$UCSORTHOREF
  2

  9
$UCSORTHOVIEW
 70
     0
  9
$UCSORGTOP
 10
0.0
 20
0.0
 30
0.0
  9
$UCSORGBOTTOM
 10
0.0
 20
0.0
 30
0.0
  9
$UCSORGLEFT
 10
0.0
 20
0.0
 30
0.0
  9
$UCSORGRIGHT
 10
0.0
 20
0.0
 30
0.0
  9
$UCSORGFRONT
 10
0.0
 20
0.0
 30
0.0
  9
$UCSORGBACK
 10
0.0
 20
0.0
 30
0.0
  9
$PUCSBASE
  2

  9
$PUCSNAME
  2

  9
$PUCSORG
 10
0.0
 20
0.0
 30
0.0
  9
$PUCSXDIR
 10
1.0
 20
0.0
 30
0.0
  9
$PUCSYDIR
 10
0.0
 20
1.0
 30
0.0
  9
$PUCSORTHOREF
  2

  9
$PUCSORTHOVIEW
 70
     0
  9
$PUCSORGTOP
 10
0.0
 20
0.0
 30
0.0
  9
$PUCSORGBOTTOM
 10
0.0
 20
0.0
 30
0.0
  9
$PUCSORGLEFT
 10
0.0
 20
0.0
 30
0.0
  9
$PUCSORGRIGHT
 10
0.0
 20
0.0
 30
0.0
  9
$PUCSORGFRONT
 10
0.0
 20
0.0
 30
0.0
  9
$PUCSORGBACK
 10
0.0
 20
0.0
 30
0.0
  9
$USERI1
 70
     0
  9
$USERI2
 70
     0
  9
$USERI3
 70
     0
  9
$USERI4
 70
     0
  9
$USERI5
 70
     0
  9
$USERR1
 40
0.0
  9
$USERR2
 40
0.0
  9
$USERR3
 40
0.0
  9
$USERR4
 40
0.0
  9
$USERR5
 40
0.0
  9
$WORLDVIEW
 70
     1
  9
$SHADEDGE
 70
     3
  9
$SHADEDIF
 70
    70
  9
$TILEMODE
 70
     1
  9
$MAXACTVP
 70
    16
  9
$PINSBASE
 10
0.0
 20
0.0
 30
0.0
  9
$PLIMCHECK
 70
     0
  9
$PEXTMIN
 10
1.000000000000000E+20
 20
1.000000000000000E+20
 30
1.000000000000000E+20
  9
$PEXTMAX
 10
-1.000000000000000E+20
 20
-1.000000000000000E+20
 30
-1.000000000000000E+20
  9
$PLIMMIN
 10
0.0
 20
0.0
  9
$PLIMMAX
 10
12.0
 20
9.0
  9
$UNITMODE
 70
     0
  9
$VISRETAIN
 70
     0
  9
$PLINEGEN
 70
     0
  9
$PSLTSCALE
 70
     0
  9
$TREEDEPTH
 70
  3020
  9
$CMLSTYLE
  2
Standard
  9
$CMLJUST
 70
     0
  9
$CMLSCALE
 40
1.0
  9
$PROXYGRAPHICS
 70
     1
  9
$MEASUREMENT
 70
     0
  9
$CELWEIGHT
370
    -1
  9
$ENDCAPS
280
     0
  9
$JOINSTYLE
280
     0
  9
$LWDISPLAY
290
     0
  9
$INSUNITS
 70
     0
  9
$HYPERLINKBASE
  1

  9
$STYLESHEET
  1
monochrome 1.ctb
  9
$XEDIT
290
     1
  9
$CEPSNTYPE
380
     0
  9
$PSTYLEMODE
290
     1
  9
$FINGERPRINTGUID
  2
{D68B0D0D-A558-11D7-B632-000102183313}
  9
$VERSIONGUID
  2
{F3694AA4-A129-4C0B-93B6-07E9A9516856}
  9
$EXTNAMES
290
     1
  9
$PSVPSCALE
 40
0.0
  9
$OLESTARTUP
290
     0
  9
$SORTENTS
280
   127
  9
$INDEXCTL
280
     0
  9
$HIDETEXT
280
     0
  9
$XCLIPFRAME
290
     0
  9
$HALOGAP
280
     0
  9
$OBSCOLOR
 70
   257
  9
$OBSLTYPE
280
     0
  9
$INTERSECTIONDISPLAY
280
     0
  9
$INTERSECTIONCOLOR
 70
   257
  9
$DIMASSOC
280
     1
  9
$PROJECTNAME
  1

  0
ENDSEC
  0
SECTION
  2
CLASSES
  0
CLASS
  1
ACDBDICTIONARYWDFLT
  2
AcDbDictionaryWithDefault
  3
ObjectDBX Classes
 90
        0
 91
        1
280
     0
281
     0
  0
CLASS
  1
DICTIONARYVAR
  2
AcDbDictionaryVar
  3
ObjectDBX Classes
 90
        0
 91
        2
280
     0
281
     0
  0
ENDSEC
  0
SECTION
  2
TABLES
  0
TABLE
  2
VPORT
  5
8
330
0
100
AcDbSymbolTable
 70
     2
  0
VPORT
  5
12E4
330
8
100
AcDbSymbolTableRecord
100
AcDbViewportTableRecord
  2
*Active
 70
     0
 10
0.0
 20
0.0
 11
1.0
 21
1.0
 12
296.9999999999999
 22
420.0
 13
0.0
 23
0.0
 14
1.0
 24
1.0
 15
10.0
 25
10.0
 16
0.0
 26
0.0
 36
1.0
 17
0.0
 27
0.0
 37
0.0
 40
840.3780022480281
 41
1.336927223719676
 42
50.0
 43
0.0
 44
0.0
 50
0.0
 51
0.0
 71
     0
 72
  1500
 73
     1
 74
     0
 75
     0
 76
     0
 77
     0
 78
     0
281
     0
 65
     1
110
0.0
120
0.0
130
0.0
111
1.0
121
0.0
131
0.0
112
0.0
122
1.0
132
0.0
 79
     0
146
0.0
  0
ENDTAB
  0
TABLE
  2
LTYPE
  5
5
330
0
100
AcDbSymbolTable
 70
     3
  0
LTYPE
  5
13
330
5
100
AcDbSymbolTableRecord
100
AcDbLinetypeTableRecord
  2
ByBlock
 70
     0
  3

 72
    65
 73
     0
 40
0.0
  0
LTYPE
  5
14
330
5
100
AcDbSymbolTableRecord
100
AcDbLinetypeTableRecord
  2
ByLayer
 70
     0
  3

 72
    65
 73
     0
 40
0.0
  0
LTYPE
  5
15
330
5
100
AcDbSymbolTableRecord
100
AcDbLinetypeTableRecord
  2
Continuous
 70
     0
  3
Solid line
 72
    65
 73
     0
 40
0.0
  0
LTYPE
  5
25
330
5
100
AcDbSymbolTableRecord
100
AcDbLinetypeTableRecord
  2
STRICHPUNKT
 70
     0
  3
__ . __ . __ . __ . __ . __ . __ . __ . __ . __
 72
    65
 73
     4
 40
1.0
 49
0.5
 74
     0
 49
-0.25
 74
     0
 49
0.0
 74
     0
 49
-0.25
 74
     0
  0
LTYPE
  5
34
330
5
100
AcDbSymbolTableRecord
100
AcDbLinetypeTableRecord
  2
AUSGEZOGEN
 70
     0
  3
Ausgezogene Linie
 72
    65
 73
     0
 40
0.0
  0
ENDTAB
  0
TABLE
  2
LAYER
  5
2
330
0
100
AcDbSymbolTable
 70
     9
  0
LAYER
  5
10
330
2
100
AcDbSymbolTableRecord
100
AcDbLayerTableRecord
  2
0
 70
     0
 62
     7
  6
Continuous
370
    -3
390
F
  0
LAYER
  5
2B
330
2
100
AcDbSymbolTableRecord
100
AcDbLayerTableRecord
  2
VOLL
 70
     0
 62
     1
  6
Continuous
370
    -3
390
F
  0
LAYER
  5
2C
330
2
100
AcDbSymbolTableRecord
100
AcDbLayerTableRecord
  2
HILF
 70
     0
 62
     2
  6
Continuous
370
    -3
390
F
  0
LAYER
  5
2D
330
2
100
AcDbSymbolTableRecord
100
AcDbLayerTableRecord
  2
MITTEL
 70
     0
 62
     2
  6
STRICHPUNKT
370
    -3
390
F
  0
LAYER
  5
2F
330
2
100
AcDbSymbolTableRecord
100
AcDbLayerTableRecord
  2
BEM
 70
     0
 62
     7
  6
Continuous
370
    -3
390
F
  0
LAYER
  5
30
330
2
100
AcDbSymbolTableRecord
100
AcDbLayerTableRecord
  2
STEMPEL
 70
     0
 62
     3
  6
Continuous
370
    -3
390
F
  0
LAYER
  5
33
330
2
100
AcDbSymbolTableRecord
100
AcDbLayerTableRecord
  2
TEXT
 70
     0
 62
     7
  6
Continuous
370
    -3
390
F
  0
LAYER
  5
1DD
330
2
100
AcDbSymbolTableRecord
100
AcDbLayerTableRecord
  2
DEFPOINTS
 70
     0
 62
     7
  6
AUSGEZOGEN
290
     0
370
    -3
390
F
  0
LAYER
  5
1DE
330
2
100
AcDbSymbolTableRecord
100
AcDbLayerTableRecord
  2
SCHRAFF
 70
     0
 62
     7
  6
AUSGEZOGEN
370
    -3
390
F
  0
ENDTAB
  0
TABLE
  2
STYLE
  5
3
330
0
100
AcDbSymbolTable
 70
     2
  0
STYLE
  5
11
330
3
100
AcDbSymbolTableRecord
100
AcDbTextStyleTableRecord
  2
STANDARD
 70
     0
 40
0.0
 41
0.8
 50
0.0
 71
     0
 42
3.5
  3
simplex.shx
  4

  0
STYLE
  5
24
330
3
100
AcDbSymbolTableRecord
100
AcDbTextStyleTableRecord
  2
GREEKS
 70
     0
 40
0.0
 41
0.8
 50
0.0
 71
     0
 42
2.5
  3
SIMPLEX.shx
  4

  0
ENDTAB
  0
TABLE
  2
VIEW
  5
6
330
0
100
AcDbSymbolTable
 70
     0
  0
ENDTAB
  0
TABLE
  2
UCS
  5
7
330
0
100
AcDbSymbolTable
 70
     0
  0
ENDTAB
  0
TABLE
  2
APPID
  5
9
330
0
100
AcDbSymbolTable
 70
     1
  0
APPID
  5
12
330
9
100
AcDbSymbolTableRecord
100
AcDbRegAppTableRecord
  2
ACAD
 70
     0
  0
ENDTAB
  0
TABLE
  2
DIMSTYLE
  5
A
330
0
100
AcDbSymbolTable
 70
     1
100
AcDbDimStyleTable
 71
     1
340
A2
  0
DIMSTYLE
105
A2
102
{ACAD_REACTORS
330
B14
330
AE2
330
CA5
330
CA7
330
CAC
330
E9B
330
FD9
330
FDA
330
FDB
102
}
330
A
100
AcDbSymbolTableRecord
100
AcDbDimStyleTableRecord
  2
Standard
 70
     0
340
11
  0
ENDTAB
  0
TABLE
  2
BLOCK_RECORD
  5
1
330
0
100
AcDbSymbolTable
 70
    11
  0
BLOCK_RECORD
  5
1E
102
{ACAD_XDICTIONARY
360
DB
102
}
330
1
100
AcDbSymbolTableRecord
100
AcDbBlockTableRecord
  2
*Model_Space
340
21
  0
BLOCK_RECORD
  5
1A
102
{ACAD_XDICTIONARY
360
DD
102
}
330
1
100
AcDbSymbolTableRecord
100
AcDbBlockTableRecord
  2
*Paper_Space
340
1D
  0
BLOCK_RECORD
  5
22
330
1
100
AcDbSymbolTableRecord
100
AcDbBlockTableRecord
  2
LOGO
340
0
102
{BLKREFS
331
56
102
}
  0
BLOCK_RECORD
  5
23
330
1
100
AcDbSymbolTableRecord
100
AcDbBlockTableRecord
  2
LORO
340
0
102
{BLKREFS
331
9B
102
}
  0
BLOCK_RECORD
  5
B2D
330
1
100
AcDbSymbolTableRecord
100
AcDbBlockTableRecord
  2
*D2
340
0
  0
BLOCK_RECORD
  5
B5D
330
1
100
AcDbSymbolTableRecord
100
AcDbBlockTableRecord
  2
*D3
340
0
  0
BLOCK_RECORD
  5
CB4
330
1
100
AcDbSymbolTableRecord
100
AcDbBlockTableRecord
  2
*D4
340
0
  0
BLOCK_RECORD
  5
CC0
330
1
100
AcDbSymbolTableRecord
100
AcDbBlockTableRecord
  2
*D5
340
0
  0
BLOCK_RECORD
  5
CCC
330
1
100
AcDbSymbolTableRecord
100
AcDbBlockTableRecord
  2
*D6
340
0
  0
BLOCK_RECORD
  5
FE2
330
1
100
AcDbSymbolTableRecord
100
AcDbBlockTableRecord
  2
*D7
340
0
  0
BLOCK_RECORD
  5
FEE
330
1
100
AcDbSymbolTableRecord
100
AcDbBlockTableRecord
  2
*D8
340
0
  0
BLOCK_RECORD
  5
FFA
330
1
100
AcDbSymbolTableRecord
100
AcDbBlockTableRecord
  2
*D9
340
0
  0
BLOCK_RECORD
  5
1006
330
1
100
AcDbSymbolTableRecord
100
AcDbBlockTableRecord
  2
*D10
340
0
  0
ENDTAB
  0
ENDSEC
  0
SECTION
  2
BLOCKS
  0
BLOCK
  5
37
330
1E
100
AcDbEntity
  8
0
100
AcDbBlockBegin
  2
*Model_Space
 70
     0
 10
0.0
 20
0.0
 30
0.0
  3
*Model_Space
  1

  0
ENDBLK
  5
38
330
1E
100
AcDbEntity
  8
0
100
AcDbBlockEnd
  0
BLOCK
  5
35
330
1A
100
AcDbEntity
 67
     1
  8
0
100
AcDbBlockBegin
  2
*Paper_Space
 70
     0
 10
0.0
 20
0.0
 30
0.0
  3
*Paper_Space
  1

  0
ENDBLK
  5
36
330
1A
100
AcDbEntity
 67
     1
  8
0
100
AcDbBlockEnd
  0
BLOCK
  5
39
330
22
100
AcDbEntity
  8
0
100
AcDbBlockBegin
  2
LOGO
 70
     0
 10
0.0
 20
0.0
 30
0.0
  3
LOGO
  1

  0
ARC
  5
3A
330
22
100
AcDbEntity
  8
0
100
AcDbCircle
 10
11.59973089678112
 20
-9.271599258481501
 30
0.0
 40
4.5
100
AcDbArc
 50
270.0
 51
231.0575587310159
  0
LINE
  5
3B
330
22
100
AcDbEntity
  8
0
100
AcDbLine
 10
3.599730896781125
 20
-4.771599258481529
 30
0.0
 11
3.599730896781153
 21
-11.77159925848133
 31
0.0
  0
LINE
  5
3C
330
22
100
AcDbEntity
  8
0
100
AcDbLine
 10
2.599730896781125
 20
-4.771599258481529
 30
0.0
 11
2.599730896781153
 21
-11.77159925848133
 31
0.0
  0
CIRCLE
  5
3D
330
22
100
AcDbEntity
  8
0
100
AcDbCircle
 10
11.59973089678112
 20
-9.271599258481501
 30
0.0
 40
3.5
  0
ARC
  5
3E
330
22
100
AcDbEntity
  8
0
100
AcDbCircle
 10
31.59973089678115
 20
-9.271599258481472
 30
0.0
 40
4.5
100
AcDbArc
 50
270.0
 51
231.0575587310182
  0
LINE
  5
3F
330
22
100
AcDbEntity
  8
0
100
AcDbLine
 10
17.59973089678112
 20
-4.771599258481472
 30
0.0
 11
17.59973089678115
 21
-13.77159925848147
 31
0.0
  0
ARC
  5
40
330
22
100
AcDbEntity
  8
0
100
AcDbCircle
 10
22.59973089678116
 20
-7.271599258481472
 30
0.0
 40
2.5
100
AcDbArc
 50
293.1161887722295
 51
90.0
  0
CIRCLE
  5
41
330
22
100
AcDbEntity
  8
0
100
AcDbCircle
 10
31.59973089678115
 20
-9.271599258481472
 30
0.0
 40
3.5
  0
ARC
  5
42
330
22
100
AcDbEntity
  8
0
100
AcDbCircle
 10
4.599730896781153
 20
-11.77159925848133
 30
0.0
 40
1.0
100
AcDbArc
 50
180.0
 51
270.0
  0
ARC
  5
43
330
22
100
AcDbEntity
  8
0
100
AcDbCircle
 10
4.599730896781153
 20
-11.77159925848133
 30
0.0
 40
2.0
100
AcDbArc
 50
179.9999999999992
 51
270.0
  0
LINE
  5
44
330
22
100
AcDbEntity
  8
0
100
AcDbLine
 10
11.59973089678115
 20
-13.77159925848144
 30
0.0
 11
4.599730896781153
 21
-13.77159925848147
 31
0.0
  0
LINE
  5
45
330
22
100
AcDbEntity
  8
0
100
AcDbLine
 10
8.771303772034769
 20
-12.77159925848136
 30
0.0
 11
4.599730896781153
 21
-12.77159925848133
 31
0.0
  0
LINE
  5
46
330
22
100
AcDbEntity
  8
0
100
AcDbLine
 10
31.59973089678115
 20
-13.77159925848147
 30
0.0
 11
23.6715276665056
 21
-13.77159925848144
 31
0.0
  0
LINE
  5
47
330
22
100
AcDbEntity
  8
0
100
AcDbLine
 10
23.56565672307022
 20
-9.51278021337896
 30
0.0
 11
24.4388546544846
 21
-12.77159925848144
 31
0.0
  0
LINE
  5
48
330
22
100
AcDbEntity
  8
0
100
AcDbLine
 10
22.59973089678116
 20
-9.771599258481472
 30
0.0
 11
18.59973089678112
 21
-9.771599258481472
 31
0.0
  0
LINE
  5
49
330
22
100
AcDbEntity
  8
0
100
AcDbLine
 10
18.59973089678115
 20
-13.77159925848144
 30
0.0
 11
17.59973089678115
 21
-13.77159925848144
 31
0.0
  0
LINE
  5
4A
330
22
100
AcDbEntity
  8
0
100
AcDbLine
 10
18.59973089678115
 20
-9.771599258481472
 30
0.0
 11
18.59973089678115
 21
-13.77159925848144
 31
0.0
  0
LINE
  5
4B
330
22
100
AcDbEntity
  8
0
100
AcDbLine
 10
22.59973089678116
 20
-9.771599258481472
 30
0.0
 11
23.67152766650562
 21
-13.77159925848147
 31
0.0
  0
ARC
  5
4C
330
22
100
AcDbEntity
  8
0
100
AcDbCircle
 10
22.59973089678116
 20
-7.271599258481472
 30
0.0
 40
2.5
100
AcDbArc
 50
270.0
 51
270.0000000000007
  0
LINE
  5
4D
330
22
100
AcDbEntity
  8
0
100
AcDbLine
 10
28.77130377203494
 20
-12.77159925848147
 30
0.0
 11
24.43885465448463
 21
-12.77159925848144
 31
0.0
  0
LINE
  5
4E
330
22
100
AcDbEntity
  8
0
100
AcDbLine
 10
3.599730896781125
 20
-4.771599258481472
 30
0.0
 11
2.599730896781125
 21
-4.771599258481472
 31
0.0
  0
LINE
  5
4F
330
22
100
AcDbEntity
  8
0
100
AcDbLine
 10
22.59973089678116
 20
-8.771599258481472
 30
0.0
 11
18.59973089678115
 21
-8.771599258481472
 31
0.0
  0
LINE
  5
50
330
22
100
AcDbEntity
  8
0
100
AcDbLine
 10
22.59973089678116
 20
-5.771599258481472
 30
0.0
 11
18.59973089678115
 21
-5.771599258481472
 31
0.0
  0
LINE
  5
51
330
22
100
AcDbEntity
  8
0
100
AcDbLine
 10
22.59973089678116
 20
-4.771599258481472
 30
0.0
 11
17.59973089678115
 21
-4.771599258481472
 31
0.0
  0
LINE
  5
52
330
22
100
AcDbEntity
  8
0
100
AcDbLine
 10
18.59973089678115
 20
-5.771599258481472
 30
0.0
 11
18.59973089678115
 21
-8.771599258481472
 31
0.0
  0
ARC
  5
53
330
22
100
AcDbEntity
  8
0
100
AcDbCircle
 10
22.59973089678116
 20
-7.271599258481472
 30
0.0
 40
1.5
100
AcDbArc
 50
270.0
 51
90.0
  0
ENDBLK
  5
54
330
22
100
AcDbEntity
  8
0
100
AcDbBlockEnd
  0
BLOCK
  5
55
330
23
100
AcDbEntity
  8
0
100
AcDbBlockBegin
  2
LORO
 70
     0
 10
0.0
 20
0.0
 30
0.0
  3
LORO
  1

  0
INSERT
  5
56
330
23
100
AcDbEntity
  8
STEMPEL
100
AcDbBlockReference
  2
LOGO
 10
-1.748032802467321
 20
3.771489518552062
 30
0.0
  0
ENDBLK
  5
57
330
23
100
AcDbEntity
  8
0
100
AcDbBlockEnd
  0
BLOCK
  5
B37
330
B2D
100
AcDbEntity
  8
0
100
AcDbBlockBegin
  2
*D2
 70
     1
 10
0.0
 20
0.0
 30
0.0
  3
*D2
  1

  0
LINE
  5
B69
330
B2D
100
AcDbEntity
  8
BEM
 62
     0
370
    -2
100
AcDbLine
 10
211.8694886365723
 20
220.7757926059223
 30
0.0
 11
211.8694886365723
 21
197.5963509162213
 31
0.0
  0
LINE
  5
B6A
330
B2D
100
AcDbEntity
  8
BEM
 62
     0
370
    -2
100
AcDbLine
 10
284.869488636572
 20
220.7757926059315
 30
0.0
 11
284.869488636572
 21
197.5963509162213
 31
0.0
  0
LINE
  5
B6B
330
B2D
100
AcDbEntity
  8
BEM
 62
     0
370
    -2
100
AcDbLine
 10
218.8694886365723
 20
199.5963509162213
 30
0.0
 11
277.8694886365721
 21
199.5963509162213
 31
0.0
  0
SOLID
  5
B6C
330
B2D
100
AcDbEntity
  8
BEM
 62
     0
100
AcDbTrace
 10
218.8694886365723
 20
200.763017582888
 30
0.0
 11
218.8694886365723
 21
198.4296842495547
 31
0.0
 12
211.8694886365723
 22
199.5963509162213
 32
0.0
 13
211.8694886365723
 23
199.5963509162213
 33
0.0
  0
SOLID
  5
B6D
330
B2D
100
AcDbEntity
  8
BEM
 62
     0
100
AcDbTrace
 10
277.8694886365721
 20
200.763017582888
 30
0.0
 11
277.8694886365721
 21
198.4296842495547
 31
0.0
 12
284.869488636572
 22
199.5963509162213
 32
0.0
 13
284.869488636572
 23
199.5963509162213
 33
0.0
  0
MTEXT
  5
B6E
330
B2D
100
AcDbEntity
  8
BEM
 62
     1
100
AcDbMText
 10
248.3694886365721
 20
205.0963509162214
 30
0.0
 40
7.0
 41
0.0
 71
     5
 72
     1
  1
\A1;%%c73
 73
     1
 44
1.0
  0
POINT
  5
B6F
330
B2D
100
AcDbEntity
  8
DEFPOINTS
 62
     0
100
AcDbPoint
 10
211.8694886365723
 20
222.7757926059223
 30
0.0
  0
POINT
  5
B70
330
B2D
100
AcDbEntity
  8
DEFPOINTS
 62
     0
100
AcDbPoint
 10
284.869488636572
 20
222.7757926059315
 30
0.0
  0
POINT
  5
B71
330
B2D
100
AcDbEntity
  8
DEFPOINTS
 62
     0
100
AcDbPoint
 10
284.869488636572
 20
199.5963509162213
 30
0.0
  0
ENDBLK
  5
B38
330
B2D
100
AcDbEntity
  8
0
100
AcDbBlockEnd
  0
BLOCK
  5
B67
330
B5D
100
AcDbEntity
  8
0
100
AcDbBlockBegin
  2
*D3
 70
     1
 10
0.0
 20
0.0
 30
0.0
  3
*D3
  1

  0
LINE
  5
12D3
330
B5D
100
AcDbEntity
  8
BEM
 62
     0
370
    -2
100
AcDbLine
 10
210.394389837001
 20
217.8399894665572
 30
0.0
 11
83.88483391986186
 21
217.8399894665572
 31
0.0
  0
LINE
  5
12D4
330
B5D
100
AcDbEntity
  8
BEM
 62
     0
370
    -2
100
AcDbLine
 10
123.8694886365718
 20
477.8412840202846
 30
0.0
 11
83.88483391986193
 21
477.8412840202846
 31
0.0
  0
LINE
  5
12D5
330
B5D
100
AcDbEntity
  8
BEM
 62
     0
370
    -2
100
AcDbLine
 10
85.88483391986189
 20
224.8399894665572
 30
0.0
 11
85.88483391986192
 21
470.8412840202846
 31
0.0
  0
SOLID
  5
12D6
330
B5D
100
AcDbEntity
  8
BEM
 62
     0
100
AcDbTrace
 10
84.71816725319522
 20
224.8399894665572
 30
0.0
 11
87.05150058652856
 21
224.8399894665572
 31
0.0
 12
85.88483391986187
 22
217.8399894665572
 32
0.0
 13
85.88483391986187
 23
217.8399894665572
 33
0.0
  0
SOLID
  5
12D7
330
B5D
100
AcDbEntity
  8
BEM
 62
     0
100
AcDbTrace
 10
84.71816725319525
 20
470.8412840202846
 30
0.0
 11
87.0515005865286
 21
470.8412840202846
 31
0.0
 12
85.88483391986192
 22
477.8412840202846
 32
0.0
 13
85.88483391986192
 23
477.8412840202846
 33
0.0
  0
MTEXT
  5
12D8
330
B5D
100
AcDbEntity
  8
BEM
 62
     1
100
AcDbMText
 10
79.38483391986185
 20
347.8406367434209
 30
0.0
 40
7.0
 41
0.0
 71
     5
 72
     1
  1
\A1;260
 11
0.0000000000000001
 21
1.0
 31
0.0
 73
     1
 44
1.0
  0
POINT
  5
12D9
330
B5D
100
AcDbEntity
  8
DEFPOINTS
 62
     0
100
AcDbPoint
 10
212.394389837001
 20
217.8399894665572
 30
0.0
  0
POINT
  5
12DA
330
B5D
100
AcDbEntity
  8
DEFPOINTS
 62
     0
100
AcDbPoint
 10
125.8694886365718
 20
477.8412840202846
 30
0.0
  0
POINT
  5
12DB
330
B5D
100
AcDbEntity
  8
DEFPOINTS
 62
     0
100
AcDbPoint
 10
85.88483391986192
 20
477.8412840202846
 30
0.0
  0
ENDBLK
  5
B68
330
B5D
100
AcDbEntity
  8
0
100
AcDbBlockEnd
  0
BLOCK
  5
CBE
330
CB4
100
AcDbEntity
  8
0
100
AcDbBlockBegin
  2
*D4
 70
     1
 10
0.0
 20
0.0
 30
0.0
  3
*D4
  1

  0
LINE
  5
CD8
330
CB4
100
AcDbEntity
  8
BEM
 62
     0
370
    -2
100
AcDbLine
 10
173.369488636572
 20
473.8412840202842
 30
0.0
 11
173.369488636572
 21
436.3774204060978
 31
0.0
  0
LINE
  5
CD9
330
CB4
100
AcDbEntity
  8
BEM
 62
     0
370
    -2
100
AcDbLine
 10
323.3694886365723
 20
473.8412840202846
 30
0.0
 11
323.3694886365723
 21
436.3774204060978
 31
0.0
  0
LINE
  5
CDA
330
CB4
100
AcDbEntity
  8
BEM
 62
     0
370
    -2
100
AcDbLine
 10
180.369488636572
 20
438.3774204060977
 30
0.0
 11
316.3694886365723
 21
438.3774204060977
 31
0.0
  0
SOLID
  5
CDB
330
CB4
100
AcDbEntity
  8
BEM
 62
     0
100
AcDbTrace
 10
180.369488636572
 20
439.5440870727644
 30
0.0
 11
180.369488636572
 21
437.2107537394311
 31
0.0
 12
173.369488636572
 22
438.3774204060977
 32
0.0
 13
173.369488636572
 23
438.3774204060977
 33
0.0
  0
SOLID
  5
CDC
330
CB4
100
AcDbEntity
  8
BEM
 62
     0
100
AcDbTrace
 10
316.3694886365723
 20
439.5440870727644
 30
0.0
 11
316.3694886365723
 21
437.2107537394311
 31
0.0
 12
323.3694886365723
 22
438.3774204060977
 32
0.0
 13
323.3694886365723
 23
438.3774204060977
 33
0.0
  0
MTEXT
  5
CDD
330
CB4
100
AcDbEntity
  8
BEM
 62
     1
100
AcDbMText
 10
248.3694886365721
 20
444.8774204060978
 30
0.0
 40
7.0
 41
0.0
 71
     5
 72
     1
  1
\A1;%%c150
  7
GREEKS
 73
     1
 44
1.0
  0
POINT
  5
CDE
330
CB4
100
AcDbEntity
  8
DEFPOINTS
 62
     0
100
AcDbPoint
 10
173.369488636572
 20
475.8412840202843
 30
0.0
  0
POINT
  5
CDF
330
CB4
100
AcDbEntity
  8
DEFPOINTS
 62
     0
100
AcDbPoint
 10
323.3694886365723
 20
475.8412840202845
 30
0.0
  0
POINT
  5
CE0
330
CB4
100
AcDbEntity
  8
DEFPOINTS
 62
     0
100
AcDbPoint
 10
323.3694886365723
 20
438.3774204060977
 30
0.0
  0
ENDBLK
  5
CBF
330
CB4
100
AcDbEntity
  8
0
100
AcDbBlockEnd
  0
BLOCK
  5
CCA
330
CC0
100
AcDbEntity
  8
0
100
AcDbBlockBegin
  2
*D5
 70
     1
 10
0.0
 20
0.0
 30
0.0
  3
*D5
  1

  0
LINE
  5
D11
330
CC0
100
AcDbEntity
  8
BEM
 62
     0
370
    -2
100
AcDbLine
 10
183.3719440020502
 20
313.8412840202843
 30
0.0
 11
183.3719440020502
 21
295.8960626349003
 31
0.0
  0
LINE
  5
D12
330
CC0
100
AcDbEntity
  8
BEM
 62
     0
370
    -2
100
AcDbLine
 10
313.3670332710936
 20
313.8412840202826
 30
0.0
 11
313.3670332710936
 21
295.8960626349003
 31
0.0
  0
LINE
  5
D13
330
CC0
100
AcDbEntity
  8
BEM
 62
     0
370
    -2
100
AcDbLine
 10
190.3719440020502
 20
297.8960626349003
 30
0.0
 11
306.3670332710936
 21
297.8960626349003
 31
0.0
  0
SOLID
  5
D14
330
CC0
100
AcDbEntity
  8
BEM
 62
     0
100
AcDbTrace
 10
190.3719440020502
 20
299.062729301567
 30
0.0
 11
190.3719440020502
 21
296.7293959682336
 31
0.0
 12
183.3719440020502
 22
297.8960626349003
 32
0.0
 13
183.3719440020502
 23
297.8960626349003
 33
0.0
  0
SOLID
  5
D15
330
CC0
100
AcDbEntity
  8
BEM
 62
     0
100
AcDbTrace
 10
306.3670332710936
 20
299.062729301567
 30
0.0
 11
306.3670332710936
 21
296.7293959682336
 31
0.0
 12
313.3670332710936
 22
297.8960626349003
 32
0.0
 13
313.3670332710936
 23
297.8960626349003
 33
0.0
  0
MTEXT
  5
D16
330
CC0
100
AcDbEntity
  8
BEM
 62
     1
100
AcDbMText
 10
248.3694886365719
 20
304.3960626349003
 30
0.0
 40
7.0
 41
0.0
 71
     5
 72
     1
  1
\A1;%%c130
  7
GREEKS
 73
     1
 44
1.0
  0
POINT
  5
D17
330
CC0
100
AcDbEntity
  8
DEFPOINTS
 62
     0
100
AcDbPoint
 10
183.3719440020502
 20
315.8412840202843
 30
0.0
  0
POINT
  5
D18
330
CC0
100
AcDbEntity
  8
DEFPOINTS
 62
     0
100
AcDbPoint
 10
313.3670332710936
 20
315.8412840202826
 30
0.0
  0
POINT
  5
D19
330
CC0
100
AcDbEntity
  8
DEFPOINTS
 62
     0
100
AcDbPoint
 10
313.3670332710936
 20
297.8960626349003
 30
0.0
  0
ENDBLK
  5
CCB
330
CC0
100
AcDbEntity
  8
0
100
AcDbBlockEnd
  0
BLOCK
  5
CD6
330
CCC
100
AcDbEntity
  8
0
100
AcDbBlockBegin
  2
*D6
 70
     1
 10
0.0
 20
0.0
 30
0.0
  3
*D6
  1

  0
LINE
  5
D06
330
CCC
100
AcDbEntity
  8
BEM
 62
     0
370
    -2
100
AcDbLine
 10
130.0870030578438
 20
475.8412840202849
 30
0.0
 11
101.0403983064198
 21
475.841284020285
 31
0.0
  0
LINE
  5
D07
330
CCC
100
AcDbEntity
  8
BEM
 62
     0
370
    -2
100
AcDbLine
 10
181.3719440020502
 20
315.8412840202843
 30
0.0
 11
101.0403983064198
 21
315.8412840202843
 31
0.0
  0
LINE
  5
D08
330
CCC
100
AcDbEntity
  8
BEM
 62
     0
370
    -2
100
AcDbLine
 10
103.0403983064198
 20
468.8412840202849
 30
0.0
 11
103.0403983064198
 21
322.8412840202843
 31
0.0
  0
SOLID
  5
D09
330
CCC
100
AcDbEntity
  8
BEM
 62
     0
100
AcDbTrace
 10
101.8737316397532
 20
468.8412840202849
 30
0.0
 11
104.2070649730865
 21
468.8412840202849
 31
0.0
 12
103.0403983064198
 22
475.841284020285
 32
0.0
 13
103.0403983064198
 23
475.841284020285
 33
0.0
  0
SOLID
  5
D0A
330
CCC
100
AcDbEntity
  8
BEM
 62
     0
100
AcDbTrace
 10
101.8737316397531
 20
322.8412840202843
 30
0.0
 11
104.2070649730865
 21
322.8412840202843
 31
0.0
 12
103.0403983064198
 22
315.8412840202843
 32
0.0
 13
103.0403983064198
 23
315.8412840202843
 33
0.0
  0
MTEXT
  5
D0B
330
CCC
100
AcDbEntity
  8
BEM
 62
     1
100
AcDbMText
 10
96.54039830641979
 20
395.8412840202847
 30
0.0
 40
7.0
 41
0.0
 71
     5
 72
     1
  1
\A1;160
  7
GREEKS
 11
0.0000000000000001
 21
1.0
 31
0.0
 73
     1
 44
1.0
  0
POINT
  5
D0C
330
CCC
100
AcDbEntity
  8
DEFPOINTS
 62
     0
100
AcDbPoint
 10
132.0870030578438
 20
475.8412840202849
 30
0.0
  0
POINT
  5
D0D
330
CCC
100
AcDbEntity
  8
DEFPOINTS
 62
     0
100
AcDbPoint
 10
183.3719440020502
 20
315.8412840202843
 30
0.0
  0
POINT
  5
D0E
330
CCC
100
AcDbEntity
  8
DEFPOINTS
 62
     0
100
AcDbPoint
 10
103.0403983064198
 20
315.8412840202843
 30
0.0
  0
ENDBLK
  5
CD7
330
CCC
100
AcDbEntity
  8
0
100
AcDbBlockEnd
  0
BLOCK
  5
FEC
330
FE2
100
AcDbEntity
  8
0
100
AcDbBlockBegin
  2
*D7
 70
     1
 10
0.0
 20
0.0
 30
0.0
  3
*D7
  1

  0
LINE
  5
1012
330
FE2
100
AcDbEntity
  8
BEM
 62
     0
370
    -2
100
AcDbLine
 10
179.8694886365709
 20
538.8412840202854
 30
0.0
 11
98.67492927270996
 21
538.8412840202854
 31
0.0
  0
LINE
  5
1013
330
FE2
100
AcDbEntity
  8
BEM
 62
     0
370
    -2
100
AcDbLine
 10
128.8694886365718
 20
483.8412840202847
 30
0.0
 11
98.67492927270996
 21
483.8412840202848
 31
0.0
  0
LINE
  5
1014
330
FE2
100
AcDbEntity
  8
BEM
 62
     0
370
    -2
100
AcDbLine
 10
100.6749292727099
 20
531.8412840202854
 30
0.0
 11
100.6749292727099
 21
490.8412840202848
 31
0.0
  0
SOLID
  5
1015
330
FE2
100
AcDbEntity
  8
BEM
 62
     0
100
AcDbTrace
 10
99.5082626060433
 20
531.8412840202854
 30
0.0
 11
101.8415959393766
 21
531.8412840202854
 31
0.0
 12
100.6749292727099
 22
538.8412840202854
 32
0.0
 13
100.6749292727099
 23
538.8412840202854
 33
0.0
  0
SOLID
  5
1016
330
FE2
100
AcDbEntity
  8
BEM
 62
     0
100
AcDbTrace
 10
99.5082626060433
 20
490.8412840202848
 30
0.0
 11
101.8415959393766
 21
490.8412840202848
 31
0.0
 12
100.6749292727099
 22
483.8412840202848
 32
0.0
 13
100.6749292727099
 23
483.8412840202848
 33
0.0
  0
MTEXT
  5
1017
330
FE2
100
AcDbEntity
  8
BEM
 62
     1
100
AcDbMText
 10
94.17492927270988
 20
511.3412840202851
 30
0.0
 40
7.0
 41
0.0
 71
     5
 72
     1
  1
\A1;55
 11
0.0000000000000001
 21
1.0
 31
0.0
 73
     1
 44
1.0
  0
POINT
  5
1018
330
FE2
100
AcDbEntity
  8
DEFPOINTS
 62
     0
100
AcDbPoint
 10
181.8694886365709
 20
538.8412840202854
 30
0.0
  0
POINT
  5
1019
330
FE2
100
AcDbEntity
  8
DEFPOINTS
 62
     0
100
AcDbPoint
 10
130.8694886365718
 20
483.8412840202847
 30
0.0
  0
POINT
  5
101A
330
FE2
100
AcDbEntity
  8
DEFPOINTS
 62
     0
100
AcDbPoint
 10
100.6749292727099
 20
483.8412840202848
 30
0.0
  0
ENDBLK
  5
FED
330
FE2
100
AcDbEntity
  8
0
100
AcDbBlockEnd
  0
BLOCK
  5
FF8
330
FEE
100
AcDbEntity
  8
0
100
AcDbBlockBegin
  2
*D8
 70
     1
 10
0.0
 20
0.0
 30
0.0
  3
*D8
  1

  0
LINE
  5
101B
330
FEE
100
AcDbEntity
  8
BEM
 62
     0
370
    -2
100
AcDbLine
 10
166.3694886365719
 20
593.8412840202854
 30
0.0
 11
83.88483391986195
 21
593.8412840202854
 31
0.0
  0
LINE
  5
101C
330
FEE
100
AcDbEntity
  8
BEM
 62
     0
370
    -2
100
AcDbLine
 10
128.8694886365718
 20
483.8412840202847
 30
0.0
 11
83.88483391986193
 21
483.8412840202848
 31
0.0
  0
LINE
  5
101D
330
FEE
100
AcDbEntity
  8
BEM
 62
     0
370
    -2
100
AcDbLine
 10
85.88483391986194
 20
586.8412840202855
 30
0.0
 11
85.88483391986192
 21
490.8412840202848
 31
0.0
  0
SOLID
  5
101E
330
FEE
100
AcDbEntity
  8
BEM
 62
     0
100
AcDbTrace
 10
84.71816725319527
 20
586.8412840202855
 30
0.0
 11
87.05150058652861
 21
586.8412840202855
 31
0.0
 12
85.88483391986194
 22
593.8412840202854
 32
0.0
 13
85.88483391986194
 23
593.8412840202854
 33
0.0
  0
SOLID
  5
101F
330
FEE
100
AcDbEntity
  8
BEM
 62
     0
100
AcDbTrace
 10
84.71816725319525
 20
490.8412840202848
 30
0.0
 11
87.0515005865286
 21
490.8412840202848
 31
0.0
 12
85.88483391986192
 22
483.8412840202848
 32
0.0
 13
85.88483391986192
 23
483.8412840202848
 33
0.0
  0
MTEXT
  5
1020
330
FEE
100
AcDbEntity
  8
BEM
 62
     1
100
AcDbMText
 10
79.38483391986185
 20
538.8412840202851
 30
0.0
 40
7.0
 41
0.0
 71
     5
 72
     1
  1
\A1;110
 11
0.0000000000000001
 21
1.0
 31
0.0
 73
     1
 44
1.0
  0
POINT
  5
1021
330
FEE
100
AcDbEntity
  8
DEFPOINTS
 62
     0
100
AcDbPoint
 10
168.3694886365719
 20
593.8412840202854
 30
0.0
  0
POINT
  5
1022
330
FEE
100
AcDbEntity
  8
DEFPOINTS
 62
     0
100
AcDbPoint
 10
130.8694886365718
 20
483.8412840202847
 30
0.0
  0
POINT
  5
1023
330
FEE
100
AcDbEntity
  8
DEFPOINTS
 62
     0
100
AcDbPoint
 10
85.88483391986192
 20
483.8412840202848
 30
0.0
  0
ENDBLK
  5
FF9
330
FEE
100
AcDbEntity
  8
0
100
AcDbBlockEnd
  0
BLOCK
  5
1004
330
FFA
100
AcDbEntity
  8
0
100
AcDbBlockBegin
  2
*D9
 70
     1
 10
0.0
 20
0.0
 30
0.0
  3
*D9
  1

  0
LINE
  5
1024
330
FFA
100
AcDbEntity
  8
BEM
 62
     0
370
    -2
100
AcDbLine
 10
138.3694886365719
 20
575.8412260529706
 30
0.0
 11
138.3694886365719
 21
604.6536370170192
 31
0.0
  0
LINE
  5
1025
330
FFA
100
AcDbEntity
  8
BEM
 62
     0
370
    -2
100
AcDbLine
 10
358.3694886365722
 20
575.8412260529706
 30
0.0
 11
358.3694886365722
 21
604.6536370170192
 31
0.0
  0
LINE
  5
1026
330
FFA
100
AcDbEntity
  8
BEM
 62
     0
370
    -2
100
AcDbLine
 10
145.3694886365719
 20
602.6536370170192
 30
0.0
 11
351.3694886365722
 21
602.6536370170192
 31
0.0
  0
SOLID
  5
1027
330
FFA
100
AcDbEntity
  8
BEM
 62
     0
100
AcDbTrace
 10
145.3694886365719
 20
603.8203036836859
 30
0.0
 11
145.3694886365719
 21
601.4869703503526
 31
0.0
 12
138.3694886365719
 22
602.6536370170192
 32
0.0
 13
138.3694886365719
 23
602.6536370170192
 33
0.0
  0
SOLID
  5
1028
330
FFA
100
AcDbEntity
  8
BEM
 62
     0
100
AcDbTrace
 10
351.3694886365722
 20
603.8203036836859
 30
0.0
 11
351.3694886365722
 21
601.4869703503526
 31
0.0
 12
358.3694886365722
 22
602.6536370170192
 32
0.0
 13
358.3694886365722
 23
602.6536370170192
 33
0.0
  0
MTEXT
  5
1029
330
FFA
100
AcDbEntity
  8
BEM
 62
     1
100
AcDbMText
 10
248.3694886365721
 20
609.1536370170192
 30
0.0
 40
7.0
 41
0.0
 71
     5
 72
     1
  1
\A1;%%c220
 73
     1
 44
1.0
  0
POINT
  5
102A
330
FFA
100
AcDbEntity
  8
DEFPOINTS
 62
     0
100
AcDbPoint
 10
138.3694886365719
 20
573.8412260529705
 30
0.0
  0
POINT
  5
102B
330
FFA
100
AcDbEntity
  8
DEFPOINTS
 62
     0
100
AcDbPoint
 10
358.3694886365722
 20
573.8412260529705
 30
0.0
  0
POINT
  5
102C
330
FFA
100
AcDbEntity
  8
DEFPOINTS
 62
     0
100
AcDbPoint
 10
358.3694886365722
 20
602.6536370170192
 30
0.0
  0
ENDBLK
  5
1005
330
FFA
100
AcDbEntity
  8
0
100
AcDbBlockEnd
  0
BLOCK
  5
1010
330
1006
100
AcDbEntity
  8
0
100
AcDbBlockBegin
  2
*D10
 70
     1
 10
0.0
 20
0.0
 30
0.0
  3
*D10
  1

  0
LINE
  5
102D
330
1006
100
AcDbEntity
  8
BEM
 62
     0
370
    -2
100
AcDbLine
 10
118.3694886365719
 20
506.841284020286
 30
0.0
 11
118.3694886365719
 21
618.1488383313267
 31
0.0
  0
LINE
  5
102E
330
1006
100
AcDbEntity
  8
BEM
 62
     0
370
    -2
100
AcDbLine
 10
378.3694886365718
 20
506.8412840202863
 30
0.0
 11
378.3694886365718
 21
618.1488383313267
 31
0.0
  0
LINE
  5
102F
330
1006
100
AcDbEntity
  8
BEM
 62
     0
370
    -2
100
AcDbLine
 10
125.3694886365719
 20
616.1488383313267
 30
0.0
 11
371.3694886365718
 21
616.1488383313267
 31
0.0
  0
SOLID
  5
1030
330
1006
100
AcDbEntity
  8
BEM
 62
     0
100
AcDbTrace
 10
125.3694886365719
 20
617.3155049979933
 30
0.0
 11
125.3694886365719
 21
614.98217166466
 31
0.0
 12
118.3694886365719
 22
616.1488383313267
 32
0.0
 13
118.3694886365719
 23
616.1488383313267
 33
0.0
  0
SOLID
  5
1031
330
1006
100
AcDbEntity
  8
BEM
 62
     0
100
AcDbTrace
 10
371.3694886365718
 20
617.3155049979933
 30
0.0
 11
371.3694886365718
 21
614.98217166466
 31
0.0
 12
378.3694886365718
 22
616.1488383313267
 32
0.0
 13
378.3694886365718
 23
616.1488383313267
 33
0.0
  0
MTEXT
  5
1032
330
1006
100
AcDbEntity
  8
BEM
 62
     1
100
AcDbMText
 10
248.3694886365719
 20
622.6488383313267
 30
0.0
 40
7.0
 41
0.0
 71
     5
 72
     1
  1
\A1;%%c260
 73
     1
 44
1.0
  0
POINT
  5
1033
330
1006
100
AcDbEntity
  8
DEFPOINTS
 62
     0
100
AcDbPoint
 10
118.3694886365719
 20
504.841284020286
 30
0.0
  0
POINT
  5
1034
330
1006
100
AcDbEntity
  8
DEFPOINTS
 62
     0
100
AcDbPoint
 10
378.3694886365718
 20
504.8412840202863
 30
0.0
  0
POINT
  5
1035
330
1006
100
AcDbEntity
  8
DEFPOINTS
 62
     0
100
AcDbPoint
 10
378.3694886365718
 20
616.1488383313267
 30
0.0
  0
ENDBLK
  5
1011
330
1006
100
AcDbEntity
  8
0
100
AcDbBlockEnd
  0
ENDSEC
  0
SECTION
  2
ENTITIES
  0
LINE
  5
58
330
1E
100
AcDbEntity
  8
STEMPEL
100
AcDbLine
 10
484.0
 20
830.0000000000002
 30
0.0
 11
484.0
 21
470.0000000000001
 31
0.0
  0
LINE
  5
59
330
1E
100
AcDbEntity
  8
STEMPEL
100
AcDbLine
 10
484.0
 20
470.0000000000001
 30
0.0
 11
584.0
 21
470.0000000000001
 31
0.0
  0
LINE
  5
5A
330
1E
100
AcDbEntity
  8
STEMPEL
100
AcDbLine
 10
484.0000000000001
 20
566.0000000000002
 30
0.0
 11
584.0000000000001
 21
566.0
 31
0.0
  0
LINE
  5
5B
330
1E
100
AcDbEntity
  8
STEMPEL
100
AcDbLine
 10
484.0
 20
650.0
 30
0.0
 11
584.0
 21
650.0
 31
0.0
  0
LINE
  5
5C
330
1E
100
AcDbEntity
  8
STEMPEL
100
AcDbLine
 10
484.0000000000003
 20
752.0000000000002
 30
0.0
 11
554.0
 21
752.0000000000002
 31
0.0
  0
LINE
  5
5D
330
1E
100
AcDbEntity
  8
STEMPEL
100
AcDbLine
 10
564.0
 20
566.0
 30
0.0
 11
564.0
 21
470.0000000000001
 31
0.0
  0
LINE
  5
5E
330
1E
100
AcDbEntity
  8
STEMPEL
100
AcDbLine
 10
554.0
 20
830.0000000000002
 30
0.0
 11
554.0
 21
566.0
 31
0.0
  0
LINE
  5
5F
330
1E
100
AcDbEntity
  8
STEMPEL
100
AcDbLine
 10
514.0
 20
830.0000000000002
 30
0.0
 11
514.0
 21
566.0000000000002
 31
0.0
  0
LINE
  5
60
330
1E
100
AcDbEntity
  8
VOLL
100
AcDbLine
 10
484.0
 20
484.0000000000001
 30
0.0
 11
584.0
 21
484.0
 31
0.0
  0
LINE
  5
61
330
1E
100
AcDbEntity
  8
VOLL
100
AcDbLine
 10
484.0000000000001
 20
524.0000000000001
 30
0.0
 11
584.0000000000001
 21
524.0
 31
0.0
  0
LINE
  5
62
330
1E
100
AcDbEntity
  8
VOLL
100
AcDbLine
 10
484.0000000000001
 20
544.0000000000002
 30
0.0
 11
584.0000000000001
 21
544.0
 31
0.0
  0
LINE
  5
63
330
1E
100
AcDbEntity
  8
VOLL
100
AcDbLine
 10
514.0
 20
584.0000000000002
 30
0.0
 11
554.0
 21
584.0000000000002
 31
0.0
  0
LINE
  5
64
330
1E
100
AcDbEntity
  8
VOLL
100
AcDbLine
 10
484.0000000000002
 20
610.0000000000002
 30
0.0
 11
554.0
 21
610.0
 31
0.0
  0
LINE
  5
65
330
1E
100
AcDbEntity
  8
HILF
100
AcDbLine
 10
494.0
 20
470.0000000000001
 30
0.0
 11
494.0
 21
566.0000000000002
 31
0.0
  0
LINE
  5
66
330
1E
100
AcDbEntity
  8
HILF
100
AcDbLine
 10
504.0
 20
470.0000000000001
 30
0.0
 11
504.0
 21
566.0000000000002
 31
0.0
  0
LINE
  5
67
330
1E
100
AcDbEntity
  8
HILF
100
AcDbLine
 10
514.0
 20
470.0000000000001
 30
0.0
 11
514.0
 21
566.0000000000002
 31
0.0
  0
LINE
  5
68
330
1E
100
AcDbEntity
  8
HILF
100
AcDbLine
 10
524.0
 20
470.0000000000001
 30
0.0
 11
524.0
 21
566.0000000000002
 31
0.0
  0
LINE
  5
69
330
1E
100
AcDbEntity
  8
HILF
100
AcDbLine
 10
534.0
 20
470.0000000000001
 30
0.0
 11
534.0
 21
566.0000000000002
 31
0.0
  0
LINE
  5
6A
330
1E
100
AcDbEntity
  8
HILF
100
AcDbLine
 10
544.0
 20
470.0000000000001
 30
0.0
 11
544.0
 21
566.0000000000002
 31
0.0
  0
LINE
  5
6B
330
1E
100
AcDbEntity
  8
HILF
100
AcDbLine
 10
554.0
 20
470.0000000000001
 30
0.0
 11
554.0
 21
566.0000000000002
 31
0.0
  0
LINE
  5
6C
330
1E
100
AcDbEntity
  8
HILF
100
AcDbLine
 10
524.0
 20
566.0000000000002
 30
0.0
 11
524.0
 21
650.0
 31
0.0
  0
LINE
  5
6D
330
1E
100
AcDbEntity
  8
HILF
100
AcDbLine
 10
534.0
 20
566.0000000000002
 30
0.0
 11
534.0
 21
650.0
 31
0.0
  0
LINE
  5
6E
330
1E
100
AcDbEntity
  8
HILF
100
AcDbLine
 10
544.0
 20
566.0000000000002
 30
0.0
 11
544.0
 21
650.0
 31
0.0
  0
LINE
  5
6F
330
1E
100
AcDbEntity
  8
HILF
100
AcDbLine
 10
509.9624175243587
 20
654.7736801096948
 30
0.0
 11
509.9624175243587
 21
746.6297842514811
 31
0.0
  0
LINE
  5
70
330
1E
100
AcDbEntity
  8
HILF
100
AcDbLine
 10
524.0
 20
654.7736801096948
 30
0.0
 11
524.0
 21
746.6297842514811
 31
0.0
  0
LINE
  5
71
330
1E
100
AcDbEntity
  8
HILF
100
AcDbLine
 10
534.0
 20
654.7736801096948
 30
0.0
 11
534.0
 21
746.6297842514811
 31
0.0
  0
LINE
  5
72
330
1E
100
AcDbEntity
  8
HILF
100
AcDbLine
 10
544.0
 20
654.7736801096948
 30
0.0
 11
544.0
 21
746.6297842514811
 31
0.0
  0
LINE
  5
73
330
1E
100
AcDbEntity
  8
VOLL
100
AcDbLine
 10
534.0
 20
752.0000000000002
 30
0.0
 11
534.0
 21
830.0000000000002
 31
0.0
  0
LINE
  5
74
330
1E
100
AcDbEntity
  8
HILF
100
AcDbLine
 10
510.2201636304418
 20
756.7238616296995
 30
0.0
 11
510.2201636304418
 21
824.858883932673
 31
0.0
  0
LINE
  5
75
330
1E
100
AcDbEntity
  8
HILF
100
AcDbLine
 10
579.1060174197169
 20
654.7736801096948
 30
0.0
 11
579.1060174197169
 21
824.858883932673
 31
0.0
  0
TEXT
  5
76
330
1E
100
AcDbEntity
  8
TEXT
100
AcDbText
 10
575.3261810501587
 20
492.3998239263297
 30
0.0
 40
4.0
  1
Änderung
 50
90.0
 41
0.8
  7
GREEKS
 72
     1
 11
575.3261810501587
 21
503.1426810691868
 31
0.0
100
AcDbText
  0
TEXT
  5
78
330
1E
100
AcDbEntity
  8
TEXT
100
AcDbText
 10
491.5379104912911
 20
573.5163572150376
 30
0.0
 40
5.0
  1
Maßstab
 50
90.0
 41
0.8
  7
GREEKS
100
AcDbText
  0
TEXT
  5
79
330
1E
100
AcDbEntity
  8
TEXT
100
AcDbText
 10
491.4510671988221
 20
654.8779403809009
 30
0.0
 40
5.0
  1
Benennung
 50
90.0
 41
0.8
  7
GREEKS
100
AcDbText
  0
TEXT
  5
7A
330
1E
100
AcDbEntity
  8
TEXT
100
AcDbText
 10
491.6867965462863
 20
756.1787549576343
 30
0.0
 40
5.0
  1
Zeichnungs Nr.
 50
90.0
 41
0.8
  7
GREEKS
100
AcDbText
  0
TEXT
  5
7B
330
1E
100
AcDbEntity
  8
TEXT
100
AcDbText
 10
563.1543942980694
 20
654.7422383911359
 30
0.0
 40
5.0
  1
Bauvorhaben
 50
90.0
 41
0.8
  7
GREEKS
100
AcDbText
  0
TEXT
  5
7C
330
1E
100
AcDbEntity
  8
TEXT
100
AcDbText
 10
520.8188176290003
 20
756.7238616296995
 30
0.0
 40
5.0
  1
Ersatz für:
 50
90.0
 41
0.8
  7
GREEKS
100
AcDbText
  0
TEXT
  5
7D
330
1E
100
AcDbEntity
  8
TEXT
100
AcDbText
 10
580.3453415397281
 20
478.2664110704577
 30
0.0
 40
4.0
  1
Index
 50
180.0
 41
0.8
  7
GREEKS
100
AcDbText
  0
TEXT
  5
7E
330
1E
100
AcDbEntity
  8
TEXT
100
AcDbText
 10
575.3284373066019
 20
529.8990113186978
 30
0.0
 40
4.0
  1
Tag
 50
90.0
 41
0.8
  7
GREEKS
 72
     1
 11
575.3284373066019
 21
533.6323446520311
 31
0.0
100
AcDbText
  0
TEXT
  5
7F
330
1E
100
AcDbEntity
  8
TEXT
100
AcDbText
 10
575.4067578303359
 20
548.9795678138292
 30
0.0
 40
4.0
  1
Name
 50
90.0
 41
0.8
  7
GREEKS
 72
     1
 11
575.4067578303359
 21
555.3033773376387
 31
0.0
100
AcDbText
  0
TEXT
  5
80
330
1E
100
AcDbEntity
  8
TEXT
100
AcDbText
 10
520.6811949877008
 20
592.3311673153651
 30
0.0
 40
4.0
  1
Tag
 50
90.0
 41
0.8
  7
GREEKS
100
AcDbText
  0
TEXT
  5
81
330
1E
100
AcDbEntity
  8
TEXT
100
AcDbText
 10
520.6903890808478
 20
622.4626584226296
 30
0.0
 40
4.0
  1
Name
 50
90.0
 41
0.8
  7
GREEKS
100
AcDbText
  0
TEXT
  5
82
330
1E
100
AcDbEntity
  8
TEXT
100
AcDbText
 10
530.3700963038204
 20
567.5836127167615
 30
0.0
 40
4.0
  1
Gez.
 50
90.0
 41
0.8
  7
GREEKS
100
AcDbText
  0
TEXT
  5
83
330
1E
100
AcDbEntity
  8
TEXT
100
AcDbText
 10
540.3107370857163
 20
567.5515086571672
 30
0.0
 40
4.0
  1
Gepr.
 50
90.0
 41
0.8
  7
GREEKS
100
AcDbText
  0
TEXT
  5
84
330
1E
100
AcDbEntity
  8
TEXT
100
AcDbText
 10
550.470536103502
 20
567.6006777387303
 30
0.0
 40
4.0
  1
Norm.
 50
90.0
 41
0.8
  7
GREEKS
100
AcDbText
  0
TEXT
  5
85
330
1E
100
AcDbEntity
  8
TEXT
100
AcDbText
 10
541.925838221214
 20
757.2400861497007
 30
0.0
 40
5.0
  1
ersetzt durch:
 50
90.0
 41
0.8
  7
GREEKS
100
AcDbText
  0
TEXT
  5
86
330
1E
100
AcDbEntity
  8
TEXT
100
AcDbText
 10
521.0331740347627
 20
568.8693027807324
 30
0.0
 40
4.0
  1
2011
 50
90.0
 41
0.8
  7
GREEKS
100
AcDbText
  0
LINE
  5
87
330
1E
100
AcDbEntity
  8
HILF
100
AcDbLine
 10
594.0
 20
-0.0000000000000568
 30
0.0
 11
594.0
 21
840.0
 31
0.0
  0
LINE
  5
88
330
1E
100
AcDbEntity
  8
HILF
100
AcDbLine
 10
594.0
 20
840.0
 30
0.0
 11
0.0
 21
840.0
 31
0.0
  0
LINE
  5
89
330
1E
100
AcDbEntity
  8
HILF
100
AcDbLine
 10
0.0
 20
840.0
 30
0.0
 11
0.0
 21
0.0
 31
0.0
  0
LINE
  5
8B
330
1E
100
AcDbEntity
  8
STEMPEL
100
AcDbLine
 10
10.0
 20
830.0
 30
0.0
 11
10.0
 21
39.99999999999995
 31
0.0
  0
LINE
  5
8D
330
1E
100
AcDbEntity
  8
STEMPEL
100
AcDbLine
 10
584.0
 20
39.99999999999995
 30
0.0
 11
584.0
 21
830.0
 31
0.0
  0
LINE
  5
8E
330
1E
100
AcDbEntity
  8
STEMPEL
100
AcDbLine
 10
584.0
 20
830.0
 30
0.0
 11
10.0
 21
830.0
 31
0.0
  0
TEXT
  5
8F
330
1E
100
AcDbEntity
  8
TEXT
 62
     1
100
AcDbText
 10
506.6265692434746
 20
655.0390572473189
 30
0.0
 40
7.0
  1
Drainjet Kompletteinheit 
 50
90.0
 41
0.7
  7
GREEKS
100
AcDbText
  0
TEXT
  5
90
330
1E
100
AcDbEntity
  8
TEXT
 62
     1
100
AcDbText
 10
506.6265692434746
 20
767.1961422184136
 30
0.0
 40
7.0
  1
21312070W
 50
90.0
 41
0.8
  7
GREEKS
 72
     1
 11
506.6265692434746
 21
790.1294755517469
 31
0.0
100
AcDbText
  0
TEXT
  5
91
330
1E
100
AcDbEntity
  8
TEXT
100
AcDbText
 10
491.16010388621
 20
618.5090226415829
 30
0.0
 40
5.0
  1
Zul.Abw.
 50
90.0
 41
0.8
  7
GREEKS
100
AcDbText
  0
TEXT
  5
93
330
1E
100
AcDbEntity
  8
TEXT
100
AcDbText
 10
530.8491412387978
 20
590.7660475607107
 30
0.0
 40
4.0
  1
31.01.
 50
90.0
 41
0.8
  7
GREEKS
 72
     1
 11
530.8491412387978
 21
597.1660475607107
 31
0.0
100
AcDbText
  0
TEXT
  5
94
330
1E
100
AcDbEntity
  8
TEXT
100
AcDbText
 10
531.0570234483452
 20
624.0231753226609
 30
0.0
 40
4.0
  1
Koeh
 50
90.0
 41
0.8
  7
GREEKS
 72
     1
 11
531.0570234483452
 21
629.2803181798038
 31
0.0
100
AcDbText
  0
TEXT
  5
95
330
1E
100
AcDbEntity
  8
TEXT
100
AcDbText
 10
521.8997861689246
 20
654.3410940884991
 30
0.0
 40
5.0
  1
DN70 mit Wärmedämmung
 50
90.0
 41
0.8
  7
GREEKS
100
AcDbText
  0
TEXT
  5
96
330
1E
100
AcDbEntity
  8
TEXT
100
AcDbText
 10
531.6544091479096
 20
654.3410940884991
 30
0.0
 40
5.0
  1

 50
90.0
 41
0.8
  7
GREEKS
100
AcDbText
  0
TEXT
  5
97
330
1E
100
AcDbEntity
  8
TEXT
100
AcDbText
 10
541.4090266215394
 20
654.3410940884991
 30
0.0
 40
5.0
  1
EDV-Art.Nr. 21312.070X
 50
90.0
 41
0.8
  7
GREEKS
100
AcDbText
  0
TEXT
  5
98
330
1E
100
AcDbEntity
  8
TEXT
100
AcDbText
 10
550.6887237520849
 20
654.1676050109347
 30
0.0
 40
4.0
  1
21312070W.DWG
 50
90.0
 41
0.8
  7
GREEKS
100
AcDbText
  0
TEXT
  5
99
330
1E
100
AcDbEntity
  8
TEXT
 62
     1
100
AcDbText
 10
506.5292291158502
 20
582.703491203422
 30
0.0
 40
7.0
  1
1:2
 50
90.0
 41
0.8
  7
GREEKS
100
AcDbText
  0
TEXT
  5
9A
330
1E
100
AcDbEntity
  8
TEXT
100
AcDbText
 10
479.8856414948956
 20
470.0441139350127
 30
0.0
 40
5.0
  1
Erstellt mit AUTOCAD 2004
 50
90.0
 41
0.8
  7
GREEKS
100
AcDbText
  0
INSERT
  5
9B
330
1E
100
AcDbEntity
  8
HILF
100
AcDbBlockReference
  2
LORO
 10
557.0194069970104
 20
573.0624985962354
 30
0.0
 41
2.0
 42
2.0
 43
2.0
 50
90.0
  0
LINE
  5
9C
330
1E
100
AcDbEntity
  8
BEM
100
AcDbLine
 10
594.0
 20
455.9999999999999
 30
0.0
 11
584.0
 21
455.9999999999999
 31
0.0
  0
LINE
  5
13E
330
1E
100
AcDbEntity
  8
HILF
100
AcDbLine
 10
594.0
 20
-0.0000000000000568
 30
0.0
 11
0.0
 21
0.0
 31
0.0
  0
LINE
  5
13F
330
1E
100
AcDbEntity
  8
STEMPEL
100
AcDbLine
 10
584.0
 20
39.99999999999995
 30
0.0
 11
10.0
 21
39.99999999999995
 31
0.0
  0
LINE
  5
14A
330
1E
100
AcDbEntity
  8
HILF
100
AcDbLine
 10
297.0
 20
-0.0000000000000568
 30
0.0
 11
297.0
 21
39.99999999999995
 31
0.0
  0
TEXT
  5
15B
330
1E
100
AcDbEntity
  8
BEM
100
AcDbText
 10
583.8320989200114
 20
837.3022923857165
 30
0.0
 40
4.0
  1
Diese Zeichnung ist urheberrechtlich geschützt und bleibt unser Eigentum. Sie darf weder ganz noch teilweise verfielfältigt und nicht an Dritte weitergegeben werden.
 50
180.0
 41
0.8
  7
GREEKS
100
AcDbText
  0
LINE
  5
19C
330
1E
100
AcDbEntity
  8
BEM
100
AcDbLine
 10
0.0
 20
455.9999999999999
 30
0.0
 11
10.0
 21
455.9999999999999
 31
0.0
  0
TEXT
  5
3B6
330
1E
100
AcDbEntity
  8
TEXT
 62
     1
100
AcDbText
 10
366.4681936438894
 20
235.530483427805
 30
0.0
 40
7.0
  1
EDV-Art.Nr. 21981.070X
 41
0.8
  7
GREEKS
100
AcDbText
  0
LINE
  5
3B7
330
1E
100
AcDbEntity
  8
TEXT
 62
     2
100
AcDbLine
 10
471.6919571468823
 20
244.9654873025906
 30
0.0
 11
365.5680625392045
 21
244.9654873025904
 31
0.0
  0
LINE
  5
3B9
330
1E
100
AcDbEntity
  8
TEXT
 62
     2
100
AcDbLine
 10
365.5680625392045
 20
244.9654873025904
 30
0.0
 11
284.8694886365733
 21
267.465194582008
 31
0.0
  0
TEXT
  5
3BA
330
1E
100
AcDbEntity
  8
TEXT
 62
     1
100
AcDbText
 10
366.6487489380415
 20
248.5782555747842
 30
0.0
 40
7.0
  1
Ablaufkörper DN70
 41
0.8
  7
GREEKS
100
AcDbText
  0
TEXT
  5
533
330
1E
100
AcDbEntity
  8
TEXT
 62
     1
100
AcDbText
 10
244.6611984380556
 20
374.3577634103377
 30
0.0
 40
7.0
  1
DN70
 50
90.0
 41
0.8
  7
GREEKS
100
AcDbText
  0
TEXT
  5
663
330
1E
100
AcDbEntity
  8
TEXT
100
AcDbText
 10
504.5307583482736
 20
612.2898419893275
 30
0.0
 40
4.0
  1
DIN EN1124-3
 50
90.0
 41
0.8
  7
GREEKS
 72
     1
 11
504.5307583482736
 21
629.2803181798038
 31
0.0
100
AcDbText
  0
LINE
  5
675
330
1E
100
AcDbEntity
  8
TEXT
 62
     2
100
AcDbLine
 10
365.5680625392045
 20
415.2488704279701
 30
0.0
 11
313.1392983236926
 21
479.5773060757881
 31
0.0
  0
TEXT
  5
676
330
1E
100
AcDbEntity
  8
TEXT
 62
     1
100
AcDbText
 10
368.248915793014
 20
418.7327045888805
 30
0.0
 40
7.0
  1
Kompressionsdichtung
 41
0.8
100
AcDbText
  0
LINE
  5
677
330
1E
100
AcDbEntity
  8
TEXT
 62
     2
100
AcDbLine
 10
471.5066271143375
 20
415.2488704279701
 30
0.0
 11
365.5680625392045
 21
415.2488704279701
 31
0.0
  0
TEXT
  5
678
330
1E
100
AcDbEntity
  8
TEXT
 62
     1
100
AcDbText
 10
368.248915793014
 20
405.956373620171
 30
0.0
 40
7.0
  1
EDV-Art.Nr. 21920.070X
 41
0.8
100
AcDbText
  0
LINE
  5
984
330
1E
100
AcDbEntity
  8
STEMPEL
100
AcDbLine
 10
125.8694886365718
 20
477.8412840202846
 30
0.0
 11
370.8694886365719
 21
477.8412840202846
 31
0.0
  0
LINE
  5
AE1
330
1E
100
AcDbEntity
  8
STEMPEL
100
AcDbLine
 10
132.0870030578441
 20
477.8412840202847
 30
0.0
 11
364.6519742152997
 21
477.8412840202845
 31
0.0
  0
DIMENSION
  5
AE2
330
1E
100
AcDbEntity
  8
BEM
100
AcDbDimension
  2
*D3
 10
85.88483391986192
 20
477.8412840202846
 30
0.0
 11
79.38483391986185
 21
347.8406367434209
 31
0.0
 70
    32
 71
     5
 42
260.0012945537275
  3
Standard
100
AcDbAlignedDimension
 13
212.394389837001
 23
217.8399894665572
 33
0.0
 14
125.8694886365718
 24
477.8412840202846
 34
0.0
 50
90.0
100
AcDbRotatedDimension
1001
ACAD
1000
DSTYLE
1002
{
1070
    40
1040
2.0
1070
    41
1040
3.5
1070
    42
1040
1.0
1070
    43
1040
7.0
1070
    44
1040
1.0
1070
    73
1070
     0
1070
    74
1070
     0
1070
    77
1070
     1
1070
    78
1070
     8
1070
    79
1070
     2
1070
   140
1040
3.5
1070
   141
1040
1.5
1070
   146
1040
0.5142857142857144
1070
   147
1040
1.5
1070
   172
1070
     1
1070
   178
1070
     1
1070
   179
1070
     2
1070
   271
1070
     2
1070
   272
1070
     2
1070
   284
1070
     8
1070
   285
1070
     8
1070
   286
1070
     8
1002
}
  0
LINE
  5
AE3
330
1E
100
AcDbEntity
  8
STEMPEL
100
AcDbLine
 10
132.0870030578442
 20
477.8412840202847
 30
0.0
 11
364.6519742152999
 21
477.8412840202845
 31
0.0
  0
LINE
  5
AE4
330
1E
100
AcDbEntity
  8
STEMPEL
100
AcDbLine
 10
173.5790857234841
 20
472.4877306296906
 30
0.0
 11
127.2837021989447
 21
472.4877306296907
 31
0.0
  0
LINE
  5
AE5
330
1E
100
AcDbEntity
  8
STEMPEL
100
AcDbLine
 10
125.8694886365716
 20
473.901944192064
 30
0.0
 11
128.1979157613176
 21
476.2303713168102
 31
0.0
  0
LINE
  5
AE6
330
1E
100
AcDbEntity
  8
STEMPEL
100
AcDbLine
 10
125.8694886365716
 20
473.901944192064
 30
0.0
 11
127.2837021989444
 21
472.4877306296907
 31
0.0
  0
ARC
  5
AE7
330
1E
100
AcDbEntity
  8
STEMPEL
100
AcDbCircle
 10
132.0870030578438
 20
472.3412840202843
 30
0.0
 40
3.499999999999851
100
AcDbArc
 50
90.0
 51
135.0
  0
ARC
  5
AE8
330
1E
100
AcDbEntity
  8
STEMPEL
100
AcDbCircle
 10
132.0870030578438
 20
472.3412840202843
 30
0.0
 40
5.499999999999851
100
AcDbArc
 50
90.0
 51
135.0
  0
LINE
  5
AE9
330
1E
100
AcDbEntity
  8
STEMPEL
100
AcDbLine
 10
127.2837021989447
 20
472.4877306296909
 30
0.0
 11
129.6121293236907
 21
474.8161577544371
 31
0.0
  0
LINE
  5
AEA
330
1E
100
AcDbEntity
  8
STEMPEL
100
AcDbLine
 10
194.2984208247063
 20
474.083924707404
 30
0.0
 11
204.4430087889949
 21
463.9393367431166
 31
0.0
  0
LINE
  5
AEB
102
{ACAD_REACTORS
330
B13
102
}
330
1E
100
AcDbEntity
  8
STEMPEL
100
AcDbLine
 10
195.7126343870794
 20
475.4981382697771
 30
0.0
 11
211.4656827142862
 21
459.7450899425725
 31
0.0
  0
LINE
  5
AEC
330
1E
100
AcDbEntity
  8
STEMPEL
100
AcDbLine
 10
323.15989154966
 20
472.4877306296907
 30
0.0
 11
369.4552750741989
 21
472.4877306296907
 31
0.0
  0
ARC
  5
AED
330
1E
100
AcDbEntity
  8
STEMPEL
100
AcDbCircle
 10
364.6519742152999
 20
472.3412840202843
 30
0.0
 40
5.499999999999851
100
AcDbArc
 50
45.0
 51
90.0
  0
LINE
  5
AEE
330
1E
100
AcDbEntity
  8
STEMPEL
100
AcDbLine
 10
369.4552750741989
 20
472.4877306296909
 30
0.0
 11
367.1268479494529
 21
474.8161577544371
 31
0.0
  0
ARC
  5
AEF
330
1E
100
AcDbEntity
  8
STEMPEL
100
AcDbCircle
 10
364.6519742152999
 20
472.3412840202843
 30
0.0
 40
3.499999999999851
100
AcDbArc
 50
45.0
 51
90.0
  0
LINE
  5
AF0
330
1E
100
AcDbEntity
  8
STEMPEL
100
AcDbLine
 10
370.869488636572
 20
473.901944192064
 30
0.0
 11
368.5410615118261
 21
476.2303713168102
 31
0.0
  0
LINE
  5
AF1
330
1E
100
AcDbEntity
  8
STEMPEL
100
AcDbLine
 10
370.869488636572
 20
473.901944192064
 30
0.0
 11
369.4552750741991
 21
472.4877306296907
 31
0.0
  0
LINE
  5
AF2
330
1E
100
AcDbEntity
  8
STEMPEL
100
AcDbLine
 10
132.0870030578438
 20
475.8412840202849
 30
0.0
 11
190.0557801375872
 21
475.8412840202844
 31
0.0
  0
LINE
  5
AF3
330
1E
100
AcDbEntity
  8
STEMPEL
100
AcDbLine
 10
364.6519742152999
 20
475.8412840202849
 30
0.0
 11
306.6831971355564
 21
475.8412840202844
 31
0.0
  0
ARC
  5
AF4
330
1E
100
AcDbEntity
  8
STEMPEL
100
AcDbCircle
 10
190.0557801375872
 20
469.8412840202845
 30
0.0
 40
6.0
100
AcDbArc
 50
45.00000000000115
 51
90.0
  0
ARC
  5
AF5
330
1E
100
AcDbEntity
  8
STEMPEL
100
AcDbCircle
 10
190.0557801375872
 20
469.8412840202845
 30
0.0
 40
8.0
100
AcDbArc
 50
45.00000000000115
 51
90.0
  0
LINE
  5
AF6
102
{ACAD_REACTORS
330
B13
102
}
330
1E
100
AcDbEntity
  8
STEMPEL
100
AcDbLine
 10
301.0263428860645
 20
475.4981382697771
 30
0.0
 11
285.2732945588577
 21
459.7450899425722
 31
0.0
  0
ARC
  5
AF7
330
1E
100
AcDbEntity
  8
STEMPEL
100
AcDbCircle
 10
306.6831971355564
 20
469.8412840202845
 30
0.0
 40
8.0
100
AcDbArc
 50
90.0
 51
134.9999999999988
  0
ARC
  5
AF8
330
1E
100
AcDbEntity
  8
STEMPEL
100
AcDbCircle
 10
306.6831971355564
 20
469.8412840202845
 30
0.0
 40
6.0
100
AcDbArc
 50
90.0
 51
134.9999999999988
  0
LINE
  5
AF9
330
1E
100
AcDbEntity
  8
STEMPEL
100
AcDbLine
 10
302.4405564484376
 20
474.083924707404
 30
0.0
 11
292.2837021989448
 21
463.9270704579125
 31
0.0
  0
LINE
  5
AFA
102
{ACAD_REACTORS
330
B13
102
}
330
1E
100
AcDbEntity
  8
STEMPEL
  6
Continuous
100
AcDbLine
 10
213.369488636574
 20
455.1488958648596
 30
0.0
 11
213.3694886365721
 21
222.8412840202847
 31
0.0
  0
LINE
  5
AFB
102
{ACAD_REACTORS
330
B13
102
}
330
1E
100
AcDbEntity
  8
STEMPEL
  6
Continuous
100
AcDbLine
 10
211.8694886365739
 20
455.1488958648596
 30
0.0
 11
211.8694886365723
 21
222.7757926059223
 31
0.0
  0
LINE
  5
AFC
102
{ACAD_REACTORS
330
B13
102
}
330
1E
100
AcDbEntity
  8
STEMPEL
  6
Continuous
100
AcDbLine
 10
283.3694886365744
 20
455.1488958648596
 30
0.0
 11
283.369488636572
 21
222.8412840202909
 31
0.0
  0
LINE
  5
AFD
102
{ACAD_REACTORS
330
B13
102
}
330
1E
100
AcDbEntity
  8
STEMPEL
  6
Continuous
100
AcDbLine
 10
284.8694886365743
 20
455.1488958648598
 30
0.0
 11
284.869488636572
 21
222.7757926059315
 31
0.0
  0
LINE
  5
AFE
102
{ACAD_REACTORS
330
B13
102
}
330
1E
100
AcDbEntity
  8
STEMPEL
100
AcDbLine
 10
284.4377750752567
 20
217.8412840202847
 30
0.0
 11
212.3012021978869
 21
217.8412840202847
 31
0.0
  0
LINE
  5
AFF
330
1E
100
AcDbEntity
  8
STEMPEL
100
AcDbLine
 10
284.3445874361426
 20
217.8399894665572
 30
0.0
 11
212.394389837001
 21
217.8399894665572
 31
0.0
  0
LINE
  5
B00
330
1E
100
AcDbEntity
  8
HILF
100
AcDbLine
 10
281.8637588802565
 20
222.8412840202847
 30
0.0
 11
214.8752183928871
 21
222.8412840202847
 31
0.0
  0
LINE
  5
B01
102
{ACAD_REACTORS
330
B13
102
}
330
1E
100
AcDbEntity
  8
STEMPEL
100
AcDbLine
 10
213.3694886365721
 20
222.8412840202847
 30
0.0
 11
213.8069319542017
 21
217.8412840202847
 31
0.0
  0
LINE
  5
B02
102
{ACAD_REACTORS
330
B13
102
}
330
1E
100
AcDbEntity
  8
STEMPEL
100
AcDbLine
 10
211.8694886365723
 20
222.7757926059223
 30
0.0
 11
212.3012021978869
 21
217.8412840202847
 31
0.0
  0
LINE
  5
B03
102
{ACAD_REACTORS
330
B13
102
}
330
1E
100
AcDbEntity
  8
STEMPEL
100
AcDbLine
 10
284.869488636572
 20
222.7757926059315
 30
0.0
 11
284.4377750752567
 21
217.8412840202847
 31
0.0
  0
LINE
  5
B04
102
{ACAD_REACTORS
330
B13
102
}
330
1E
100
AcDbEntity
  8
STEMPEL
100
AcDbLine
 10
283.369488636572
 20
222.8412840202909
 30
0.0
 11
282.9320453189417
 21
217.8412840202847
 31
0.0
  0
LINE
  5
B05
330
1E
100
AcDbEntity
  8
STEMPEL
100
AcDbLine
 10
206.3694886365719
 20
464.8412840202858
 30
0.0
 11
290.3694886365718
 21
464.8412840202858
 31
0.0
  0
LINE
  5
B06
102
{ACAD_REACTORS
330
B13
102
}
330
1E
100
AcDbEntity
  8
STEMPEL
100
AcDbLine
 10
290.8694886365718
 20
465.3412840202858
 30
0.0
 11
292.2837021989449
 21
463.9270704579125
 31
0.0
  0
LINE
  5
B07
102
{ACAD_REACTORS
330
B13
102
}
330
1E
100
AcDbEntity
  8
STEMPEL
100
AcDbLine
 10
205.8572223513678
 20
465.3535503054897
 30
0.0
 11
204.4430087889947
 21
463.9393367431166
 31
0.0
  0
LINE
  5
B08
102
{ACAD_REACTORS
330
B13
102
}
330
1E
100
AcDbEntity
  8
STEMPEL
100
AcDbLine
 10
204.7965621795882
 20
464.2928901337101
 30
0.0
 11
210.4050225425064
 21
458.6844297707927
 31
0.0
  0
ARC
  5
B09
102
{ACAD_REACTORS
330
B13
102
}
330
1E
100
AcDbEntity
  8
STEMPEL
100
AcDbCircle
 10
206.8694886365739
 20
455.1488958648596
 30
0.0
 40
5.0
100
AcDbArc
 50
0.0
 51
45.00000000000115
  0
ARC
  5
B0A
102
{ACAD_REACTORS
330
B13
102
}
330
1E
100
AcDbEntity
  8
STEMPEL
100
AcDbCircle
 10
206.869488636574
 20
455.1488958648596
 30
0.0
 40
6.5
100
AcDbArc
 50
0.0
 51
45.00000000000115
  0
LINE
  5
B0B
330
1E
100
AcDbEntity
  8
HILF
100
AcDbLine
 10
214.4729503976776
 20
457.6363381752328
 30
0.0
 11
282.2660268754662
 21
457.6363381752328
 31
0.0
  0
LINE
  5
B0C
102
{ACAD_REACTORS
330
B13
102
}
330
1E
100
AcDbEntity
  8
STEMPEL
100
AcDbLine
 10
291.9301488083513
 20
464.2806238485061
 30
0.0
 11
286.3339547306373
 21
458.6844297707927
 31
0.0
  0
ARC
  5
B0D
102
{ACAD_REACTORS
330
B13
102
}
330
1E
100
AcDbEntity
  8
STEMPEL
100
AcDbCircle
 10
289.8694886365698
 20
455.1488958648596
 30
0.0
 40
5.0
100
AcDbArc
 50
134.9999999999988
 51
180.0
  0
ARC
  5
B0E
102
{ACAD_REACTORS
330
B13
102
}
330
1E
100
AcDbEntity
  8
STEMPEL
100
AcDbCircle
 10
289.8694886365698
 20
455.1488958648596
 30
0.0
 40
6.5
100
AcDbArc
 50
134.9999999999988
 51
180.0
  0
ARC
  5
B0F
330
1E
100
AcDbEntity
  8
SCHRAFF
100
AcDbCircle
 10
290.3694886365719
 20
464.8412840202858
 30
0.0
 40
3.5
100
AcDbArc
 50
250.3769335251435
 51
10.15009542095131
  0
ARC
  5
B10
330
1E
100
AcDbEntity
  8
SCHRAFF
100
AcDbCircle
 10
206.3694886365722
 20
464.8412840202858
 30
0.0
 40
3.5
100
AcDbArc
 50
169.8499045790553
 51
289.623066474855
  0
HATCH
  5
B11
330
1E
100
AcDbEntity
  8
SCHRAFF
100
AcDbHatch
 10
0.0
 20
0.0
 30
0.0
210
0.0
220
0.0
230
1.0
  2
_U
 70
     0
 71
     0
 91
        2
 92
        7
 72
     1
 73
     1
 93
        4
 10
204.7965621795882
 20
464.29289013371
 42
0.0
 10
204.4430087889947
 20
463.9393367431166
 42
0.0
 10
202.92426547304
 20
465.4580800590712
 42
0.5760313318603869
 10
207.5448964422924
 20
461.5445558710063
 42
0.0
 97
        0
 92
        7
 72
     1
 73
     1
 93
        4
 10
293.8147118001041
 20
465.4580800590714
 42
0.0
 10
292.2837021989447
 20
463.9270704579124
 42
0.0
 10
291.9301488083513
 20
464.2806238485058
 42
0.0
 10
289.1940808308514
 20
461.5445558710065
 42
0.5760313318604339
 97
        0
 75
     0
 76
     0
 52
0.0
 41
0.1
 77
     0
 78
     1
 53
0.0
 43
25.43073770465714
 44
21.71223967511401
 45
0.0
 46
0.1
 79
     0
 47
0.1173469678841337
 98
        2
 10
204.9468317064227
 20
462.6424599913445
 10
291.7356277038369
 20
462.5251129288303
  0
HATCH
  5
B12
330
1E
100
AcDbEntity
  8
SCHRAFF
100
AcDbHatch
 10
0.0
 20
0.0
 30
0.0
210
0.0
220
0.0
230
1.0
  2
_USER
 70
     0
 71
     0
 91
        5
 92
        7
 72
     1
 73
     1
 93
        8
 10
338.3694886365721
 20
477.8412840202845
 42
0.0
 10
306.6831971355564
 20
477.8412840202845
 42
0.1989123673796403
 10
301.0263428860645
 20
475.4981382697772
 42
0.0
 10
290.8694886365718
 20
465.3412840202858
 42
0.0
 10
292.2837021989449
 20
463.9270704579125
 42
0.0
 10
302.4405564484376
 20
474.083924707404
 42
-0.1989123673796358
 10
306.6831971355564
 20
475.8412840202844
 42
0.0
 10
338.3694886365721
 20
475.8412840202847
 42
0.0
 97
        0
 92
        7
 72
     0
 73
     1
 93
        4
 10
352.9488536699617
 20
477.8412840202844
 10
338.3694886365721
 20
477.8412840202844
 10
338.3694886365721
 20
475.8412840202847
 10
352.1655743252828
 20
475.8412840202848
 97
        0
 92
        7
 72
     1
 73
     1
 93
        8
 10
364.6519742152999
 20
477.8412840202845
 42
0.0
 10
352.9488536699616
 20
477.8412840202843
 42
0.0
 10
352.1655743252828
 20
475.8412840202849
 42
0.0
 10
364.6519742152999
 20
475.8412840202849
 42
-0.1989123673797046
 10
367.1268479494529
 20
474.8161577544371
 42
0.0
 10
369.4552750741991
 20
472.4877306296907
 42
0.0
 10
370.869488636572
 20
473.9019441920641
 42
0.0
 10
368.5410615118261
 20
476.2303713168102
 42
0.1989123673796779
 97
        0
 92
        7
 72
     1
 73
     1
 93
        8
 10
190.0557801375872
 20
477.8412840202846
 42
0.0
 10
158.3694886365719
 20
477.8412840202847
 42
0.0
 10
158.3694886365719
 20
475.8412840202847
 42
0.0
 10
190.0557801375872
 20
475.8412840202844
 42
-0.1989123673796432
 10
194.2984208247063
 20
474.083924707404
 42
0.0
 10
204.4430087889949
 20
463.9393367431166
 42
0.0
 10
205.8572223513681
 20
465.3535503054899
 42
0.0
 10
195.7126343870794
 20
475.4981382697771
 42
0.1989123673796519
 97
        0
 92
        7
 72
     1
 73
     1
 93
        8
 10
158.3694886365719
 20
477.8412840202847
 42
0.0
 10
132.0870030578442
 20
477.8412840202847
 42
0.1989123673797045
 10
128.1979157613176
 20
476.2303713168102
 42
0.0
 10
125.8694886365716
 20
473.9019441920639
 42
0.0
 10
127.2837021989444
 20
472.4877306296907
 42
0.0
 10
129.6121293236907
 20
474.8161577544371
 42
-0.198912367379677
 10
132.0870030578434
 20
475.8412840202849
 42
0.0
 10
158.3694886365719
 20
475.8412840202846
 42
0.0
 97
        0
 75
     0
 76
     0
 52
45.0
 41
2.0
 77
     0
 78
     1
 53
45.0
 43
25.43073770465714
 44
21.71223967511401
 45
-1.414213562373094
 46
1.414213562373095
 79
     0
 47
0.3473152716033439
 98
        5
 10
311.533383584711
 20
477.1944640581825
 10
341.771943740394
 20
476.4998340439637
 10
356.369869050468
 20
476.4998340439637
 10
180.4996192712384
 20
477.1944640581825
 10
149.5659185154878
 20
476.4998340439637
  0
HATCH
  5
B13
330
1E
100
AcDbEntity
  8
SCHRAFF
100
AcDbHatch
 10
0.0
 20
0.0
 30
0.0
210
0.0
220
0.0
230
1.0
  2
_USER
 70
     0
 71
     1
 91
        2
 92
        7
 72
     1
 73
     1
 93
       10
 10
284.8694886365743
 20
455.1488958648598
 42
-0.1989123673795732
 10
286.3339547306373
 20
458.6844297707927
 42
0.0
 10
291.9301488083513
 20
464.2806238485061
 42
0.0
 10
290.8694886365719
 20
465.3412840202858
 42
0.0
 10
285.2732945588577
 20
459.7450899425722
 42
0.1989123673796068
 10
283.3694886365744
 20
455.1488958648593
 42
0.0
 10
283.369488636572
 20
222.8412840202908
 42
0.0
 10
282.9320453189417
 20
217.8412840202847
 42
0.0
 10
284.4377750752567
 20
217.8412840202847
 42
0.0
 10
284.8694886365721
 20
222.7757926059309
 42
0.0
 97
       10
330
B0D
330
B0C
330
B06
330
AF6
330
B0E
330
AFC
330
B04
330
AFE
330
B03
330
AFD
 92
        7
 72
     1
 73
     1
 93
       10
 10
213.369488636574
 20
455.1488958648596
 42
0.1989123673796773
 10
211.4656827142862
 20
459.7450899425725
 42
0.0
 10
205.857222351368
 20
465.3535503054898
 42
0.0
 10
204.7965621795882
 20
464.2928901337101
 42
0.0
 10
210.4050225425064
 20
458.6844297707927
 42
-0.1989123673796746
 10
211.8694886365739
 20
455.1488958648597
 42
0.0
 10
211.8694886365722
 20
222.7757926059226
 42
0.0
 10
212.3012021978869
 20
217.8412840202848
 42
0.0
 10
213.8069319542017
 20
217.8412840202848
 42
0.0
 10
213.369488636572
 20
222.8412840202848
 42
0.0
 97
       10
330
B0A
330
AEB
330
B07
330
B08
330
B09
330
AFB
330
B02
330
AFE
330
B01
330
AFA
 75
     0
 76
     0
 52
135.0
 41
2.0
 77
     0
 78
     1
 53
135.0
 43
25.43073770465714
 44
21.71223967511401
 45
-1.414213562373095
 46
-1.414213562373094
 79
     0
 47
0.5486474276378085
 98
        2
 10
284.4489061055629
 20
371.1629347312304
 10
213.0724983015585
 20
384.8791215551893
  0
DIMENSION
  5
B14
330
1E
100
AcDbEntity
  8
BEM
100
AcDbDimension
  2
*D2
 10
284.869488636572
 20
199.5963509162213
 30
0.0
 11
248.3694886365721
 21
205.0963509162214
 31
0.0
 70
    32
  1
%%c<>
 71
     5
 42
72.99999999999977
  3
Standard
100
AcDbAlignedDimension
 13
211.8694886365723
 23
222.7757926059223
 33
0.0
 14
284.869488636572
 24
222.7757926059315
 34
0.0
100
AcDbRotatedDimension
1001
ACAD
1000
DSTYLE
1002
{
1070
    40
1040
2.0
1070
    41
1040
3.5
1070
    42
1040
1.0
1070
    43
1040
7.0
1070
    44
1040
1.0
1070
    47
1040
0.7
1070
    48
1040
0.7
1070
    73
1070
     0
1070
    74
1070
     0
1070
    77
1070
     1
1070
    78
1070
     8
1070
   140
1040
3.5
1070
   141
1040
1.5
1070
   146
1040
0.5142857142857144
1070
   147
1040
1.0
1070
   172
1070
     1
1070
   178
1070
     1
1002
}
  0
HATCH
  5
C97
330
1E
100
AcDbEntity
  8
SCHRAFF
100
AcDbHatch
 10
0.0
 20
0.0
 30
0.0
210
0.0
220
0.0
230
1.0
  2
HONEY
 70
     0
 71
     0
 91
        2
 92
        7
 72
     1
 73
     1
 93
       12
 10
301.8694886365718
 20
411.8412840202843
 42
0.0
 10
295.869488636572
 20
405.8412840202845
 42
0.0
 10
295.8694886365721
 20
339.8412840202827
 42
0.0
 10
283.369488636572
 20
322.8412840202842
 42
0.0
 10
283.369488636572
 20
317.841284020283
 42
0.0
 10
290.8694886365723
 20
317.841284020283
 42
0.0
 10
290.8694886365723
 20
315.8412840202828
 42
0.0
 10
310.5511349724691
 20
315.8412840202826
 42
0.3960474615044513
 10
313.5452927079179
 20
318.6541491618171
 42
0.0
 10
323.3694886365721
 20
475.8412840202846
 42
0.0
 10
313.3694886365724
 20
475.8412840202846
 42
0.0
 10
301.869488636572
 20
465.8412840202843
 42
0.0
 97
        0
 92
        7
 72
     1
 73
     1
 93
       12
 10
183.1936845652261
 20
318.6541491618188
 42
0.396047461504444
 10
186.1878423006747
 20
315.8412840202843
 42
0.0
 10
205.8694886365723
 20
315.8412840202841
 42
0.0
 10
205.8694886365723
 20
317.841284020284
 42
0.0
 10
213.369488636572
 20
317.8412840202839
 42
0.0
 10
213.369488636572
 20
322.8412840202846
 42
0.0
 10
200.8694886365722
 20
339.8412840202825
 42
0.0
 10
200.8694886365717
 20
405.8412840202842
 42
0.0
 10
194.8694886365722
 20
411.8412840202839
 42
0.0
 10
194.869488636572
 20
465.8412840202843
 42
0.0
 10
183.369488636572
 20
475.8412840202844
 42
0.0
 10
173.369488636572
 20
475.8412840202844
 42
0.0
 97
        0
 75
     0
 76
     1
 52
0.0
 41
30.0
 77
     0
 78
     3
 53
0.0
 43
5.263343994948684
 44
15.07230709247773
 45
5.625
 46
3.247595249999999
 79
     2
 49
3.75
 49
-7.5
 53
120.0
 43
5.263343994948684
 44
15.07230709247773
 45
-5.624999987709673
 46
3.247595271287468
 79
     2
 49
3.749999999999999
 49
-7.499999999999998
 53
60.0
 43
5.263343994948684
 44
15.07230709247773
 45
0.0000000122903263
 46
6.495190521287468
 79
     2
 49
-7.5
 49
3.75
 47
0.2321357899194764
 98
        2
 10
307.567663191152
 20
435.2333619799714
 10
183.3312562742817
 20
436.6261760419417
  0
ARC
  5
C98
330
1E
100
AcDbEntity
  8
STEMPEL
100
AcDbCircle
 10
186.1878423006748
 20
318.8412840202843
 30
0.0
 40
3.0
100
AcDbArc
 50
183.5763343749981
 51
270.0
  0
ARC
  5
C99
330
1E
100
AcDbEntity
  8
STEMPEL
100
AcDbCircle
 10
310.5511349724692
 20
318.8412840202826
 30
0.0
 40
3.0
100
AcDbArc
 50
270.0
 51
356.4236656250018
  0
LINE
  5
C9A
330
1E
100
AcDbEntity
  8
STEMPEL
100
AcDbLine
 10
290.8694886365723
 20
317.8412840202828
 30
0.0
 11
290.8694886365723
 21
315.8412840202828
 31
0.0
  0
LINE
  5
C9B
330
1E
100
AcDbEntity
  8
STEMPEL
100
AcDbLine
 10
205.8694886365723
 20
317.841284020284
 30
0.0
 11
205.8694886365723
 21
315.841284020284
 31
0.0
  0
LINE
  5
C9C
330
1E
100
AcDbEntity
  8
STEMPEL
100
AcDbLine
 10
290.8694886365723
 20
317.8412840202829
 30
0.0
 11
284.869488636573
 21
317.841284020283
 31
0.0
  0
LINE
  5
C9D
330
1E
100
AcDbEntity
  8
STEMPEL
100
AcDbLine
 10
200.8694886365717
 20
405.8412840202842
 30
0.0
 11
194.869488636572
 21
411.841284020284
 31
0.0
  0
LINE
  5
C9E
330
1E
100
AcDbEntity
  8
STEMPEL
100
AcDbLine
 10
200.8694886365717
 20
405.8412840202842
 30
0.0
 11
200.8694886365723
 21
339.8412840202824
 31
0.0
  0
LINE
  5
C9F
330
1E
100
AcDbEntity
  8
STEMPEL
100
AcDbLine
 10
211.869488636573
 20
324.881284020283
 30
0.0
 11
200.8694886365723
 21
339.8412840202824
 31
0.0
  0
LINE
  5
CA0
330
1E
100
AcDbEntity
  8
STEMPEL
100
AcDbLine
 10
295.869488636572
 20
405.8412840202845
 30
0.0
 11
301.8694886365718
 21
411.8412840202843
 31
0.0
  0
LINE
  5
CA1
330
1E
100
AcDbEntity
  8
STEMPEL
100
AcDbLine
 10
295.8694886365721
 20
405.8412840202845
 30
0.0
 11
284.8694886365738
 21
405.8412840202843
 31
0.0
  0
LINE
  5
CA2
330
1E
100
AcDbEntity
  8
STEMPEL
100
AcDbLine
 10
295.869488636572
 20
339.8412840202826
 30
0.0
 11
284.8694886365732
 21
339.8412840202829
 31
0.0
  0
LINE
  5
CA3
330
1E
100
AcDbEntity
  8
STEMPEL
100
AcDbLine
 10
284.8694886365731
 20
324.8812840202853
 30
0.0
 11
295.8694886365721
 21
339.8412840202827
 31
0.0
  0
LINE
  5
CA4
330
1E
100
AcDbEntity
  8
STEMPEL
100
AcDbLine
 10
295.869488636572
 20
405.8412840202845
 30
0.0
 11
295.8694886365721
 21
339.8412840202827
 31
0.0
  0
DIMENSION
  5
CA5
330
1E
100
AcDbEntity
  8
BEM
100
AcDbDimension
  2
*D4
 10
323.3694886365723
 20
438.3774204060977
 30
0.0
 11
248.3694886365721
 21
438.3774204060977
 31
0.0
 70
   160
  1
%%c<>
 71
     5
 42
150.0000000000002
  3
Standard
100
AcDbAlignedDimension
 13
173.369488636572
 23
475.8412840202843
 33
0.0
 14
323.3694886365723
 24
475.8412840202845
 34
0.0
100
AcDbRotatedDimension
1001
ACAD
1000
DSTYLE
1002
{
1070
    40
1040
2.0
1070
    41
1040
3.5
1070
    42
1040
1.0
1070
    43
1040
7.0
1070
    44
1040
1.0
1070
    73
1070
     0
1070
    74
1070
     0
1070
    77
1070
     1
1070
    78
1070
     8
1070
    79
1070
     2
1070
   140
1040
3.5
1070
   141
1040
1.5
1070
   146
1040
0.5
1070
   147
1040
1.5
1070
   172
1070
     1
1070
   178
1070
     1
1070
   179
1070
     2
1070
   271
1070
     2
1070
   272
1070
     2
1070
   284
1070
     8
1070
   285
1070
     8
1070
   286
1070
     8
1070
   340
1005
24
1002
}
  0
LINE
  5
CA6
330
1E
100
AcDbEntity
  8
STEMPEL
100
AcDbLine
 10
310.5511349724691
 20
315.8412840202826
 30
0.0
 11
284.8694886365729
 21
315.8412840202829
 31
0.0
  0
DIMENSION
  5
CA7
330
1E
100
AcDbEntity
  8
BEM
100
AcDbDimension
  2
*D5
 10
313.3670332710936
 20
297.8960626349003
 30
0.0
 11
248.3694886365719
 21
304.3960626349003
 31
0.0
 70
    32
  1
%%c<>
 71
     5
 42
129.9950892690433
  3
Standard
100
AcDbAlignedDimension
 13
183.3719440020502
 23
315.8412840202843
 33
0.0
 14
313.3670332710936
 24
315.8412840202826
 34
0.0
100
AcDbRotatedDimension
1001
ACAD
1000
DSTYLE
1002
{
1070
    40
1040
2.0
1070
    41
1040
3.5
1070
    42
1040
1.0
1070
    43
1040
7.0
1070
    44
1040
1.0
1070
    73
1070
     0
1070
    74
1070
     0
1070
    77
1070
     1
1070
    78
1070
     8
1070
    79
1070
     2
1070
   140
1040
3.5
1070
   141
1040
1.5
1070
   146
1040
0.5
1070
   147
1040
1.5
1070
   172
1070
     1
1070
   178
1070
     1
1070
   179
1070
     2
1070
   271
1070
     2
1070
   272
1070
     2
1070
   284
1070
     8
1070
   285
1070
     8
1070
   286
1070
     8
1070
   340
1005
24
1002
}
  0
LINE
  5
CA8
330
1E
100
AcDbEntity
  8
STEMPEL
100
AcDbLine
 10
301.8694886365723
 20
465.8412840202845
 30
0.0
 11
294.197915761317
 21
465.8412840202845
 31
0.0
  0
LINE
  5
CA9
330
1E
100
AcDbEntity
  8
STEMPEL
100
AcDbLine
 10
301.8694886365716
 20
411.8412840202843
 30
0.0
 11
284.8694886365739
 21
411.8412840202843
 31
0.0
  0
LINE
  5
CAB
330
1E
100
AcDbEntity
  8
STEMPEL
100
AcDbLine
 10
173.369488636572
 20
475.8412840202843
 30
0.0
 11
183.1936845652261
 21
318.6541491618188
 31
0.0
  0
DIMENSION
  5
CAC
330
1E
100
AcDbEntity
  8
BEM
100
AcDbDimension
  2
*D6
 10
103.0403983064198
 20
315.8412840202843
 30
0.0
 11
96.54039830641979
 21
395.8412840202847
 31
0.0
 70
    32
 71
     5
 42
160.0000000000006
  3
Standard
100
AcDbAlignedDimension
 13
132.0870030578438
 23
475.8412840202849
 33
0.0
 14
183.3719440020502
 24
315.8412840202843
 34
0.0
 50
90.0
100
AcDbRotatedDimension
1001
ACAD
1000
DSTYLE
1002
{
1070
    40
1040
2.0
1070
    41
1040
3.5
1070
    42
1040
1.0
1070
    43
1040
7.0
1070
    44
1040
1.0
1070
    73
1070
     0
1070
    74
1070
     0
1070
    77
1070
     1
1070
    78
1070
     8
1070
    79
1070
     2
1070
   140
1040
3.5
1070
   141
1040
1.5
1070
   146
1040
0.5
1070
   147
1040
1.5
1070
   172
1070
     1
1070
   178
1070
     1
1070
   179
1070
     2
1070
   271
1070
     2
1070
   272
1070
     2
1070
   284
1070
     8
1070
   285
1070
     8
1070
   286
1070
     8
1070
   340
1005
24
1002
}
  0
LINE
  5
CAE
330
1E
100
AcDbEntity
  8
STEMPEL
100
AcDbLine
 10
194.8694886365722
 20
411.8412840202841
 30
0.0
 11
194.869488636572
 21
465.8412840202843
 31
0.0
  0
LINE
  5
CAF
330
1E
100
AcDbEntity
  8
STEMPEL
100
AcDbLine
 10
183.369488636572
 20
475.8412840202844
 30
0.0
 11
194.869488636572
 21
465.8412840202843
 31
0.0
  0
LINE
  5
CB0
330
1E
100
AcDbEntity
  8
STEMPEL
100
AcDbLine
 10
323.3694886365721
 20
475.8412840202843
 30
0.0
 11
313.5452927079179
 21
318.6541491618171
 31
0.0
  0
LINE
  5
CB2
330
1E
100
AcDbEntity
  8
STEMPEL
100
AcDbLine
 10
313.3694886365721
 20
475.8412840202844
 30
0.0
 11
301.869488636572
 21
465.8412840202843
 31
0.0
  0
LINE
  5
CB3
330
1E
100
AcDbEntity
  8
STEMPEL
100
AcDbLine
 10
301.8694886365718
 20
411.8412840202841
 30
0.0
 11
301.869488636572
 21
465.8412840202843
 31
0.0
  0
TEXT
  5
CFC
330
1E
100
AcDbEntity
  8
TEXT
 62
     1
100
AcDbText
 10
364.9834947260294
 20
341.8764112932351
 30
0.0
 40
7.0
  1
EDV-Art.Nr. 19842.070X
 41
0.8
  7
GREEKS
100
AcDbText
  0
LINE
  5
CFD
330
1E
100
AcDbEntity
  8
TEXT
 62
     2
100
AcDbLine
 10
470.2072582290223
 20
351.3114151680209
 30
0.0
 11
364.0833636213445
 21
351.3114151680206
 31
0.0
  0
LINE
  5
CFE
330
1E
100
AcDbEntity
  8
TEXT
 62
     2
100
AcDbLine
 10
364.0833636213445
 20
351.3114151680206
 30
0.0
 11
302.1909602775362
 21
377.2735469227303
 31
0.0
  0
TEXT
  5
CFF
330
1E
100
AcDbEntity
  8
TEXT
 62
     1
100
AcDbText
 10
365.1640500201815
 20
354.9241834402144
 30
0.0
 40
7.0
  1
Wärmedämmung
 41
0.8
  7
GREEKS
100
AcDbText
  0
LINE
  5
D00
330
1E
100
AcDbEntity
  8
STEMPEL
100
AcDbLine
 10
202.5410615118269
 20
465.8412840202843
 30
0.0
 11
194.869488636572
 21
465.8412840202843
 31
0.0
  0
LINE
  5
D01
330
1E
100
AcDbEntity
  8
STEMPEL
100
AcDbLine
 10
211.8694886365735
 20
411.8412840202841
 30
0.0
 11
194.8694886365722
 21
411.8412840202841
 31
0.0
  0
LINE
  5
D02
330
1E
100
AcDbEntity
  8
STEMPEL
100
AcDbLine
 10
211.8694886365735
 20
405.8412840202843
 30
0.0
 11
200.8694886365717
 21
405.8412840202844
 31
0.0
  0
LINE
  5
D03
330
1E
100
AcDbEntity
  8
STEMPEL
100
AcDbLine
 10
211.8694886365729
 20
317.8412840202839
 30
0.0
 11
205.8694886365723
 21
317.841284020284
 31
0.0
  0
LINE
  5
D04
330
1E
100
AcDbEntity
  8
STEMPEL
100
AcDbLine
 10
211.8694886365729
 20
315.8412840202839
 30
0.0
 11
186.1878423006747
 21
315.8412840202843
 31
0.0
  0
LINE
  5
D05
330
1E
100
AcDbEntity
  8
STEMPEL
100
AcDbLine
 10
211.8694886365731
 20
339.841284020284
 30
0.0
 11
200.8694886365723
 21
339.8412840202841
 31
0.0
  0
TEXT
  5
D0F
330
1E
100
AcDbEntity
  8
TEXT
100
AcDbText
 10
531.8997861689247
 20
654.3410940884991
 30
0.0
 40
5.0
  1
einteilig
 50
90.0
 41
0.8
  7
GREEKS
100
AcDbText
  0
LINE
  5
D10
330
1E
100
AcDbEntity
  8
MITTEL
100
AcDbLine
 10
248.3694886365718
 20
600.3412840202856
 30
0.0
 11
248.3694886365718
 21
451.6270931406872
 31
0.0
  0
LINE
  5
D1A
330
1E
100
AcDbEntity
  8
MITTEL
100
AcDbLine
 10
248.3694886365718
 20
296.6322455567111
 30
0.0
 11
248.3694886365719
 21
212.8412840202847
 31
0.0
  0
DIMENSION
  5
E9B
330
1E
100
AcDbEntity
  8
BEM
100
AcDbDimension
  2
*D7
 10
100.6749292727099
 20
483.8412840202848
 30
0.0
 11
94.17492927270988
 21
511.3412840202851
 31
0.0
 70
    32
 71
     5
 42
55.00000000000063
  3
Standard
100
AcDbAlignedDimension
 13
181.8694886365709
 23
538.8412840202854
 33
0.0
 14
130.8694886365718
 24
483.8412840202847
 34
0.0
 50
90.0
100
AcDbRotatedDimension
1001
ACAD
1000
DSTYLE
1002
{
1070
    40
1040
2.0
1070
    41
1040
3.5
1070
    42
1040
1.0
1070
    43
1040
7.0
1070
    44
1040
1.0
1070
    73
1070
     0
1070
    74
1070
     0
1070
    77
1070
     1
1070
    78
1070
     8
1070
    79
1070
     2
1070
   140
1040
3.5
1070
   141
1040
1.5
1070
   146
1040
0.5142857142857144
1070
   147
1040
1.5
1070
   172
1070
     1
1070
   178
1070
     1
1070
   179
1070
     2
1070
   271
1070
     2
1070
   272
1070
     2
1070
   284
1070
     8
1070
   285
1070
     8
1070
   286
1070
     8
1002
}
  0
DIMENSION
  5
FD9
330
1E
100
AcDbEntity
  8
BEM
100
AcDbDimension
  2
*D8
 10
85.88483391986192
 20
483.8412840202848
 30
0.0
 11
79.38483391986185
 21
538.8412840202851
 31
0.0
 70
    32
 71
     5
 42
110.0000000000006
  3
Standard
100
AcDbAlignedDimension
 13
168.3694886365719
 23
593.8412840202854
 33
0.0
 14
130.8694886365718
 24
483.8412840202847
 34
0.0
 50
90.0
100
AcDbRotatedDimension
1001
ACAD
1000
DSTYLE
1002
{
1070
    40
1040
2.0
1070
    41
1040
3.5
1070
    42
1040
1.0
1070
    43
1040
7.0
1070
    44
1040
1.0
1070
    73
1070
     0
1070
    74
1070
     0
1070
    77
1070
     1
1070
    78
1070
     8
1070
    79
1070
     2
1070
   140
1040
3.5
1070
   141
1040
1.5
1070
   146
1040
0.5142857142857144
1070
   147
1040
1.5
1070
   172
1070
     1
1070
   178
1070
     1
1070
   179
1070
     2
1070
   271
1070
     2
1070
   272
1070
     2
1070
   284
1070
     8
1070
   285
1070
     8
1070
   286
1070
     8
1002
}
  0
DIMENSION
  5
FDA
330
1E
100
AcDbEntity
  8
BEM
100
AcDbDimension
  2
*D9
 10
358.3694886365722
 20
602.6536370170192
 30
0.0
 11
248.3694886365721
 21
609.1536370170192
 31
0.0
 70
    32
  1
%%c<>
 71
     5
 42
220.0000000000002
  3
Standard
100
AcDbAlignedDimension
 13
138.3694886365719
 23
573.8412260529705
 33
0.0
 14
358.3694886365722
 24
573.8412260529705
 34
0.0
100
AcDbRotatedDimension
1001
ACAD
1000
DSTYLE
1002
{
1070
    40
1040
2.0
1070
    41
1040
3.5
1070
    42
1040
1.0
1070
    43
1040
7.0
1070
    44
1040
1.0
1070
    73
1070
     0
1070
    74
1070
     0
1070
    77
1070
     1
1070
    78
1070
     8
1070
    79
1070
     2
1070
   140
1040
3.5
1070
   141
1040
1.5
1070
   146
1040
0.5142857142857144
1070
   147
1040
1.5
1070
   172
1070
     1
1070
   178
1070
     1
1070
   179
1070
     2
1070
   271
1070
     2
1070
   272
1070
     2
1070
   284
1070
     8
1070
   285
1070
     8
1070
   286
1070
     8
1002
}
  0
DIMENSION
  5
FDB
330
1E
100
AcDbEntity
  8
BEM
100
AcDbDimension
  2
*D10
 10
378.3694886365718
 20
616.1488383313267
 30
0.0
 11
248.3694886365719
 21
622.6488383313267
 31
0.0
 70
    32
  1
%%c<>
 71
     5
 42
259.9999999999999
  3
Standard
100
AcDbAlignedDimension
 13
118.3694886365719
 23
504.841284020286
 33
0.0
 14
378.3694886365718
 24
504.8412840202863
 34
0.0
100
AcDbRotatedDimension
1001
ACAD
1000
DSTYLE
1002
{
1070
    40
1040
2.0
1070
    41
1040
3.5
1070
    42
1040
1.0
1070
    43
1040
7.0
1070
    44
1040
1.0
1070
    73
1070
     0
1070
    74
1070
     0
1070
    77
1070
     1
1070
    78
1070
     8
1070
    79
1070
     2
1070
   140
1040
3.5
1070
   141
1040
1.5
1070
   146
1040
0.5142857142857144
1070
   147
1040
1.5
1070
   172
1070
     1
1070
   178
1070
     1
1070
   179
1070
     2
1070
   271
1070
     2
1070
   272
1070
     2
1070
   284
1070
     8
1070
   285
1070
     8
1070
   286
1070
     8
1002
}
  0
LINE
  5
FDC
330
1E
100
AcDbEntity
  8
TEXT
 62
     2
100
AcDbLine
 10
301.4961625511603
 20
592.96185852002
 30
0.0
 11
303.4453336784849
 21
600.1895567116926
 31
0.0
  0
LINE
  5
FDD
330
1E
100
AcDbEntity
  8
TEXT
 62
     2
100
AcDbLine
 10
304.8363881934786
 20
605.3477093549338
 30
0.0
 11
307.1273760084026
 21
613.8428939259254
 31
0.0
  0
LINE
  5
FDE
330
1E
100
AcDbEntity
  8
TEXT
 62
     2
100
AcDbLine
 10
365.5680625392045
 20
451.1250524146681
 30
0.0
 11
341.8395357707789
 21
486.5954711516299
 31
0.0
  0
TEXT
  5
FDF
330
1E
100
AcDbEntity
  8
TEXT
 62
     1
100
AcDbText
 10
366.1634184179588
 20
441.832555606869
 30
0.0
 40
7.0
  1
EDV-Art.Nr. 21906.070X
 41
0.8
100
AcDbText
  0
LINE
  5
FE0
330
1E
100
AcDbEntity
  8
TEXT
 62
     2
100
AcDbLine
 10
471.5066271143375
 20
451.1250524146681
 30
0.0
 11
365.5680625392045
 21
451.1250524146681
 31
0.0
  0
TEXT
  5
FE1
330
1E
100
AcDbEntity
  8
TEXT
 62
     1
100
AcDbText
 10
366.1634184179588
 20
454.6088865755785
 30
0.0
 40
7.0
  1
Losflansch DN70
 41
0.8
100
AcDbText
  0
TEXT
  5
103F
330
1E
100
AcDbEntity
  8
TEXT
 62
     1
100
AcDbText
 10
324.1470114951009
 20
661.4285264302333
 30
0.0
 40
7.0
  1
EDV-Art.Nr. 21009.000X
 41
0.8
  7
GREEKS
100
AcDbText
  0
LINE
  5
1040
330
1E
100
AcDbEntity
  8
TEXT
 62
     2
100
AcDbLine
 10
322.7956423469247
 20
671.9422053173373
 30
0.0
 11
431.0992470714364
 21
671.9422053173373
 31
0.0
  0
TEXT
  5
1041
330
1E
100
AcDbEntity
  8
TEXT
 62
     1
100
AcDbText
 10
324.1470114951009
 20
675.1048669479688
 30
0.0
 40
7.0
  1
Drainjethaube
 41
0.8
  7
GREEKS
100
AcDbText
  0
LINE
  5
1042
330
1E
100
AcDbEntity
  8
TEXT
 62
     2
100
AcDbLine
 10
308.4102904106762
 20
618.6000535079633
 30
0.0
 11
322.7956423469247
 21
671.9422053173373
 31
0.0
  0
LINE
  5
1045
330
1E
100
AcDbEntity
  8
MITTEL
100
AcDbLine
 10
248.3694886365718
 20
436.0116032978387
 30
0.0
 11
248.3694886365718
 21
311.0749981552556
 31
0.0
  0
HATCH
  5
1191
330
1E
100
AcDbEntity
  8
SCHRAFF
100
AcDbHatch
 10
0.0
 20
0.0
 30
0.0
210
0.0
220
0.0
230
1.0
  2
NET
 70
     0
 71
     0
 91
        5
 92
        7
 72
     0
 73
     1
 93
        5
 10
370.8694886365719
 20
480.8412840202846
 10
345.6888949900537
 20
480.8412840202844
 10
347.6957949038427
 20
477.8412840202846
 10
364.6519742152999
 20
477.8412840202845
 10
370.8694886365719
 20
477.8412840202846
 97
        0
 92
        7
 72
     0
 73
     1
 93
        4
 10
345.6888949900535
 20
480.8412840202846
 10
319.7694886365718
 20
480.8412840202846
 10
319.7694886365718
 20
477.8412840202845
 10
347.695794903843
 20
477.8412840202845
 97
        0
 92
        7
 72
     0
 73
     1
 93
        4
 10
319.7694886365718
 20
480.8412840202846
 10
310.8694886365719
 20
480.8412840202846
 10
310.8694886365719
 20
477.8412840202845
 10
319.7694886365718
 20
477.8412840202845
 97
        0
 92
        7
 72
     0
 73
     1
 93
        4
 10
185.8694886365718
 20
480.8412840202847
 10
164.8694886365718
 20
480.8412840202847
 10
164.8694886365718
 20
477.8412840202848
 10
185.8694886365718
 20
477.8412840202848
 97
        0
 92
        7
 72
     0
 73
     1
 93
        4
 10
151.8694886365718
 20
480.8412840202847
 10
125.8694886365718
 20
480.8412840202847
 10
125.8694886365718
 20
477.8412840202846
 10
151.8694886365718
 20
477.8412840202846
 97
        0
 75
     0
 76
     1
 52
45.0
 41
15.0
 77
     0
 78
     2
 53
45.0
 43
0.0000000000000284
 44
0.0000000000000568
 45
-1.325825214724776
 46
1.325825214724776
 79
     0
 53
135.0
 43
0.0000000000000284
 44
0.0000000000000568
 45
-1.325825214724776
 46
-1.325825214724776
 79
     0
 47
0.4125505781545875
 98
        5
 10
357.1306345802828
 20
479.1108660401972
 10
336.4961063433261
 20
478.6983165594054
 10
319.1631010553474
 20
479.1108660401972
 10
180.9117644826301
 20
479.5234174768859
 10
144.1823036978694
 20
479.9359689135743
  0
LINE
  5
1192
330
1E
100
AcDbEntity
  8
STEMPEL
100
AcDbLine
 10
148.650349630031
 20
505.9081149617186
 30
0.0
 11
144.8422700422124
 21
505.9081149617186
 31
0.0
  0
ARC
  5
1193
330
1E
100
AcDbEntity
  8
STEMPEL
100
AcDbCircle
 10
145.0303811210415
 20
505.3912840202863
 30
0.0
 40
0.5500000000000003
100
AcDbArc
 50
109.9999999999995
 51
270.0
  0
ARC
  5
1194
330
1E
100
AcDbEntity
  8
STEMPEL
100
AcDbCircle
 10
158.1303811210415
 20
505.3912840202863
 30
0.0
 40
0.5500000000000009
100
AcDbArc
 50
270.0
 51
70.00000000000047
  0
LINE
  5
1195
330
1E
100
AcDbEntity
  8
STEMPEL
100
AcDbLine
 10
158.3184921998705
 20
505.9081149617186
 30
0.0
 11
157.3538838129377
 21
506.2592037022857
 31
0.0
  0
LINE
  5
1196
330
1E
100
AcDbEntity
  8
STEMPEL
100
AcDbLine
 10
145.8068784291452
 20
506.2592037022857
 30
0.0
 11
144.8422700422124
 21
505.9081149617186
 31
0.0
  0
LINE
  5
1197
330
1E
100
AcDbEntity
  8
STEMPEL
100
AcDbLine
 10
149.8493601733116
 20
511.4412840202864
 30
0.0
 11
146.5803811210415
 21
511.4412840202863
 31
0.0
  0
LINE
  5
1198
330
1E
100
AcDbEntity
  8
STEMPEL
100
AcDbLine
 10
157.3538838129378
 20
508.2193552920998
 30
0.0
 11
157.3538838129378
 21
506.2592037022857
 31
0.0
  0
LINE
  5
1199
330
1E
100
AcDbEntity
  8
STEMPEL
100
AcDbLine
 10
148.6936297750933
 20
511.2340245986493
 30
0.0
 11
148.6936297750933
 21
506.2592037022857
 31
0.0
  0
LINE
  5
119A
330
1E
100
AcDbEntity
  8
STEMPEL
100
AcDbLine
 10
145.8068784291452
 20
511.2340245986493
 30
0.0
 11
145.8068784291452
 21
506.2592037022857
 31
0.0
  0
LINE
  5
119B
330
1E
100
AcDbEntity
  8
STEMPEL
100
AcDbLine
 10
158.3184921998705
 20
505.9081149617186
 30
0.0
 11
156.4567042955984
 21
505.9081149617186
 31
0.0
  0
LINE
  5
119C
330
1E
100
AcDbEntity
  8
STEMPEL
100
AcDbLine
 10
146.5803811210415
 20
511.4412840202863
 30
0.0
 11
145.8068784291452
 21
511.2340245986493
 31
0.0
  0
ARC
  5
119D
330
1E
100
AcDbEntity
  8
STEMPEL
100
AcDbCircle
 10
147.2502541021192
 20
506.3117468817631
 30
0.0
 40
5.129537138523076
100
AcDbArc
 50
73.6571066940175
 51
106.3428933059825
  0
ARC
  5
119E
330
1E
100
AcDbEntity
  8
STEMPEL
100
AcDbCircle
 10
151.5803811210415
 20
491.2340245986493
 30
0.0
 40
20.20725942163691
100
AcDbArc
 50
94.91416948520841
 51
98.2132107017394
  0
ARC
  5
119F
330
1E
100
AcDbEntity
  8
HILF
100
AcDbCircle
 10
155.9105081399637
 20
502.6988106965816
 30
0.0
 40
3.841839622940954
100
AcDbArc
 50
67.93247218100944
 51
77.40284130776541
  0
ARC
  5
11A0
330
1E
100
AcDbEntity
  8
HILF
100
AcDbCircle
 10
147.2502541021192
 20
502.6999752584699
 30
0.0
 40
3.840760399790701
100
AcDbArc
 50
67.92594526323878
 51
112.0740547367612
  0
ARC
  5
11A1
330
1E
100
AcDbEntity
  8
HILF
100
AcDbCircle
 10
151.5803811210415
 20
491.5999919930601
 30
0.0
 40
14.94074366520046
100
AcDbArc
 50
100.2909006776766
 51
101.1403721611056
  0
ARC
  5
11A2
330
1E
100
AcDbEntity
  8
HILF
100
AcDbCircle
 10
370.3694886365719
 20
491.5999919930601
 30
0.0
 40
14.94074366520046
100
AcDbArc
 50
78.85962783889434
 51
101.1403721611056
  0
ARC
  5
11A3
330
1E
100
AcDbEntity
  8
HILF
100
AcDbCircle
 10
366.0393616176496
 20
502.6999752584699
 30
0.0
 40
3.840760399790701
100
AcDbArc
 50
67.92594526323878
 51
112.0740547367612
  0
ARC
  5
11A4
330
1E
100
AcDbEntity
  8
HILF
100
AcDbCircle
 10
374.6996156554941
 20
502.6988106965816
 30
0.0
 40
3.841839622940954
100
AcDbArc
 50
67.93247218100944
 51
112.0675278189905
  0
ARC
  5
11A5
330
1E
100
AcDbEntity
  8
STEMPEL
100
AcDbCircle
 10
370.3694886365719
 20
491.2340245986493
 30
0.0
 40
20.20725942163691
100
AcDbArc
 50
81.78678929826059
 51
98.2132107017394
  0
ARC
  5
11A6
330
1E
100
AcDbEntity
  8
STEMPEL
100
AcDbCircle
 10
366.0393616176496
 20
506.3117468817631
 30
0.0
 40
5.129537138523076
100
AcDbArc
 50
73.6571066940175
 51
106.3428933059825
  0
LINE
  5
11A7
330
1E
100
AcDbEntity
  8
STEMPEL
100
AcDbLine
 10
365.3694886365719
 20
511.4412840202863
 30
0.0
 11
364.5959859446756
 21
511.2340245986493
 31
0.0
  0
LINE
  5
11A8
330
1E
100
AcDbEntity
  8
STEMPEL
100
AcDbLine
 10
375.3694886365719
 20
511.4412840202863
 30
0.0
 11
376.1429913284682
 21
511.2340245986493
 31
0.0
  0
ARC
  5
11A9
330
1E
100
AcDbEntity
  8
STEMPEL
100
AcDbCircle
 10
374.6996156554941
 20
506.3117468817631
 30
0.0
 40
5.129537138523076
100
AcDbArc
 50
73.6571066940175
 51
106.3428933059825
  0
LINE
  5
11AA
330
1E
100
AcDbEntity
  8
STEMPEL
100
AcDbLine
 10
377.107599715401
 20
505.9081149617186
 30
0.0
 11
363.6313775577428
 21
505.9081149617186
 31
0.0
  0
LINE
  5
11AB
330
1E
100
AcDbEntity
  8
STEMPEL
100
AcDbLine
 10
376.9194886365718
 20
504.8412840202863
 30
0.0
 11
363.8194886365718
 21
504.8412840202863
 31
0.0
  0
LINE
  5
11AC
330
1E
100
AcDbEntity
  8
STEMPEL
100
AcDbLine
 10
364.5959859446756
 20
511.2340245986493
 30
0.0
 11
364.5959859446756
 21
506.2592037022857
 31
0.0
  0
LINE
  5
11AD
330
1E
100
AcDbEntity
  8
STEMPEL
100
AcDbLine
 10
367.4827372906237
 20
511.2340245986493
 30
0.0
 11
367.4827372906237
 21
506.2592037022857
 31
0.0
  0
LINE
  5
11AE
330
1E
100
AcDbEntity
  8
STEMPEL
100
AcDbLine
 10
373.25623998252
 20
511.2340245986493
 30
0.0
 11
373.25623998252
 21
506.2592037022857
 31
0.0
  0
LINE
  5
11AF
330
1E
100
AcDbEntity
  8
STEMPEL
100
AcDbLine
 10
376.1429913284682
 20
511.2340245986493
 30
0.0
 11
376.1429913284682
 21
506.2592037022857
 31
0.0
  0
LINE
  5
11B0
330
1E
100
AcDbEntity
  8
STEMPEL
100
AcDbLine
 10
375.3694886365719
 20
511.4412840202863
 30
0.0
 11
365.3694886365719
 21
511.4412840202863
 31
0.0
  0
LINE
  5
11B1
330
1E
100
AcDbEntity
  8
STEMPEL
100
AcDbLine
 10
364.5959859446756
 20
506.2592037022857
 30
0.0
 11
363.6313775577428
 21
505.9081149617186
 31
0.0
  0
LINE
  5
11B2
330
1E
100
AcDbEntity
  8
STEMPEL
100
AcDbLine
 10
377.107599715401
 20
505.9081149617186
 30
0.0
 11
376.142991328468
 21
506.2592037022857
 31
0.0
  0
ARC
  5
11B3
330
1E
100
AcDbEntity
  8
STEMPEL
100
AcDbCircle
 10
376.9194886365718
 20
505.3912840202863
 30
0.0
 40
0.5500000000000009
100
AcDbArc
 50
270.0
 51
70.00000000000047
  0
ARC
  5
11B4
330
1E
100
AcDbEntity
  8
STEMPEL
100
AcDbCircle
 10
363.8194886365718
 20
505.3912840202863
 30
0.0
 40
0.5500000000000003
100
AcDbArc
 50
109.9999999999995
 51
270.0
  0
LINE
  5
11B5
330
1E
100
AcDbEntity
  8
STEMPEL
100
AcDbLine
 10
324.7694886365717
 20
501.8412840202846
 30
0.0
 11
323.7694886365718
 21
502.8412840202846
 31
0.0
  0
LINE
  5
11B6
330
1E
100
AcDbEntity
  8
STEMPEL
100
AcDbLine
 10
324.7694886365717
 20
501.8412840202844
 30
0.0
 11
324.7694886365717
 21
499.8412840202854
 31
0.0
  0
LINE
  5
11B7
330
1E
100
AcDbEntity
  8
HILF
100
AcDbLine
 10
323.7694886365718
 20
502.8412840202846
 30
0.0
 11
323.7694886365718
 21
499.8412840202853
 31
0.0
  0
LINE
  5
11B8
330
1E
100
AcDbEntity
  8
STEMPEL
100
AcDbLine
 10
316.0021416977961
 20
501.8412840202846
 30
0.0
 11
324.7694886365715
 21
501.8412840202846
 31
0.0
  0
LINE
  5
11B9
330
1E
100
AcDbEntity
  8
STEMPEL
100
AcDbLine
 10
323.7694886365718
 20
502.8412840202846
 30
0.0
 11
315.9715294528981
 21
502.8412840202846
 31
0.0
  0
ARC
  5
11BA
330
1E
100
AcDbEntity
  8
STEMPEL
100
AcDbCircle
 10
329.9194886365717
 20
490.5912840202852
 30
0.0
 40
0.750000000000001
100
AcDbArc
 50
269.9999991462263
 51
70.00000000000047
  0
LINE
  5
11BB
330
1E
100
AcDbEntity
  8
STEMPEL
100
AcDbLine
 10
330.1760037440661
 20
491.2960534858746
 30
0.0
 11
328.4297426744162
 21
491.9316405364851
 31
0.0
  0
LINE
  5
11BC
330
1E
100
AcDbEntity
  8
STEMPEL
100
AcDbLine
 10
328.4297426744162
 20
499.5303948878299
 30
0.0
 11
327.2694886365717
 21
499.8412840202853
 31
0.0
  0
LINE
  5
11BD
330
1E
100
AcDbEntity
  8
STEMPEL
100
AcDbLine
 10
330.1760037440661
 20
491.2960534858746
 30
0.0
 11
316.3249548774211
 21
491.2960534858746
 31
0.0
  0
LINE
  5
11BE
330
1E
100
AcDbEntity
  8
STEMPEL
100
AcDbLine
 10
324.099615655494
 20
491.9316405364851
 30
0.0
 11
324.099615655494
 21
499.5303948878299
 31
0.0
  0
LINE
  5
11BF
330
1E
100
AcDbEntity
  8
STEMPEL
100
AcDbLine
 10
328.4297426744162
 20
491.9316405364851
 30
0.0
 11
328.4297426744162
 21
499.5303948878299
 31
0.0
  0
LINE
  5
11C0
330
1E
100
AcDbEntity
  8
STEMPEL
100
AcDbLine
 10
316.063366187592
 20
499.8412840202852
 30
0.0
 11
327.2694886365717
 21
499.8412840202853
 31
0.0
  0
POINT
  5
11C1
330
1E
100
AcDbEntity
  8
0
100
AcDbPoint
 10
319.7694886365717
 20
489.8412840202852
 30
0.0
210
0.0000000000000001
220
1.0
230
0.0
  0
ARC
  5
11C2
330
1E
100
AcDbEntity
  8
HILF
100
AcDbCircle
 10
326.264679164955
 20
486.5927978707556
 30
0.0
 40
5.761140599691502
100
AcDbArc
 50
67.92594526326206
 51
112.0740547367379
  0
ARC
  5
11C3
330
1E
100
AcDbEntity
  8
HILF
100
AcDbCircle
 10
319.7694886365717
 20
469.942822972624
 30
0.0
 40
22.41111549782308
100
AcDbArc
 50
78.85962783890615
 51
98.90367115107961
  0
ARC
  5
11C4
330
1E
100
AcDbEntity
  8
STEMPEL
100
AcDbCircle
 10
326.264679164955
 20
492.1469783125008
 30
0.0
 40
7.694305707784447
100
AcDbArc
 50
73.65710669401501
 51
106.342893305985
  0
ARC
  5
11C5
330
1E
100
AcDbEntity
  8
STEMPEL
100
AcDbCircle
 10
319.7694886365717
 20
469.5303948878303
 30
0.0
 40
30.31088913245485
100
AcDbArc
 50
81.78678929826221
 51
97.00993828551931
  0
ARC
  5
11C6
330
1E
100
AcDbEntity
  8
STEMPEL
100
AcDbCircle
 10
158.3694886365719
 20
469.5303948878305
 30
0.0
 40
30.31088913245485
100
AcDbArc
 50
81.78678929826221
 51
98.2132107017378
  0
ARC
  5
11C7
330
1E
100
AcDbEntity
  8
STEMPEL
100
AcDbCircle
 10
151.8742981081886
 20
492.1469783125009
 30
0.0
 40
7.694305707784447
100
AcDbArc
 50
73.65710669401501
 51
106.342893305985
  0
ARC
  5
11C8
330
1E
100
AcDbEntity
  8
STEMPEL
100
AcDbCircle
 10
164.8646791649552
 20
492.1469783125009
 30
0.0
 40
7.694305707784447
100
AcDbArc
 50
73.65710669401501
 51
106.342893305985
  0
ARC
  5
11C9
330
1E
100
AcDbEntity
  8
HILF
100
AcDbCircle
 10
158.3694886365719
 20
469.9428229726241
 30
0.0
 40
22.41111549782308
100
AcDbArc
 50
78.85962783890615
 51
101.1403721610938
  0
ARC
  5
11CA
330
1E
100
AcDbEntity
  8
HILF
100
AcDbCircle
 10
164.8646791649552
 20
486.5927978707557
 30
0.0
 40
5.761140599691502
100
AcDbArc
 50
67.92594526326206
 51
112.0740547367379
  0
ARC
  5
11CB
330
1E
100
AcDbEntity
  8
HILF
100
AcDbCircle
 10
151.8742981081886
 20
486.5927978707557
 30
0.0
 40
5.761140599691502
100
AcDbArc
 50
67.92594526326206
 51
112.0740547367379
  0
POINT
  5
11CC
330
1E
100
AcDbEntity
  8
0
100
AcDbPoint
 10
158.3694886365719
 20
489.8412840202854
 30
0.0
210
0.0000000000000001
220
1.0
230
0.0
  0
LINE
  5
11CD
330
1E
100
AcDbEntity
  8
STEMPEL
100
AcDbLine
 10
150.869488636572
 20
499.8412840202854
 30
0.0
 11
165.8694886365719
 21
499.8412840202854
 31
0.0
  0
LINE
  5
11CE
330
1E
100
AcDbEntity
  8
STEMPEL
100
AcDbLine
 10
167.0297426744163
 20
491.9316405364852
 30
0.0
 11
167.0297426744163
 21
499.53039488783
 31
0.0
  0
LINE
  5
11CF
330
1E
100
AcDbEntity
  8
STEMPEL
100
AcDbLine
 10
162.6996156554942
 20
491.9316405364852
 30
0.0
 11
162.6996156554942
 21
499.53039488783
 31
0.0
  0
LINE
  5
11D0
330
1E
100
AcDbEntity
  8
STEMPEL
100
AcDbLine
 10
154.0393616176497
 20
491.9316405364852
 30
0.0
 11
154.0393616176497
 21
499.53039488783
 31
0.0
  0
LINE
  5
11D1
330
1E
100
AcDbEntity
  8
STEMPEL
100
AcDbLine
 10
168.7760037440662
 20
491.2960534858747
 30
0.0
 11
147.9629735290777
 21
491.2960534858747
 31
0.0
  0
LINE
  5
11D2
330
1E
100
AcDbEntity
  8
STEMPEL
100
AcDbLine
 10
168.5194886365719
 20
489.8412840202854
 30
0.0
 11
148.2194886365719
 21
489.8412840202854
 31
0.0
  0
LINE
  5
11D3
330
1E
100
AcDbEntity
  8
STEMPEL
100
AcDbLine
 10
149.7092345987276
 20
491.9316405364852
 30
0.0
 11
149.7092345987276
 21
499.53039488783
 31
0.0
  0
LINE
  5
11D4
330
1E
100
AcDbEntity
  8
STEMPEL
100
AcDbLine
 10
150.869488636572
 20
499.8412840202854
 30
0.0
 11
149.7092345987276
 21
499.53039488783
 31
0.0
  0
LINE
  5
11D5
330
1E
100
AcDbEntity
  8
STEMPEL
100
AcDbLine
 10
167.0297426744163
 20
499.53039488783
 30
0.0
 11
165.8694886365719
 21
499.8412840202854
 31
0.0
  0
LINE
  5
11D6
330
1E
100
AcDbEntity
  8
STEMPEL
100
AcDbLine
 10
168.7760037440662
 20
491.2960534858747
 30
0.0
 11
167.0297426744163
 21
491.9316405364852
 31
0.0
  0
LINE
  5
11D7
330
1E
100
AcDbEntity
  8
STEMPEL
100
AcDbLine
 10
149.7092345987276
 20
491.9316405364852
 30
0.0
 11
147.9629735290777
 21
491.2960534858747
 31
0.0
  0
ARC
  5
11D8
330
1E
100
AcDbEntity
  8
STEMPEL
100
AcDbCircle
 10
148.2194886365719
 20
490.5912840202853
 30
0.0
 40
0.7500000000000013
100
AcDbArc
 50
109.9999999999995
 51
269.9999991462263
  0
ARC
  5
11D9
330
1E
100
AcDbEntity
  8
STEMPEL
100
AcDbCircle
 10
168.5194886365719
 20
490.5912840202853
 30
0.0
 40
0.750000000000001
100
AcDbArc
 50
269.9999991462263
 51
70.00000000000047
  0
HATCH
  5
11DA
330
1E
100
AcDbEntity
  8
SCHRAFF
100
AcDbHatch
 10
0.0
 20
0.0
 30
0.0
210
0.0
220
0.0
230
1.0
  2
_USER
 70
     0
 71
     1
 91
        4
 92
        7
 72
     0
 73
     1
 93
       13
 10
374.3694886365718
 20
503.8412840202856
 10
373.3694886365719
 20
503.8412840202858
 10
373.3694886365719
 20
490.091284020286
 10
373.3694886365719
 20
483.8412840202855
 10
374.3694886365719
 20
483.8412840202855
 10
374.3694886365719
 20
486.8412840202865
 10
373.8694886365719
 20
486.8412840202865
 10
373.8694886365719
 20
489.8412840202865
 10
374.3694886365719
 20
489.8412840202867
 10
374.3694886365716
 20
497.8412840202865
 10
373.8694886365719
 20
497.8412840202864
 10
373.8694886365719
 20
500.8412840202864
 10
374.3694886365716
 20
500.8412840202864
 97
       13
330
11E5
330
120F
330
11F8
330
11DC
330
11EA
330
11E7
330
11E8
330
11E6
330
11F6
330
11DF
330
11E0
330
11DE
330
11DD
 92
        7
 72
     0
 73
     1
 93
       13
 10
367.3694886365719
 20
503.8412840202862
 10
366.3694886365719
 20
503.8412840202862
 10
366.3694886365716
 20
500.8412840202864
 10
366.8694886365719
 20
500.8412840202864
 10
366.8694886365719
 20
497.8412840202865
 10
366.3694886365716
 20
497.8412840202864
 10
366.3694886365719
 20
489.8412840202865
 10
366.8694886365719
 20
489.8412840202865
 10
366.8694886365719
 20
486.8412840202865
 10
366.3694886365719
 20
486.8412840202865
 10
366.3694886365719
 20
483.8412840202855
 10
367.3694886365717
 20
483.8412840202853
 10
367.3694886365719
 20
490.0912840202861
 97
       13
330
11E5
330
11E3
330
11E4
330
11E2
330
11E1
330
11F9
330
11EB
330
11ED
330
11EC
330
11EE
330
11DC
330
11FB
330
1212
 92
        7
 72
     0
 73
     1
 93
        5
 10
373.3694886365718
 20
490.091284020286
 10
372.719488636572
 20
489.4412840202862
 10
372.3694886365719
 20
489.4412840202861
 10
372.3694886365719
 20
483.8412840202855
 10
373.3694886365719
 20
483.8412840202855
 97
        5
330
120B
330
120D
330
11F7
330
11DC
330
11F8
 92
        7
 72
     0
 73
     1
 93
        5
 10
368.3694886365719
 20
489.4412840202861
 10
368.0194886365719
 20
489.4412840202861
 10
367.3694886365717
 20
490.091284020286
 10
367.3694886365717
 20
483.8412840202855
 10
368.3694886365718
 20
483.8412840202855
 97
        5
330
120D
330
120C
330
11FB
330
11DC
330
11FA
 75
     0
 76
     0
 52
45.0
 41
1.0
 77
     0
 78
     1
 53
45.0
 43
0.0000000000000284
 44
0.0000000000000568
 45
-0.7071067811865475
 46
0.7071067811865476
 79
     0
 47
0.0972728452546591
 98
        4
 10
374.0699976476985
 20
502.2105178813299
 10
366.9666696637146
 20
502.5996089481987
 10
372.9023259879946
 20
488.1059559011628
 10
367.9397279354289
 20
488.3005014345973
  0
HATCH
  5
11DB
330
1E
100
AcDbEntity
  8
SCHRAFF
100
AcDbHatch
 10
0.0
 20
0.0
 30
0.0
210
0.0
220
0.0
230
1.0
  2
_USER
 70
     0
 71
     1
 91
        5
 92
        7
 72
     1
 73
     1
 93
       13
 10
378.3694886365716
 20
503.8412840202853
 42
0.0
 10
374.3694886365719
 20
503.8412840202855
 42
0.0
 10
374.3694886365716
 20
500.8412840202864
 42
0.0
 10
373.8694886365719
 20
500.8412840202864
 42
0.0
 10
373.8694886365719
 20
497.8412840202865
 42
0.0
 10
374.3694886365716
 20
497.8412840202865
 42
0.0
 10
374.3694886365719
 20
489.8412840202866
 42
0.0
 10
373.8694886365719
 20
489.8412840202866
 42
0.0
 10
373.8694886365719
 20
486.8412840202865
 42
0.0
 10
374.3694886365719
 20
486.8412840202865
 42
0.0
 10
374.3694886365719
 20
483.8412840202855
 42
0.0
 10
378.2097862386493
 20
483.8412840202855
 42
0.4193348017583792
 10
378.7097100862275
 20
484.3500102235041
 42
0.0
 97
       13
330
11E5
330
11DD
330
11DE
330
11E0
330
11DF
330
11F6
330
11E6
330
11E8
330
11E7
330
11EA
330
11DC
330
11E9
330
11F2
 92
        7
 72
     1
 73
     1
 93
       15
 10
366.3694886365716
 20
497.8412840202865
 42
0.0
 10
366.8694886365719
 20
497.8412840202865
 42
0.0
 10
366.8694886365719
 20
500.8412840202863
 42
0.0
 10
366.3694886365716
 20
500.8412840202863
 42
0.0
 10
366.3694886365719
 20
503.8412840202863
 42
0.0
 10
362.3694886365718
 20
503.8412840202867
 42
0.0
 10
362.1594185916584
 20
491.8063792074112
 42
-0.4091108014277173
 10
360.1597232013456
 20
489.8412840202857
 42
0.0
 10
319.7694886365718
 20
489.8412840202854
 42
0.0
 10
319.7694886365718
 20
483.8412840202852
 42
0.0
 10
366.3694886365719
 20
483.8412840202855
 42
0.0
 10
366.369488636572
 20
486.8412840202866
 42
0.0
 10
366.8694886365719
 20
486.8412840202865
 42
0.0
 10
366.8694886365719
 20
489.8412840202865
 42
0.0
 10
366.3694886365719
 20
489.8412840202865
 42
0.0
 97
       15
330
11E1
330
11E2
330
11E4
330
11E3
330
11E5
330
11F3
330
11F0
330
11F1
330
126A
330
11DC
330
11EE
330
11EC
330
11ED
330
11EB
330
11F9
 92
        7
 72
     0
 73
     1
 93
        6
 10
319.7694886365718
 20
483.8412840202852
 10
319.7694886365717
 20
489.8412840202854
 10
316.3694886365718
 20
489.8412840202854
 10
314.8694886365709
 20
538.8412840202854
 10
312.3694886365708
 20
538.8412840202854
 10
310.8694886365719
 20
483.8412840202852
 97
        6
330
11F1
330
11F5
330
1209
330
11FC
330
11DC
330
126A
 92
        7
 72
     0
 73
     1
 93
        6
 10
185.8694886365718
 20
483.8412840202844
 10
184.3694886365709
 20
538.8412840202854
 10
181.8694886365712
 20
538.8412840202854
 10
180.3694886365718
 20
489.8412840202855
 10
164.8694886365718
 20
489.8412840202854
 10
164.8694886365718
 20
483.8412840202841
 97
        6
330
1209
330
1207
330
1201
330
124B
330
11DC
330
1206
 92
        7
 72
     1
 73
     1
 93
        6
 10
151.8694886365718
 20
483.8412840202841
 42
0.0
 10
151.8694886365718
 20
489.8412840202853
 42
0.0
 10
131.3694886365723
 20
489.8412840202852
 42
0.4142135623730951
 10
130.8694886365723
 20
489.3412840202852
 42
0.0
 10
130.8694886365723
 20
484.3412840202839
 42
0.4142135623730951
 10
131.3694886365723
 20
483.8412840202839
 42
0.0
 97
        6
330
1201
330
11FE
330
1200
330
11FF
330
1208
330
1236
 75
     0
 76
     0
 52
135.0
 41
5.0
 77
     0
 78
     1
 53
135.0
 43
0.0000000000000284
 44
0.0000000000000568
 45
-3.535533905932737
 46
-3.535533905932737
 79
     0
 47
0.4014221654261375
 98
        5
 10
377.6065875825425
 20
494.0144660169294
 10
364.75672100256
 20
492.4087780940581
 10
316.1681574890622
 20
486.3874451414417
 10
177.6305192474547
 20
486.7888682027756
 10
143.8996162244134
 20
486.7888682027756
  0
LINE
  5
11DC
102
{ACAD_REACTORS
330
11DB
330
11DA
102
}
330
1E
100
AcDbEntity
  8
STEMPEL
100
AcDbLine
 10
163.3694886365719
 20
483.8412840202842
 30
0.0
 11
378.2097862386493
 21
483.8412840202855
 31
0.0
  0
LINE
  5
11DD
102
{ACAD_REACTORS
330
11DB
330
11DA
102
}
330
1E
100
AcDbEntity
  8
STEMPEL
100
AcDbLine
 10
374.3694886365716
 20
500.8412840202864
 30
0.0
 11
374.3694886365718
 21
503.8412840202864
 31
0.0
  0
LINE
  5
11DE
102
{ACAD_REACTORS
330
11DB
330
11DA
102
}
330
1E
100
AcDbEntity
  8
STEMPEL
100
AcDbLine
 10
374.3694886365718
 20
500.8412840202864
 30
0.0
 11
373.8694886365719
 21
500.8412840202864
 31
0.0
  0
LINE
  5
11DF
102
{ACAD_REACTORS
330
11DB
330
11DA
102
}
330
1E
100
AcDbEntity
  8
STEMPEL
100
AcDbLine
 10
374.3694886365718
 20
497.8412840202865
 30
0.0
 11
373.8694886365719
 21
497.8412840202865
 31
0.0
  0
LINE
  5
11E0
102
{ACAD_REACTORS
330
11DB
330
11DA
102
}
330
1E
100
AcDbEntity
  8
STEMPEL
100
AcDbLine
 10
373.8694886365719
 20
497.8412840202865
 30
0.0
 11
373.8694886365719
 21
500.8412840202866
 31
0.0
  0
LINE
  5
11E1
102
{ACAD_REACTORS
330
11DB
330
11DA
102
}
330
1E
100
AcDbEntity
  8
STEMPEL
100
AcDbLine
 10
366.8694886365719
 20
497.8412840202865
 30
0.0
 11
366.3694886365718
 21
497.8412840202865
 31
0.0
  0
LINE
  5
11E2
102
{ACAD_REACTORS
330
11DB
330
11DA
102
}
330
1E
100
AcDbEntity
  8
STEMPEL
100
AcDbLine
 10
366.8694886365719
 20
497.8412840202865
 30
0.0
 11
366.8694886365719
 21
500.8412840202866
 31
0.0
  0
LINE
  5
11E3
102
{ACAD_REACTORS
330
11DB
330
11DA
102
}
330
1E
100
AcDbEntity
  8
STEMPEL
100
AcDbLine
 10
366.3694886365716
 20
500.8412840202863
 30
0.0
 11
366.3694886365718
 21
503.8412840202864
 31
0.0
  0
LINE
  5
11E4
102
{ACAD_REACTORS
330
11DB
330
11DA
102
}
330
1E
100
AcDbEntity
  8
STEMPEL
100
AcDbLine
 10
366.8694886365719
 20
500.8412840202864
 30
0.0
 11
366.3694886365718
 21
500.8412840202864
 31
0.0
  0
LINE
  5
11E5
102
{ACAD_REACTORS
330
11DB
330
11DA
102
}
330
1E
100
AcDbEntity
  8
STEMPEL
100
AcDbLine
 10
361.9300451692094
 20
503.8412840202868
 30
0.0
 11
378.3694886365716
 21
503.8412840202853
 31
0.0
  0
LINE
  5
11E6
102
{ACAD_REACTORS
330
11DB
330
11DA
102
}
330
1E
100
AcDbEntity
  8
STEMPEL
100
AcDbLine
 10
374.3694886365719
 20
489.8412840202866
 30
0.0
 11
373.8694886365719
 21
489.8412840202865
 31
0.0
  0
LINE
  5
11E7
102
{ACAD_REACTORS
330
11DB
330
11DA
102
}
330
1E
100
AcDbEntity
  8
STEMPEL
100
AcDbLine
 10
374.3694886365719
 20
486.8412840202865
 30
0.0
 11
373.8694886365717
 21
486.8412840202865
 31
0.0
  0
LINE
  5
11E8
102
{ACAD_REACTORS
330
11DB
330
11DA
102
}
330
1E
100
AcDbEntity
  8
STEMPEL
100
AcDbLine
 10
373.8694886365719
 20
486.8412840202865
 30
0.0
 11
373.8694886365719
 21
489.8412840202866
 31
0.0
  0
ARC
  5
11E9
102
{ACAD_REACTORS
330
11DB
102
}
330
1E
100
AcDbEntity
  8
STEMPEL
100
AcDbCircle
 10
378.2097862386493
 20
484.3412840202855
 30
0.0
 40
0.5
100
AcDbArc
 50
270.0
 51
0.9999999999985053
  0
LINE
  5
11EA
102
{ACAD_REACTORS
330
11DB
330
11DA
102
}
330
1E
100
AcDbEntity
  8
STEMPEL
100
AcDbLine
 10
374.3694886365719
 20
483.8412840202866
 30
0.0
 11
374.3694886365719
 21
486.8412840202865
 31
0.0
  0
LINE
  5
11EB
102
{ACAD_REACTORS
330
11DB
330
11DA
102
}
330
1E
100
AcDbEntity
  8
STEMPEL
100
AcDbLine
 10
366.8694886365719
 20
489.8412840202865
 30
0.0
 11
366.3694886365719
 21
489.8412840202865
 31
0.0
  0
LINE
  5
11EC
102
{ACAD_REACTORS
330
11DB
330
11DA
102
}
330
1E
100
AcDbEntity
  8
STEMPEL
100
AcDbLine
 10
366.8694886365719
 20
486.8412840202865
 30
0.0
 11
366.3694886365719
 21
486.8412840202865
 31
0.0
  0
LINE
  5
11ED
102
{ACAD_REACTORS
330
11DB
330
11DA
102
}
330
1E
100
AcDbEntity
  8
STEMPEL
100
AcDbLine
 10
366.8694886365719
 20
486.8412840202864
 30
0.0
 11
366.8694886365719
 21
489.8412840202865
 31
0.0
  0
LINE
  5
11EE
102
{ACAD_REACTORS
330
11DB
330
11DA
102
}
330
1E
100
AcDbEntity
  8
STEMPEL
100
AcDbLine
 10
366.3694886365719
 20
483.8412840202866
 30
0.0
 11
366.3694886365719
 21
486.8412840202865
 31
0.0
  0
ARC
  5
11EF
330
1E
100
AcDbEntity
  8
STEMPEL
100
AcDbCircle
 10
359.7202797339834
 20
491.8412840202856
 30
0.0
 40
2.0
100
AcDbArc
 50
270.0
 51
359.0000000000015
  0
ARC
  5
11F0
102
{ACAD_REACTORS
330
11DB
102
}
330
1E
100
AcDbEntity
  8
STEMPEL
100
AcDbCircle
 10
360.1597232013456
 20
491.8412840202856
 30
0.0
 40
2.0
100
AcDbArc
 50
270.0
 51
359.0000000000015
  0
LINE
  5
11F1
102
{ACAD_REACTORS
330
11DB
102
}
330
1E
100
AcDbEntity
  8
STEMPEL
100
AcDbLine
 10
316.3694886365718
 20
489.8412840202854
 30
0.0
 11
360.1597232013456
 21
489.8412840202857
 31
0.0
  0
LINE
  5
11F2
102
{ACAD_REACTORS
330
11DB
102
}
330
1E
100
AcDbEntity
  8
STEMPEL
100
AcDbLine
 10
378.3694886365716
 20
503.8412840202853
 30
0.0
 11
378.7097100862275
 21
484.3500102235041
 31
0.0
  0
LINE
  5
11F3
102
{ACAD_REACTORS
330
11DB
102
}
330
1E
100
AcDbEntity
  8
STEMPEL
100
AcDbLine
 10
362.3694886365716
 20
503.8412840202853
 30
0.0
 11
362.1594185916584
 21
491.8063792074112
 31
0.0
  0
LINE
  5
11F4
330
1E
100
AcDbEntity
  8
STEMPEL
100
AcDbLine
 10
361.9300451692094
 20
503.8412840202864
 30
0.0
 11
361.7199751242962
 21
491.8063792074111
 31
0.0
  0
LINE
  5
11F5
102
{ACAD_REACTORS
330
11DB
102
}
330
1E
100
AcDbEntity
  8
STEMPEL
100
AcDbLine
 10
314.8694886365709
 20
538.8412840202854
 30
0.0
 11
316.3694886365718
 21
489.8412840202854
 31
0.0
  0
LINE
  5
11F6
102
{ACAD_REACTORS
330
11DB
330
11DA
102
}
330
1E
100
AcDbEntity
  8
STEMPEL
100
AcDbLine
 10
374.3694886365719
 20
489.8412840202865
 30
0.0
 11
374.3694886365716
 21
497.8412840202865
 31
0.0
  0
LINE
  5
11F7
102
{ACAD_REACTORS
330
11DA
102
}
330
1E
100
AcDbEntity
  8
STEMPEL
100
AcDbLine
 10
372.3694886365718
 20
483.8412840202863
 30
0.0
 11
372.3694886365719
 21
489.4412840202861
 31
0.0
  0
LINE
  5
11F8
102
{ACAD_REACTORS
330
11DA
102
}
330
1E
100
AcDbEntity
  8
HILF
100
AcDbLine
 10
373.3694886365718
 20
483.8412840202863
 30
0.0
 11
373.3694886365719
 21
490.091284020286
 31
0.0
  0
LINE
  5
11F9
102
{ACAD_REACTORS
330
11DB
330
11DA
102
}
330
1E
100
AcDbEntity
  8
STEMPEL
100
AcDbLine
 10
366.3694886365719
 20
489.8412840202864
 30
0.0
 11
366.3694886365716
 21
497.8412840202865
 31
0.0
  0
LINE
  5
11FA
102
{ACAD_REACTORS
330
11DA
102
}
330
1E
100
AcDbEntity
  8
STEMPEL
100
AcDbLine
 10
368.3694886365718
 20
483.8412840202863
 30
0.0
 11
368.3694886365719
 21
489.4412840202861
 31
0.0
  0
LINE
  5
11FB
102
{ACAD_REACTORS
330
11DA
102
}
330
1E
100
AcDbEntity
  8
HILF
100
AcDbLine
 10
367.3694886365717
 20
483.8412840202863
 30
0.0
 11
367.3694886365719
 21
490.0912840202861
 31
0.0
  0
LINE
  5
11FC
102
{ACAD_REACTORS
330
11DB
102
}
330
1E
100
AcDbEntity
  8
STEMPEL
100
AcDbLine
 10
312.3694886365708
 20
538.8412840202854
 30
0.0
 11
310.8694886365719
 21
483.841284020285
 31
0.0
  0
LINE
  5
11FD
330
1E
100
AcDbEntity
  8
STEMPEL
100
AcDbLine
 10
140.5589351807042
 20
503.8412840202865
 30
0.0
 11
162.789679112611
 21
503.8412840202848
 31
0.0
  0
ARC
  5
11FE
102
{ACAD_REACTORS
330
11DB
102
}
330
1E
100
AcDbEntity
  8
STEMPEL
100
AcDbCircle
 10
131.3694886365723
 20
489.3412840202852
 30
0.0
 40
0.5
100
AcDbArc
 50
90.0
 51
180.0
  0
ARC
  5
11FF
102
{ACAD_REACTORS
330
11DB
102
}
330
1E
100
AcDbEntity
  8
STEMPEL
100
AcDbCircle
 10
131.3694886365723
 20
484.3412840202839
 30
0.0
 40
0.5
100
AcDbArc
 50
180.0
 51
270.0
  0
LINE
  5
1200
102
{ACAD_REACTORS
330
11DB
102
}
330
1E
100
AcDbEntity
  8
STEMPEL
100
AcDbLine
 10
130.8694886365723
 20
484.3412840202839
 30
0.0
 11
130.8694886365723
 21
489.3412840202852
 31
0.0
  0
LINE
  5
1201
102
{ACAD_REACTORS
330
11DB
102
}
330
1E
100
AcDbEntity
  8
STEMPEL
100
AcDbLine
 10
131.3694886365723
 20
489.8412840202852
 30
0.0
 11
180.3694886365717
 21
489.8412840202854
 31
0.0
  0
LINE
  5
1202
330
1E
100
AcDbEntity
  8
MITTEL
100
AcDbLine
 10
151.5803811210415
 20
516.4412840202863
 30
0.0
 11
151.5803811210415
 21
487.8412840202853
 31
0.0
  0
LINE
  5
1203
330
1E
100
AcDbEntity
  8
STEMPEL
100
AcDbLine
 10
140.5589351807042
 20
503.8412840202865
 30
0.0
 11
140.3145642717096
 21
489.8412840202852
 31
0.0
  0
LINE
  5
1204
330
1E
100
AcDbEntity
  8
STEMPEL
100
AcDbLine
 10
153.4031004371578
 20
503.8412840202858
 30
0.0
 11
153.4031004371579
 21
501.8748958208706
 31
0.0
  0
LINE
  5
1205
330
1E
100
AcDbEntity
  8
STEMPEL
100
AcDbLine
 10
162.789679112611
 20
503.8412840202848
 30
0.0
 11
162.814909019239
 21
502.3958636376176
 31
0.0
  0
LINE
  5
1206
102
{ACAD_REACTORS
330
11DB
102
}
330
1E
100
AcDbEntity
  8
STEMPEL
100
AcDbLine
 10
184.3694886365709
 20
538.8412840202854
 30
0.0
 11
185.8694886365718
 21
483.8412840202842
 31
0.0
  0
LINE
  5
1207
102
{ACAD_REACTORS
330
11DB
102
}
330
1E
100
AcDbEntity
  8
STEMPEL
100
AcDbLine
 10
181.8694886365712
 20
538.8412840202836
 30
0.0
 11
180.3694886365717
 21
489.8412840202854
 31
0.0
  0
LINE
  5
1208
102
{ACAD_REACTORS
330
11DB
102
}
330
1E
100
AcDbEntity
  8
STEMPEL
100
AcDbLine
 10
131.3694886365723
 20
483.8412840202839
 30
0.0
 11
153.3694886365719
 21
483.8412840202841
 31
0.0
  0
LINE
  5
1209
102
{ACAD_REACTORS
330
11DB
102
}
330
1E
100
AcDbEntity
  8
STEMPEL
100
AcDbLine
 10
181.869488636571
 20
538.8412840202854
 30
0.0
 11
314.8694886365709
 21
538.8412840202854
 31
0.0
  0
LINE
  5
120A
330
1E
100
AcDbEntity
  8
STEMPEL
100
AcDbLine
 10
163.369488636572
 20
483.8412840202847
 30
0.0
 11
365.8694886365719
 21
483.8412840202846
 31
0.0
  0
LINE
  5
120B
102
{ACAD_REACTORS
330
11DA
102
}
330
1E
100
AcDbEntity
  8
STEMPEL
100
AcDbLine
 10
372.719488636572
 20
489.4412840202861
 30
0.0
 11
373.3694886365719
 21
490.091284020286
 31
0.0
  0
LINE
  5
120C
102
{ACAD_REACTORS
330
11DA
102
}
330
1E
100
AcDbEntity
  8
STEMPEL
100
AcDbLine
 10
367.3694886365719
 20
490.091284020286
 30
0.0
 11
368.019488636572
 21
489.4412840202861
 31
0.0
  0
LINE
  5
120D
102
{ACAD_REACTORS
330
11DA
102
}
330
1E
100
AcDbEntity
  8
STEMPEL
100
AcDbLine
 10
368.019488636572
 20
489.4412840202861
 30
0.0
 11
372.719488636572
 21
489.4412840202861
 31
0.0
  0
LINE
  5
120E
330
1E
100
AcDbEntity
  8
STEMPEL
100
AcDbLine
 10
367.3694886365719
 20
490.0912840202861
 30
0.0
 11
373.3694886365719
 21
490.091284020286
 31
0.0
  0
LINE
  5
120F
102
{ACAD_REACTORS
330
11DA
102
}
330
1E
100
AcDbEntity
  8
STEMPEL
100
AcDbLine
 10
373.3694886365719
 20
503.8412840202861
 30
0.0
 11
373.3694886365719
 21
490.091284020286
 31
0.0
  0
LINE
  5
1210
330
1E
100
AcDbEntity
  8
HILF
100
AcDbLine
 10
372.719488636572
 20
489.4412840202861
 30
0.0
 11
372.719488636572
 21
503.8412840202861
 31
0.0
  0
LINE
  5
1211
330
1E
100
AcDbEntity
  8
HILF
100
AcDbLine
 10
368.019488636572
 20
489.4412840202861
 30
0.0
 11
368.019488636572
 21
503.8412840202861
 31
0.0
  0
LINE
  5
1212
102
{ACAD_REACTORS
330
11DA
102
}
330
1E
100
AcDbEntity
  8
STEMPEL
100
AcDbLine
 10
367.3694886365719
 20
503.8412840202861
 30
0.0
 11
367.3694886365719
 21
490.091284020286
 31
0.0
  0
HATCH
  5
1213
330
1E
100
AcDbEntity
  8
SCHRAFF
100
AcDbHatch
 10
0.0
 20
0.0
 30
0.0
210
0.0
220
0.0
230
1.0
  2
_USER
 70
     0
 71
     0
 91
        3
 92
        7
 72
     1
 73
     1
 93
       45
 10
328.3694886365722
 20
593.8412840202861
 42
0.0
 10
273.8090032316288
 20
593.8412840202858
 42
-0.2679491924311462
 10
272.509965125952
 20
594.5912840202859
 42
0.2859076546239276
 10
271.1109270202749
 20
595.3379469749952
 42
0.2859076546238073
 10
269.7118889145985
 20
594.5912840202857
 42
-0.2679491924310387
 10
268.4128508089224
 20
593.8412840202857
 42
0.0
 10
261.9590032316283
 20
593.8412840202857
 42
-0.267949192431124
 10
260.6599651259517
 20
594.5912840202857
 42
0.2859076546239073
 10
259.2609270202747
 20
595.3379469749952
 42
0.3607372083887739
 10
257.708558265447
 20
594.2162840202857
 42
-0.3419987131197737
 10
257.2244353471708
 20
593.8412840202857
 42
0.0
 10
257.0356861545716
 20
593.8412840202857
 42
-0.3419987131196467
 10
256.5515632362957
 20
594.2162840202857
 42
0.3419987131196468
 10
255.0991944814679
 20
595.3412840202856
 42
0.0
 10
248.3694886365718
 20
595.3412840202856
 42
0.0
 10
248.3694886365718
 20
594.3412840202859
 42
0.0
 10
255.0991944814683
 20
594.3412840202859
 42
-0.3419987131196959
 10
255.5833173997442
 20
593.9662840202856
 42
0.3596757619904662
 10
257.1300607508714
 20
592.8442558189569
 42
0.3596757619904828
 10
258.6768041019986
 20
593.9662840202856
 42
-0.3419987131196958
 10
259.1609270202746
 20
594.3412840202859
 42
0.0
 10
259.3609270202748
 20
594.3412840202859
 42
-0.2679491924311591
 10
259.793939722167
 20
594.0912840202856
 42
0.2679491924311169
 10
261.9590032316281
 20
592.8412840202859
 42
0.0
 10
273.8090032316288
 20
592.8412840202859
 42
-0.267949192431157
 10
271.6439397221675
 20
594.0912840202861
 42
0.3226874621963101
 10
271.110927020275
 20
594.3311819688422
 42
0.0503820444850733
 10
271.0109270202746
 20
594.3412840202856
 42
0.0
 10
271.2109270202748
 20
594.3412840202856
 42
-0.2679491924311579
 10
271.643939722167
 20
594.0912840202856
 42
0.2679491924310984
 10
273.809003231628
 20
592.8412840202859
 42
0.0
 10
328.3694886365722
 20
592.8412840202861
 42
-0.1340385084113145
 10
330.9099883117481
 20
592.1477746333523
 42
0.0
 10
354.8888422046993
 20
578.1601214671668
 42
-0.2667503951500831
 10
357.3694886365721
 20
573.8412260529705
 42
0.0
 10
357.3694886365721
 20
509.8412840202865
 42
0.4142135623731171
 10
363.3694886365721
 20
503.8412840202861
 42
0.0
 10
366.369488636572
 20
503.8412840202861
 42
0.0
 10
366.369488636572
 20
504.8412840202864
 42
0.0
 10
364.3694886365719
 20
504.8412840202865
 42
0.0
 10
363.3694886365719
 20
504.8412840202864
 42
-0.41421356237308
 10
358.3694886365722
 20
509.8412840202865
 42
0.0
 10
358.3694886365722
 20
573.8412260529705
 42
0.2662608607120317
 10
355.4021832582476
 20
579.0183645803483
 42
0.0
 10
331.3694886364928
 20
593.0374364430381
 42
0.1316524975835191
 97
        0
 92
        7
 72
     1
 73
     1
 93
       44
 10
225.2729143183825
 20
594.0912840202856
 42
-0.2679491924311239
 10
225.7059270202748
 20
594.3412840202856
 42
0.0
 10
225.9059270202749
 20
594.3412840202856
 42
-0.267949192431124
 10
226.3389397221671
 20
594.0912840202856
 42
0.2679491924311285
 10
228.5040032316282
 20
592.8412840202857
 42
0.0
 10
230.562850808921
 20
592.8412840202857
 42
0.267949192431151
 10
232.7279143183822
 20
594.0912840202859
 42
-0.2679491924310922
 10
233.1609270202744
 20
594.3412840202859
 42
0.0
 10
233.3609270202748
 20
594.3412840202859
 42
-0.2679491924311591
 10
233.7939397221671
 20
594.0912840202856
 42
0.267949192431124
 10
235.9590032316281
 20
592.8412840202857
 42
0.0
 10
242.412850808922
 20
592.8412840202857
 42
0.2679491924310841
 10
244.5779143183829
 20
594.0912840202854
 42
-0.267949192431303
 10
245.0109270202752
 20
594.3412840202859
 42
0.0
 10
248.3694886365718
 20
594.3412840202856
 42
0.0
 10
248.3694886365718
 20
595.3412840202856
 42
0.0
 10
245.0109270202746
 20
595.3412840202856
 42
0.267949192431064
 10
243.7118889145983
 20
594.5912840202857
 42
-0.2679491924310742
 10
242.412850808922
 20
593.8412840202857
 42
0.0
 10
235.9590032316277
 20
593.8412840202857
 42
-0.2679491924311239
 10
234.6599651259511
 20
594.5912840202857
 42
0.2859076546237903
 10
233.2609270202748
 20
595.3379469749952
 42
0.285907654623897
 10
231.8618889145979
 20
594.5912840202857
 42
-0.2679491924311549
 10
230.5628508089211
 20
593.8412840202857
 42
0.0
 10
228.5040032316287
 20
593.8412840202857
 42
-0.267949192431158
 10
227.204965125952
 20
594.5912840202859
 42
0.2859076546239009
 10
225.805927020275
 20
595.3379469749952
 42
0.2859076546238967
 10
224.4068889145981
 20
594.5912840202857
 42
-0.267949192431151
 10
223.1078508089214
 20
593.8412840202857
 42
0.0
 10
168.3694886365719
 20
593.8412840202854
 42
0.131652497583335
 10
165.3694886366548
 20
593.0374364430401
 42
0.0
 10
141.3367940148784
 20
579.0183645803376
 42
0.2662608607111006
 10
138.3694886365719
 20
573.8412260529703
 42
0.0
 10
138.3694886365719
 20
509.8412840202865
 42
-0.4142135623730816
 10
133.3694886365722
 20
504.8412840202864
 42
0.0
 10
118.3694886365718
 20
504.841284020286
 42
0.0
 10
118.3694886365717
 20
503.8412840202859
 42
0.0
 10
133.369488636572
 20
503.8412840202859
 42
0.4142135623731197
 10
139.3694886365721
 20
509.8412840202865
 42
0.0
 10
139.3694886365721
 20
573.8412260529705
 42
-0.266750395150091
 10
141.850135068445
 20
578.1601214671668
 42
0.0
 10
165.8289889613961
 20
592.1477746333523
 42
-0.1340385084113021
 10
168.3694886365719
 20
592.8412840202854
 42
0.0
 10
223.1078508089214
 20
592.8412840202857
 42
0.2679491924311372
 97
        0
 92
        7
 72
     0
 73
     1
 93
        4
 10
378.3694886365719
 20
504.841284020286
 10
374.369488636572
 20
504.8412840202861
 10
374.369488636572
 20
503.841284020286
 10
378.3694886365719
 20
503.8412840202861
 97
        0
 75
     0
 76
     0
 52
45.0
 41
2.0
 77
     0
 78
     1
 53
45.0
 43
0.0000000000000284
 44
0.0000000000000568
 45
-1.414213562373094
 46
1.414213562373095
 79
     0
 47
0.3135229580244547
 98
        3
 10
292.4434180997814
 20
593.4449225748437
 10
204.9230679392063
 20
593.1314008675055
 10
375.885762096615
 20
504.4044016161513
  0
ARC
  5
1214
330
1E
100
AcDbEntity
  8
STEMPEL
100
AcDbCircle
 10
223.1078508089214
 20
595.3412840202856
 30
0.0
 40
1.5
100
AcDbArc
 50
270.0
 51
330.0000000000003
  0
ARC
  5
1215
330
1E
100
AcDbEntity
  8
STEMPEL
100
AcDbCircle
 10
223.1078508089214
 20
595.3412840202856
 30
0.0
 40
2.5
100
AcDbArc
 50
270.0
 51
330.0000000000003
  0
LINE
  5
1216
330
1E
100
AcDbEntity
  8
STEMPEL
100
AcDbLine
 10
168.3694886365719
 20
592.8412840202854
 30
0.0
 11
328.3694886365722
 21
592.8412840202861
 31
0.0
  0
LINE
  5
1217
330
1E
100
AcDbEntity
  8
STEMPEL
100
AcDbLine
 10
163.369488636572
 20
480.8412840202847
 30
0.0
 11
370.8694886365719
 21
480.8412840202846
 31
0.0
  0
LINE
  5
1218
330
1E
100
AcDbEntity
  8
HILF
100
AcDbLine
 10
350.6958216941026
 20
576.8412840202889
 30
0.0
 11
145.5431555790412
 21
576.8412840202886
 31
0.0
  0
LINE
  5
1219
330
1E
100
AcDbEntity
  8
STEMPEL
100
AcDbLine
 10
139.3694886365721
 20
573.8412260529705
 30
0.0
 11
139.3694886365721
 21
509.8412840202865
 31
0.0
  0
LINE
  5
121A
330
1E
100
AcDbEntity
  8
STEMPEL
100
AcDbLine
 10
138.3694886365719
 20
573.8412260529705
 30
0.0
 11
138.3694886365719
 21
509.8412840202865
 31
0.0
  0
LINE
  5
121B
330
1E
100
AcDbEntity
  8
STEMPEL
100
AcDbLine
 10
155.5550981867059
 20
504.841284020286
 30
0.0
 11
163.9178374132934
 21
504.841284020286
 31
0.0
  0
LINE
  5
121C
330
1E
100
AcDbEntity
  8
STEMPEL
100
AcDbLine
 10
162.3694886365719
 20
502.8412840202847
 30
0.0
 11
154.3694886365719
 21
502.8412840202847
 31
0.0
  0
LINE
  5
121D
330
1E
100
AcDbEntity
  8
STEMPEL
100
AcDbLine
 10
153.3694886365719
 20
501.8412840202847
 30
0.0
 11
163.3694886365717
 21
501.8412840202847
 31
0.0
  0
LINE
  5
121E
330
1E
100
AcDbEntity
  8
STEMPEL
100
AcDbLine
 10
118.3694886365717
 20
503.8412840202859
 30
0.0
 11
180.7980600651431
 21
503.841284020286
 31
0.0
  0
LWPOLYLINE
  5
121F
330
1E
100
AcDbEntity
  8
STEMPEL
100
AcDbPolyline
 90
       18
 70
   128
 43
0.0
 10
-157.5332136935007
 20
516.3412840202843
 10
-157.6109535947608
 20
517.7194054039087
 10
-157.8415259594427
 20
519.0505965166885
 10
-158.2170789222078
 20
520.2895252418652
 10
-158.7248234773355
 20
521.3940013476344
 10
-159.3474689929735
 20
522.3264132248873
 10
-160.0638120228675
 20
523.0550087054487
 10
-160.8494583642934
 20
523.5549763440819
 10
-161.6776537733728
 20
523.8092903424985
 10
-162.5201950487605
 20
523.8092903424985
 10
-163.3483904578399
 20
523.5549763440819
 10
-164.1340367992659
 20
523.0550087054487
 10
-164.8503798291599
 20
522.3264132248873
 10
-165.4730253447978
 20
521.3940013476344
 10
-165.9807698999255
 20
520.2895252418652
 10
-166.3563228626907
 20
519.0505965166885
 10
-166.5868952273725
 20
517.7194054039087
 10
-166.6646351286326
 20
516.3412840202843
210
0.0
220
0.0
230
-1.0
  0
LINE
  5
1220
330
1E
100
AcDbEntity
  8
STEMPEL
100
AcDbLine
 10
118.3694886365719
 20
504.841284020286
 30
0.0
 11
133.3694886365722
 21
504.8412840202864
 31
0.0
  0
LINE
  5
1221
330
1E
100
AcDbEntity
  8
STEMPEL
100
AcDbLine
 10
118.3694886365718
 20
504.8412840202863
 30
0.0
 11
118.3694886365717
 21
503.8412840202861
 31
0.0
  0
LINE
  5
1222
330
1E
100
AcDbEntity
  8
STEMPEL
100
AcDbLine
 10
141.5370687609077
 20
516.3412840202843
 30
0.0
 11
141.5370687609077
 21
509.8412840202853
 31
0.0
  0
LINE
  5
1223
330
1E
100
AcDbEntity
  8
STEMPEL
100
AcDbLine
 10
140.5432900473699
 20
516.3412840202843
 30
0.0
 11
140.5432900473699
 21
509.8412840202865
 31
0.0
  0
LINE
  5
1224
330
1E
100
AcDbEntity
  8
STEMPEL
100
AcDbLine
 10
139.5791758776073
 20
516.3412840202843
 30
0.0
 11
139.5791758776073
 21
509.8412840202865
 31
0.0
  0
LINE
  5
1225
330
1E
100
AcDbEntity
  8
STEMPEL
100
AcDbLine
 10
145.0351630243411
 20
516.3412840202843
 30
0.0
 11
145.0351630243411
 21
509.8412840202876
 31
0.0
  0
LINE
  5
1226
330
1E
100
AcDbEntity
  8
STEMPEL
100
AcDbLine
 10
157.5332136935006
 20
516.3412840202843
 30
0.0
 11
157.5332136935006
 21
509.8412840202876
 31
0.0
  0
LINE
  5
1227
330
1E
100
AcDbEntity
  8
STEMPEL
100
AcDbLine
 10
149.8493601733116
 20
516.3412840202843
 30
0.0
 11
149.8493601733116
 21
509.8412840202876
 31
0.0
  0
LINE
  5
1228
330
1E
100
AcDbEntity
  8
STEMPEL
100
AcDbLine
 10
150.7754145098189
 20
516.3412840202843
 30
0.0
 11
150.7754145098189
 21
509.8412840202876
 31
0.0
  0
LWPOLYLINE
  5
1229
330
1E
100
AcDbEntity
  8
STEMPEL
100
AcDbPolyline
 90
       10
 70
   128
 43
0.0
 10
140.2197984977672
 20
503.8412840202861
 10
141.0559777726087
 20
503.9324375022128
 10
141.8667501633113
 20
504.2031282955706
 10
142.6274807610542
 20
504.6451315975795
 10
143.315055151573
 20
505.2450173615723
 10
143.9085817349414
 20
505.984558362167
 10
144.3900265062626
 20
506.8412840202863
 10
144.744761009783
 20
507.7891631603323
 10
144.9620068171171
 20
508.7993949542848
 10
145.0351630243411
 20
509.8412840202865
  0
LINE
  5
122A
330
1E
100
AcDbEntity
  8
STEMPEL
100
AcDbLine
 10
140.5589351807043
 20
503.8412840202865
 30
0.0
 11
152.3694886365718
 21
503.8412840202856
 31
0.0
  0
LINE
  5
122B
330
1E
100
AcDbEntity
  8
STEMPEL
100
AcDbLine
 10
125.8694886365718
 20
480.8412840202847
 30
0.0
 11
153.3694886365719
 21
480.8412840202848
 31
0.0
  0
LINE
  5
122C
330
1E
100
AcDbEntity
  8
STEMPEL
100
AcDbLine
 10
131.3694886365723
 20
483.8412840202847
 30
0.0
 11
153.3694886365719
 21
483.8412840202848
 31
0.0
  0
LINE
  5
122D
330
1E
100
AcDbEntity
  8
STEMPEL
100
AcDbLine
 10
125.8694886365718
 20
480.8412840202847
 30
0.0
 11
125.8694886365718
 21
477.8412840202847
 31
0.0
  0
ARC
  5
122E
330
1E
100
AcDbEntity
  8
STEMPEL
100
AcDbCircle
 10
133.369488636572
 20
509.8412840202865
 30
0.0
 40
6.0
100
AcDbArc
 50
270.0000000000017
 51
0.0
  0
ARC
  5
122F
330
1E
100
AcDbEntity
  8
STEMPEL
100
AcDbCircle
 10
133.369488636572
 20
509.8412840202865
 30
0.0
 40
5.0
100
AcDbArc
 50
270.0000000000017
 51
0.0
  0
LINE
  5
1230
330
1E
100
AcDbEntity
  8
STEMPEL
100
AcDbLine
 10
136.9587166939367
 20
504.841284020286
 30
0.0
 11
137.9228308636993
 21
504.841284020286
 31
0.0
  0
LWPOLYLINE
  5
1231
330
1E
100
AcDbEntity
  8
STEMPEL
100
AcDbPolyline
 90
       10
 70
   128
 43
0.0
 10
134.0731871465765
 20
503.8412840202872
 10
134.9312601428492
 20
503.9074112348599
 10
135.7840723424715
 20
504.1599649845901
 10
136.6048306493885
 20
504.5910107009076
 10
137.3677490157874
 20
505.1870060713476
 10
138.0488585712867
 20
505.9292265030681
 10
138.6267606612324
 20
506.7943533998656
 10
139.0832991356386
 20
507.7552067705816
 10
139.4041307672362
 20
508.7815991522939
 10
139.5791758776073
 20
509.8412840202865
  0
LWPOLYLINE
  5
1232
330
1E
100
AcDbEntity
  8
STEMPEL
100
AcDbPolyline
 90
       10
 70
   128
 43
0.0
 10
136.0310800298769
 20
503.8412840202861
 10
136.8891530261497
 20
503.9074112348587
 10
137.7419652257719
 20
504.1599649845889
 10
138.5627235326889
 20
504.5910107009064
 10
139.3256418990879
 20
505.1870060713464
 10
140.0067514545871
 20
505.929226503067
 10
140.5846535445328
 20
506.7943533998644
 10
141.0411920189391
 20
507.7552067705806
 10
141.3620236505366
 20
508.7815991522927
 10
141.5370687609077
 20
509.8412840202853
  0
LWPOLYLINE
  5
1233
330
1E
100
AcDbEntity
  8
STEMPEL
100
AcDbPolyline
 90
        7
 70
   128
 43
0.0
 10
137.9228308636991
 20
504.8412840202865
 10
138.5995327387765
 20
505.4508847481455
 10
139.1990821624104
 20
506.1784438320572
 10
139.7053708355601
 20
507.0044136937374
 10
140.1047961276057
 20
507.9066027189405
 10
140.3866265428685
 20
508.8607714871342
 10
140.54329004737
 20
509.8412840202865
  0
LINE
  5
1234
330
1E
100
AcDbEntity
  8
STEMPEL
100
AcDbLine
 10
153.3694886365719
 20
489.8412840202852
 30
0.0
 11
153.3694886365719
 21
477.8412840202847
 31
0.0
  0
LINE
  5
1235
330
1E
100
AcDbEntity
  8
HILF
100
AcDbLine
 10
154.3694886365719
 20
489.8412840202853
 30
0.0
 11
154.3694886365719
 21
477.8412840202847
 31
0.0
  0
LINE
  5
1236
102
{ACAD_REACTORS
330
11DB
102
}
330
1E
100
AcDbEntity
  8
STEMPEL
100
AcDbLine
 10
151.8694886365718
 20
489.8412840202854
 30
0.0
 11
151.8694886365718
 21
483.8412840202841
 31
0.0
  0
LINE
  5
1237
330
1E
100
AcDbEntity
  8
STEMPEL
100
AcDbLine
 10
151.8694886365718
 20
480.8412840202847
 30
0.0
 11
151.8694886365718
 21
477.8412840202847
 31
0.0
  0
LWPOLYLINE
  5
1238
330
1E
100
AcDbEntity
  8
STEMPEL
100
AcDbPolyline
 90
       10
 70
   128
 43
0.0
 10
145.9600499832449
 20
503.8412840202861
 10
146.7962292580865
 20
503.9324375022128
 10
147.6070016487891
 20
504.2031282955706
 10
148.3677322465319
 20
504.6451315975795
 10
149.0553066370507
 20
505.2450173615723
 10
149.6488332204191
 20
505.984558362167
 10
150.1302779917403
 20
506.8412840202863
 10
150.4850124952607
 20
507.7891631603323
 10
150.7022583025949
 20
508.7993949542848
 10
150.7754145098189
 20
509.8412840202865
  0
LINE
  5
1239
330
1E
100
AcDbEntity
  8
STEMPEL
100
AcDbLine
 10
147.6957885406433
 20
504.8412840202864
 30
0.0
 11
145.5803811210416
 21
504.8412840202865
 31
0.0
  0
LINE
  5
123A
330
1E
100
AcDbEntity
  8
STEMPEL
100
AcDbLine
 10
142.8815913916726
 20
504.841284020286
 30
0.0
 11
147.695788540644
 21
504.841284020286
 31
0.0
  0
LWPOLYLINE
  5
123B
330
1E
100
AcDbEntity
  8
STEMPEL
100
AcDbPolyline
 90
        7
 70
   128
 43
0.0
 10
147.6957885406429
 20
504.841284020286
 10
148.3158790637073
 20
505.4506219221269
 10
148.8476992104907
 20
506.1780521954161
 10
149.2769450102219
 20
507.0040096893598
 10
149.5920713580193
 20
507.9062792398221
 10
149.7846025349852
 20
508.8605931740653
 10
149.8493601733115
 20
509.8412840202865
  0
LINE
  5
123C
330
1E
100
AcDbEntity
  8
HILF
100
AcDbLine
 10
154.3694886365719
 20
502.8412840202846
 30
0.0
 11
154.3694886365719
 21
499.8412840202854
 31
0.0
  0
LINE
  5
123D
330
1E
100
AcDbEntity
  8
STEMPEL
100
AcDbLine
 10
153.3694886365719
 20
501.8412840202847
 30
0.0
 11
153.369488636572
 21
499.8412840202854
 31
0.0
  0
LWPOLYLINE
  5
123E
330
1E
100
AcDbEntity
  8
STEMPEL
100
AcDbPolyline
 90
        8
 70
   128
 43
0.0
 10
154.0976265906347
 20
503.8412840202853
 10
155.3513606061976
 20
504.6451315975788
 10
155.9744437802439
 20
505.2450173615716
 10
156.5123003853555
 20
505.9845583621664
 10
156.9485879207544
 20
506.8412840202856
 10
157.2700500104497
 20
507.7891631603317
 10
157.4669191915137
 20
508.7993949542842
 10
157.5332136935005
 20
509.8412840202859
  0
LINE
  5
123F
330
1E
100
AcDbEntity
  8
STEMPEL
100
AcDbLine
 10
154.3694886365719
 20
502.8412840202847
 30
0.0
 11
153.3694886365719
 21
501.8412840202847
 31
0.0
  0
LWPOLYLINE
  5
1240
330
1E
100
AcDbEntity
  8
STEMPEL
100
AcDbPolyline
 90
       18
 70
   128
 43
0.0
 10
-139.5791758776073
 20
516.3412840202843
 10
-139.595844301084
 20
517.7194054039087
 10
-139.6452819483445
 20
519.0505965166885
 10
-139.7258052796049
 20
520.2895252418652
 10
-139.8346721693966
 20
521.3940013476344
 10
-139.9681752863589
 20
522.3264132248873
 10
-140.121768341963
 20
523.0550087054487
 10
-140.290220908915
 20
523.5549763440819
 10
-140.467796537084
 20
523.8092903424985
 10
-140.648448101431
 20
523.8092903424985
 10
-140.8260237296
 20
523.5549763440819
 10
-140.994476296552
 20
523.0550087054487
 10
-141.1480693521562
 20
522.3264132248873
 10
-141.2815724691184
 20
521.3940013476344
 10
-141.3904393589101
 20
520.2895252418652
 10
-141.4709626901706
 20
519.0505965166885
 10
-141.520400337431
 20
517.7194054039087
 10
-141.5370687609077
 20
516.3412840202843
210
0.0
220
0.0
230
-1.0
  0
LWPOLYLINE
  5
1241
330
1E
100
AcDbEntity
  8
STEMPEL
100
AcDbPolyline
 90
        7
 70
   128
 43
0.0
 10
-140.0612329624884
 20
522.8033380761239
 10
-140.1990619720587
 20
522.0512318391854
 10
-140.3179262490249
 20
521.1285182284707
 10
-140.4142742509261
 20
520.0627669785665
 10
-140.4852271984643
 20
518.8858216417454
 10
-140.5286650904722
 20
517.6328481353435
 10
-140.5432900473698
 20
516.3412840202843
210
0.0
220
0.0
230
-1.0
  0
LWPOLYLINE
  5
1242
330
1E
100
AcDbEntity
  8
STEMPEL
100
AcDbPolyline
 90
       18
 70
   128
 43
0.0
 10
-145.0351630243411
 20
516.3412840202843
 10
-145.0840323692574
 20
517.7194054039087
 10
-145.2289762170774
 20
519.0505965166885
 10
-145.4650586789047
 20
520.2895252418652
 10
-145.7842402496514
 20
521.3940013476344
 10
-146.1756515837417
 20
522.3264132248873
 10
-146.6259636376397
 20
523.0550087054487
 10
-147.1198415744391
 20
523.5549763440819
 10
-147.6404669733441
 20
523.8092903424985
 10
-148.1701105608159
 20
523.8092903424985
 10
-148.6907359597208
 20
523.5549763440819
 10
-149.1846138965203
 20
523.0550087054487
 10
-149.6349259504182
 20
522.3264132248873
 10
-150.0263372845085
 20
521.3940013476344
 10
-150.3455188552553
 20
520.2895252418652
 10
-150.5816013170825
 20
519.0505965166885
 10
-150.7265451649026
 20
517.7194054039087
 10
-150.7754145098189
 20
516.3412840202843
210
0.0
220
0.0
230
-1.0
  0
LWPOLYLINE
  5
1243
330
1E
100
AcDbEntity
  8
STEMPEL
100
AcDbPolyline
 90
        9
 70
   128
 43
0.0
 10
-147.442261598828
 20
523.7430422649492
 10
-147.9313221420967
 20
523.416609367192
 10
-148.3909351099977
 20
522.8713403539347
 10
-148.8068849136219
 20
522.1241001108067
 10
-149.1663064429135
 20
521.1980003880292
 10
-149.458082977801
 20
520.1216849660588
 10
-149.6731900225391
 20
518.928443718428
 10
-149.8049744286466
 20
517.655182973352
 10
-149.8493601733115
 20
516.3412840202859
210
0.0
220
0.0
230
-1.0
  0
LINE
  5
1244
330
1E
100
AcDbEntity
  8
STEMPEL
100
AcDbLine
 10
176.2216063859842
 20
516.3412840202843
 30
0.0
 11
176.2216063859842
 21
509.8412840202876
 31
0.0
  0
LINE
  5
1245
330
1E
100
AcDbEntity
  8
STEMPEL
100
AcDbLine
 10
165.8694142418117
 20
516.3412840202843
 30
0.0
 11
165.8694142418117
 21
509.8412840202876
 31
0.0
  0
LINE
  5
1246
330
1E
100
AcDbEntity
  8
STEMPEL
100
AcDbLine
 10
166.6646351286325
 20
516.3412840202843
 30
0.0
 11
166.6646351286325
 21
509.8412840202876
 31
0.0
  0
LWPOLYLINE
  5
1247
330
1E
100
AcDbEntity
  8
STEMPEL
100
AcDbPolyline
 90
       10
 70
   128
 43
0.0
 10
172.5590032504601
 20
503.8412840202861
 10
173.195007610461
 20
503.9324375022128
 10
173.8116872998172
 20
504.2031282955706
 10
174.3903048182222
 20
504.6451315975795
 10
174.9132791651741
 20
505.2450173615723
 10
175.3647200297785
 20
505.984558362167
 10
175.7309106098045
 20
506.8412840202863
 10
176.0007243897795
 20
507.7891631603323
 10
176.1659632145311
 20
508.7993949542848
 10
176.2216063859842
 20
509.8412840202865
  0
LINE
  5
1248
330
1E
100
AcDbEntity
  8
STEMPEL
100
AcDbLine
 10
174.5835833098789
 20
504.841284020286
 30
0.0
 11
180.828672310041
 21
504.8412840202861
 31
0.0
  0
LINE
  5
1249
330
1E
100
AcDbEntity
  8
STEMPEL
100
AcDbLine
 10
163.3694886365719
 20
489.8412840202853
 30
0.0
 11
163.3694886365719
 21
477.8412840202846
 31
0.0
  0
LINE
  5
124A
330
1E
100
AcDbEntity
  8
HILF
100
AcDbLine
 10
162.3694886365719
 20
489.8412840202854
 30
0.0
 11
162.3694886365719
 21
477.8412840202846
 31
0.0
  0
LINE
  5
124B
102
{ACAD_REACTORS
330
11DB
102
}
330
1E
100
AcDbEntity
  8
STEMPEL
100
AcDbLine
 10
164.8694886365718
 20
489.8412840202854
 30
0.0
 11
164.8694886365718
 21
483.8412840202841
 31
0.0
  0
LINE
  5
124C
330
1E
100
AcDbEntity
  8
MITTEL
100
AcDbLine
 10
158.3694886365719
 20
507.8412840202847
 30
0.0
 11
158.3694886365719
 21
472.8412840202842
 31
0.0
  0
LINE
  5
124D
330
1E
100
AcDbEntity
  8
STEMPEL
100
AcDbLine
 10
164.8694886365718
 20
480.8412840202847
 30
0.0
 11
164.8694886365718
 21
477.8412840202847
 31
0.0
  0
LWPOLYLINE
  5
124E
330
1E
100
AcDbEntity
  8
STEMPEL
100
AcDbPolyline
 90
        8
 70
   128
 43
0.0
 10
163.2290480257666
 20
503.8412840202859
 10
164.4827820413295
 20
504.6451315975795
 10
165.1058652153758
 20
505.2450173615723
 10
165.6437218204873
 20
505.984558362167
 10
166.0800093558863
 20
506.8412840202863
 10
166.4014714455815
 20
507.7891631603323
 10
166.5983406266455
 20
508.7993949542848
 10
166.6646351286324
 20
509.8412840202865
  0
LINE
  5
124F
330
1E
100
AcDbEntity
  8
HILF
100
AcDbLine
 10
162.3694886365719
 20
502.8412840202847
 30
0.0
 11
162.369488636572
 21
499.8412840202854
 31
0.0
  0
LINE
  5
1250
330
1E
100
AcDbEntity
  8
STEMPEL
100
AcDbLine
 10
163.3694886365719
 20
501.8412840202846
 30
0.0
 11
163.369488636572
 21
499.8412840202854
 31
0.0
  0
LINE
  5
1251
330
1E
100
AcDbEntity
  8
STEMPEL
100
AcDbLine
 10
163.3694886365719
 20
501.8412840202847
 30
0.0
 11
162.3694886365719
 21
502.8412840202847
 31
0.0
  0
LWPOLYLINE
  5
1252
330
1E
100
AcDbEntity
  8
STEMPEL
100
AcDbPolyline
 90
        7
 70
   128
 43
0.0
 10
163.9178374132934
 20
504.841284020286
 10
164.4797663865575
 20
505.4506219221269
 10
164.9617043261447
 20
506.1780521954162
 10
165.3506889058945
 20
507.0040096893598
 10
165.636257897001
 20
507.9062792398221
 10
165.8107305627969
 20
508.8605931740653
 10
165.8694142418118
 20
509.8412840202865
  0
LINE
  5
1253
330
1E
100
AcDbEntity
  8
STEMPEL
100
AcDbLine
 10
185.8694886365718
 20
480.8412840202847
 30
0.0
 11
185.8694886365718
 21
477.8412840202846
 31
0.0
  0
LWPOLYLINE
  5
1254
330
1E
100
AcDbEntity
  8
STEMPEL
100
AcDbPolyline
 90
       10
 70
   128
 43
0.0
 10
-161.3037035242457
 20
523.8412840202875
 10
-162.0965308701054
 20
523.7273421678789
 10
-162.8652685582511
 20
523.3889786761815
 10
-163.5865588830287
 20
522.8364745486706
 10
-164.2384858029101
 20
522.0866173436793
 10
-164.8012408483258
 20
521.1621910929359
 10
-165.2577249919887
 20
520.0912840202866
 10
-165.5940681941855
 20
518.9064350952289
 10
-165.8000508369156
 20
517.643645352788
 10
-165.8694142418116
 20
516.3412840202859
210
0.0
220
0.0
230
-1.0
  0
LWPOLYLINE
  5
1255
330
1E
100
AcDbEntity
  8
STEMPEL
100
AcDbPolyline
 90
        9
 70
   128
 43
0.0
 10
-176.2216063859841
 20
516.3412840202843
 10
-176.3229189977885
 20
517.7194054039087
 10
-176.6234067537177
 20
519.0505965166885
 10
-177.1128369036389
 20
520.2895252418652
 10
-177.7745424908033
 20
521.3940013476344
 10
-178.5859899250684
 20
522.3264132248873
 10
-179.5195463372841
 20
523.0550087054487
 10
-180.5434205835102
 20
523.5549763440819
 10
-181.4077749900723
 20
523.7586382346466
210
0.0
220
0.0
230
-1.0
  0
LWPOLYLINE
  5
1256
330
1E
100
AcDbEntity
  8
STEMPEL
100
AcDbPolyline
 90
        2
 70
   128
 43
0.0
 10
-181.8666592142491
 20
523.8314180981078
 10
-181.8694886365718
 20
523.8308926991626
210
0.0
220
0.0
230
-1.0
  0
LINE
  5
1257
330
1E
100
AcDbEntity
  8
MITTEL
100
AcDbLine
 10
203.3694886365717
 20
507.8412840202846
 30
0.0
 11
203.3694886365717
 21
472.8412840202842
 31
0.0
  0
LINE
  5
1258
330
1E
100
AcDbEntity
  8
STEMPEL
100
AcDbLine
 10
198.369488636572
 20
483.8412840202847
 30
0.0
 11
198.3694886365719
 21
480.8412840202847
 31
0.0
  0
LINE
  5
1259
330
1E
100
AcDbEntity
  8
HILF
100
AcDbLine
 10
199.3694886365719
 20
483.8412840202847
 30
0.0
 11
199.3694886365719
 21
480.8412840202847
 31
0.0
  0
LINE
  5
125A
330
1E
100
AcDbEntity
  8
HILF
100
AcDbLine
 10
207.369488636572
 20
483.8412840202847
 30
0.0
 11
207.369488636572
 21
480.8412840202847
 31
0.0
  0
LINE
  5
125B
330
1E
100
AcDbEntity
  8
STEMPEL
100
AcDbLine
 10
208.3694886365719
 20
483.8412840202847
 30
0.0
 11
208.3694886365719
 21
480.8412840202847
 31
0.0
  0
LINE
  5
125C
330
1E
100
AcDbEntity
  8
STEMPEL
100
AcDbLine
 10
141.8501350684449
 20
578.1601214671668
 30
0.0
 11
165.8289889613961
 21
592.1477746333523
 31
0.0
  0
LINE
  5
125D
330
1E
100
AcDbEntity
  8
STEMPEL
100
AcDbLine
 10
141.3367940148641
 20
579.0183645803295
 30
0.0
 11
165.323096890331
 21
593.010374591018
 31
0.0
  0
ARC
  5
125E
330
1E
100
AcDbEntity
  8
STEMPEL
100
AcDbCircle
 10
144.3694886365721
 20
573.8412260529705
 30
0.0
 40
5.0
100
AcDbArc
 50
120.2564164748172
 51
180.0
  0
ARC
  5
125F
330
1E
100
AcDbEntity
  8
STEMPEL
100
AcDbCircle
 10
144.3694886365721
 20
573.8412260529705
 30
0.0
 40
6.0
100
AcDbArc
 50
120.2564164748172
 51
180.0
  0
ARC
  5
1260
330
1E
100
AcDbEntity
  8
STEMPEL
100
AcDbCircle
 10
138.8583450322604
 20
583.3611210027479
 30
0.0
 40
5.0
100
AcDbArc
 50
300.0670458384858
 51
300.2564371635316
  0
LINE
  5
1261
330
1E
100
AcDbEntity
  8
STEMPEL
100
AcDbLine
 10
168.3694886365719
 20
593.8412840202854
 30
0.0
 11
223.1078508089214
 21
593.8412840202857
 31
0.0
  0
ARC
  5
1262
330
1E
100
AcDbEntity
  8
STEMPEL
100
AcDbCircle
 10
168.3694886365719
 20
587.8412840202856
 30
0.0
 40
6.0
100
AcDbArc
 50
90.0
 51
120.5128743276211
  0
ARC
  5
1263
330
1E
100
AcDbEntity
  8
STEMPEL
100
AcDbCircle
 10
168.3694886365719
 20
587.8412840202856
 30
0.0
 40
5.0
100
AcDbArc
 50
90.0
 51
120.5373500483005
  0
ARC
  5
1264
330
1E
100
AcDbEntity
  8
STEMPEL
100
AcDbCircle
 10
168.3694886365719
 20
587.8412840202856
 30
0.0
 40
6.0
100
AcDbArc
 50
90.0
 51
90.0
  0
LINE
  5
1265
330
1E
100
AcDbEntity
  8
STEMPEL
100
AcDbLine
 10
315.9409172080001
 20
503.8412840202861
 30
0.0
 11
367.3694886365717
 21
503.8412840202861
 31
0.0
  0
ARC
  5
1266
330
1E
100
AcDbEntity
  8
STEMPEL
100
AcDbCircle
 10
352.3694886365721
 20
573.8412260529705
 30
0.0
 40
5.0
100
AcDbArc
 50
0.0
 51
59.74358352518276
  0
LINE
  5
1267
330
1E
100
AcDbEntity
  8
STEMPEL
100
AcDbLine
 10
355.4021832582801
 20
579.0183645803295
 30
0.0
 11
331.4158803828131
 21
593.010374591018
 31
0.0
  0
LWPOLYLINE
  5
1268
330
1E
100
AcDbEntity
  8
STEMPEL
100
AcDbPolyline
 90
       10
 70
   128
 43
0.0
 10
-356.519178775377
 20
503.8412840202861
 10
-355.6829995005354
 20
503.9324375022128
 10
-354.8722271098328
 20
504.2031282955706
 10
-354.1114965120899
 20
504.6451315975795
 10
-353.4239221215712
 20
505.2450173615723
 10
-352.8303955382028
 20
505.984558362167
 10
-352.3489507668815
 20
506.8412840202863
 10
-351.9942162633612
 20
507.7891631603323
 10
-351.776970456027
 20
508.7993949542848
 10
-351.7038142488031
 20
509.8412840202865
210
0.0
220
0.0
230
-1.0
  0
LWPOLYLINE
  5
1269
330
1E
100
AcDbEntity
  8
STEMPEL
100
AcDbPolyline
 90
       10
 70
   128
 43
0.0
 10
-324.1799740226841
 20
503.8412840202872
 10
-323.5439696626831
 20
503.932437502214
 10
-322.927289973327
 20
504.2031282955718
 10
-322.348672454922
 20
504.6451315975806
 10
-321.8256981079701
 20
505.2450173615734
 10
-321.3742572433656
 20
505.9845583621681
 10
-321.0080666633396
 20
506.8412840202874
 10
-320.7382528833647
 20
507.7891631603335
 10
-320.573014058613
 20
508.799394954286
 10
-320.5173708871599
 20
509.8412840202876
210
0.0
220
0.0
230
-1.0
  0
LINE
  5
126A
102
{ACAD_REACTORS
330
11DB
102
}
330
1E
100
AcDbEntity
  8
MITTEL
100
AcDbLine
 10
319.7694886365717
 20
507.8412840202845
 30
0.0
 11
319.7694886365718
 21
472.8412840202843
 31
0.0
  0
LINE
  5
126B
330
1E
100
AcDbEntity
  8
STEMPEL
100
AcDbLine
 10
320.5173708871599
 20
516.3412840202843
 30
0.0
 11
320.5173708871599
 21
509.8412840202876
 31
0.0
  0
LINE
  5
126C
330
1E
100
AcDbEntity
  8
STEMPEL
100
AcDbLine
 10
310.8694886365719
 20
480.8412840202846
 30
0.0
 11
310.8694886365719
 21
477.8412840202846
 31
0.0
  0
LINE
  5
126D
330
1E
100
AcDbEntity
  8
HILF
100
AcDbLine
 10
315.7694886365722
 20
483.8412840202847
 30
0.0
 11
315.769488636572
 21
480.841284020285
 31
0.0
  0
LINE
  5
126E
330
1E
100
AcDbEntity
  8
STEMPEL
100
AcDbLine
 10
314.7694886365721
 20
483.8412840202847
 30
0.0
 11
314.7694886365721
 21
480.8412840202851
 31
0.0
  0
LINE
  5
126F
330
1E
100
AcDbEntity
  8
STEMPEL
100
AcDbLine
 10
322.1776687550099
 20
504.8412840202858
 30
0.0
 11
315.9103049631021
 21
504.841284020286
 31
0.0
  0
LWPOLYLINE
  5
1270
330
1E
100
AcDbEntity
  8
STEMPEL
100
AcDbPolyline
 90
        9
 70
   128
 43
0.0
 10
320.51737088716
 20
516.3412840202843
 10
320.4160582753557
 20
517.7194054039087
 10
320.1155705194265
 20
519.0505965166885
 10
319.6261403695053
 20
520.2895252418652
 10
318.9644347823409
 20
521.3940013476344
 10
318.1529873480757
 20
522.3264132248873
 10
317.21943093586
 20
523.0550087054487
 10
316.1955566896339
 20
523.5549763440819
 10
315.3312022830703
 20
523.7586382346469
  0
LWPOLYLINE
  5
1271
330
1E
100
AcDbEntity
  8
STEMPEL
100
AcDbPolyline
 90
        2
 70
   128
 43
0.0
 10
314.8723180588951
 20
523.8314180981078
 10
314.8694886365719
 20
523.8308926991623
  0
LINE
  5
1272
330
1E
100
AcDbEntity
  8
STEMPEL
100
AcDbLine
 10
351.7038142488031
 20
516.3412840202843
 30
0.0
 11
351.7038142488031
 21
509.8412840202876
 31
0.0
  0
LINE
  5
1273
330
1E
100
AcDbEntity
  8
STEMPEL
100
AcDbLine
 10
345.9635627633253
 20
516.3412840202843
 30
0.0
 11
345.9635627633253
 21
509.8412840202876
 31
0.0
  0
LINE
  5
1274
330
1E
100
AcDbEntity
  8
STEMPEL
100
AcDbLine
 10
346.8896170998326
 20
516.3412840202843
 30
0.0
 11
346.8896170998326
 21
509.8412840202876
 31
0.0
  0
LINE
  5
1275
330
1E
100
AcDbEntity
  8
STEMPEL
100
AcDbLine
 10
330.0743421445117
 20
516.3412840202843
 30
0.0
 11
330.0743421445117
 21
509.8412840202876
 31
0.0
  0
LINE
  5
1276
330
1E
100
AcDbEntity
  8
STEMPEL
100
AcDbLine
 10
339.2057635796435
 20
516.3412840202843
 30
0.0
 11
339.2057635796435
 21
509.8412840202876
 31
0.0
  0
LINE
  5
1277
330
1E
100
AcDbEntity
  8
STEMPEL
100
AcDbLine
 10
330.8695630313324
 20
516.3412840202843
 30
0.0
 11
330.8695630313324
 21
509.8412840202876
 31
0.0
  0
LINE
  5
1278
330
1E
100
AcDbEntity
  8
STEMPEL
100
AcDbLine
 10
341.157340408162
 20
504.841284020286
 30
0.0
 11
332.8211398598501
 21
504.841284020286
 31
0.0
  0
LINE
  5
1279
330
1E
100
AcDbEntity
  8
STEMPEL
100
AcDbLine
 10
324.769488636572
 20
483.8412840202846
 30
0.0
 11
324.7694886365721
 21
480.8412840202851
 31
0.0
  0
LINE
  5
127A
330
1E
100
AcDbEntity
  8
HILF
100
AcDbLine
 10
323.7694886365721
 20
483.8412840202846
 30
0.0
 11
323.7694886365721
 21
480.8412840202851
 31
0.0
  0
LWPOLYLINE
  5
127B
330
1E
100
AcDbEntity
  8
STEMPEL
100
AcDbPolyline
 90
       10
 70
   128
 43
0.0
 10
-334.4380483191176
 20
503.8412840202861
 10
-333.6802986940234
 20
503.9324375022128
 10
-332.9455729078478
 20
504.2031282955706
 10
-332.2561952318147
 20
504.6451315975795
 10
-331.6331120577682
 20
505.2450173615723
 10
-331.0952554526569
 20
505.984558362167
 10
-330.6589679172579
 20
506.8412840202863
 10
-330.3375058275626
 20
507.7891631603323
 10
-330.1406366464986
 20
508.7993949542848
 10
-330.0743421445118
 20
509.8412840202865
210
0.0
220
0.0
230
-1.0
  0
LWPOLYLINE
  5
127C
330
1E
100
AcDbEntity
  8
STEMPEL
100
AcDbPolyline
 90
        7
 70
   128
 43
0.0
 10
-332.8211398598508
 20
504.841284020286
 10
-332.2592108865866
 20
505.4506219221269
 10
-331.7772729469995
 20
506.1780521954162
 10
-331.3882883672496
 20
507.0040096893598
 10
-331.1027193761432
 20
507.9062792398221
 10
-330.9282467103472
 20
508.8605931740653
 10
-330.8695630313323
 20
509.8412840202865
210
0.0
220
0.0
230
-1.0
  0
LWPOLYLINE
  5
127D
330
1E
100
AcDbEntity
  8
STEMPEL
100
AcDbPolyline
 90
       10
 70
   128
 43
0.0
 10
-350.7789272898993
 20
503.8412840202861
 10
-349.9427480150576
 20
503.9324375022128
 10
-349.1319756243551
 20
504.2031282955706
 10
-348.3712450266122
 20
504.6451315975795
 10
-347.6836706360935
 20
505.2450173615723
 10
-347.090144052725
 20
505.984558362167
 10
-346.6086992814038
 20
506.8412840202863
 10
-346.2539647778834
 20
507.7891631603323
 10
-346.0367189705493
 20
508.7993949542848
 10
-345.9635627633253
 20
509.8412840202865
210
0.0
220
0.0
230
-1.0
  0
LWPOLYLINE
  5
127E
330
1E
100
AcDbEntity
  8
STEMPEL
100
AcDbPolyline
 90
        7
 70
   128
 43
0.0
 10
-349.0431887325012
 20
504.841284020286
 10
-348.4230982094369
 20
505.4506219221269
 10
-347.8912780626534
 20
506.1780521954161
 10
-347.4620322629222
 20
507.0040096893598
 10
-347.1469059151249
 20
507.9062792398221
 10
-346.954374738159
 20
508.8605931740653
 10
-346.8896170998327
 20
509.8412840202865
210
0.0
220
0.0
230
-1.0
  0
LWPOLYLINE
  5
127F
330
1E
100
AcDbEntity
  8
STEMPEL
100
AcDbPolyline
 90
       10
 70
   128
 43
0.0
 10
-343.5694697542495
 20
503.8412840202861
 10
-342.8117201291552
 20
503.9324375022128
 10
-342.0769943429797
 20
504.2031282955706
 10
-341.3876166669465
 20
504.6451315975795
 10
-340.7645334929001
 20
505.2450173615723
 10
-340.2266768877887
 20
505.984558362167
 10
-339.7903893523897
 20
506.8412840202863
 10
-339.4689272626945
 20
507.7891631603323
 10
-339.2720580816305
 20
508.7993949542848
 10
-339.2057635796437
 20
509.8412840202865
210
0.0
220
0.0
230
-1.0
  0
LINE
  5
1280
330
1E
100
AcDbEntity
  8
STEMPEL
100
AcDbLine
 10
353.8573858814716
 20
504.841284020286
 30
0.0
 11
349.0431887325002
 21
504.841284020286
 31
0.0
  0
LWPOLYLINE
  5
1281
330
1E
100
AcDbEntity
  8
STEMPEL
100
AcDbPolyline
 90
       18
 70
   128
 43
0.0
 10
339.2057635796434
 20
516.3412840202843
 10
339.1280236783833
 20
517.7194054039087
 10
338.8974513137015
 20
519.0505965166885
 10
338.5218983509363
 20
520.2895252418652
 10
338.0141537958086
 20
521.3940013476344
 10
337.3915082801707
 20
522.3264132248873
 10
336.6751652502766
 20
523.0550087054487
 10
335.8895189088507
 20
523.5549763440819
 10
335.0613234997713
 20
523.8092903424985
 10
334.2187822243837
 20
523.8092903424985
 10
333.3905868153042
 20
523.5549763440819
 10
332.6049404738784
 20
523.0550087054487
 10
331.8885974439843
 20
522.3264132248873
 10
331.2659519283463
 20
521.3940013476344
 10
330.7582073732186
 20
520.2895252418652
 10
330.3826544104535
 20
519.0505965166885
 10
330.1520820457716
 20
517.7194054039087
 10
330.0743421445115
 20
516.3412840202843
  0
LWPOLYLINE
  5
1282
330
1E
100
AcDbEntity
  8
STEMPEL
100
AcDbPolyline
 90
       10
 70
   128
 43
0.0
 10
335.4352737488984
 20
523.8412840202875
 10
334.6424464030388
 20
523.7273421678789
 10
333.873708714893
 20
523.3889786761815
 10
333.1524183901155
 20
522.8364745486706
 10
332.500491470234
 20
522.0866173436793
 10
331.9377364248183
 20
521.1621910929359
 10
331.4812522811554
 20
520.0912840202866
 10
331.1449090789587
 20
518.9064350952289
 10
330.9389264362286
 20
517.643645352788
 10
330.8695630313325
 20
516.3412840202859
  0
LWPOLYLINE
  5
1283
330
1E
100
AcDbEntity
  8
STEMPEL
100
AcDbPolyline
 90
        9
 70
   128
 43
0.0
 10
349.2967156743163
 20
523.7430422649492
 10
348.8076551310475
 20
523.416609367192
 10
348.3480421631465
 20
522.8713403539347
 10
347.9320923595222
 20
522.1241001108067
 10
347.5726708302307
 20
521.1980003880292
 10
347.2808942953431
 20
520.1216849660588
 10
347.065787250605
 20
518.928443718428
 10
346.9340028444975
 20
517.655182973352
 10
346.8896170998327
 20
516.3412840202859
  0
LWPOLYLINE
  5
1284
330
1E
100
AcDbEntity
  8
STEMPEL
100
AcDbPolyline
 90
       18
 70
   128
 43
0.0
 10
351.7038142488031
 20
516.3412840202843
 10
351.6549449038868
 20
517.7194054039087
 10
351.5100010560667
 20
519.0505965166885
 10
351.2739185942395
 20
520.2895252418652
 10
350.9547370234928
 20
521.3940013476344
 10
350.5633256894024
 20
522.3264132248873
 10
350.1130136355044
 20
523.0550087054487
 10
349.619135698705
 20
523.5549763440819
 10
349.0985102998001
 20
523.8092903424985
 10
348.5688667123282
 20
523.8092903424985
 10
348.0482413134233
 20
523.5549763440819
 10
347.5543633766239
 20
523.0550087054487
 10
347.1040513227259
 20
522.3264132248873
 10
346.7126399886355
 20
521.3940013476344
 10
346.3934584178888
 20
520.2895252418652
 10
346.1573759560616
 20
519.0505965166885
 10
346.0124321082416
 20
517.7194054039087
 10
345.9635627633253
 20
516.3412840202843
  0
LINE
  5
1285
330
1E
100
AcDbEntity
  8
STEMPEL
100
AcDbLine
 10
273.8090032316288
 20
593.8412840202858
 30
0.0
 11
328.3694886365722
 21
593.8412840202861
 31
0.0
  0
ARC
  5
1286
330
1E
100
AcDbEntity
  8
STEMPEL
100
AcDbCircle
 10
255.0991944814683
 20
593.8412840202857
 30
0.0
 40
1.5
100
AcDbArc
 50
14.47751218592986
 51
90.0
  0
ARC
  5
1287
330
1E
100
AcDbEntity
  8
STEMPEL
100
AcDbCircle
 10
257.0356861545716
 20
594.3412840202856
 30
0.0
 40
0.5
100
AcDbArc
 50
194.4775121859299
 51
270.0
  0
ARC
  5
1288
330
1E
100
AcDbEntity
  8
STEMPEL
100
AcDbCircle
 10
257.0356861545716
 20
594.3412840202856
 30
0.0
 40
1.5
100
AcDbArc
 50
194.4775121859299
 51
270.0
  0
LINE
  5
1289
330
1E
100
AcDbEntity
  8
STEMPEL
100
AcDbLine
 10
225.7059270202748
 20
595.3412840202856
 30
0.0
 11
271.2109270202748
 21
595.3412840202856
 31
0.0
  0
LINE
  5
128A
330
1E
100
AcDbEntity
  8
STEMPEL
100
AcDbLine
 10
235.9590032316277
 20
593.8412840202857
 30
0.0
 11
242.412850808922
 21
593.8412840202857
 31
0.0
  0
LINE
  5
128B
330
1E
100
AcDbEntity
  8
STEMPEL
100
AcDbLine
 10
235.9590032316277
 20
593.8412840202857
 30
0.0
 11
242.412850808922
 21
593.8412840202857
 31
0.0
  0
ARC
  5
128C
330
1E
100
AcDbEntity
  8
STEMPEL
100
AcDbCircle
 10
233.1609270202748
 20
593.8412840202857
 30
0.0
 40
1.5
100
AcDbArc
 50
90.0
 51
150.0000000000075
  0
ARC
  5
128D
330
1E
100
AcDbEntity
  8
STEMPEL
100
AcDbCircle
 10
230.5628508089211
 20
595.3412840202856
 30
0.0
 40
2.5
100
AcDbArc
 50
270.0
 51
330.0000000000076
  0
ARC
  5
128E
330
1E
100
AcDbEntity
  8
STEMPEL
100
AcDbCircle
 10
228.5040032316287
 20
595.3412840202856
 30
0.0
 40
2.5
100
AcDbArc
 50
209.9999999999925
 51
270.0
  0
ARC
  5
128F
330
1E
100
AcDbEntity
  8
STEMPEL
100
AcDbCircle
 10
228.5040032316287
 20
595.3412840202856
 30
0.0
 40
1.5
100
AcDbArc
 50
209.9999999999925
 51
270.0
  0
ARC
  5
1290
330
1E
100
AcDbEntity
  8
STEMPEL
100
AcDbCircle
 10
225.7059270202748
 20
593.8412840202857
 30
0.0
 40
1.5
100
AcDbArc
 50
90.0
 51
150.0000000000002
  0
ARC
  5
1291
330
1E
100
AcDbEntity
  8
STEMPEL
100
AcDbCircle
 10
225.9059270202749
 20
593.8412840202857
 30
0.0
 40
1.5
100
AcDbArc
 50
29.99999999999246
 51
90.0
  0
ARC
  5
1292
330
1E
100
AcDbEntity
  8
STEMPEL
100
AcDbCircle
 10
225.9059270202749
 20
593.8412840202857
 30
0.0
 40
0.5
100
AcDbArc
 50
29.99999999999973
 51
90.0
  0
LINE
  5
1293
330
1E
100
AcDbEntity
  8
STEMPEL
100
AcDbLine
 10
225.7059270202748
 20
594.3412840202856
 30
0.0
 11
225.9059270202749
 21
594.3412840202856
 31
0.0
  0
ARC
  5
1294
330
1E
100
AcDbEntity
  8
STEMPEL
100
AcDbCircle
 10
225.7059270202748
 20
593.8412840202857
 30
0.0
 40
0.5
100
AcDbArc
 50
90.0
 51
150.0000000000002
  0
ARC
  5
1295
330
1E
100
AcDbEntity
  8
STEMPEL
100
AcDbCircle
 10
230.5628508089211
 20
595.3412840202856
 30
0.0
 40
1.5
100
AcDbArc
 50
270.0
 51
330.0000000000076
  0
LINE
  5
1296
330
1E
100
AcDbEntity
  8
STEMPEL
100
AcDbLine
 10
228.5040032316287
 20
593.8412840202857
 30
0.0
 11
230.5628508089211
 21
593.8412840202857
 31
0.0
  0
LINE
  5
1297
330
1E
100
AcDbEntity
  8
STEMPEL
100
AcDbLine
 10
228.5040032316287
 20
593.8412840202857
 30
0.0
 11
230.5628508089211
 21
593.8412840202857
 31
0.0
  0
ARC
  5
1298
330
1E
100
AcDbEntity
  8
STEMPEL
100
AcDbCircle
 10
235.9590032316277
 20
595.3412840202856
 30
0.0
 40
2.5
100
AcDbArc
 50
209.9999999999997
 51
270.0
  0
ARC
  5
1299
330
1E
100
AcDbEntity
  8
STEMPEL
100
AcDbCircle
 10
233.3609270202748
 20
593.8412840202857
 30
0.0
 40
1.5
100
AcDbArc
 50
29.99999999999973
 51
90.0
  0
ARC
  5
129A
330
1E
100
AcDbEntity
  8
STEMPEL
100
AcDbCircle
 10
233.3609270202748
 20
593.8412840202857
 30
0.0
 40
0.5
100
AcDbArc
 50
29.99999999999973
 51
90.0
  0
LINE
  5
129B
330
1E
100
AcDbEntity
  8
STEMPEL
100
AcDbLine
 10
233.1609270202748
 20
594.3412840202859
 30
0.0
 11
233.3609270202748
 21
594.3412840202859
 31
0.0
  0
ARC
  5
129C
330
1E
100
AcDbEntity
  8
STEMPEL
100
AcDbCircle
 10
233.1609270202748
 20
593.8412840202857
 30
0.0
 40
0.5
100
AcDbArc
 50
90.0
 51
150.0000000000075
  0
ARC
  5
129D
330
1E
100
AcDbEntity
  8
STEMPEL
100
AcDbCircle
 10
235.9590032316277
 20
595.3412840202856
 30
0.0
 40
1.5
100
AcDbArc
 50
209.9999999999997
 51
270.0
  0
LINE
  5
129E
330
1E
100
AcDbEntity
  8
STEMPEL
100
AcDbLine
 10
245.0109270202747
 20
594.3412840202859
 30
0.0
 11
255.0991944814683
 21
594.3412840202859
 31
0.0
  0
ARC
  5
129F
330
1E
100
AcDbEntity
  8
STEMPEL
100
AcDbCircle
 10
242.412850808922
 20
595.3412840202856
 30
0.0
 40
2.5
100
AcDbArc
 50
270.0
 51
329.9999999999922
  0
ARC
  5
12A0
330
1E
100
AcDbEntity
  8
STEMPEL
100
AcDbCircle
 10
245.0109270202747
 20
593.8412840202857
 30
0.0
 40
1.5
100
AcDbArc
 50
90.0
 51
149.9999999999922
  0
ARC
  5
12A1
330
1E
100
AcDbEntity
  8
STEMPEL
100
AcDbCircle
 10
242.412850808922
 20
595.3412840202856
 30
0.0
 40
1.5
100
AcDbArc
 50
270.0
 51
329.9999999999922
  0
ARC
  5
12A2
330
1E
100
AcDbEntity
  8
STEMPEL
100
AcDbCircle
 10
245.0109270202747
 20
593.8412840202857
 30
0.0
 40
0.5
100
AcDbArc
 50
90.0
 51
149.9999999999922
  0
ARC
  5
12A3
330
1E
100
AcDbEntity
  8
STEMPEL
100
AcDbCircle
 10
255.0991944814683
 20
593.8412840202857
 30
0.0
 40
0.5
100
AcDbArc
 50
14.47751218592986
 51
90.0
  0
ARC
  5
12A4
330
1E
100
AcDbEntity
  8
STEMPEL
100
AcDbCircle
 10
273.8090032316288
 20
595.3412840202856
 30
0.0
 40
1.5
100
AcDbArc
 50
209.9999999999925
 51
270.0
  0
ARC
  5
12A5
330
1E
100
AcDbEntity
  8
STEMPEL
100
AcDbCircle
 10
273.8090032316288
 20
595.3412840202856
 30
0.0
 40
2.5
100
AcDbArc
 50
209.9999999999925
 51
270.0
  0
LINE
  5
12A6
330
1E
100
AcDbEntity
  8
STEMPEL
100
AcDbLine
 10
261.9590032316283
 20
593.8412840202857
 30
0.0
 11
268.4128508089224
 21
593.8412840202857
 31
0.0
  0
LINE
  5
12A7
330
1E
100
AcDbEntity
  8
STEMPEL
100
AcDbLine
 10
261.9590032316283
 20
593.8412840202858
 30
0.0
 11
268.4128508089224
 21
593.8412840202858
 31
0.0
  0
ARC
  5
12A8
330
1E
100
AcDbEntity
  8
STEMPEL
100
AcDbCircle
 10
261.9590032316283
 20
595.3412840202856
 30
0.0
 40
2.5
100
AcDbArc
 50
209.9999999999997
 51
270.0
  0
ARC
  5
12A9
330
1E
100
AcDbEntity
  8
STEMPEL
100
AcDbCircle
 10
257.2244353471708
 20
594.3412840202856
 30
0.0
 40
1.5
100
AcDbArc
 50
270.0
 51
345.5224878140701
  0
ARC
  5
12AA
330
1E
100
AcDbEntity
  8
STEMPEL
100
AcDbCircle
 10
261.9590032316283
 20
595.3412840202856
 30
0.0
 40
1.5
100
AcDbArc
 50
209.9999999999997
 51
270.0
  0
ARC
  5
12AB
330
1E
100
AcDbEntity
  8
STEMPEL
100
AcDbCircle
 10
259.3609270202748
 20
593.8412840202857
 30
0.0
 40
0.5
100
AcDbArc
 50
29.99999999999973
 51
90.0
  0
LINE
  5
12AC
330
1E
100
AcDbEntity
  8
STEMPEL
100
AcDbLine
 10
259.1609270202748
 20
594.3412840202859
 30
0.0
 11
259.3609270202748
 21
594.3412840202859
 31
0.0
  0
ARC
  5
12AD
330
1E
100
AcDbEntity
  8
STEMPEL
100
AcDbCircle
 10
259.1609270202748
 20
593.8412840202857
 30
0.0
 40
0.5
100
AcDbArc
 50
90.0
 51
165.5224878140701
  0
LINE
  5
12AE
330
1E
100
AcDbEntity
  8
STEMPEL
100
AcDbLine
 10
257.0356861545716
 20
593.8412840202857
 30
0.0
 11
257.2244353471708
 21
593.8412840202857
 31
0.0
  0
ARC
  5
12AF
330
1E
100
AcDbEntity
  8
STEMPEL
100
AcDbCircle
 10
257.2244353471708
 20
594.3412840202856
 30
0.0
 40
0.5
100
AcDbArc
 50
270.0
 51
345.5224878140701
  0
ARC
  5
12B0
330
1E
100
AcDbEntity
  8
STEMPEL
100
AcDbCircle
 10
259.1609270202748
 20
593.8412840202857
 30
0.0
 40
1.5
100
AcDbArc
 50
90.0
 51
165.5224878140701
  0
ARC
  5
12B1
330
1E
100
AcDbEntity
  8
STEMPEL
100
AcDbCircle
 10
259.3609270202748
 20
593.8412840202857
 30
0.0
 40
1.5
100
AcDbArc
 50
29.99999999999973
 51
90.0
  0
ARC
  5
12B2
330
1E
100
AcDbEntity
  8
STEMPEL
100
AcDbCircle
 10
268.4128508089224
 20
595.3412840202856
 30
0.0
 40
2.5
100
AcDbArc
 50
270.0
 51
329.9999999999922
  0
ARC
  5
12B3
330
1E
100
AcDbEntity
  8
STEMPEL
100
AcDbCircle
 10
268.4128508089224
 20
595.3412840202856
 30
0.0
 40
1.5
100
AcDbArc
 50
270.0
 51
329.9999999999922
  0
ARC
  5
12B4
330
1E
100
AcDbEntity
  8
STEMPEL
100
AcDbCircle
 10
271.2109270202748
 20
593.8412840202857
 30
0.0
 40
1.5
100
AcDbArc
 50
29.99999999999246
 51
90.0
  0
ARC
  5
12B5
330
1E
100
AcDbEntity
  8
STEMPEL
100
AcDbCircle
 10
271.2109270202748
 20
593.8412840202857
 30
0.0
 40
0.5
100
AcDbArc
 50
29.99999999999246
 51
90.0
  0
LINE
  5
12B6
330
1E
100
AcDbEntity
  8
STEMPEL
100
AcDbLine
 10
271.0109270202747
 20
594.3412840202856
 30
0.0
 11
271.2109270202748
 21
594.3412840202856
 31
0.0
  0
ARC
  5
12B7
330
1E
100
AcDbEntity
  8
STEMPEL
100
AcDbCircle
 10
271.0109270202747
 20
593.8412840202857
 30
0.0
 40
0.5
100
AcDbArc
 50
90.0
 51
149.9999999999922
  0
ARC
  5
12B8
330
1E
100
AcDbEntity
  8
STEMPEL
100
AcDbCircle
 10
271.0109270202747
 20
593.8412840202857
 30
0.0
 40
1.5
100
AcDbArc
 50
90.0
 51
149.9999999999922
  0
LINE
  5
12B9
330
1E
100
AcDbEntity
  8
STEMPEL
100
AcDbLine
 10
354.8888422046993
 20
578.1601214671668
 30
0.0
 11
330.9099883117481
 21
592.1477746333523
 31
0.0
  0
ARC
  5
12BA
330
1E
100
AcDbEntity
  8
STEMPEL
100
AcDbCircle
 10
328.3694886365722
 20
587.8412840202856
 30
0.0
 40
5.0
100
AcDbArc
 50
59.46264995169952
 51
90.0
  0
ARC
  5
12BB
330
1E
100
AcDbEntity
  8
STEMPEL
100
AcDbCircle
 10
328.3694886365722
 20
587.8412840202856
 30
0.0
 40
6.0
100
AcDbArc
 50
59.48712567237889
 51
90.0
  0
ARC
  5
12BC
330
1E
100
AcDbEntity
  8
STEMPEL
100
AcDbCircle
 10
328.3694886365722
 20
587.8412840202856
 30
0.0
 40
6.0
100
AcDbArc
 50
90.0
 51
90.0
  0
LINE
  5
12BD
330
1E
100
AcDbEntity
  8
STEMPEL
100
AcDbLine
 10
358.3694886365722
 20
573.8412260529705
 30
0.0
 11
358.3694886365722
 21
509.8412840202865
 31
0.0
  0
LINE
  5
12BE
330
1E
100
AcDbEntity
  8
STEMPEL
100
AcDbLine
 10
357.3694886365721
 20
573.8412260529705
 30
0.0
 11
357.3694886365721
 21
509.8412840202865
 31
0.0
  0
LINE
  5
12BF
330
1E
100
AcDbEntity
  8
MITTEL
100
AcDbLine
 10
370.3694886365719
 20
516.4412840202863
 30
0.0
 11
370.3694886365719
 21
483.8412840202847
 31
0.0
  0
LINE
  5
12C0
330
1E
100
AcDbEntity
  8
STEMPEL
100
AcDbLine
 10
356.1956872257742
 20
516.3412840202843
 30
0.0
 11
356.1956872257742
 21
509.8412840202865
 31
0.0
  0
LINE
  5
12C1
330
1E
100
AcDbEntity
  8
STEMPEL
100
AcDbLine
 10
355.2019085122364
 20
516.3412840202843
 30
0.0
 11
355.2019085122364
 21
509.8412840202853
 31
0.0
  0
LINE
  5
12C2
330
1E
100
AcDbEntity
  8
STEMPEL
100
AcDbLine
 10
357.1598013955369
 20
516.3412840202843
 30
0.0
 11
357.1598013955369
 21
509.8412840202865
 31
0.0
  0
LINE
  5
12C3
330
1E
100
AcDbEntity
  8
STEMPEL
100
AcDbLine
 10
378.3694886365718
 20
504.841284020286
 30
0.0
 11
363.3694886365719
 21
504.8412840202864
 31
0.0
  0
LINE
  5
12C4
330
1E
100
AcDbEntity
  8
STEMPEL
100
AcDbLine
 10
370.8694886365719
 20
480.8412840202846
 30
0.0
 11
370.8694886365719
 21
477.8412840202846
 31
0.0
  0
ARC
  5
12C5
330
1E
100
AcDbEntity
  8
STEMPEL
100
AcDbCircle
 10
363.3694886365721
 20
509.8412840202865
 30
0.0
 40
6.0
100
AcDbArc
 50
180.0
 51
269.9999999999984
  0
ARC
  5
12C6
330
1E
100
AcDbEntity
  8
STEMPEL
100
AcDbCircle
 10
363.3694886365721
 20
509.8412840202865
 30
0.0
 40
5.0
100
AcDbArc
 50
180.0
 51
269.9999999999984
  0
LWPOLYLINE
  5
12C7
330
1E
100
AcDbEntity
  8
STEMPEL
100
AcDbPolyline
 90
       10
 70
   128
 43
0.0
 10
-360.7078972432672
 20
503.8412840202861
 10
-359.8498242469944
 20
503.9074112348587
 10
-358.9970120473722
 20
504.1599649845889
 10
-358.1762537404552
 20
504.5910107009064
 10
-357.4133353740561
 20
505.1870060713464
 10
-356.732225818557
 20
505.929226503067
 10
-356.1543237286113
 20
506.7943533998644
 10
-355.6977852542051
 20
507.7552067705806
 10
-355.3769536226075
 20
508.7815991522927
 10
-355.2019085122364
 20
509.8412840202853
210
0.0
220
0.0
230
-1.0
  0
LINE
  5
12C8
330
1E
100
AcDbEntity
  8
STEMPEL
100
AcDbLine
 10
359.7802605792075
 20
504.841284020286
 30
0.0
 11
358.8161464094449
 21
504.841284020286
 31
0.0
  0
LWPOLYLINE
  5
12C9
330
1E
100
AcDbEntity
  8
STEMPEL
100
AcDbPolyline
 90
       10
 70
   128
 43
0.0
 10
-362.6657901265677
 20
503.8412840202872
 10
-361.8077171302949
 20
503.9074112348599
 10
-360.9549049306727
 20
504.1599649845901
 10
-360.1341466237557
 20
504.5910107009076
 10
-359.3712282573566
 20
505.1870060713476
 10
-358.6901187018575
 20
505.9292265030681
 10
-358.1122166119118
 20
506.7943533998656
 10
-357.6556781375056
 20
507.7552067705816
 10
-357.334846505908
 20
508.7815991522939
 10
-357.1598013955369
 20
509.8412840202865
210
0.0
220
0.0
230
-1.0
  0
LWPOLYLINE
  5
12CA
330
1E
100
AcDbEntity
  8
STEMPEL
100
AcDbPolyline
 90
        7
 70
   128
 43
0.0
 10
-358.8161464094451
 20
504.8412840202865
 10
-358.1394445343677
 20
505.4508847481455
 10
-357.5398951107337
 20
506.1784438320572
 10
-357.0336064375841
 20
507.0044136937374
 10
-356.6341811455385
 20
507.9066027189405
 10
-356.3523507302756
 20
508.8607714871342
 10
-356.1956872257741
 20
509.8412840202865
210
0.0
220
0.0
230
-1.0
  0
LINE
  5
12CB
330
1E
100
AcDbEntity
  8
STEMPEL
100
AcDbLine
 10
366.369488636572
 20
504.8412840202865
 30
0.0
 11
366.369488636572
 21
503.8412840202861
 31
0.0
  0
LINE
  5
12CC
330
1E
100
AcDbEntity
  8
STEMPEL
100
AcDbLine
 10
373.3694886365719
 20
503.8412840202861
 30
0.0
 11
378.3694886365721
 21
503.8412840202861
 31
0.0
  0
LINE
  5
12CD
330
1E
100
AcDbEntity
  8
STEMPEL
100
AcDbLine
 10
374.369488636572
 20
504.841284020286
 30
0.0
 11
374.369488636572
 21
503.8412840202861
 31
0.0
  0
LINE
  5
12CE
330
1E
100
AcDbEntity
  8
STEMPEL
100
AcDbLine
 10
378.3694886365719
 20
504.8412840202863
 30
0.0
 11
378.369488636572
 21
503.8412840202861
 31
0.0
  0
LWPOLYLINE
  5
12CF
330
1E
100
AcDbEntity
  8
STEMPEL
100
AcDbPolyline
 90
       18
 70
   128
 43
0.0
 10
357.1598013955369
 20
516.3412840202843
 10
357.14313297206
 20
517.7194054039087
 10
357.0936953247997
 20
519.0505965166885
 10
357.0131719935393
 20
520.2895252418652
 10
356.9043051037476
 20
521.3940013476344
 10
356.7708019867853
 20
522.3264132248873
 10
356.6172089311812
 20
523.0550087054487
 10
356.4487563642291
 20
523.5549763440819
 10
356.2711807360602
 20
523.8092903424985
 10
356.0905291717131
 20
523.8092903424985
 10
355.9129535435442
 20
523.5549763440819
 10
355.7445009765921
 20
523.0550087054487
 10
355.590907920988
 20
522.3264132248873
 10
355.4574048040257
 20
521.3940013476344
 10
355.348537914234
 20
520.2895252418652
 10
355.2680145829736
 20
519.0505965166885
 10
355.2185769357133
 20
517.7194054039087
 10
355.2019085122364
 20
516.3412840202843
  0
LWPOLYLINE
  5
12D0
330
1E
100
AcDbEntity
  8
STEMPEL
100
AcDbPolyline
 90
        7
 70
   128
 43
0.0
 10
356.6777443106557
 20
522.8033380761239
 10
356.5399153010854
 20
522.0512318391854
 10
356.4210510241192
 20
521.1285182284707
 10
356.324703022218
 20
520.0627669785665
 10
356.2537500746799
 20
518.8858216417454
 10
356.2103121826719
 20
517.6328481353435
 10
356.1956872257744
 20
516.3412840202843
  0
ARC
  5
12D1
330
1E
100
AcDbEntity
  8
STEMPEL
100
AcDbCircle
 10
352.3694886365721
 20
573.8412260529705
 30
0.0
 40
6.0
100
AcDbArc
 50
0.0
 51
59.74358352518276
  0
ARC
  5
12D2
330
1E
100
AcDbEntity
  8
STEMPEL
100
AcDbCircle
 10
357.8806322408838
 20
583.3611210027479
 30
0.0
 40
5.0
100
AcDbArc
 50
239.7435628364684
 51
239.9329541615142
  0
ENDSEC
  0
SECTION
  2
OBJECTS
  0
DICTIONARY
  5
C
330
0
100
AcDbDictionary
281
     1
  3
ACAD_COLOR
350
11A
  3
ACAD_GROUP
350
D
  3
ACAD_LAYOUT
350
19
  3
ACAD_MATERIAL
350
119
  3
ACAD_MLINESTYLE
350
16
  3
ACAD_PLOTSETTINGS
350
18
  3
ACAD_PLOTSTYLENAME
350
E
  3
AcDbVariableDictionary
350
125
  0
DICTIONARY
  5
DB
330
1E
100
AcDbDictionary
280
     1
281
     1
  3
ACAD_LAYOUTSELFREF
360
10F
  0
DICTIONARY
  5
DD
330
1A
100
AcDbDictionary
280
     1
281
     1
  3
ACAD_LAYOUTSELFREF
360
10E
  0
DICTIONARY
  5
11A
102
{ACAD_REACTORS
330
C
102
}
330
C
100
AcDbDictionary
281
     1
  0
DICTIONARY
  5
D
102
{ACAD_REACTORS
330
C
102
}
330
C
100
AcDbDictionary
281
     1
  0
DICTIONARY
  5
19
102
{ACAD_REACTORS
330
C
102
}
330
C
100
AcDbDictionary
281
     1
  3
Layout1
350
1D
  3
Model
350
21
  0
DICTIONARY
  5
119
102
{ACAD_REACTORS
330
C
102
}
330
C
100
AcDbDictionary
281
     1
  0
DICTIONARY
  5
16
102
{ACAD_REACTORS
330
C
102
}
330
C
100
AcDbDictionary
281
     1
  3
Standard
350
17
  0
DICTIONARY
  5
18
102
{ACAD_REACTORS
330
C
102
}
330
C
100
AcDbDictionary
281
     1
  0
ACDBDICTIONARYWDFLT
  5
E
102
{ACAD_REACTORS
330
C
102
}
330
C
100
AcDbDictionary
281
     1
  3
Normal
350
F
100
AcDbDictionaryWithDefault
340
F
  0
DICTIONARY
  5
125
102
{ACAD_REACTORS
330
C
102
}
330
C
100
AcDbDictionary
281
     1
  3
DIMASSOC
350
126
  3
PROJECTNAME
350
127
  0
XRECORD
  5
10F
102
{ACAD_REACTORS
330
DB
102
}
330
DB
100
AcDbXrecord
280
     1
340
1E
  0
XRECORD
  5
10E
102
{ACAD_REACTORS
330
DD
102
}
330
DD
100
AcDbXrecord
280
     1
340
1A
  0
LAYOUT
  5
1D
102
{ACAD_REACTORS
330
19
102
}
330
19
100
AcDbPlotSettings
  1

  2
\\NT_WORK01\HP LaserJet 5000 PCL 6
  4

  6

 40
0.0
 41
0.0
 42
0.0
 43
0.0
 44
0.0
 45
0.0
 46
0.0
 47
0.0
 48
0.0
 49
0.0
140
0.0
141
0.0
142
1.0
143
1.0
 70
   688
 72
     0
 73
     0
 74
     5
  7

 75
    16
147
1.0
 76
     0
 77
     2
 78
   300
148
0.0
149
0.0
100
AcDbLayout
  1
Layout1
 70
     0
 71
     1
 10
0.0
 20
0.0
 11
12.0
 21
9.0
 12
0.0
 22
0.0
 32
0.0
 14
1.000000000000000E+20
 24
1.000000000000000E+20
 34
1.000000000000000E+20
 15
-1.000000000000000E+20
 25
-1.000000000000000E+20
 35
-1.000000000000000E+20
146
0.0
 13
0.0
 23
0.0
 33
0.0
 16
1.0
 26
0.0
 36
0.0
 17
0.0
 27
1.0
 37
0.0
 76
     0
330
1A
  0
LAYOUT
  5
21
102
{ACAD_REACTORS
330
19
102
}
330
19
100
AcDbPlotSettings
  1

  2
none_device
  4
Letter_(8.50_x_11.00_Inches)
  6

 40
6.349999904632568
 41
6.349999904632568
 42
6.350006103515625
 43
6.350006103515625
 44
215.8999938964844
 45
279.3999938964844
 46
0.0
 47
0.0
 48
0.0
 49
0.0
140
0.0
141
0.0
142
1.0
143
1.0
 70
 11952
 72
     0
 73
     1
 74
     0
  7

 75
     0
147
1.0
 76
     0
 77
     2
 78
   300
148
3124.2
149
0.0
100
AcDbLayout
  1
Model
 70
     1
 71
     0
 10
0.0
 20
0.0
 11
12.0
 21
9.0
 12
0.0
 22
0.0
 32
0.0
 14
0.0
 24
0.0
 34
0.0
 15
0.0
 25
0.0
 35
0.0
146
0.0
 13
0.0
 23
0.0
 33
0.0
 16
1.0
 26
0.0
 36
0.0
 17
0.0
 27
1.0
 37
0.0
 76
     0
330
1E
  0
MLINESTYLE
  5
17
102
{ACAD_REACTORS
330
16
102
}
330
16
100
AcDbMlineStyle
  2
STANDARD
 70
     0
  3

 62
   256
 51
90.0
 52
90.0
 71
     2
 49
0.5
 62
   256
  6
BYLAYER
 49
-0.5
 62
   256
  6
BYLAYER
  0
ACDBPLACEHOLDER
  5
F
102
{ACAD_REACTORS
330
E
102
}
330
E
  0
DICTIONARYVAR
  5
126
102
{ACAD_REACTORS
330
125
102
}
330
125
100
DictionaryVariables
280
     0
  1
1
  0
DICTIONARYVAR
  5
127
102
{ACAD_REACTORS
330
125
102
}
330
125
100
DictionaryVariables
280
     0
  1

  0
ENDSEC
  0
EOF
