  0
SECTION
  2
HEADER
  9
$ACADVER
  1
AC1018
  9
$ACADMAINTVER
 70
     2
  9
$DWGCODEPAGE
  3
ANSI_1252
  9
$INSBASE
 10
0.0
 20
0.0
 30
0.0
  9
$EXTMIN
 10
-0.0000000000001137
 20
-0.0000000000001137
 30
0.0
  9
$EXTMAX
 10
420.0
 20
594.0000000000002
 30
0.0
  9
$LIMMIN
 10
0.0
 20
0.0
  9
$LIMMAX
 10
425.0
 20
594.0
  9
$ORTHOMODE
 70
     1
  9
$REGENMODE
 70
     1
  9
$FILLMODE
 70
     1
  9
$QTEXTMODE
 70
     0
  9
$MIRRTEXT
 70
     1
  9
$LTSCALE
 40
20.0
  9
$ATTMODE
 70
     1
  9
$TEXTSIZE
 40
3.5
  9
$TRACEWID
 40
0.5
  9
$TEXTSTYLE
  7
STANDARD
  9
$CLAYER
  8
SCHRAFF
  9
$CELTYPE
  6
ByLayer
  9
$CECOLOR
 62
   256
  9
$CELTSCALE
 40
1.0
  9
$DISPSILH
 70
     0
  9
$DIMSCALE
 40
2.0
  9
$DIMASZ
 40
3.5
  9
$DIMEXO
 40
1.0
  9
$DIMDLI
 40
7.0
  9
$DIMRND
 40
0.0
  9
$DIMDLE
 40
0.0
  9
$DIMEXE
 40
1.0
  9
$DIMTP
 40
0.25
  9
$DIMTM
 40
0.25
  9
$DIMTXT
 40
3.5
  9
$DIMCEN
 40
1.5
  9
$DIMTSZ
 40
0.0
  9
$DIMTOL
 70
     0
  9
$DIMLIM
 70
     0
  9
$DIMTIH
 70
     0
  9
$DIMTOH
 70
     0
  9
$DIMSE1
 70
     0
  9
$DIMSE2
 70
     0
  9
$DIMTAD
 70
     1
  9
$DIMZIN
 70
     8
  9
$DIMBLK
  1

  9
$DIMASO
 70
     1
  9
$DIMSHO
 70
     0
  9
$DIMPOST
  1

  9
$DIMAPOST
  1

  9
$DIMALT
 70
     0
  9
$DIMALTD
 70
     2
  9
$DIMALTF
 40
25.4
  9
$DIMLFAC
 40
1.0
  9
$DIMTOFL
 70
     1
  9
$DIMTVP
 40
0.0
  9
$DIMTIX
 70
     0
  9
$DIMSOXD
 70
     0
  9
$DIMSAH
 70
     0
  9
$DIMBLK1
  1

  9
$DIMBLK2
  1

  9
$DIMSTYLE
  2
Standard
  9
$DIMCLRD
 70
     0
  9
$DIMCLRE
 70
     0
  9
$DIMCLRT
 70
     1
  9
$DIMTFAC
 40
0.5142857142857144
  9
$DIMGAP
 40
1.5
  9
$DIMJUST
 70
     0
  9
$DIMSD1
 70
     0
  9
$DIMSD2
 70
     0
  9
$DIMTOLJ
 70
     1
  9
$DIMTZIN
 70
     8
  9
$DIMALTZ
 70
     8
  9
$DIMALTTZ
 70
     8
  9
$DIMUPT
 70
     0
  9
$DIMDEC
 70
     2
  9
$DIMTDEC
 70
     2
  9
$DIMALTU
 70
     2
  9
$DIMALTTD
 70
     2
  9
$DIMTXSTY
  7
STANDARD
  9
$DIMAUNIT
 70
     0
  9
$DIMADEC
 70
     2
  9
$DIMALTRND
 40
0.0
  9
$DIMAZIN
 70
     2
  9
$DIMDSEP
 70
    46
  9
$DIMATFIT
 70
     3
  9
$DIMFRAC
 70
     0
  9
$DIMLDRBLK
  1

  9
$DIMLUNIT
 70
     2
  9
$DIMLWD
 70
    -2
  9
$DIMLWE
 70
    -2
  9
$DIMTMOVE
 70
     0
  9
$LUNITS
 70
     2
  9
$LUPREC
 70
     2
  9
$SKETCHINC
 40
1.0
  9
$FILLETRAD
 40
8.0
  9
$AUNITS
 70
     0
  9
$AUPREC
 70
     0
  9
$MENU
  1
ACAD
  9
$ELEVATION
 40
0.0
  9
$PELEVATION
 40
0.0
  9
$THICKNESS
 40
0.0
  9
$LIMCHECK
 70
     0
  9
$CHAMFERA
 40
0.0
  9
$CHAMFERB
 40
0.0
  9
$CHAMFERC
 40
0.0
  9
$CHAMFERD
 40
0.0
  9
$SKPOLY
 70
     0
  9
$TDCREATE
 40
2455363.487655440
  9
$TDUCREATE
 40
2455363.445988774
  9
$TDUPDATE
 40
2456251.412081285
  9
$TDUUPDATE
 40
2456251.370414618
  9
$TDINDWG
 40
0.3182769097
  9
$TDUSRTIMER
 40
0.3182769097
  9
$USRTIMER
 70
     1
  9
$ANGBASE
 50
0.0
  9
$ANGDIR
 70
     0
  9
$PDMODE
 70
     0
  9
$PDSIZE
 40
0.0
  9
$PLINEWID
 40
0.0
  9
$SPLFRAME
 70
     0
  9
$SPLINETYPE
 70
     6
  9
$SPLINESEGS
 70
     8
  9
$HANDSEED
  5
D01
  9
$SURFTAB1
 70
     6
  9
$SURFTAB2
 70
     6
  9
$SURFTYPE
 70
     6
  9
$SURFU
 70
     6
  9
$SURFV
 70
     6
  9
$UCSBASE
  2

  9
$UCSNAME
  2

  9
$UCSORG
 10
0.0
 20
0.0
 30
0.0
  9
$UCSXDIR
 10
1.0
 20
0.0
 30
0.0
  9
$UCSYDIR
 10
0.0
 20
1.0
 30
0.0
  9
$UCSORTHOREF
  2

  9
$UCSORTHOVIEW
 70
     0
  9
$UCSORGTOP
 10
0.0
 20
0.0
 30
0.0
  9
$UCSORGBOTTOM
 10
0.0
 20
0.0
 30
0.0
  9
$UCSORGLEFT
 10
0.0
 20
0.0
 30
0.0
  9
$UCSORGRIGHT
 10
0.0
 20
0.0
 30
0.0
  9
$UCSORGFRONT
 10
0.0
 20
0.0
 30
0.0
  9
$UCSORGBACK
 10
0.0
 20
0.0
 30
0.0
  9
$PUCSBASE
  2

  9
$PUCSNAME
  2

  9
$PUCSORG
 10
0.0
 20
0.0
 30
0.0
  9
$PUCSXDIR
 10
1.0
 20
0.0
 30
0.0
  9
$PUCSYDIR
 10
0.0
 20
1.0
 30
0.0
  9
$PUCSORTHOREF
  2

  9
$PUCSORTHOVIEW
 70
     0
  9
$PUCSORGTOP
 10
0.0
 20
0.0
 30
0.0
  9
$PUCSORGBOTTOM
 10
0.0
 20
0.0
 30
0.0
  9
$PUCSORGLEFT
 10
0.0
 20
0.0
 30
0.0
  9
$PUCSORGRIGHT
 10
0.0
 20
0.0
 30
0.0
  9
$PUCSORGFRONT
 10
0.0
 20
0.0
 30
0.0
  9
$PUCSORGBACK
 10
0.0
 20
0.0
 30
0.0
  9
$USERI1
 70
     0
  9
$USERI2
 70
     0
  9
$USERI3
 70
     0
  9
$USERI4
 70
     0
  9
$USERI5
 70
     0
  9
$USERR1
 40
0.0
  9
$USERR2
 40
0.0
  9
$USERR3
 40
0.0
  9
$USERR4
 40
0.0
  9
$USERR5
 40
0.0
  9
$WORLDVIEW
 70
     1
  9
$SHADEDGE
 70
     3
  9
$SHADEDIF
 70
    70
  9
$TILEMODE
 70
     1
  9
$MAXACTVP
 70
    16
  9
$PINSBASE
 10
0.0
 20
0.0
 30
0.0
  9
$PLIMCHECK
 70
     0
  9
$PEXTMIN
 10
1.000000000000000E+20
 20
1.000000000000000E+20
 30
1.000000000000000E+20
  9
$PEXTMAX
 10
-1.000000000000000E+20
 20
-1.000000000000000E+20
 30
-1.000000000000000E+20
  9
$PLIMMIN
 10
0.0
 20
0.0
  9
$PLIMMAX
 10
12.0
 20
9.0
  9
$UNITMODE
 70
     0
  9
$VISRETAIN
 70
     0
  9
$PLINEGEN
 70
     0
  9
$PSLTSCALE
 70
     0
  9
$TREEDEPTH
 70
  3020
  9
$CMLSTYLE
  2
Standard
  9
$CMLJUST
 70
     0
  9
$CMLSCALE
 40
1.0
  9
$PROXYGRAPHICS
 70
     1
  9
$MEASUREMENT
 70
     0
  9
$CELWEIGHT
370
    -1
  9
$ENDCAPS
280
     0
  9
$JOINSTYLE
280
     0
  9
$LWDISPLAY
290
     0
  9
$INSUNITS
 70
     0
  9
$HYPERLINKBASE
  1

  9
$STYLESHEET
  1
monochrome 1.ctb
  9
$XEDIT
290
     1
  9
$CEPSNTYPE
380
     0
  9
$PSTYLEMODE
290
     1
  9
$FINGERPRINTGUID
  2
{BB068B5C-A983-11D8-B774-000102183313}
  9
$VERSIONGUID
  2
{1AB52609-646D-4E39-B540-67826A4BC2F4}
  9
$EXTNAMES
290
     1
  9
$PSVPSCALE
 40
0.0
  9
$OLESTARTUP
290
     0
  9
$SORTENTS
280
    96
  9
$INDEXCTL
280
     0
  9
$HIDETEXT
280
     0
  9
$XCLIPFRAME
290
     0
  9
$HALOGAP
280
     0
  9
$OBSCOLOR
 70
   257
  9
$OBSLTYPE
280
     0
  9
$INTERSECTIONDISPLAY
280
     0
  9
$INTERSECTIONCOLOR
 70
   257
  9
$DIMASSOC
280
     1
  9
$PROJECTNAME
  1

  0
ENDSEC
  0
SECTION
  2
CLASSES
  0
CLASS
  1
ACDBDICTIONARYWDFLT
  2
AcDbDictionaryWithDefault
  3
ObjectDBX Classes
 90
        0
 91
        1
280
     0
281
     0
  0
CLASS
  1
DICTIONARYVAR
  2
AcDbDictionaryVar
  3
ObjectDBX Classes
 90
        0
 91
        3
280
     0
281
     0
  0
ENDSEC
  0
SECTION
  2
TABLES
  0
TABLE
  2
VPORT
  5
8
330
0
100
AcDbSymbolTable
 70
     2
  0
VPORT
  5
D00
330
8
100
AcDbSymbolTableRecord
100
AcDbViewportTableRecord
  2
*Active
 70
     0
 10
0.0
 20
0.0
 11
1.0
 21
1.0
 12
209.9999999999999
 22
297.0
 13
0.0
 23
0.0
 14
1.0
 24
1.0
 15
20.0
 25
20.0
 16
0.0
 26
0.0
 36
1.0
 17
0.0
 27
0.0
 37
0.0
 40
594.0
 41
1.404858299595141
 42
50.0
 43
0.0
 44
0.0
 50
0.0
 51
0.0
 71
     0
 72
  1500
 73
     1
 74
     0
 75
     0
 76
     0
 77
     0
 78
     0
281
     0
 65
     1
110
0.0
120
0.0
130
0.0
111
1.0
121
0.0
131
0.0
112
0.0
122
1.0
132
0.0
 79
     0
146
0.0
  0
ENDTAB
  0
TABLE
  2
LTYPE
  5
5
330
0
100
AcDbSymbolTable
 70
     2
  0
LTYPE
  5
13
330
5
100
AcDbSymbolTableRecord
100
AcDbLinetypeTableRecord
  2
ByBlock
 70
     0
  3

 72
    65
 73
     0
 40
0.0
  0
LTYPE
  5
14
330
5
100
AcDbSymbolTableRecord
100
AcDbLinetypeTableRecord
  2
ByLayer
 70
     0
  3

 72
    65
 73
     0
 40
0.0
  0
LTYPE
  5
15
330
5
100
AcDbSymbolTableRecord
100
AcDbLinetypeTableRecord
  2
Continuous
 70
     0
  3
Solid line
 72
    65
 73
     0
 40
0.0
  0
LTYPE
  5
4A
330
5
100
AcDbSymbolTableRecord
100
AcDbLinetypeTableRecord
  2
STRICHPUNKT
 70
     0
  3
__ . __ . __ . __ . __ . __ . __ . __ . __ . __
 72
    65
 73
     4
 40
1.0
 49
0.5
 74
     0
 49
-0.25
 74
     0
 49
0.0
 74
     0
 49
-0.25
 74
     0
  0
ENDTAB
  0
TABLE
  2
LAYER
  5
2
330
0
100
AcDbSymbolTable
 70
     9
  0
LAYER
  5
10
330
2
100
AcDbSymbolTableRecord
100
AcDbLayerTableRecord
  2
0
 70
     0
 62
     7
  6
Continuous
370
    -3
390
F
  0
LAYER
  5
4F
330
2
100
AcDbSymbolTableRecord
100
AcDbLayerTableRecord
  2
VOLL
 70
     0
 62
     1
  6
Continuous
370
    -3
390
F
  0
LAYER
  5
50
330
2
100
AcDbSymbolTableRecord
100
AcDbLayerTableRecord
  2
HILF
 70
     0
 62
     2
  6
Continuous
370
    -3
390
F
  0
LAYER
  5
51
330
2
100
AcDbSymbolTableRecord
100
AcDbLayerTableRecord
  2
MITTEL
 70
     0
 62
     2
  6
STRICHPUNKT
370
    -3
390
F
  0
LAYER
  5
52
330
2
100
AcDbSymbolTableRecord
100
AcDbLayerTableRecord
  2
BEM
 70
     0
 62
     7
  6
Continuous
370
    -3
390
F
  0
LAYER
  5
53
330
2
100
AcDbSymbolTableRecord
100
AcDbLayerTableRecord
  2
DEFPOINTS
 70
     0
 62
     7
  6
Continuous
290
     0
370
    -3
390
F
  0
LAYER
  5
54
330
2
100
AcDbSymbolTableRecord
100
AcDbLayerTableRecord
  2
STEMPEL
 70
     0
 62
     3
  6
Continuous
370
    -3
390
F
  0
LAYER
  5
55
330
2
100
AcDbSymbolTableRecord
100
AcDbLayerTableRecord
  2
SCHRAFF
 70
     0
 62
     7
  6
Continuous
370
    -3
390
F
  0
LAYER
  5
C3E
330
2
100
AcDbSymbolTableRecord
100
AcDbLayerTableRecord
  2
TEXT
 70
     0
 62
     7
  6
Continuous
370
    -3
390
F
  0
ENDTAB
  0
TABLE
  2
STYLE
  5
3
330
0
100
AcDbSymbolTable
 70
     2
  0
STYLE
  5
11
330
3
100
AcDbSymbolTableRecord
100
AcDbTextStyleTableRecord
  2
STANDARD
 70
     0
 40
0.0
 41
0.8
 50
0.0
 71
     0
 42
3.5
  3
simplex.shx
  4

  0
STYLE
  5
49
330
3
100
AcDbSymbolTableRecord
100
AcDbTextStyleTableRecord
  2
GREEKS
 70
     0
 40
0.0
 41
0.8
 50
0.0
 71
     0
 42
2.5
  3
SIMPLEX.shx
  4

  0
ENDTAB
  0
TABLE
  2
VIEW
  5
6
330
0
100
AcDbSymbolTable
 70
     0
  0
ENDTAB
  0
TABLE
  2
UCS
  5
7
330
0
100
AcDbSymbolTable
 70
     0
  0
ENDTAB
  0
TABLE
  2
APPID
  5
9
330
0
100
AcDbSymbolTable
 70
     1
  0
APPID
  5
12
330
9
100
AcDbSymbolTableRecord
100
AcDbRegAppTableRecord
  2
ACAD
 70
     0
  0
ENDTAB
  0
TABLE
  2
DIMSTYLE
  5
A
330
0
100
AcDbSymbolTable
 70
     1
100
AcDbDimStyleTable
 71
     1
340
4E8
  0
DIMSTYLE
105
4E8
102
{ACAD_REACTORS
330
4E2
330
82E
330
872
330
888
330
8A7
102
}
330
A
100
AcDbSymbolTableRecord
100
AcDbDimStyleTableRecord
  2
Standard
 70
     0
340
11
  0
ENDTAB
  0
TABLE
  2
BLOCK_RECORD
  5
1
330
0
100
AcDbSymbolTable
 70
     6
  0
BLOCK_RECORD
  5
1E
330
1
100
AcDbSymbolTableRecord
100
AcDbBlockTableRecord
  2
*Model_Space
340
21
  0
BLOCK_RECORD
  5
1A
330
1
100
AcDbSymbolTableRecord
100
AcDbBlockTableRecord
  2
*Paper_Space
340
1D
  0
BLOCK_RECORD
  5
22
330
1
100
AcDbSymbolTableRecord
100
AcDbBlockTableRecord
  2
LOGO
340
0
102
{BLKREFS
331
3AC
102
}
  0
BLOCK_RECORD
  5
4EA
330
1
100
AcDbSymbolTableRecord
100
AcDbBlockTableRecord
  2
*D1
340
0
  0
BLOCK_RECORD
  5
82F
330
1
100
AcDbSymbolTableRecord
100
AcDbBlockTableRecord
  2
*D2
340
0
  0
BLOCK_RECORD
  5
873
330
1
100
AcDbSymbolTableRecord
100
AcDbBlockTableRecord
  2
*D3
340
0
  0
BLOCK_RECORD
  5
889
330
1
100
AcDbSymbolTableRecord
100
AcDbBlockTableRecord
  2
*D4
340
0
  0
BLOCK_RECORD
  5
8A8
330
1
100
AcDbSymbolTableRecord
100
AcDbBlockTableRecord
  2
*D5
340
0
  0
ENDTAB
  0
ENDSEC
  0
SECTION
  2
BLOCKS
  0
BLOCK
  5
59
330
1E
100
AcDbEntity
  8
0
100
AcDbBlockBegin
  2
*Model_Space
 70
     0
 10
0.0
 20
0.0
 30
0.0
  3
*Model_Space
  1

  0
ENDBLK
  5
5A
330
1E
100
AcDbEntity
  8
0
100
AcDbBlockEnd
  0
BLOCK
  5
57
330
1A
100
AcDbEntity
 67
     1
  8
0
100
AcDbBlockBegin
  2
*Paper_Space
 70
     0
 10
0.0
 20
0.0
 30
0.0
  3
*Paper_Space
  1

  0
ENDBLK
  5
58
330
1A
100
AcDbEntity
 67
     1
  8
0
100
AcDbBlockEnd
  0
BLOCK
  5
5B
330
22
100
AcDbEntity
  8
0
100
AcDbBlockBegin
  2
LOGO
 70
     0
 10
0.0
 20
0.0
 30
0.0
  3
LOGO
  1

  0
ARC
  5
5C
330
22
100
AcDbEntity
  8
0
100
AcDbCircle
 10
11.59973089678112
 20
-9.271599258481501
 30
0.0
 40
4.5
100
AcDbArc
 50
270.0
 51
231.0575587310159
  0
LINE
  5
5D
330
22
100
AcDbEntity
  8
0
100
AcDbLine
 10
3.599730896781125
 20
-4.771599258481529
 30
0.0
 11
3.599730896781153
 21
-11.77159925848133
 31
0.0
  0
LINE
  5
5E
330
22
100
AcDbEntity
  8
0
100
AcDbLine
 10
2.599730896781125
 20
-4.771599258481529
 30
0.0
 11
2.599730896781153
 21
-11.77159925848133
 31
0.0
  0
CIRCLE
  5
5F
330
22
100
AcDbEntity
  8
0
100
AcDbCircle
 10
11.59973089678112
 20
-9.271599258481501
 30
0.0
 40
3.5
  0
ARC
  5
60
330
22
100
AcDbEntity
  8
0
100
AcDbCircle
 10
31.59973089678115
 20
-9.271599258481472
 30
0.0
 40
4.5
100
AcDbArc
 50
270.0
 51
231.0575587310182
  0
LINE
  5
61
330
22
100
AcDbEntity
  8
0
100
AcDbLine
 10
17.59973089678112
 20
-4.771599258481472
 30
0.0
 11
17.59973089678115
 21
-13.77159925848147
 31
0.0
  0
ARC
  5
62
330
22
100
AcDbEntity
  8
0
100
AcDbCircle
 10
22.59973089678116
 20
-7.271599258481472
 30
0.0
 40
2.5
100
AcDbArc
 50
293.1161887722295
 51
90.0
  0
CIRCLE
  5
63
330
22
100
AcDbEntity
  8
0
100
AcDbCircle
 10
31.59973089678115
 20
-9.271599258481472
 30
0.0
 40
3.5
  0
ARC
  5
64
330
22
100
AcDbEntity
  8
0
100
AcDbCircle
 10
4.599730896781153
 20
-11.77159925848133
 30
0.0
 40
1.0
100
AcDbArc
 50
180.0
 51
270.0
  0
ARC
  5
65
330
22
100
AcDbEntity
  8
0
100
AcDbCircle
 10
4.599730896781153
 20
-11.77159925848133
 30
0.0
 40
2.0
100
AcDbArc
 50
179.9999999999992
 51
270.0
  0
LINE
  5
66
330
22
100
AcDbEntity
  8
0
100
AcDbLine
 10
11.59973089678115
 20
-13.77159925848144
 30
0.0
 11
4.599730896781153
 21
-13.77159925848147
 31
0.0
  0
LINE
  5
67
330
22
100
AcDbEntity
  8
0
100
AcDbLine
 10
8.771303772034769
 20
-12.77159925848136
 30
0.0
 11
4.599730896781153
 21
-12.77159925848133
 31
0.0
  0
LINE
  5
68
330
22
100
AcDbEntity
  8
0
100
AcDbLine
 10
31.59973089678115
 20
-13.77159925848147
 30
0.0
 11
23.6715276665056
 21
-13.77159925848144
 31
0.0
  0
LINE
  5
69
330
22
100
AcDbEntity
  8
0
100
AcDbLine
 10
23.56565672307022
 20
-9.51278021337896
 30
0.0
 11
24.4388546544846
 21
-12.77159925848144
 31
0.0
  0
LINE
  5
6A
330
22
100
AcDbEntity
  8
0
100
AcDbLine
 10
22.59973089678116
 20
-9.771599258481472
 30
0.0
 11
18.59973089678112
 21
-9.771599258481472
 31
0.0
  0
LINE
  5
6B
330
22
100
AcDbEntity
  8
0
100
AcDbLine
 10
18.59973089678115
 20
-13.77159925848144
 30
0.0
 11
17.59973089678115
 21
-13.77159925848144
 31
0.0
  0
LINE
  5
6C
330
22
100
AcDbEntity
  8
0
100
AcDbLine
 10
18.59973089678115
 20
-9.771599258481472
 30
0.0
 11
18.59973089678115
 21
-13.77159925848144
 31
0.0
  0
LINE
  5
6D
330
22
100
AcDbEntity
  8
0
100
AcDbLine
 10
22.59973089678116
 20
-9.771599258481472
 30
0.0
 11
23.67152766650562
 21
-13.77159925848147
 31
0.0
  0
ARC
  5
6E
330
22
100
AcDbEntity
  8
0
100
AcDbCircle
 10
22.59973089678116
 20
-7.271599258481472
 30
0.0
 40
2.5
100
AcDbArc
 50
270.0
 51
270.0000000000007
  0
LINE
  5
6F
330
22
100
AcDbEntity
  8
0
100
AcDbLine
 10
28.77130377203494
 20
-12.77159925848147
 30
0.0
 11
24.43885465448463
 21
-12.77159925848144
 31
0.0
  0
LINE
  5
70
330
22
100
AcDbEntity
  8
0
100
AcDbLine
 10
3.599730896781125
 20
-4.771599258481472
 30
0.0
 11
2.599730896781125
 21
-4.771599258481472
 31
0.0
  0
LINE
  5
71
330
22
100
AcDbEntity
  8
0
100
AcDbLine
 10
22.59973089678116
 20
-8.771599258481472
 30
0.0
 11
18.59973089678115
 21
-8.771599258481472
 31
0.0
  0
LINE
  5
72
330
22
100
AcDbEntity
  8
0
100
AcDbLine
 10
22.59973089678116
 20
-5.771599258481472
 30
0.0
 11
18.59973089678115
 21
-5.771599258481472
 31
0.0
  0
LINE
  5
73
330
22
100
AcDbEntity
  8
0
100
AcDbLine
 10
22.59973089678116
 20
-4.771599258481472
 30
0.0
 11
17.59973089678115
 21
-4.771599258481472
 31
0.0
  0
LINE
  5
74
330
22
100
AcDbEntity
  8
0
100
AcDbLine
 10
18.59973089678115
 20
-5.771599258481472
 30
0.0
 11
18.59973089678115
 21
-8.771599258481472
 31
0.0
  0
ARC
  5
75
330
22
100
AcDbEntity
  8
0
100
AcDbCircle
 10
22.59973089678116
 20
-7.271599258481472
 30
0.0
 40
1.5
100
AcDbArc
 50
270.0
 51
90.0
  0
ENDBLK
  5
76
330
22
100
AcDbEntity
  8
0
100
AcDbBlockEnd
  0
BLOCK
  5
4F4
330
4EA
100
AcDbEntity
  8
0
100
AcDbBlockBegin
  2
*D1
 70
     1
 10
0.0
 20
0.0
 30
0.0
  3
*D1
  1

  0
LINE
  5
CCB
330
4EA
100
AcDbEntity
  8
BEM
 62
     0
370
    -2
100
AcDbLine
 10
148.7710942105317
 20
306.9616600150493
 30
0.0
 11
148.7710942105317
 21
264.730687327439
 31
0.0
  0
LINE
  5
CCC
330
4EA
100
AcDbEntity
  8
BEM
 62
     0
370
    -2
100
AcDbLine
 10
307.7710942105315
 20
306.9616600150493
 30
0.0
 11
307.7710942105315
 21
264.730687327439
 31
0.0
  0
LINE
  5
CCD
330
4EA
100
AcDbEntity
  8
BEM
 62
     0
370
    -2
100
AcDbLine
 10
155.7710942105317
 20
266.730687327439
 30
0.0
 11
300.7710942105315
 21
266.730687327439
 31
0.0
  0
SOLID
  5
CCE
330
4EA
100
AcDbEntity
  8
BEM
 62
     0
100
AcDbTrace
 10
155.7710942105317
 20
267.8973539941057
 30
0.0
 11
155.7710942105317
 21
265.5640206607723
 31
0.0
 12
148.7710942105317
 22
266.730687327439
 32
0.0
 13
148.7710942105317
 23
266.730687327439
 33
0.0
  0
SOLID
  5
CCF
330
4EA
100
AcDbEntity
  8
BEM
 62
     0
100
AcDbTrace
 10
300.7710942105315
 20
267.8973539941057
 30
0.0
 11
300.7710942105315
 21
265.5640206607723
 31
0.0
 12
307.7710942105315
 22
266.730687327439
 32
0.0
 13
307.7710942105315
 23
266.730687327439
 33
0.0
  0
MTEXT
  5
CD0
330
4EA
100
AcDbEntity
  8
BEM
 62
     1
100
AcDbMText
 10
228.2710942105316
 20
273.230687327439
 30
0.0
 40
7.0
 41
0.0
 71
     5
 72
     1
  1
\A1;%%C159
 73
     1
 44
1.0
  0
POINT
  5
CD1
330
4EA
100
AcDbEntity
  8
DEFPOINTS
 62
     0
100
AcDbPoint
 10
148.7710942105317
 20
308.9616600150493
 30
0.0
  0
POINT
  5
CD2
330
4EA
100
AcDbEntity
  8
DEFPOINTS
 62
     0
100
AcDbPoint
 10
307.7710942105315
 20
308.9616600150493
 30
0.0
  0
POINT
  5
CD3
330
4EA
100
AcDbEntity
  8
DEFPOINTS
 62
     0
100
AcDbPoint
 10
307.7710942105315
 20
266.730687327439
 30
0.0
  0
ENDBLK
  5
4F5
330
4EA
100
AcDbEntity
  8
0
100
AcDbBlockEnd
  0
BLOCK
  5
839
330
82F
100
AcDbEntity
  8
0
100
AcDbBlockBegin
  2
*D2
 70
     1
 10
0.0
 20
0.0
 30
0.0
  3
*D2
  1

  0
LINE
  5
CF1
330
82F
100
AcDbEntity
  8
BEM
 62
     0
370
    -2
100
AcDbLine
 10
73.2710942105316
 20
387.4616600150493
 30
0.0
 11
73.2710942105316
 21
473.9508773001058
 31
0.0
  0
LINE
  5
CF2
330
82F
100
AcDbEntity
  8
BEM
 62
     0
370
    -2
100
AcDbLine
 10
383.2710942105317
 20
387.4616600150493
 30
0.0
 11
383.2710942105317
 21
473.9508773001058
 31
0.0
  0
LINE
  5
CF3
330
82F
100
AcDbEntity
  8
BEM
 62
     0
370
    -2
100
AcDbLine
 10
80.27109421053159
 20
471.9508773001058
 30
0.0
 11
376.2710942105317
 21
471.9508773001058
 31
0.0
  0
SOLID
  5
CF4
330
82F
100
AcDbEntity
  8
BEM
 62
     0
100
AcDbTrace
 10
80.27109421053159
 20
473.1175439667725
 30
0.0
 11
80.27109421053159
 21
470.7842106334391
 31
0.0
 12
73.2710942105316
 22
471.9508773001058
 32
0.0
 13
73.2710942105316
 23
471.9508773001058
 33
0.0
  0
SOLID
  5
CF5
330
82F
100
AcDbEntity
  8
BEM
 62
     0
100
AcDbTrace
 10
376.2710942105317
 20
473.1175439667725
 30
0.0
 11
376.2710942105317
 21
470.7842106334391
 31
0.0
 12
383.2710942105317
 22
471.9508773001058
 32
0.0
 13
383.2710942105317
 23
471.9508773001058
 33
0.0
  0
MTEXT
  5
CF6
330
82F
100
AcDbEntity
  8
BEM
 62
     1
100
AcDbMText
 10
228.2710942105317
 20
478.4508773001058
 30
0.0
 40
7.0
 41
0.0
 71
     5
 72
     1
  1
\A1;%%c310
 73
     1
 44
1.0
  0
POINT
  5
CF7
330
82F
100
AcDbEntity
  8
DEFPOINTS
 62
     0
100
AcDbPoint
 10
73.2710942105316
 20
385.4616600150493
 30
0.0
  0
POINT
  5
CF8
330
82F
100
AcDbEntity
  8
DEFPOINTS
 62
     0
100
AcDbPoint
 10
383.2710942105317
 20
385.4616600150493
 30
0.0
  0
POINT
  5
CF9
330
82F
100
AcDbEntity
  8
DEFPOINTS
 62
     0
100
AcDbPoint
 10
383.2710942105317
 20
471.9508773001058
 30
0.0
  0
ENDBLK
  5
83A
330
82F
100
AcDbEntity
  8
0
100
AcDbBlockEnd
  0
BLOCK
  5
87D
330
873
100
AcDbEntity
  8
0
100
AcDbBlockBegin
  2
*D3
 70
     1
 10
0.0
 20
0.0
 30
0.0
  3
*D3
  1

  0
LINE
  5
CE6
330
873
100
AcDbEntity
  8
BEM
 62
     0
370
    -2
100
AcDbLine
 10
385.2710942105316
 20
376.9616600150492
 30
0.0
 11
403.4241559271626
 21
376.9616600150492
 31
0.0
  0
LINE
  5
CE7
330
873
100
AcDbEntity
  8
BEM
 62
     0
370
    -2
100
AcDbLine
 10
318.7710942105318
 20
451.9616600150492
 30
0.0
 11
403.4241559271626
 21
451.9616600150492
 31
0.0
  0
LINE
  5
CE8
330
873
100
AcDbEntity
  8
BEM
 62
     0
370
    -2
100
AcDbLine
 10
401.4241559271626
 20
383.9616600150492
 30
0.0
 11
401.4241559271627
 21
444.9616600150491
 31
0.0
  0
SOLID
  5
CE9
330
873
100
AcDbEntity
  8
BEM
 62
     0
100
AcDbTrace
 10
400.2574892604959
 20
383.9616600150492
 30
0.0
 11
402.5908225938293
 21
383.9616600150492
 31
0.0
 12
401.4241559271626
 22
376.9616600150492
 32
0.0
 13
401.4241559271626
 23
376.9616600150492
 33
0.0
  0
SOLID
  5
CEA
330
873
100
AcDbEntity
  8
BEM
 62
     0
100
AcDbTrace
 10
400.2574892604959
 20
444.9616600150491
 30
0.0
 11
402.5908225938294
 21
444.9616600150491
 31
0.0
 12
401.4241559271627
 22
451.9616600150492
 32
0.0
 13
401.4241559271627
 23
451.9616600150492
 33
0.0
  0
MTEXT
  5
CEB
330
873
100
AcDbEntity
  8
BEM
 62
     1
100
AcDbMText
 10
394.9241559271626
 20
414.4616600150492
 30
0.0
 40
7.0
 41
0.0
 71
     5
 72
     1
  1
\A1;75
 11
0.0000000000000001
 21
1.0
 31
0.0
 73
     1
 44
1.0
  0
POINT
  5
CEC
330
873
100
AcDbEntity
  8
DEFPOINTS
 62
     0
100
AcDbPoint
 10
383.2710942105316
 20
376.9616600150492
 30
0.0
  0
POINT
  5
CED
330
873
100
AcDbEntity
  8
DEFPOINTS
 62
     0
100
AcDbPoint
 10
316.7710942105318
 20
451.9616600150492
 30
0.0
  0
POINT
  5
CEE
330
873
100
AcDbEntity
  8
DEFPOINTS
 62
     0
100
AcDbPoint
 10
401.4241559271627
 20
451.9616600150492
 30
0.0
  0
ENDBLK
  5
87E
330
873
100
AcDbEntity
  8
0
100
AcDbBlockEnd
  0
BLOCK
  5
893
330
889
100
AcDbEntity
  8
0
100
AcDbBlockBegin
  2
*D4
 70
     1
 10
0.0
 20
0.0
 30
0.0
  3
*D4
  1

  0
LINE
  5
CDD
330
889
100
AcDbEntity
  8
BEM
 62
     0
370
    -2
100
AcDbLine
 10
146.7710942105316
 20
400.4616600150491
 30
0.0
 11
123.3695824890901
 21
400.4616600150491
 31
0.0
  0
LINE
  5
CDE
330
889
100
AcDbEntity
  8
BEM
 62
     0
370
    -2
100
AcDbLine
 10
146.7710942105316
 20
450.4616600150493
 30
0.0
 11
123.3695824890901
 21
450.4616600150494
 31
0.0
  0
LINE
  5
CDF
330
889
100
AcDbEntity
  8
BEM
 62
     0
370
    -2
100
AcDbLine
 10
125.3695824890901
 20
407.4616600150491
 30
0.0
 11
125.3695824890901
 21
443.4616600150493
 31
0.0
  0
SOLID
  5
CE0
330
889
100
AcDbEntity
  8
BEM
 62
     0
100
AcDbTrace
 10
124.2029158224234
 20
407.4616600150491
 30
0.0
 11
126.5362491557568
 21
407.4616600150491
 31
0.0
 12
125.3695824890901
 22
400.4616600150491
 32
0.0
 13
125.3695824890901
 23
400.4616600150491
 33
0.0
  0
SOLID
  5
CE1
330
889
100
AcDbEntity
  8
BEM
 62
     0
100
AcDbTrace
 10
124.2029158224234
 20
443.4616600150493
 30
0.0
 11
126.5362491557568
 21
443.4616600150493
 31
0.0
 12
125.3695824890901
 22
450.4616600150494
 32
0.0
 13
125.3695824890901
 23
450.4616600150494
 33
0.0
  0
MTEXT
  5
CE2
330
889
100
AcDbEntity
  8
BEM
 62
     1
100
AcDbMText
 10
118.86958248909
 20
425.4616600150493
 30
0.0
 40
7.0
 41
0.0
 71
     5
 72
     1
  1
\A1;50
 11
0.0000000000000001
 21
1.0
 31
0.0
 73
     1
 44
1.0
  0
POINT
  5
CE3
330
889
100
AcDbEntity
  8
DEFPOINTS
 62
     0
100
AcDbPoint
 10
148.7710942105316
 20
400.4616600150491
 30
0.0
  0
POINT
  5
CE4
330
889
100
AcDbEntity
  8
DEFPOINTS
 62
     0
100
AcDbPoint
 10
148.7710942105316
 20
450.4616600150493
 30
0.0
  0
POINT
  5
CE5
330
889
100
AcDbEntity
  8
DEFPOINTS
 62
     0
100
AcDbPoint
 10
125.3695824890901
 20
450.4616600150494
 30
0.0
  0
ENDBLK
  5
894
330
889
100
AcDbEntity
  8
0
100
AcDbBlockEnd
  0
BLOCK
  5
8B2
330
8A8
100
AcDbEntity
  8
0
100
AcDbBlockBegin
  2
*D5
 70
     1
 10
0.0
 20
0.0
 30
0.0
  3
*D5
  1

  0
LINE
  5
CD4
330
8A8
100
AcDbEntity
  8
BEM
 62
     0
370
    -2
100
AcDbLine
 10
148.2584014904724
 20
291.9616600150493
 30
0.0
 11
60.44455576353627
 21
291.9616600150494
 31
0.0
  0
LINE
  5
CD5
330
8A8
100
AcDbEntity
  8
BEM
 62
     0
370
    -2
100
AcDbLine
 10
137.7710942105316
 20
451.9616600150493
 30
0.0
 11
60.4445557635363
 21
451.9616600150493
 31
0.0
  0
LINE
  5
CD6
330
8A8
100
AcDbEntity
  8
BEM
 62
     0
370
    -2
100
AcDbLine
 10
62.44455576353626
 20
298.9616600150494
 30
0.0
 11
62.4445557635363
 21
444.9616600150494
 31
0.0
  0
SOLID
  5
CD7
330
8A8
100
AcDbEntity
  8
BEM
 62
     0
100
AcDbTrace
 10
61.2778890968696
 20
298.9616600150494
 30
0.0
 11
63.61122243020293
 21
298.9616600150494
 31
0.0
 12
62.44455576353626
 22
291.9616600150494
 32
0.0
 13
62.44455576353626
 23
291.9616600150494
 33
0.0
  0
SOLID
  5
CD8
330
8A8
100
AcDbEntity
  8
BEM
 62
     0
100
AcDbTrace
 10
61.27788909686963
 20
444.9616600150494
 30
0.0
 11
63.61122243020297
 21
444.9616600150494
 31
0.0
 12
62.4445557635363
 22
451.9616600150493
 32
0.0
 13
62.4445557635363
 23
451.9616600150493
 33
0.0
  0
MTEXT
  5
CD9
330
8A8
100
AcDbEntity
  8
BEM
 62
     1
100
AcDbMText
 10
55.94455576353622
 20
371.9616600150494
 30
0.0
 40
7.0
 41
0.0
 71
     5
 72
     1
  1
\A1;160
 11
0.0000000000000001
 21
1.0
 31
0.0
 73
     1
 44
1.0
  0
POINT
  5
CDA
330
8A8
100
AcDbEntity
  8
DEFPOINTS
 62
     0
100
AcDbPoint
 10
150.2584014904724
 20
291.9616600150493
 30
0.0
  0
POINT
  5
CDB
330
8A8
100
AcDbEntity
  8
DEFPOINTS
 62
     0
100
AcDbPoint
 10
139.7710942105316
 20
451.9616600150493
 30
0.0
  0
POINT
  5
CDC
330
8A8
100
AcDbEntity
  8
DEFPOINTS
 62
     0
100
AcDbPoint
 10
62.4445557635363
 20
451.9616600150493
 30
0.0
  0
ENDBLK
  5
8B3
330
8A8
100
AcDbEntity
  8
0
100
AcDbBlockEnd
  0
ENDSEC
  0
SECTION
  2
ENTITIES
  0
LINE
  5
369
330
1E
100
AcDbEntity
  8
STEMPEL
100
AcDbLine
 10
410.0
 20
110.0
 30
0.0
 11
39.99999999999997
 21
110.0
 31
0.0
  0
LINE
  5
36A
330
1E
100
AcDbEntity
  8
STEMPEL
100
AcDbLine
 10
136.0000000000001
 20
109.9999999999999
 30
0.0
 11
136.0
 21
9.999999999999971
 31
0.0
  0
LINE
  5
36B
330
1E
100
AcDbEntity
  8
STEMPEL
100
AcDbLine
 10
220.0
 20
110.0
 30
0.0
 11
220.0
 21
9.999999999999971
 31
0.0
  0
LINE
  5
36C
330
1E
100
AcDbEntity
  8
STEMPEL
100
AcDbLine
 10
332.0
 20
109.9999999999997
 30
0.0
 11
332.0
 21
40.0
 31
0.0
  0
LINE
  5
36D
330
1E
100
AcDbEntity
  8
STEMPEL
100
AcDbLine
 10
135.9999999999999
 20
29.99999999999997
 30
0.0
 11
39.99999999999997
 21
29.99999999999997
 31
0.0
  0
LINE
  5
36E
330
1E
100
AcDbEntity
  8
STEMPEL
100
AcDbLine
 10
410.0
 20
40.0
 30
0.0
 11
136.0000000000001
 21
39.99999999999997
 31
0.0
  0
LINE
  5
36F
330
1E
100
AcDbEntity
  8
STEMPEL
100
AcDbLine
 10
410.0
 20
80.0
 30
0.0
 11
136.0000000000001
 21
79.99999999999994
 31
0.0
  0
LINE
  5
370
330
1E
100
AcDbEntity
  8
VOLL
100
AcDbLine
 10
54.00000000000009
 20
110.0
 30
0.0
 11
53.99999999999997
 21
9.999999999999971
 31
0.0
  0
LINE
  5
371
330
1E
100
AcDbEntity
  8
VOLL
100
AcDbLine
 10
94.00000000000011
 20
109.9999999999999
 30
0.0
 11
94.0
 21
9.999999999999971
 31
0.0
  0
LINE
  5
372
330
1E
100
AcDbEntity
  8
VOLL
100
AcDbLine
 10
114.0000000000001
 20
109.9999999999999
 30
0.0
 11
114.0
 21
9.999999999999971
 31
0.0
  0
LINE
  5
373
330
1E
100
AcDbEntity
  8
VOLL
100
AcDbLine
 10
154.0000000000001
 20
79.99999999999994
 30
0.0
 11
154.0000000000001
 21
39.99999999999997
 31
0.0
  0
LINE
  5
374
330
1E
100
AcDbEntity
  8
VOLL
100
AcDbLine
 10
180.0000000000001
 20
109.9999999999998
 30
0.0
 11
180.0
 21
39.99999999999997
 31
0.0
  0
LINE
  5
375
330
1E
100
AcDbEntity
  8
HILF
100
AcDbLine
 10
40.00000000000008
 20
100.0
 30
0.0
 11
136.0000000000001
 21
100.0
 31
0.0
  0
LINE
  5
376
330
1E
100
AcDbEntity
  8
HILF
100
AcDbLine
 10
40.00000000000008
 20
90.00000000000005
 30
0.0
 11
136.0000000000001
 21
90.00000000000005
 31
0.0
  0
LINE
  5
377
330
1E
100
AcDbEntity
  8
HILF
100
AcDbLine
 10
40.00000000000008
 20
79.99999999999994
 30
0.0
 11
136.0000000000001
 21
79.99999999999994
 31
0.0
  0
LINE
  5
378
330
1E
100
AcDbEntity
  8
HILF
100
AcDbLine
 10
40.00000000000008
 20
69.99999999999994
 30
0.0
 11
136.0000000000001
 21
69.99999999999994
 31
0.0
  0
LINE
  5
379
330
1E
100
AcDbEntity
  8
HILF
100
AcDbLine
 10
40.00000000000008
 20
59.99999999999997
 30
0.0
 11
136.0000000000001
 21
59.99999999999997
 31
0.0
  0
LINE
  5
37A
330
1E
100
AcDbEntity
  8
HILF
100
AcDbLine
 10
40.00000000000008
 20
49.99999999999997
 30
0.0
 11
136.0000000000001
 21
49.99999999999997
 31
0.0
  0
LINE
  5
37B
330
1E
100
AcDbEntity
  8
HILF
100
AcDbLine
 10
40.00000000000008
 20
39.99999999999997
 30
0.0
 11
136.0000000000001
 21
39.99999999999997
 31
0.0
  0
LINE
  5
37C
330
1E
100
AcDbEntity
  8
HILF
100
AcDbLine
 10
136.0000000000001
 20
69.99999999999994
 30
0.0
 11
220.0
 21
69.99999999999994
 31
0.0
  0
LINE
  5
37D
330
1E
100
AcDbEntity
  8
HILF
100
AcDbLine
 10
136.0000000000001
 20
59.99999999999997
 30
0.0
 11
220.0
 21
59.99999999999997
 31
0.0
  0
LINE
  5
37E
330
1E
100
AcDbEntity
  8
HILF
100
AcDbLine
 10
136.0000000000001
 20
49.99999999999997
 30
0.0
 11
220.0
 21
49.99999999999997
 31
0.0
  0
LINE
  5
37F
330
1E
100
AcDbEntity
  8
HILF
100
AcDbLine
 10
224.7736801096948
 20
84.03758247564139
 30
0.0
 11
324.8353916556311
 21
84.03758247564139
 31
0.0
  0
LINE
  5
380
330
1E
100
AcDbEntity
  8
HILF
100
AcDbLine
 10
224.7736801096948
 20
69.99999999999994
 30
0.0
 11
324.835391655631
 21
69.99999999999994
 31
0.0
  0
LINE
  5
381
330
1E
100
AcDbEntity
  8
HILF
100
AcDbLine
 10
224.7736801096948
 20
59.99999999999997
 30
0.0
 11
324.835391655631
 21
59.99999999999997
 31
0.0
  0
LINE
  5
382
330
1E
100
AcDbEntity
  8
HILF
100
AcDbLine
 10
224.7736801096948
 20
49.99999999999997
 30
0.0
 11
324.835391655631
 21
49.99999999999997
 31
0.0
  0
LINE
  5
383
330
1E
100
AcDbEntity
  8
VOLL
100
AcDbLine
 10
332.0
 20
60.0
 30
0.0
 11
410.0
 21
60.0
 31
0.0
  0
LINE
  5
384
330
1E
100
AcDbEntity
  8
HILF
100
AcDbLine
 10
336.7238616296993
 20
83.77983636955827
 30
0.0
 11
404.8588839326728
 21
83.77983636955827
 31
0.0
  0
LINE
  5
385
330
1E
100
AcDbEntity
  8
HILF
100
AcDbLine
 10
223.4909699289885
 20
14.89398258028314
 30
0.0
 11
404.8588839326728
 21
14.89398258028314
 31
0.0
  0
TEXT
  5
386
330
1E
100
AcDbEntity
  8
TEXT
100
AcDbText
 10
62.91660729684889
 20
18.16785184363144
 30
0.0
 40
4.0
  1
Änderung
 41
0.8
  7
GREEKS
 72
     4
 11
73.65946443970604
 21
19.88213755791716
 31
0.0
100
AcDbText
  0
TEXT
  5
387
330
1E
100
AcDbEntity
  8
TEXT
100
AcDbText
 10
143.5163572150377
 20
102.4620895087088
 30
0.0
 40
5.0
  1
Maßstab
 41
0.8
  7
GREEKS
100
AcDbText
  0
TEXT
  5
388
330
1E
100
AcDbEntity
  8
TEXT
100
AcDbText
 10
184.2858954734051
 20
102.4184168434819
 30
0.0
 40
5.0
  1
Zul. Abw.
 41
0.8
  7
GREEKS
100
AcDbText
  0
TEXT
  5
389
330
1E
100
AcDbEntity
  8
TEXT
100
AcDbText
 10
224.877940380901
 20
102.5489328011779
 30
0.0
 40
5.0
  1
Benennung
 41
0.8
  7
GREEKS
100
AcDbText
  0
TEXT
  5
38A
330
1E
100
AcDbEntity
  8
TEXT
100
AcDbText
 10
336.178754957634
 20
102.3132034537136
 30
0.0
 40
5.0
  1
Zeichnungs Nr.
 41
0.8
  7
GREEKS
100
AcDbText
  0
TEXT
  5
38B
330
1E
100
AcDbEntity
  8
TEXT
100
AcDbText
 10
224.742238391136
 20
30.84560570193057
 30
0.0
 40
5.0
  1
Bauvorhaben
 41
0.8
  7
GREEKS
100
AcDbText
  0
TEXT
  5
38C
330
1E
100
AcDbEntity
  8
TEXT
100
AcDbText
 10
336.7238616296993
 20
73.1811823709997
 30
0.0
 40
5.0
  1
Ersatz für:
 41
0.8
  7
GREEKS
100
AcDbText
  0
TEXT
  5
38D
330
1E
100
AcDbEntity
  8
TEXT
100
AcDbText
 10
48.26641107045756
 20
13.65465846027192
 30
0.0
 40
3.6
  1
Index
 50
90.0
 41
0.8
  7
GREEKS
100
AcDbText
  0
TEXT
  5
390
330
1E
100
AcDbEntity
  8
TEXT
100
AcDbText
 10
162.3311673153651
 20
73.31880501229926
 30
0.0
 40
3.6
  1
Tag
 41
0.8
  7
GREEKS
100
AcDbText
  0
TEXT
  5
391
330
1E
100
AcDbEntity
  8
TEXT
100
AcDbText
 10
192.4626584226295
 20
73.30961091915225
 30
0.0
 40
3.6
  1
Name
 41
0.8
  7
GREEKS
100
AcDbText
  0
TEXT
  5
392
330
1E
100
AcDbEntity
  8
TEXT
100
AcDbText
 10
137.5836127167615
 20
63.62990369617964
 30
0.0
 40
3.6
  1
Gez.
 41
0.8
  7
GREEKS
100
AcDbText
  0
TEXT
  5
393
330
1E
100
AcDbEntity
  8
TEXT
100
AcDbText
 10
137.5515086571672
 20
53.68926291428377
 30
0.0
 40
3.6
  1
Gepr.
 41
0.8
  7
GREEKS
100
AcDbText
  0
TEXT
  5
394
330
1E
100
AcDbEntity
  8
TEXT
100
AcDbText
 10
137.6006777387304
 20
43.52946389649807
 30
0.0
 40
3.6
  1
Norm.
 41
0.8
  7
GREEKS
100
AcDbText
  0
LINE
  5
395
330
1E
100
AcDbEntity
  8
STEMPEL
100
AcDbLine
 10
49.99999999999989
 20
10.0
 30
0.0
 11
410.0
 21
10.0
 31
0.0
  0
LINE
  5
396
330
1E
100
AcDbEntity
  8
STEMPEL
100
AcDbLine
 10
410.0
 20
110.0
 30
0.0
 11
410.0
 21
10.0
 31
0.0
  0
TEXT
  5
397
330
1E
100
AcDbEntity
  8
TEXT
100
AcDbText
 10
337.2400861497006
 20
52.07416177878602
 30
0.0
 40
5.0
  1
ersetzt durch:
 41
0.8
  7
GREEKS
100
AcDbText
  0
LINE
  5
398
330
1E
100
AcDbEntity
  8
STEMPEL
100
AcDbLine
 10
410.0
 20
10.0
 30
0.0
 11
39.99999999999989
 21
10.0
 31
0.0
  0
LINE
  5
399
330
1E
100
AcDbEntity
  8
STEMPEL
100
AcDbLine
 10
410.0
 20
110.0
 30
0.0
 11
410.0
 21
584.0
 31
0.0
  0
LINE
  5
39A
330
1E
100
AcDbEntity
  8
STEMPEL
100
AcDbLine
 10
40.0
 20
10.0
 30
0.0
 11
39.99999999999989
 21
584.0
 31
0.0
  0
LINE
  5
39B
330
1E
100
AcDbEntity
  8
STEMPEL
100
AcDbLine
 10
410.0
 20
584.0
 30
0.0
 11
39.99999999999989
 21
584.0
 31
0.0
  0
LINE
  5
39C
330
1E
100
AcDbEntity
  8
HILF
100
AcDbLine
 10
0.0
 20
0.0
 30
0.0
 11
-0.0000000000001137
 21
594.0
 31
0.0
  0
LINE
  5
39D
330
1E
100
AcDbEntity
  8
HILF
100
AcDbLine
 10
419.9999999999999
 20
594.0000000000002
 30
0.0
 11
0.0
 21
594.0
 31
0.0
  0
LINE
  5
39E
330
1E
100
AcDbEntity
  8
HILF
100
AcDbLine
 10
420.0
 20
0.0
 30
0.0
 11
0.0
 21
0.0
 31
0.0
  0
LINE
  5
39F
330
1E
100
AcDbEntity
  8
HILF
100
AcDbLine
 10
31.08767135713856
 20
297.0
 30
0.0
 11
0.0000000000001137
 21
297.0
 31
0.0
  0
TEXT
  5
3A0
330
1E
100
AcDbEntity
  8
TEXT
100
AcDbText
 10
138.622109822104
 20
73.14025471151666
 30
0.0
 40
3.6
  1
2012
 41
0.8
  7
GREEKS
100
AcDbText
  0
LINE
  5
3A1
330
1E
100
AcDbEntity
  8
HILF
100
AcDbLine
 10
420.0
 20
-0.0000000000001137
 30
0.0
 11
419.9999999999999
 21
594.0
 31
0.0
  0
TEXT
  5
3A2
330
1E
100
AcDbEntity
  8
VOLL
100
AcDbText
 10
78.07675471698113
 20
31.02594776470585
 30
0.0
 40
1.8
  1

  7
GREEKS
100
AcDbText
  0
TEXT
  5
3A3
330
1E
100
AcDbEntity
  8
TEXT
100
AcDbText
 10
42.71528769269281
 20
111.6719999999999
 30
0.0
 40
5.0
  1
Erstellt mit AUTOCAD 2004
 41
0.8
  7
GREEKS
100
AcDbText
  0
TEXT
  5
3A4
330
1E
100
AcDbEntity
  8
TEXT
100
AcDbText
 10
194.4216048581257
 20
63.0896391972351
 30
0.0
 40
4.0
  1
Koeh
 41
0.8
  7
GREEKS
 72
     1
 11
199.6787477152685
 21
63.0896391972351
 31
0.0
100
AcDbText
  0
TEXT
  5
3A5
330
1E
100
AcDbEntity
  8
TEXT
 62
     1
100
AcDbText
 10
347.0880937509748
 20
88.14901428913959
 30
0.0
 40
7.0
  1
21203150W
 41
0.8
  7
GREEKS
 72
     1
 11
370.0214270843081
 21
88.14901428913959
 31
0.0
100
AcDbText
  0
TEXT
  5
3A6
330
1E
100
AcDbEntity
  8
TEXT
 62
     1
100
AcDbText
 10
150.5006306481887
 20
88.14901428913959
 30
0.0
 40
7.0
  1
1:2
 41
0.8
  7
GREEKS
100
AcDbText
  0
TEXT
  5
3A7
330
1E
100
AcDbEntity
  8
TEXT
100
AcDbText
 10
161.3132828225217
 20
63.10765040825732
 30
0.0
 40
4.0
  1
16.11.
 41
0.8
  7
GREEKS
 72
     1
 11
167.4085209177598
 21
63.10765040825732
 31
0.0
100
AcDbText
  0
TEXT
  5
3A8
330
1E
100
AcDbEntity
  8
TEXT
 62
     1
100
AcDbText
 10
226.8935731057402
 20
87.41748789253779
 30
0.0
 40
7.0
  1
Regenhaube DN150
 41
0.8
  7
GREEKS
100
AcDbText
  0
TEXT
  5
3A9
330
1E
100
AcDbEntity
  8
TEXT
100
AcDbText
 10
225.1296391125315
 20
51.64011943042158
 30
0.0
 40
5.0
  1
EDV-Art.Nr. 21203.150X
 41
0.8
  7
GREEKS
100
AcDbText
  0
TEXT
  5
3AA
330
1E
100
AcDbEntity
  8
TEXT
100
AcDbText
 10
224.9837501577827
 20
42.62974153022632
 30
0.0
 40
3.6
  1
21203150W.DWG
 41
0.8
  7
GREEKS
100
AcDbText
  0
TEXT
  5
3AB
330
1E
100
AcDbEntity
  8
TEXT
100
AcDbText
 10
182.626132208084
 20
90.76363841023022
 30
0.0
 40
4.0
  1
DIN EN1124-3
 41
0.8
  7
GREEKS
 72
     1
 11
199.6166083985602
 21
90.76363841023022
 31
0.0
100
AcDbText
  0
INSERT
  5
3AC
330
1E
100
AcDbEntity
  8
STEMPEL
100
AcDbBlockReference
  2
LOGO
 10
140.9955485457794
 20
45.02105276448322
 30
0.0
 41
2.0
 42
2.0
 43
2.0
  0
LINE
  5
3B4
102
{ACAD_REACTORS
330
C9C
102
}
330
1E
100
AcDbEntity
  8
STEMPEL
100
AcDbLine
 10
150.2584014904724
 20
291.9616600150493
 30
0.0
 11
306.2837869305907
 21
291.9616600150493
 31
0.0
  0
LINE
  5
3B5
102
{ACAD_REACTORS
330
9D7
102
}
330
1E
100
AcDbEntity
  8
MITTEL
100
AcDbLine
 10
228.2710942105317
 20
456.9616600150491
 30
0.0
 11
228.2710942105316
 21
286.9616600150492
 31
0.0
  0
LINE
  5
3B7
102
{ACAD_REACTORS
330
C9C
102
}
330
1E
100
AcDbEntity
  8
STEMPEL
100
AcDbLine
 10
148.7710942105315
 20
400.4616600150491
 30
0.0
 11
148.7710942105317
 21
308.9616600150493
 31
0.0
  0
LINE
  5
3BE
330
1E
100
AcDbEntity
  8
HILF
100
AcDbLine
 10
151.7825537231617
 20
308.9616600150493
 30
0.0
 11
304.7596346979013
 21
308.9616600150493
 31
0.0
  0
LINE
  5
3BF
102
{ACAD_REACTORS
330
C9C
102
}
330
1E
100
AcDbEntity
  8
STEMPEL
100
AcDbLine
 10
148.7710942105317
 20
308.9616600150493
 30
0.0
 11
150.2584014904724
 21
291.9616600150493
 31
0.0
  0
LINE
  5
3C1
102
{ACAD_REACTORS
330
C9C
102
}
330
1E
100
AcDbEntity
  8
STEMPEL
100
AcDbLine
 10
307.7710942105316
 20
308.9616600150505
 30
0.0
 11
306.2837869305907
 21
291.9616600150493
 31
0.0
  0
DIMENSION
  5
4E2
330
1E
100
AcDbEntity
  8
BEM
100
AcDbDimension
  2
*D1
 10
307.7710942105315
 20
266.730687327439
 30
0.0
 11
228.2710942105316
 21
273.230687327439
 31
0.0
 70
    32
  1
%%C<>
 71
     5
 42
158.9999999999998
  3
Standard
100
AcDbAlignedDimension
 13
148.7710942105317
 23
308.9616600150493
 33
0.0
 14
307.7710942105315
 24
308.9616600150493
 34
0.0
100
AcDbRotatedDimension
1001
ACAD
1000
DSTYLE
1002
{
1070
    40
1040
2.0
1070
    41
1040
3.5
1070
    42
1040
1.0
1070
    43
1040
7.0
1070
    44
1040
1.0
1070
    47
1040
0.25
1070
    48
1040
0.25
1070
    73
1070
     0
1070
    74
1070
     0
1070
    77
1070
     1
1070
    78
1070
     8
1070
    79
1070
     2
1070
   140
1040
3.5
1070
   141
1040
1.5
1070
   146
1040
0.5142857142857144
1070
   147
1040
1.5
1070
   172
1070
     1
1070
   178
1070
     1
1070
   179
1070
     2
1070
   271
1070
     2
1070
   272
1070
     2
1070
   284
1070
     8
1070
   285
1070
     8
1070
   286
1070
     8
1002
}
  0
TEXT
  5
5CE
330
1E
100
AcDbEntity
  8
TEXT
100
AcDbText
 10
118.4639535081604
 20
17.88213755791716
 30
0.0
 40
4.0
  1
Name
 41
0.8
  7
GREEKS
 72
     4
 11
124.78776303197
 21
19.88213755791716
 31
0.0
100
AcDbText
  0
TEXT
  5
5CF
330
1E
100
AcDbEntity
  8
TEXT
100
AcDbText
 10
99.80854941129027
 20
18.54880422458383
 30
0.0
 40
4.0
  1
Tag
 41
0.8
  7
GREEKS
 72
     4
 11
103.5418827446236
 21
19.88213755791716
 31
0.0
100
AcDbText
  0
LINE
  5
75F
102
{ACAD_REACTORS
330
9D7
102
}
330
1E
100
AcDbEntity
  8
STEMPEL
100
AcDbLine
 10
139.7710942105316
 20
451.9616600150492
 30
0.0
 11
316.7710942105318
 21
451.9616600150492
 31
0.0
  0
LINE
  5
760
102
{ACAD_REACTORS
330
9D7
102
}
330
1E
100
AcDbEntity
  8
STEMPEL
100
AcDbLine
 10
381.7710942105318
 20
385.4616600150493
 30
0.0
 11
381.7710942105318
 21
376.9616600150493
 31
0.0
  0
LINE
  5
761
102
{ACAD_REACTORS
330
9D7
102
}
330
1E
100
AcDbEntity
  8
STEMPEL
100
AcDbLine
 10
74.7710942105316
 20
385.4616600150493
 30
0.0
 11
74.7710942105316
 21
376.9616600150493
 31
0.0
  0
LINE
  5
762
102
{ACAD_REACTORS
330
9D7
102
}
330
1E
100
AcDbEntity
  8
STEMPEL
100
AcDbLine
 10
139.7710942105316
 20
450.4616600150493
 30
0.0
 11
316.7710942105318
 21
450.4616600150492
 31
0.0
  0
LINE
  5
763
102
{ACAD_REACTORS
330
9D7
102
}
330
1E
100
AcDbEntity
  8
STEMPEL
100
AcDbLine
 10
383.2710942105316
 20
385.4616600150492
 30
0.0
 11
383.2710942105316
 21
376.9616600150492
 31
0.0
  0
LINE
  5
764
102
{ACAD_REACTORS
330
9D7
102
}
330
1E
100
AcDbEntity
  8
STEMPEL
100
AcDbLine
 10
73.2710942105316
 20
385.4616600150493
 30
0.0
 11
73.2710942105316
 21
376.9616600150493
 31
0.0
  0
LINE
  5
765
102
{ACAD_REACTORS
330
9D7
102
}
330
1E
100
AcDbEntity
  8
STEMPEL
100
AcDbLine
 10
73.2710942105316
 20
376.9616600150493
 30
0.0
 11
148.7710942105316
 21
376.9616600150493
 31
0.0
  0
ARC
  5
766
102
{ACAD_REACTORS
330
9D7
102
}
330
1E
100
AcDbEntity
  8
STEMPEL
100
AcDbCircle
 10
316.7710942105317
 20
385.4616600150493
 30
0.0
 40
65.0
100
AcDbArc
 50
0.0000000000000636
 51
89.99999999999998
  0
ARC
  5
767
102
{ACAD_REACTORS
330
9D7
102
}
330
1E
100
AcDbEntity
  8
STEMPEL
100
AcDbCircle
 10
316.7710942105317
 20
385.4616600150493
 30
0.0
 40
66.5
100
AcDbArc
 50
0.0000000000000636
 51
89.99999999999998
  0
ARC
  5
772
102
{ACAD_REACTORS
330
9D7
102
}
330
1E
100
AcDbEntity
  8
STEMPEL
100
AcDbCircle
 10
139.7710942105316
 20
385.4616600150493
 30
0.0
 40
65.0
100
AcDbArc
 50
89.99999999999998
 51
180.0
  0
ARC
  5
773
102
{ACAD_REACTORS
330
9D7
102
}
330
1E
100
AcDbEntity
  8
STEMPEL
100
AcDbCircle
 10
139.7710942105316
 20
385.4616600150493
 30
0.0
 40
66.5
100
AcDbArc
 50
89.99999999999998
 51
180.0
  0
LINE
  5
7E5
330
1E
100
AcDbEntity
  8
STEMPEL
100
AcDbLine
 10
222.2710942105317
 20
450.4616600150493
 30
0.0
 11
222.2710942105316
 21
408.4616600150491
 31
0.0
  0
LINE
  5
7E6
330
1E
100
AcDbEntity
  8
STEMPEL
100
AcDbLine
 10
234.2710942105317
 20
450.4616600150493
 30
0.0
 11
234.2710942105316
 21
408.4616600150491
 31
0.0
  0
LINE
  5
7E7
102
{ACAD_REACTORS
330
C9C
102
}
330
1E
100
AcDbEntity
  8
STEMPEL
100
AcDbLine
 10
148.7710942105315
 20
400.4616600150491
 30
0.0
 11
214.2710942105316
 21
400.4616600150491
 31
0.0
  0
DIMENSION
  5
82E
330
1E
100
AcDbEntity
  8
BEM
100
AcDbDimension
  2
*D2
 10
383.2710942105317
 20
471.9508773001058
 30
0.0
 11
228.2710942105317
 21
478.4508773001058
 31
0.0
 70
    32
  1
%%c<>
 71
     5
 42
310.0000000000001
  3
Standard
100
AcDbAlignedDimension
 13
73.2710942105316
 23
385.4616600150493
 33
0.0
 14
383.2710942105317
 24
385.4616600150493
 34
0.0
100
AcDbRotatedDimension
1001
ACAD
1000
DSTYLE
1002
{
1070
    40
1040
2.0
1070
    41
1040
3.5
1070
    42
1040
1.0
1070
    43
1040
7.0
1070
    44
1040
1.0
1070
    47
1040
0.25
1070
    48
1040
0.25
1070
    73
1070
     0
1070
    74
1070
     0
1070
    77
1070
     1
1070
    78
1070
     8
1070
    79
1070
     2
1070
   140
1040
3.5
1070
   141
1040
1.5
1070
   146
1040
0.5142857142857144
1070
   147
1040
1.5
1070
   172
1070
     1
1070
   178
1070
     1
1070
   179
1070
     2
1070
   271
1070
     2
1070
   272
1070
     2
1070
   284
1070
     8
1070
   285
1070
     8
1070
   286
1070
     8
1002
}
  0
LINE
  5
871
102
{ACAD_REACTORS
330
9D7
102
}
330
1E
100
AcDbEntity
  8
STEMPEL
100
AcDbLine
 10
307.7710942105316
 20
376.9616600150493
 30
0.0
 11
383.2710942105316
 21
376.9616600150492
 31
0.0
  0
DIMENSION
  5
872
330
1E
100
AcDbEntity
  8
BEM
100
AcDbDimension
  2
*D3
 10
401.4241559271627
 20
451.9616600150492
 30
0.0
 11
394.9241559271626
 21
414.4616600150492
 31
0.0
 70
    32
 71
     5
 42
75.0
  3
Standard
100
AcDbAlignedDimension
 13
383.2710942105316
 23
376.9616600150492
 33
0.0
 14
316.7710942105318
 24
451.9616600150492
 34
0.0
 50
90.0
100
AcDbRotatedDimension
1001
ACAD
1000
DSTYLE
1002
{
1070
    40
1040
2.0
1070
    41
1040
3.5
1070
    42
1040
1.0
1070
    43
1040
7.0
1070
    44
1040
1.0
1070
    47
1040
0.25
1070
    48
1040
0.25
1070
    73
1070
     0
1070
    74
1070
     0
1070
    77
1070
     1
1070
    78
1070
     8
1070
    79
1070
     2
1070
   140
1040
3.5
1070
   141
1040
1.5
1070
   146
1040
0.5142857142857144
1070
   147
1040
1.5
1070
   172
1070
     1
1070
   178
1070
     1
1070
   179
1070
     2
1070
   271
1070
     2
1070
   272
1070
     2
1070
   284
1070
     8
1070
   285
1070
     8
1070
   286
1070
     8
1002
}
  0
DIMENSION
  5
888
330
1E
100
AcDbEntity
  8
BEM
100
AcDbDimension
  2
*D4
 10
125.3695824890901
 20
450.4616600150494
 30
0.0
 11
118.86958248909
 21
425.4616600150493
 31
0.0
 70
    32
 71
     5
 42
50.00000000000023
  3
Standard
100
AcDbAlignedDimension
 13
148.7710942105316
 23
400.4616600150491
 33
0.0
 14
148.7710942105316
 24
450.4616600150493
 34
0.0
 50
90.0
100
AcDbRotatedDimension
1001
ACAD
1000
DSTYLE
1002
{
1070
    40
1040
2.0
1070
    41
1040
3.5
1070
    42
1040
1.0
1070
    43
1040
7.0
1070
    44
1040
1.0
1070
    47
1040
0.25
1070
    48
1040
0.25
1070
    73
1070
     0
1070
    74
1070
     0
1070
    77
1070
     1
1070
    78
1070
     8
1070
    79
1070
     2
1070
   140
1040
3.5
1070
   141
1040
1.5
1070
   146
1040
0.5142857142857144
1070
   147
1040
1.5
1070
   172
1070
     1
1070
   178
1070
     1
1070
   179
1070
     2
1070
   271
1070
     2
1070
   272
1070
     2
1070
   284
1070
     8
1070
   285
1070
     8
1070
   286
1070
     8
1002
}
  0
DIMENSION
  5
8A7
330
1E
100
AcDbEntity
  8
BEM
100
AcDbDimension
  2
*D5
 10
62.4445557635363
 20
451.9616600150493
 30
0.0
 11
55.94455576353622
 21
371.9616600150494
 31
0.0
 70
    32
 71
     5
 42
160.0
  3
Standard
100
AcDbAlignedDimension
 13
150.2584014904724
 23
291.9616600150493
 33
0.0
 14
139.7710942105316
 24
451.9616600150493
 34
0.0
 50
90.0
100
AcDbRotatedDimension
1001
ACAD
1000
DSTYLE
1002
{
1070
    40
1040
2.0
1070
    41
1040
3.5
1070
    42
1040
1.0
1070
    43
1040
7.0
1070
    44
1040
1.0
1070
    47
1040
0.25
1070
    48
1040
0.25
1070
    73
1070
     0
1070
    74
1070
     0
1070
    77
1070
     1
1070
    78
1070
     8
1070
    79
1070
     2
1070
   140
1040
3.5
1070
   141
1040
1.5
1070
   146
1040
0.5142857142857144
1070
   147
1040
1.5
1070
   172
1070
     1
1070
   178
1070
     1
1070
   179
1070
     2
1070
   271
1070
     2
1070
   272
1070
     2
1070
   284
1070
     8
1070
   285
1070
     8
1070
   286
1070
     8
1002
}
  0
HATCH
  5
9D7
330
1E
100
AcDbEntity
  8
SCHRAFF
100
AcDbHatch
 10
0.0
 20
0.0
 30
0.0
210
0.0
220
0.0
230
1.0
  2
_USER
 70
     0
 71
     1
 91
        2
 92
        7
 72
     1
 73
     1
 93
        8
 10
139.7710942105316
 20
451.9616600150492
 42
0.4142135623730951
 10
73.2710942105316
 20
385.4616600150493
 42
0.0
 10
73.2710942105316
 20
376.9616600150493
 42
0.0
 10
74.7710942105316
 20
376.9616600150493
 42
0.0
 10
74.7710942105316
 20
385.4616600150493
 42
-0.414213562373095
 10
139.7710942105316
 20
450.4616600150493
 42
0.0
 10
228.2710942105316
 20
450.4616600150493
 42
0.0
 10
228.2710942105316
 20
451.9616600150492
 42
0.0
 97
        8
330
75F
330
773
330
764
330
765
330
761
330
772
330
762
330
3B5
 92
        7
 72
     1
 73
     1
 93
        8
 10
228.2710942105317
 20
451.9616600150492
 42
0.0
 10
228.2710942105317
 20
450.4616600150493
 42
0.0
 10
316.7710942105318
 20
450.4616600150492
 42
-0.414213562373095
 10
381.7710942105318
 20
385.4616600150492
 42
0.0
 10
381.7710942105318
 20
376.9616600150492
 42
0.0
 10
383.2710942105316
 20
376.9616600150492
 42
0.0
 10
383.2710942105316
 20
385.4616600150492
 42
0.414213562373094
 10
316.7710942105318
 20
451.9616600150492
 42
0.0
 97
        8
330
75F
330
3B5
330
762
330
766
330
760
330
871
330
763
330
767
 75
     0
 76
     0
 52
45.0
 41
2.0
 77
     0
 78
     1
 53
45.0
 43
-2.402550602393603
 44
0.0
 45
-1.414213562373094
 46
1.414213562373095
 79
     0
 47
0.4108184889394751
 98
        2
 10
187.9859448364968
 20
451.4854166601519
 10
269.3846478101637
 20
451.4854166601519
  0
LINE
  5
A5C
102
{ACAD_REACTORS
330
C9C
102
}
330
1E
100
AcDbEntity
  8
STEMPEL
100
AcDbLine
 10
307.7710942105316
 20
400.4616600150491
 30
0.0
 11
242.2710942105316
 21
400.4616600150491
 31
0.0
  0
ARC
  5
AB4
330
1E
100
AcDbEntity
  8
SCHRAFF
100
AcDbCircle
 10
225.4689582829276
 20
448.9616600150494
 30
0.0
 40
2.0
100
AcDbArc
 50
131.4096221092756
 51
228.590377890729
  0
ARC
  5
AB5
330
1E
100
AcDbEntity
  8
SCHRAFF
100
AcDbCircle
 10
227.6959939083848
 20
448.9616600150494
 30
0.0
 40
2.0
100
AcDbArc
 50
131.4096221092756
 51
228.590377890729
  0
ARC
  5
AB6
330
1E
100
AcDbEntity
  8
SCHRAFF
100
AcDbCircle
 10
229.9230295338419
 20
448.9616600150494
 30
0.0
 40
2.0
100
AcDbArc
 50
131.4096221092756
 51
228.590377890729
  0
ARC
  5
AB7
330
1E
100
AcDbEntity
  8
SCHRAFF
100
AcDbCircle
 10
232.150065159299
 20
448.9616600150494
 30
0.0
 40
2.0
100
AcDbArc
 50
131.4096221092756
 51
228.590377890729
  0
ARC
  5
AB8
330
1E
100
AcDbEntity
  8
SCHRAFF
100
AcDbCircle
 10
234.3771007847561
 20
448.9616600150494
 30
0.0
 40
2.0
100
AcDbArc
 50
131.4096221092756
 51
228.590377890729
  0
LINE
  5
B4C
102
{ACAD_REACTORS
330
C9C
102
}
330
1E
100
AcDbEntity
  8
STEMPEL
100
AcDbLine
 10
307.7710942105316
 20
400.4616600150491
 30
0.0
 11
307.7710942105316
 21
308.9616600150505
 31
0.0
  0
ARC
  5
B71
330
1E
100
AcDbEntity
  8
STEMPEL
100
AcDbCircle
 10
242.2710942105316
 20
408.4616600150491
 30
0.0
 40
8.0
100
AcDbArc
 50
179.9999999999999
 51
270.0000000000001
  0
ARC
  5
B72
330
1E
100
AcDbEntity
  8
STEMPEL
100
AcDbCircle
 10
214.2710942105316
 20
408.4616600150491
 30
0.0
 40
8.0
100
AcDbArc
 50
269.9999999999999
 51
360.0
  0
TEXT
  5
C3F
330
1E
100
AcDbEntity
  8
TEXT
100
AcDbText
 10
416.5811541437437
 20
12.14804815338303
 30
0.0
 40
4.0
  1
Diese Zeichnung ist urheberrechtlich geschützt und bleibt unser Eigentum. Sie darf weder ganz noch teilweise vervielfältigt und nicht an Dritte weitergegeben werden.
 50
90.0
 41
0.8
  7
GREEKS
100
AcDbText
  0
TEXT
  5
C71
330
1E
100
AcDbEntity
  8
TEXT
 62
     1
100
AcDbText
 10
323.5490565413639
 20
125.5183543357716
 30
0.0
 40
7.0
  1
1.4404 Rohr
 41
0.8
  7
GREEKS
100
AcDbText
  0
TEXT
  5
C72
330
1E
100
AcDbEntity
  8
TEXT
 62
     1
100
AcDbText
 10
275.4252403812858
 20
137.9249287481086
 30
0.0
 40
7.0
  1
Werkstoff: 1.4301 Haube
 41
0.8
  7
GREEKS
100
AcDbText
  0
LINE
  5
C73
102
{ACAD_REACTORS
330
C9C
102
}
330
1E
100
AcDbEntity
  8
STEMPEL
100
AcDbLine
 10
150.2710942105317
 20
309.0271514294117
 30
0.0
 11
151.7641312467875
 21
291.9616600150493
 31
0.0
  0
LINE
  5
C75
102
{ACAD_REACTORS
330
C9C
102
}
330
1E
100
AcDbEntity
  8
STEMPEL
100
AcDbLine
 10
150.2710942105315
 20
400.4616600150491
 30
0.0
 11
150.2710942105317
 21
309.0271514294117
 31
0.0
  0
LINE
  5
C76
102
{ACAD_REACTORS
330
C9C
102
}
330
1E
100
AcDbEntity
  8
STEMPEL
100
AcDbLine
 10
306.2710942105316
 20
400.4616600150491
 30
0.0
 11
306.2710942105316
 21
309.0271514294134
 31
0.0
  0
LINE
  5
C77
102
{ACAD_REACTORS
330
C9C
102
}
330
1E
100
AcDbEntity
  8
STEMPEL
100
AcDbLine
 10
306.2710942105316
 20
309.0271514294134
 30
0.0
 11
304.7780571742758
 21
291.9616600150493
 31
0.0
  0
HATCH
  5
C9C
330
1E
100
AcDbEntity
  8
SCHRAFF
100
AcDbHatch
 10
0.0
 20
0.0
 30
0.0
210
0.0
220
0.0
230
1.0
  2
_USER
 70
     0
 71
     1
 91
        2
 92
        7
 72
     0
 73
     1
 93
        6
 10
306.2710942105315
 20
309.0271514294136
 10
304.7780571742758
 20
291.9616600150493
 10
306.2837869305907
 20
291.9616600150492
 10
307.7710942105316
 20
308.9616600150499
 10
307.7710942105316
 20
400.4616600150491
 10
306.2710942105316
 20
400.4616600150491
 97
        6
330
A5C
330
C76
330
C77
330
3B4
330
3C1
330
B4C
 92
        7
 72
     0
 73
     1
 93
        6
 10
150.2710942105315
 20
400.4616600150491
 10
148.7710942105316
 20
400.4616600150491
 10
148.7710942105317
 20
308.9616600150492
 10
150.2584014904724
 20
291.9616600150493
 10
151.7641312467875
 20
291.9616600150493
 10
150.2710942105317
 20
309.0271514294116
 97
        6
330
7E7
330
3B7
330
3BF
330
3B4
330
C73
330
C75
 75
     0
 76
     0
 52
135.0
 41
2.0
 77
     0
 78
     1
 53
135.0
 43
-2.402550602393603
 44
0.0
 45
-1.414213562373095
 46
-1.414213562373094
 79
     0
 47
0.3982519589724612
 98
        2
 10
306.7298690767379
 20
360.8291430979452
 10
149.7280100620169
 20
364.4134108870755
  0
TEXT
  5
CAA
330
1E
100
AcDbEntity
  8
TEXT
 62
     1
100
AcDbText
 10
232.951791802211
 20
224.910482637579
 30
0.0
 40
7.0
  1
Rohrende leicht eingezogen
 41
0.8
  7
GREEKS
100
AcDbText
  0
TEXT
  5
CFA
330
1E
100
AcDbEntity
  8
TEXT
 62
     1
100
AcDbText
 10
219.6526031561382
 20
339.1549319645584
 30
0.0
 40
7.0
  1
DN150
 50
90.0
 41
0.8
  7
GREEKS
100
AcDbText
  0
ENDSEC
  0
SECTION
  2
OBJECTS
  0
DICTIONARY
  5
C
330
0
100
AcDbDictionary
281
     1
  3
ACAD_COLOR
350
6F5
  3
ACAD_GROUP
350
D
  3
ACAD_LAYOUT
350
19
  3
ACAD_MATERIAL
350
6F4
  3
ACAD_MLINESTYLE
350
16
  3
ACAD_PLOTSETTINGS
350
18
  3
ACAD_PLOTSTYLENAME
350
E
  3
AcDbVariableDictionary
350
591
  0
DICTIONARY
  5
6F5
102
{ACAD_REACTORS
330
C
102
}
330
C
100
AcDbDictionary
281
     1
  0
DICTIONARY
  5
D
102
{ACAD_REACTORS
330
C
102
}
330
C
100
AcDbDictionary
281
     1
  0
DICTIONARY
  5
19
102
{ACAD_REACTORS
330
C
102
}
330
C
100
AcDbDictionary
281
     1
  3
Layout1
350
1D
  3
Model
350
21
  0
DICTIONARY
  5
6F4
102
{ACAD_REACTORS
330
C
102
}
330
C
100
AcDbDictionary
281
     1
  0
DICTIONARY
  5
16
102
{ACAD_REACTORS
330
C
102
}
330
C
100
AcDbDictionary
281
     1
  3
Standard
350
17
  0
DICTIONARY
  5
18
102
{ACAD_REACTORS
330
C
102
}
330
C
100
AcDbDictionary
281
     1
  0
ACDBDICTIONARYWDFLT
  5
E
102
{ACAD_REACTORS
330
C
102
}
330
C
100
AcDbDictionary
281
     1
  3
Normal
350
F
100
AcDbDictionaryWithDefault
340
F
  0
DICTIONARY
  5
591
102
{ACAD_REACTORS
330
C
102
}
330
C
100
AcDbDictionary
281
     1
  3
DIMASSOC
350
A92
  3
PROJECTNAME
350
A93
  3
SORTENTS
350
592
  0
LAYOUT
  5
1D
102
{ACAD_REACTORS
330
19
102
}
330
19
100
AcDbPlotSettings
  1

  2
Tektronix Phaser 740
  4

  6

 40
0.0
 41
0.0
 42
0.0
 43
0.0
 44
0.0
 45
0.0
 46
0.0
 47
0.0
 48
0.0
 49
0.0
140
0.0
141
0.0
142
1.0
143
1.0
 70
   688
 72
     0
 73
     0
 74
     5
  7
monochrome.ctb
 75
    16
147
1.0
 76
     0
 77
     2
 78
   300
148
0.0
149
0.0
100
AcDbLayout
  1
Layout1
 70
     0
 71
     1
 10
0.0
 20
0.0
 11
12.0
 21
9.0
 12
0.0
 22
0.0
 32
0.0
 14
1.000000000000000E+20
 24
1.000000000000000E+20
 34
1.000000000000000E+20
 15
-1.000000000000000E+20
 25
-1.000000000000000E+20
 35
-1.000000000000000E+20
146
0.0
 13
0.0
 23
0.0
 33
0.0
 16
1.0
 26
0.0
 36
0.0
 17
0.0
 27
1.0
 37
0.0
 76
     0
330
1A
  0
LAYOUT
  5
21
102
{ACAD_REACTORS
330
19
102
}
330
19
100
AcDbPlotSettings
  1

  2
RICOH Aficio 2027 PCL 6
  4
A4
  6

 40
5.027083
 41
5.027084999999999
 42
5.027084
 43
5.027069
 44
209.973328
 45
296.925995
 46
0.0
 47
3.729999999999999
 48
0.0
 49
0.0
140
0.0
141
0.0
142
1.0
143
2.125859261684276
 70
 11956
 72
     1
 73
     0
 74
     2
  7
monochrome1.ctb
 75
     0
147
0.470398025882353
 76
     1
 77
     2
 78
   300
148
0.0
149
0.0
100
AcDbLayout
  1
Model
 70
     1
 71
     0
 10
0.0
 20
0.0
 11
12.0
 21
9.0
 12
0.0
 22
0.0
 32
0.0
 14
0.0
 24
0.0
 34
0.0
 15
0.0
 25
0.0
 35
0.0
146
0.0
 13
0.0
 23
0.0
 33
0.0
 16
1.0
 26
0.0
 36
0.0
 17
0.0
 27
1.0
 37
0.0
 76
     0
330
1E
  0
MLINESTYLE
  5
17
102
{ACAD_REACTORS
330
16
102
}
330
16
100
AcDbMlineStyle
  2
STANDARD
 70
     0
  3

 62
   256
 51
90.0
 52
90.0
 71
     2
 49
0.5
 62
   256
  6
BYLAYER
 49
-0.5
 62
   256
  6
BYLAYER
  0
ACDBPLACEHOLDER
  5
F
102
{ACAD_REACTORS
330
E
102
}
330
E
  0
DICTIONARYVAR
  5
A92
102
{ACAD_REACTORS
330
591
102
}
330
591
100
DictionaryVariables
280
     0
  1
1
  0
DICTIONARYVAR
  5
A93
102
{ACAD_REACTORS
330
591
102
}
330
591
100
DictionaryVariables
280
     0
  1

  0
DICTIONARYVAR
  5
592
102
{ACAD_REACTORS
330
591
102
}
330
591
100
DictionaryVariables
280
     0
  1
96
  0
ENDSEC
  0
EOF
