  0
SECTION
  2
HEADER
  9
$ACADVER
  1
AC1018
  9
$ACADMAINTVER
 70
     2
  9
$DWGCODEPAGE
  3
ANSI_1252
  9
$INSBASE
 10
0.0
 20
0.0
 30
0.0
  9
$EXTMIN
 10
-0.0271659892548542
 20
-0.0384165504626708
 30
-0.0000000000000053
  9
$EXTMAX
 10
594.0272033332093
 20
840.0384693600944
 30
0.0000000000000099
  9
$LIMMIN
 10
0.0
 20
0.0
  9
$LIMMAX
 10
594.0
 20
840.0
  9
$ORTHOMODE
 70
     0
  9
$REGENMODE
 70
     1
  9
$FILLMODE
 70
     1
  9
$QTEXTMODE
 70
     0
  9
$MIRRTEXT
 70
     1
  9
$LTSCALE
 40
20.0
  9
$ATTMODE
 70
     1
  9
$TEXTSIZE
 40
3.5
  9
$TRACEWID
 40
1.0
  9
$TEXTSTYLE
  7
STANDARD
  9
$CLAYER
  8
VOLL
  9
$CELTYPE
  6
ByLayer
  9
$CECOLOR
 62
   256
  9
$CELTSCALE
 40
1.0
  9
$DISPSILH
 70
     0
  9
$DIMSCALE
 40
2.0
  9
$DIMASZ
 40
3.5
  9
$DIMEXO
 40
1.0
  9
$DIMDLI
 40
7.0
  9
$DIMRND
 40
0.0
  9
$DIMDLE
 40
0.0
  9
$DIMEXE
 40
1.0
  9
$DIMTP
 40
0.0
  9
$DIMTM
 40
0.0
  9
$DIMTXT
 40
3.5
  9
$DIMCEN
 40
1.5
  9
$DIMTSZ
 40
0.0
  9
$DIMTOL
 70
     0
  9
$DIMLIM
 70
     0
  9
$DIMTIH
 70
     0
  9
$DIMTOH
 70
     0
  9
$DIMSE1
 70
     0
  9
$DIMSE2
 70
     0
  9
$DIMTAD
 70
     1
  9
$DIMZIN
 70
     8
  9
$DIMBLK
  1

  9
$DIMASO
 70
     1
  9
$DIMSHO
 70
     0
  9
$DIMPOST
  1

  9
$DIMAPOST
  1

  9
$DIMALT
 70
     0
  9
$DIMALTD
 70
     2
  9
$DIMALTF
 40
25.4
  9
$DIMLFAC
 40
1.0
  9
$DIMTOFL
 70
     1
  9
$DIMTVP
 40
0.0
  9
$DIMTIX
 70
     0
  9
$DIMSOXD
 70
     0
  9
$DIMSAH
 70
     0
  9
$DIMBLK1
  1

  9
$DIMBLK2
  1

  9
$DIMSTYLE
  2
Standard
  9
$DIMCLRD
 70
     0
  9
$DIMCLRE
 70
     0
  9
$DIMCLRT
 70
     1
  9
$DIMTFAC
 40
0.5142857142857144
  9
$DIMGAP
 40
1.5
  9
$DIMJUST
 70
     0
  9
$DIMSD1
 70
     0
  9
$DIMSD2
 70
     0
  9
$DIMTOLJ
 70
     1
  9
$DIMTZIN
 70
     8
  9
$DIMALTZ
 70
     8
  9
$DIMALTTZ
 70
     8
  9
$DIMUPT
 70
     0
  9
$DIMDEC
 70
     2
  9
$DIMTDEC
 70
     2
  9
$DIMALTU
 70
     2
  9
$DIMALTTD
 70
     2
  9
$DIMTXSTY
  7
STANDARD
  9
$DIMAUNIT
 70
     0
  9
$DIMADEC
 70
     2
  9
$DIMALTRND
 40
0.0
  9
$DIMAZIN
 70
     2
  9
$DIMDSEP
 70
    46
  9
$DIMATFIT
 70
     3
  9
$DIMFRAC
 70
     0
  9
$DIMLDRBLK
  1

  9
$DIMLUNIT
 70
     2
  9
$DIMLWD
 70
    -2
  9
$DIMLWE
 70
    -2
  9
$DIMTMOVE
 70
     0
  9
$LUNITS
 70
     2
  9
$LUPREC
 70
     2
  9
$SKETCHINC
 40
1.0
  9
$FILLETRAD
 40
0.0
  9
$AUNITS
 70
     0
  9
$AUPREC
 70
     0
  9
$MENU
  1
ACAD
  9
$ELEVATION
 40
0.0
  9
$PELEVATION
 40
0.0
  9
$THICKNESS
 40
0.0
  9
$LIMCHECK
 70
     0
  9
$CHAMFERA
 40
0.0
  9
$CHAMFERB
 40
0.0
  9
$CHAMFERC
 40
0.0
  9
$CHAMFERD
 40
0.0
  9
$SKPOLY
 70
     0
  9
$TDCREATE
 40
2455397.825393172
  9
$TDUCREATE
 40
2455397.783726505
  9
$TDUPDATE
 40
2455545.451870926
  9
$TDUUPDATE
 40
2455545.410204259
  9
$TDINDWG
 40
0.1286027083
  9
$TDUSRTIMER
 40
0.1286027083
  9
$USRTIMER
 70
     1
  9
$ANGBASE
 50
0.0
  9
$ANGDIR
 70
     0
  9
$PDMODE
 70
     0
  9
$PDSIZE
 40
0.0
  9
$PLINEWID
 40
0.0
  9
$SPLFRAME
 70
     0
  9
$SPLINETYPE
 70
     6
  9
$SPLINESEGS
 70
     8
  9
$HANDSEED
  5
1961
  9
$SURFTAB1
 70
     6
  9
$SURFTAB2
 70
     6
  9
$SURFTYPE
 70
     6
  9
$SURFU
 70
     6
  9
$SURFV
 70
     6
  9
$UCSBASE
  2

  9
$UCSNAME
  2

  9
$UCSORG
 10
0.0
 20
0.0
 30
0.0
  9
$UCSXDIR
 10
1.0
 20
0.0
 30
0.0
  9
$UCSYDIR
 10
0.0
 20
1.0
 30
0.0
  9
$UCSORTHOREF
  2

  9
$UCSORTHOVIEW
 70
     0
  9
$UCSORGTOP
 10
0.0
 20
0.0
 30
0.0
  9
$UCSORGBOTTOM
 10
0.0
 20
0.0
 30
0.0
  9
$UCSORGLEFT
 10
0.0
 20
0.0
 30
0.0
  9
$UCSORGRIGHT
 10
0.0
 20
0.0
 30
0.0
  9
$UCSORGFRONT
 10
0.0
 20
0.0
 30
0.0
  9
$UCSORGBACK
 10
0.0
 20
0.0
 30
0.0
  9
$PUCSBASE
  2

  9
$PUCSNAME
  2

  9
$PUCSORG
 10
0.0
 20
0.0
 30
0.0
  9
$PUCSXDIR
 10
1.0
 20
0.0
 30
0.0
  9
$PUCSYDIR
 10
0.0
 20
1.0
 30
0.0
  9
$PUCSORTHOREF
  2

  9
$PUCSORTHOVIEW
 70
     0
  9
$PUCSORGTOP
 10
0.0
 20
0.0
 30
0.0
  9
$PUCSORGBOTTOM
 10
0.0
 20
0.0
 30
0.0
  9
$PUCSORGLEFT
 10
0.0
 20
0.0
 30
0.0
  9
$PUCSORGRIGHT
 10
0.0
 20
0.0
 30
0.0
  9
$PUCSORGFRONT
 10
0.0
 20
0.0
 30
0.0
  9
$PUCSORGBACK
 10
0.0
 20
0.0
 30
0.0
  9
$USERI1
 70
     0
  9
$USERI2
 70
     0
  9
$USERI3
 70
     0
  9
$USERI4
 70
     0
  9
$USERI5
 70
     0
  9
$USERR1
 40
0.0
  9
$USERR2
 40
0.0
  9
$USERR3
 40
0.0
  9
$USERR4
 40
0.0
  9
$USERR5
 40
0.0
  9
$WORLDVIEW
 70
     1
  9
$SHADEDGE
 70
     3
  9
$SHADEDIF
 70
    70
  9
$TILEMODE
 70
     1
  9
$MAXACTVP
 70
    16
  9
$PINSBASE
 10
0.0
 20
0.0
 30
0.0
  9
$PLIMCHECK
 70
     0
  9
$PEXTMIN
 10
1.000000000000000E+20
 20
1.000000000000000E+20
 30
1.000000000000000E+20
  9
$PEXTMAX
 10
-1.000000000000000E+20
 20
-1.000000000000000E+20
 30
-1.000000000000000E+20
  9
$PLIMMIN
 10
0.0
 20
0.0
  9
$PLIMMAX
 10
12.0
 20
9.0
  9
$UNITMODE
 70
     0
  9
$VISRETAIN
 70
     0
  9
$PLINEGEN
 70
     0
  9
$PSLTSCALE
 70
     0
  9
$TREEDEPTH
 70
  3020
  9
$CMLSTYLE
  2
Standard
  9
$CMLJUST
 70
     0
  9
$CMLSCALE
 40
1.0
  9
$PROXYGRAPHICS
 70
     1
  9
$MEASUREMENT
 70
     0
  9
$CELWEIGHT
370
    -1
  9
$ENDCAPS
280
     0
  9
$JOINSTYLE
280
     0
  9
$LWDISPLAY
290
     0
  9
$INSUNITS
 70
     0
  9
$HYPERLINKBASE
  1

  9
$STYLESHEET
  1
monochrome 1.ctb
  9
$XEDIT
290
     1
  9
$CEPSNTYPE
380
     0
  9
$PSTYLEMODE
290
     1
  9
$FINGERPRINTGUID
  2
{D68B0D0D-A558-11D7-B632-000102183313}
  9
$VERSIONGUID
  2
{3CF2CF65-A9FE-4935-B545-1ABF47288466}
  9
$EXTNAMES
290
     1
  9
$PSVPSCALE
 40
0.0
  9
$OLESTARTUP
290
     0
  9
$SORTENTS
280
   127
  9
$INDEXCTL
280
     0
  9
$HIDETEXT
280
     0
  9
$XCLIPFRAME
290
     0
  9
$HALOGAP
280
     0
  9
$OBSCOLOR
 70
   257
  9
$OBSLTYPE
280
     0
  9
$INTERSECTIONDISPLAY
280
     0
  9
$INTERSECTIONCOLOR
 70
   257
  9
$DIMASSOC
280
     1
  9
$PROJECTNAME
  1

  0
ENDSEC
  0
SECTION
  2
CLASSES
  0
CLASS
  1
ACDBDICTIONARYWDFLT
  2
AcDbDictionaryWithDefault
  3
ObjectDBX Classes
 90
        0
 91
        1
280
     0
281
     0
  0
CLASS
  1
DICTIONARYVAR
  2
AcDbDictionaryVar
  3
ObjectDBX Classes
 90
        0
 91
        2
280
     0
281
     0
  0
ENDSEC
  0
SECTION
  2
TABLES
  0
TABLE
  2
VPORT
  5
8
330
0
100
AcDbSymbolTable
 70
     2
  0
VPORT
  5
1960
330
8
100
AcDbSymbolTableRecord
100
AcDbViewportTableRecord
  2
*Active
 70
     0
 10
0.0
 20
0.0
 11
1.0
 21
1.0
 12
297.0000186719772
 22
420.0000264048159
 13
0.0
 23
0.0
 14
1.0
 24
1.0
 15
10.0
 25
10.0
 16
0.0
 26
0.0
 36
1.0
 17
0.0
 27
0.0
 37
0.0
 40
846.8608176944917
 41
1.336927223719676
 42
50.0
 43
0.0
 44
0.0
 50
0.0
 51
0.0
 71
     0
 72
  1500
 73
     1
 74
     0
 75
     0
 76
     0
 77
     0
 78
     0
281
     0
 65
     1
110
0.0
120
0.0
130
0.0
111
1.0
121
0.0
131
0.0
112
0.0
122
1.0
132
0.0
 79
     0
146
0.0
  0
ENDTAB
  0
TABLE
  2
LTYPE
  5
5
330
0
100
AcDbSymbolTable
 70
     3
  0
LTYPE
  5
13
330
5
100
AcDbSymbolTableRecord
100
AcDbLinetypeTableRecord
  2
ByBlock
 70
     0
  3

 72
    65
 73
     0
 40
0.0
  0
LTYPE
  5
14
330
5
100
AcDbSymbolTableRecord
100
AcDbLinetypeTableRecord
  2
ByLayer
 70
     0
  3

 72
    65
 73
     0
 40
0.0
  0
LTYPE
  5
15
330
5
100
AcDbSymbolTableRecord
100
AcDbLinetypeTableRecord
  2
Continuous
 70
     0
  3
Solid line
 72
    65
 73
     0
 40
0.0
  0
LTYPE
  5
25
330
5
100
AcDbSymbolTableRecord
100
AcDbLinetypeTableRecord
  2
STRICHPUNKT
 70
     0
  3
__ . __ . __ . __ . __ . __ . __ . __ . __ . __
 72
    65
 73
     4
 40
1.0
 49
0.5
 74
     0
 49
-0.25
 74
     0
 49
0.0
 74
     0
 49
-0.25
 74
     0
  0
LTYPE
  5
34
330
5
100
AcDbSymbolTableRecord
100
AcDbLinetypeTableRecord
  2
AUSGEZOGEN
 70
     0
  3
Ausgezogene Linie
 72
    65
 73
     0
 40
0.0
  0
ENDTAB
  0
TABLE
  2
LAYER
  5
2
330
0
100
AcDbSymbolTable
 70
     9
  0
LAYER
  5
10
330
2
100
AcDbSymbolTableRecord
100
AcDbLayerTableRecord
  2
0
 70
     0
 62
     7
  6
Continuous
370
    -3
390
F
  0
LAYER
  5
2B
330
2
100
AcDbSymbolTableRecord
100
AcDbLayerTableRecord
  2
VOLL
 70
     0
 62
     1
  6
Continuous
370
    -3
390
F
  0
LAYER
  5
2C
330
2
100
AcDbSymbolTableRecord
100
AcDbLayerTableRecord
  2
HILF
 70
     0
 62
     2
  6
Continuous
370
    -3
390
F
  0
LAYER
  5
2D
330
2
100
AcDbSymbolTableRecord
100
AcDbLayerTableRecord
  2
MITTEL
 70
     0
 62
     2
  6
STRICHPUNKT
370
    -3
390
F
  0
LAYER
  5
2F
330
2
100
AcDbSymbolTableRecord
100
AcDbLayerTableRecord
  2
BEM
 70
     0
 62
     7
  6
Continuous
370
    -3
390
F
  0
LAYER
  5
30
330
2
100
AcDbSymbolTableRecord
100
AcDbLayerTableRecord
  2
STEMPEL
 70
     0
 62
     3
  6
Continuous
370
    -3
390
F
  0
LAYER
  5
33
330
2
100
AcDbSymbolTableRecord
100
AcDbLayerTableRecord
  2
TEXT
 70
     0
 62
     7
  6
Continuous
370
    -3
390
F
  0
LAYER
  5
1DD
330
2
100
AcDbSymbolTableRecord
100
AcDbLayerTableRecord
  2
DEFPOINTS
 70
     0
 62
     7
  6
AUSGEZOGEN
290
     0
370
    -3
390
F
  0
LAYER
  5
1DE
330
2
100
AcDbSymbolTableRecord
100
AcDbLayerTableRecord
  2
SCHRAFF
 70
     0
 62
     7
  6
AUSGEZOGEN
370
    -3
390
F
  0
ENDTAB
  0
TABLE
  2
STYLE
  5
3
330
0
100
AcDbSymbolTable
 70
     2
  0
STYLE
  5
11
330
3
100
AcDbSymbolTableRecord
100
AcDbTextStyleTableRecord
  2
STANDARD
 70
     0
 40
0.0
 41
0.8
 50
0.0
 71
     0
 42
3.5
  3
simplex.shx
  4

  0
STYLE
  5
24
330
3
100
AcDbSymbolTableRecord
100
AcDbTextStyleTableRecord
  2
GREEKS
 70
     0
 40
0.0
 41
0.8
 50
0.0
 71
     0
 42
2.5
  3
SIMPLEX.shx
  4

  0
ENDTAB
  0
TABLE
  2
VIEW
  5
6
330
0
100
AcDbSymbolTable
 70
     0
  0
ENDTAB
  0
TABLE
  2
UCS
  5
7
330
0
100
AcDbSymbolTable
 70
     0
  0
ENDTAB
  0
TABLE
  2
APPID
  5
9
330
0
100
AcDbSymbolTable
 70
     1
  0
APPID
  5
12
330
9
100
AcDbSymbolTableRecord
100
AcDbRegAppTableRecord
  2
ACAD
 70
     0
  0
ENDTAB
  0
TABLE
  2
DIMSTYLE
  5
A
330
0
100
AcDbSymbolTable
 70
     1
100
AcDbDimStyleTable
 71
     1
340
A2
  0
DIMSTYLE
105
A2
102
{ACAD_REACTORS
330
DF9
330
DE5
330
104A
330
131F
330
1414
330
1418
330
148E
330
16D7
330
16D8
330
16D9
102
}
330
A
100
AcDbSymbolTableRecord
100
AcDbDimStyleTableRecord
  2
Standard
 70
     0
340
11
  0
ENDTAB
  0
TABLE
  2
BLOCK_RECORD
  5
1
330
0
100
AcDbSymbolTable
 70
    12
  0
BLOCK_RECORD
  5
1E
102
{ACAD_XDICTIONARY
360
DB
102
}
330
1
100
AcDbSymbolTableRecord
100
AcDbBlockTableRecord
  2
*Model_Space
340
21
  0
BLOCK_RECORD
  5
1A
102
{ACAD_XDICTIONARY
360
DD
102
}
330
1
100
AcDbSymbolTableRecord
100
AcDbBlockTableRecord
  2
*Paper_Space
340
1D
  0
BLOCK_RECORD
  5
22
330
1
100
AcDbSymbolTableRecord
100
AcDbBlockTableRecord
  2
LOGO
340
0
102
{BLKREFS
331
56
102
}
  0
BLOCK_RECORD
  5
23
330
1
100
AcDbSymbolTableRecord
100
AcDbBlockTableRecord
  2
LORO
340
0
102
{BLKREFS
331
9B
102
}
  0
BLOCK_RECORD
  5
FA5
330
1
100
AcDbSymbolTableRecord
100
AcDbBlockTableRecord
  2
*D2
340
0
  0
BLOCK_RECORD
  5
FCC
330
1
100
AcDbSymbolTableRecord
100
AcDbBlockTableRecord
  2
*D3
340
0
  0
BLOCK_RECORD
  5
104B
330
1
100
AcDbSymbolTableRecord
100
AcDbBlockTableRecord
  2
*D4
340
0
  0
BLOCK_RECORD
  5
141A
330
1
100
AcDbSymbolTableRecord
100
AcDbBlockTableRecord
  2
*D5
340
0
  0
BLOCK_RECORD
  5
1426
330
1
100
AcDbSymbolTableRecord
100
AcDbBlockTableRecord
  2
*D6
340
0
  0
BLOCK_RECORD
  5
1432
330
1
100
AcDbSymbolTableRecord
100
AcDbBlockTableRecord
  2
*D7
340
0
  0
BLOCK_RECORD
  5
148F
330
1
100
AcDbSymbolTableRecord
100
AcDbBlockTableRecord
  2
*D8
340
0
  0
BLOCK_RECORD
  5
16DA
330
1
100
AcDbSymbolTableRecord
100
AcDbBlockTableRecord
  2
*D9
340
0
  0
BLOCK_RECORD
  5
16E6
330
1
100
AcDbSymbolTableRecord
100
AcDbBlockTableRecord
  2
*D10
340
0
  0
BLOCK_RECORD
  5
16F2
330
1
100
AcDbSymbolTableRecord
100
AcDbBlockTableRecord
  2
*D11
340
0
  0
ENDTAB
  0
ENDSEC
  0
SECTION
  2
BLOCKS
  0
BLOCK
  5
37
330
1E
100
AcDbEntity
  8
0
100
AcDbBlockBegin
  2
*Model_Space
 70
     0
 10
0.0
 20
0.0
 30
0.0
  3
*Model_Space
  1

  0
ENDBLK
  5
38
330
1E
100
AcDbEntity
  8
0
100
AcDbBlockEnd
  0
BLOCK
  5
35
330
1A
100
AcDbEntity
 67
     1
  8
0
100
AcDbBlockBegin
  2
*Paper_Space
 70
     0
 10
0.0
 20
0.0
 30
0.0
  3
*Paper_Space
  1

  0
ENDBLK
  5
36
330
1A
100
AcDbEntity
 67
     1
  8
0
100
AcDbBlockEnd
  0
BLOCK
  5
39
330
22
100
AcDbEntity
  8
0
100
AcDbBlockBegin
  2
LOGO
 70
     0
 10
0.0
 20
0.0
 30
0.0
  3
LOGO
  1

  0
ARC
  5
3A
330
22
100
AcDbEntity
  8
0
100
AcDbCircle
 10
11.59973089678112
 20
-9.271599258481501
 30
0.0
 40
4.5
100
AcDbArc
 50
270.0
 51
231.0575587310159
  0
LINE
  5
3B
330
22
100
AcDbEntity
  8
0
100
AcDbLine
 10
3.599730896781125
 20
-4.771599258481529
 30
0.0
 11
3.599730896781153
 21
-11.77159925848133
 31
0.0
  0
LINE
  5
3C
330
22
100
AcDbEntity
  8
0
100
AcDbLine
 10
2.599730896781125
 20
-4.771599258481529
 30
0.0
 11
2.599730896781153
 21
-11.77159925848133
 31
0.0
  0
CIRCLE
  5
3D
330
22
100
AcDbEntity
  8
0
100
AcDbCircle
 10
11.59973089678112
 20
-9.271599258481501
 30
0.0
 40
3.5
  0
ARC
  5
3E
330
22
100
AcDbEntity
  8
0
100
AcDbCircle
 10
31.59973089678115
 20
-9.271599258481472
 30
0.0
 40
4.5
100
AcDbArc
 50
270.0
 51
231.0575587310182
  0
LINE
  5
3F
330
22
100
AcDbEntity
  8
0
100
AcDbLine
 10
17.59973089678112
 20
-4.771599258481472
 30
0.0
 11
17.59973089678115
 21
-13.77159925848147
 31
0.0
  0
ARC
  5
40
330
22
100
AcDbEntity
  8
0
100
AcDbCircle
 10
22.59973089678116
 20
-7.271599258481472
 30
0.0
 40
2.5
100
AcDbArc
 50
293.1161887722295
 51
90.0
  0
CIRCLE
  5
41
330
22
100
AcDbEntity
  8
0
100
AcDbCircle
 10
31.59973089678115
 20
-9.271599258481472
 30
0.0
 40
3.5
  0
ARC
  5
42
330
22
100
AcDbEntity
  8
0
100
AcDbCircle
 10
4.599730896781153
 20
-11.77159925848133
 30
0.0
 40
1.0
100
AcDbArc
 50
180.0
 51
270.0
  0
ARC
  5
43
330
22
100
AcDbEntity
  8
0
100
AcDbCircle
 10
4.599730896781153
 20
-11.77159925848133
 30
0.0
 40
2.0
100
AcDbArc
 50
179.9999999999992
 51
270.0
  0
LINE
  5
44
330
22
100
AcDbEntity
  8
0
100
AcDbLine
 10
11.59973089678115
 20
-13.77159925848144
 30
0.0
 11
4.599730896781153
 21
-13.77159925848147
 31
0.0
  0
LINE
  5
45
330
22
100
AcDbEntity
  8
0
100
AcDbLine
 10
8.771303772034769
 20
-12.77159925848136
 30
0.0
 11
4.599730896781153
 21
-12.77159925848133
 31
0.0
  0
LINE
  5
46
330
22
100
AcDbEntity
  8
0
100
AcDbLine
 10
31.59973089678115
 20
-13.77159925848147
 30
0.0
 11
23.6715276665056
 21
-13.77159925848144
 31
0.0
  0
LINE
  5
47
330
22
100
AcDbEntity
  8
0
100
AcDbLine
 10
23.56565672307022
 20
-9.51278021337896
 30
0.0
 11
24.4388546544846
 21
-12.77159925848144
 31
0.0
  0
LINE
  5
48
330
22
100
AcDbEntity
  8
0
100
AcDbLine
 10
22.59973089678116
 20
-9.771599258481472
 30
0.0
 11
18.59973089678112
 21
-9.771599258481472
 31
0.0
  0
LINE
  5
49
330
22
100
AcDbEntity
  8
0
100
AcDbLine
 10
18.59973089678115
 20
-13.77159925848144
 30
0.0
 11
17.59973089678115
 21
-13.77159925848144
 31
0.0
  0
LINE
  5
4A
330
22
100
AcDbEntity
  8
0
100
AcDbLine
 10
18.59973089678115
 20
-9.771599258481472
 30
0.0
 11
18.59973089678115
 21
-13.77159925848144
 31
0.0
  0
LINE
  5
4B
330
22
100
AcDbEntity
  8
0
100
AcDbLine
 10
22.59973089678116
 20
-9.771599258481472
 30
0.0
 11
23.67152766650562
 21
-13.77159925848147
 31
0.0
  0
ARC
  5
4C
330
22
100
AcDbEntity
  8
0
100
AcDbCircle
 10
22.59973089678116
 20
-7.271599258481472
 30
0.0
 40
2.5
100
AcDbArc
 50
270.0
 51
270.0000000000007
  0
LINE
  5
4D
330
22
100
AcDbEntity
  8
0
100
AcDbLine
 10
28.77130377203494
 20
-12.77159925848147
 30
0.0
 11
24.43885465448463
 21
-12.77159925848144
 31
0.0
  0
LINE
  5
4E
330
22
100
AcDbEntity
  8
0
100
AcDbLine
 10
3.599730896781125
 20
-4.771599258481472
 30
0.0
 11
2.599730896781125
 21
-4.771599258481472
 31
0.0
  0
LINE
  5
4F
330
22
100
AcDbEntity
  8
0
100
AcDbLine
 10
22.59973089678116
 20
-8.771599258481472
 30
0.0
 11
18.59973089678115
 21
-8.771599258481472
 31
0.0
  0
LINE
  5
50
330
22
100
AcDbEntity
  8
0
100
AcDbLine
 10
22.59973089678116
 20
-5.771599258481472
 30
0.0
 11
18.59973089678115
 21
-5.771599258481472
 31
0.0
  0
LINE
  5
51
330
22
100
AcDbEntity
  8
0
100
AcDbLine
 10
22.59973089678116
 20
-4.771599258481472
 30
0.0
 11
17.59973089678115
 21
-4.771599258481472
 31
0.0
  0
LINE
  5
52
330
22
100
AcDbEntity
  8
0
100
AcDbLine
 10
18.59973089678115
 20
-5.771599258481472
 30
0.0
 11
18.59973089678115
 21
-8.771599258481472
 31
0.0
  0
ARC
  5
53
330
22
100
AcDbEntity
  8
0
100
AcDbCircle
 10
22.59973089678116
 20
-7.271599258481472
 30
0.0
 40
1.5
100
AcDbArc
 50
270.0
 51
90.0
  0
ENDBLK
  5
54
330
22
100
AcDbEntity
  8
0
100
AcDbBlockEnd
  0
BLOCK
  5
55
330
23
100
AcDbEntity
  8
0
100
AcDbBlockBegin
  2
LORO
 70
     0
 10
0.0
 20
0.0
 30
0.0
  3
LORO
  1

  0
INSERT
  5
56
330
23
100
AcDbEntity
  8
STEMPEL
100
AcDbBlockReference
  2
LOGO
 10
-1.748032802467321
 20
3.771489518552062
 30
0.0
  0
ENDBLK
  5
57
330
23
100
AcDbEntity
  8
0
100
AcDbBlockEnd
  0
BLOCK
  5
FB0
330
FA5
100
AcDbEntity
  8
0
100
AcDbBlockBegin
  2
*D2
 70
     1
 10
0.0
 20
0.0
 30
0.0
  3
*D2
  1

  0
LINE
  5
11A4
330
FA5
100
AcDbEntity
  8
BEM
 62
     0
370
    -2
100
AcDbLine
 10
93.21302226573118
 20
709.9167752598284
 30
0.0
 11
93.21302226573118
 21
739.2560503739344
 31
0.0
  0
LINE
  5
11A5
330
FA5
100
AcDbEntity
  8
BEM
 62
     0
370
    -2
100
AcDbLine
 10
313.2130222657314
 20
709.9167752598284
 30
0.0
 11
313.2130222657314
 21
739.2560503739344
 31
0.0
  0
LINE
  5
11A6
330
FA5
100
AcDbEntity
  8
BEM
 62
     0
370
    -2
100
AcDbLine
 10
100.2130222657312
 20
737.2560503739343
 30
0.0
 11
306.2130222657314
 21
737.2560503739343
 31
0.0
  0
SOLID
  5
11A7
330
FA5
100
AcDbEntity
  8
BEM
 62
     0
100
AcDbTrace
 10
100.2130222657312
 20
738.422717040601
 30
0.0
 11
100.2130222657312
 21
736.0893837072677
 31
0.0
 12
93.21302226573118
 22
737.2560503739343
 32
0.0
 13
93.21302226573118
 23
737.2560503739343
 33
0.0
  0
SOLID
  5
11A8
330
FA5
100
AcDbEntity
  8
BEM
 62
     0
100
AcDbTrace
 10
306.2130222657314
 20
738.422717040601
 30
0.0
 11
306.2130222657314
 21
736.0893837072677
 31
0.0
 12
313.2130222657314
 22
737.2560503739343
 32
0.0
 13
313.2130222657314
 23
737.2560503739343
 33
0.0
  0
MTEXT
  5
11A9
330
FA5
100
AcDbEntity
  8
BEM
 62
     1
100
AcDbMText
 10
203.2130222657313
 20
743.7560503739343
 30
0.0
 40
7.0
 41
0.0
 71
     5
 72
     1
  1
\A1;%%c220
 73
     1
 44
1.0
  0
POINT
  5
11AA
330
FA5
100
AcDbEntity
  8
DEFPOINTS
 62
     0
100
AcDbPoint
 10
93.21302226573118
 20
707.9167752598285
 30
0.0
  0
POINT
  5
11AB
330
FA5
100
AcDbEntity
  8
DEFPOINTS
 62
     0
100
AcDbPoint
 10
313.2130222657314
 20
707.9167752598285
 30
0.0
  0
POINT
  5
11AC
330
FA5
100
AcDbEntity
  8
DEFPOINTS
 62
     0
100
AcDbPoint
 10
313.2130222657314
 20
737.2560503739343
 30
0.0
  0
ENDBLK
  5
FB1
330
FA5
100
AcDbEntity
  8
0
100
AcDbBlockEnd
  0
BLOCK
  5
FD7
330
FCC
100
AcDbEntity
  8
0
100
AcDbBlockBegin
  2
*D3
 70
     1
 10
0.0
 20
0.0
 30
0.0
  3
*D3
  1

  0
LINE
  5
18F8
330
FCC
100
AcDbEntity
  8
BEM
 62
     0
370
    -2
100
AcDbLine
 10
59.21302226573118
 20
617.9168332271439
 30
0.0
 11
29.44075979157569
 21
617.9168332271439
 31
0.0
  0
LINE
  5
18F9
330
FCC
100
AcDbEntity
  8
BEM
 62
     0
370
    -2
100
AcDbLine
 10
121.2130222657312
 20
727.9168332271431
 30
0.0
 11
29.44075979157572
 21
727.9168332271431
 31
0.0
  0
LINE
  5
18FA
330
FCC
100
AcDbEntity
  8
BEM
 62
     0
370
    -2
100
AcDbLine
 10
31.4407597915757
 20
624.9168332271438
 30
0.0
 11
31.44075979157572
 21
720.9168332271431
 31
0.0
  0
SOLID
  5
18FB
330
FCC
100
AcDbEntity
  8
BEM
 62
     0
100
AcDbTrace
 10
30.27409312490903
 20
624.9168332271438
 30
0.0
 11
32.60742645824237
 21
624.9168332271438
 31
0.0
 12
31.4407597915757
 22
617.9168332271439
 32
0.0
 13
31.4407597915757
 23
617.9168332271439
 33
0.0
  0
SOLID
  5
18FC
330
FCC
100
AcDbEntity
  8
BEM
 62
     0
100
AcDbTrace
 10
30.27409312490905
 20
720.9168332271431
 30
0.0
 11
32.60742645824239
 21
720.9168332271431
 31
0.0
 12
31.44075979157572
 22
727.9168332271431
 32
0.0
 13
31.44075979157572
 23
727.9168332271431
 33
0.0
  0
MTEXT
  5
18FD
330
FCC
100
AcDbEntity
  8
BEM
 62
     1
100
AcDbMText
 10
24.9407597915756
 20
672.9168332271435
 30
0.0
 40
7.0
 41
0.0
 71
     5
 72
     1
  1
\A1;110
 11
0.0000000000000001
 21
1.0
 31
0.0
 73
     1
 44
1.0
  0
POINT
  5
18FE
330
FCC
100
AcDbEntity
  8
DEFPOINTS
 62
     0
100
AcDbPoint
 10
61.21302226573117
 20
617.9168332271439
 30
0.0
  0
POINT
  5
18FF
330
FCC
100
AcDbEntity
  8
DEFPOINTS
 62
     0
100
AcDbPoint
 10
123.2130222657312
 20
727.9168332271431
 30
0.0
  0
POINT
  5
1900
330
FCC
100
AcDbEntity
  8
DEFPOINTS
 62
     0
100
AcDbPoint
 10
31.44075979157572
 20
727.9168332271431
 30
0.0
  0
ENDBLK
  5
FD8
330
FCC
100
AcDbEntity
  8
0
100
AcDbBlockEnd
  0
BLOCK
  5
1055
330
104B
100
AcDbEntity
  8
0
100
AcDbBlockBegin
  2
*D4
 70
     1
 10
0.0
 20
0.0
 30
0.0
  3
*D4
  1

  0
LINE
  5
1189
330
104B
100
AcDbEntity
  8
BEM
 62
     0
370
    -2
100
AcDbLine
 10
53.21302226573116
 20
609.031046789518
 30
0.0
 11
53.21302226573116
 21
751.9267342268561
 31
0.0
  0
LINE
  5
118A
330
104B
100
AcDbEntity
  8
BEM
 62
     0
370
    -2
100
AcDbLine
 10
353.2130222657312
 20
609.031046789518
 30
0.0
 11
353.2130222657312
 21
751.9267342268561
 31
0.0
  0
LINE
  5
118B
330
104B
100
AcDbEntity
  8
BEM
 62
     0
370
    -2
100
AcDbLine
 10
60.21302226573116
 20
749.926734226856
 30
0.0
 11
346.2130222657312
 21
749.926734226856
 31
0.0
  0
SOLID
  5
118C
330
104B
100
AcDbEntity
  8
BEM
 62
     0
100
AcDbTrace
 10
60.21302226573116
 20
751.0934008935227
 30
0.0
 11
60.21302226573116
 21
748.7600675601894
 31
0.0
 12
53.21302226573116
 22
749.926734226856
 32
0.0
 13
53.21302226573116
 23
749.926734226856
 33
0.0
  0
SOLID
  5
118D
330
104B
100
AcDbEntity
  8
BEM
 62
     0
100
AcDbTrace
 10
346.2130222657312
 20
751.0934008935227
 30
0.0
 11
346.2130222657312
 21
748.7600675601894
 31
0.0
 12
353.2130222657312
 22
749.926734226856
 32
0.0
 13
353.2130222657312
 23
749.926734226856
 33
0.0
  0
MTEXT
  5
118E
330
104B
100
AcDbEntity
  8
BEM
 62
     1
100
AcDbMText
 10
203.2130222657312
 20
756.4267342268561
 30
0.0
 40
7.0
 41
0.0
 71
     5
 72
     1
  1
\A1;%%c300
 73
     1
 44
1.0
  0
POINT
  5
118F
330
104B
100
AcDbEntity
  8
DEFPOINTS
 62
     0
100
AcDbPoint
 10
53.21302226573116
 20
607.0310467895181
 30
0.0
  0
POINT
  5
1190
330
104B
100
AcDbEntity
  8
DEFPOINTS
 62
     0
100
AcDbPoint
 10
353.2130222657312
 20
607.0310467895181
 30
0.0
  0
POINT
  5
1191
330
104B
100
AcDbEntity
  8
DEFPOINTS
 62
     0
100
AcDbPoint
 10
353.2130222657312
 20
749.926734226856
 30
0.0
  0
ENDBLK
  5
1056
330
104B
100
AcDbEntity
  8
0
100
AcDbBlockEnd
  0
BLOCK
  5
1424
330
141A
100
AcDbEntity
  8
0
100
AcDbBlockBegin
  2
*D5
 70
     1
 10
0.0
 20
0.0
 30
0.0
  3
*D5
  1

  0
LINE
  5
1475
330
141A
100
AcDbEntity
  8
BEM
 62
     0
370
    -2
100
AcDbLine
 10
254.0130222657311
 20
197.8644400956549
 30
0.0
 11
254.0130222657311
 21
169.3056240599608
 31
0.0
  0
LINE
  5
1476
330
141A
100
AcDbEntity
  8
BEM
 62
     0
370
    -2
100
AcDbLine
 10
152.413022265731
 20
197.8644400956521
 30
0.0
 11
152.413022265731
 21
169.3056240599608
 31
0.0
  0
LINE
  5
1477
330
141A
100
AcDbEntity
  8
BEM
 62
     0
370
    -2
100
AcDbLine
 10
247.0130222657311
 20
171.3056240599608
 30
0.0
 11
159.413022265731
 21
171.3056240599608
 31
0.0
  0
SOLID
  5
1478
330
141A
100
AcDbEntity
  8
BEM
 62
     0
100
AcDbTrace
 10
247.0130222657311
 20
172.4722907266275
 30
0.0
 11
247.0130222657311
 21
170.1389573932942
 31
0.0
 12
254.0130222657311
 22
171.3056240599608
 32
0.0
 13
254.0130222657311
 23
171.3056240599608
 33
0.0
  0
SOLID
  5
1479
330
141A
100
AcDbEntity
  8
BEM
 62
     0
100
AcDbTrace
 10
159.413022265731
 20
172.4722907266275
 30
0.0
 11
159.413022265731
 21
170.1389573932942
 31
0.0
 12
152.413022265731
 22
171.3056240599608
 32
0.0
 13
152.413022265731
 23
171.3056240599608
 33
0.0
  0
MTEXT
  5
147A
330
141A
100
AcDbEntity
  8
BEM
 62
     1
100
AcDbMText
 10
203.2130222657311
 20
177.8056240599608
 30
0.0
 40
7.0
 41
0.0
 71
     5
 72
     1
  1
\A1;%%c101.6
 73
     1
 44
1.0
  0
POINT
  5
147B
330
141A
100
AcDbEntity
  8
DEFPOINTS
 62
     0
100
AcDbPoint
 10
254.0130222657311
 20
199.864440095655
 30
0.0
  0
POINT
  5
147C
330
141A
100
AcDbEntity
  8
DEFPOINTS
 62
     0
100
AcDbPoint
 10
152.413022265731
 20
199.8644400956521
 30
0.0
  0
POINT
  5
147D
330
141A
100
AcDbEntity
  8
DEFPOINTS
 62
     0
100
AcDbPoint
 10
152.413022265731
 20
171.3056240599608
 30
0.0
  0
ENDBLK
  5
1425
330
141A
100
AcDbEntity
  8
0
100
AcDbBlockEnd
  0
BLOCK
  5
1430
330
1426
100
AcDbEntity
  8
0
100
AcDbBlockBegin
  2
*D6
 70
     1
 10
0.0
 20
0.0
 30
0.0
  3
*D6
  1

  0
LINE
  5
1764
330
1426
100
AcDbEntity
  8
BEM
 62
     0
370
    -2
100
AcDbLine
 10
51.21302226573073
 20
461.9168332271438
 30
0.0
 11
29.6865532210025
 21
461.9168332271438
 31
0.0
  0
LINE
  5
1765
330
1426
100
AcDbEntity
  8
BEM
 62
     0
370
    -2
100
AcDbLine
 10
151.1083477688864
 20
191.9168332271441
 30
0.0
 11
29.68655322100244
 21
191.9168332271441
 31
0.0
  0
LINE
  5
1766
330
1426
100
AcDbEntity
  8
BEM
 62
     0
370
    -2
100
AcDbLine
 10
31.6865532210025
 20
454.9168332271438
 30
0.0
 11
31.68655322100244
 21
198.9168332271441
 31
0.0
  0
SOLID
  5
1767
330
1426
100
AcDbEntity
  8
BEM
 62
     0
100
AcDbTrace
 10
30.51988655433583
 20
454.9168332271438
 30
0.0
 11
32.85321988766916
 21
454.9168332271438
 31
0.0
 12
31.6865532210025
 22
461.9168332271438
 32
0.0
 13
31.6865532210025
 23
461.9168332271438
 33
0.0
  0
SOLID
  5
1768
330
1426
100
AcDbEntity
  8
BEM
 62
     0
100
AcDbTrace
 10
30.51988655433577
 20
198.9168332271441
 30
0.0
 11
32.85321988766911
 21
198.9168332271441
 31
0.0
 12
31.68655322100244
 22
191.9168332271441
 32
0.0
 13
31.68655322100244
 23
191.9168332271441
 33
0.0
  0
MTEXT
  5
1769
330
1426
100
AcDbEntity
  8
BEM
 62
     1
100
AcDbMText
 10
25.18655322100242
 20
326.916833227144
 30
0.0
 40
7.0
 41
0.0
 71
     5
 72
     1
  1
\A1;270
 11
0.0000000000000001
 21
1.0
 31
0.0
 73
     1
 44
1.0
  0
POINT
  5
176A
330
1426
100
AcDbEntity
  8
DEFPOINTS
 62
     0
100
AcDbPoint
 10
53.21302226573073
 20
461.9168332271438
 30
0.0
  0
POINT
  5
176B
330
1426
100
AcDbEntity
  8
DEFPOINTS
 62
     0
100
AcDbPoint
 10
153.1083477688864
 20
191.9168332271441
 30
0.0
  0
POINT
  5
176C
330
1426
100
AcDbEntity
  8
DEFPOINTS
 62
     0
100
AcDbPoint
 10
31.68655322100244
 20
191.9168332271441
 30
0.0
  0
ENDBLK
  5
1431
330
1426
100
AcDbEntity
  8
0
100
AcDbBlockEnd
  0
BLOCK
  5
143C
330
1432
100
AcDbEntity
  8
0
100
AcDbBlockBegin
  2
*D7
 70
     1
 10
0.0
 20
0.0
 30
0.0
  3
*D7
  1

  0
LINE
  5
1722
330
1432
100
AcDbEntity
  8
BEM
 62
     0
370
    -2
100
AcDbLine
 10
353.2130222657309
 20
466.9168332271438
 30
0.0
 11
353.2130222657309
 21
503.737374277869
 31
0.0
  0
LINE
  5
1723
330
1432
100
AcDbEntity
  8
BEM
 62
     0
370
    -2
100
AcDbLine
 10
53.21302226573073
 20
466.9168332271438
 30
0.0
 11
53.21302226573073
 21
503.737374277869
 31
0.0
  0
LINE
  5
1724
330
1432
100
AcDbEntity
  8
BEM
 62
     0
370
    -2
100
AcDbLine
 10
346.2130222657309
 20
501.7373742778691
 30
0.0
 11
60.21302226573073
 21
501.7373742778691
 31
0.0
  0
SOLID
  5
1725
330
1432
100
AcDbEntity
  8
BEM
 62
     0
100
AcDbTrace
 10
346.2130222657309
 20
502.9040409445357
 30
0.0
 11
346.2130222657309
 21
500.5707076112024
 31
0.0
 12
353.2130222657309
 22
501.7373742778691
 32
0.0
 13
353.2130222657309
 23
501.7373742778691
 33
0.0
  0
SOLID
  5
1726
330
1432
100
AcDbEntity
  8
BEM
 62
     0
100
AcDbTrace
 10
60.21302226573073
 20
502.9040409445357
 30
0.0
 11
60.21302226573073
 21
500.5707076112024
 31
0.0
 12
53.21302226573073
 22
501.7373742778691
 32
0.0
 13
53.21302226573073
 23
501.7373742778691
 33
0.0
  0
MTEXT
  5
1727
330
1432
100
AcDbEntity
  8
BEM
 62
     1
100
AcDbMText
 10
203.2130222657308
 20
508.2373742778691
 30
0.0
 40
7.0
 41
0.0
 71
     5
 72
     1
  1
\A1;%%c300
 73
     1
 44
1.0
  0
POINT
  5
1728
330
1432
100
AcDbEntity
  8
DEFPOINTS
 62
     0
100
AcDbPoint
 10
353.2130222657309
 20
464.9168332271438
 30
0.0
  0
POINT
  5
1729
330
1432
100
AcDbEntity
  8
DEFPOINTS
 62
     0
100
AcDbPoint
 10
53.21302226573073
 20
464.9168332271438
 30
0.0
  0
POINT
  5
172A
330
1432
100
AcDbEntity
  8
DEFPOINTS
 62
     0
100
AcDbPoint
 10
53.21302226573073
 20
501.7373742778691
 30
0.0
  0
ENDBLK
  5
143D
330
1432
100
AcDbEntity
  8
0
100
AcDbBlockEnd
  0
BLOCK
  5
1499
330
148F
100
AcDbEntity
  8
0
100
AcDbBlockBegin
  2
*D8
 70
     1
 10
0.0
 20
0.0
 30
0.0
  3
*D8
  1

  0
LINE
  5
175B
330
148F
100
AcDbEntity
  8
BEM
 62
     0
370
    -2
100
AcDbLine
 10
51.21302226573073
 20
461.9168332271448
 30
0.0
 11
29.58043709291678
 21
461.9168332271448
 31
0.0
  0
LINE
  5
175C
330
148F
100
AcDbEntity
  8
BEM
 62
     0
370
    -2
100
AcDbLine
 10
51.21302226573115
 20
611.9168332271448
 30
0.0
 11
29.58043709291681
 21
611.9168332271448
 31
0.0
  0
LINE
  5
175D
330
148F
100
AcDbEntity
  8
BEM
 62
     0
370
    -2
100
AcDbLine
 10
31.58043709291678
 20
468.9168332271448
 30
0.0
 11
31.58043709291681
 21
604.9168332271448
 31
0.0
  0
SOLID
  5
175E
330
148F
100
AcDbEntity
  8
BEM
 62
     0
100
AcDbTrace
 10
30.41377042625011
 20
468.9168332271448
 30
0.0
 11
32.74710375958345
 21
468.9168332271448
 31
0.0
 12
31.58043709291678
 22
461.9168332271448
 32
0.0
 13
31.58043709291678
 23
461.9168332271448
 33
0.0
  0
SOLID
  5
175F
330
148F
100
AcDbEntity
  8
BEM
 62
     0
100
AcDbTrace
 10
30.41377042625014
 20
604.9168332271448
 30
0.0
 11
32.74710375958348
 21
604.9168332271448
 31
0.0
 12
31.58043709291681
 22
611.9168332271448
 32
0.0
 13
31.58043709291681
 23
611.9168332271448
 33
0.0
  0
MTEXT
  5
1760
330
148F
100
AcDbEntity
  8
BEM
 62
     1
100
AcDbMText
 10
25.08043709291671
 20
536.9168332271448
 30
0.0
 40
7.0
 41
0.0
 71
     5
 72
     1
  1
\A1;min.35 - max.200
 11
0.0000000000000001
 21
1.0
 31
0.0
 73
     1
 44
1.0
  0
POINT
  5
1761
330
148F
100
AcDbEntity
  8
DEFPOINTS
 62
     0
100
AcDbPoint
 10
53.21302226573073
 20
461.9168332271448
 30
0.0
  0
POINT
  5
1762
330
148F
100
AcDbEntity
  8
DEFPOINTS
 62
     0
100
AcDbPoint
 10
53.21302226573116
 20
611.9168332271448
 30
0.0
  0
POINT
  5
1763
330
148F
100
AcDbEntity
  8
DEFPOINTS
 62
     0
100
AcDbPoint
 10
31.58043709291681
 20
611.9168332271448
 30
0.0
  0
ENDBLK
  5
149A
330
148F
100
AcDbEntity
  8
0
100
AcDbBlockEnd
  0
BLOCK
  5
16E4
330
16DA
100
AcDbEntity
  8
0
100
AcDbBlockBegin
  2
*D9
 70
     1
 10
0.0
 20
0.0
 30
0.0
  3
*D9
  1

  0
LINE
  5
177F
330
16DA
100
AcDbEntity
  8
BEM
 62
     0
370
    -2
100
AcDbLine
 10
57.45297648059076
 20
458.9168332271444
 30
0.0
 11
44.52577193000895
 21
458.9168332271444
 31
0.0
  0
LINE
  5
1780
330
16DA
100
AcDbEntity
  8
BEM
 62
     0
370
    -2
100
AcDbLine
 10
121.2130222657306
 20
298.9168332271447
 30
0.0
 11
44.5257719300089
 21
298.9168332271447
 31
0.0
  0
LINE
  5
1781
330
16DA
100
AcDbEntity
  8
BEM
 62
     0
370
    -2
100
AcDbLine
 10
46.52577193000895
 20
451.9168332271444
 30
0.0
 11
46.52577193000892
 21
305.9168332271447
 31
0.0
  0
SOLID
  5
1782
330
16DA
100
AcDbEntity
  8
BEM
 62
     0
100
AcDbTrace
 10
45.35910526334228
 20
451.9168332271444
 30
0.0
 11
47.69243859667561
 21
451.9168332271444
 31
0.0
 12
46.52577193000895
 22
458.9168332271444
 32
0.0
 13
46.52577193000895
 23
458.9168332271444
 33
0.0
  0
SOLID
  5
1783
330
16DA
100
AcDbEntity
  8
BEM
 62
     0
100
AcDbTrace
 10
45.35910526334226
 20
305.9168332271447
 30
0.0
 11
47.69243859667558
 21
305.9168332271447
 31
0.0
 12
46.52577193000891
 22
298.9168332271447
 32
0.0
 13
46.52577193000891
 23
298.9168332271447
 33
0.0
  0
MTEXT
  5
1784
330
16DA
100
AcDbEntity
  8
BEM
 62
     1
100
AcDbMText
 10
40.02577193000887
 20
378.9168332271446
 30
0.0
 40
7.0
 41
0.0
 71
     5
 72
     1
  1
\A1;160
 11
0.0000000000000001
 21
1.0
 31
0.0
 73
     1
 44
1.0
  0
POINT
  5
1785
330
16DA
100
AcDbEntity
  8
DEFPOINTS
 62
     0
100
AcDbPoint
 10
59.45297648059076
 20
458.9168332271444
 30
0.0
  0
POINT
  5
1786
330
16DA
100
AcDbEntity
  8
DEFPOINTS
 62
     0
100
AcDbPoint
 10
123.2130222657306
 20
298.9168332271447
 30
0.0
  0
POINT
  5
1787
330
16DA
100
AcDbEntity
  8
DEFPOINTS
 62
     0
100
AcDbPoint
 10
46.52577193000891
 20
298.9168332271447
 30
0.0
  0
ENDBLK
  5
16E5
330
16DA
100
AcDbEntity
  8
0
100
AcDbBlockEnd
  0
BLOCK
  5
16F0
330
16E6
100
AcDbEntity
  8
0
100
AcDbBlockBegin
  2
*D10
 70
     1
 10
0.0
 20
0.0
 30
0.0
  3
*D10
  1

  0
LINE
  5
1751
330
16E6
100
AcDbEntity
  8
BEM
 62
     0
370
    -2
100
AcDbLine
 10
123.2130222657306
 20
296.9168332271447
 30
0.0
 11
123.2130222657306
 21
272.6240616971899
 31
0.0
  0
LINE
  5
1752
330
16E6
100
AcDbEntity
  8
BEM
 62
     0
370
    -2
100
AcDbLine
 10
283.2130222657306
 20
296.9168332271441
 30
0.0
 11
283.2130222657306
 21
272.6240616971899
 31
0.0
  0
LINE
  5
1753
330
16E6
100
AcDbEntity
  8
BEM
 62
     0
370
    -2
100
AcDbLine
 10
130.2130222657306
 20
274.6240616971899
 30
0.0
 11
276.2130222657306
 21
274.6240616971899
 31
0.0
  0
SOLID
  5
1754
330
16E6
100
AcDbEntity
  8
BEM
 62
     0
100
AcDbTrace
 10
130.2130222657306
 20
275.7907283638565
 30
0.0
 11
130.2130222657306
 21
273.4573950305232
 31
0.0
 12
123.2130222657306
 22
274.6240616971899
 32
0.0
 13
123.2130222657306
 23
274.6240616971899
 33
0.0
  0
SOLID
  5
1755
330
16E6
100
AcDbEntity
  8
BEM
 62
     0
100
AcDbTrace
 10
276.2130222657306
 20
275.7907283638565
 30
0.0
 11
276.2130222657306
 21
273.4573950305232
 31
0.0
 12
283.2130222657306
 22
274.6240616971899
 32
0.0
 13
283.2130222657306
 23
274.6240616971899
 33
0.0
  0
MTEXT
  5
1756
330
16E6
100
AcDbEntity
  8
BEM
 62
     1
100
AcDbMText
 10
203.2130222657306
 20
281.1240616971899
 30
0.0
 40
7.0
 41
0.0
 71
     5
 72
     1
  1
\A1;%%c160
 73
     1
 44
1.0
  0
POINT
  5
1757
330
16E6
100
AcDbEntity
  8
DEFPOINTS
 62
     0
100
AcDbPoint
 10
123.2130222657306
 20
298.9168332271447
 30
0.0
  0
POINT
  5
1758
330
16E6
100
AcDbEntity
  8
DEFPOINTS
 62
     0
100
AcDbPoint
 10
283.2130222657306
 20
298.9168332271441
 30
0.0
  0
POINT
  5
1759
330
16E6
100
AcDbEntity
  8
DEFPOINTS
 62
     0
100
AcDbPoint
 10
283.2130222657306
 20
274.6240616971899
 30
0.0
  0
ENDBLK
  5
16F1
330
16E6
100
AcDbEntity
  8
0
100
AcDbBlockEnd
  0
BLOCK
  5
16FC
330
16F2
100
AcDbEntity
  8
0
100
AcDbBlockBegin
  2
*D11
 70
     1
 10
0.0
 20
0.0
 30
0.0
  3
*D11
  1

  0
LINE
  5
1719
330
16F2
100
AcDbEntity
  8
BEM
 62
     0
370
    -2
100
AcDbLine
 10
108.2130222657306
 20
460.9168332271448
 30
0.0
 11
108.2130222657306
 21
490.5662306701486
 31
0.0
  0
LINE
  5
171A
330
16F2
100
AcDbEntity
  8
BEM
 62
     0
370
    -2
100
AcDbLine
 10
298.2130222657305
 20
460.9168332271434
 30
0.0
 11
298.2130222657305
 21
490.5662306701486
 31
0.0
  0
LINE
  5
171B
330
16F2
100
AcDbEntity
  8
BEM
 62
     0
370
    -2
100
AcDbLine
 10
115.2130222657306
 20
488.5662306701487
 30
0.0
 11
291.2130222657305
 21
488.5662306701487
 31
0.0
  0
SOLID
  5
171C
330
16F2
100
AcDbEntity
  8
BEM
 62
     0
100
AcDbTrace
 10
115.2130222657306
 20
489.7328973368153
 30
0.0
 11
115.2130222657306
 21
487.3995640034819
 31
0.0
 12
108.2130222657306
 22
488.5662306701487
 32
0.0
 13
108.2130222657306
 23
488.5662306701487
 33
0.0
  0
SOLID
  5
171D
330
16F2
100
AcDbEntity
  8
BEM
 62
     0
100
AcDbTrace
 10
291.2130222657305
 20
489.7328973368153
 30
0.0
 11
291.2130222657305
 21
487.3995640034819
 31
0.0
 12
298.2130222657305
 22
488.5662306701487
 32
0.0
 13
298.2130222657305
 23
488.5662306701487
 33
0.0
  0
MTEXT
  5
171E
330
16F2
100
AcDbEntity
  8
BEM
 62
     1
100
AcDbMText
 10
203.2130222657305
 20
495.0662306701486
 30
0.0
 40
7.0
 41
0.0
 71
     5
 72
     1
  1
\A1;%%c190
 73
     1
 44
1.0
  0
POINT
  5
171F
330
16F2
100
AcDbEntity
  8
DEFPOINTS
 62
     0
100
AcDbPoint
 10
108.2130222657306
 20
458.9168332271447
 30
0.0
  0
POINT
  5
1720
330
16F2
100
AcDbEntity
  8
DEFPOINTS
 62
     0
100
AcDbPoint
 10
298.2130222657305
 20
458.9168332271434
 30
0.0
  0
POINT
  5
1721
330
16F2
100
AcDbEntity
  8
DEFPOINTS
 62
     0
100
AcDbPoint
 10
298.2130222657305
 20
488.5662306701487
 30
0.0
  0
ENDBLK
  5
16FD
330
16F2
100
AcDbEntity
  8
0
100
AcDbBlockEnd
  0
ENDSEC
  0
SECTION
  2
ENTITIES
  0
LINE
  5
58
330
1E
100
AcDbEntity
  8
STEMPEL
100
AcDbLine
 10
484.0
 20
830.0000000000002
 30
0.0
 11
484.0
 21
470.0000000000001
 31
0.0
  0
LINE
  5
59
330
1E
100
AcDbEntity
  8
STEMPEL
100
AcDbLine
 10
484.0
 20
470.0000000000001
 30
0.0
 11
584.0
 21
470.0000000000001
 31
0.0
  0
LINE
  5
5A
330
1E
100
AcDbEntity
  8
STEMPEL
100
AcDbLine
 10
484.0000000000001
 20
566.0000000000002
 30
0.0
 11
584.0000000000001
 21
566.0
 31
0.0
  0
LINE
  5
5B
330
1E
100
AcDbEntity
  8
STEMPEL
100
AcDbLine
 10
484.0
 20
650.0
 30
0.0
 11
584.0
 21
650.0
 31
0.0
  0
LINE
  5
5C
330
1E
100
AcDbEntity
  8
STEMPEL
100
AcDbLine
 10
484.0000000000003
 20
752.0000000000002
 30
0.0
 11
554.0
 21
752.0000000000002
 31
0.0
  0
LINE
  5
5D
330
1E
100
AcDbEntity
  8
STEMPEL
100
AcDbLine
 10
564.0
 20
566.0
 30
0.0
 11
564.0
 21
470.0000000000001
 31
0.0
  0
LINE
  5
5E
330
1E
100
AcDbEntity
  8
STEMPEL
100
AcDbLine
 10
554.0
 20
830.0000000000002
 30
0.0
 11
554.0
 21
566.0
 31
0.0
  0
LINE
  5
5F
330
1E
100
AcDbEntity
  8
STEMPEL
100
AcDbLine
 10
514.0
 20
830.0000000000002
 30
0.0
 11
514.0
 21
566.0000000000002
 31
0.0
  0
LINE
  5
60
330
1E
100
AcDbEntity
  8
VOLL
100
AcDbLine
 10
484.0
 20
484.0000000000001
 30
0.0
 11
584.0
 21
484.0
 31
0.0
  0
LINE
  5
61
330
1E
100
AcDbEntity
  8
VOLL
100
AcDbLine
 10
484.0000000000001
 20
524.0000000000001
 30
0.0
 11
584.0000000000001
 21
524.0
 31
0.0
  0
LINE
  5
62
330
1E
100
AcDbEntity
  8
VOLL
100
AcDbLine
 10
484.0000000000001
 20
544.0000000000002
 30
0.0
 11
584.0000000000001
 21
544.0
 31
0.0
  0
LINE
  5
63
330
1E
100
AcDbEntity
  8
VOLL
100
AcDbLine
 10
514.0
 20
584.0000000000002
 30
0.0
 11
554.0
 21
584.0000000000002
 31
0.0
  0
LINE
  5
64
330
1E
100
AcDbEntity
  8
VOLL
100
AcDbLine
 10
484.0000000000002
 20
610.0000000000002
 30
0.0
 11
554.0
 21
610.0
 31
0.0
  0
LINE
  5
65
330
1E
100
AcDbEntity
  8
HILF
100
AcDbLine
 10
494.0
 20
470.0000000000001
 30
0.0
 11
494.0
 21
566.0000000000002
 31
0.0
  0
LINE
  5
66
330
1E
100
AcDbEntity
  8
HILF
100
AcDbLine
 10
504.0
 20
470.0000000000001
 30
0.0
 11
504.0
 21
566.0000000000002
 31
0.0
  0
LINE
  5
67
330
1E
100
AcDbEntity
  8
HILF
100
AcDbLine
 10
514.0
 20
470.0000000000001
 30
0.0
 11
514.0
 21
566.0000000000002
 31
0.0
  0
LINE
  5
68
330
1E
100
AcDbEntity
  8
HILF
100
AcDbLine
 10
524.0
 20
470.0000000000001
 30
0.0
 11
524.0
 21
566.0000000000002
 31
0.0
  0
LINE
  5
69
330
1E
100
AcDbEntity
  8
HILF
100
AcDbLine
 10
534.0
 20
470.0000000000001
 30
0.0
 11
534.0
 21
566.0000000000002
 31
0.0
  0
LINE
  5
6A
330
1E
100
AcDbEntity
  8
HILF
100
AcDbLine
 10
544.0
 20
470.0000000000001
 30
0.0
 11
544.0
 21
566.0000000000002
 31
0.0
  0
LINE
  5
6B
330
1E
100
AcDbEntity
  8
HILF
100
AcDbLine
 10
554.0
 20
470.0000000000001
 30
0.0
 11
554.0
 21
566.0000000000002
 31
0.0
  0
LINE
  5
6C
330
1E
100
AcDbEntity
  8
HILF
100
AcDbLine
 10
524.0
 20
566.0000000000002
 30
0.0
 11
524.0
 21
650.0
 31
0.0
  0
LINE
  5
6D
330
1E
100
AcDbEntity
  8
HILF
100
AcDbLine
 10
534.0
 20
566.0000000000002
 30
0.0
 11
534.0
 21
650.0
 31
0.0
  0
LINE
  5
6E
330
1E
100
AcDbEntity
  8
HILF
100
AcDbLine
 10
544.0
 20
566.0000000000002
 30
0.0
 11
544.0
 21
650.0
 31
0.0
  0
LINE
  5
6F
330
1E
100
AcDbEntity
  8
HILF
100
AcDbLine
 10
509.9624175243587
 20
654.7736801096948
 30
0.0
 11
509.9624175243587
 21
746.6297842514811
 31
0.0
  0
LINE
  5
70
330
1E
100
AcDbEntity
  8
HILF
100
AcDbLine
 10
524.0
 20
654.7736801096948
 30
0.0
 11
524.0
 21
746.6297842514811
 31
0.0
  0
LINE
  5
71
330
1E
100
AcDbEntity
  8
HILF
100
AcDbLine
 10
534.0
 20
654.7736801096948
 30
0.0
 11
534.0
 21
746.6297842514811
 31
0.0
  0
LINE
  5
72
330
1E
100
AcDbEntity
  8
HILF
100
AcDbLine
 10
544.0
 20
654.7736801096948
 30
0.0
 11
544.0
 21
746.6297842514811
 31
0.0
  0
LINE
  5
73
330
1E
100
AcDbEntity
  8
VOLL
100
AcDbLine
 10
534.0
 20
752.0000000000002
 30
0.0
 11
534.0
 21
830.0000000000002
 31
0.0
  0
LINE
  5
74
330
1E
100
AcDbEntity
  8
HILF
100
AcDbLine
 10
510.2201636304418
 20
756.7238616296995
 30
0.0
 11
510.2201636304418
 21
824.858883932673
 31
0.0
  0
LINE
  5
75
330
1E
100
AcDbEntity
  8
HILF
100
AcDbLine
 10
579.1060174197169
 20
654.7736801096948
 30
0.0
 11
579.1060174197169
 21
824.858883932673
 31
0.0
  0
TEXT
  5
76
330
1E
100
AcDbEntity
  8
TEXT
100
AcDbText
 10
575.3261810501587
 20
492.3998239263297
 30
0.0
 40
4.0
  1
Änderung
 50
90.0
 41
0.8
  7
GREEKS
 72
     1
 11
575.3261810501587
 21
503.1426810691868
 31
0.0
100
AcDbText
  0
TEXT
  5
78
330
1E
100
AcDbEntity
  8
TEXT
100
AcDbText
 10
491.5379104912911
 20
573.5163572150376
 30
0.0
 40
5.0
  1
Maßstab
 50
90.0
 41
0.8
  7
GREEKS
100
AcDbText
  0
TEXT
  5
79
330
1E
100
AcDbEntity
  8
TEXT
100
AcDbText
 10
491.4510671988221
 20
654.8779403809009
 30
0.0
 40
5.0
  1
Benennung
 50
90.0
 41
0.8
  7
GREEKS
100
AcDbText
  0
TEXT
  5
7A
330
1E
100
AcDbEntity
  8
TEXT
100
AcDbText
 10
491.6867965462863
 20
756.1787549576343
 30
0.0
 40
5.0
  1
Zeichnungs Nr.
 50
90.0
 41
0.8
  7
GREEKS
100
AcDbText
  0
TEXT
  5
7B
330
1E
100
AcDbEntity
  8
TEXT
100
AcDbText
 10
563.1543942980694
 20
654.7422383911359
 30
0.0
 40
5.0
  1
Bauvorhaben
 50
90.0
 41
0.8
  7
GREEKS
100
AcDbText
  0
TEXT
  5
7C
330
1E
100
AcDbEntity
  8
TEXT
100
AcDbText
 10
520.8188176290003
 20
756.7238616296995
 30
0.0
 40
5.0
  1
Ersatz für:
 50
90.0
 41
0.8
  7
GREEKS
100
AcDbText
  0
TEXT
  5
7D
330
1E
100
AcDbEntity
  8
TEXT
100
AcDbText
 10
580.3453415397281
 20
478.2664110704577
 30
0.0
 40
4.0
  1
Index
 50
180.0
 41
0.8
  7
GREEKS
100
AcDbText
  0
TEXT
  5
7E
330
1E
100
AcDbEntity
  8
TEXT
100
AcDbText
 10
575.3284373066019
 20
529.8990113186978
 30
0.0
 40
4.0
  1
Tag
 50
90.0
 41
0.8
  7
GREEKS
 72
     1
 11
575.3284373066019
 21
533.6323446520311
 31
0.0
100
AcDbText
  0
TEXT
  5
7F
330
1E
100
AcDbEntity
  8
TEXT
100
AcDbText
 10
575.4067578303359
 20
548.9795678138292
 30
0.0
 40
4.0
  1
Name
 50
90.0
 41
0.8
  7
GREEKS
 72
     1
 11
575.4067578303359
 21
555.3033773376387
 31
0.0
100
AcDbText
  0
TEXT
  5
80
330
1E
100
AcDbEntity
  8
TEXT
100
AcDbText
 10
520.6811949877008
 20
592.3311673153651
 30
0.0
 40
4.0
  1
Tag
 50
90.0
 41
0.8
  7
GREEKS
100
AcDbText
  0
TEXT
  5
81
330
1E
100
AcDbEntity
  8
TEXT
100
AcDbText
 10
520.6903890808478
 20
622.4626584226296
 30
0.0
 40
4.0
  1
Name
 50
90.0
 41
0.8
  7
GREEKS
100
AcDbText
  0
TEXT
  5
82
330
1E
100
AcDbEntity
  8
TEXT
100
AcDbText
 10
530.3700963038204
 20
567.5836127167615
 30
0.0
 40
4.0
  1
Gez.
 50
90.0
 41
0.8
  7
GREEKS
100
AcDbText
  0
TEXT
  5
83
330
1E
100
AcDbEntity
  8
TEXT
100
AcDbText
 10
540.3107370857163
 20
567.5515086571672
 30
0.0
 40
4.0
  1
Gepr.
 50
90.0
 41
0.8
  7
GREEKS
100
AcDbText
  0
TEXT
  5
84
330
1E
100
AcDbEntity
  8
TEXT
100
AcDbText
 10
550.470536103502
 20
567.6006777387303
 30
0.0
 40
4.0
  1
Norm.
 50
90.0
 41
0.8
  7
GREEKS
100
AcDbText
  0
TEXT
  5
85
330
1E
100
AcDbEntity
  8
TEXT
100
AcDbText
 10
541.925838221214
 20
757.2400861497007
 30
0.0
 40
5.0
  1
ersetzt durch:
 50
90.0
 41
0.8
  7
GREEKS
100
AcDbText
  0
TEXT
  5
86
330
1E
100
AcDbEntity
  8
TEXT
100
AcDbText
 10
521.0331740347627
 20
568.8693027807324
 30
0.0
 40
4.0
  1
2010
 50
90.0
 41
0.8
  7
GREEKS
100
AcDbText
  0
LINE
  5
87
330
1E
100
AcDbEntity
  8
HILF
100
AcDbLine
 10
594.0
 20
-0.0000000000000568
 30
0.0
 11
594.0
 21
840.0
 31
0.0
  0
LINE
  5
88
330
1E
100
AcDbEntity
  8
HILF
100
AcDbLine
 10
594.0
 20
840.0
 30
0.0
 11
0.0
 21
840.0
 31
0.0
  0
LINE
  5
89
330
1E
100
AcDbEntity
  8
HILF
100
AcDbLine
 10
0.0
 20
840.0
 30
0.0
 11
0.0
 21
0.0
 31
0.0
  0
LINE
  5
8B
330
1E
100
AcDbEntity
  8
STEMPEL
100
AcDbLine
 10
10.0
 20
830.0
 30
0.0
 11
10.0
 21
39.99999999999995
 31
0.0
  0
LINE
  5
8D
330
1E
100
AcDbEntity
  8
STEMPEL
100
AcDbLine
 10
584.0
 20
39.99999999999995
 30
0.0
 11
584.0
 21
830.0
 31
0.0
  0
LINE
  5
8E
330
1E
100
AcDbEntity
  8
STEMPEL
100
AcDbLine
 10
584.0
 20
830.0
 30
0.0
 11
10.0
 21
830.0
 31
0.0
  0
TEXT
  5
8F
330
1E
100
AcDbEntity
  8
TEXT
 62
     1
100
AcDbText
 10
506.6265692434746
 20
655.0390572473189
 30
0.0
 40
7.0
  1
Drainjet Kompletteinheit 
 50
90.0
 41
0.7
  7
GREEKS
100
AcDbText
  0
TEXT
  5
90
330
1E
100
AcDbEntity
  8
TEXT
 62
     1
100
AcDbText
 10
506.6265692434746
 20
767.7294755517469
 30
0.0
 40
7.0
  1
21123100W
 50
90.0
 41
0.8
  7
GREEKS
 72
     1
 11
506.6265692434746
 21
790.1294755517469
 31
0.0
100
AcDbText
  0
TEXT
  5
91
330
1E
100
AcDbEntity
  8
TEXT
100
AcDbText
 10
491.16010388621
 20
618.5090226415829
 30
0.0
 40
5.0
  1
Zul.Abw.
 50
90.0
 41
0.8
  7
GREEKS
100
AcDbText
  0
TEXT
  5
93
330
1E
100
AcDbEntity
  8
TEXT
100
AcDbText
 10
530.8491412387978
 20
590.7660475607107
 30
0.0
 40
4.0
  1
14.12.
 50
90.0
 41
0.8
  7
GREEKS
 72
     1
 11
530.8491412387978
 21
597.1660475607107
 31
0.0
100
AcDbText
  0
TEXT
  5
94
330
1E
100
AcDbEntity
  8
TEXT
100
AcDbText
 10
531.0570234483452
 20
624.0231753226609
 30
0.0
 40
4.0
  1
Koeh
 50
90.0
 41
0.8
  7
GREEKS
 72
     1
 11
531.0570234483452
 21
629.2803181798038
 31
0.0
100
AcDbText
  0
TEXT
  5
95
330
1E
100
AcDbEntity
  8
TEXT
100
AcDbText
 10
521.8997861689246
 20
654.3410940884991
 30
0.0
 40
5.0
  1
DN100 mit Wärmedämmung
 50
90.0
 41
0.8
  7
GREEKS
100
AcDbText
  0
TEXT
  5
96
330
1E
100
AcDbEntity
  8
TEXT
100
AcDbText
 10
531.6544091479096
 20
654.3410940884991
 30
0.0
 40
5.0
  1

 50
90.0
 41
0.8
  7
GREEKS
100
AcDbText
  0
TEXT
  5
97
330
1E
100
AcDbEntity
  8
TEXT
100
AcDbText
 10
541.4090266215394
 20
654.3410940884991
 30
0.0
 40
5.0
  1
EDV-Art.Nr. 21123.100X
 50
90.0
 41
0.8
  7
GREEKS
100
AcDbText
  0
TEXT
  5
98
330
1E
100
AcDbEntity
  8
TEXT
100
AcDbText
 10
550.6887237520849
 20
654.1676050109347
 30
0.0
 40
4.0
  1
21123100W.DWG
 50
90.0
 41
0.8
  7
GREEKS
100
AcDbText
  0
TEXT
  5
99
330
1E
100
AcDbEntity
  8
TEXT
 62
     1
100
AcDbText
 10
506.5292291158502
 20
582.703491203422
 30
0.0
 40
7.0
  1
1:2
 50
90.0
 41
0.8
  7
GREEKS
100
AcDbText
  0
TEXT
  5
9A
330
1E
100
AcDbEntity
  8
TEXT
100
AcDbText
 10
479.8856414948956
 20
470.0441139350127
 30
0.0
 40
5.0
  1
Erstellt mit AUTOCAD 2004
 50
90.0
 41
0.8
  7
GREEKS
100
AcDbText
  0
INSERT
  5
9B
330
1E
100
AcDbEntity
  8
HILF
100
AcDbBlockReference
  2
LORO
 10
557.0194069970104
 20
573.0624985962354
 30
0.0
 41
2.0
 42
2.0
 43
2.0
 50
90.0
  0
LINE
  5
9C
330
1E
100
AcDbEntity
  8
BEM
100
AcDbLine
 10
594.0
 20
455.9999999999999
 30
0.0
 11
584.0
 21
455.9999999999999
 31
0.0
  0
LINE
  5
13E
330
1E
100
AcDbEntity
  8
HILF
100
AcDbLine
 10
594.0
 20
-0.0000000000000568
 30
0.0
 11
0.0
 21
0.0
 31
0.0
  0
LINE
  5
13F
330
1E
100
AcDbEntity
  8
STEMPEL
100
AcDbLine
 10
584.0
 20
39.99999999999995
 30
0.0
 11
10.0
 21
39.99999999999995
 31
0.0
  0
LINE
  5
14A
330
1E
100
AcDbEntity
  8
HILF
100
AcDbLine
 10
297.0
 20
-0.0000000000000568
 30
0.0
 11
297.0
 21
39.99999999999995
 31
0.0
  0
TEXT
  5
15B
330
1E
100
AcDbEntity
  8
BEM
100
AcDbText
 10
583.8320989200114
 20
837.3022923857165
 30
0.0
 40
4.0
  1
Diese Zeichnung ist urheberrechtlich geschützt und bleibt unser Eigentum. Sie darf weder ganz noch teilweise verfielfältigt und nicht an Dritte weitergegeben werden.
 50
180.0
 41
0.8
  7
GREEKS
100
AcDbText
  0
LINE
  5
19C
330
1E
100
AcDbEntity
  8
BEM
100
AcDbLine
 10
0.0
 20
455.9999999999999
 30
0.0
 11
10.0
 21
455.9999999999999
 31
0.0
  0
TEXT
  5
663
330
1E
100
AcDbEntity
  8
TEXT
100
AcDbText
 10
504.5307583482736
 20
612.2898419893275
 30
0.0
 40
4.0
  1
DIN EN1124-3
 50
90.0
 41
0.8
  7
GREEKS
 72
     1
 11
504.5307583482736
 21
629.2803181798038
 31
0.0
100
AcDbText
  0
TEXT
  5
998
330
1E
100
AcDbEntity
  8
TEXT
 62
     1
100
AcDbText
 10
197.7896183724508
 20
542.3832455901031
 30
0.0
 40
7.0
  1
DN100
 50
90.0
 41
0.8
  7
GREEKS
 72
     1
 11
197.7896183724508
 21
554.7832455901031
 31
0.0
100
AcDbText
  0
TEXT
  5
B55
330
1E
100
AcDbEntity
  8
TEXT
 62
     1
100
AcDbText
 10
278.9905451242604
 20
796.0040756370903
 30
0.0
 40
7.0
  1
EDV-Art.Nr. 21000.000X
 41
0.8
  7
GREEKS
100
AcDbText
  0
LINE
  5
B56
330
1E
100
AcDbEntity
  8
TEXT
 62
     2
100
AcDbLine
 10
277.6391759760842
 20
806.5177545241942
 30
0.0
 11
385.942780700596
 21
806.5177545241942
 31
0.0
  0
TEXT
  5
B57
330
1E
100
AcDbEntity
  8
TEXT
 62
     1
100
AcDbText
 10
278.9905451242604
 20
809.6804161548257
 30
0.0
 40
7.0
  1
Drainjethaube
 41
0.8
  7
GREEKS
100
AcDbText
  0
LINE
  5
B58
330
1E
100
AcDbEntity
  8
TEXT
 62
     2
100
AcDbLine
 10
263.2538240398357
 20
753.1756027148203
 30
0.0
 11
277.6391759760842
 21
806.5177545241942
 31
0.0
  0
LINE
  5
B59
330
1E
100
AcDbEntity
  8
TEXT
 62
     2
100
AcDbLine
 10
259.6799218226382
 20
739.9232585617907
 30
0.0
 11
261.9709096375621
 21
748.4184431327824
 31
0.0
  0
LINE
  5
B5A
330
1E
100
AcDbEntity
  8
TEXT
 62
     2
100
AcDbLine
 10
256.3396961803198
 20
727.5374077268771
 30
0.0
 11
258.2888673076444
 21
734.7651059185495
 31
0.0
  0
TEXT
  5
B6D
330
1E
100
AcDbEntity
  8
TEXT
 62
     1
100
AcDbText
 10
359.034151909536
 20
577.1914619762936
 30
0.0
 40
7.0
  1
EDV-Art.Nr. 21905.100X
 41
0.8
100
AcDbText
  0
LINE
  5
B6E
330
1E
100
AcDbEntity
  8
TEXT
 62
     2
100
AcDbLine
 10
464.3773606059148
 20
586.4839587840927
 30
0.0
 11
358.4387960307816
 21
586.4839587840927
 31
0.0
  0
TEXT
  5
B6F
330
1E
100
AcDbEntity
  8
TEXT
 62
     1
100
AcDbText
 10
359.034151909536
 20
589.9677929450032
 30
0.0
 40
7.0
  1
Losflansch DN100
 41
0.8
100
AcDbText
  0
LINE
  5
B70
330
1E
100
AcDbEntity
  8
TEXT
 62
     2
100
AcDbLine
 10
358.4387960307816
 20
586.4839587840927
 30
0.0
 11
334.7102692623561
 21
621.9543775210546
 31
0.0
  0
LINE
  5
B74
330
1E
100
AcDbEntity
  8
TEXT
 62
     2
100
AcDbLine
 10
341.56988059094
 20
549.4242558697703
 30
0.0
 11
289.1411163754282
 21
613.6109899647041
 31
0.0
  0
TEXT
  5
B76
330
1E
100
AcDbEntity
  8
TEXT
 62
     1
100
AcDbText
 10
335.9034952369845
 20
521.2407102236701
 30
0.0
 40
7.0
  1
Ablaufkörper DN100
 41
0.8
  7
GREEKS
100
AcDbText
  0
LINE
  5
B77
330
1E
100
AcDbEntity
  8
TEXT
 62
     2
100
AcDbLine
 10
334.8228088381473
 20
517.6279419514763
 30
0.0
 11
254.1242349355163
 21
531.6504424042792
 31
0.0
  0
LINE
  5
B78
330
1E
100
AcDbEntity
  8
TEXT
 62
     2
100
AcDbLine
 10
440.9467034458251
 20
517.6279419514766
 30
0.0
 11
334.8228088381473
 21
517.6279419514763
 31
0.0
  0
TEXT
  5
B79
330
1E
100
AcDbEntity
  8
TEXT
 62
     1
100
AcDbText
 10
335.7229399428323
 20
508.1929380766909
 30
0.0
 40
7.0
  1
EDV-Art.Nr. 21981.100X
 41
0.8
  7
GREEKS
100
AcDbText
  0
TEXT
  5
BB1
330
1E
100
AcDbEntity
  8
TEXT
 62
     1
100
AcDbText
 10
348.2957072912852
 20
552.4107963618233
 30
0.0
 40
7.0
  1
Kompressionsdichtung
 41
0.8
100
AcDbText
  0
TEXT
  5
BB2
330
1E
100
AcDbEntity
  8
TEXT
 62
     1
100
AcDbText
 10
348.6516662941219
 20
538.8727830567749
 30
0.0
 40
7.0
  1
EDV-Art.Nr. 21810.125X
 41
0.8
100
AcDbText
  0
LINE
  5
BB3
330
1E
100
AcDbEntity
  8
TEXT
 62
     2
100
AcDbLine
 10
341.56988059094
 20
549.4242558697703
 30
0.0
 11
453.0996219253428
 21
549.4242558697703
 31
0.0
  0
LINE
  5
DCE
330
1E
100
AcDbEntity
  8
STEMPEL
100
AcDbLine
 10
59.75566295285034
 20
611.9168332271449
 30
0.0
 11
346.670381578613
 21
611.9168332271438
 31
0.0
  0
LINE
  5
DD6
330
1E
100
AcDbEntity
  8
STEMPEL
100
AcDbLine
 10
183.1484772252587
 20
644.5845765615443
 30
0.0
 11
191.4291764040015
 21
644.5845765615443
 31
0.0
  0
LINE
  5
DD7
330
1E
100
AcDbEntity
  8
STEMPEL
100
AcDbLine
 10
181.3466074978856
 20
640.5168332271443
 30
0.0
 11
193.2888268148846
 21
640.5168332271442
 31
0.0
  0
ARC
  5
DD8
330
1E
100
AcDbEntity
  8
STEMPEL
100
AcDbCircle
 10
187.2888268148846
 20
636.3034589679443
 30
0.0
 40
8.281117593600001
100
AcDbArc
 50
70.52782738138933
 51
109.4721726186137
  0
LINE
  5
DD9
330
1E
100
AcDbEntity
  8
STEMPEL
100
AcDbLine
 10
193.2888268148848
 20
638.916833227144
 30
0.0
 11
181.2888268148846
 21
638.9168332271444
 31
0.0
  0
LINE
  5
DDA
330
1E
100
AcDbEntity
  8
STEMPEL
100
AcDbLine
 10
73.21302226573095
 20
637.9168332271468
 30
0.0
 11
322.213022265731
 21
637.9168332271441
 31
0.0
  0
ARC
  5
DDB
330
1E
100
AcDbEntity
  8
STEMPEL
100
AcDbCircle
 10
185.4063844380803
 20
729.4168332271436
 30
0.0
 40
1.5
100
AcDbArc
 50
270.0
 51
330.0000000000076
  0
ARC
  5
DDC
330
1E
100
AcDbEntity
  8
STEMPEL
100
AcDbCircle
 10
185.4063844380803
 20
729.4168332271436
 30
0.0
 40
2.5
100
AcDbArc
 50
270.0
 51
330.0000000000076
  0
ARC
  5
DDD
330
1E
100
AcDbEntity
  8
STEMPEL
100
AcDbCircle
 10
188.004460649434
 20
727.9168332271435
 30
0.0
 40
1.5
100
AcDbArc
 50
90.0
 51
150.0000000000075
  0
LINE
  5
DE0
330
1E
100
AcDbEntity
  8
STEMPEL
100
AcDbLine
 10
179.7888268148848
 20
637.9168332271439
 30
0.0
 11
194.7888268148848
 21
637.9168332271439
 31
0.0
  0
LINE
  5
DE3
330
1E
100
AcDbEntity
  8
STEMPEL
100
AcDbLine
 10
61.21302226573118
 20
623.9168332271439
 30
0.0
 11
312.5551650411579
 21
623.9168332271441
 31
0.0
  0
LINE
  5
DE4
330
1E
100
AcDbEntity
  8
STEMPEL
100
AcDbLine
 10
345.2130222657312
 20
617.916833227144
 30
0.0
 11
96.21302226573119
 21
617.9168332271437
 31
0.0
  0
DIMENSION
  5
DE5
330
1E
100
AcDbEntity
  8
BEM
100
AcDbDimension
  2
*D2
 10
313.2130222657314
 20
737.2560503739343
 30
0.0
 11
203.2130222657313
 21
743.7560503739343
 31
0.0
 70
    32
  1
%%c<>
 71
     5
 42
220.0000000000002
  3
Standard
100
AcDbAlignedDimension
 13
93.21302226573118
 23
707.9167752598285
 33
0.0
 14
313.2130222657314
 24
707.9167752598285
 34
0.0
100
AcDbRotatedDimension
1001
ACAD
1000
DSTYLE
1002
{
1070
    40
1040
2.0
1070
    41
1040
3.5
1070
    42
1040
1.0
1070
    43
1040
7.0
1070
    44
1040
1.0
1070
    73
1070
     0
1070
    74
1070
     0
1070
    77
1070
     1
1070
    78
1070
     8
1070
    79
1070
     2
1070
   140
1040
3.5
1070
   141
1040
1.5
1070
   146
1040
0.5142857142857144
1070
   147
1040
1.5
1070
   172
1070
     1
1070
   178
1070
     1
1070
   179
1070
     2
1070
   271
1070
     2
1070
   272
1070
     2
1070
   284
1070
     8
1070
   285
1070
     8
1070
   286
1070
     8
1002
}
  0
LINE
  5
DE7
330
1E
100
AcDbEntity
  8
HILF
100
AcDbLine
 10
305.5393553232618
 20
710.9168332271467
 30
0.0
 11
100.3866892082004
 21
710.9168332271465
 31
0.0
  0
LINE
  5
DE8
330
1E
100
AcDbEntity
  8
STEMPEL
100
AcDbLine
 10
123.2130222657312
 20
726.9168332271431
 30
0.0
 11
283.2130222657314
 21
726.916833227144
 31
0.0
  0
LWPOLYLINE
  5
DE9
330
1E
100
AcDbEntity
  8
STEMPEL
100
AcDbPolyline
 90
       18
 70
   128
 43
0.0
 10
-181.5835501614443
 20
650.4168332271421
 10
-181.7101594076207
 20
651.7949546107668
 10
-182.0856756201223
 20
653.1261457235464
 10
-182.6973110447147
 20
654.3650744487231
 10
-183.5242371705891
 20
655.4695505544923
 10
-184.5382940203173
 20
656.4019624317452
 10
-185.7049491041091
 20
657.1305579123065
 10
-186.9844733823343
 20
657.6305255509399
 10
-188.3332941903185
 20
657.8848395493564
 10
-189.7054790531777
 20
657.8848395493564
 10
-191.0542998611618
 20
657.6305255509399
 10
-192.3338241393871
 20
657.1305579123065
 10
-193.5004792231788
 20
656.4019624317452
 10
-194.5145360729071
 20
655.4695505544923
 10
-195.3414621987815
 20
654.3650744487231
 10
-195.9530976233738
 20
653.1261457235464
 10
-196.3286138358755
 20
651.7949546107668
 10
-196.4552230820519
 20
650.4168332271421
210
0.0
220
0.0
230
-1.0
  0
LINE
  5
DEA
330
1E
100
AcDbEntity
  8
STEMPEL
100
AcDbLine
 10
180.9969756391872
 20
638.916833227144
 30
0.0
 11
195.7378151101086
 21
638.916833227144
 31
0.0
  0
LINE
  5
DEB
330
1E
100
AcDbEntity
  8
STEMPEL
100
AcDbLine
 10
180.5494606494341
 20
729.4168332271436
 30
0.0
 11
226.0544606494339
 21
729.4168332271436
 31
0.0
  0
HATCH
  5
DEC
330
1E
100
AcDbEntity
  8
SCHRAFF
  6
Continuous
100
AcDbHatch
 10
0.0
 20
0.0
 30
0.0
210
0.0
220
0.0
230
1.0
  2
_U
 70
     0
 71
     0
 91
        4
 92
        7
 72
     1
 73
     1
 93
       44
 10
94.21302226573127
 20
707.9167752598285
 42
-0.266750395150088
 10
96.69366869760413
 20
712.2356706740247
 42
0.0
 10
120.6725225905451
 20
726.2233238402041
 42
-0.134038508411906
 10
123.2130222657311
 20
726.9168332271431
 42
0.0
 10
177.9513844380805
 20
726.9168332271435
 42
0.2679491924311371
 10
180.1164479475417
 20
728.1668332271435
 42
-0.2679491924311204
 10
180.5494606494339
 20
728.4168332271435
 42
0.0
 10
180.7494606494341
 20
728.4168332271435
 42
-0.2679491924312574
 10
181.1824733513266
 20
728.1668332271437
 42
0.2679491924311556
 10
183.3475368607878
 20
726.9168332271435
 42
0.0
 10
185.4063844380802
 20
726.9168332271435
 42
0.2679491924311518
 10
187.5714479475415
 20
728.1668332271435
 42
-0.2679491924310975
 10
188.0044606494337
 20
728.4168332271435
 42
0.0
 10
188.204460649434
 20
728.4168332271435
 42
-0.2679491924309788
 10
188.6374733513259
 20
728.1668332271435
 42
0.2679491924311251
 10
190.802536860787
 20
726.9168332271435
 42
0.0
 10
197.2563844380812
 20
726.9168332271435
 42
0.2679491924310973
 10
199.4214479475421
 20
728.1668332271433
 42
-0.2679491924312862
 10
199.8544606494344
 20
728.4168332271435
 42
0.0
 10
203.2130222657313
 20
728.4168332271438
 42
0.0
 10
203.2130222657313
 20
729.4168332271436
 42
0.0
 10
199.8544606494339
 20
729.4168332271436
 42
0.2679491924310756
 10
198.5554225437575
 20
728.6668332271435
 42
-0.2679491924311246
 10
197.2563844380808
 20
727.9168332271435
 42
0.0
 10
190.8025368607869
 20
727.9168332271435
 42
-0.2679491924310962
 10
189.5034987551104
 20
728.6668332271435
 42
0.2859076546238575
 10
188.1044606494338
 20
729.4134961818531
 42
0.2859076546238756
 10
186.7054225437571
 20
728.6668332271435
 42
-0.2679491924311237
 10
185.4063844380804
 20
727.9168332271435
 42
0.0
 10
183.3475368607879
 20
727.9168332271435
 42
-0.2679491924311723
 10
182.048498755111
 20
728.6668332271435
 42
0.2859076546238861
 10
180.6494606494342
 20
729.4134961818531
 42
0.2859076546239122
 10
179.2504225437573
 20
728.6668332271435
 42
-0.2679491924311319
 10
177.9513844380806
 20
727.9168332271435
 42
0.0
 10
123.2130222657311
 20
727.9168332271431
 42
0.1316524975837886
 10
120.2130222658047
 20
727.1129856498926
 42
0.0
 10
96.18032764403388
 20
713.0939137871934
 42
0.2662608607109036
 10
93.21302226573115
 20
707.9167752598285
 42
0.0
 10
93.21302226573115
 20
643.9168332271444
 42
-0.4142135623730909
 10
88.21302226573129
 20
638.9168332271444
 42
0.0
 10
73.21302226573101
 20
638.916833227144
 42
0.0
 10
73.21302226573092
 20
637.916833227144
 42
0.0
 10
88.21302226573127
 20
637.916833227144
 42
0.4142135623730952
 10
94.21302226573127
 20
643.916833227144
 42
0.0
 97
        0
 92
        7
 72
     1
 73
     1
 93
       31
 10
263.3553666112202
 20
727.916833227144
 42
0.0
 10
228.652536860788
 20
727.9168332271435
 42
-0.2679491924311948
 10
227.353498755111
 20
728.6668332271435
 42
0.2859076546239628
 10
225.9544606494337
 20
729.4134961818531
 42
0.2859076546237491
 10
224.5554225437577
 20
728.6668332271435
 42
-0.2679491924311143
 10
223.2563844380811
 20
727.9168332271435
 42
0.0
 10
216.8025368607875
 20
727.9168332271435
 42
-0.2679491924311449
 10
215.5034987551108
 20
728.6668332271435
 42
0.2859076546238161
 10
214.1044606494344
 20
729.4134961818533
 42
0.3607372083888945
 10
212.5520918946061
 20
728.2918332271435
 42
-0.3419987131196436
 10
212.0679689763302
 20
727.9168332271435
 42
0.0
 10
211.8792197837308
 20
727.9168332271435
 42
-0.3419987131195289
 10
211.3950968654551
 20
728.2918332271435
 42
0.3419987131196487
 10
209.9427281106274
 20
729.4168332271436
 42
0.0
 10
203.2130222657313
 20
729.4168332271436
 42
0.0
 10
203.2130222657313
 20
728.4168332271435
 42
0.0
 10
209.9427281106275
 20
728.4168332271435
 42
-0.3419987131195064
 10
210.4268510289031
 20
728.0418332271436
 42
0.3596757619904947
 10
211.9735943800304
 20
726.9198050258149
 42
0.3596757619905158
 10
213.5203377311579
 20
728.0418332271436
 42
-0.3419987131196715
 10
214.0044606494338
 20
728.4168332271435
 42
0.0
 10
214.2044606494341
 20
728.4168332271435
 42
-0.2679491924311643
 10
214.6374733513263
 20
728.1668332271435
 42
0.2679491924311343
 10
216.8025368607875
 20
726.9168332271435
 42
0.0
 10
223.2563844380816
 20
726.9168332271435
 42
0.2679491924310781
 10
225.4214479475423
 20
728.1668332271433
 42
-0.2679491924312612
 10
225.8544606494347
 20
728.4168332271435
 42
0.0
 10
226.0544606494339
 20
728.4168332271435
 42
-0.2679491924313018
 10
226.4874733513266
 20
728.1668332271437
 42
0.2679491924311476
 10
228.6525368607879
 20
726.9168332271435
 42
0.0
 10
263.8560699374142
 20
726.916833227144
 42
0.0
 97
        0
 92
        7
 72
     1
 73
     1
 93
       16
 10
283.2130222657314
 20
727.916833227144
 42
0.0
 10
263.3553666112204
 20
727.916833227144
 42
0.0
 10
263.8560699374142
 20
726.9168332271438
 42
0.0
 10
283.2130222657314
 20
726.916833227144
 42
-0.1340385084118612
 10
285.7535219409164
 20
726.2233238402047
 42
0.0
 10
309.7323758338585
 20
712.2356706740247
 42
-0.2667503951500871
 10
312.2130222657313
 20
707.9167752598285
 42
0.0
 10
312.2130222657313
 20
643.9168332271444
 42
0.4142135623731166
 10
318.2130222657313
 20
637.916833227144
 42
0.0
 10
321.2130222657312
 20
637.916833227144
 42
0.0
 10
321.2130222657312
 20
638.9168332271442
 42
0.0
 10
318.2130222657311
 20
638.9168332271444
 42
-0.4142135623730784
 10
313.2130222657314
 20
643.9168332271444
 42
0.0
 10
313.2130222657314
 20
707.9167752598285
 42
0.2662608607107455
 10
310.2457168874317
 20
713.0939137871917
 42
0.0
 10
286.2130222656547
 20
727.1129856498944
 42
0.131652497583648
 97
        0
 92
        7
 72
     0
 73
     1
 93
        4
 10
333.2130222657312
 20
638.916833227144
 10
329.2130222657312
 20
638.916833227144
 10
329.2130222657312
 20
637.916833227144
 10
333.2130222657312
 20
637.916833227144
 97
        0
 75
     0
 76
     0
 52
135.0
 41
2.0
 77
     0
 78
     1
 53
135.0
 43
-45.15646637084046
 44
132.5755492068569
 45
-1.414213562373095
 46
-1.414213562373094
 79
     0
 47
0.4197568243763778
 98
        4
 10
93.9084292723305
 20
676.9923211071118
 10
248.0758329901546
 20
727.3631412814511
 10
280.4215811483177
 20
727.3631412814511
 10
330.4104674942578
 20
638.3746929521914
  0
LINE
  5
DF7
330
1E
100
AcDbEntity
  8
STEMPEL
100
AcDbLine
 10
61.21302226573117
 20
617.9168332271439
 30
0.0
 11
86.21302226573119
 21
617.9168332271437
 31
0.0
  0
LINE
  5
DF8
330
1E
100
AcDbEntity
  8
STEMPEL
100
AcDbLine
 10
86.21302226573119
 20
617.9168332271437
 30
0.0
 11
61.21302226573117
 21
617.9168332271439
 31
0.0
  0
DIMENSION
  5
DF9
330
1E
100
AcDbEntity
  8
BEM
100
AcDbDimension
  2
*D3
 10
31.44075979157572
 20
727.9168332271431
 30
0.0
 11
24.9407597915756
 21
672.9168332271435
 31
0.0
 70
    32
 71
     5
 42
109.9999999999992
  3
Standard
100
AcDbAlignedDimension
 13
61.21302226573117
 23
617.9168332271439
 33
0.0
 14
123.2130222657312
 24
727.9168332271431
 34
0.0
 50
90.0
100
AcDbRotatedDimension
1001
ACAD
1000
DSTYLE
1002
{
1070
    40
1040
2.0
1070
    41
1040
3.5
1070
    42
1040
1.0
1070
    43
1040
7.0
1070
    44
1040
1.0
1070
    73
1070
     0
1070
    74
1070
     0
1070
    77
1070
     1
1070
    78
1070
     8
1070
    79
1070
     2
1070
   140
1040
3.5
1070
   141
1040
1.5
1070
   146
1040
0.5142857142857144
1070
   147
1040
1.5
1070
   172
1070
     1
1070
   178
1070
     1
1070
   179
1070
     2
1070
   271
1070
     2
1070
   272
1070
     2
1070
   284
1070
     8
1070
   285
1070
     8
1070
   286
1070
     8
1002
}
  0
LINE
  5
DFD
330
1E
100
AcDbEntity
  8
STEMPEL
100
AcDbLine
 10
93.21302226573118
 20
707.9167752598285
 30
0.0
 11
93.21302226573118
 21
643.9168332271444
 31
0.0
  0
LINE
  5
DFE
330
1E
100
AcDbEntity
  8
STEMPEL
100
AcDbLine
 10
94.2130222657313
 20
707.9167752598285
 30
0.0
 11
94.2130222657313
 21
643.9168332271444
 31
0.0
  0
LWPOLYLINE
  5
E00
330
1E
100
AcDbEntity
  8
STEMPEL
100
AcDbPolyline
 90
       18
 70
   128
 43
0.0
 10
-112.3767473226599
 20
650.4168332271421
 10
-112.45448722392
 20
651.7949546107668
 10
-112.6850595886019
 20
653.1261457235464
 10
-113.060612551367
 20
654.3650744487231
 10
-113.5683571064947
 20
655.4695505544923
 10
-114.1910026221327
 20
656.4019624317452
 10
-114.9073456520267
 20
657.1305579123065
 10
-115.6929919934526
 20
657.6305255509399
 10
-116.521187402532
 20
657.8848395493564
 10
-117.3637286779197
 20
657.8848395493564
 10
-118.1919240869991
 20
657.6305255509399
 10
-118.9775704284251
 20
657.1305579123065
 10
-119.6939134583191
 20
656.4019624317452
 10
-120.316558973957
 20
655.4695505544923
 10
-120.8243035290847
 20
654.3650744487231
 10
-121.1998564918498
 20
653.1261457235464
 10
-121.4304288565317
 20
651.7949546107668
 10
-121.5081687577918
 20
650.4168332271421
210
0.0
220
0.0
230
-1.0
  0
ARC
  5
E01
330
1E
100
AcDbEntity
  8
STEMPEL
100
AcDbCircle
 10
121.2130222657312
 20
620.9168332271438
 30
0.0
 40
3.0
100
AcDbArc
 50
270.0
 51
90.0
  0
LWPOLYLINE
  5
E02
330
1E
100
AcDbEntity
  8
STEMPEL
100
AcDbPolyline
 90
       10
 70
   128
 43
0.0
 10
117.1444625831858
 20
637.916833227144
 10
117.90221220828
 20
638.0079867090707
 10
118.6369379944555
 20
638.2786775024285
 10
119.3263156704887
 20
638.7206808044372
 10
119.949398844535
 20
639.3205665684302
 10
120.4872554496465
 20
640.0601075690249
 10
120.9235429850455
 20
640.9168332271442
 10
121.2450050747407
 20
641.8647123671901
 10
121.4418742558047
 20
642.8749441611428
 10
121.5081687577916
 20
643.9168332271444
  0
LINE
  5
E03
330
1E
100
AcDbEntity
  8
STEMPEL
100
AcDbLine
 10
95.21302226573117
 20
636.9168332271446
 30
0.0
 11
87.21302226573119
 21
636.9168332271446
 31
0.0
  0
LINE
  5
E04
330
1E
100
AcDbEntity
  8
STEMPEL
100
AcDbLine
 10
86.21302226573119
 20
635.9168332271447
 30
0.0
 11
96.21302226573119
 21
635.9168332271447
 31
0.0
  0
ARC
  5
E09
330
1E
100
AcDbEntity
  8
STEMPEL
100
AcDbCircle
 10
88.21302226573129
 20
643.9168332271444
 30
0.0
 40
5.0
100
AcDbArc
 50
270.0000000000017
 51
0.0
  0
ARC
  5
E0A
330
1E
100
AcDbEntity
  8
STEMPEL
100
AcDbCircle
 10
88.21302226573129
 20
643.9168332271444
 30
0.0
 40
6.0
100
AcDbArc
 50
270.0000000000017
 51
0.0
  0
ARC
  5
E0D
330
1E
100
AcDbEntity
  8
STEMPEL
100
AcDbCircle
 10
61.21302226573118
 20
620.9168332271438
 30
0.0
 40
3.0
100
AcDbArc
 50
90.0
 51
270.0
  0
LINE
  5
E0E
330
1E
100
AcDbEntity
  8
STEMPEL
100
AcDbLine
 10
84.21302226573118
 20
623.9168332271438
 30
0.0
 11
84.21302226573118
 21
617.9168332271437
 31
0.0
  0
LINE
  5
E0F
330
1E
100
AcDbEntity
  8
STEMPEL
100
AcDbLine
 10
86.21302226573119
 20
623.9168332271439
 30
0.0
 11
86.21302226573119
 21
611.9168332271446
 31
0.0
  0
LINE
  5
E10
330
1E
100
AcDbEntity
  8
HILF
100
AcDbLine
 10
87.21302226573119
 20
623.9168332271438
 30
0.0
 11
87.21302226573119
 21
611.9168332271446
 31
0.0
  0
LINE
  5
E12
330
1E
100
AcDbEntity
  8
STEMPEL
100
AcDbLine
 10
73.21302226573118
 20
638.916833227144
 30
0.0
 11
88.21302226573141
 21
638.9168332271444
 31
0.0
  0
LINE
  5
E13
330
1E
100
AcDbEntity
  8
STEMPEL
100
AcDbLine
 10
73.21302226573107
 20
638.9168332271442
 30
0.0
 11
73.21302226573095
 21
637.916833227144
 31
0.0
  0
LINE
  5
E19
330
1E
100
AcDbEntity
  8
HILF
100
AcDbLine
 10
87.21302226573119
 20
636.9168332271446
 30
0.0
 11
87.21302226573117
 21
633.9168332271439
 31
0.0
  0
LINE
  5
E1A
330
1E
100
AcDbEntity
  8
STEMPEL
100
AcDbLine
 10
86.21302226573119
 20
635.9168332271446
 30
0.0
 11
86.21302226573119
 21
633.9168332271439
 31
0.0
  0
LINE
  5
E1B
330
1E
100
AcDbEntity
  8
STEMPEL
100
AcDbLine
 10
87.21302226573119
 20
636.9168332271446
 30
0.0
 11
86.21302226573119
 21
635.9168332271446
 31
0.0
  0
LWPOLYLINE
  5
E1C
330
1E
100
AcDbEntity
  8
STEMPEL
100
AcDbPolyline
 90
       10
 70
   128
 43
0.0
 10
108.0130411480539
 20
637.916833227144
 10
108.7707907731481
 20
638.0079867090707
 10
109.5055165593237
 20
638.2786775024285
 10
110.1948942353568
 20
638.7206808044372
 10
110.8179774094031
 20
639.3205665684302
 10
111.3558340145146
 20
640.0601075690249
 10
111.7921215499136
 20
640.9168332271442
 10
112.1135836396089
 20
641.8647123671901
 10
112.3104528206729
 20
642.8749441611428
 10
112.3767473226597
 20
643.9168332271444
  0
LWPOLYLINE
  5
E1D
330
1E
100
AcDbEntity
  8
STEMPEL
100
AcDbPolyline
 90
       10
 70
   128
 43
0.0
 10
100.8035836124041
 20
637.916833227144
 10
101.6397628872457
 20
638.0079867090707
 10
102.4505352779483
 20
638.2786775024285
 10
103.2112658756911
 20
638.7206808044372
 10
103.8988402662099
 20
639.3205665684302
 10
104.4923668495783
 20
640.0601075690249
 10
104.9738116208995
 20
640.9168332271442
 10
105.3285461244199
 20
641.8647123671901
 10
105.5457919317541
 20
642.8749441611428
 10
105.618948138978
 20
643.9168332271444
  0
LWPOLYLINE
  5
E1E
330
1E
100
AcDbEntity
  8
STEMPEL
100
AcDbPolyline
 90
       10
 70
   128
 43
0.0
 10
95.06333212692638
 20
637.916833227144
 10
95.89951140176797
 20
638.0079867090707
 10
96.71028379247056
 20
638.2786775024285
 10
97.47101439021342
 20
638.7206808044372
 10
98.15858878073218
 20
639.3205665684302
 10
98.75211536410061
 20
640.0601075690249
 10
99.23356013542182
 20
640.9168332271442
 10
99.58829463894218
 20
641.8647123671901
 10
99.80554044627636
 20
642.8749441611428
 10
99.87869665350032
 20
643.9168332271444
  0
LWPOLYLINE
  5
E1F
330
1E
100
AcDbEntity
  8
STEMPEL
100
AcDbPolyline
 90
        7
 70
   128
 43
0.0
 10
92.76636449285829
 20
638.9168332271444
 10
93.44306636793575
 20
639.5264339550035
 10
94.04261579156965
 20
640.253993038915
 10
94.54890446471935
 20
641.0799629005953
 10
94.94832975676487
 20
641.9821519257984
 10
95.23016017202778
 20
642.9363206939922
 10
95.38682367652924
 20
643.9168332271444
  0
LWPOLYLINE
  5
E20
330
1E
100
AcDbEntity
  8
STEMPEL
100
AcDbPolyline
 90
        7
 70
   128
 43
0.0
 10
102.5393221698021
 20
638.916833227144
 10
103.1594126928665
 20
639.5261711289847
 10
103.6912328396499
 20
640.2536014022741
 10
104.1204786393811
 20
641.0795588962177
 10
104.4356049871785
 20
641.98182844668
 10
104.6281361641443
 20
642.9361423809232
 10
104.6928938024707
 20
643.9168332271444
  0
LWPOLYLINE
  5
E21
330
1E
100
AcDbEntity
  8
STEMPEL
100
AcDbPolyline
 90
        7
 70
   128
 43
0.0
 10
118.7613710424526
 20
638.916833227144
 10
119.3233000157167
 20
639.5261711289847
 10
119.8052379553039
 20
640.2536014022741
 10
120.1942225350537
 20
641.0795588962177
 10
120.4797915261602
 20
641.98182844668
 10
120.6542641919561
 20
642.9361423809232
 10
120.7129478709711
 20
643.9168332271444
  0
LINE
  5
E22
330
1E
100
AcDbEntity
  8
MITTEL
100
AcDbLine
 10
91.21302226573119
 20
641.9168332271445
 30
0.0
 11
91.21302226573119
 21
611.9168332271446
 31
0.0
  0
LWPOLYLINE
  5
E23
330
1E
100
AcDbEntity
  8
STEMPEL
100
AcDbPolyline
 90
       10
 70
   128
 43
0.0
 10
90.87461365903616
 20
637.916833227144
 10
91.73268665530892
 20
637.9829604417166
 10
92.58549885493115
 20
638.2355141914468
 10
93.40625716184817
 20
638.6665599077644
 10
94.16917552824711
 20
639.2625552782044
 10
94.85028508374634
 20
640.0047757099248
 10
95.42818717369206
 20
640.8699026067225
 10
95.88472564809828
 20
641.8307559774384
 10
96.20555727969586
 20
642.8571483591506
 10
96.38060239006698
 20
643.9168332271433
  0
LWPOLYLINE
  5
E24
330
1E
100
AcDbEntity
  8
STEMPEL
100
AcDbPolyline
 90
       10
 70
   128
 43
0.0
 10
88.91672077573568
 20
637.9168332271452
 10
89.77479377200845
 20
637.9829604417177
 10
90.62760597163068
 20
638.2355141914479
 10
91.4483642785477
 20
638.6665599077655
 10
92.21128264494664
 20
639.2625552782053
 10
92.89239220044587
 20
640.0047757099262
 10
93.47029429039158
 20
640.8699026067235
 10
93.92683276479781
 20
641.8307559774396
 10
94.24766439639538
 20
642.8571483591517
 10
94.42270950676649
 20
643.9168332271444
  0
LINE
  5
E25
330
1E
100
AcDbEntity
  8
STEMPEL
100
AcDbLine
 10
98.21302226573118
 20
623.9168332271439
 30
0.0
 11
98.21302226573118
 21
617.9168332271437
 31
0.0
  0
LINE
  5
E26
330
1E
100
AcDbEntity
  8
HILF
100
AcDbLine
 10
95.21302226573117
 20
623.9168332271438
 30
0.0
 11
95.21302226573117
 21
611.9168332271446
 31
0.0
  0
LINE
  5
E27
330
1E
100
AcDbEntity
  8
STEMPEL
100
AcDbLine
 10
96.21302226573119
 20
623.9168332271439
 30
0.0
 11
96.21302226573119
 21
611.9168332271446
 31
0.0
  0
LINE
  5
E2C
330
1E
100
AcDbEntity
  8
STEMPEL
100
AcDbLine
 10
91.80225032309591
 20
638.916833227144
 30
0.0
 11
92.76636449285854
 21
638.916833227144
 31
0.0
  0
LINE
  5
E2D
330
1E
100
AcDbEntity
  8
HILF
100
AcDbLine
 10
95.21302226573117
 20
636.9168332271446
 30
0.0
 11
95.21302226573117
 21
633.9168332271439
 31
0.0
  0
LINE
  5
E2E
330
1E
100
AcDbEntity
  8
STEMPEL
100
AcDbLine
 10
96.21302226573119
 20
635.9168332271446
 30
0.0
 11
96.21302226573119
 21
633.9168332271439
 31
0.0
  0
LINE
  5
E2F
330
1E
100
AcDbEntity
  8
STEMPEL
100
AcDbLine
 10
96.21302226573119
 20
635.9168332271446
 30
0.0
 11
95.21302226573117
 21
636.9168332271446
 31
0.0
  0
LINE
  5
E32
330
1E
100
AcDbEntity
  8
STEMPEL
100
AcDbLine
 10
97.72512502083181
 20
638.916833227144
 30
0.0
 11
102.5393221698032
 21
638.916833227144
 31
0.0
  0
LINE
  5
E33
330
1E
100
AcDbEntity
  8
STEMPEL
100
AcDbLine
 10
110.4251704941414
 20
638.916833227144
 30
0.0
 11
118.7613710424533
 21
638.916833227144
 31
0.0
  0
LWPOLYLINE
  5
E34
330
1E
100
AcDbEntity
  8
STEMPEL
100
AcDbPolyline
 90
       18
 70
   128
 43
0.0
 10
-99.87869665350032
 20
650.4168332271421
 10
-99.92756599841662
 20
651.7949546107668
 10
-100.0725098462367
 20
653.1261457235464
 10
-100.3085923080639
 20
654.3650744487231
 10
-100.6277738788106
 20
655.4695505544923
 10
-101.0191852129009
 20
656.4019624317452
 10
-101.4694972667989
 20
657.1305579123065
 10
-101.9633752035983
 20
657.6305255509399
 10
-102.4840006025033
 20
657.8848395493564
 10
-103.0136441899751
 20
657.8848395493564
 10
-103.53426958888
 20
657.6305255509399
 10
-104.0281475256795
 20
657.1305579123065
 10
-104.4784595795774
 20
656.4019624317452
 10
-104.8698709136677
 20
655.4695505544923
 10
-105.1890524844145
 20
654.3650744487231
 10
-105.4251349462417
 20
653.1261457235464
 10
-105.5700787940618
 20
651.7949546107668
 10
-105.618948138978
 20
650.4168332271421
210
0.0
220
0.0
230
-1.0
  0
LWPOLYLINE
  5
E35
330
1E
100
AcDbEntity
  8
STEMPEL
100
AcDbPolyline
 90
       18
 70
   128
 43
0.0
 10
-94.42270950676649
 20
650.4168332271421
 10
-94.43937793024323
 20
651.7949546107668
 10
-94.48881557750368
 20
653.1261457235464
 10
-94.56933890876413
 20
654.3650744487231
 10
-94.67820579855581
 20
655.4695505544923
 10
-94.8117089155181
 20
656.4019624317452
 10
-94.96530197112221
 20
657.1305579123065
 10
-95.13375453807427
 20
657.6305255509399
 10
-95.31133016624321
 20
657.8848395493564
 10
-95.49198173059025
 20
657.8848395493564
 10
-95.6695573587592
 20
657.6305255509399
 10
-95.83800992571125
 20
657.1305579123065
 10
-95.99160298131536
 20
656.4019624317452
 10
-96.12510609827765
 20
655.4695505544923
 10
-96.23397298806933
 20
654.3650744487231
 10
-96.31449631932978
 20
653.1261457235464
 10
-96.36393396659023
 20
651.7949546107668
 10
-96.38060239006698
 20
650.4168332271421
210
0.0
220
0.0
230
-1.0
  0
LWPOLYLINE
  5
E36
330
1E
100
AcDbEntity
  8
STEMPEL
100
AcDbPolyline
 90
        7
 70
   128
 43
0.0
 10
-94.90476659164764
 20
656.878887282982
 10
-95.04259560121793
 20
656.1267810460433
 10
-95.1614598781841
 20
655.2040674353285
 10
-95.25780788008532
 20
654.1383161854244
 10
-95.32876082762355
 20
652.9613708486033
 10
-95.37219871963143
 20
651.7083973422016
 10
-95.38682367652901
 20
650.4168332271421
210
0.0
220
0.0
230
-1.0
  0
LINE
  5
E37
330
1E
100
AcDbEntity
  8
STEMPEL
100
AcDbLine
 10
94.42270950676652
 20
650.4168332271421
 30
0.0
 11
94.42270950676652
 21
643.9168332271444
 31
0.0
  0
LINE
  5
E38
330
1E
100
AcDbEntity
  8
STEMPEL
100
AcDbLine
 10
95.38682367652915
 20
650.4168332271421
 30
0.0
 11
95.38682367652915
 21
643.9168332271444
 31
0.0
  0
LINE
  5
E39
330
1E
100
AcDbEntity
  8
STEMPEL
100
AcDbLine
 10
96.380602390067
 20
650.4168332271421
 30
0.0
 11
96.380602390067
 21
643.9168332271433
 31
0.0
  0
LWPOLYLINE
  5
E3A
330
1E
100
AcDbEntity
  8
STEMPEL
100
AcDbPolyline
 90
        9
 70
   128
 43
0.0
 10
-102.2857952279872
 20
657.8185914718071
 10
-102.7748557712559
 20
657.4921585740498
 10
-103.2344687391569
 20
656.9468895607927
 10
-103.6504185427811
 20
656.1996493176645
 10
-104.0098400720727
 20
655.273549594887
 10
-104.3016166069602
 20
654.1972341729167
 10
-104.5167236516983
 20
653.0039929252859
 10
-104.6485080578058
 20
651.7307321802102
 10
-104.6928938024707
 20
650.4168332271437
210
0.0
220
0.0
230
-1.0
  0
LINE
  5
E3B
330
1E
100
AcDbEntity
  8
STEMPEL
100
AcDbLine
 10
99.87869665350036
 20
650.4168332271421
 30
0.0
 11
99.87869665350036
 21
643.9168332271456
 31
0.0
  0
LINE
  5
E3C
330
1E
100
AcDbEntity
  8
STEMPEL
100
AcDbLine
 10
104.6928938024708
 20
650.4168332271421
 30
0.0
 11
104.6928938024708
 21
643.9168332271456
 31
0.0
  0
LINE
  5
E3D
330
1E
100
AcDbEntity
  8
STEMPEL
100
AcDbLine
 10
105.6189481389781
 20
650.4168332271421
 30
0.0
 11
105.6189481389781
 21
643.9168332271456
 31
0.0
  0
LINE
  5
E3E
330
1E
100
AcDbEntity
  8
STEMPEL
100
AcDbLine
 10
112.3767473226598
 20
650.4168332271421
 30
0.0
 11
112.3767473226598
 21
643.9168332271456
 31
0.0
  0
LWPOLYLINE
  5
E3F
330
1E
100
AcDbEntity
  8
STEMPEL
100
AcDbPolyline
 90
       10
 70
   128
 43
0.0
 10
-116.1472371534049
 20
657.9168332271454
 10
-116.9400644992646
 20
657.8028913747369
 10
-117.7088021874103
 20
657.4645278830396
 10
-118.4300925121879
 20
656.9120237555284
 10
-119.0820194320693
 20
656.1621665505372
 10
-119.644774477485
 20
655.2377402997938
 10
-120.1012586211479
 20
654.1668332271444
 10
-120.4376018233447
 20
652.9819843020868
 10
-120.6435844660747
 20
651.719194559646
 10
-120.7129478709708
 20
650.4168332271437
210
0.0
220
0.0
230
-1.0
  0
LINE
  5
E40
330
1E
100
AcDbEntity
  8
STEMPEL
100
AcDbLine
 10
120.712947870971
 20
650.4168332271421
 30
0.0
 11
120.712947870971
 21
643.9168332271456
 31
0.0
  0
LWPOLYLINE
  5
E4A
330
1E
100
AcDbEntity
  8
STEMPEL
100
AcDbPolyline
 90
       10
 70
   128
 43
0.0
 10
151.9479483257845
 20
637.916833227144
 10
152.4206782835381
 20
638.0079867090707
 10
152.8790445807383
 20
638.2786775024285
 10
153.309119989389
 20
638.7206808044372
 10
153.6978368858273
 20
639.3205665684302
 10
154.0333843038549
 20
640.0601075690249
 10
154.3055668049705
 20
640.9168332271442
 10
154.5061142616086
 20
641.8647123671901
 10
154.6289331407811
 20
642.8749441611428
 10
154.6702916529935
 20
643.9168332271444
  0
LINE
  5
E4B
330
1E
100
AcDbEntity
  8
STEMPEL
100
AcDbLine
 10
153.4527802202644
 20
638.916833227144
 30
0.0
 11
166.9273889422588
 21
638.916833227144
 31
0.0
  0
LINE
  5
E4C
330
1E
100
AcDbEntity
  8
MITTEL
100
AcDbLine
 10
147.2130222657313
 20
641.9168332271445
 30
0.0
 11
147.2130222657313
 21
611.9168332271445
 31
0.0
  0
LWPOLYLINE
  5
E4D
330
1E
100
AcDbEntity
  8
STEMPEL
100
AcDbPolyline
 90
        7
 70
   128
 43
0.0
 10
140.7172225955446
 20
638.916833227144
 10
141.1888681961114
 20
639.5261711289847
 10
141.5933746724942
 20
640.2536014022741
 10
141.9198623149833
 20
641.0795588962177
 10
142.1595498283914
 20
641.98182844668
 10
142.3059905160175
 20
642.9361423809232
 10
142.3552456716499
 20
643.9168332271444
  0
LWPOLYLINE
  5
E4E
330
1E
100
AcDbEntity
  8
STEMPEL
100
AcDbPolyline
 90
       10
 70
   128
 43
0.0
 10
139.3028369839881
 20
637.916833227144
 10
139.9388413439891
 20
638.0079867090707
 10
140.5555210333452
 20
638.2786775024285
 10
141.1341385517502
 20
638.7206808044372
 10
141.6571128987021
 20
639.3205665684302
 10
142.1085537633066
 20
640.0601075690249
 10
142.4747443433326
 20
640.9168332271442
 10
142.7445581233075
 20
641.8647123671901
 10
142.9097969480592
 20
642.8749441611428
 10
142.9654401195123
 20
643.9168332271444
  0
LWPOLYLINE
  5
E4F
330
1E
100
AcDbEntity
  8
STEMPEL
100
AcDbPolyline
 90
       10
 70
   128
 43
0.0
 10
127.4025368796193
 20
637.916833227144
 10
128.0385412396202
 20
638.0079867090707
 10
128.6552209289764
 20
638.2786775024285
 10
129.2338384473814
 20
638.7206808044372
 10
129.7568127943333
 20
639.3205665684302
 10
130.2082536589377
 20
640.0601075690249
 10
130.5744442389637
 20
640.9168332271442
 10
130.8442580189387
 20
641.8647123671901
 10
131.0094968436903
 20
642.8749441611428
 10
131.0651400151434
 20
643.9168332271444
  0
LINE
  5
E51
330
1E
100
AcDbEntity
  8
STEMPEL
100
AcDbLine
 10
129.4271169390381
 20
638.916833227144
 30
0.0
 11
140.7172225955452
 21
638.916833227144
 31
0.0
  0
LINE
  5
E5C
330
1E
100
AcDbEntity
  8
STEMPEL
100
AcDbLine
 10
142.2130222657314
 20
635.9168332271446
 30
0.0
 11
152.2130222657312
 21
635.9168332271446
 31
0.0
  0
LINE
  5
E5D
330
1E
100
AcDbEntity
  8
STEMPEL
100
AcDbLine
 10
151.2130222657313
 20
636.9168332271443
 30
0.0
 11
143.2130222657313
 21
636.9168332271445
 31
0.0
  0
LINE
  5
E64
330
1E
100
AcDbEntity
  8
STEMPEL
100
AcDbLine
 10
142.2130222657313
 20
635.9168332271444
 30
0.0
 11
142.2130222657313
 21
633.916833227144
 31
0.0
  0
LINE
  5
E65
330
1E
100
AcDbEntity
  8
HILF
100
AcDbLine
 10
143.2130222657313
 20
636.9168332271445
 30
0.0
 11
143.2130222657312
 21
633.9168332271439
 31
0.0
  0
LINE
  5
E66
330
1E
100
AcDbEntity
  8
STEMPEL
100
AcDbLine
 10
143.2130222657313
 20
636.9168332271445
 30
0.0
 11
142.2130222657313
 21
635.9168332271444
 31
0.0
  0
LINE
  5
E68
330
1E
100
AcDbEntity
  8
STEMPEL
100
AcDbLine
 10
152.2130222657313
 20
635.9168332271443
 30
0.0
 11
152.2130222657313
 21
633.916833227144
 31
0.0
  0
LINE
  5
E69
330
1E
100
AcDbEntity
  8
HILF
100
AcDbLine
 10
151.2130222657313
 20
636.9168332271443
 30
0.0
 11
151.2130222657313
 21
633.9168332271439
 31
0.0
  0
LINE
  5
E6A
330
1E
100
AcDbEntity
  8
STEMPEL
100
AcDbLine
 10
152.2130222657313
 20
635.9168332271443
 30
0.0
 11
151.2130222657313
 21
636.9168332271443
 31
0.0
  0
LWPOLYLINE
  5
E6B
330
1E
100
AcDbEntity
  8
STEMPEL
100
AcDbPolyline
 90
        9
 70
   128
 43
0.0
 10
-136.7101928434083
 20
657.906967304966
 10
-137.8266005647794
 20
657.6996601685586
 10
-138.8918798165217
 20
657.2304054411049
 10
-139.86771479956
 20
656.5160812039364
 10
-140.719006832418
 20
655.58238016054
 10
-141.4151367751544
 20
654.4628855253795
 10
-141.9310663338458
 20
653.1978631080407
 10
-142.2482386340617
 20
651.8328130388315
 10
-142.3552456716498
 20
650.4168332271437
210
0.0
220
0.0
230
-1.0
  0
LWPOLYLINE
  5
E6C
330
1E
100
AcDbEntity
  8
STEMPEL
100
AcDbPolyline
 90
       18
 70
   128
 43
0.0
 10
-131.0651400151433
 20
650.4168332271421
 10
-131.1664526269477
 20
651.7949546107668
 10
-131.4669403828769
 20
653.1261457235464
 10
-131.9563705327981
 20
654.3650744487231
 10
-132.6180761199625
 20
655.4695505544923
 10
-133.4295235542276
 20
656.4019624317452
 10
-134.3630799664433
 20
657.1305579123065
 10
-135.3869542126694
 20
657.6305255509399
 10
-136.4662794834522
 20
657.8848395493564
 10
-137.5643006512033
 20
657.8848395493564
 10
-138.643625921986
 20
657.6305255509399
 10
-139.6675001682121
 20
657.1305579123065
 10
-140.6010565804279
 20
656.4019624317452
 10
-141.412504014693
 20
655.4695505544923
 10
-142.0742096018574
 20
654.3650744487231
 10
-142.5636397517786
 20
653.1261457235464
 10
-142.8641275077078
 20
651.7949546107668
 10
-142.9654401195121
 20
650.4168332271421
210
0.0
220
0.0
230
-1.0
  0
LINE
  5
E6D
330
1E
100
AcDbEntity
  8
STEMPEL
100
AcDbLine
 10
121.5081687577917
 20
650.4168332271421
 30
0.0
 11
121.5081687577917
 21
643.9168332271456
 31
0.0
  0
LINE
  5
E6E
330
1E
100
AcDbEntity
  8
STEMPEL
100
AcDbLine
 10
131.0651400151434
 20
650.4168332271421
 30
0.0
 11
131.0651400151434
 21
643.9168332271456
 31
0.0
  0
LINE
  5
E6F
330
1E
100
AcDbEntity
  8
STEMPEL
100
AcDbLine
 10
142.9654401195123
 20
650.4168332271421
 30
0.0
 11
142.9654401195123
 21
643.9168332271456
 31
0.0
  0
LINE
  5
E70
330
1E
100
AcDbEntity
  8
STEMPEL
100
AcDbLine
 10
142.35524567165
 20
650.4168332271421
 30
0.0
 11
142.35524567165
 21
643.9168332271456
 31
0.0
  0
LINE
  5
E71
330
1E
100
AcDbEntity
  8
STEMPEL
100
AcDbLine
 10
181.2888268148846
 20
640.1393357123215
 30
0.0
 11
181.2888268148846
 21
638.9168332271442
 31
0.0
  0
LWPOLYLINE
  5
E72
330
1E
100
AcDbEntity
  8
STEMPEL
100
AcDbPolyline
 90
       10
 70
   128
 43
0.0
 10
165.8061413134554
 20
637.916833227144
 10
166.278871271209
 20
638.0079867090707
 10
166.7372375684092
 20
638.2786775024285
 10
167.1673129770599
 20
638.7206808044372
 10
167.5560298734982
 20
639.3205665684302
 10
167.8915772915258
 20
640.0601075690249
 10
168.1637597926414
 20
640.9168332271442
 10
168.3643072492795
 20
641.8647123671901
 10
168.487126128452
 20
642.8749441611428
 10
168.5284846406644
 20
643.9168332271444
  0
LWPOLYLINE
  5
E73
330
1E
100
AcDbEntity
  8
STEMPEL
100
AcDbPolyline
 90
        7
 70
   128
 43
0.0
 10
166.9273889422584
 20
638.916833227144
 10
167.2779541566703
 20
639.5261711289847
 10
167.578616135609
 20
640.2536014022741
 10
167.8212881975437
 20
641.0795588962177
 10
167.9994433725921
 20
641.98182844668
 10
168.1082899535726
 20
642.9361423809232
 10
168.1449003749875
 20
643.9168332271444
  0
LWPOLYLINE
  5
E74
330
1E
100
AcDbEntity
  8
STEMPEL
100
AcDbPolyline
 90
       10
 70
   128
 43
0.0
 10
180.2719754249363
 20
637.916833227144
 10
180.4997279878049
 20
638.0079867090707
 10
180.7205604042991
 20
638.2786775024285
 10
180.9277627931903
 20
638.7206808044372
 10
181.1150394147415
 20
639.3205665684302
 10
181.2766999635734
 20
640.0601075690249
 10
181.4078324657141
 20
640.9168332271442
 10
181.504452526442
 20
641.8647123671901
 10
181.5636243941042
 20
642.8749441611428
 10
181.5835501614442
 20
643.9168332271444
  0
ARC
  5
E77
330
1E
100
AcDbEntity
  8
STEMPEL
100
AcDbCircle
 10
174.6309695903114
 20
628.9168332271441
 30
0.0
 40
5.0
100
AcDbArc
 50
270.0
 51
358.9999999999982
  0
LINE
  5
E78
330
1E
100
AcDbEntity
  8
STEMPEL
100
AcDbLine
 10
179.6302080660933
 20
628.8295711949577
 30
0.0
 11
179.7888268148848
 21
637.9168332271439
 31
0.0
  0
LWPOLYLINE
  5
E79
330
1E
100
AcDbEntity
  8
STEMPEL
100
AcDbPolyline
 90
        9
 70
   128
 43
0.0
 10
-161.4075960140171
 20
657.9139596501822
 10
-162.7318054643469
 20
657.7351267431345
 10
-163.999784861533
 20
657.2848508258102
 10
-165.1645035496186
 20
656.5798330936711
 10
-166.1827609182252
 20
655.6462233772877
 10
-167.0167887574875
 20
654.5186502183116
 10
-167.6356521196814
 20
653.2389364613598
 10
-168.0163967281556
 20
651.8545480018242
 10
-168.1449003749875
 20
650.4168332271437
210
0.0
220
0.0
230
-1.0
  0
LWPOLYLINE
  5
E7A
330
1E
100
AcDbEntity
  8
STEMPEL
100
AcDbPolyline
 90
       18
 70
   128
 43
0.0
 10
-154.6702916529935
 20
650.4168332271421
 10
-154.7882726882746
 20
651.7949546107668
 10
-155.1381980914643
 20
653.1261457235464
 10
-155.708151572646
 20
654.3650744487231
 10
-156.4787240496021
 20
655.4695505544923
 10
-157.4236746008297
 20
656.4019624317452
 10
-158.5108240686498
 20
657.1305579123065
 10
-159.703150881828
 20
657.6305255509399
 10
-160.9600517807798
 20
657.8848395493564
 10
-162.2387245128781
 20
657.8848395493564
 10
-163.49562541183
 20
657.6305255509399
 10
-164.6879522250081
 20
657.1305579123065
 10
-165.7751016928283
 20
656.4019624317452
 10
-166.7200522440558
 20
655.4695505544923
 10
-167.4906247210119
 20
654.3650744487231
 10
-168.0605782021937
 20
653.1261457235464
 10
-168.4105036053833
 20
651.7949546107668
 10
-168.5284846406644
 20
650.4168332271421
210
0.0
220
0.0
230
-1.0
  0
LINE
  5
E7B
330
1E
100
AcDbEntity
  8
STEMPEL
100
AcDbLine
 10
154.6702916529936
 20
650.4168332271421
 30
0.0
 11
154.6702916529936
 21
643.9168332271456
 31
0.0
  0
LINE
  5
E7C
330
1E
100
AcDbEntity
  8
STEMPEL
100
AcDbLine
 10
168.5284846406645
 20
650.4168332271405
 30
0.0
 11
168.5284846406645
 21
643.9168332271456
 31
0.0
  0
LINE
  5
E7D
330
1E
100
AcDbEntity
  8
STEMPEL
100
AcDbLine
 10
168.1449003749875
 20
650.4168332271421
 30
0.0
 11
168.1449003749875
 21
643.9168332271456
 31
0.0
  0
ARC
  5
E7E
330
1E
100
AcDbEntity
  8
STEMPEL
100
AcDbCircle
 10
183.1480734329105
 20
642.3366782412651
 30
0.0
 40
2.247898356545996
100
AcDbArc
 50
52.11936428281976
 51
121.4691945163663
  0
LINE
  5
E7F
330
1E
100
AcDbEntity
  8
STEMPEL
100
AcDbLine
 10
181.767822305586
 20
644.1345860163412
 30
0.0
 11
181.9745804373714
 21
644.2539578793846
 31
0.0
  0
LINE
  5
E80
330
1E
100
AcDbEntity
  8
STEMPEL
100
AcDbLine
 10
181.767822305586
 20
644.1345860163412
 30
0.0
 11
181.767822305586
 21
640.5168332271443
 31
0.0
  0
LINE
  5
E81
330
1E
100
AcDbEntity
  8
STEMPEL
100
AcDbLine
 10
181.5835501614441
 20
650.4168332271437
 30
0.0
 11
181.5835501614441
 21
643.9168332271456
 31
0.0
  0
LINE
  5
E82
330
1E
100
AcDbEntity
  8
STEMPEL
100
AcDbLine
 10
184.5283245602353
 20
644.1109256442168
 30
0.0
 11
184.5283245602353
 21
640.5168332271443
 31
0.0
  0
ARC
  5
E83
330
1E
100
AcDbEntity
  8
STEMPEL
100
AcDbCircle
 10
123.2130222657312
 20
721.9168332271435
 30
0.0
 40
5.0
100
AcDbArc
 50
90.0
 51
120.5373500483005
  0
ARC
  5
E84
330
1E
100
AcDbEntity
  8
STEMPEL
100
AcDbCircle
 10
123.2130222657312
 20
721.9168332271435
 30
0.0
 40
6.0
100
AcDbArc
 50
90.0
 51
120.5128743276197
  0
LINE
  5
E85
330
1E
100
AcDbEntity
  8
STEMPEL
100
AcDbLine
 10
96.18032764402336
 20
713.0939137871873
 30
0.0
 11
120.1666305194902
 21
727.0859237978759
 31
0.0
  0
LINE
  5
E86
330
1E
100
AcDbEntity
  8
STEMPEL
100
AcDbLine
 10
96.69366869760416
 20
712.2356706740247
 30
0.0
 11
120.6725225905553
 21
726.2233238402102
 31
0.0
  0
ARC
  5
E87
330
1E
100
AcDbEntity
  8
STEMPEL
100
AcDbCircle
 10
99.2130222657313
 20
707.9167752598285
 30
0.0
 40
5.0
100
AcDbArc
 50
120.2564164748189
 51
180.0
  0
ARC
  5
E88
330
1E
100
AcDbEntity
  8
STEMPEL
100
AcDbCircle
 10
99.2130222657313
 20
707.9167752598285
 30
0.0
 40
6.0
100
AcDbArc
 50
120.2564164748189
 51
180.0
  0
ARC
  5
E89
330
1E
100
AcDbEntity
  8
STEMPEL
100
AcDbCircle
 10
93.70187866141964
 20
717.4366702096058
 30
0.0
 40
5.0
100
AcDbArc
 50
300.0670458384858
 51
300.2564371635302
  0
LINE
  5
E8A
330
1E
100
AcDbEntity
  8
STEMPEL
100
AcDbLine
 10
123.2130222657312
 20
727.9168332271431
 30
0.0
 11
177.9513844380806
 21
727.9168332271435
 31
0.0
  0
ARC
  5
E8B
330
1E
100
AcDbEntity
  8
STEMPEL
100
AcDbCircle
 10
123.2130222657312
 20
721.9168332271435
 30
0.0
 40
6.0
100
AcDbArc
 50
90.0
 51
90.0
  0
ARC
  5
E8C
330
1E
100
AcDbEntity
  8
STEMPEL
100
AcDbCircle
 10
177.9513844380806
 20
729.4168332271436
 30
0.0
 40
2.5
100
AcDbArc
 50
270.0
 51
330.0000000000003
  0
ARC
  5
E8D
330
1E
100
AcDbEntity
  8
STEMPEL
100
AcDbCircle
 10
177.9513844380806
 20
729.4168332271436
 30
0.0
 40
1.5
100
AcDbArc
 50
270.0
 51
330.0000000000003
  0
ARC
  5
E8E
330
1E
100
AcDbEntity
  8
STEMPEL
100
AcDbCircle
 10
183.3475368607879
 20
729.4168332271436
 30
0.0
 40
2.5
100
AcDbArc
 50
209.9999999999925
 51
270.0
  0
ARC
  5
E8F
330
1E
100
AcDbEntity
  8
STEMPEL
100
AcDbCircle
 10
183.3475368607879
 20
729.4168332271436
 30
0.0
 40
1.5
100
AcDbArc
 50
209.9999999999925
 51
270.0
  0
ARC
  5
E90
330
1E
100
AcDbEntity
  8
STEMPEL
100
AcDbCircle
 10
180.5494606494341
 20
727.9168332271435
 30
0.0
 40
0.5
100
AcDbArc
 50
90.0
 51
149.9999999999994
  0
LINE
  5
E91
330
1E
100
AcDbEntity
  8
STEMPEL
100
AcDbLine
 10
180.5494606494341
 20
728.4168332271435
 30
0.0
 11
180.7494606494341
 21
728.4168332271435
 31
0.0
  0
ARC
  5
E92
330
1E
100
AcDbEntity
  8
STEMPEL
100
AcDbCircle
 10
180.7494606494341
 20
727.9168332271435
 30
0.0
 40
0.5
100
AcDbArc
 50
29.99999999999973
 51
90.0
  0
ARC
  5
E93
330
1E
100
AcDbEntity
  8
STEMPEL
100
AcDbCircle
 10
180.7494606494341
 20
727.9168332271435
 30
0.0
 40
1.5
100
AcDbArc
 50
29.99999999999246
 51
90.0
  0
ARC
  5
E94
330
1E
100
AcDbEntity
  8
STEMPEL
100
AcDbCircle
 10
180.5494606494341
 20
727.9168332271435
 30
0.0
 40
1.5
100
AcDbArc
 50
90.0
 51
150.0000000000002
  0
LINE
  5
E95
330
1E
100
AcDbEntity
  8
STEMPEL
100
AcDbLine
 10
183.3475368607879
 20
727.9168332271435
 30
0.0
 11
185.4063844380803
 21
727.9168332271435
 31
0.0
  0
LINE
  5
E96
330
1E
100
AcDbEntity
  8
STEMPEL
100
AcDbLine
 10
183.3475368607879
 20
727.9168332271435
 30
0.0
 11
185.4063844380803
 21
727.9168332271435
 31
0.0
  0
LINE
  5
E99
330
1E
100
AcDbEntity
  8
MITTEL
100
AcDbLine
 10
203.2130222657313
 20
734.4168332271435
 30
0.0
 11
203.2130222657308
 21
512.3002058519921
 31
0.0
  0
ARC
  5
E9E
330
1E
100
AcDbEntity
  8
STEMPEL
100
AcDbCircle
 10
312.5551650411579
 20
628.9168332271441
 30
0.0
 40
5.0
100
AcDbArc
 50
270.0
 51
358.9999999999982
  0
ARC
  5
E9F
330
1E
100
AcDbEntity
  8
STEMPEL
100
AcDbCircle
 10
318.2130222657313
 20
643.9168332271444
 30
0.0
 40
5.0
100
AcDbArc
 50
180.0
 51
269.9999999999984
  0
ARC
  5
EA0
330
1E
100
AcDbEntity
  8
STEMPEL
100
AcDbCircle
 10
318.2130222657313
 20
643.9168332271444
 30
0.0
 40
6.0
100
AcDbArc
 50
180.0
 51
269.9999999999984
  0
LINE
  5
EA1
330
1E
100
AcDbEntity
  8
STEMPEL
100
AcDbLine
 10
312.2130222657313
 20
707.9167752598285
 30
0.0
 11
312.2130222657313
 21
643.9168332271444
 31
0.0
  0
LINE
  5
EA2
330
1E
100
AcDbEntity
  8
STEMPEL
100
AcDbLine
 10
313.2130222657314
 20
707.9167752598285
 30
0.0
 11
313.2130222657314
 21
643.9168332271444
 31
0.0
  0
LINE
  5
EA3
330
1E
100
AcDbEntity
  8
STEMPEL
100
AcDbLine
 10
252.9732643111981
 20
638.916833227144
 30
0.0
 11
239.4986555892038
 21
638.916833227144
 31
0.0
  0
LWPOLYLINE
  5
EA4
330
1E
100
AcDbEntity
  8
STEMPEL
100
AcDbPolyline
 90
       10
 70
   128
 43
0.0
 10
-254.4780962056781
 20
637.916833227144
 10
-254.0053662479245
 20
638.0079867090707
 10
-253.5469999507243
 20
638.2786775024285
 10
-253.1169245420735
 20
638.7206808044372
 10
-252.7282076456353
 20
639.3205665684302
 10
-252.3926602276076
 20
640.0601075690249
 10
-252.120477726492
 20
640.9168332271442
 10
-251.9199302698539
 20
641.8647123671901
 10
-251.7971113906815
 20
642.8749441611428
 10
-251.755752878469
 20
643.9168332271444
210
0.0
220
0.0
230
-1.0
  0
LINE
  5
EA7
330
1E
100
AcDbEntity
  8
STEMPEL
100
AcDbLine
 10
221.831955794377
 20
636.9168332271443
 30
0.0
 11
213.831955794377
 21
636.9168332271445
 31
0.0
  0
LINE
  5
EA8
330
1E
100
AcDbEntity
  8
STEMPEL
100
AcDbLine
 10
212.8319557943771
 20
635.9168332271446
 30
0.0
 11
222.8319557943769
 21
635.9168332271446
 31
0.0
  0
LWPOLYLINE
  5
EAB
330
1E
100
AcDbEntity
  8
STEMPEL
100
AcDbPolyline
 90
       18
 70
   128
 43
0.0
 10
224.8424943700182
 20
650.4168332271421
 10
224.7158851238419
 20
651.7949546107668
 10
224.3403689113402
 20
653.1261457235464
 10
223.7287334867478
 20
654.3650744487231
 10
222.9018073608735
 20
655.4695505544923
 10
221.8877505111452
 20
656.4019624317452
 10
220.7210954273535
 20
657.1305579123065
 10
219.4415711491282
 20
657.6305255509399
 10
218.0927503411441
 20
657.8848395493564
 10
216.7205654782848
 20
657.8848395493564
 10
215.3717446703007
 20
657.6305255509399
 10
214.0922203920754
 20
657.1305579123065
 10
212.9255653082837
 20
656.4019624317452
 10
211.9115084585554
 20
655.4695505544923
 10
211.0845823326811
 20
654.3650744487231
 10
210.4729469080887
 20
653.1261457235464
 10
210.097430695587
 20
651.7949546107668
 10
209.9708214494107
 20
650.4168332271421
  0
LINE
  5
EAC
330
1E
100
AcDbEntity
  8
STEMPEL
100
AcDbLine
 10
225.4290688922754
 20
638.916833227144
 30
0.0
 11
210.688229421354
 21
638.916833227144
 31
0.0
  0
LINE
  5
EAD
330
1E
100
AcDbEntity
  8
STEMPEL
100
AcDbLine
 10
193.2888268148846
 20
640.5168332271442
 30
0.0
 11
193.2888268148846
 21
638.9168332271442
 31
0.0
  0
LINE
  5
EAE
330
1E
100
AcDbEntity
  8
MITTEL
100
AcDbLine
 10
217.831955794377
 20
641.9168332271445
 30
0.0
 11
217.831955794377
 21
611.9168332271445
 31
0.0
  0
LWPOLYLINE
  5
EAF
330
1E
100
AcDbEntity
  8
STEMPEL
100
AcDbPolyline
 90
       10
 70
   128
 43
0.0
 10
195.1436483455439
 20
637.916833227144
 10
195.3714009084125
 20
638.0079867090707
 10
195.5922333249067
 20
638.2786775024285
 10
195.7994357137979
 20
638.7206808044372
 10
195.9867123353491
 20
639.3205665684302
 10
196.148372884181
 20
640.0601075690249
 10
196.2795053863217
 20
640.9168332271442
 10
196.3761254470496
 20
641.8647123671901
 10
196.4352973147118
 20
642.8749441611428
 10
196.4552230820518
 20
643.9168332271444
  0
LWPOLYLINE
  5
EB0
330
1E
100
AcDbEntity
  8
STEMPEL
100
AcDbPolyline
 90
        7
 70
   128
 43
0.0
 10
195.7378151101082
 20
638.916833227144
 10
195.9067109558767
 20
639.5261711289847
 10
196.0515643444493
 20
640.2536014022741
 10
196.1684792620164
 20
641.0795588962177
 10
196.2543111350341
 20
641.98182844668
 10
196.3067514074798
 20
642.9361423809232
 10
196.3243896323651
 20
643.9168332271444
  0
LWPOLYLINE
  5
EB1
330
1E
100
AcDbEntity
  8
STEMPEL
100
AcDbPolyline
 90
       10
 70
   128
 43
0.0
 10
-211.2823961859186
 20
637.916833227144
 10
-211.0546436230501
 20
638.0079867090707
 10
-210.8338112065558
 20
638.2786775024285
 10
-210.6266088176646
 20
638.7206808044372
 10
-210.4393321961135
 20
639.3205665684302
 10
-210.2776716472815
 20
640.0601075690249
 10
-210.1465391451408
 20
640.9168332271442
 10
-210.0499190844129
 20
641.8647123671901
 10
-209.9907472167507
 20
642.8749441611428
 10
-209.9708214494107
 20
643.9168332271444
210
0.0
220
0.0
230
-1.0
  0
LWPOLYLINE
  5
EB2
330
1E
100
AcDbEntity
  8
STEMPEL
100
AcDbPolyline
 90
        7
 70
   128
 43
0.0
 10
-210.6882294213543
 20
638.916833227144
 10
-210.5193335755858
 20
639.5261711289847
 10
-210.3744801870132
 20
640.2536014022741
 10
-210.2575652694461
 20
641.0795588962177
 10
-210.1717333964284
 20
641.98182844668
 10
-210.1192931239827
 20
642.9361423809232
 10
-210.1016548990974
 20
643.9168332271444
210
0.0
220
0.0
230
-1.0
  0
LINE
  5
EB3
330
1E
100
AcDbEntity
  8
MITTEL
100
AcDbLine
 10
187.2888268148848
 20
612.916833227144
 30
0.0
 11
187.2888268148848
 21
642.916833227144
 31
0.0
  0
ARC
  5
EB4
330
1E
100
AcDbEntity
  8
STEMPEL
100
AcDbCircle
 10
199.9466840394583
 20
628.9168332271438
 30
0.0
 40
5.0
100
AcDbArc
 50
181.0000000000017
 51
270.0
  0
LINE
  5
EB5
330
1E
100
AcDbEntity
  8
STEMPEL
100
AcDbLine
 10
194.9474455636763
 20
628.8295711949575
 30
0.0
 11
194.7888268148848
 21
637.9168332271439
 31
0.0
  0
LINE
  5
EBD
330
1E
100
AcDbEntity
  8
STEMPEL
100
AcDbLine
 10
212.831955794377
 20
635.9168332271444
 30
0.0
 11
212.831955794377
 21
633.916833227144
 31
0.0
  0
LINE
  5
EBE
330
1E
100
AcDbEntity
  8
HILF
100
AcDbLine
 10
213.831955794377
 20
636.9168332271445
 30
0.0
 11
213.831955794377
 21
633.9168332271439
 31
0.0
  0
LINE
  5
EBF
330
1E
100
AcDbEntity
  8
STEMPEL
100
AcDbLine
 10
213.831955794377
 20
636.9168332271445
 30
0.0
 11
212.831955794377
 21
635.9168332271444
 31
0.0
  0
LWPOLYLINE
  5
EC0
330
1E
100
AcDbEntity
  8
STEMPEL
100
AcDbPolyline
 90
        9
 70
   128
 43
0.0
 10
-188.9539698970046
 20
657.916542986917
 10
-190.3953098808824
 20
657.7612415929932
 10
-191.779390784332
 20
657.3268413459788
 10
-193.0536153968639
 20
656.6298501257035
 10
-194.1695612165938
 20
655.696754674258
 10
-195.0848205800468
 20
654.5630140589143
 10
-195.7646122188219
 20
653.2717121728451
 10
-196.1831030014714
 20
651.8719204806854
 10
-196.3243896323652
 20
650.4168332271437
210
0.0
220
0.0
230
-1.0
  0
ARC
  5
EC1
330
1E
100
AcDbEntity
  8
STEMPEL
100
AcDbCircle
 10
191.4295801968586
 20
642.3366782412651
 30
0.0
 40
2.247898356545996
100
AcDbArc
 50
58.53080548383258
 51
127.8806357171802
  0
LINE
  5
EC2
330
1E
100
AcDbEntity
  8
STEMPEL
100
AcDbLine
 10
190.0493290695341
 20
644.1109256442168
 30
0.0
 11
190.0493290695339
 21
640.5168332271443
 31
0.0
  0
LINE
  5
EC3
330
1E
100
AcDbEntity
  8
STEMPEL
100
AcDbLine
 10
192.8098313241834
 20
644.1345860163412
 30
0.0
 11
192.603073192391
 21
644.2539578793884
 31
0.0
  0
LINE
  5
EC4
330
1E
100
AcDbEntity
  8
STEMPEL
100
AcDbLine
 10
192.8098313241834
 20
644.1345860163409
 30
0.0
 11
192.8098313241834
 21
640.5168332271443
 31
0.0
  0
LINE
  5
EC5
330
1E
100
AcDbEntity
  8
STEMPEL
100
AcDbLine
 10
191.4256209714993
 20
644.5845765615443
 30
0.0
 11
191.4291764044955
 21
644.5845765615443
 31
0.0
  0
LINE
  5
EC6
330
1E
100
AcDbEntity
  8
STEMPEL
100
AcDbLine
 10
196.4552230820518
 20
650.4168332271405
 30
0.0
 11
196.4552230820518
 21
643.9168332271456
 31
0.0
  0
LINE
  5
EC7
330
1E
100
AcDbEntity
  8
STEMPEL
100
AcDbLine
 10
196.3243896323653
 20
650.4168332271421
 30
0.0
 11
196.3243896323653
 21
643.9168332271456
 31
0.0
  0
LWPOLYLINE
  5
EC8
330
1E
100
AcDbEntity
  8
STEMPEL
100
AcDbPolyline
 90
        9
 70
   128
 43
0.0
 10
217.472074634458
 20
657.916542986917
 10
216.0307346505801
 20
657.7612415929932
 10
214.6466537471306
 20
657.3268413459788
 10
213.3724291345986
 20
656.6298501257035
 10
212.2564833148688
 20
655.696754674258
 10
211.3412239514157
 20
654.5630140589143
 10
210.6614323126406
 20
653.2717121728451
 10
210.2429415299912
 20
651.8719204806854
 10
210.1016548990973
 20
650.4168332271437
  0
LINE
  5
EC9
330
1E
100
AcDbEntity
  8
STEMPEL
100
AcDbLine
 10
210.1016548990973
 20
650.4168332271421
 30
0.0
 11
210.1016548990973
 21
643.9168332271456
 31
0.0
  0
LINE
  5
ECA
330
1E
100
AcDbEntity
  8
STEMPEL
100
AcDbLine
 10
209.9708214494108
 20
650.4168332271405
 30
0.0
 11
209.9708214494108
 21
643.9168332271456
 31
0.0
  0
LWPOLYLINE
  5
ECB
330
1E
100
AcDbEntity
  8
STEMPEL
100
AcDbPolyline
 90
       10
 70
   128
 43
0.0
 10
-240.6199032180071
 20
637.916833227144
 10
-240.1471732602536
 20
638.0079867090707
 10
-239.6888069630534
 20
638.2786775024285
 10
-239.2587315544026
 20
638.7206808044372
 10
-238.8700146579644
 20
639.3205665684302
 10
-238.5344672399367
 20
640.0601075690249
 10
-238.2622847388211
 20
640.9168332271442
 10
-238.061737282183
 20
641.8647123671901
 10
-237.9389184030106
 20
642.8749441611428
 10
-237.8975598907981
 20
643.9168332271444
210
0.0
220
0.0
230
-1.0
  0
LWPOLYLINE
  5
ECC
330
1E
100
AcDbEntity
  8
STEMPEL
100
AcDbPolyline
 90
       10
 70
   128
 43
0.0
 10
-226.1540691065262
 20
637.916833227144
 10
-225.9263165436577
 20
638.0079867090707
 10
-225.7054841271635
 20
638.2786775024285
 10
-225.4982817382722
 20
638.7206808044372
 10
-225.311005116721
 20
639.3205665684302
 10
-225.1493445678891
 20
640.0601075690249
 10
-225.0182120657485
 20
640.9168332271442
 10
-224.9215920050206
 20
641.8647123671901
 10
-224.8624201373584
 20
642.8749441611428
 10
-224.8424943700184
 20
643.9168332271444
210
0.0
220
0.0
230
-1.0
  0
LWPOLYLINE
  5
ECD
330
1E
100
AcDbEntity
  8
STEMPEL
100
AcDbPolyline
 90
        7
 70
   128
 43
0.0
 10
-239.4986555892042
 20
638.916833227144
 10
-239.1480903747922
 20
639.5261711289847
 10
-238.8474283958535
 20
640.2536014022741
 10
-238.6047563339189
 20
641.0795588962177
 10
-238.4266011588704
 20
641.98182844668
 10
-238.3177545778899
 20
642.9361423809232
 10
-238.2811441564751
 20
643.9168332271444
210
0.0
220
0.0
230
-1.0
  0
LINE
  5
ED4
330
1E
100
AcDbEntity
  8
HILF
100
AcDbLine
 10
221.831955794377
 20
636.9168332271443
 30
0.0
 11
221.831955794377
 21
633.9168332271439
 31
0.0
  0
LINE
  5
ED5
330
1E
100
AcDbEntity
  8
STEMPEL
100
AcDbLine
 10
222.831955794377
 20
635.9168332271443
 30
0.0
 11
222.831955794377
 21
633.916833227144
 31
0.0
  0
LINE
  5
ED6
330
1E
100
AcDbEntity
  8
STEMPEL
100
AcDbLine
 10
222.831955794377
 20
635.9168332271443
 30
0.0
 11
221.831955794377
 21
636.9168332271443
 31
0.0
  0
LINE
  5
ED8
330
1E
100
AcDbEntity
  8
STEMPEL
100
AcDbLine
 10
224.8424943700185
 20
650.4168332271437
 30
0.0
 11
224.8424943700185
 21
643.9168332271456
 31
0.0
  0
LWPOLYLINE
  5
ED9
330
1E
100
AcDbEntity
  8
STEMPEL
100
AcDbPolyline
 90
        9
 70
   128
 43
0.0
 10
245.0184485174454
 20
657.9139596501822
 10
243.6942390671156
 20
657.7351267431345
 10
242.4262596699295
 20
657.2848508258102
 10
241.2615409818439
 20
656.5798330936711
 10
240.2432836132373
 20
655.6462233772877
 10
239.409255773975
 20
654.5186502183116
 10
238.7903924117811
 20
653.2389364613598
 10
238.409647803307
 20
651.8545480018242
 10
238.2811441564751
 20
650.4168332271437
  0
LWPOLYLINE
  5
EDA
330
1E
100
AcDbEntity
  8
STEMPEL
100
AcDbPolyline
 90
       18
 70
   128
 43
0.0
 10
251.755752878469
 20
650.4168332271421
 10
251.6377718431879
 20
651.7949546107668
 10
251.2878464399983
 20
653.1261457235464
 10
250.7178929588165
 20
654.3650744487231
 10
249.9473204818604
 20
655.4695505544923
 10
249.0023699306329
 20
656.4019624317452
 10
247.9152204628128
 20
657.1305579123065
 10
246.7228936496346
 20
657.6305255509399
 10
245.4659927506828
 20
657.8848395493564
 10
244.1873200185844
 20
657.8848395493564
 10
242.9304191196326
 20
657.6305255509399
 10
241.7380923064543
 20
657.1305579123065
 10
240.6509428386343
 20
656.4019624317452
 10
239.7059922874067
 20
655.4695505544923
 10
238.9354198104506
 20
654.3650744487231
 10
238.3654663292689
 20
653.1261457235464
 10
238.0155409260792
 20
651.7949546107668
 10
237.8975598907981
 20
650.4168332271421
  0
LINE
  5
EDB
330
1E
100
AcDbEntity
  8
STEMPEL
100
AcDbLine
 10
238.2811441564751
 20
650.4168332271421
 30
0.0
 11
238.2811441564751
 21
643.9168332271456
 31
0.0
  0
LINE
  5
EDC
330
1E
100
AcDbEntity
  8
STEMPEL
100
AcDbLine
 10
237.8975598907981
 20
650.4168332271405
 30
0.0
 11
237.8975598907981
 21
643.9168332271456
 31
0.0
  0
LINE
  5
EDD
330
1E
100
AcDbEntity
  8
STEMPEL
100
AcDbLine
 10
251.755752878469
 20
650.4168332271421
 30
0.0
 11
251.755752878469
 21
643.9168332271456
 31
0.0
  0
LWPOLYLINE
  5
EE3
330
1E
100
AcDbEntity
  8
STEMPEL
100
AcDbPolyline
 90
       10
 70
   128
 43
0.0
 10
-289.2815819482768
 20
637.916833227144
 10
-288.5238323231826
 20
638.0079867090707
 10
-287.789106537007
 20
638.2786775024285
 10
-287.0997288609739
 20
638.7206808044372
 10
-286.4766456869274
 20
639.3205665684302
 10
-285.938789081816
 20
640.0601075690249
 10
-285.5025015464171
 20
640.9168332271442
 10
-285.1810394567218
 20
641.8647123671901
 10
-284.9841702756578
 20
642.8749441611428
 10
-284.917875773671
 20
643.9168332271444
210
0.0
220
0.0
230
-1.0
  0
LWPOLYLINE
  5
EE4
330
1E
100
AcDbEntity
  8
STEMPEL
100
AcDbPolyline
 90
       18
 70
   128
 43
0.0
 10
294.0492972088026
 20
650.4168332271421
 10
293.9715573075425
 20
651.7949546107668
 10
293.7409849428607
 20
653.1261457235464
 10
293.3654319800955
 20
654.3650744487231
 10
292.8576874249678
 20
655.4695505544923
 10
292.2350419093299
 20
656.4019624317452
 10
291.5186988794358
 20
657.1305579123065
 10
290.7330525380099
 20
657.6305255509399
 10
289.9048571289305
 20
657.8848395493564
 10
289.0623158535428
 20
657.8848395493564
 10
288.2341204444634
 20
657.6305255509399
 10
287.4484741030376
 20
657.1305579123065
 10
286.7321310731435
 20
656.4019624317452
 10
286.1094855575055
 20
655.4695505544923
 10
285.6017410023778
 20
654.3650744487231
 10
285.2261880396127
 20
653.1261457235464
 10
284.9956156749308
 20
651.7949546107668
 10
284.9178757736707
 20
650.4168332271421
  0
LWPOLYLINE
  5
EE5
330
1E
100
AcDbEntity
  8
STEMPEL
100
AcDbPolyline
 90
        7
 70
   128
 43
0.0
 10
-265.708821935918
 20
638.916833227144
 10
-265.2371763353511
 20
639.5261711289847
 10
-264.8326698589683
 20
640.2536014022741
 10
-264.5061822164793
 20
641.0795588962177
 10
-264.266494703071
 20
641.98182844668
 10
-264.120054015445
 20
642.9361423809232
 10
-264.0707988598126
 20
643.9168332271444
210
0.0
220
0.0
230
-1.0
  0
LWPOLYLINE
  5
EE6
330
1E
100
AcDbEntity
  8
STEMPEL
100
AcDbPolyline
 90
       10
 70
   128
 43
0.0
 10
-267.1232075474744
 20
637.916833227144
 10
-266.4872031874735
 20
638.0079867090707
 10
-265.8705234981173
 20
638.2786775024285
 10
-265.2919059797123
 20
638.7206808044372
 10
-264.7689316327604
 20
639.3205665684302
 10
-264.3174907681559
 20
640.0601075690249
 10
-263.95130018813
 20
640.9168332271442
 10
-263.681486408155
 20
641.8647123671901
 10
-263.5162475834034
 20
642.8749441611428
 10
-263.4606044119503
 20
643.9168332271444
210
0.0
220
0.0
230
-1.0
  0
LWPOLYLINE
  5
EE7
330
1E
100
AcDbEntity
  8
STEMPEL
100
AcDbPolyline
 90
       10
 70
   128
 43
0.0
 10
-279.0235076518432
 20
637.916833227144
 10
-278.3875032918423
 20
638.0079867090707
 10
-277.7708236024862
 20
638.2786775024285
 10
-277.1922060840811
 20
638.7206808044372
 10
-276.6692317371293
 20
639.3205665684302
 10
-276.2177908725248
 20
640.0601075690249
 10
-275.8516002924988
 20
640.9168332271442
 10
-275.5817865125239
 20
641.8647123671901
 10
-275.4165476877722
 20
642.8749441611428
 10
-275.3609045163191
 20
643.9168332271444
210
0.0
220
0.0
230
-1.0
  0
LINE
  5
EE9
330
1E
100
AcDbEntity
  8
STEMPEL
100
AcDbLine
 10
276.9989275924245
 20
638.916833227144
 30
0.0
 11
265.7088219359174
 21
638.916833227144
 31
0.0
  0
ARC
  5
EEF
330
1E
100
AcDbEntity
  8
STEMPEL
100
AcDbCircle
 10
285.2130222657313
 20
620.9168332271442
 30
0.0
 40
2.999999999999886
100
AcDbArc
 50
90.0
 51
270.0
  0
LWPOLYLINE
  5
EF0
330
1E
100
AcDbEntity
  8
STEMPEL
100
AcDbPolyline
 90
        9
 70
   128
 43
0.0
 10
269.7158516880543
 20
657.906967304966
 10
268.5994439666831
 20
657.6996601685586
 10
267.5341647149409
 20
657.2304054411049
 10
266.5583297319025
 20
656.5160812039364
 10
265.7070376990446
 20
655.58238016054
 10
265.0109077563081
 20
654.4628855253795
 10
264.4949781976168
 20
653.1978631080407
 10
264.177805897401
 20
651.8328130388315
 10
264.0707988598127
 20
650.4168332271437
  0
LWPOLYLINE
  5
EF1
330
1E
100
AcDbEntity
  8
STEMPEL
100
AcDbPolyline
 90
       18
 70
   128
 43
0.0
 10
275.3609045163192
 20
650.4168332271421
 10
275.2595919045149
 20
651.7949546107668
 10
274.9591041485857
 20
653.1261457235464
 10
274.4696739986645
 20
654.3650744487231
 10
273.8079684115001
 20
655.4695505544923
 10
272.9965209772349
 20
656.4019624317452
 10
272.0629645650192
 20
657.1305579123065
 10
271.0390903187931
 20
657.6305255509399
 10
269.9597650480104
 20
657.8848395493564
 10
268.8617438802593
 20
657.8848395493564
 10
267.7824186094765
 20
657.6305255509399
 10
266.7585443632504
 20
657.1305579123065
 10
265.8249879510347
 20
656.4019624317452
 10
265.0135405167696
 20
655.4695505544923
 10
264.3518349296051
 20
654.3650744487231
 10
263.862404779684
 20
653.1261457235464
 10
263.5619170237547
 20
651.7949546107668
 10
263.4606044119504
 20
650.4168332271421
  0
LINE
  5
EF2
330
1E
100
AcDbEntity
  8
STEMPEL
100
AcDbLine
 10
264.0707988598126
 20
650.4168332271421
 30
0.0
 11
264.0707988598126
 21
643.9168332271456
 31
0.0
  0
LINE
  5
EF3
330
1E
100
AcDbEntity
  8
STEMPEL
100
AcDbLine
 10
263.4606044119503
 20
650.4168332271421
 30
0.0
 11
263.4606044119503
 21
643.9168332271456
 31
0.0
  0
LINE
  5
EF4
330
1E
100
AcDbEntity
  8
STEMPEL
100
AcDbLine
 10
275.3609045163191
 20
650.4168332271421
 30
0.0
 11
275.3609045163191
 21
643.9168332271456
 31
0.0
  0
LINE
  5
EF5
330
1E
100
AcDbEntity
  8
STEMPEL
100
AcDbLine
 10
284.9178757736709
 20
650.4168332271421
 30
0.0
 11
284.9178757736709
 21
643.9168332271456
 31
0.0
  0
LWPOLYLINE
  5
EF7
330
1E
100
AcDbEntity
  8
STEMPEL
100
AcDbPolyline
 90
       10
 70
   128
 43
0.0
 10
-298.4130033834087
 20
637.916833227144
 10
-297.6552537583144
 20
638.0079867090707
 10
-296.9205279721389
 20
638.2786775024285
 10
-296.2311502961057
 20
638.7206808044372
 10
-295.6080671220593
 20
639.3205665684302
 10
-295.0702105169479
 20
640.0601075690249
 10
-294.6339229815489
 20
640.9168332271442
 10
-294.3124608918537
 20
641.8647123671901
 10
-294.1155917107897
 20
642.8749441611428
 10
-294.0492972088028
 20
643.9168332271444
210
0.0
220
0.0
230
-1.0
  0
LWPOLYLINE
  5
EF8
330
1E
100
AcDbEntity
  8
STEMPEL
100
AcDbPolyline
 90
        7
 70
   128
 43
0.0
 10
-303.8867223616604
 20
638.916833227144
 10
-303.2666318385961
 20
639.5261711289847
 10
-302.7348116918127
 20
640.2536014022741
 10
-302.3055658920814
 20
641.0795588962177
 10
-301.9904395442841
 20
641.98182844668
 10
-301.7979083673182
 20
642.9361423809232
 10
-301.7331507289918
 20
643.9168332271444
210
0.0
220
0.0
230
-1.0
  0
LWPOLYLINE
  5
EF9
330
1E
100
AcDbEntity
  8
STEMPEL
100
AcDbPolyline
 90
       10
 70
   128
 43
0.0
 10
-305.6224609190584
 20
637.916833227144
 10
-304.7862816442168
 20
638.0079867090707
 10
-303.9755092535143
 20
638.2786775024285
 10
-303.2147786557714
 20
638.7206808044372
 10
-302.5272042652527
 20
639.3205665684302
 10
-301.9336776818842
 20
640.0601075690249
 10
-301.452232910563
 20
640.9168332271442
 10
-301.0974984070426
 20
641.8647123671901
 10
-300.8802525997085
 20
642.8749441611428
 10
-300.8070963924845
 20
643.9168332271444
210
0.0
220
0.0
230
-1.0
  0
LWPOLYLINE
  5
EFA
330
1E
100
AcDbEntity
  8
STEMPEL
100
AcDbPolyline
 90
       10
 70
   128
 43
0.0
 10
-317.5093237557269
 20
637.9168332271452
 10
-316.6512507594541
 20
637.9829604417177
 10
-315.7984385598319
 20
638.2355141914479
 10
-314.9776802529149
 20
638.6665599077655
 10
-314.2147618865158
 20
639.2625552782053
 10
-313.5336523310167
 20
640.0047757099262
 10
-312.955750241071
 20
640.8699026067235
 10
-312.4992117666648
 20
641.8307559774396
 10
-312.1783801350672
 20
642.8571483591517
 10
-312.0033350246961
 20
643.9168332271444
210
0.0
220
0.0
230
-1.0
  0
LWPOLYLINE
  5
EFB
330
1E
100
AcDbEntity
  8
STEMPEL
100
AcDbPolyline
 90
       10
 70
   128
 43
0.0
 10
-315.5514308724264
 20
637.916833227144
 10
-314.6933578761537
 20
637.9829604417166
 10
-313.8405456765314
 20
638.2355141914468
 10
-313.0197873696144
 20
638.6665599077644
 10
-312.2568690032153
 20
639.2625552782044
 10
-311.5757594477162
 20
640.0047757099248
 10
-310.9978573577705
 20
640.8699026067225
 10
-310.5413188833643
 20
641.8307559774384
 10
-310.2204872517667
 20
642.8571483591506
 10
-310.0454421413956
 20
643.9168332271433
210
0.0
220
0.0
230
-1.0
  0
LWPOLYLINE
  5
EFC
330
1E
100
AcDbEntity
  8
STEMPEL
100
AcDbPolyline
 90
       10
 70
   128
 43
0.0
 10
-311.3627124045362
 20
637.916833227144
 10
-310.5265331296946
 20
638.0079867090707
 10
-309.715760738992
 20
638.2786775024285
 10
-308.9550301412491
 20
638.7206808044372
 10
-308.2674557507304
 20
639.3205665684302
 10
-307.673929167362
 20
640.0601075690249
 10
-307.1924843960407
 20
640.9168332271442
 10
-306.8377498925204
 20
641.8647123671901
 10
-306.6205040851862
 20
642.8749441611428
 10
-306.5473478779622
 20
643.9168332271444
210
0.0
220
0.0
230
-1.0
  0
LWPOLYLINE
  5
EFD
330
1E
100
AcDbEntity
  8
STEMPEL
100
AcDbPolyline
 90
        7
 70
   128
 43
0.0
 10
-313.6596800386043
 20
638.9168332271444
 10
-312.9829781635269
 20
639.5264339550035
 10
-312.3834287398929
 20
640.253993038915
 10
-311.8771400667433
 20
641.0799629005953
 10
-311.4777147746977
 20
641.9821519257984
 10
-311.1958843594348
 20
642.9363206939922
 10
-311.0392208549333
 20
643.9168332271444
210
0.0
220
0.0
230
-1.0
  0
LWPOLYLINE
  5
EFE
330
1E
100
AcDbEntity
  8
STEMPEL
100
AcDbPolyline
 90
        7
 70
   128
 43
0.0
 10
-287.6646734890099
 20
638.916833227144
 10
-287.1027445157458
 20
639.5261711289847
 10
-286.6208065761587
 20
640.2536014022741
 10
-286.2318219964088
 20
641.0795588962177
 10
-285.9462530053024
 20
641.98182844668
 10
-285.7717803395065
 20
642.9361423809232
 10
-285.7130966604915
 20
643.9168332271444
210
0.0
220
0.0
230
-1.0
  0
LINE
  5
F03
330
1E
100
AcDbEntity
  8
STEMPEL
100
AcDbLine
 10
296.0008740373212
 20
638.916833227144
 30
0.0
 11
287.6646734890093
 21
638.916833227144
 31
0.0
  0
LINE
  5
F0A
330
1E
100
AcDbEntity
  8
STEMPEL
100
AcDbLine
 10
311.6875299069953
 20
635.9168332271447
 30
0.0
 11
301.6875299069953
 21
635.9168332271447
 31
0.0
  0
LINE
  5
F0B
330
1E
100
AcDbEntity
  8
STEMPEL
100
AcDbLine
 10
302.6875299069953
 20
636.9168332271446
 30
0.0
 11
310.6875299069953
 21
636.9168332271446
 31
0.0
  0
LINE
  5
F0F
330
1E
100
AcDbEntity
  8
STEMPEL
100
AcDbLine
 10
308.7009195106308
 20
638.916833227144
 30
0.0
 11
303.8867223616594
 21
638.916833227144
 31
0.0
  0
LINE
  5
F10
330
1E
100
AcDbEntity
  8
HILF
100
AcDbLine
 10
302.6875299069953
 20
636.9168332271446
 30
0.0
 11
302.6875299069953
 21
633.9168332271441
 31
0.0
  0
LINE
  5
F11
330
1E
100
AcDbEntity
  8
STEMPEL
100
AcDbLine
 10
301.6875299069953
 20
635.9168332271446
 30
0.0
 11
301.6875299069954
 21
633.9168332271441
 31
0.0
  0
LINE
  5
F12
330
1E
100
AcDbEntity
  8
STEMPEL
100
AcDbLine
 10
301.6875299069953
 20
635.9168332271446
 30
0.0
 11
302.6875299069953
 21
636.9168332271446
 31
0.0
  0
LINE
  5
F17
330
1E
100
AcDbEntity
  8
STEMPEL
100
AcDbLine
 10
314.6237942083667
 20
638.916833227144
 30
0.0
 11
313.659680038604
 21
638.916833227144
 31
0.0
  0
LINE
  5
F18
330
1E
100
AcDbEntity
  8
STEMPEL
100
AcDbLine
 10
311.6875299069953
 20
635.9168332271446
 30
0.0
 11
311.6875299069954
 21
633.9168332271441
 31
0.0
  0
LINE
  5
F19
330
1E
100
AcDbEntity
  8
HILF
100
AcDbLine
 10
310.6875299069953
 20
636.9168332271446
 30
0.0
 11
310.6875299069953
 21
633.9168332271441
 31
0.0
  0
LINE
  5
F1A
330
1E
100
AcDbEntity
  8
STEMPEL
100
AcDbLine
 10
310.6875299069953
 20
636.9168332271446
 30
0.0
 11
311.6875299069953
 21
635.9168332271446
 31
0.0
  0
LINE
  5
F1B
330
1E
100
AcDbEntity
  8
STEMPEL
100
AcDbLine
 10
317.5544035169398
 20
628.8295711949579
 30
0.0
 11
317.7130222657311
 21
637.9168332271439
 31
0.0
  0
LWPOLYLINE
  5
F1C
330
1E
100
AcDbEntity
  8
STEMPEL
100
AcDbPolyline
 90
       18
 70
   128
 43
0.0
 10
306.5473478779622
 20
650.4168332271421
 10
306.498478533046
 20
651.7949546107668
 10
306.3535346852259
 20
653.1261457235464
 10
306.1174522233987
 20
654.3650744487231
 10
305.798270652652
 20
655.4695505544923
 10
305.4068593185616
 20
656.4019624317452
 10
304.9565472646636
 20
657.1305579123065
 10
304.4626693278642
 20
657.6305255509399
 10
303.9420439289593
 20
657.8848395493564
 10
303.4124003414874
 20
657.8848395493564
 10
302.8917749425825
 20
657.6305255509399
 10
302.3978970057831
 20
657.1305579123065
 10
301.9475849518851
 20
656.4019624317452
 10
301.5561736177947
 20
655.4695505544923
 10
301.236992047048
 20
654.3650744487231
 10
301.0009095852208
 20
653.1261457235464
 10
300.8559657374008
 20
651.7949546107668
 10
300.8070963924845
 20
650.4168332271421
  0
LWPOLYLINE
  5
F1D
330
1E
100
AcDbEntity
  8
STEMPEL
100
AcDbPolyline
 90
       10
 70
   128
 43
0.0
 10
290.2788073780576
 20
657.9168332271454
 10
289.485980032198
 20
657.8028913747369
 10
288.7172423440522
 20
657.4645278830396
 10
287.9959520192747
 20
656.9120237555284
 10
287.3440250993932
 20
656.1621665505372
 10
286.7812700539776
 20
655.2377402997938
 10
286.3247859103146
 20
654.1668332271444
 10
285.9884427081179
 20
652.9819843020868
 10
285.7824600653878
 20
651.719194559646
 10
285.7130966604917
 20
650.4168332271437
  0
LINE
  5
F1E
330
1E
100
AcDbEntity
  8
STEMPEL
100
AcDbLine
 10
285.7130966604916
 20
650.4168332271421
 30
0.0
 11
285.7130966604916
 21
643.9168332271456
 31
0.0
  0
LINE
  5
F1F
330
1E
100
AcDbEntity
  8
STEMPEL
100
AcDbLine
 10
294.0492972088027
 20
650.4168332271421
 30
0.0
 11
294.0492972088027
 21
643.9168332271456
 31
0.0
  0
LINE
  5
F20
330
1E
100
AcDbEntity
  8
STEMPEL
100
AcDbLine
 10
300.8070963924845
 20
650.4168332271421
 30
0.0
 11
300.8070963924845
 21
643.9168332271456
 31
0.0
  0
LWPOLYLINE
  5
F21
330
1E
100
AcDbEntity
  8
STEMPEL
100
AcDbPolyline
 90
        9
 70
   128
 43
0.0
 10
304.1402493034754
 20
657.8185914718071
 10
303.6511887602066
 20
657.4921585740498
 10
303.1915757923057
 20
656.9468895607927
 10
302.7756259886814
 20
656.1996493176645
 10
302.4162044593899
 20
655.273549594887
 10
302.1244279245024
 20
654.1972341729167
 10
301.9093208797642
 20
653.0039929252859
 10
301.7775364736567
 20
651.7307321802102
 10
301.7331507289918
 20
650.4168332271437
  0
LINE
  5
F22
330
1E
100
AcDbEntity
  8
STEMPEL
100
AcDbLine
 10
301.7331507289918
 20
650.4168332271421
 30
0.0
 11
301.7331507289918
 21
643.9168332271456
 31
0.0
  0
LINE
  5
F23
330
1E
100
AcDbEntity
  8
STEMPEL
100
AcDbLine
 10
306.5473478779622
 20
650.4168332271421
 30
0.0
 11
306.5473478779622
 21
643.9168332271456
 31
0.0
  0
LWPOLYLINE
  5
F24
330
1E
100
AcDbEntity
  8
STEMPEL
100
AcDbPolyline
 90
       18
 70
   128
 43
0.0
 10
312.0033350246961
 20
650.4168332271421
 10
311.9866666012192
 20
651.7949546107668
 10
311.9372289539589
 20
653.1261457235464
 10
311.8567056226984
 20
654.3650744487231
 10
311.7478387329068
 20
655.4695505544923
 10
311.6143356159445
 20
656.4019624317452
 10
311.4607425603403
 20
657.1305579123065
 10
311.2922899933883
 20
657.6305255509399
 10
311.1147143652194
 20
657.8848395493564
 10
310.9340628008723
 20
657.8848395493564
 10
310.7564871727034
 20
657.6305255509399
 10
310.5880346057513
 20
657.1305579123065
 10
310.4344415501472
 20
656.4019624317452
 10
310.3009384331849
 20
655.4695505544923
 10
310.1920715433932
 20
654.3650744487231
 10
310.1115482121328
 20
653.1261457235464
 10
310.0621105648725
 20
651.7949546107668
 10
310.0454421413956
 20
650.4168332271421
  0
LWPOLYLINE
  5
F25
330
1E
100
AcDbEntity
  8
STEMPEL
100
AcDbPolyline
 90
        7
 70
   128
 43
0.0
 10
311.5212779398149
 20
656.878887282982
 10
311.3834489302446
 20
656.1267810460433
 10
311.2645846532785
 20
655.2040674353285
 10
311.1682366513772
 20
654.1383161854244
 10
311.0972837038391
 20
652.9613708486033
 10
311.0538458118311
 20
651.7083973422016
 10
311.0392208549336
 20
650.4168332271421
  0
LINE
  5
F26
330
1E
100
AcDbEntity
  8
STEMPEL
100
AcDbLine
 10
312.0033350246961
 20
650.4168332271421
 30
0.0
 11
312.0033350246961
 21
643.9168332271444
 31
0.0
  0
LINE
  5
F27
330
1E
100
AcDbEntity
  8
STEMPEL
100
AcDbLine
 10
310.0454421413956
 20
650.4168332271421
 30
0.0
 11
310.0454421413956
 21
643.9168332271433
 31
0.0
  0
LINE
  5
F28
330
1E
100
AcDbEntity
  8
STEMPEL
100
AcDbLine
 10
311.0392208549334
 20
650.4168332271421
 30
0.0
 11
311.0392208549334
 21
643.9168332271444
 31
0.0
  0
LINE
  5
F29
330
1E
100
AcDbEntity
  8
STEMPEL
100
AcDbLine
 10
228.652536860788
 20
727.9168332271435
 30
0.0
 11
283.2130222657314
 21
727.916833227144
 31
0.0
  0
LINE
  5
F2A
330
1E
100
AcDbEntity
  8
STEMPEL
100
AcDbLine
 10
216.8025368607875
 20
727.9168332271435
 30
0.0
 11
223.2563844380816
 21
727.9168332271435
 31
0.0
  0
LINE
  5
F2B
330
1E
100
AcDbEntity
  8
STEMPEL
100
AcDbLine
 10
216.8025368607875
 20
727.9168332271435
 30
0.0
 11
223.2563844380816
 21
727.9168332271435
 31
0.0
  0
LINE
  5
F2C
330
1E
100
AcDbEntity
  8
STEMPEL
100
AcDbLine
 10
199.8544606494339
 20
728.4168332271435
 30
0.0
 11
209.9427281106275
 21
728.4168332271435
 31
0.0
  0
LINE
  5
F2D
330
1E
100
AcDbEntity
  8
STEMPEL
100
AcDbLine
 10
190.802536860787
 20
727.9168332271435
 30
0.0
 11
197.2563844380812
 21
727.9168332271435
 31
0.0
  0
LINE
  5
F2E
330
1E
100
AcDbEntity
  8
STEMPEL
100
AcDbLine
 10
190.802536860787
 20
727.9168332271435
 30
0.0
 11
197.2563844380812
 21
727.9168332271435
 31
0.0
  0
ARC
  5
F2F
330
1E
100
AcDbEntity
  8
STEMPEL
100
AcDbCircle
 10
190.802536860787
 20
729.4168332271436
 30
0.0
 40
2.5
100
AcDbArc
 50
210.0000000000005
 51
270.0
  0
ARC
  5
F30
330
1E
100
AcDbEntity
  8
STEMPEL
100
AcDbCircle
 10
190.802536860787
 20
729.4168332271436
 30
0.0
 40
1.5
100
AcDbArc
 50
210.0000000000005
 51
270.0
  0
ARC
  5
F31
330
1E
100
AcDbEntity
  8
STEMPEL
100
AcDbCircle
 10
188.004460649434
 20
727.9168332271435
 30
0.0
 40
0.5
100
AcDbArc
 50
90.0
 51
150.0000000000075
  0
LINE
  5
F32
330
1E
100
AcDbEntity
  8
STEMPEL
100
AcDbLine
 10
188.004460649434
 20
728.4168332271435
 30
0.0
 11
188.204460649434
 21
728.4168332271435
 31
0.0
  0
ARC
  5
F33
330
1E
100
AcDbEntity
  8
STEMPEL
100
AcDbCircle
 10
188.204460649434
 20
727.9168332271435
 30
0.0
 40
0.5
100
AcDbArc
 50
30.00000000000055
 51
90.0
  0
ARC
  5
F34
330
1E
100
AcDbEntity
  8
STEMPEL
100
AcDbCircle
 10
188.204460649434
 20
727.9168332271435
 30
0.0
 40
1.5
100
AcDbArc
 50
30.00000000000055
 51
90.0
  0
ARC
  5
F35
330
1E
100
AcDbEntity
  8
STEMPEL
100
AcDbCircle
 10
197.2563844380812
 20
729.4168332271436
 30
0.0
 40
2.5
100
AcDbArc
 50
270.0
 51
329.999999999993
  0
ARC
  5
F36
330
1E
100
AcDbEntity
  8
STEMPEL
100
AcDbCircle
 10
199.8544606494339
 20
727.9168332271435
 30
0.0
 40
1.5
100
AcDbArc
 50
90.0
 51
149.999999999993
  0
ARC
  5
F37
330
1E
100
AcDbEntity
  8
STEMPEL
100
AcDbCircle
 10
197.2563844380812
 20
729.4168332271436
 30
0.0
 40
1.5
100
AcDbArc
 50
270.0
 51
329.999999999993
  0
ARC
  5
F38
330
1E
100
AcDbEntity
  8
STEMPEL
100
AcDbCircle
 10
199.8544606494339
 20
727.9168332271435
 30
0.0
 40
0.5
100
AcDbArc
 50
90.0
 51
149.999999999993
  0
ARC
  5
F39
330
1E
100
AcDbEntity
  8
STEMPEL
100
AcDbCircle
 10
211.8792197837308
 20
728.4168332271435
 30
0.0
 40
1.5
100
AcDbArc
 50
194.4775121859299
 51
270.0
  0
ARC
  5
F3A
330
1E
100
AcDbEntity
  8
STEMPEL
100
AcDbCircle
 10
211.8792197837308
 20
728.4168332271435
 30
0.0
 40
0.5
100
AcDbArc
 50
194.4775121859299
 51
270.0
  0
ARC
  5
F3B
330
1E
100
AcDbEntity
  8
STEMPEL
100
AcDbCircle
 10
209.9427281106275
 20
727.9168332271435
 30
0.0
 40
1.5
100
AcDbArc
 50
14.47751218592986
 51
90.0
  0
ARC
  5
F3C
330
1E
100
AcDbEntity
  8
STEMPEL
100
AcDbCircle
 10
209.9427281106275
 20
727.9168332271435
 30
0.0
 40
0.5
100
AcDbArc
 50
14.47751218592986
 51
90.0
  0
ARC
  5
F3D
330
1E
100
AcDbEntity
  8
STEMPEL
100
AcDbCircle
 10
214.2044606494341
 20
727.9168332271435
 30
0.0
 40
1.5
100
AcDbArc
 50
29.99999999999973
 51
90.0
  0
ARC
  5
F3E
330
1E
100
AcDbEntity
  8
STEMPEL
100
AcDbCircle
 10
216.8025368607875
 20
729.4168332271436
 30
0.0
 40
2.5
100
AcDbArc
 50
209.9999999999997
 51
270.0
  0
ARC
  5
F3F
330
1E
100
AcDbEntity
  8
STEMPEL
100
AcDbCircle
 10
216.8025368607875
 20
729.4168332271436
 30
0.0
 40
1.5
100
AcDbArc
 50
209.9999999999997
 51
270.0
  0
ARC
  5
F40
330
1E
100
AcDbEntity
  8
STEMPEL
100
AcDbCircle
 10
212.06796897633
 20
728.4168332271435
 30
0.0
 40
1.5
100
AcDbArc
 50
270.0
 51
345.5224878140701
  0
ARC
  5
F41
330
1E
100
AcDbEntity
  8
STEMPEL
100
AcDbCircle
 10
214.004460649434
 20
727.9168332271435
 30
0.0
 40
1.5
100
AcDbArc
 50
90.0
 51
165.5224878140701
  0
ARC
  5
F42
330
1E
100
AcDbEntity
  8
STEMPEL
100
AcDbCircle
 10
212.06796897633
 20
728.4168332271435
 30
0.0
 40
0.5
100
AcDbArc
 50
270.0
 51
345.5224878140701
  0
LINE
  5
F43
330
1E
100
AcDbEntity
  8
STEMPEL
100
AcDbLine
 10
211.8792197837308
 20
727.9168332271435
 30
0.0
 11
212.06796897633
 21
727.9168332271435
 31
0.0
  0
ARC
  5
F44
330
1E
100
AcDbEntity
  8
STEMPEL
100
AcDbCircle
 10
214.004460649434
 20
727.9168332271435
 30
0.0
 40
0.5
100
AcDbArc
 50
90.0
 51
165.5224878140701
  0
LINE
  5
F45
330
1E
100
AcDbEntity
  8
STEMPEL
100
AcDbLine
 10
214.004460649434
 20
728.4168332271435
 30
0.0
 11
214.2044606494341
 21
728.4168332271435
 31
0.0
  0
ARC
  5
F46
330
1E
100
AcDbEntity
  8
STEMPEL
100
AcDbCircle
 10
214.2044606494341
 20
727.9168332271435
 30
0.0
 40
0.5
100
AcDbArc
 50
29.99999999999973
 51
90.0
  0
ARC
  5
F47
330
1E
100
AcDbEntity
  8
STEMPEL
100
AcDbCircle
 10
228.652536860788
 20
729.4168332271436
 30
0.0
 40
2.5
100
AcDbArc
 50
209.9999999999925
 51
270.0
  0
ARC
  5
F48
330
1E
100
AcDbEntity
  8
STEMPEL
100
AcDbCircle
 10
228.652536860788
 20
729.4168332271436
 30
0.0
 40
1.5
100
AcDbArc
 50
209.9999999999925
 51
270.0
  0
ARC
  5
F49
330
1E
100
AcDbEntity
  8
STEMPEL
100
AcDbCircle
 10
223.2563844380816
 20
729.4168332271436
 30
0.0
 40
1.5
100
AcDbArc
 50
270.0
 51
329.9999999999922
  0
ARC
  5
F4A
330
1E
100
AcDbEntity
  8
STEMPEL
100
AcDbCircle
 10
223.2563844380816
 20
729.4168332271436
 30
0.0
 40
2.5
100
AcDbArc
 50
270.0
 51
329.9999999999922
  0
ARC
  5
F4B
330
1E
100
AcDbEntity
  8
STEMPEL
100
AcDbCircle
 10
225.8544606494339
 20
727.9168332271435
 30
0.0
 40
1.5
100
AcDbArc
 50
90.0
 51
149.9999999999922
  0
ARC
  5
F4C
330
1E
100
AcDbEntity
  8
STEMPEL
100
AcDbCircle
 10
225.8544606494339
 20
727.9168332271435
 30
0.0
 40
0.5
100
AcDbArc
 50
90.0
 51
149.9999999999922
  0
LINE
  5
F4D
330
1E
100
AcDbEntity
  8
STEMPEL
100
AcDbLine
 10
225.8544606494339
 20
728.4168332271435
 30
0.0
 11
226.0544606494339
 21
728.4168332271435
 31
0.0
  0
ARC
  5
F4E
330
1E
100
AcDbEntity
  8
STEMPEL
100
AcDbCircle
 10
226.0544606494339
 20
727.9168332271435
 30
0.0
 40
0.5
100
AcDbArc
 50
29.99999999999246
 51
90.0
  0
ARC
  5
F4F
330
1E
100
AcDbEntity
  8
STEMPEL
100
AcDbCircle
 10
226.0544606494339
 20
727.9168332271435
 30
0.0
 40
1.5
100
AcDbArc
 50
29.99999999999246
 51
90.0
  0
ARC
  5
F50
330
1E
100
AcDbEntity
  8
STEMPEL
100
AcDbCircle
 10
283.2130222657314
 20
721.9168332271435
 30
0.0
 40
5.0
100
AcDbArc
 50
59.46264995169952
 51
90.0
  0
ARC
  5
F51
330
1E
100
AcDbEntity
  8
STEMPEL
100
AcDbCircle
 10
283.2130222657314
 20
721.9168332271435
 30
0.0
 40
6.0
100
AcDbArc
 50
59.48712567238029
 51
90.0
  0
ARC
  5
F52
330
1E
100
AcDbEntity
  8
STEMPEL
100
AcDbCircle
 10
283.2130222657314
 20
721.9168332271435
 30
0.0
 40
6.0
100
AcDbArc
 50
90.0
 51
90.0
  0
LINE
  5
F53
330
1E
100
AcDbEntity
  8
STEMPEL
100
AcDbLine
 10
309.7323758338585
 20
712.2356706740247
 30
0.0
 11
285.7535219409072
 21
726.2233238402102
 31
0.0
  0
LINE
  5
F54
330
1E
100
AcDbEntity
  8
STEMPEL
100
AcDbLine
 10
310.2457168874392
 20
713.0939137871873
 30
0.0
 11
286.2594140119723
 21
727.0859237978759
 31
0.0
  0
ARC
  5
F55
330
1E
100
AcDbEntity
  8
STEMPEL
100
AcDbCircle
 10
307.2130222657313
 20
707.9167752598285
 30
0.0
 40
5.0
100
AcDbArc
 50
0.0
 51
59.74358352518112
  0
ARC
  5
F56
330
1E
100
AcDbEntity
  8
STEMPEL
100
AcDbCircle
 10
307.2130222657313
 20
707.9167752598285
 30
0.0
 40
6.0
100
AcDbArc
 50
0.0
 51
59.74358352518112
  0
ARC
  5
F57
330
1E
100
AcDbEntity
  8
STEMPEL
100
AcDbCircle
 10
312.7241658700429
 20
717.4366702096058
 30
0.0
 40
5.0
100
AcDbArc
 50
239.7435628364698
 51
239.9329541615142
  0
LINE
  5
F5A
330
1E
100
AcDbEntity
  8
MITTEL
100
AcDbLine
 10
325.2130222657312
 20
612.9168332271441
 30
0.0
 11
325.2130222657312
 21
646.5845765615442
 31
0.0
  0
LINE
  5
F5B
330
1E
100
AcDbEntity
  8
MITTEL
100
AcDbLine
 10
325.2130222657312
 20
643.9168332271442
 30
0.0
 11
325.2130222657312
 21
632.916833227144
 31
0.0
  0
LINE
  5
F5C
330
1E
100
AcDbEntity
  8
STEMPEL
100
AcDbLine
 10
331.213022265731
 20
640.5168332271442
 30
0.0
 11
331.213022265731
 21
638.9168332271442
 31
0.0
  0
LINE
  5
F5D
330
1E
100
AcDbEntity
  8
STEMPEL
100
AcDbLine
 10
319.213022265731
 20
640.5168332271443
 30
0.0
 11
319.213022265731
 21
638.9168332271442
 31
0.0
  0
ARC
  5
F5E
330
1E
100
AcDbEntity
  8
STEMPEL
100
AcDbCircle
 10
337.8708794903046
 20
628.916833227144
 30
0.0
 40
4.99999999999995
100
AcDbArc
 50
181.0000000000017
 51
270.0
  0
HATCH
  5
F5F
330
1E
100
AcDbEntity
  8
SCHRAFF
100
AcDbHatch
 10
0.0
 20
0.0
 30
0.0
210
0.0
220
0.0
230
1.0
  2
_USER
 70
     0
 71
     0
 91
        4
 92
        7
 72
     0
 73
     1
 93
       13
 10
329.2130222657311
 20
637.916833227144
 10
328.2130222657311
 20
637.9168332271441
 10
328.2130222657313
 20
630.5168332271444
 10
328.2130222657311
 20
617.916833227144
 10
329.2130222657312
 20
617.916833227144
 10
329.2130222657311
 20
620.9168332271445
 10
328.7130222657312
 20
620.9168332271445
 10
328.7130222657312
 20
623.9168332271445
 10
329.2130222657312
 20
623.9168332271447
 10
329.213022265731
 20
631.9168332271445
 10
328.7130222657311
 20
631.9168332271445
 10
328.7130222657312
 20
634.9168332271443
 10
329.213022265731
 20
634.9168332271444
 97
        0
 92
        7
 72
     0
 73
     1
 93
        5
 10
328.213022265731
 20
630.516833227144
 10
327.5630222657312
 20
629.8668332271443
 10
327.213022265731
 20
629.8668332271443
 10
327.2130222657311
 20
617.9168332271439
 10
328.213022265731
 20
617.9168332271437
 97
        0
 92
        7
 72
     0
 73
     1
 93
        5
 10
323.2130222657311
 20
629.8668332271443
 10
322.863022265731
 20
629.8668332271443
 10
322.2130222657311
 20
630.5168332271446
 10
322.2130222657312
 20
617.916833227144
 10
323.213022265731
 20
617.916833227144
 97
        0
 92
        7
 72
     0
 73
     1
 93
       13
 10
322.2130222657311
 20
630.5168332271444
 10
322.2130222657309
 20
637.916833227144
 10
321.2130222657311
 20
637.9168332271441
 10
321.213022265731
 20
634.9168332271444
 10
321.7130222657312
 20
634.9168332271444
 10
321.7130222657312
 20
631.9168332271445
 10
321.213022265731
 20
631.9168332271445
 10
321.2130222657312
 20
623.9168332271445
 10
321.7130222657312
 20
623.9168332271445
 10
321.7130222657312
 20
620.9168332271445
 10
321.2130222657312
 20
620.9168332271445
 10
321.2130222657312
 20
617.9168332271439
 10
322.2130222657311
 20
617.9168332271439
 97
        0
 75
     0
 76
     0
 52
135.0
 41
2.0
 77
     0
 78
     1
 53
135.0
 43
-23.23496815592614
 44
203.5375779464454
 45
-1.414213562373095
 46
-1.414213562373094
 79
     0
 47
0.0720222516071515
 98
        4
 10
328.8189117985627
 20
635.9686816956358
 10
327.8098620506454
 20
624.517144113891
 10
322.40423820633
 20
627.8301678997159
 10
321.3231128921421
 20
629.1265677204656
  0
LINE
  5
F60
330
1E
100
AcDbEntity
  8
STEMPEL
100
AcDbLine
 10
322.8630222657309
 20
629.8668332271443
 30
0.0
 11
327.5630222657312
 21
629.8668332271443
 31
0.0
  0
LINE
  5
F61
330
1E
100
AcDbEntity
  8
STEMPEL
100
AcDbLine
 10
333.213022265731
 20
638.916833227144
 30
0.0
 11
318.2130222657311
 21
638.9168332271444
 31
0.0
  0
LINE
  5
F62
330
1E
100
AcDbEntity
  8
STEMPEL
100
AcDbLine
 10
322.2130222657313
 20
630.5168332271444
 30
0.0
 11
328.2130222657313
 21
630.5168332271444
 31
0.0
  0
LINE
  5
F63
330
1E
100
AcDbEntity
  8
STEMPEL
100
AcDbLine
 10
331.2130222657312
 20
638.916833227144
 30
0.0
 11
319.213022265731
 21
638.9168332271444
 31
0.0
  0
LINE
  5
F64
330
1E
100
AcDbEntity
  8
STEMPEL
100
AcDbLine
 10
321.2130222657312
 20
623.9168332271442
 30
0.0
 11
321.213022265731
 21
631.9168332271445
 31
0.0
  0
LINE
  5
F65
330
1E
100
AcDbEntity
  8
STEMPEL
100
AcDbLine
 10
323.2130222657311
 20
617.9168332271443
 30
0.0
 11
323.2130222657311
 21
629.8668332271443
 31
0.0
  0
LINE
  5
F66
330
1E
100
AcDbEntity
  8
HILF
100
AcDbLine
 10
322.2130222657311
 20
617.9168332271443
 30
0.0
 11
322.2130222657311
 21
630.5168332271444
 31
0.0
  0
LINE
  5
F67
330
1E
100
AcDbEntity
  8
STEMPEL
100
AcDbLine
 10
321.7130222657312
 20
623.9168332271445
 30
0.0
 11
321.2130222657312
 21
623.9168332271445
 31
0.0
  0
LINE
  5
F68
330
1E
100
AcDbEntity
  8
STEMPEL
100
AcDbLine
 10
321.2130222657312
 20
617.9168332271444
 30
0.0
 11
321.2130222657312
 21
620.9168332271445
 31
0.0
  0
LINE
  5
F69
330
1E
100
AcDbEntity
  8
STEMPEL
100
AcDbLine
 10
321.7130222657312
 20
620.9168332271445
 30
0.0
 11
321.2130222657312
 21
620.9168332271445
 31
0.0
  0
LINE
  5
F6A
330
1E
100
AcDbEntity
  8
STEMPEL
100
AcDbLine
 10
321.7130222657312
 20
620.9168332271445
 30
0.0
 11
321.7130222657312
 21
623.9168332271445
 31
0.0
  0
LINE
  5
F6B
330
1E
100
AcDbEntity
  8
STEMPEL
100
AcDbLine
 10
321.213022265731
 20
634.9168332271442
 30
0.0
 11
321.2130222657311
 21
637.9168332271444
 31
0.0
  0
LINE
  5
F6C
330
1E
100
AcDbEntity
  8
STEMPEL
100
AcDbLine
 10
321.7130222657312
 20
634.9168332271444
 30
0.0
 11
321.2130222657311
 21
634.9168332271444
 31
0.0
  0
LINE
  5
F6D
330
1E
100
AcDbEntity
  8
STEMPEL
100
AcDbLine
 10
321.7130222657312
 20
631.9168332271445
 30
0.0
 11
321.2130222657311
 21
631.9168332271445
 31
0.0
  0
LINE
  5
F6E
330
1E
100
AcDbEntity
  8
STEMPEL
100
AcDbLine
 10
321.7130222657312
 20
631.9168332271445
 30
0.0
 11
321.7130222657312
 21
634.9168332271444
 31
0.0
  0
LINE
  5
F6F
330
1E
100
AcDbEntity
  8
STEMPEL
100
AcDbLine
 10
321.2130222657312
 20
638.9168332271444
 30
0.0
 11
321.2130222657312
 21
637.916833227144
 31
0.0
  0
LINE
  5
F70
330
1E
100
AcDbEntity
  8
HILF
100
AcDbLine
 10
322.8630222657305
 20
629.8668332271443
 30
0.0
 11
322.8630222657303
 21
638.9168332271442
 31
0.0
  0
LINE
  5
F71
330
1E
100
AcDbEntity
  8
STEMPEL
100
AcDbLine
 10
322.2130222657309
 20
638.9168332271442
 30
0.0
 11
322.2130222657313
 21
630.5168332271444
 31
0.0
  0
LINE
  5
F72
330
1E
100
AcDbEntity
  8
STEMPEL
100
AcDbLine
 10
322.2130222657313
 20
630.5168332271444
 30
0.0
 11
322.8630222657309
 21
629.8668332271443
 31
0.0
  0
LINE
  5
F73
330
1E
100
AcDbEntity
  8
STEMPEL
100
AcDbLine
 10
329.2130222657312
 20
623.9168332271445
 30
0.0
 11
329.213022265731
 21
631.9168332271445
 31
0.0
  0
LINE
  5
F74
330
1E
100
AcDbEntity
  8
STEMPEL
100
AcDbLine
 10
327.2130222657311
 20
617.9168332271443
 30
0.0
 11
327.2130222657311
 21
629.8668332271443
 31
0.0
  0
LINE
  5
F75
330
1E
100
AcDbEntity
  8
HILF
100
AcDbLine
 10
328.2130222657311
 20
617.9168332271443
 30
0.0
 11
328.2130222657311
 21
630.5168332271444
 31
0.0
  0
LINE
  5
F76
330
1E
100
AcDbEntity
  8
STEMPEL
100
AcDbLine
 10
329.2130222657312
 20
623.9168332271447
 30
0.0
 11
328.7130222657312
 21
623.9168332271445
 31
0.0
  0
LINE
  5
F77
330
1E
100
AcDbEntity
  8
STEMPEL
100
AcDbLine
 10
329.2130222657312
 20
617.9168332271444
 30
0.0
 11
329.2130222657312
 21
620.9168332271445
 31
0.0
  0
LINE
  5
F78
330
1E
100
AcDbEntity
  8
STEMPEL
100
AcDbLine
 10
329.2130222657312
 20
620.9168332271445
 30
0.0
 11
328.7130222657311
 21
620.9168332271445
 31
0.0
  0
LINE
  5
F79
330
1E
100
AcDbEntity
  8
STEMPEL
100
AcDbLine
 10
328.7130222657312
 20
620.9168332271445
 30
0.0
 11
328.7130222657312
 21
623.9168332271447
 31
0.0
  0
LINE
  5
F7A
330
1E
100
AcDbEntity
  8
STEMPEL
100
AcDbLine
 10
328.2130222657309
 20
637.916833227144
 30
0.0
 11
333.2130222657313
 21
637.916833227144
 31
0.0
  0
LINE
  5
F7B
330
1E
100
AcDbEntity
  8
STEMPEL
100
AcDbLine
 10
329.213022265731
 20
634.9168332271444
 30
0.0
 11
329.2130222657311
 21
637.9168332271444
 31
0.0
  0
LINE
  5
F7C
330
1E
100
AcDbEntity
  8
STEMPEL
100
AcDbLine
 10
329.2130222657311
 20
634.9168332271444
 30
0.0
 11
328.7130222657312
 21
634.9168332271444
 31
0.0
  0
LINE
  5
F7D
330
1E
100
AcDbEntity
  8
STEMPEL
100
AcDbLine
 10
329.2130222657311
 20
631.9168332271445
 30
0.0
 11
328.7130222657312
 21
631.9168332271445
 31
0.0
  0
LINE
  5
F7E
330
1E
100
AcDbEntity
  8
STEMPEL
100
AcDbLine
 10
328.7130222657312
 20
631.9168332271445
 30
0.0
 11
328.7130222657312
 21
634.9168332271444
 31
0.0
  0
LINE
  5
F7F
330
1E
100
AcDbEntity
  8
STEMPEL
100
AcDbLine
 10
329.2130222657312
 20
638.916833227144
 30
0.0
 11
329.2130222657312
 21
637.916833227144
 31
0.0
  0
LINE
  5
F80
330
1E
100
AcDbEntity
  8
STEMPEL
100
AcDbLine
 10
327.5630222657312
 20
629.8668332271443
 30
0.0
 11
328.2130222657313
 21
630.5168332271444
 31
0.0
  0
LINE
  5
F81
330
1E
100
AcDbEntity
  8
HILF
100
AcDbLine
 10
327.5630222657308
 20
629.8668332271443
 30
0.0
 11
327.5630222657304
 21
638.916833227144
 31
0.0
  0
LINE
  5
F82
330
1E
100
AcDbEntity
  8
STEMPEL
100
AcDbLine
 10
328.2130222657309
 20
638.9168332271441
 30
0.0
 11
328.2130222657313
 21
630.5168332271444
 31
0.0
  0
LINE
  5
F83
330
1E
100
AcDbEntity
  8
STEMPEL
100
AcDbLine
 10
332.7130222657311
 20
637.916833227144
 30
0.0
 11
332.8716410145227
 21
628.8295711949574
 31
0.0
  0
LINE
  5
F84
330
1E
100
AcDbEntity
  8
STEMPEL
100
AcDbLine
 10
333.2130222657311
 20
638.9168332271442
 30
0.0
 11
333.2130222657312
 21
637.916833227144
 31
0.0
  0
LINE
  5
F87
330
1E
100
AcDbEntity
  8
STEMPEL
100
AcDbLine
 10
337.8708794903046
 20
623.9168332271439
 30
0.0
 11
345.2130222657312
 21
623.9168332271439
 31
0.0
  0
ARC
  5
F88
330
1E
100
AcDbEntity
  8
STEMPEL
100
AcDbCircle
 10
345.2130222657312
 20
620.916833227144
 30
0.0
 40
3.000000000000028
100
AcDbArc
 50
270.0
 51
90.0
  0
ARC
  5
F89
330
1E
100
AcDbEntity
  8
STEMPEL
100
AcDbCircle
 10
325.213022265731
 20
636.3034589679443
 30
0.0
 40
8.281117593600001
100
AcDbArc
 50
70.52782738138933
 51
109.4721726186137
  0
LINE
  5
F8A
330
1E
100
AcDbEntity
  8
STEMPEL
100
AcDbLine
 10
319.213022265731
 20
640.5168332271443
 30
0.0
 11
331.213022265731
 21
640.5168332271442
 31
0.0
  0
LINE
  5
F8B
330
1E
100
AcDbEntity
  8
STEMPEL
100
AcDbLine
 10
321.0726726761051
 20
644.5845765615443
 30
0.0
 11
329.3533718548478
 21
644.5845765615443
 31
0.0
  0
ARC
  5
F8C
330
1E
100
AcDbEntity
  8
STEMPEL
100
AcDbCircle
 10
321.0722688837569
 20
642.3366782412651
 30
0.0
 40
2.247898356545996
100
AcDbArc
 50
52.11936428281976
 51
121.4691945163663
  0
LINE
  5
F8D
330
1E
100
AcDbEntity
  8
STEMPEL
100
AcDbLine
 10
319.6920177564324
 20
644.1345860163412
 30
0.0
 11
319.6920177564324
 21
640.5168332271443
 31
0.0
  0
LINE
  5
F8E
330
1E
100
AcDbEntity
  8
STEMPEL
100
AcDbLine
 10
319.6920177564324
 20
644.1345860163412
 30
0.0
 11
319.8987758882178
 21
644.2539578793846
 31
0.0
  0
LINE
  5
F8F
330
1E
100
AcDbEntity
  8
STEMPEL
100
AcDbLine
 10
322.4525200110817
 20
644.1109256442168
 30
0.0
 11
322.4525200110817
 21
640.5168332271443
 31
0.0
  0
ARC
  5
F90
330
1E
100
AcDbEntity
  8
STEMPEL
100
AcDbCircle
 10
329.353775647705
 20
642.3366782412651
 30
0.0
 40
2.247898356545996
100
AcDbArc
 50
58.53080548383258
 51
127.8806357171802
  0
LINE
  5
F91
330
1E
100
AcDbEntity
  8
STEMPEL
100
AcDbLine
 10
327.9735245203805
 20
644.1109256442168
 30
0.0
 11
327.9735245203803
 21
640.5168332271443
 31
0.0
  0
LINE
  5
F92
330
1E
100
AcDbEntity
  8
STEMPEL
100
AcDbLine
 10
329.3498164223457
 20
644.5845765615443
 30
0.0
 11
329.3533718553419
 21
644.5845765615443
 31
0.0
  0
LINE
  5
F93
330
1E
100
AcDbEntity
  8
STEMPEL
100
AcDbLine
 10
330.7340267750297
 20
644.1345860163411
 30
0.0
 11
330.7340267750297
 21
640.5168332271443
 31
0.0
  0
LINE
  5
F94
330
1E
100
AcDbEntity
  8
STEMPEL
100
AcDbLine
 10
330.7340267750297
 20
644.1345860163412
 30
0.0
 11
330.5272686432374
 21
644.2539578793886
 31
0.0
  0
DIMENSION
  5
104A
330
1E
100
AcDbEntity
  8
BEM
100
AcDbDimension
  2
*D4
 10
353.2130222657312
 20
749.926734226856
 30
0.0
 11
203.2130222657312
 21
756.4267342268561
 31
0.0
 70
    32
  1
%%c<>
 71
     5
 42
300.0
  3
Standard
100
AcDbAlignedDimension
 13
53.21302226573116
 23
607.0310467895181
 33
0.0
 14
353.2130222657312
 24
607.0310467895181
 34
0.0
100
AcDbRotatedDimension
1001
ACAD
1000
DSTYLE
1002
{
1070
    40
1040
2.0
1070
    41
1040
3.5
1070
    42
1040
1.0
1070
    43
1040
7.0
1070
    44
1040
1.0
1070
    73
1070
     0
1070
    74
1070
     0
1070
    77
1070
     1
1070
    78
1070
     8
1070
    79
1070
     2
1070
   140
1040
3.5
1070
   141
1040
1.5
1070
   146
1040
0.5142857142857144
1070
   147
1040
1.5
1070
   172
1070
     1
1070
   178
1070
     1
1070
   179
1070
     2
1070
   271
1070
     2
1070
   272
1070
     2
1070
   284
1070
     8
1070
   285
1070
     8
1070
   286
1070
     8
1002
}
  0
HATCH
  5
10B3
330
1E
100
AcDbEntity
  8
SCHRAFF
100
AcDbHatch
 10
0.0
 20
0.0
 30
0.0
210
0.0
220
0.0
230
1.0
  2
_USER
 70
     0
 71
     0
 91
        5
 92
        7
 72
     1
 73
     1
 93
        4
 10
84.21302226573118
 20
617.9168332271437
 42
0.0
 10
84.21302226573118
 20
623.9168332271439
 42
0.0
 10
61.21302226573118
 20
623.9168332271439
 42
1.0
 10
61.21302226573117
 20
617.9168332271439
 42
0.0
 97
        0
 92
        7
 72
     1
 73
     1
 93
        4
 10
121.2130222657312
 20
617.9168332271437
 42
1.0
 10
121.2130222657312
 20
623.9168332271439
 42
0.0
 10
98.21302226573116
 20
623.9168332271439
 42
0.0
 10
98.2130222657312
 20
617.9168332271439
 42
0.0
 97
        0
 92
        7
 72
     1
 73
     1
 93
        4
 10
306.6875299069953
 20
617.916833227144
 42
0.0
 10
306.6875299069953
 20
623.9168332271442
 42
0.0
 10
285.2130222657313
 20
623.9168332271442
 42
1.0
 10
285.2130222657313
 20
617.916833227144
 42
0.0
 97
        0
 92
        7
 72
     1
 73
     1
 93
       15
 10
321.2130222657312
 20
617.9168332271441
 42
0.0
 10
321.2130222657312
 20
620.9168332271445
 42
0.0
 10
321.7130222657312
 20
620.9168332271445
 42
0.0
 10
321.7130222657312
 20
623.9168332271445
 42
0.0
 10
321.2130222657312
 20
623.9168332271445
 42
0.0
 10
321.213022265731
 20
631.9168332271445
 42
0.0
 10
321.7130222657313
 20
631.9168332271446
 42
0.0
 10
321.7130222657313
 20
634.9168332271446
 42
0.0
 10
321.213022265731
 20
634.9168332271444
 42
0.0
 10
321.213022265731
 20
637.916833227144
 42
0.0
 10
317.7130222657311
 20
637.916833227144
 42
0.0
 10
317.5544035169398
 20
628.8295711949579
 42
-0.4091108014277171
 10
312.5551650411579
 20
623.9168332271441
 42
0.0
 10
306.6875299069953
 20
623.9168332271441
 42
0.0
 10
306.6875299069953
 20
617.9168332271439
 42
0.0
 97
        0
 92
        7
 72
     1
 73
     1
 93
       15
 10
329.2130222657298
 20
623.9168332271446
 42
0.0
 10
328.7130222657312
 20
623.9168332271445
 42
0.0
 10
328.7130222657312
 20
620.9168332271445
 42
0.0
 10
329.2130222657312
 20
620.9168332271445
 42
0.0
 10
329.2130222657312
 20
617.916833227144
 42
0.0
 10
345.2130222657312
 20
617.916833227144
 42
1.0
 10
345.2130222657312
 20
623.9168332271439
 42
0.0
 10
337.8708794903046
 20
623.9168332271439
 42
-0.4091108014276976
 10
332.8716410145227
 20
628.8295711949574
 42
0.0
 10
332.7130222657311
 20
637.916833227144
 42
0.0
 10
329.213022265731
 20
637.916833227144
 42
0.0
 10
329.213022265731
 20
634.9168332271444
 42
0.0
 10
328.7130222657312
 20
634.9168332271444
 42
0.0
 10
328.7130222657312
 20
631.9168332271445
 42
0.0
 10
329.213022265731
 20
631.9168332271445
 42
0.0
 97
        0
 75
     0
 76
     0
 52
45.0
 41
5.0
 77
     0
 78
     1
 53
45.0
 43
-45.15646637084046
 44
132.5755492068569
 45
-3.535533905932737
 46
3.535533905932737
 79
     0
 47
0.4350798893119141
 98
        5
 10
73.82385539851248
 20
619.1977258455388
 10
101.2487578113237
 20
619.1977258455388
 10
295.3996377359208
 20
619.6328056855938
 10
315.4241680042205
 20
620.0678855256494
 10
331.5308558967731
 20
623.5485262032218
  0
HATCH
  5
10F7
330
1E
100
AcDbEntity
  8
SCHRAFF
100
AcDbHatch
 10
0.0
 20
0.0
 30
0.0
210
0.0
220
0.0
230
1.0
  2
_USER
 70
     0
 71
     0
 91
        2
 92
        7
 72
     1
 73
     1
 93
       10
 10
252.8130222657309
 20
349.9692263586342
 42
0.0
 10
252.1085291524716
 20
341.9168332271444
 42
0.0
 10
253.3131129575236
 20
341.9168332271444
 42
0.0
 10
254.013022265731
 20
349.916833227144
 42
0.0
 10
254.013022265731
 20
586.726883733485
 42
-0.198912367379669
 10
255.4774883597984
 20
590.2624176394178
 42
0.0
 10
262.4046961536608
 20
597.1896254332799
 42
0.0
 10
261.5561680162369
 20
598.0381535707038
 42
0.0
 10
254.6289602223744
 20
591.1109457768418
 42
0.1989123673796574
 10
252.813022265731
 20
586.7268837334852
 42
0.0
 97
        0
 92
        7
 72
     1
 73
     1
 93
       10
 10
152.4130222657309
 20
349.9168332271452
 42
0.0
 10
153.1129315739383
 20
341.9168332271448
 42
0.0
 10
154.3175153789904
 20
341.9168332271448
 42
0.0
 10
153.6130222657309
 20
349.9692263586354
 42
0.0
 10
153.6130222657309
 20
586.726883733485
 42
0.198912367379669
 10
151.7970843090874
 20
591.1109457768417
 42
0.0
 10
144.8698765152243
 20
598.0381535707042
 42
0.0
 10
144.0213483778005
 20
597.1896254332802
 42
0.0
 10
150.9485561716635
 20
590.2624176394178
 42
-0.1989123673796631
 10
152.4130222657309
 20
586.726883733485
 42
0.0
 97
        0
 75
     0
 76
     0
 52
135.0
 41
2.0
 77
     0
 78
     1
 53
135.0
 43
-32.93917703807392
 44
168.6772290668291
 45
-1.414213562373095
 46
-1.414213562373094
 79
     0
 47
0.4814251419694602
 98
        2
 10
253.1966631028113
 20
518.7035724767304
 10
153.0059197067039
 20
524.9620995806221
  0
HATCH
  5
10F8
330
1E
100
AcDbEntity
  8
SCHRAFF
100
AcDbHatch
 10
0.0
 20
0.0
 30
0.0
210
0.0
220
0.0
230
1.0
  2
_USER
 70
     0
 71
     0
 91
        4
 92
        7
 72
     1
 73
     1
 93
        4
 10
261.1319039475249
 20
595.9168332271441
 42
0.0
 10
260.283375810101
 20
595.0683050897203
 42
0.7207592200561592
 10
265.3745446346443
 20
597.6138895019917
 42
0.0
 10
263.6774883597964
 20
595.9168332271442
 42
0.0
 97
        0
 92
       23
 72
     0
 73
     1
 93
        3
 10
262.4046961536608
 20
597.1896254332798
 10
261.1319039475249
 20
595.916833227144
 10
263.6774883597965
 20
595.9168332271441
 97
        0
 92
       23
 72
     0
 73
     1
 93
        3
 10
144.0213483778004
 20
597.1896254332803
 10
142.7485561716648
 20
595.9168332271445
 10
145.2941405839364
 20
595.9168332271445
 97
        0
 92
        7
 72
     1
 73
     1
 93
        4
 10
146.1426687213608
 20
595.0683050897203
 42
0.0
 10
145.2941405839363
 20
595.9168332271446
 42
0.0
 10
142.7485561716647
 20
595.9168332271445
 42
0.0
 10
141.0514998968176
 20
597.6138895019914
 42
0.7207592200560974
 97
        0
 75
     0
 76
     0
 52
0.0
 41
0.1
 77
     0
 78
     1
 53
0.0
 43
-32.93917703807392
 44
168.6772290668291
 45
0.0
 46
0.1
 79
     0
 47
0.229449449055442
 98
        4
 10
262.4070205638022
 20
595.1799732627269
 10
262.6365945072689
 20
596.0977715428937
 10
144.4060317985895
 20
596.3272207630714
 10
143.9468839116566
 20
594.7210748223715
  0
ARC
  5
10F9
330
1E
100
AcDbEntity
  8
SCHRAFF
100
AcDbCircle
 10
144.0213483778011
 20
597.1896254332798
 30
0.0
 40
3.0
100
AcDbArc
 50
171.8698976458433
 51
315.0000000000012
  0
ARC
  5
10FA
330
1E
100
AcDbEntity
  8
SCHRAFF
100
AcDbCircle
 10
262.4046961536608
 20
597.1896254332798
 30
0.0
 40
3.0
100
AcDbArc
 50
224.9999999999988
 51
8.130102354156669
  0
LINE
  5
10FB
330
1E
100
AcDbEntity
  8
STEMPEL
100
AcDbLine
 10
261.131903947525
 20
595.916833227144
 30
0.0
 11
263.6774883597964
 21
595.9168332271441
 31
0.0
  0
LINE
  5
10FC
330
1E
100
AcDbEntity
  8
STEMPEL
100
AcDbLine
 10
262.4046961536608
 20
597.1896254332798
 30
0.0
 11
255.4774883597984
 21
590.2624176394178
 31
0.0
  0
ARC
  5
10FD
330
1E
100
AcDbEntity
  8
STEMPEL
100
AcDbCircle
 10
259.013022265731
 20
586.726883733485
 30
0.0
 40
5.0
100
AcDbArc
 50
134.9999999999988
 51
180.0
  0
ARC
  5
10FE
330
1E
100
AcDbEntity
  8
STEMPEL
100
AcDbCircle
 10
259.013022265731
 20
586.726883733485
 30
0.0
 40
6.2
100
AcDbArc
 50
134.9999999999988
 51
180.0
  0
ARC
  5
10FF
330
1E
100
AcDbEntity
  8
STEMPEL
100
AcDbCircle
 10
147.4130222657309
 20
586.726883733485
 30
0.0
 40
6.2
100
AcDbArc
 50
0.0
 51
45.00000000000115
  0
ARC
  5
1100
330
1E
100
AcDbEntity
  8
STEMPEL
100
AcDbCircle
 10
147.4130222657309
 20
586.726883733485
 30
0.0
 40
5.0
100
AcDbArc
 50
0.0
 51
45.00000000000115
  0
LINE
  5
1101
330
1E
100
AcDbEntity
  8
STEMPEL
100
AcDbLine
 10
143.9568196529487
 20
597.2541541581322
 30
0.0
 11
150.9485561716635
 21
590.2624176394178
 31
0.0
  0
LINE
  5
1102
330
1E
100
AcDbEntity
  8
STEMPEL
100
AcDbLine
 10
252.813022265731
 20
349.9692263586346
 30
0.0
 11
252.1085291524715
 21
341.9168332271444
 31
0.0
  0
LINE
  5
1103
330
1E
100
AcDbEntity
  8
STEMPEL
100
AcDbLine
 10
153.6130222657309
 20
349.9692263586353
 30
0.0
 11
154.3175153789904
 21
341.9168332271448
 31
0.0
  0
LINE
  5
1104
330
1E
100
AcDbEntity
  8
STEMPEL
100
AcDbLine
 10
153.6130222657309
 20
586.726883733485
 30
0.0
 11
153.6130222657309
 21
349.9692263586353
 31
0.0
  0
LINE
  5
1105
330
1E
100
AcDbEntity
  8
STEMPEL
100
AcDbLine
 10
252.813022265731
 20
586.726883733485
 30
0.0
 11
252.813022265731
 21
349.9692263586346
 31
0.0
  0
LINE
  5
1106
330
1E
100
AcDbEntity
  8
STEMPEL
100
AcDbLine
 10
254.013022265731
 20
349.9168332271446
 30
0.0
 11
253.3131129575236
 21
341.9168332271444
 31
0.0
  0
LINE
  5
1107
330
1E
100
AcDbEntity
  8
STEMPEL
100
AcDbLine
 10
152.4130222657309
 20
349.9168332271449
 30
0.0
 11
153.1129315739383
 21
341.9168332271448
 31
0.0
  0
LINE
  5
1108
102
{ACAD_REACTORS
330
14D2
102
}
330
1E
100
AcDbEntity
  8
STEMPEL
100
AcDbLine
 10
254.013022265731
 20
586.726883733485
 30
0.0
 11
254.013022265731
 21
349.9168332271446
 31
0.0
  0
LINE
  5
1109
102
{ACAD_REACTORS
330
14D2
102
}
330
1E
100
AcDbEntity
  8
STEMPEL
100
AcDbLine
 10
152.4130222657309
 20
586.726883733485
 30
0.0
 11
152.4130222657309
 21
349.9168332271449
 31
0.0
  0
LINE
  5
110A
330
1E
100
AcDbEntity
  8
STEMPEL
100
AcDbLine
 10
142.7485561716647
 20
595.9168332271445
 30
0.0
 11
145.2941405839365
 21
595.9168332271445
 31
0.0
  0
LINE
  5
110B
330
1E
100
AcDbEntity
  8
STEMPEL
100
AcDbLine
 10
261.5561680162368
 20
598.0381535707038
 30
0.0
 11
144.8698765152248
 21
598.0381535707038
 31
0.0
  0
LINE
  5
110C
102
{ACAD_REACTORS
330
1123
102
}
330
1E
100
AcDbEntity
  8
STEMPEL
100
AcDbLine
 10
59.34144939047712
 20
611.9168332271449
 30
0.0
 11
347.0845951409847
 21
611.9168332271438
 31
0.0
  0
LINE
  5
110D
330
1E
100
AcDbEntity
  8
STEMPEL
100
AcDbLine
 10
55.34144939047712
 20
604.9168332271449
 30
0.0
 11
133.7485561716639
 21
604.9168332271447
 31
0.0
  0
LINE
  5
110E
102
{ACAD_REACTORS
330
1123
102
}
330
1E
100
AcDbEntity
  8
STEMPEL
100
AcDbLine
 10
59.34144939047712
 20
608.9168332271449
 30
0.0
 11
128.9201290469178
 21
608.9168332271447
 31
0.0
  0
LINE
  5
110F
102
{ACAD_REACTORS
330
1123
102
}
330
1E
100
AcDbEntity
  8
STEMPEL
100
AcDbLine
 10
53.22012904691746
 20
607.0381535707049
 30
0.0
 11
57.22012904691746
 21
611.0381535707047
 31
0.0
  0
LINE
  5
1110
102
{ACAD_REACTORS
330
1123
102
}
330
1E
100
AcDbEntity
  8
STEMPEL
100
AcDbLine
 10
55.34144939047712
 20
604.9168332271449
 30
0.0
 11
59.34144939047712
 21
608.9168332271449
 31
0.0
  0
LINE
  5
1111
102
{ACAD_REACTORS
330
1123
102
}
330
1E
100
AcDbEntity
  8
STEMPEL
100
AcDbLine
 10
53.22012904691757
 20
607.0381535707046
 30
0.0
 11
55.34144939047712
 21
604.9168332271449
 31
0.0
  0
ARC
  5
1112
102
{ACAD_REACTORS
330
1123
102
}
330
1E
100
AcDbEntity
  8
STEMPEL
100
AcDbCircle
 10
59.34144939047712
 20
608.9168332271449
 30
0.0
 40
3.0
100
AcDbArc
 50
90.0
 51
135.0
  0
ARC
  5
1113
102
{ACAD_REACTORS
330
1123
102
}
330
1E
100
AcDbEntity
  8
STEMPEL
100
AcDbCircle
 10
128.9201290469178
 20
606.9168332271445
 30
0.0
 40
5.0
100
AcDbArc
 50
45.0
 51
90.0
  0
LINE
  5
1114
102
{ACAD_REACTORS
330
1123
102
}
330
1E
100
AcDbEntity
  8
STEMPEL
100
AcDbLine
 10
130.3343426092908
 20
608.3310467895175
 30
0.0
 11
142.7485561716647
 21
595.9168332271445
 31
0.0
  0
ARC
  5
1115
102
{ACAD_REACTORS
330
1123
102
}
330
1E
100
AcDbEntity
  8
STEMPEL
100
AcDbCircle
 10
128.9201290469178
 20
606.9168332271445
 30
0.0
 40
2.0
100
AcDbArc
 50
45.0
 51
90.0
  0
LINE
  5
1116
102
{ACAD_REACTORS
330
1123
102
}
330
1E
100
AcDbEntity
  8
STEMPEL
100
AcDbLine
 10
132.4556629528504
 20
610.4523671330773
 30
0.0
 11
151.7970843090874
 21
591.1109457768417
 31
0.0
  0
LINE
  5
1117
102
{ACAD_REACTORS
330
1123
102
}
330
1E
100
AcDbEntity
  8
STEMPEL
  6
STRICHPUNKT
100
AcDbLine
 10
144.8698765152243
 20
598.0381535707042
 30
0.0
 11
142.7485561716647
 21
595.9168332271445
 31
0.0
  0
LINE
  5
1118
330
1E
100
AcDbEntity
  8
STEMPEL
100
AcDbLine
 10
272.6774883597973
 20
604.916833227144
 30
0.0
 11
351.0845951409859
 21
604.9168332271437
 31
0.0
  0
LINE
  5
1119
330
1E
100
AcDbEntity
  8
STEMPEL
100
AcDbLine
 10
277.5059154845441
 20
608.9168332271442
 30
0.0
 11
347.0845951409857
 21
608.9168332271437
 31
0.0
  0
LINE
  5
111A
330
1E
100
AcDbEntity
  8
STEMPEL
  6
STRICHPUNKT
100
AcDbLine
 10
261.5561680162368
 20
598.0381535707038
 30
0.0
 11
263.6774883597965
 21
595.9168332271441
 31
0.0
  0
LINE
  5
111B
330
1E
100
AcDbEntity
  8
STEMPEL
100
AcDbLine
 10
273.9703815786115
 20
610.4523671330773
 30
0.0
 11
254.6289602223744
 21
591.1109457768418
 31
0.0
  0
LINE
  5
111C
330
1E
100
AcDbEntity
  8
STEMPEL
100
AcDbLine
 10
276.0917019221711
 20
608.3310467895175
 30
0.0
 11
263.6774883597965
 21
595.9168332271441
 31
0.0
  0
ARC
  5
111D
330
1E
100
AcDbEntity
  8
STEMPEL
100
AcDbCircle
 10
277.5059154845441
 20
606.9168332271445
 30
0.0
 40
2.0
100
AcDbArc
 50
90.0
 51
135.0
  0
ARC
  5
111E
330
1E
100
AcDbEntity
  8
STEMPEL
100
AcDbCircle
 10
277.5059154845441
 20
606.9168332271445
 30
0.0
 40
5.0
100
AcDbArc
 50
90.0
 51
135.0
  0
LINE
  5
111F
330
1E
100
AcDbEntity
  8
STEMPEL
100
AcDbLine
 10
353.2189936908452
 20
607.0250753644038
 30
0.0
 11
349.2059154845443
 21
611.0381535707047
 31
0.0
  0
LINE
  5
1120
330
1E
100
AcDbEntity
  8
STEMPEL
100
AcDbLine
 10
353.2189936908452
 20
607.0250753644038
 30
0.0
 11
351.0976733472856
 21
604.903755020844
 31
0.0
  0
LINE
  5
1121
330
1E
100
AcDbEntity
  8
STEMPEL
100
AcDbLine
 10
351.0845951409859
 20
604.9168332271437
 30
0.0
 11
347.0845951409847
 21
608.9168332271449
 31
0.0
  0
ARC
  5
1122
330
1E
100
AcDbEntity
  8
STEMPEL
100
AcDbCircle
 10
347.0845951409847
 20
608.9168332271449
 30
0.0
 40
3.0
100
AcDbArc
 50
45.0
 51
90.0
  0
HATCH
  5
1123
330
1E
100
AcDbEntity
  8
SCHRAFF
100
AcDbHatch
 10
0.0
 20
0.0
 30
0.0
210
0.0
220
0.0
230
1.0
  2
_USER
 70
     0
 71
     1
 91
        1
 92
        7
 72
     1
 73
     1
 93
       11
 10
59.34144939047712
 20
611.9168332271449
 42
0.1989123673796551
 10
57.22012904691746
 20
611.0381535707047
 42
0.0
 10
53.22012904691735
 20
607.0381535707048
 42
0.0
 10
55.34144939047712
 20
604.9168332271449
 42
0.0
 10
59.34144939047719
 20
608.916833227145
 42
0.0
 10
128.9201290469178
 20
608.9168332271447
 42
-0.1989123673796173
 10
130.3343426092906
 20
608.3310467895178
 42
0.0
 10
142.7485561716647
 20
595.9168332271445
 42
0.0
 10
144.8698765152243
 20
598.0381535707042
 42
0.0
 10
132.4556629528504
 20
610.4523671330773
 42
0.1989123673796515
 10
128.9201290469178
 20
611.9168332271446
 42
0.0
 97
       11
330
110C
330
1112
330
110F
330
1111
330
1110
330
110E
330
1115
330
1114
330
1117
330
1116
330
1113
 75
     0
 76
     0
 52
45.0
 41
2.0
 77
     0
 78
     1
 53
45.0
 43
-45.98066596736782
 44
336.6059904191609
 45
-1.414213562373094
 46
1.414213562373095
 79
     0
 47
0.4118729359136521
 98
        1
 10
118.4826951871144
 20
610.4724704471375
  0
HATCH
  5
1124
330
1E
100
AcDbEntity
  8
SCHRAFF
100
AcDbHatch
 10
0.0
 20
0.0
 30
0.0
210
0.0
220
0.0
230
1.0
  2
_USER
 70
     0
 71
     0
 91
        1
 92
        7
 72
     1
 73
     1
 93
       11
 10
277.5059154845441
 20
611.9168332271446
 42
0.0
 10
347.0845951409848
 20
611.9168332271449
 42
-0.1989123673796547
 10
349.2059154845445
 20
611.0381535707047
 42
0.0
 10
353.2059154845445
 20
607.0381535707048
 42
0.0
 10
351.0845951409848
 20
604.9168332271449
 42
0.0
 10
347.0845951409849
 20
608.9168332271448
 42
0.0
 10
277.5059154845441
 20
608.9168332271447
 42
0.1989123673796182
 10
276.0917019221713
 20
608.3310467895178
 42
0.0
 10
263.6774883597972
 20
595.9168332271445
 42
0.0
 10
261.5561680162376
 20
598.0381535707042
 42
0.0
 10
273.9703815786115
 20
610.4523671330773
 42
-0.1989123673796434
 97
        0
 75
     0
 76
     0
 52
45.0
 41
2.0
 77
     0
 78
     1
 53
45.0
 43
-45.98066596736782
 44
336.6059904191609
 45
-1.414213562373094
 46
1.414213562373095
 79
     0
 47
0.4118729359136521
 98
        1
 10
287.9433493443475
 20
610.4724704471375
  0
LINE
  5
1127
330
1E
100
AcDbEntity
  8
HILF
100
AcDbLine
 10
154.813022265731
 20
349.9168332271449
 30
0.0
 11
251.6130222657309
 21
349.9168332271446
 31
0.0
  0
LINE
  5
1128
330
1E
100
AcDbEntity
  8
STEMPEL
100
AcDbLine
 10
153.1129315739383
 20
341.9168332271448
 30
0.0
 11
253.3131129575236
 21
341.9168332271444
 31
0.0
  0
LINE
  5
1129
330
1E
100
AcDbEntity
  8
HILF
100
AcDbLine
 10
154.4223440827404
 20
589.0995210141486
 30
0.0
 11
252.0037004487215
 21
589.0995210141486
 31
0.0
  0
LINE
  5
1305
102
{ACAD_REACTORS
330
14D2
102
}
330
1E
100
AcDbEntity
  8
STEMPEL
100
AcDbLine
 10
150.013022265731
 20
464.9168332271441
 30
0.0
 11
144.9630222657309
 21
464.9168332271441
 31
0.0
  0
ARC
  5
1307
102
{ACAD_REACTORS
330
14D2
102
}
330
1E
100
AcDbEntity
  8
STEMPEL
100
AcDbCircle
 10
148.9630222657309
 20
464.9753539706845
 30
0.0
 40
4.0
100
AcDbArc
 50
148.1457059206461
 51
180.0
  0
LINE
  5
1308
330
1E
100
AcDbEntity
  8
STEMPEL
100
AcDbLine
 10
144.9630222657309
 20
464.9753539706845
 30
0.0
 11
144.9630222657309
 21
464.9168332271439
 31
0.0
  0
POINT
  5
1309
330
1E
100
AcDbEntity
  8
DEFPOINTS
  6
ByBlock
 62
     0
100
AcDbPoint
 10
144.9630222657309
 20
464.9168332271439
 30
0.0
  0
LINE
  5
130A
102
{ACAD_REACTORS
330
14D2
102
}
330
1E
100
AcDbEntity
  8
STEMPEL
100
AcDbLine
 10
145.5654504151052
 20
467.0863976745987
 30
0.0
 11
148.126657346705
 21
471.2084746161118
 31
0.0
  0
LINE
  5
130B
102
{ACAD_REACTORS
330
14D2
102
}
330
1E
100
AcDbEntity
  8
STEMPEL
100
AcDbLine
 10
152.4130222657309
 20
464.9704230656303
 30
0.0
 11
150.8496355301232
 21
470.8050617947978
 31
0.0
  0
ARC
  5
130C
102
{ACAD_REACTORS
330
14D2
102
}
330
1E
100
AcDbEntity
  8
STEMPEL
100
AcDbCircle
 10
149.4007467906896
 20
470.4168332271438
 30
0.0
 40
1.5
100
AcDbArc
 50
15.00000000000074
 51
148.1457059206488
  0
LINE
  5
130D
330
1E
100
AcDbEntity
  8
STEMPEL
100
AcDbLine
 10
149.4007467906896
 20
471.9168332271439
 30
0.0
 11
152.4130222657308
 21
471.9168332271439
 31
0.0
  0
LINE
  5
130F
102
{ACAD_REACTORS
330
14D2
102
}
330
1E
100
AcDbEntity
  8
STEMPEL
100
AcDbLine
 10
254.013022265731
 20
444.6259806362046
 30
0.0
 11
255.1596411957811
 21
444.6259806362046
 31
0.0
  0
ARC
  5
1311
102
{ACAD_REACTORS
330
14D2
102
}
330
1E
100
AcDbEntity
  8
STEMPEL
100
AcDbCircle
 10
257.0252977407724
 20
470.4168332271438
 30
0.0
 40
1.5
100
AcDbArc
 50
31.85429407935114
 51
164.9999999999992
  0
LINE
  5
1312
102
{ACAD_REACTORS
330
14D2
102
}
330
1E
100
AcDbEntity
  8
STEMPEL
100
AcDbLine
 10
255.9489372998079
 20
446.9168332271439
 30
0.0
 11
259.9130222657309
 21
446.916833227144
 31
0.0
  0
LINE
  5
1313
102
{ACAD_REACTORS
330
14D2
102
}
330
1E
100
AcDbEntity
  8
STEMPEL
100
AcDbLine
 10
256.1120017512969
 20
448.9168332271439
 30
0.0
 11
258.3126071893114
 21
448.9168332271439
 31
0.0
  0
ARC
  5
1315
102
{ACAD_REACTORS
330
14D2
102
}
330
1E
100
AcDbEntity
  8
STEMPEL
100
AcDbCircle
 10
247.249479680365
 20
448.632766873463
 30
0.0
 40
8.867073426506241
100
AcDbArc
 50
333.1361176767924
 51
1.835846809551139
  0
LINE
  5
1318
102
{ACAD_REACTORS
330
14D2
102
}
330
1E
100
AcDbEntity
  8
STEMPEL
100
AcDbLine
 10
254.013022265731
 20
464.9704230656308
 30
0.0
 11
255.5764090013388
 21
470.8050617947978
 31
0.0
  0
LINE
  5
131A
102
{ACAD_REACTORS
330
14D2
102
}
330
1E
100
AcDbEntity
  8
STEMPEL
100
AcDbLine
 10
258.7985596388319
 20
446.9168332271439
 30
0.0
 11
258.3126071893114
 21
448.9168332271439
 31
0.0
  0
LINE
  5
131B
102
{ACAD_REACTORS
330
14D2
102
}
330
1E
100
AcDbEntity
  8
STEMPEL
100
AcDbLine
 10
260.8605941163566
 20
467.0863976745987
 30
0.0
 11
258.2993871847571
 21
471.2084746161118
 31
0.0
  0
ARC
  5
131C
102
{ACAD_REACTORS
330
14D2
102
}
330
1E
100
AcDbEntity
  8
STEMPEL
100
AcDbCircle
 10
257.4630222657309
 20
464.9753539706845
 30
0.0
 40
4.0
100
AcDbArc
 50
0.0
 51
31.85429407935391
  0
LINE
  5
131D
330
1E
100
AcDbEntity
  8
STEMPEL
100
AcDbLine
 10
261.4630222657309
 20
464.9753539706845
 30
0.0
 11
261.4630222657309
 21
464.9168332271439
 31
0.0
  0
POINT
  5
131E
330
1E
100
AcDbEntity
  8
DEFPOINTS
  6
ByBlock
 62
     0
100
AcDbPoint
 10
261.4630222657309
 20
464.9168332271439
 30
0.0
  0
DIMENSION
  5
131F
330
1E
100
AcDbEntity
  8
BEM
100
AcDbDimension
  2
*D5
 10
152.413022265731
 20
171.3056240599608
 30
0.0
 11
203.2130222657311
 21
177.8056240599608
 31
0.0
 70
    32
  1
%%c<>
 71
     5
 42
101.6000000000001
  3
Standard
100
AcDbAlignedDimension
 13
254.0130222657311
 23
199.864440095655
 33
0.0
 14
152.413022265731
 24
199.8644400956521
 34
0.0
100
AcDbRotatedDimension
1001
ACAD
1000
DSTYLE
1002
{
1070
    40
1040
2.0
1070
    41
1040
3.5
1070
    42
1040
1.0
1070
    43
1040
7.0
1070
    44
1040
1.0
1070
    73
1070
     0
1070
    74
1070
     0
1070
    77
1070
     1
1070
    78
1070
     8
1070
    79
1070
     2
1070
   140
1040
3.5
1070
   141
1040
1.5
1070
   146
1040
0.5142857142857144
1070
   147
1040
1.5
1070
   172
1070
     1
1070
   178
1070
     1
1070
   179
1070
     2
1070
   271
1070
     2
1070
   272
1070
     2
1070
   284
1070
     8
1070
   285
1070
     8
1070
   286
1070
     8
1002
}
  0
ARC
  5
1320
330
1E
100
AcDbEntity
  8
STEMPEL
100
AcDbCircle
 10
136.5130222657309
 20
417.4136326964625
 30
0.0
 40
14.0
100
AcDbArc
 50
0.0
 51
26.88804761772463
  0
ARC
  5
1321
330
1E
100
AcDbEntity
  8
STEMPEL
100
AcDbCircle
 10
169.5130222657309
 20
434.146833227144
 30
0.0
 40
23.0
100
AcDbArc
 50
180.0
 51
206.8880476177246
  0
ARC
  5
1322
102
{ACAD_REACTORS
330
14D2
102
}
330
1E
100
AcDbEntity
  8
STEMPEL
100
AcDbCircle
 10
169.5130222657309
 20
452.7205223094936
 30
0.0
 40
23.0
100
AcDbArc
 50
147.9760040253812
 51
180.0
  0
LINE
  5
1323
102
{ACAD_REACTORS
330
14D2
102
}
330
1E
100
AcDbEntity
  8
STEMPEL
100
AcDbLine
 10
146.5130222657309
 20
452.7205223094936
 30
0.0
 11
146.5130222657309
 21
434.146833227144
 31
0.0
  0
ARC
  5
1324
330
1E
100
AcDbEntity
  8
STEMPEL
100
AcDbCircle
 10
144.413022265731
 20
330.3737065505038
 30
0.0
 40
8.0
100
AcDbArc
 50
0.0
 51
30.85958109062394
  0
LINE
  5
1325
330
1E
100
AcDbEntity
  8
STEMPEL
100
AcDbLine
 10
150.5130222657309
 20
417.4136326964624
 30
0.0
 11
150.5130222657309
 21
341.6887407970272
 31
0.0
  0
LINE
  5
1326
330
1E
100
AcDbEntity
  8
STEMPEL
100
AcDbLine
 10
152.413022265731
 20
330.2732893218924
 30
0.0
 11
152.413022265731
 21
199.8644400956521
 31
0.0
  0
LINE
  5
1327
330
1E
100
AcDbEntity
  8
STEMPEL
100
AcDbLine
 10
153.6130222657309
 20
330.2732893218924
 30
0.0
 11
153.6130222657309
 21
199.9168332271442
 31
0.0
  0
ARC
  5
1328
330
1E
100
AcDbEntity
  8
STEMPEL
100
AcDbCircle
 10
144.413022265731
 20
330.3737065505038
 30
0.0
 40
9.199999999999999
100
AcDbArc
 50
0.0
 51
30.64293176293956
  0
ARC
  5
1329
330
1E
100
AcDbEntity
  8
STEMPEL
100
AcDbCircle
 10
163.5130222657309
 20
341.6887407970272
 30
0.0
 40
13.0
100
AcDbArc
 50
180.0
 51
210.6429317629395
  0
ARC
  5
132A
330
1E
100
AcDbEntity
  8
STEMPEL
100
AcDbCircle
 10
163.5130222657309
 20
341.6887407970272
 30
0.0
 40
14.2
100
AcDbArc
 50
180.0
 51
210.6429317629395
  0
LINE
  5
132B
330
1E
100
AcDbEntity
  8
STEMPEL
100
AcDbLine
 10
149.313022265731
 20
417.4136326964624
 30
0.0
 11
149.313022265731
 21
341.6887407970272
 31
0.0
  0
ARC
  5
132C
330
1E
100
AcDbEntity
  8
STEMPEL
100
AcDbCircle
 10
136.5130222657309
 20
417.4136326964625
 30
0.0
 40
12.8
100
AcDbArc
 50
0.0
 51
26.88804761772463
  0
ARC
  5
132D
330
1E
100
AcDbEntity
  8
STEMPEL
100
AcDbCircle
 10
169.5130222657309
 20
434.146833227144
 30
0.0
 40
24.2
100
AcDbArc
 50
180.0
 51
206.8880476177246
  0
LINE
  5
132E
330
1E
100
AcDbEntity
  8
STEMPEL
100
AcDbLine
 10
145.313022265731
 20
452.7205223094936
 30
0.0
 11
145.313022265731
 21
434.146833227144
 31
0.0
  0
ARC
  5
132F
330
1E
100
AcDbEntity
  8
STEMPEL
100
AcDbCircle
 10
169.5130222657309
 20
452.7205223094936
 30
0.0
 40
24.2
100
AcDbArc
 50
149.7363480579001
 51
180.0
  0
ARC
  5
1330
330
1E
100
AcDbEntity
  8
STEMPEL
100
AcDbCircle
 10
236.9130222657309
 20
452.7205223094936
 30
0.0
 40
24.2
100
AcDbArc
 50
0.0
 51
30.26365194209988
  0
LINE
  5
1331
102
{ACAD_REACTORS
330
136B
102
}
330
1E
100
AcDbEntity
  8
STEMPEL
100
AcDbLine
 10
261.1130222657308
 20
452.7205223094937
 30
0.0
 11
261.1130222657309
 21
434.1468332271441
 31
0.0
  0
ARC
  5
1332
330
1E
100
AcDbEntity
  8
STEMPEL
100
AcDbCircle
 10
236.9130222657309
 20
434.1468332271441
 30
0.0
 40
24.2
100
AcDbArc
 50
333.1119523822754
 51
0.0
  0
ARC
  5
1333
330
1E
100
AcDbEntity
  8
STEMPEL
100
AcDbCircle
 10
269.9130222657309
 20
417.4136326964626
 30
0.0
 40
12.8
100
AcDbArc
 50
153.1119523822753
 51
180.0
  0
LINE
  5
1334
330
1E
100
AcDbEntity
  8
STEMPEL
100
AcDbLine
 10
257.1130222657309
 20
417.4136326964626
 30
0.0
 11
257.1130222657309
 21
341.6887407970273
 31
0.0
  0
ARC
  5
1335
330
1E
100
AcDbEntity
  8
STEMPEL
100
AcDbCircle
 10
242.9130222657309
 20
341.6887407970273
 30
0.0
 40
14.2
100
AcDbArc
 50
329.3570682370604
 51
0.0
  0
ARC
  5
1336
330
1E
100
AcDbEntity
  8
STEMPEL
100
AcDbCircle
 10
242.9130222657309
 20
341.6887407970273
 30
0.0
 40
13.0
100
AcDbArc
 50
329.3570682370604
 51
0.0
  0
ARC
  5
1337
330
1E
100
AcDbEntity
  8
STEMPEL
100
AcDbCircle
 10
262.0130222657309
 20
330.3737065505039
 30
0.0
 40
9.199999999999999
100
AcDbArc
 50
149.3570682370604
 51
180.0
  0
LINE
  5
1338
330
1E
100
AcDbEntity
  8
STEMPEL
100
AcDbLine
 10
252.813022265731
 20
330.2732893218924
 30
0.0
 11
252.813022265731
 21
199.9168332271439
 31
0.0
  0
LINE
  5
1339
330
1E
100
AcDbEntity
  8
STEMPEL
100
AcDbLine
 10
254.0130222657309
 20
330.2732893218924
 30
0.0
 11
254.0130222657311
 21
199.864440095655
 31
0.0
  0
LINE
  5
133A
330
1E
100
AcDbEntity
  8
STEMPEL
100
AcDbLine
 10
255.9130222657309
 20
417.4136326964626
 30
0.0
 11
255.9130222657309
 21
341.6887407970273
 31
0.0
  0
ARC
  5
133B
330
1E
100
AcDbEntity
  8
STEMPEL
100
AcDbCircle
 10
262.0130222657309
 20
330.3737065505039
 30
0.0
 40
8.0
100
AcDbArc
 50
149.140418909376
 51
180.0
  0
LINE
  5
133C
102
{ACAD_REACTORS
330
14D2
102
}
330
1E
100
AcDbEntity
  8
STEMPEL
100
AcDbLine
 10
259.9130222657309
 20
452.7205223094937
 30
0.0
 11
259.9130222657309
 21
434.1468332271441
 31
0.0
  0
ARC
  5
133D
102
{ACAD_REACTORS
330
14D2
102
}
330
1E
100
AcDbEntity
  8
STEMPEL
100
AcDbCircle
 10
236.9130222657309
 20
452.7205223094936
 30
0.0
 40
23.0
100
AcDbArc
 50
0.0
 51
32.02399597461875
  0
ARC
  5
133E
330
1E
100
AcDbEntity
  8
STEMPEL
100
AcDbCircle
 10
236.9130222657309
 20
434.1468332271441
 30
0.0
 40
23.0
100
AcDbArc
 50
333.1119523822754
 51
0.0
  0
ARC
  5
133F
330
1E
100
AcDbEntity
  8
STEMPEL
100
AcDbCircle
 10
269.9130222657309
 20
417.4136326964626
 30
0.0
 40
14.0
100
AcDbArc
 50
153.1119523822753
 51
180.0
  0
LINE
  5
1340
330
1E
100
AcDbEntity
  8
STEMPEL
100
AcDbLine
 10
253.3176967625753
 20
191.9168332271438
 30
0.0
 11
153.1083477688864
 21
191.9168332271441
 31
0.0
  0
LINE
  5
1341
102
{ACAD_REACTORS
330
14D2
102
}
330
1E
100
AcDbEntity
  8
STEMPEL
100
AcDbLine
 10
261.4630222657309
 20
464.916833227144
 30
0.0
 11
256.413022265731
 21
464.916833227144
 31
0.0
  0
LINE
  5
1342
330
1E
100
AcDbEntity
  8
HILF
100
AcDbLine
 10
255.0071917359086
 20
420.3895722483044
 30
0.0
 11
254.013022265731
 21
420.3895722483044
 31
0.0
  0
LINE
  5
1343
330
1E
100
AcDbEntity
  8
HILF
100
AcDbLine
 10
254.1005837306584
 20
337.9366122719805
 30
0.0
 11
152.3254608008034
 21
337.9366122719805
 31
0.0
  0
LINE
  5
1344
330
1E
100
AcDbEntity
  8
HILF
100
AcDbLine
 10
251.8331567007371
 20
332.5021654010931
 30
0.0
 11
154.5928878307248
 21
332.5021654010931
 31
0.0
  0
HATCH
  5
1345
330
1E
100
AcDbEntity
  8
SCHRAFF
100
AcDbHatch
 10
0.0
 20
0.0
 30
0.0
210
0.0
220
0.0
230
1.0
  2
_USER
 70
     0
 71
     0
 91
        1
 92
        7
 72
     1
 73
     1
 93
       11
 10
277.505915484544
 20
461.9168332271442
 42
0.0
 10
347.0845951409847
 20
461.9168332271445
 42
-0.1989123673796547
 10
349.2059154845445
 20
461.0381535707042
 42
0.0
 10
353.2059154845445
 20
457.0381535707043
 42
0.0
 10
351.0845951409847
 20
454.9168332271444
 42
0.0
 10
347.0845951409849
 20
458.9168332271444
 42
0.0
 10
277.505915484544
 20
458.9168332271444
 42
0.1989123673796182
 10
276.0917019221712
 20
458.3310467895175
 42
0.0
 10
263.6774883597971
 20
445.9168332271442
 42
0.0
 10
261.5561680162375
 20
448.0381535707039
 42
0.0
 10
273.9703815786114
 20
460.452367133077
 42
-0.1989123673796434
 97
        0
 75
     0
 76
     0
 52
135.0
 41
2.0
 77
     0
 78
     1
 53
135.0
 43
0.0
 44
0.0
 45
-1.414213562373095
 46
-1.414213562373094
 79
     0
 47
0.4118729359136521
 98
        1
 10
287.9433493443473
 20
460.4724704471371
  0
HATCH
  5
1346
330
1E
100
AcDbEntity
  8
SCHRAFF
100
AcDbHatch
 10
0.0
 20
0.0
 30
0.0
210
0.0
220
0.0
230
1.0
  2
_USER
 70
     0
 71
     1
 91
        1
 92
        7
 72
     1
 73
     1
 93
       11
 10
59.34144939047712
 20
461.9168332271445
 42
0.1989123673796551
 10
57.22012904691746
 20
461.0381535707042
 42
0.0
 10
53.2201290469174
 20
457.0381535707043
 42
0.0
 10
55.34144939047711
 20
454.9168332271444
 42
0.0
 10
59.34144939047706
 20
458.9168332271444
 42
0.0
 10
128.9201290469177
 20
458.9168332271444
 42
-0.1989123673796173
 10
130.3343426092905
 20
458.3310467895175
 42
0.0
 10
142.7485561716646
 20
445.9168332271441
 42
0.0
 10
144.8698765152243
 20
448.038153570704
 42
0.0
 10
132.4556629528502
 20
460.452367133077
 42
0.198912367379648
 10
128.9201290469177
 20
461.9168332271442
 42
0.0
 97
       11
330
135D
330
1357
330
135A
330
1358
330
1359
330
135B
330
1354
330
1355
330
1352
330
1353
330
1356
 75
     0
 76
     0
 52
45.0
 41
2.0
 77
     0
 78
     1
 53
45.0
 43
-45.98066596736794
 44
186.6059904191605
 45
-1.414213562373094
 46
1.414213562373095
 79
     0
 47
0.4118729359136521
 98
        1
 10
118.4826951871143
 20
460.4724704471371
  0
ARC
  5
1347
330
1E
100
AcDbEntity
  8
STEMPEL
100
AcDbCircle
 10
347.0845951409847
 20
458.9168332271445
 30
0.0
 40
3.0
100
AcDbArc
 50
45.0
 51
90.0
  0
LINE
  5
1348
330
1E
100
AcDbEntity
  8
STEMPEL
100
AcDbLine
 10
351.0845951409858
 20
454.9168332271434
 30
0.0
 11
347.0845951409847
 21
458.9168332271445
 31
0.0
  0
LINE
  5
1349
330
1E
100
AcDbEntity
  8
STEMPEL
100
AcDbLine
 10
353.2189936908451
 20
457.0250753644034
 30
0.0
 11
351.0976733472855
 21
454.9037550208437
 31
0.0
  0
LINE
  5
134A
330
1E
100
AcDbEntity
  8
STEMPEL
100
AcDbLine
 10
353.2189936908451
 20
457.0250753644034
 30
0.0
 11
349.2059154845442
 21
461.0381535707042
 31
0.0
  0
ARC
  5
134B
330
1E
100
AcDbEntity
  8
STEMPEL
100
AcDbCircle
 10
277.505915484544
 20
456.9168332271441
 30
0.0
 40
5.0
100
AcDbArc
 50
90.0
 51
135.0
  0
ARC
  5
134C
330
1E
100
AcDbEntity
  8
STEMPEL
100
AcDbCircle
 10
277.505915484544
 20
456.9168332271441
 30
0.0
 40
2.0
100
AcDbArc
 50
90.0
 51
135.0
  0
LINE
  5
134D
102
{ACAD_REACTORS
330
136B
102
}
330
1E
100
AcDbEntity
  8
STEMPEL
100
AcDbLine
 10
276.091701922171
 20
458.3310467895172
 30
0.0
 11
263.6774883597964
 21
445.9168332271437
 31
0.0
  0
LINE
  5
134E
330
1E
100
AcDbEntity
  8
STEMPEL
100
AcDbLine
 10
273.9703815786114
 20
460.452367133077
 30
0.0
 11
261.5561680162368
 21
448.0381535707033
 31
0.0
  0
LINE
  5
134F
102
{ACAD_REACTORS
330
136B
102
}
330
1E
100
AcDbEntity
  8
STEMPEL
  6
STRICHPUNKT
100
AcDbLine
 10
261.5561680162368
 20
448.0381535707034
 30
0.0
 11
263.6774883597964
 21
445.9168332271437
 31
0.0
  0
LINE
  5
1350
330
1E
100
AcDbEntity
  8
STEMPEL
100
AcDbLine
 10
277.505915484544
 20
458.9168332271439
 30
0.0
 11
347.0845951409856
 21
458.9168332271434
 31
0.0
  0
LINE
  5
1351
330
1E
100
AcDbEntity
  8
STEMPEL
100
AcDbLine
 10
297.8380222657305
 20
454.9168332271436
 30
0.0
 11
351.0845951409858
 21
454.9168332271434
 31
0.0
  0
LINE
  5
1352
102
{ACAD_REACTORS
330
1346
102
}
330
1E
100
AcDbEntity
  8
STEMPEL
  6
STRICHPUNKT
100
AcDbLine
 10
144.8698765152242
 20
448.0381535707039
 30
0.0
 11
142.7485561716646
 21
445.9168332271442
 31
0.0
  0
LINE
  5
1353
102
{ACAD_REACTORS
330
1346
102
}
330
1E
100
AcDbEntity
  8
STEMPEL
100
AcDbLine
 10
132.4556629528502
 20
460.452367133077
 30
0.0
 11
144.8698765152243
 21
448.0381535707039
 31
0.0
  0
ARC
  5
1354
102
{ACAD_REACTORS
330
1346
102
}
330
1E
100
AcDbEntity
  8
STEMPEL
100
AcDbCircle
 10
128.9201290469177
 20
456.9168332271441
 30
0.0
 40
2.0
100
AcDbArc
 50
45.0
 51
90.0
  0
LINE
  5
1355
102
{ACAD_REACTORS
330
1346
102
}
330
1E
100
AcDbEntity
  8
STEMPEL
100
AcDbLine
 10
130.3343426092907
 20
458.3310467895172
 30
0.0
 11
142.7485561716646
 21
445.9168332271442
 31
0.0
  0
ARC
  5
1356
102
{ACAD_REACTORS
330
1346
102
}
330
1E
100
AcDbEntity
  8
STEMPEL
100
AcDbCircle
 10
128.9201290469177
 20
456.9168332271441
 30
0.0
 40
5.0
100
AcDbArc
 50
45.0
 51
90.0
  0
ARC
  5
1357
102
{ACAD_REACTORS
330
1346
102
}
330
1E
100
AcDbEntity
  8
STEMPEL
100
AcDbCircle
 10
59.34144939047712
 20
458.9168332271445
 30
0.0
 40
3.0
100
AcDbArc
 50
90.0
 51
135.0
  0
LINE
  5
1358
102
{ACAD_REACTORS
330
1346
102
}
330
1E
100
AcDbEntity
  8
STEMPEL
100
AcDbLine
 10
53.22012904691757
 20
457.0381535707042
 30
0.0
 11
55.34144939047712
 21
454.9168332271444
 31
0.0
  0
LINE
  5
1359
102
{ACAD_REACTORS
330
1346
102
}
330
1E
100
AcDbEntity
  8
STEMPEL
100
AcDbLine
 10
55.34144939047712
 20
454.9168332271444
 30
0.0
 11
59.34144939047712
 21
458.9168332271445
 31
0.0
  0
LINE
  5
135A
102
{ACAD_REACTORS
330
1346
102
}
330
1E
100
AcDbEntity
  8
STEMPEL
100
AcDbLine
 10
53.22012904691746
 20
457.0381535707045
 30
0.0
 11
57.22012904691746
 21
461.0381535707042
 31
0.0
  0
LINE
  5
135B
102
{ACAD_REACTORS
330
1346
102
}
330
1E
100
AcDbEntity
  8
STEMPEL
100
AcDbLine
 10
59.34144939047712
 20
458.9168332271444
 30
0.0
 11
128.9201290469177
 21
458.9168332271444
 31
0.0
  0
LINE
  5
135C
330
1E
100
AcDbEntity
  8
STEMPEL
100
AcDbLine
 10
55.34144939047712
 20
454.9168332271444
 30
0.0
 11
108.5880222657307
 21
454.9168332271444
 31
0.0
  0
LINE
  5
135D
102
{ACAD_REACTORS
330
1346
102
}
330
1E
100
AcDbEntity
  8
STEMPEL
100
AcDbLine
 10
59.34144939047712
 20
461.9168332271445
 30
0.0
 11
147.1284770278687
 21
461.9168332271441
 31
0.0
  0
LINE
  5
135E
102
{ACAD_REACTORS
330
136B
102
}
330
1E
100
AcDbEntity
  8
STEMPEL
100
AcDbLine
 10
261.5561680162368
 20
448.0381535707034
 30
0.0
 11
261.1130222657309
 21
448.0381535707035
 31
0.0
  0
LINE
  5
135F
330
1E
100
AcDbEntity
  8
STEMPEL
100
AcDbLine
 10
142.7485561716646
 20
445.9168332271442
 30
0.0
 11
145.313022265731
 21
445.9168332271441
 31
0.0
  0
LINE
  5
1360
330
1E
100
AcDbEntity
  8
STEMPEL
100
AcDbLine
 10
259.2975675035933
 20
461.9168332271438
 30
0.0
 11
347.0845951409847
 21
461.9168332271434
 31
0.0
  0
LINE
  5
1361
102
{ACAD_REACTORS
330
136B
102
}
330
1E
100
AcDbEntity
  8
STEMPEL
100
AcDbLine
 10
261.1130222657308
 20
445.9168332271437
 30
0.0
 11
263.6774883597964
 21
445.9168332271437
 31
0.0
  0
LINE
  5
1362
330
1E
100
AcDbEntity
  8
STEMPEL
100
AcDbLine
 10
145.3130222657311
 20
448.0381535707035
 30
0.0
 11
144.8698765152248
 21
448.0381535707034
 31
0.0
  0
LINE
  5
1363
330
1E
100
AcDbEntity
  8
HILF
100
AcDbLine
 10
154.813022265731
 20
199.9168332271442
 30
0.0
 11
251.6130222657309
 21
199.9168332271439
 31
0.0
  0
LINE
  5
1364
330
1E
100
AcDbEntity
  8
STEMPEL
100
AcDbLine
 10
153.6130222657309
 20
199.9168332271442
 30
0.0
 11
154.3129315739384
 21
191.9168332271441
 31
0.0
  0
LINE
  5
1365
330
1E
100
AcDbEntity
  8
STEMPEL
100
AcDbLine
 10
152.413022265731
 20
199.8644400956521
 30
0.0
 11
153.1083477688864
 21
191.9168332271441
 31
0.0
  0
LINE
  5
1366
330
1E
100
AcDbEntity
  8
STEMPEL
100
AcDbLine
 10
254.0130222657311
 20
199.864440095655
 30
0.0
 11
253.3176967625753
 21
191.9168332271438
 31
0.0
  0
LINE
  5
1367
330
1E
100
AcDbEntity
  8
STEMPEL
100
AcDbLine
 10
252.8130222657309
 20
199.9168332271442
 30
0.0
 11
252.1131129575234
 21
191.9168332271441
 31
0.0
  0
HATCH
  5
1368
330
1E
100
AcDbEntity
  8
SCHRAFF
100
AcDbHatch
 10
0.0
 20
0.0
 30
0.0
210
0.0
220
0.0
230
1.0
  2
_USER
 70
     0
 71
     0
 91
        1
 92
        7
 72
     1
 73
     1
 93
       23
 10
153.6130222657309
 20
330.3737065505038
 42
0.1345075013956313
 10
152.3283375810462
 20
335.0628198418559
 42
-0.1345075013956287
 10
150.5130222657309
 20
341.6887407970272
 42
0.0
 10
150.5130222657309
 20
417.4136326964624
 42
0.1178625008509361
 10
148.9995087522173
 20
423.745113978342
 42
-0.1178625008509353
 10
146.5130222657309
 20
434.146833227144
 42
0.0
 10
146.5130222657309
 20
452.7205223094936
 42
-0.1406476065140156
 10
150.0130222657309
 20
464.9168332271441
 42
0.0
 10
148.6111084777544
 20
464.9168332271441
 42
0.0323355871437242
 10
147.2130222657309
 20
462.1199903795496
 42
0.0
 10
147.2130222657309
 20
461.9168332271441
 42
0.0
 10
147.1284770278686
 20
461.9168332271441
 42
0.0977622252683791
 10
145.313022265731
 20
452.7205223094936
 42
0.0
 10
145.313022265731
 20
434.146833227144
 42
0.1178625008509346
 10
147.9292384819471
 20
423.2024155827524
 42
-0.1178625008509366
 10
149.313022265731
 20
417.4136326964626
 42
0.0
 10
149.313022265731
 20
341.6887407970272
 42
0.1345075013956306
 10
151.2959051486139
 20
334.4511963690708
 42
-0.1345075013956317
 10
152.413022265731
 20
330.3737065505037
 42
0.0
 10
152.4130222657311
 20
199.864440095651
 42
0.0
 10
153.1083477688864
 20
191.9168332271441
 42
0.0
 10
154.3129315739384
 20
191.9168332271441
 42
0.0
 10
153.6130222657309
 20
199.9168332271446
 42
0.0
 97
        0
 75
     0
 76
     0
 52
135.0
 41
2.0
 77
     0
 78
     1
 53
135.0
 43
-402.6221884813128
 44
-6.08601645509259
 45
-1.414213562373095
 46
-1.414213562373094
 79
     0
 47
0.4820997955160877
 98
        1
 10
152.7204375152739
 20
319.2293721944376
  0
HATCH
  5
1369
330
1E
100
AcDbEntity
  8
SCHRAFF
100
AcDbHatch
 10
0.0
 20
0.0
 30
0.0
210
0.0
220
0.0
230
1.0
  2
_USER
 70
     0
 71
     0
 91
        1
 92
        7
 72
     1
 73
     1
 93
       23
 10
252.813022265731
 20
330.3737065505038
 42
-0.1345075013956313
 10
254.0977069504157
 20
335.0628198418559
 42
0.1345075013956287
 10
255.913022265731
 20
341.6887407970272
 42
0.0
 10
255.913022265731
 20
417.4136326964624
 42
-0.1178625008509361
 10
257.4265357792445
 20
423.745113978342
 42
0.1178625008509353
 10
259.913022265731
 20
434.146833227144
 42
0.0
 10
259.913022265731
 20
452.7205223094936
 42
0.1406476065140156
 10
256.413022265731
 20
464.9168332271441
 42
0.0
 10
257.8149360537075
 20
464.9168332271441
 42
-0.0323355871437242
 10
259.2130222657309
 20
462.1199903795496
 42
0.0
 10
259.2130222657309
 20
461.9168332271441
 42
0.0
 10
259.2975675035933
 20
461.9168332271441
 42
-0.0977622252683791
 10
261.1130222657309
 20
452.7205223094936
 42
0.0
 10
261.1130222657309
 20
434.146833227144
 42
-0.1178625008509346
 10
258.4968060495148
 20
423.2024155827524
 42
0.1178625008509366
 10
257.1130222657309
 20
417.4136326964626
 42
0.0
 10
257.1130222657309
 20
341.6887407970272
 42
-0.1345075013956306
 10
255.130139382848
 20
334.4511963690708
 42
0.1345075013956317
 10
254.0130222657309
 20
330.3737065505037
 42
0.0
 10
254.0130222657308
 20
199.864440095651
 42
0.0
 10
253.3176967625755
 20
191.9168332271441
 42
0.0
 10
252.1131129575235
 20
191.9168332271441
 42
0.0
 10
252.813022265731
 20
199.9168332271446
 42
0.0
 97
        0
 75
     0
 76
     0
 52
45.0
 41
2.0
 77
     0
 78
     1
 53
45.0
 43
0.0
 44
0.0
 45
-1.414213562373094
 46
1.414213562373095
 79
     0
 47
0.4820997955160877
 98
        1
 10
253.705607016188
 20
319.2293721944376
  0
ARC
  5
136A
102
{ACAD_REACTORS
330
136B
102
}
330
1E
100
AcDbEntity
  8
SCHRAFF
100
AcDbCircle
 10
261.1130222657309
 20
448.0381535707035
 30
0.0
 40
4.042823390159128
100
AcDbArc
 50
270.0
 51
349.9588560189948
  0
HATCH
  5
136B
330
1E
100
AcDbEntity
  8
SCHRAFF
100
AcDbHatch
 10
0.0
 20
0.0
 30
0.0
210
0.0
220
0.0
230
1.0
  2
_USER
 70
     0
 71
     1
 91
        2
 92
        7
 72
     1
 73
     1
 93
        4
 10
265.0939209324132
 20
447.3332657997604
 42
0.0
 10
263.6774883597964
 20
445.9168332271437
 42
0.0
 10
261.1130222657309
 20
445.9168332271437
 42
0.0
 10
261.1130222657309
 20
443.9953301805443
 42
0.3637669406775804
 97
        4
330
134D
330
1361
330
1331
330
136A
 92
        7
 72
     0
 73
     1
 93
        4
 10
261.5561680162368
 20
448.0381535707034
 10
261.1130222657309
 20
448.0381535707035
 10
261.1130222657309
 20
445.9168332271437
 10
263.6774883597965
 20
445.9168332271437
 97
        4
330
135E
330
1331
330
1361
330
134F
 75
     0
 76
     0
 52
0.0
 41
0.1
 77
     0
 78
     1
 53
0.0
 43
-17.69532693579902
 44
17.06421036182104
 45
0.0
 46
0.1
 79
     0
 47
0.0587368280222698
 98
        2
 10
262.1705428809556
 20
444.9351192896626
 10
261.9942355504615
 20
446.2860662204638
  0
HATCH
  5
136C
330
1E
100
AcDbEntity
  8
SCHRAFF
100
AcDbHatch
 10
0.0
 20
0.0
 30
0.0
210
0.0
220
0.0
230
1.0
  2
_USER
 70
     0
 71
     0
 91
        2
 92
        7
 72
     1
 73
     1
 93
        4
 10
141.3321235990486
 20
447.3332657997603
 42
0.0
 10
142.7485561716654
 20
445.9168332271437
 42
0.0
 10
145.313022265731
 20
445.9168332271436
 42
0.0
 10
145.313022265731
 20
443.9953301805443
 42
-0.3637669406775779
 97
        0
 92
        7
 72
     0
 73
     1
 93
        4
 10
142.7485561716653
 20
445.9168332271437
 10
144.8698765152248
 20
448.0381535707034
 10
145.3130222657308
 20
448.0381535707034
 10
145.313022265731
 20
445.9168332271436
 97
        0
 75
     0
 76
     0
 52
0.0
 41
0.1
 77
     0
 78
     1
 53
180.0
 43
424.121371467261
 44
17.06421036182121
 45
-0.0000000000000001
 46
0.1
 79
     0
 47
0.0587368280222698
 98
        2
 10
144.2555016505061
 20
444.9351192896625
 10
144.4318089810003
 20
446.2860662204637
  0
ARC
  5
136D
330
1E
100
AcDbEntity
  8
SCHRAFF
100
AcDbCircle
 10
145.3130222657308
 20
448.0381535707034
 30
0.0
 40
4.042823390159128
100
AcDbArc
 50
190.0411439810052
 51
270.0
  0
ARC
  5
1373
330
1E
100
AcDbEntity
  8
STEMPEL
100
AcDbCircle
 10
345.2130222657308
 20
470.916833227144
 30
0.0
 40
3.000000000000028
100
AcDbArc
 50
270.0
 51
90.0
  0
LINE
  5
1374
330
1E
100
AcDbEntity
  8
STEMPEL
100
AcDbLine
 10
332.7130222657307
 20
487.916833227144
 30
0.0
 11
332.8716410145223
 21
478.8295711949575
 31
0.0
  0
LINE
  5
1375
330
1E
100
AcDbEntity
  8
MITTEL
100
AcDbLine
 10
325.2130222657307
 20
467.9168332271438
 30
0.0
 11
325.2130222657307
 21
492.9168332271441
 31
0.0
  0
ARC
  5
1376
330
1E
100
AcDbEntity
  8
STEMPEL
100
AcDbCircle
 10
337.8708794903043
 20
478.9168332271438
 30
0.0
 40
4.99999999999995
100
AcDbArc
 50
181.0000000000017
 51
270.0
  0
LINE
  5
1377
330
1E
100
AcDbEntity
  8
HILF
100
AcDbLine
 10
322.2130222657307
 20
467.9168332271441
 30
0.0
 11
322.2130222657307
 21
487.9168332271438
 31
0.0
  0
LINE
  5
1378
330
1E
100
AcDbEntity
  8
HILF
100
AcDbLine
 10
328.2130222657307
 20
467.9168332271438
 30
0.0
 11
328.2130222657307
 21
487.9168332271438
 31
0.0
  0
LINE
  5
1379
330
1E
100
AcDbEntity
  8
STEMPEL
100
AcDbLine
 10
323.2130222657307
 20
467.9168332271441
 30
0.0
 11
323.2130222657307
 21
487.9168332271438
 31
0.0
  0
LINE
  5
137A
330
1E
100
AcDbEntity
  8
STEMPEL
100
AcDbLine
 10
327.2130222657307
 20
467.9168332271441
 30
0.0
 11
327.2130222657307
 21
487.916833227144
 31
0.0
  0
LINE
  5
137B
330
1E
100
AcDbEntity
  8
STEMPEL
100
AcDbLine
 10
337.8708794903041
 20
473.916833227144
 30
0.0
 11
345.2130222657308
 21
473.916833227144
 31
0.0
  0
LINE
  5
137D
330
1E
100
AcDbEntity
  8
STEMPEL
100
AcDbLine
 10
317.5544035169394
 20
478.8295711949577
 30
0.0
 11
317.7130222657307
 21
487.9168332271438
 31
0.0
  0
LINE
  5
137E
330
1E
100
AcDbEntity
  8
STEMPEL
100
AcDbLine
 10
311.6875299069949
 20
485.9168332271445
 30
0.0
 11
311.6875299069949
 21
483.9168332271437
 31
0.0
  0
LINE
  5
1380
330
1E
100
AcDbEntity
  8
HILF
100
AcDbLine
 10
310.6875299069949
 20
486.9168332271445
 30
0.0
 11
310.6875299069949
 21
483.9168332271438
 31
0.0
  0
LINE
  5
1381
330
1E
100
AcDbEntity
  8
STEMPEL
100
AcDbLine
 10
310.6875299069949
 20
486.9168332271445
 30
0.0
 11
311.6875299069949
 21
485.9168332271445
 31
0.0
  0
LINE
  5
1386
330
1E
100
AcDbEntity
  8
MITTEL
100
AcDbLine
 10
306.6875299069949
 20
491.9168332271437
 30
0.0
 11
306.6875299069949
 21
461.9168332271445
 31
0.0
  0
ARC
  5
1387
330
1E
100
AcDbEntity
  8
STEMPEL
100
AcDbCircle
 10
312.5551650411575
 20
478.916833227144
 30
0.0
 40
5.0
100
AcDbArc
 50
270.0
 51
358.9999999999982
  0
LINE
  5
1388
330
1E
100
AcDbEntity
  8
STEMPEL
100
AcDbLine
 10
301.6875299069949
 20
485.9168332271445
 30
0.0
 11
301.6875299069949
 21
483.9168332271437
 31
0.0
  0
LINE
  5
138A
330
1E
100
AcDbEntity
  8
STEMPEL
100
AcDbLine
 10
301.6875299069949
 20
485.9168332271445
 30
0.0
 11
302.6875299069949
 21
486.9168332271445
 31
0.0
  0
LINE
  5
138B
330
1E
100
AcDbEntity
  8
HILF
100
AcDbLine
 10
302.6875299069949
 20
486.9168332271445
 30
0.0
 11
302.687529906995
 21
483.9168332271438
 31
0.0
  0
LINE
  5
1392
330
1E
100
AcDbEntity
  8
STEMPEL
100
AcDbLine
 10
311.6875299069949
 20
485.9168332271445
 30
0.0
 11
301.6875299069949
 21
485.9168332271445
 31
0.0
  0
LINE
  5
1393
330
1E
100
AcDbEntity
  8
STEMPEL
100
AcDbLine
 10
302.6875299069949
 20
486.9168332271445
 30
0.0
 11
310.6875299069949
 21
486.9168332271445
 31
0.0
  0
ARC
  5
1398
330
1E
100
AcDbEntity
  8
STEMPEL
100
AcDbCircle
 10
285.2130222657308
 20
470.916833227144
 30
0.0
 40
2.999999999999886
100
AcDbArc
 50
90.0
 51
270.0
  0
LINE
  5
139D
330
1E
100
AcDbEntity
  8
TEXT
 62
     2
100
AcDbLine
 10
345.4811317020667
 20
362.5978538472632
 30
0.0
 11
257.8086438956009
 21
451.4691899834238
 31
0.0
  0
TEXT
  5
13B7
330
1E
100
AcDbEntity
  8
TEXT
 62
     1
100
AcDbText
 10
198.0042053299384
 20
301.5218869625656
 30
0.0
 40
7.0
  1
DN100
 50
90.0
 41
0.8
100
AcDbText
  0
LINE
  5
13BB
330
1E
100
AcDbEntity
  8
TEXT
 62
     2
100
AcDbLine
 10
345.4811317020667
 20
362.5978538472632
 30
0.0
 11
457.0108730364695
 21
362.5978538472632
 31
0.0
  0
TEXT
  5
13BC
330
1E
100
AcDbEntity
  8
TEXT
 62
     1
100
AcDbText
 10
352.2069584024119
 20
365.5843943393163
 30
0.0
 40
7.0
  1
Dichtelement DN100
 41
0.8
100
AcDbText
  0
TEXT
  5
13BD
330
1E
100
AcDbEntity
  8
TEXT
 62
     1
100
AcDbText
 10
352.2069584024119
 20
352.0463810342679
 30
0.0
 40
7.0
  1
EDV-Art.Nr. 00911.100X
 41
0.8
100
AcDbText
  0
LINE
  5
13BE
330
1E
100
AcDbEntity
  8
STEMPEL
100
AcDbLine
 10
345.2130222657308
 20
467.9168332271437
 30
0.0
 11
260.344612167547
 21
467.9168332271439
 31
0.0
  0
LINE
  5
13BF
330
1E
100
AcDbEntity
  8
STEMPEL
100
AcDbLine
 10
317.7130222657307
 20
487.9168332271438
 30
0.0
 11
332.7130222657307
 21
487.916833227144
 31
0.0
  0
LINE
  5
13C2
330
1E
100
AcDbEntity
  8
TEXT
 62
     2
100
AcDbLine
 10
322.0513273211466
 20
200.3325610381946
 30
0.0
 11
253.639157002661
 21
217.1757508446519
 31
0.0
  0
TEXT
  5
13C3
330
1E
100
AcDbEntity
  8
TEXT
 62
     1
100
AcDbText
 10
328.7771540214918
 20
189.7810882251993
 30
0.0
 40
7.0
  1
EDV-Art.Nr. 21971.100X
 41
0.8
100
AcDbText
  0
TEXT
  5
13C4
330
1E
100
AcDbEntity
  8
TEXT
 62
     1
100
AcDbText
 10
328.7771540214918
 20
203.3191015302477
 30
0.0
 40
7.0
  1
Unterteil DN100
 41
0.8
100
AcDbText
  0
LINE
  5
13C5
330
1E
100
AcDbEntity
  8
TEXT
 62
     2
100
AcDbLine
 10
322.0513273211466
 20
200.3325610381946
 30
0.0
 11
429.0140909689101
 21
200.3325610381946
 31
0.0
  0
LINE
  5
13CB
330
1E
100
AcDbEntity
  8
STEMPEL
100
AcDbLine
 10
152.2130222657308
 20
485.9168332271443
 30
0.0
 11
152.2130222657308
 21
483.9168332271439
 31
0.0
  0
LINE
  5
13CF
330
1E
100
AcDbEntity
  8
HILF
100
AcDbLine
 10
151.2130222657308
 20
486.9168332271443
 30
0.0
 11
151.2130222657308
 21
483.9168332271438
 31
0.0
  0
LINE
  5
13D0
330
1E
100
AcDbEntity
  8
STEMPEL
100
AcDbLine
 10
152.2130222657308
 20
485.9168332271443
 30
0.0
 11
151.2130222657308
 21
486.9168332271443
 31
0.0
  0
LINE
  5
13D1
330
1E
100
AcDbEntity
  8
STEMPEL
100
AcDbLine
 10
142.2130222657308
 20
485.9168332271445
 30
0.0
 11
142.2130222657308
 21
483.9168332271439
 31
0.0
  0
LINE
  5
13D3
330
1E
100
AcDbEntity
  8
HILF
100
AcDbLine
 10
143.2130222657308
 20
486.9168332271445
 30
0.0
 11
143.2130222657308
 21
483.9168332271439
 31
0.0
  0
LINE
  5
13D4
330
1E
100
AcDbEntity
  8
STEMPEL
100
AcDbLine
 10
143.2130222657308
 20
486.9168332271445
 30
0.0
 11
142.2130222657308
 21
485.9168332271445
 31
0.0
  0
LINE
  5
13D5
330
1E
100
AcDbEntity
  8
STEMPEL
100
AcDbLine
 10
142.2130222657309
 20
485.9168332271445
 30
0.0
 11
152.2130222657307
 21
485.9168332271445
 31
0.0
  0
LINE
  5
13D6
330
1E
100
AcDbEntity
  8
STEMPEL
100
AcDbLine
 10
151.2130222657308
 20
486.9168332271443
 30
0.0
 11
143.2130222657308
 21
486.9168332271445
 31
0.0
  0
LINE
  5
13DB
330
1E
100
AcDbEntity
  8
MITTEL
100
AcDbLine
 10
147.2130222657308
 20
491.9168332271444
 30
0.0
 11
147.2130222657308
 21
471.7498879813714
 31
0.0
  0
ARC
  5
13E4
330
1E
100
AcDbEntity
  8
STEMPEL
100
AcDbCircle
 10
121.2130222657308
 20
470.9168332271438
 30
0.0
 40
3.0
100
AcDbArc
 50
270.0
 51
90.0
  0
LINE
  5
13E7
330
1E
100
AcDbEntity
  8
STEMPEL
100
AcDbLine
 10
96.21302226573073
 20
485.9168332271445
 30
0.0
 11
96.21302226573071
 21
483.9168332271438
 31
0.0
  0
LINE
  5
13EB
330
1E
100
AcDbEntity
  8
HILF
100
AcDbLine
 10
95.21302226573073
 20
486.9168332271445
 30
0.0
 11
95.21302226573073
 21
483.9168332271437
 31
0.0
  0
LINE
  5
13EC
330
1E
100
AcDbEntity
  8
STEMPEL
100
AcDbLine
 10
96.21302226573073
 20
485.9168332271445
 30
0.0
 11
95.21302226573073
 21
486.9168332271445
 31
0.0
  0
LINE
  5
13ED
330
1E
100
AcDbEntity
  8
STEMPEL
100
AcDbLine
 10
98.21302226573074
 20
473.9168332271439
 30
0.0
 11
98.21302226573081
 21
467.9168332271438
 31
0.0
  0
LINE
  5
13EE
330
1E
100
AcDbEntity
  8
HILF
100
AcDbLine
 10
95.21302226573073
 20
473.9168332271439
 30
0.0
 11
95.21302226573073
 21
461.9168332271445
 31
0.0
  0
LINE
  5
13EF
330
1E
100
AcDbEntity
  8
STEMPEL
100
AcDbLine
 10
96.21302226573073
 20
473.9168332271439
 30
0.0
 11
96.21302226573073
 21
461.9168332271445
 31
0.0
  0
LINE
  5
13F2
330
1E
100
AcDbEntity
  8
STEMPEL
100
AcDbLine
 10
86.21302226573073
 20
485.9168332271445
 30
0.0
 11
86.21302226573071
 21
483.9168332271438
 31
0.0
  0
LINE
  5
13F4
330
1E
100
AcDbEntity
  8
HILF
100
AcDbLine
 10
87.21302226573072
 20
486.9168332271445
 30
0.0
 11
87.21302226573071
 21
483.9168332271437
 31
0.0
  0
LINE
  5
13F5
330
1E
100
AcDbEntity
  8
STEMPEL
100
AcDbLine
 10
87.21302226573072
 20
486.9168332271445
 30
0.0
 11
86.21302226573073
 21
485.9168332271445
 31
0.0
  0
LINE
  5
13F9
330
1E
100
AcDbEntity
  8
STEMPEL
100
AcDbLine
 10
86.21302226573073
 20
473.9168332271439
 30
0.0
 11
86.21302226573073
 21
461.9168332271445
 31
0.0
  0
LINE
  5
13FA
330
1E
100
AcDbEntity
  8
HILF
100
AcDbLine
 10
87.21302226573072
 20
473.9168332271439
 30
0.0
 11
87.21302226573072
 21
461.9168332271445
 31
0.0
  0
LINE
  5
13FB
330
1E
100
AcDbEntity
  8
STEMPEL
100
AcDbLine
 10
84.21302226573073
 20
473.9168332271439
 30
0.0
 11
84.21302226573081
 21
467.9168332271438
 31
0.0
  0
LINE
  5
13FD
330
1E
100
AcDbEntity
  8
MITTEL
100
AcDbLine
 10
91.21302226573073
 20
491.9168332271446
 30
0.0
 11
91.21302226573073
 21
461.9168332271445
 31
0.0
  0
LINE
  5
13FF
330
1E
100
AcDbEntity
  8
STEMPEL
100
AcDbLine
 10
95.21302226573073
 20
486.9168332271445
 30
0.0
 11
87.21302226573072
 21
486.9168332271445
 31
0.0
  0
LINE
  5
1400
330
1E
100
AcDbEntity
  8
STEMPEL
100
AcDbLine
 10
86.21302226573073
 20
485.9168332271445
 30
0.0
 11
96.21302226573073
 21
485.9168332271445
 31
0.0
  0
LINE
  5
1407
330
1E
100
AcDbEntity
  8
STEMPEL
100
AcDbLine
 10
146.0814323639149
 20
467.9168332271438
 30
0.0
 11
96.21302226573073
 21
467.9168332271438
 31
0.0
  0
ARC
  5
140F
330
1E
100
AcDbEntity
  8
STEMPEL
100
AcDbCircle
 10
61.21302226573073
 20
470.9168332271438
 30
0.0
 40
3.0
100
AcDbArc
 50
90.0
 51
270.0
  0
LINE
  5
1413
330
1E
100
AcDbEntity
  8
STEMPEL
100
AcDbLine
 10
86.21302226573073
 20
467.9168332271438
 30
0.0
 11
61.21302226573073
 21
467.9168332271438
 31
0.0
  0
DIMENSION
  5
1414
330
1E
100
AcDbEntity
  8
BEM
100
AcDbDimension
  2
*D6
 10
31.68655322100244
 20
191.9168332271441
 30
0.0
 11
25.18655322100242
 21
326.916833227144
 31
0.0
 70
    32
 71
     5
 42
269.9999999999998
  3
Standard
100
AcDbAlignedDimension
 13
53.21302226573073
 23
461.9168332271438
 33
0.0
 14
153.1083477688864
 24
191.9168332271441
 34
0.0
 50
90.0
100
AcDbRotatedDimension
1001
ACAD
1000
DSTYLE
1002
{
1070
    40
1040
2.0
1070
    41
1040
3.5
1070
    42
1040
1.0
1070
    43
1040
7.0
1070
    44
1040
1.0
1070
    73
1070
     0
1070
    74
1070
     0
1070
    77
1070
     1
1070
    78
1070
     8
1070
    79
1070
     2
1070
   140
1040
3.5
1070
   141
1040
1.5
1070
   146
1040
0.5142857142857144
1070
   147
1040
1.5
1070
   172
1070
     1
1070
   178
1070
     1
1070
   179
1070
     2
1070
   271
1070
     2
1070
   272
1070
     2
1070
   284
1070
     8
1070
   285
1070
     8
1070
   286
1070
     8
1002
}
  0
LINE
  5
1416
330
1E
100
AcDbEntity
  8
STEMPEL
100
AcDbLine
 10
61.21302226573073
 20
473.9168332271439
 30
0.0
 11
152.4130222657309
 21
473.9168332271439
 31
0.0
  0
HATCH
  5
1417
330
1E
100
AcDbEntity
  8
SCHRAFF
100
AcDbHatch
 10
0.0
 20
0.0
 30
0.0
210
0.0
220
0.0
230
1.0
  2
_U
 70
     0
 71
     0
 91
        5
 92
        7
 72
     1
 73
     1
 93
        4
 10
84.21302226573073
 20
473.9168332271439
 42
0.0
 10
61.21302226573073
 20
473.9168332271439
 42
1.0
 10
61.21302226573073
 20
467.9168332271438
 42
0.0
 10
84.21302226573073
 20
467.9168332271438
 42
0.0
 97
        0
 92
        7
 72
     1
 73
     1
 93
        4
 10
121.2130222657308
 20
473.9168332271439
 42
0.0
 10
98.21302226573074
 20
473.9168332271439
 42
0.0
 10
98.21302226573074
 20
467.9168332271438
 42
0.0
 10
121.2130222657308
 20
467.9168332271438
 42
1.0
 97
        0
 92
        7
 72
     1
 73
     1
 93
        5
 10
306.6875299069949
 20
473.9168332271439
 42
0.0
 10
285.2130222657308
 20
473.9168332271439
 42
0.0
 10
285.2130214398246
 20
473.916833227144
 42
1.0
 10
285.2130222657308
 20
467.9168332271438
 42
0.0
 10
306.6875299069949
 20
467.9168332271438
 42
0.0
 97
        0
 92
        7
 72
     1
 73
     1
 93
        7
 10
323.2130222657307
 20
487.916833227144
 42
0.0
 10
317.7130222657307
 20
487.9168332271438
 42
0.0
 10
317.5544035169394
 20
478.8295711949577
 42
-0.4091108014277335
 10
312.5551650411575
 20
473.9168332271439
 42
0.0
 10
306.6875299069949
 20
473.9168332271439
 42
0.0
 10
306.6875299069949
 20
467.9168332271438
 42
0.0
 10
323.2130222657308
 20
467.9168332271438
 42
0.0
 97
        0
 92
        7
 72
     1
 73
     1
 93
        7
 10
345.2130222657308
 20
473.916833227144
 42
0.0
 10
337.8708794903043
 20
473.916833227144
 42
-0.4091108014277076
 10
332.8716410145223
 20
478.8295711949575
 42
0.0
 10
332.7130222657307
 20
487.916833227144
 42
0.0
 10
327.2130222657307
 20
487.9168332271438
 42
0.0
 10
327.2130222657307
 20
467.9168332271438
 42
0.0
 10
345.2130222657308
 20
467.9168332271438
 42
1.0
 97
        0
 75
     0
 76
     0
 52
135.0
 41
5.0
 77
     0
 78
     1
 53
135.0
 43
-19.09894090542434
 44
15.38949971250628
 45
-3.535533905932737
 46
-3.535533905932737
 79
     0
 47
0.374699653914983
 98
        5
 10
70.22989041902167
 20
470.4699907119221
 10
112.9740948013901
 20
471.594088781078
 10
299.3238339806623
 20
472.3434893592589
 10
314.6967496959788
 20
472.7181887156444
 10
331.9444130395297
 20
473.0928880720298
  0
DIMENSION
  5
1418
330
1E
100
AcDbEntity
  8
BEM
100
AcDbDimension
  2
*D7
 10
53.21302226573073
 20
501.7373742778691
 30
0.0
 11
203.2130222657308
 21
508.2373742778691
 31
0.0
 70
    32
  1
%%c<>
 71
     5
 42
300.0000000000002
  3
Standard
100
AcDbAlignedDimension
 13
353.2130222657309
 23
464.9168332271438
 33
0.0
 14
53.21302226573073
 24
464.9168332271438
 34
0.0
100
AcDbRotatedDimension
1001
ACAD
1000
DSTYLE
1002
{
1070
    40
1040
2.0
1070
    41
1040
3.5
1070
    42
1040
1.0
1070
    43
1040
7.0
1070
    44
1040
1.0
1070
    73
1070
     0
1070
    74
1070
     0
1070
    77
1070
     1
1070
    78
1070
     8
1070
    79
1070
     2
1070
   140
1040
3.5
1070
   141
1040
1.5
1070
   146
1040
0.5142857142857144
1070
   147
1040
1.5
1070
   172
1070
     1
1070
   178
1070
     1
1070
   179
1070
     2
1070
   271
1070
     2
1070
   272
1070
     2
1070
   284
1070
     8
1070
   285
1070
     8
1070
   286
1070
     8
1002
}
  0
LINE
  5
1459
330
1E
100
AcDbEntity
  8
TEXT
 62
     2
100
AcDbLine
 10
341.5698805909396
 20
399.4242558697702
 30
0.0
 11
453.0996219253425
 21
399.4242558697702
 31
0.0
  0
TEXT
  5
145A
330
1E
100
AcDbEntity
  8
TEXT
 62
     1
100
AcDbText
 10
348.6516662941215
 20
388.8727830567749
 30
0.0
 40
7.0
  1
EDV-Art.Nr. 21810.125X
 41
0.8
100
AcDbText
  0
TEXT
  5
145B
330
1E
100
AcDbEntity
  8
TEXT
 62
     1
100
AcDbText
 10
348.2957072912848
 20
402.4107963618233
 30
0.0
 40
7.0
  1
Kompressionsdichtung
 41
0.8
100
AcDbText
  0
LINE
  5
145D
330
1E
100
AcDbEntity
  8
TEXT
 62
     2
100
AcDbLine
 10
341.5698805909396
 20
399.4242558697702
 30
0.0
 11
289.1411163754278
 21
463.7526915175882
 31
0.0
  0
LINE
  5
145E
330
1E
100
AcDbEntity
  8
TEXT
 62
     2
100
AcDbLine
 10
358.4387960307813
 20
436.4839587840927
 30
0.0
 11
334.7102692623557
 21
471.9543775210546
 31
0.0
  0
TEXT
  5
145F
330
1E
100
AcDbEntity
  8
TEXT
 62
     1
100
AcDbText
 10
359.0341519095357
 20
439.9677929450032
 30
0.0
 40
7.0
  1
Losflansch DN100
 41
0.8
100
AcDbText
  0
LINE
  5
1460
330
1E
100
AcDbEntity
  8
TEXT
 62
     2
100
AcDbLine
 10
464.3773606059144
 20
436.4839587840927
 30
0.0
 11
358.4387960307813
 21
436.4839587840927
 31
0.0
  0
TEXT
  5
1461
330
1E
100
AcDbEntity
  8
TEXT
 62
     1
100
AcDbText
 10
359.0341519095357
 20
427.1914619762936
 30
0.0
 40
7.0
  1
EDV-Art.Nr. 21905.100X
 41
0.8
100
AcDbText
  0
LINE
  5
1488
102
{ACAD_REACTORS
330
14D2
102
}
330
1E
100
AcDbEntity
  8
STEMPEL
100
AcDbLine
 10
147.6274848926294
 20
446.9168332271441
 30
0.0
 11
148.1134373421499
 21
448.9168332271441
 31
0.0
  0
ARC
  5
1489
102
{ACAD_REACTORS
330
14D2
102
}
330
1E
100
AcDbEntity
  8
STEMPEL
100
AcDbCircle
 10
159.1765648510963
 20
448.6327668734632
 30
0.0
 40
8.867073426506241
100
AcDbArc
 50
178.1641531904486
 51
206.8638823232074
  0
LINE
  5
148A
102
{ACAD_REACTORS
330
14D2
102
}
330
1E
100
AcDbEntity
  8
STEMPEL
100
AcDbLine
 10
150.3140427801644
 20
448.9168332271441
 30
0.0
 11
148.1134373421499
 21
448.9168332271441
 31
0.0
  0
LINE
  5
148B
102
{ACAD_REACTORS
330
14D2
102
}
330
1E
100
AcDbEntity
  8
STEMPEL
100
AcDbLine
 10
150.4771072316534
 20
446.9168332271442
 30
0.0
 11
146.5130222657304
 21
446.9168332271443
 31
0.0
  0
LINE
  5
148C
102
{ACAD_REACTORS
330
14D2
102
}
330
1E
100
AcDbEntity
  8
STEMPEL
100
AcDbLine
 10
152.4130222657303
 20
444.6259806362049
 30
0.0
 11
151.2664033356802
 21
444.6259806362049
 31
0.0
  0
LINE
  5
148D
330
1E
100
AcDbEntity
  8
HILF
100
AcDbLine
 10
152.4130222657308
 20
420.3895722483044
 30
0.0
 11
151.4188527955532
 21
420.3895722483044
 31
0.0
  0
DIMENSION
  5
148E
330
1E
100
AcDbEntity
  8
BEM
100
AcDbDimension
  2
*D8
 10
31.58043709291681
 20
611.9168332271448
 30
0.0
 11
25.08043709291671
 21
536.9168332271448
 31
0.0
 70
    32
  1
min.35 - max.200
 71
     5
 42
150.0
  3
Standard
100
AcDbAlignedDimension
 13
53.21302226573073
 23
461.9168332271448
 33
0.0
 14
53.21302226573116
 24
611.9168332271448
 34
0.0
 50
90.0
100
AcDbRotatedDimension
1001
ACAD
1000
DSTYLE
1002
{
1070
    40
1040
2.0
1070
    41
1040
3.5
1070
    42
1040
1.0
1070
    43
1040
7.0
1070
    44
1040
1.0
1070
    73
1070
     0
1070
    74
1070
     0
1070
    77
1070
     1
1070
    78
1070
     8
1070
    79
1070
     2
1070
   140
1040
3.5
1070
   141
1040
1.5
1070
   146
1040
0.5142857142857144
1070
   147
1040
1.5
1070
   172
1070
     1
1070
   178
1070
     1
1070
   179
1070
     2
1070
   271
1070
     2
1070
   272
1070
     2
1070
   284
1070
     8
1070
   285
1070
     8
1070
   286
1070
     8
1002
}
  0
LINE
  5
14B6
330
1E
100
AcDbEntity
  8
MITTEL
100
AcDbLine
 10
203.2130222657308
 20
485.6031608444533
 30
0.0
 11
203.2130222657304
 21
287.4353814757144
 31
0.0
  0
HATCH
  5
14D2
330
1E
100
AcDbEntity
  8
SCHRAFF
100
AcDbHatch
 10
0.0
 20
0.0
 30
0.0
210
0.0
220
0.0
230
1.0
  2
NET
 70
     0
 71
     1
 91
        2
 92
        7
 72
     1
 73
     1
 93
       13
 10
254.013022265731
 20
444.6259806362047
 42
0.0
 10
255.1596411957811
 20
444.6259806362046
 42
0.1258849064518493
 10
256.1120017512972
 20
448.9168332271439
 42
0.0
 10
258.3126071893114
 20
448.9168332271439
 42
0.0
 10
258.7985596388318
 20
446.916833227144
 42
0.0
 10
259.9130222657309
 20
446.916833227144
 42
0.0
 10
259.9130222657309
 20
452.7205223094937
 42
0.1406476065140127
 10
256.413022265731
 20
464.916833227144
 42
0.0
 10
261.4625941581433
 20
464.916833227144
 42
0.1436237563963057
 10
260.8605941163568
 20
467.0863976745986
 42
0.0
 10
258.2993871847571
 20
471.2084746161118
 42
0.6565381519876399
 10
255.5764090013388
 20
470.8050617947978
 42
0.0
 10
254.013022265731
 20
464.9704230656309
 42
0.0
 97
       13
330
1341
330
131C
330
131B
330
1311
330
1318
330
1108
330
130F
330
1315
330
1313
330
131A
330
1312
330
133C
330
133D
 92
        7
 72
     1
 73
     1
 93
       13
 10
152.4130222657308
 20
464.9704230656304
 42
0.0
 10
150.8496355301232
 20
470.8050617947978
 42
0.6565381519876399
 10
148.126657346705
 20
471.2084746161118
 42
0.0
 10
145.5654504151052
 20
467.0863976745987
 42
0.1436237563963082
 10
144.9634503733185
 20
464.9168332271441
 42
0.0
 10
150.013022265731
 20
464.9168332271441
 42
0.1406476065140178
 10
146.5130222657309
 20
452.7205223094934
 42
0.0
 10
146.5130222657309
 20
446.9168332271443
 42
0.0
 10
147.6274848926295
 20
446.9168332271443
 42
0.0
 10
148.1134373421499
 20
448.9168332271442
 42
0.0
 10
150.3140427801644
 20
448.9168332271441
 42
0.1258849064518476
 10
151.2664033356802
 20
444.6259806362049
 42
0.0
 10
152.4130222657309
 20
444.6259806362048
 42
0.0
 97
       13
330
130B
330
130C
330
130A
330
1307
330
1305
330
1322
330
1323
330
148B
330
1488
330
148A
330
1489
330
148C
330
1109
 75
     0
 76
     1
 52
45.0
 41
15.0
 77
     0
 78
     2
 53
45.0
 43
0.0
 44
0.0
 45
-1.325825214724776
 46
1.325825214724776
 79
     0
 53
135.0
 43
0.0
 44
0.0
 45
-1.325825214724776
 46
-1.325825214724776
 79
     0
 47
0.1990490886213137
 98
        2
 10
255.7505044677701
 20
457.5464379193147
 10
149.7992254695018
 20
457.7454869258415
  0
LINE
  5
14D3
330
1E
100
AcDbEntity
  8
STEMPEL
100
AcDbLine
 10
254.013022265731
 20
471.9168332271439
 30
0.0
 11
257.0252977407724
 21
471.9168332271439
 31
0.0
  0
LINE
  5
14D4
330
1E
100
AcDbEntity
  8
STEMPEL
100
AcDbLine
 10
254.013022265731
 20
473.9168332271439
 30
0.0
 11
312.5551650411575
 21
473.9168332271439
 31
0.0
  0
ARC
  5
1551
330
1E
100
AcDbEntity
  8
STEMPEL
100
AcDbCircle
 10
306.6875299069953
 20
603.6059440946893
 30
0.0
 40
30.31088913245485
100
AcDbArc
 50
81.78678929826011
 51
98.21321070173988
  0
ARC
  5
1552
330
1E
100
AcDbEntity
  8
STEMPEL
100
AcDbCircle
 10
300.1923393786121
 20
626.2225275193596
 30
0.0
 40
7.694305707784447
100
AcDbArc
 50
73.65710669401345
 51
106.3428933059834
  0
ARC
  5
1553
330
1E
100
AcDbEntity
  8
STEMPEL
100
AcDbCircle
 10
313.1827204353786
 20
626.2225275193596
 30
0.0
 40
7.694305707784447
100
AcDbArc
 50
73.65710669401345
 51
106.3428933059834
  0
ARC
  5
1554
330
1E
100
AcDbEntity
  8
HILF
100
AcDbCircle
 10
306.6875299069953
 20
604.0183721794829
 30
0.0
 40
22.41111549782308
100
AcDbArc
 50
78.85962783890391
 51
101.1403721610961
  0
ARC
  5
1555
330
1E
100
AcDbEntity
  8
HILF
100
AcDbCircle
 10
313.1827204353787
 20
620.6683470776145
 30
0.0
 40
5.761140599691502
100
AcDbArc
 50
67.92594526326054
 51
112.0740547367394
  0
ARC
  5
1556
330
1E
100
AcDbEntity
  8
HILF
100
AcDbCircle
 10
300.192339378612
 20
620.6683470776145
 30
0.0
 40
5.761140599691502
100
AcDbArc
 50
67.92594526326054
 51
112.0740547367394
  0
POINT
  5
1557
330
1E
100
AcDbEntity
  8
0
100
AcDbPoint
 10
306.6875299069953
 20
623.9168332271441
 30
0.0
210
0.0000000000000001
220
1.0
230
0.0
  0
LINE
  5
1558
330
1E
100
AcDbEntity
  8
STEMPEL
100
AcDbLine
 10
299.1875299069953
 20
633.9168332271441
 30
0.0
 11
314.1875299069953
 21
633.9168332271441
 31
0.0
  0
LINE
  5
1559
330
1E
100
AcDbEntity
  8
STEMPEL
100
AcDbLine
 10
315.3477839448397
 20
626.0071897433439
 30
0.0
 11
315.3477839448397
 21
633.6059440946887
 31
0.0
  0
LINE
  5
155A
330
1E
100
AcDbEntity
  8
STEMPEL
100
AcDbLine
 10
311.0176569259175
 20
626.0071897433439
 30
0.0
 11
311.0176569259175
 21
633.6059440946887
 31
0.0
  0
LINE
  5
155B
330
1E
100
AcDbEntity
  8
STEMPEL
100
AcDbLine
 10
302.3574028880731
 20
626.0071897433439
 30
0.0
 11
302.3574028880731
 21
633.6059440946887
 31
0.0
  0
LINE
  5
155C
330
1E
100
AcDbEntity
  8
STEMPEL
100
AcDbLine
 10
316.0809756511996
 20
625.3716026927335
 30
0.0
 11
296.2810147995011
 21
625.3716026927335
 31
0.0
  0
LINE
  5
155E
330
1E
100
AcDbEntity
  8
STEMPEL
100
AcDbLine
 10
298.027275869151
 20
626.0071897433439
 30
0.0
 11
298.027275869151
 21
633.6059440946887
 31
0.0
  0
LINE
  5
155F
330
1E
100
AcDbEntity
  8
STEMPEL
100
AcDbLine
 10
299.1875299069953
 20
633.9168332271441
 30
0.0
 11
298.027275869151
 21
633.6059440946887
 31
0.0
  0
LINE
  5
1560
330
1E
100
AcDbEntity
  8
STEMPEL
100
AcDbLine
 10
315.3477839448397
 20
633.6059440946887
 30
0.0
 11
314.1875299069953
 21
633.9168332271441
 31
0.0
  0
LINE
  5
1561
330
1E
100
AcDbEntity
  8
STEMPEL
100
AcDbLine
 10
316.3376898484041
 20
625.6468934597221
 30
0.0
 11
315.3477839448397
 21
626.0071897433439
 31
0.0
  0
LINE
  5
1562
330
1E
100
AcDbEntity
  8
STEMPEL
100
AcDbLine
 10
298.027275869151
 20
626.0071897433439
 30
0.0
 11
296.2810147995011
 21
625.3716026927335
 31
0.0
  0
ARC
  5
1563
330
1E
100
AcDbEntity
  8
STEMPEL
100
AcDbCircle
 10
296.5375299069954
 20
624.6668332271441
 30
0.0
 40
0.7500000000000013
100
AcDbArc
 50
110.0000000000006
 51
269.9999991462263
  0
ARC
  5
157E
330
1E
100
AcDbEntity
  8
STEMPEL
100
AcDbCircle
 10
217.831955794377
 20
603.6059440946892
 30
0.0
 40
30.31088913245485
100
AcDbArc
 50
81.78678929826174
 51
98.21321070173826
  0
ARC
  5
157F
330
1E
100
AcDbEntity
  8
STEMPEL
100
AcDbCircle
 10
211.3367652659937
 20
626.2225275193595
 30
0.0
 40
7.694305707784447
100
AcDbArc
 50
73.65710669401501
 51
106.342893305985
  0
ARC
  5
1580
330
1E
100
AcDbEntity
  8
STEMPEL
100
AcDbCircle
 10
224.3271463227603
 20
626.2225275193595
 30
0.0
 40
7.694305707784447
100
AcDbArc
 50
73.65710669401501
 51
106.342893305985
  0
ARC
  5
1581
330
1E
100
AcDbEntity
  8
HILF
100
AcDbCircle
 10
217.831955794377
 20
604.0183721794827
 30
0.0
 40
22.41111549782308
100
AcDbArc
 50
78.85962783890552
 51
101.1403721610945
  0
ARC
  5
1582
330
1E
100
AcDbEntity
  8
HILF
100
AcDbCircle
 10
224.3271463227603
 20
620.6683470776144
 30
0.0
 40
5.761140599691502
100
AcDbArc
 50
67.92594526326206
 51
112.0740547367379
  0
ARC
  5
1583
330
1E
100
AcDbEntity
  8
HILF
100
AcDbCircle
 10
211.3367652659937
 20
620.6683470776144
 30
0.0
 40
5.761140599691502
100
AcDbArc
 50
67.92594526326206
 51
112.0740547367379
  0
POINT
  5
1584
330
1E
100
AcDbEntity
  8
0
100
AcDbPoint
 10
217.831955794377
 20
623.9168332271439
 30
0.0
210
0.0000000000000001
220
1.0
230
0.0
  0
LINE
  5
1585
330
1E
100
AcDbEntity
  8
STEMPEL
100
AcDbLine
 10
210.331955794377
 20
633.916833227144
 30
0.0
 11
225.331955794377
 21
633.916833227144
 31
0.0
  0
LINE
  5
1586
330
1E
100
AcDbEntity
  8
STEMPEL
100
AcDbLine
 10
226.4922098322214
 20
626.0071897433438
 30
0.0
 11
226.4922098322214
 21
633.6059440946886
 31
0.0
  0
LINE
  5
1587
330
1E
100
AcDbEntity
  8
STEMPEL
100
AcDbLine
 10
222.1620828132992
 20
626.0071897433438
 30
0.0
 11
222.1620828132992
 21
633.6059440946886
 31
0.0
  0
LINE
  5
1588
330
1E
100
AcDbEntity
  8
STEMPEL
100
AcDbLine
 10
213.5018287754548
 20
626.0071897433438
 30
0.0
 11
213.5018287754548
 21
633.6059440946886
 31
0.0
  0
LINE
  5
1589
330
1E
100
AcDbEntity
  8
STEMPEL
100
AcDbLine
 10
228.2384709018713
 20
625.3716026927333
 30
0.0
 11
207.4254406868827
 21
625.3716026927333
 31
0.0
  0
LINE
  5
158A
330
1E
100
AcDbEntity
  8
STEMPEL
100
AcDbLine
 10
227.981955794377
 20
623.9168332271439
 30
0.0
 11
207.681955794377
 21
623.9168332271439
 31
0.0
  0
LINE
  5
158B
330
1E
100
AcDbEntity
  8
STEMPEL
100
AcDbLine
 10
209.1717017565326
 20
626.0071897433438
 30
0.0
 11
209.1717017565326
 21
633.6059440946886
 31
0.0
  0
LINE
  5
158C
330
1E
100
AcDbEntity
  8
STEMPEL
100
AcDbLine
 10
210.331955794377
 20
633.916833227144
 30
0.0
 11
209.1717017565326
 21
633.6059440946886
 31
0.0
  0
LINE
  5
158D
330
1E
100
AcDbEntity
  8
STEMPEL
100
AcDbLine
 10
226.4922098322214
 20
633.6059440946886
 30
0.0
 11
225.331955794377
 21
633.916833227144
 31
0.0
  0
LINE
  5
158E
330
1E
100
AcDbEntity
  8
STEMPEL
100
AcDbLine
 10
228.2384709018713
 20
625.3716026927333
 30
0.0
 11
226.4922098322214
 21
626.0071897433438
 31
0.0
  0
LINE
  5
158F
330
1E
100
AcDbEntity
  8
STEMPEL
100
AcDbLine
 10
209.1717017565326
 20
626.0071897433438
 30
0.0
 11
207.4254406868827
 21
625.3716026927333
 31
0.0
  0
ARC
  5
1590
330
1E
100
AcDbEntity
  8
STEMPEL
100
AcDbCircle
 10
207.681955794377
 20
624.666833227144
 30
0.0
 40
0.7500000000000013
100
AcDbArc
 50
110.0000000000006
 51
269.9999991462263
  0
ARC
  5
1591
330
1E
100
AcDbEntity
  8
STEMPEL
100
AcDbCircle
 10
227.981955794377
 20
624.666833227144
 30
0.0
 40
0.750000000000001
100
AcDbArc
 50
269.9999991462263
 51
69.99999999999935
  0
ARC
  5
15AB
330
1E
100
AcDbEntity
  8
STEMPEL
100
AcDbCircle
 10
147.2130222657313
 20
603.6059440946892
 30
0.0
 40
30.31088913245485
100
AcDbArc
 50
81.78678929826174
 51
98.21321070173826
  0
ARC
  5
15AC
330
1E
100
AcDbEntity
  8
STEMPEL
100
AcDbCircle
 10
140.717831737348
 20
626.2225275193595
 30
0.0
 40
7.694305707784447
100
AcDbArc
 50
73.65710669401501
 51
106.342893305985
  0
ARC
  5
15AD
330
1E
100
AcDbEntity
  8
STEMPEL
100
AcDbCircle
 10
153.7082127941146
 20
626.2225275193595
 30
0.0
 40
7.694305707784447
100
AcDbArc
 50
73.65710669401501
 51
106.342893305985
  0
ARC
  5
15AE
330
1E
100
AcDbEntity
  8
HILF
100
AcDbCircle
 10
147.2130222657313
 20
604.0183721794827
 30
0.0
 40
22.41111549782308
100
AcDbArc
 50
78.85962783890552
 51
101.1403721610945
  0
ARC
  5
15AF
330
1E
100
AcDbEntity
  8
HILF
100
AcDbCircle
 10
153.7082127941146
 20
620.6683470776144
 30
0.0
 40
5.761140599691502
100
AcDbArc
 50
67.92594526326206
 51
112.0740547367379
  0
ARC
  5
15B0
330
1E
100
AcDbEntity
  8
HILF
100
AcDbCircle
 10
140.717831737348
 20
620.6683470776144
 30
0.0
 40
5.761140599691502
100
AcDbArc
 50
67.92594526326206
 51
112.0740547367379
  0
POINT
  5
15B1
330
1E
100
AcDbEntity
  8
0
100
AcDbPoint
 10
147.2130222657313
 20
623.9168332271439
 30
0.0
210
0.0000000000000001
220
1.0
230
0.0
  0
LINE
  5
15B2
330
1E
100
AcDbEntity
  8
STEMPEL
100
AcDbLine
 10
139.7130222657313
 20
633.916833227144
 30
0.0
 11
154.7130222657312
 21
633.916833227144
 31
0.0
  0
LINE
  5
15B3
330
1E
100
AcDbEntity
  8
STEMPEL
100
AcDbLine
 10
155.8732763035757
 20
626.0071897433438
 30
0.0
 11
155.8732763035757
 21
633.6059440946886
 31
0.0
  0
LINE
  5
15B4
330
1E
100
AcDbEntity
  8
STEMPEL
100
AcDbLine
 10
151.5431492846535
 20
626.0071897433438
 30
0.0
 11
151.5431492846535
 21
633.6059440946886
 31
0.0
  0
LINE
  5
15B5
330
1E
100
AcDbEntity
  8
STEMPEL
100
AcDbLine
 10
142.8828952468091
 20
626.0071897433438
 30
0.0
 11
142.8828952468091
 21
633.6059440946886
 31
0.0
  0
LINE
  5
15B6
330
1E
100
AcDbEntity
  8
STEMPEL
100
AcDbLine
 10
157.6195373732255
 20
625.3716026927333
 30
0.0
 11
136.806507158237
 21
625.3716026927333
 31
0.0
  0
LINE
  5
15B7
330
1E
100
AcDbEntity
  8
STEMPEL
100
AcDbLine
 10
157.3630222657313
 20
623.9168332271439
 30
0.0
 11
137.0630222657313
 21
623.9168332271439
 31
0.0
  0
LINE
  5
15B8
330
1E
100
AcDbEntity
  8
STEMPEL
100
AcDbLine
 10
138.5527682278869
 20
626.0071897433438
 30
0.0
 11
138.5527682278869
 21
633.6059440946886
 31
0.0
  0
LINE
  5
15B9
330
1E
100
AcDbEntity
  8
STEMPEL
100
AcDbLine
 10
139.7130222657313
 20
633.916833227144
 30
0.0
 11
138.5527682278869
 21
633.6059440946886
 31
0.0
  0
LINE
  5
15BA
330
1E
100
AcDbEntity
  8
STEMPEL
100
AcDbLine
 10
155.8732763035757
 20
633.6059440946886
 30
0.0
 11
154.7130222657312
 21
633.916833227144
 31
0.0
  0
LINE
  5
15BB
330
1E
100
AcDbEntity
  8
STEMPEL
100
AcDbLine
 10
157.6195373732255
 20
625.3716026927333
 30
0.0
 11
155.8732763035756
 21
626.0071897433438
 31
0.0
  0
LINE
  5
15BC
330
1E
100
AcDbEntity
  8
STEMPEL
100
AcDbLine
 10
138.5527682278869
 20
626.0071897433438
 30
0.0
 11
136.806507158237
 21
625.3716026927333
 31
0.0
  0
ARC
  5
15BD
330
1E
100
AcDbEntity
  8
STEMPEL
100
AcDbCircle
 10
137.0630222657313
 20
624.666833227144
 30
0.0
 40
0.7500000000000013
100
AcDbArc
 50
110.0000000000006
 51
269.9999991462263
  0
ARC
  5
15BE
330
1E
100
AcDbEntity
  8
STEMPEL
100
AcDbCircle
 10
157.3630222657313
 20
624.666833227144
 30
0.0
 40
0.750000000000001
100
AcDbArc
 50
269.9999991462263
 51
69.99999999999935
  0
ARC
  5
15D8
330
1E
100
AcDbEntity
  8
STEMPEL
100
AcDbCircle
 10
91.21302226573119
 20
603.6059440946891
 30
0.0
 40
30.31088913245485
100
AcDbArc
 50
81.78678929826093
 51
98.21321070173826
  0
ARC
  5
15D9
330
1E
100
AcDbEntity
  8
STEMPEL
100
AcDbCircle
 10
84.7178317373479
 20
626.2225275193594
 30
0.0
 40
7.694305707784447
100
AcDbArc
 50
73.65710669401501
 51
106.342893305985
  0
ARC
  5
15DA
330
1E
100
AcDbEntity
  8
STEMPEL
100
AcDbCircle
 10
97.70821279411448
 20
626.2225275193594
 30
0.0
 40
7.694305707784447
100
AcDbArc
 50
73.65710669401501
 51
106.342893305985
  0
ARC
  5
15DB
330
1E
100
AcDbEntity
  8
HILF
100
AcDbCircle
 10
91.21302226573119
 20
604.0183721794826
 30
0.0
 40
22.41111549782308
100
AcDbArc
 50
78.85962783890473
 51
101.1403721610953
  0
ARC
  5
15DC
330
1E
100
AcDbEntity
  8
HILF
100
AcDbCircle
 10
97.70821279411448
 20
620.6683470776142
 30
0.0
 40
5.761140599691502
100
AcDbArc
 50
67.92594526326206
 51
112.0740547367379
  0
ARC
  5
15DD
330
1E
100
AcDbEntity
  8
HILF
100
AcDbCircle
 10
84.7178317373479
 20
620.6683470776142
 30
0.0
 40
5.761140599691502
100
AcDbArc
 50
67.92594526326206
 51
112.0740547367379
  0
POINT
  5
15DE
330
1E
100
AcDbEntity
  8
0
100
AcDbPoint
 10
91.21302226573119
 20
623.9168332271439
 30
0.0
210
0.0000000000000001
220
1.0
230
0.0
  0
LINE
  5
15DF
330
1E
100
AcDbEntity
  8
STEMPEL
100
AcDbLine
 10
83.71302226573121
 20
633.9168332271439
 30
0.0
 11
98.71302226573117
 21
633.9168332271439
 31
0.0
  0
LINE
  5
15E0
330
1E
100
AcDbEntity
  8
STEMPEL
100
AcDbLine
 10
99.87327630357556
 20
626.0071897433436
 30
0.0
 11
99.87327630357556
 21
633.6059440946885
 31
0.0
  0
LINE
  5
15E1
330
1E
100
AcDbEntity
  8
STEMPEL
100
AcDbLine
 10
95.54314928465338
 20
626.0071897433436
 30
0.0
 11
95.54314928465338
 21
633.6059440946885
 31
0.0
  0
LINE
  5
15E2
330
1E
100
AcDbEntity
  8
STEMPEL
100
AcDbLine
 10
86.88289524680898
 20
626.0071897433436
 30
0.0
 11
86.88289524680898
 21
633.6059440946885
 31
0.0
  0
LINE
  5
15E3
330
1E
100
AcDbEntity
  8
STEMPEL
100
AcDbLine
 10
101.6195373732254
 20
625.3716026927333
 30
0.0
 11
80.80650715823692
 21
625.3716026927333
 31
0.0
  0
LINE
  5
15E4
330
1E
100
AcDbEntity
  8
STEMPEL
100
AcDbLine
 10
101.3630222657312
 20
623.9168332271439
 30
0.0
 11
81.06302226573118
 21
623.9168332271439
 31
0.0
  0
LINE
  5
15E5
330
1E
100
AcDbEntity
  8
STEMPEL
100
AcDbLine
 10
82.5527682278868
 20
626.0071897433436
 30
0.0
 11
82.5527682278868
 21
633.6059440946885
 31
0.0
  0
LINE
  5
15E6
330
1E
100
AcDbEntity
  8
STEMPEL
100
AcDbLine
 10
83.71302226573121
 20
633.9168332271439
 30
0.0
 11
82.5527682278868
 21
633.6059440946885
 31
0.0
  0
LINE
  5
15E7
330
1E
100
AcDbEntity
  8
STEMPEL
100
AcDbLine
 10
99.87327630357556
 20
633.6059440946885
 30
0.0
 11
98.71302226573117
 21
633.9168332271439
 31
0.0
  0
LINE
  5
15E8
330
1E
100
AcDbEntity
  8
STEMPEL
100
AcDbLine
 10
101.6195373732254
 20
625.3716026927333
 30
0.0
 11
99.87327630357556
 21
626.0071897433436
 31
0.0
  0
LINE
  5
15E9
330
1E
100
AcDbEntity
  8
STEMPEL
100
AcDbLine
 10
82.5527682278868
 20
626.0071897433436
 30
0.0
 11
80.80650715823693
 21
625.3716026927333
 31
0.0
  0
ARC
  5
15EA
330
1E
100
AcDbEntity
  8
STEMPEL
100
AcDbCircle
 10
81.06302226573118
 20
624.6668332271439
 30
0.0
 40
0.7500000000000013
100
AcDbArc
 50
110.0000000000006
 51
269.9999991462263
  0
ARC
  5
15EB
330
1E
100
AcDbEntity
  8
STEMPEL
100
AcDbCircle
 10
101.3630222657312
 20
624.6668332271439
 30
0.0
 40
0.750000000000001
100
AcDbArc
 50
269.9999991462263
 51
69.99999999999935
  0
ARC
  5
1605
330
1E
100
AcDbEntity
  8
STEMPEL
100
AcDbCircle
 10
306.6875299069949
 20
453.605944094689
 30
0.0
 40
30.31088913245485
100
AcDbArc
 50
81.78678929826059
 51
98.2132107017394
  0
ARC
  5
1606
330
1E
100
AcDbEntity
  8
STEMPEL
100
AcDbCircle
 10
300.1923393786116
 20
476.2225275193594
 30
0.0
 40
7.694305707784447
100
AcDbArc
 50
73.65710669401345
 51
106.3428933059834
  0
ARC
  5
1607
330
1E
100
AcDbEntity
  8
STEMPEL
100
AcDbCircle
 10
313.1827204353781
 20
476.2225275193594
 30
0.0
 40
7.694305707784447
100
AcDbArc
 50
73.65710669401345
 51
106.3428933059834
  0
ARC
  5
1608
330
1E
100
AcDbEntity
  8
HILF
100
AcDbCircle
 10
306.6875299069949
 20
454.0183721794826
 30
0.0
 40
22.41111549782308
100
AcDbArc
 50
78.85962783890455
 51
101.1403721610954
  0
ARC
  5
1609
330
1E
100
AcDbEntity
  8
HILF
100
AcDbCircle
 10
313.1827204353782
 20
470.6683470776142
 30
0.0
 40
5.761140599691502
100
AcDbArc
 50
67.92594526326054
 51
112.0740547367394
  0
ARC
  5
160A
330
1E
100
AcDbEntity
  8
HILF
100
AcDbCircle
 10
300.1923393786116
 20
470.6683470776142
 30
0.0
 40
5.761140599691502
100
AcDbArc
 50
67.92594526326054
 51
112.0740547367394
  0
POINT
  5
160B
330
1E
100
AcDbEntity
  8
0
100
AcDbPoint
 10
306.6875299069949
 20
473.9168332271439
 30
0.0
210
0.0000000000000001
220
1.0
230
0.0
  0
LINE
  5
160C
330
1E
100
AcDbEntity
  8
STEMPEL
100
AcDbLine
 10
299.1875299069949
 20
483.9168332271438
 30
0.0
 11
314.1875299069949
 21
483.9168332271438
 31
0.0
  0
LINE
  5
160D
330
1E
100
AcDbEntity
  8
STEMPEL
100
AcDbLine
 10
315.3477839448393
 20
476.0071897433436
 30
0.0
 11
315.3477839448393
 21
483.6059440946884
 31
0.0
  0
LINE
  5
160E
330
1E
100
AcDbEntity
  8
STEMPEL
100
AcDbLine
 10
311.0176569259171
 20
476.0071897433436
 30
0.0
 11
311.0176569259171
 21
483.6059440946884
 31
0.0
  0
LINE
  5
160F
330
1E
100
AcDbEntity
  8
STEMPEL
100
AcDbLine
 10
302.3574028880727
 20
476.0071897433436
 30
0.0
 11
302.3574028880727
 21
483.6059440946884
 31
0.0
  0
LINE
  5
1610
330
1E
100
AcDbEntity
  8
STEMPEL
100
AcDbLine
 10
316.080975651199
 20
475.3716026927332
 30
0.0
 11
296.2810147995006
 21
475.3716026927333
 31
0.0
  0
LINE
  5
1612
330
1E
100
AcDbEntity
  8
STEMPEL
100
AcDbLine
 10
298.0272758691505
 20
476.0071897433436
 30
0.0
 11
298.0272758691505
 21
483.6059440946884
 31
0.0
  0
LINE
  5
1613
330
1E
100
AcDbEntity
  8
STEMPEL
100
AcDbLine
 10
299.1875299069949
 20
483.9168332271438
 30
0.0
 11
298.0272758691505
 21
483.6059440946884
 31
0.0
  0
LINE
  5
1614
330
1E
100
AcDbEntity
  8
STEMPEL
100
AcDbLine
 10
315.3477839448393
 20
483.6059440946884
 30
0.0
 11
314.1875299069949
 21
483.9168332271438
 31
0.0
  0
LINE
  5
1615
330
1E
100
AcDbEntity
  8
STEMPEL
100
AcDbLine
 10
316.3376898484035
 20
475.6468934597219
 30
0.0
 11
315.3477839448393
 21
476.0071897433436
 31
0.0
  0
LINE
  5
1616
330
1E
100
AcDbEntity
  8
STEMPEL
100
AcDbLine
 10
298.0272758691505
 20
476.0071897433436
 30
0.0
 11
296.2810147995006
 21
475.3716026927333
 31
0.0
  0
ARC
  5
1617
330
1E
100
AcDbEntity
  8
STEMPEL
100
AcDbCircle
 10
296.5375299069949
 20
474.6668332271438
 30
0.0
 40
0.7500000000000013
100
AcDbArc
 50
109.9999999999995
 51
269.9999991462263
  0
ARC
  5
1632
330
1E
100
AcDbEntity
  8
STEMPEL
100
AcDbCircle
 10
147.2130222657308
 20
453.605944094689
 30
0.0
 40
30.31088913245485
100
AcDbArc
 50
81.78678929826221
 51
98.2132107017378
  0
ARC
  5
1633
330
1E
100
AcDbEntity
  8
STEMPEL
100
AcDbCircle
 10
140.7178317373475
 20
476.2225275193594
 30
0.0
 40
7.694305707784447
100
AcDbArc
 50
73.65710669401501
 51
106.342893305985
  0
ARC
  5
1634
330
1E
100
AcDbEntity
  8
STEMPEL
100
AcDbCircle
 10
153.7082127941141
 20
476.2225275193594
 30
0.0
 40
7.694305707784447
100
AcDbArc
 50
99.69079670689836
 51
106.342893305985
  0
ARC
  5
1635
330
1E
100
AcDbEntity
  8
HILF
100
AcDbCircle
 10
147.2130222657308
 20
454.0183721794826
 30
0.0
 40
22.41111549782308
100
AcDbArc
 50
78.85962783890615
 51
101.1403721610938
  0
ARC
  5
1636
330
1E
100
AcDbEntity
  8
HILF
100
AcDbCircle
 10
153.7082127941141
 20
470.6683470776142
 30
0.0
 40
5.761140599691502
100
AcDbArc
 50
102.9919967233922
 51
112.0740547367379
  0
ARC
  5
1637
330
1E
100
AcDbEntity
  8
HILF
100
AcDbCircle
 10
140.7178317373475
 20
470.6683470776142
 30
0.0
 40
5.761140599691502
100
AcDbArc
 50
67.92594526326206
 51
112.0740547367379
  0
POINT
  5
1638
330
1E
100
AcDbEntity
  8
0
100
AcDbPoint
 10
147.2130222657308
 20
473.9168332271439
 30
0.0
210
0.0000000000000001
220
1.0
230
0.0
  0
LINE
  5
1639
330
1E
100
AcDbEntity
  8
STEMPEL
100
AcDbLine
 10
139.7130222657309
 20
483.9168332271439
 30
0.0
 11
152.4130222657309
 21
483.9168332271439
 31
0.0
  0
LINE
  5
163B
330
1E
100
AcDbEntity
  8
STEMPEL
100
AcDbLine
 10
151.543149284653
 20
476.0071897433437
 30
0.0
 11
151.543149284653
 21
483.6059440946885
 31
0.0
  0
LINE
  5
163C
330
1E
100
AcDbEntity
  8
STEMPEL
100
AcDbLine
 10
142.8828952468086
 20
476.0071897433437
 30
0.0
 11
142.8828952468086
 21
483.6059440946885
 31
0.0
  0
LINE
  5
163D
330
1E
100
AcDbEntity
  8
STEMPEL
100
AcDbLine
 10
152.4130222657309
 20
475.3716026927333
 30
0.0
 11
136.8065071582366
 21
475.3716026927333
 31
0.0
  0
LINE
  5
163E
330
1E
100
AcDbEntity
  8
STEMPEL
100
AcDbLine
 10
152.4130222657309
 20
473.9168332271439
 30
0.0
 11
137.0630222657308
 21
473.9168332271439
 31
0.0
  0
LINE
  5
163F
330
1E
100
AcDbEntity
  8
STEMPEL
100
AcDbLine
 10
138.5527682278864
 20
476.0071897433437
 30
0.0
 11
138.5527682278864
 21
483.6059440946885
 31
0.0
  0
LINE
  5
1640
330
1E
100
AcDbEntity
  8
STEMPEL
100
AcDbLine
 10
139.7130222657309
 20
483.9168332271439
 30
0.0
 11
138.5527682278864
 21
483.6059440946885
 31
0.0
  0
LINE
  5
1643
330
1E
100
AcDbEntity
  8
STEMPEL
100
AcDbLine
 10
138.5527682278864
 20
476.0071897433437
 30
0.0
 11
136.8065071582366
 21
475.3716026927333
 31
0.0
  0
ARC
  5
1644
330
1E
100
AcDbEntity
  8
STEMPEL
100
AcDbCircle
 10
137.0630222657308
 20
474.6668332271439
 30
0.0
 40
0.7500000000000013
100
AcDbArc
 50
109.9999999999995
 51
269.9999991462263
  0
ARC
  5
165F
330
1E
100
AcDbEntity
  8
STEMPEL
100
AcDbCircle
 10
91.21302226573073
 20
453.605944094689
 30
0.0
 40
30.31088913245485
100
AcDbArc
 50
81.78678929826139
 51
98.2132107017378
  0
ARC
  5
1660
330
1E
100
AcDbEntity
  8
STEMPEL
100
AcDbCircle
 10
84.71783173734744
 20
476.2225275193594
 30
0.0
 40
7.694305707784447
100
AcDbArc
 50
73.65710669401501
 51
106.342893305985
  0
ARC
  5
1661
330
1E
100
AcDbEntity
  8
STEMPEL
100
AcDbCircle
 10
97.70821279411402
 20
476.2225275193594
 30
0.0
 40
7.694305707784447
100
AcDbArc
 50
73.65710669401501
 51
106.342893305985
  0
ARC
  5
1662
330
1E
100
AcDbEntity
  8
HILF
100
AcDbCircle
 10
91.21302226573073
 20
454.0183721794826
 30
0.0
 40
22.41111549782308
100
AcDbArc
 50
78.85962783890537
 51
101.1403721610946
  0
ARC
  5
1663
330
1E
100
AcDbEntity
  8
HILF
100
AcDbCircle
 10
97.70821279411402
 20
470.6683470776142
 30
0.0
 40
5.761140599691502
100
AcDbArc
 50
67.92594526326206
 51
112.0740547367379
  0
ARC
  5
1664
330
1E
100
AcDbEntity
  8
HILF
100
AcDbCircle
 10
84.71783173734744
 20
470.6683470776142
 30
0.0
 40
5.761140599691502
100
AcDbArc
 50
67.92594526326206
 51
112.0740547367379
  0
POINT
  5
1665
330
1E
100
AcDbEntity
  8
0
100
AcDbPoint
 10
91.21302226573073
 20
473.9168332271439
 30
0.0
210
0.0000000000000001
220
1.0
230
0.0
  0
LINE
  5
1666
330
1E
100
AcDbEntity
  8
STEMPEL
100
AcDbLine
 10
83.71302226573076
 20
483.9168332271438
 30
0.0
 11
98.71302226573071
 21
483.9168332271438
 31
0.0
  0
LINE
  5
1667
330
1E
100
AcDbEntity
  8
STEMPEL
100
AcDbLine
 10
99.87327630357512
 20
476.0071897433436
 30
0.0
 11
99.87327630357512
 21
483.6059440946884
 31
0.0
  0
LINE
  5
1668
330
1E
100
AcDbEntity
  8
STEMPEL
100
AcDbLine
 10
95.54314928465293
 20
476.0071897433436
 30
0.0
 11
95.54314928465293
 21
483.6059440946884
 31
0.0
  0
LINE
  5
1669
330
1E
100
AcDbEntity
  8
STEMPEL
100
AcDbLine
 10
86.88289524680852
 20
476.0071897433436
 30
0.0
 11
86.88289524680852
 21
483.6059440946884
 31
0.0
  0
LINE
  5
166A
330
1E
100
AcDbEntity
  8
STEMPEL
100
AcDbLine
 10
101.6195373732249
 20
475.3716026927333
 30
0.0
 11
80.80650715823647
 21
475.3716026927333
 31
0.0
  0
LINE
  5
166B
330
1E
100
AcDbEntity
  8
STEMPEL
100
AcDbLine
 10
101.3630222657307
 20
473.9168332271439
 30
0.0
 11
81.06302226573072
 21
473.9168332271439
 31
0.0
  0
LINE
  5
166C
330
1E
100
AcDbEntity
  8
STEMPEL
100
AcDbLine
 10
82.55276822788635
 20
476.0071897433436
 30
0.0
 11
82.55276822788635
 21
483.6059440946884
 31
0.0
  0
LINE
  5
166D
330
1E
100
AcDbEntity
  8
STEMPEL
100
AcDbLine
 10
83.71302226573076
 20
483.9168332271438
 30
0.0
 11
82.55276822788635
 21
483.6059440946884
 31
0.0
  0
LINE
  5
166E
330
1E
100
AcDbEntity
  8
STEMPEL
100
AcDbLine
 10
99.87327630357512
 20
483.6059440946884
 30
0.0
 11
98.71302226573071
 21
483.9168332271438
 31
0.0
  0
LINE
  5
166F
330
1E
100
AcDbEntity
  8
STEMPEL
100
AcDbLine
 10
101.6195373732249
 20
475.3716026927333
 30
0.0
 11
99.87327630357512
 21
476.0071897433436
 31
0.0
  0
LINE
  5
1670
330
1E
100
AcDbEntity
  8
STEMPEL
100
AcDbLine
 10
82.55276822788635
 20
476.0071897433436
 30
0.0
 11
80.80650715823649
 21
475.3716026927333
 31
0.0
  0
ARC
  5
1671
330
1E
100
AcDbEntity
  8
STEMPEL
100
AcDbCircle
 10
81.06302226573072
 20
474.6668332271438
 30
0.0
 40
0.7500000000000013
100
AcDbArc
 50
109.9999999999995
 51
269.9999991462263
  0
ARC
  5
1672
330
1E
100
AcDbEntity
  8
STEMPEL
100
AcDbCircle
 10
101.3630222657307
 20
474.6668332271438
 30
0.0
 40
0.750000000000001
100
AcDbArc
 50
269.9999991462263
 51
70.00000000000047
  0
LINE
  5
16C9
330
1E
100
AcDbEntity
  8
STEMPEL
100
AcDbLine
 10
125.9449270182285
 20
298.9168332271447
 30
0.0
 11
152.413022265731
 21
298.9168332271447
 31
0.0
  0
ARC
  5
16CA
330
1E
100
AcDbEntity
  8
STEMPEL
100
AcDbCircle
 10
125.9449270182285
 20
301.9168332271447
 30
0.0
 40
3.0
100
AcDbArc
 50
185.3558250428554
 51
270.0
  0
LINE
  5
16CD
330
1E
100
AcDbEntity
  8
STEMPEL
100
AcDbLine
 10
108.2130222657306
 20
458.9168332271447
 30
0.0
 11
122.9580243400505
 21
301.6368111010655
 31
0.0
  0
LINE
  5
16D0
330
1E
100
AcDbEntity
  8
STEMPEL
100
AcDbLine
 10
298.2130222657306
 20
458.9168332271447
 30
0.0
 11
283.4680201914107
 21
301.6368111010655
 31
0.0
  0
ARC
  5
16D4
330
1E
100
AcDbEntity
  8
STEMPEL
100
AcDbCircle
 10
280.4811175132328
 20
301.9168332271447
 30
0.0
 40
3.0
100
AcDbArc
 50
270.0
 51
354.6441749571445
  0
DIMENSION
  5
16D7
330
1E
100
AcDbEntity
  8
BEM
100
AcDbDimension
  2
*D9
 10
46.52577193000891
 20
298.9168332271447
 30
0.0
 11
40.02577193000887
 21
378.9168332271446
 31
0.0
 70
    32
 71
     5
 42
159.9999999999997
  3
Standard
100
AcDbAlignedDimension
 13
59.45297648059076
 23
458.9168332271444
 33
0.0
 14
123.2130222657306
 24
298.9168332271447
 34
0.0
 50
90.0
100
AcDbRotatedDimension
1001
ACAD
1000
DSTYLE
1002
{
1070
    40
1040
2.0
1070
    41
1040
3.5
1070
    42
1040
1.0
1070
    43
1040
7.0
1070
    44
1040
1.0
1070
    73
1070
     0
1070
    74
1070
     0
1070
    77
1070
     1
1070
    78
1070
     8
1070
    79
1070
     2
1070
   140
1040
3.5
1070
   141
1040
1.5
1070
   146
1040
0.5142857142857144
1070
   147
1040
1.5
1070
   172
1070
     1
1070
   178
1070
     1
1070
   179
1070
     2
1070
   271
1070
     2
1070
   272
1070
     2
1070
   284
1070
     8
1070
   285
1070
     8
1070
   286
1070
     8
1002
}
  0
DIMENSION
  5
16D8
330
1E
100
AcDbEntity
  8
BEM
100
AcDbDimension
  2
*D10
 10
283.2130222657306
 20
274.6240616971899
 30
0.0
 11
203.2130222657306
 21
281.1240616971899
 31
0.0
 70
    32
  1
%%c<>
 71
     5
 42
159.9999999999999
  3
Standard
100
AcDbAlignedDimension
 13
123.2130222657306
 23
298.9168332271447
 33
0.0
 14
283.2130222657306
 24
298.9168332271441
 34
0.0
100
AcDbRotatedDimension
1001
ACAD
1000
DSTYLE
1002
{
1070
    40
1040
2.0
1070
    41
1040
3.5
1070
    42
1040
1.0
1070
    43
1040
7.0
1070
    44
1040
1.0
1070
    73
1070
     0
1070
    74
1070
     0
1070
    77
1070
     1
1070
    78
1070
     8
1070
    79
1070
     2
1070
   140
1040
3.5
1070
   141
1040
1.5
1070
   146
1040
0.5142857142857144
1070
   147
1040
1.5
1070
   172
1070
     1
1070
   178
1070
     1
1070
   179
1070
     2
1070
   271
1070
     2
1070
   272
1070
     2
1070
   284
1070
     8
1070
   285
1070
     8
1070
   286
1070
     8
1002
}
  0
DIMENSION
  5
16D9
330
1E
100
AcDbEntity
  8
BEM
100
AcDbDimension
  2
*D11
 10
298.2130222657305
 20
488.5662306701487
 30
0.0
 11
203.2130222657305
 21
495.0662306701486
 31
0.0
 70
    32
  1
%%c<>
 71
     5
 42
189.9999999999999
  3
Standard
100
AcDbAlignedDimension
 13
108.2130222657306
 23
458.9168332271447
 33
0.0
 14
298.2130222657305
 24
458.9168332271434
 34
0.0
100
AcDbRotatedDimension
1001
ACAD
1000
DSTYLE
1002
{
1070
    40
1040
2.0
1070
    41
1040
3.5
1070
    42
1040
1.0
1070
    43
1040
7.0
1070
    44
1040
1.0
1070
    73
1070
     0
1070
    74
1070
     0
1070
    77
1070
     1
1070
    78
1070
     8
1070
    79
1070
     2
1070
   140
1040
3.5
1070
   141
1040
1.5
1070
   146
1040
0.5142857142857144
1070
   147
1040
1.5
1070
   172
1070
     1
1070
   178
1070
     1
1070
   179
1070
     2
1070
   271
1070
     2
1070
   272
1070
     2
1070
   284
1070
     8
1070
   285
1070
     8
1070
   286
1070
     8
1002
}
  0
LINE
  5
1730
330
1E
100
AcDbEntity
  8
STEMPEL
100
AcDbLine
 10
264.0130222657302
 20
298.9168332271442
 30
0.0
 11
280.4811175132328
 21
298.9168332271441
 31
0.0
  0
LINE
  5
175A
330
1E
100
AcDbEntity
  8
MITTEL
100
AcDbLine
 10
203.2130222657303
 20
271.4949565408312
 30
0.0
 11
203.2130222657301
 21
186.9168332271439
 31
0.0
  0
LINE
  5
1788
330
1E
100
AcDbEntity
  8
TEXT
 62
     2
100
AcDbLine
 10
345.8349867703553
 20
332.5514295433166
 30
0.0
 11
457.0219489221779
 21
332.5514295433166
 31
0.0
  0
TEXT
  5
1789
330
1E
100
AcDbEntity
  8
TEXT
 62
     1
100
AcDbText
 10
352.5608134707005
 20
335.5379700353696
 30
0.0
 40
7.0
  1
Wärmedämmung
 41
0.8
100
AcDbText
  0
TEXT
  5
178A
330
1E
100
AcDbEntity
  8
TEXT
 62
     1
100
AcDbText
 10
352.5608134707005
 20
321.9999567303213
 30
0.0
 40
7.0
  1
EDV-Art.Nr. 19842.100X
 41
0.8
100
AcDbText
  0
LINE
  5
178B
330
1E
100
AcDbEntity
  8
TEXT
 62
     2
100
AcDbLine
 10
345.8349867703553
 20
332.5514295433166
 30
0.0
 11
278.7225700928236
 21
351.6684187094301
 31
0.0
  0
TEXT
  5
178C
330
1E
100
AcDbEntity
  8
TEXT
100
AcDbText
 10
531.8997861689247
 20
654.3410940884991
 30
0.0
 40
5.0
  1
und Heizung, zweiteilig
 50
90.0
 41
0.8
  7
GREEKS
100
AcDbText
  0
LINE
  5
17EC
330
1E
100
AcDbEntity
  8
MITTEL
100
AcDbLine
 10
272.5807542331865
 20
260.7984575551604
 30
0.0
 11
259.1561581497991
 21
256.8260250512785
 31
0.0
  0
LINE
  5
17ED
330
1E
100
AcDbEntity
  8
TEXT
 62
     2
100
AcDbLine
 10
341.0627029628553
 20
260.6804255269858
 30
0.0
 11
266.8934614898714
 21
265.0803911865107
 31
0.0
  0
POLYLINE
  5
17EE
330
1E
100
AcDbEntity
  8
STEMPEL
100
AcDb2dPolyline
 66
     1
 10
0.0
 20
0.0
 30
0.0
  0
VERTEX
  5
17EF
330
17EE
100
AcDbEntity
  8
STEMPEL
100
AcDbVertex
100
AcDb2dVertex
 10
264.0130222657302
 20
298.916833227144
 30
0.0
  0
VERTEX
  5
17F0
330
17EE
100
AcDbEntity
  8
STEMPEL
100
AcDbVertex
100
AcDb2dVertex
 10
264.0075664743692
 20
292.0497421843881
 30
0.0
  0
VERTEX
  5
17F1
330
17EE
100
AcDbEntity
  8
STEMPEL
100
AcDbVertex
100
AcDb2dVertex
 10
264.0750181489324
 20
286.7959960711664
 30
0.0
  0
VERTEX
  5
17F2
330
17EE
100
AcDbEntity
  8
STEMPEL
100
AcDbVertex
100
AcDb2dVertex
 10
264.2724418355442
 20
282.7172166712787
 30
0.0
  0
VERTEX
  5
17F3
330
17EE
100
AcDbEntity
  8
STEMPEL
100
AcDbVertex
100
AcDb2dVertex
 10
264.6474250243969
 20
279.2861050879167
 30
0.0
  0
VERTEX
  5
17F4
330
17EE
100
AcDbEntity
  8
STEMPEL
100
AcDbVertex
100
AcDb2dVertex
 10
265.2726008815608
 20
275.8662489938624
 30
0.0
  0
VERTEX
  5
17F5
330
17EE
100
AcDbEntity
  8
STEMPEL
100
AcDbVertex
100
AcDb2dVertex
 10
266.260682895934
 20
271.8317181184533
 30
0.0
  0
VERTEX
  5
17F6
330
17EE
100
AcDbEntity
  8
STEMPEL
100
AcDbVertex
100
AcDb2dVertex
 10
267.7146677504928
 20
266.6702365002277
 30
0.0
  0
VERTEX
  5
17F7
330
17EE
100
AcDbEntity
  8
STEMPEL
100
AcDbVertex
100
AcDb2dVertex
 10
269.7040550724606
 20
259.9472220186143
 30
0.0
  0
SEQEND
  5
17F8
330
17EE
100
AcDbEntity
  8
STEMPEL
  0
POLYLINE
  5
17F9
330
1E
100
AcDbEntity
  8
STEMPEL
100
AcDb2dPolyline
 66
     1
 10
0.0
 20
0.0
 30
0.0
 70
     4
 75
     6
  0
VERTEX
  5
17FA
330
17F9
100
AcDbEntity
  8
STEMPEL
100
AcDbVertex
100
AcDb2dVertex
 10
254.013030943572
 20
298.9231890941103
 30
0.0
 70
    16
  0
VERTEX
  5
17FB
330
17F9
100
AcDbEntity
  8
STEMPEL
100
AcDbVertex
100
AcDb2dVertex
 10
254.013030943572
 20
298.9231890941103
 30
0.0
 70
     8
  0
VERTEX
  5
17FC
330
17F9
100
AcDbEntity
  8
STEMPEL
100
AcDbVertex
100
AcDb2dVertex
 10
254.6676860472075
 20
292.0015670037757
 30
0.0
 70
     8
  0
VERTEX
  5
17FD
330
17F9
100
AcDbEntity
  8
STEMPEL
100
AcDbVertex
100
AcDb2dVertex
 10
255.2337545252914
 20
286.5511837991068
 30
0.0
 70
     8
  0
VERTEX
  5
17FE
330
17F9
100
AcDbEntity
  8
STEMPEL
100
AcDbVertex
100
AcDb2dVertex
 10
255.8052187180615
 20
282.0886887554207
 30
0.0
 70
     8
  0
VERTEX
  5
17FF
330
17F9
100
AcDbEntity
  8
STEMPEL
100
AcDbVertex
100
AcDb2dVertex
 10
256.4760609657555
 20
278.1307311480342
 30
0.0
 70
     8
  0
VERTEX
  5
1800
330
17F9
100
AcDbEntity
  8
STEMPEL
100
AcDbVertex
100
AcDb2dVertex
 10
257.3402636086111
 20
274.1939602522644
 30
0.0
 70
     8
  0
VERTEX
  5
1801
330
17F9
100
AcDbEntity
  8
STEMPEL
100
AcDbVertex
100
AcDb2dVertex
 10
258.491808986866
 20
269.7950253434282
 30
0.0
 70
     8
  0
VERTEX
  5
1802
330
17F9
100
AcDbEntity
  8
STEMPEL
100
AcDbVertex
100
AcDb2dVertex
 10
260.0246794407579
 20
264.4505756968426
 30
0.0
 70
     8
  0
VERTEX
  5
1803
330
17F9
100
AcDbEntity
  8
STEMPEL
100
AcDbVertex
100
AcDb2dVertex
 10
262.0328573105247
 20
257.6772605878246
 30
0.0
 70
     8
  0
VERTEX
  5
1804
330
17F9
100
AcDbEntity
  8
STEMPEL
100
AcDbVertex
100
AcDb2dVertex
 10
255.9604332453245
 20
278.0742332503897
 30
0.0
 70
    16
  0
VERTEX
  5
1805
330
17F9
100
AcDbEntity
  8
STEMPEL
100
AcDbVertex
100
AcDb2dVertex
 10
262.0328573105248
 20
257.6772605878247
 30
0.0
 70
    16
  0
SEQEND
  5
1806
330
17F9
100
AcDbEntity
  8
STEMPEL
  0
LINE
  5
1807
330
1E
100
AcDbEntity
  8
TEXT
 62
     2
100
AcDbLine
 10
341.0627029628553
 20
260.6804255269858
 30
0.0
 11
434.2445501921208
 21
260.6804255269858
 31
0.0
  0
TEXT
  5
1808
330
1E
100
AcDbEntity
  8
TEXT
 62
     1
100
AcDbText
 10
342.8617949573217
 20
264.8255761366976
 30
0.0
 40
7.0
  1
Heizbandkabel
 41
0.8
  7
GREEKS
100
AcDbText
  0
TEXT
  5
1809
330
1E
100
AcDbEntity
  8
TEXT
 62
     1
100
AcDbText
 10
342.8617949573217
 20
249.8628703423311
 30
0.0
 40
7.0
  1
EDV-Art.Nr. 19853.000X
 41
0.7
  7
GREEKS
100
AcDbText
  0
HATCH
  5
180A
330
1E
100
AcDbEntity
  8
SCHRAFF
100
AcDbHatch
 10
0.0
 20
0.0
 30
0.0
210
0.0
220
0.0
230
1.0
  2
HONEY
 70
     0
 71
     0
 91
        2
 92
        7
 72
     1
 73
     1
 93
       10
 10
298.2130222657298
 20
458.9168332271437
 42
0.0
 10
283.2130222657288
 20
458.9168332271438
 42
0.0
 10
276.71302226573
 20
453.9168332271448
 42
0.0
 10
276.7130222657298
 20
408.9168332271445
 42
0.0
 10
265.71302226573
 20
388.9168332271438
 42
0.0
 10
265.7130222657299
 20
318.9168332271442
 42
0.0
 10
264.0130222657303
 20
316.8768332271446
 42
0.0
 10
264.0130222657303
 20
298.9168332271442
 42
0.0
 10
280.4811175132321
 20
298.9168332271441
 42
0.3870924378343482
 10
283.4680201914101
 20
301.6368111010655
 42
0.0
 97
        0
 92
        7
 72
     1
 73
     1
 93
       10
 10
122.9580243400499
 20
301.6368111010655
 42
0.387092437834293
 10
125.9449270182278
 20
298.9168332271447
 42
0.0
 10
152.4130222657302
 20
298.9168332271446
 42
0.0
 10
152.4130222657302
 20
304.8768332271441
 42
0.0
 10
140.7130222657299
 20
318.9168332271442
 42
0.0
 10
140.71302226573
 20
388.9168332271444
 42
0.0
 10
129.7130222657302
 20
408.9168332271445
 42
0.0
 10
129.71302226573
 20
453.9168332271448
 42
0.0
 10
123.2130222657306
 20
458.9168332271443
 42
0.0
 10
108.21302226573
 20
458.9168332271442
 42
0.0
 97
        0
 75
     0
 76
     1
 52
0.0
 41
35.0
 77
     0
 78
     3
 53
0.0
 43
-17.69532693579981
 44
17.06421036182104
 45
6.5625
 46
3.788861124999999
 79
     2
 49
4.375
 49
-8.75
 53
120.0
 43
-17.69532693579981
 44
17.06421036182104
 45
-6.562499985661285
 46
3.788861149835379
 79
     2
 49
4.374999999999998
 49
-8.749999999999996
 53
60.0
 43
-17.69532693579981
 44
17.06421036182104
 45
0.000000014338714
 46
7.577722274835378
 79
     2
 49
-8.75
 49
4.375
 47
0.2874578697987751
 98
        2
 10
287.7411842231979
 20
409.5061914482748
 10
119.2382828311281
 20
359.7759792210845
  0
LINE
  5
180B
330
1E
100
AcDbEntity
  8
STEMPEL
100
AcDbLine
 10
264.0130222657302
 20
387.4609510881512
 30
0.0
 11
264.0130222657303
 21
291.6247958380835
 31
0.0
  0
LINE
  5
180C
330
1E
100
AcDbEntity
  8
STEMPEL
100
AcDbLine
 10
264.0130222657302
 20
318.9168332271441
 30
0.0
 11
265.7130222657299
 21
318.9168332271441
 31
0.0
  0
LINE
  5
180D
330
1E
100
AcDbEntity
  8
STEMPEL
100
AcDbLine
 10
265.71302226573
 20
388.9168332271437
 30
0.0
 11
265.7130222657299
 21
318.9168332271441
 31
0.0
  0
LINE
  5
180E
330
1E
100
AcDbEntity
  8
STEMPEL
100
AcDbLine
 10
264.0130222657302
 20
316.8768332271445
 30
0.0
 11
265.7130222657299
 21
318.9168332271441
 31
0.0
  0
LINE
  5
180F
330
1E
100
AcDbEntity
  8
STEMPEL
100
AcDbLine
 10
267.1130222657303
 20
408.9168332271446
 30
0.0
 11
276.7130222657298
 21
408.9168332271445
 31
0.0
  0
LINE
  5
1810
330
1E
100
AcDbEntity
  8
STEMPEL
100
AcDbLine
 10
276.7130222657298
 20
408.9168332271445
 30
0.0
 11
276.71302226573
 21
453.9168332271448
 31
0.0
  0
LINE
  5
1811
330
1E
100
AcDbEntity
  8
STEMPEL
100
AcDbLine
 10
276.7130222657298
 20
408.9168332271445
 30
0.0
 11
265.71302226573
 21
388.9168332271437
 31
0.0
  0
LINE
  5
1812
330
1E
100
AcDbEntity
  8
STEMPEL
100
AcDbLine
 10
271.6774883597974
 20
453.9168332271448
 30
0.0
 11
276.71302226573
 21
453.9168332271448
 31
0.0
  0
LINE
  5
1813
330
1E
100
AcDbEntity
  8
STEMPEL
100
AcDbLine
 10
283.21302226573
 20
458.9168332271448
 30
0.0
 11
276.71302226573
 21
453.9168332271448
 31
0.0
  0
LINE
  5
1814
330
1E
100
AcDbEntity
  8
STEMPEL
100
AcDbLine
 10
260.1130222657302
 20
419.4136326964629
 30
0.0
 11
259.1130222657302
 21
419.4136326964631
 31
0.0
  0
LINE
  5
1815
330
1E
100
AcDbEntity
  8
STEMPEL
  6
Continuous
100
AcDbLine
 10
262.1130222657302
 20
417.413632696463
 30
0.0
 11
262.1130222657302
 21
411.413632696463
 31
0.0
  0
HATCH
  5
1816
330
1E
100
AcDbEntity
  8
SCHRAFF
100
AcDbHatch
 10
0.0
 20
0.0
 30
0.0
210
0.0
220
0.0
230
1.0
  2
_USER
 70
     0
 71
     1
 91
        1
 92
        7
 72
     1
 73
     1
 93
        8
 10
261.1130222657302
 20
417.413632696463
 42
0.4142135623730951
 10
260.1130222657302
 20
418.413632696463
 42
0.0
 10
259.1130222657302
 20
418.4136326964631
 42
0.4142135623730951
 10
258.1130222657302
 20
417.4136326964631
 42
0.0
 10
258.1130222657302
 20
411.413632696463
 42
0.4142135623730951
 10
259.1130222657302
 20
410.413632696463
 42
0.0
 10
260.1130222657302
 20
410.413632696463
 42
0.4142135623730951
 10
261.1130222657302
 20
411.413632696463
 42
0.0
 97
        8
330
181F
330
1819
330
1823
330
1817
330
1824
330
181A
330
181B
330
1818
 75
     0
 76
     0
 52
135.0
 41
1.0
 77
     0
 78
     1
 53
135.0
 43
-0.8168964861116023
 44
35.0065187261269
 45
-0.7071067811865476
 46
-0.7071067811865475
 79
     0
 47
0.1071053300341939
 98
        1
 10
259.6781722775226
 20
414.1897081300397
  0
LINE
  5
1817
102
{ACAD_REACTORS
330
1816
102
}
330
1E
100
AcDbEntity
  8
STEMPEL
  6
Continuous
100
AcDbLine
 10
258.1130222657302
 20
417.4136326964631
 30
0.0
 11
258.1130222657302
 21
411.413632696463
 31
0.0
  0
LINE
  5
1818
102
{ACAD_REACTORS
330
1816
102
}
330
1E
100
AcDbEntity
  8
STEMPEL
  6
Continuous
100
AcDbLine
 10
261.1130222657302
 20
417.413632696463
 30
0.0
 11
261.1130222657302
 21
411.413632696463
 31
0.0
  0
LINE
  5
1819
102
{ACAD_REACTORS
330
1816
102
}
330
1E
100
AcDbEntity
  8
STEMPEL
100
AcDbLine
 10
259.1130222657302
 20
418.4136326964631
 30
0.0
 11
260.1130222657302
 21
418.413632696463
 31
0.0
  0
LINE
  5
181A
102
{ACAD_REACTORS
330
1816
102
}
330
1E
100
AcDbEntity
  8
STEMPEL
100
AcDbLine
 10
259.1130222657302
 20
410.413632696463
 30
0.0
 11
260.1130222657302
 21
410.413632696463
 31
0.0
  0
ARC
  5
181B
102
{ACAD_REACTORS
330
1816
102
}
330
1E
100
AcDbEntity
  8
STEMPEL
100
AcDbCircle
 10
260.1130222657302
 20
411.413632696463
 30
0.0
 40
1.0
100
AcDbArc
 50
270.0
 51
0.0
  0
LINE
  5
181C
330
1E
100
AcDbEntity
  8
STEMPEL
100
AcDbLine
 10
259.1130222657302
 20
409.413632696463
 30
0.0
 11
260.1130222657302
 21
409.413632696463
 31
0.0
  0
ARC
  5
181D
330
1E
100
AcDbEntity
  8
STEMPEL
100
AcDbCircle
 10
260.1130222657302
 20
411.413632696463
 30
0.0
 40
2.0
100
AcDbArc
 50
270.0
 51
0.0
  0
ARC
  5
181E
330
1E
100
AcDbEntity
  8
STEMPEL
100
AcDbCircle
 10
260.1130222657302
 20
417.413632696463
 30
0.0
 40
2.0
100
AcDbArc
 50
0.0
 51
90.0
  0
ARC
  5
181F
102
{ACAD_REACTORS
330
1816
102
}
330
1E
100
AcDbEntity
  8
STEMPEL
100
AcDbCircle
 10
260.1130222657302
 20
417.413632696463
 30
0.0
 40
1.0
100
AcDbArc
 50
0.0
 51
90.0
  0
HATCH
  5
1820
330
1E
100
AcDbEntity
  8
SCHRAFF
100
AcDbHatch
 10
0.0
 20
0.0
 30
0.0
210
0.0
220
0.0
230
1.0
  2
NET
 70
     0
 71
     0
 91
        2
 92
        7
 72
     1
 73
     1
 93
       10
 10
262.1130222657302
 20
417.413632696463
 42
0.2539150913703598
 10
261.2026315647943
 20
419.0907586832014
 42
0.0005032130446828
 10
261.1771895807789
 20
419.1070162695444
 42
0.1411920676771369
 10
260.1130222657303
 20
419.4136326964629
 42
0.0
 10
259.1130222657302
 20
419.4136326964631
 42
0.4142135623730951
 10
257.1130222657302
 20
417.4136326964631
 42
0.0
 10
257.1130222657302
 20
411.413632696463
 42
0.4142135623730951
 10
259.1130222657302
 20
409.413632696463
 42
0.0
 10
260.1130222657302
 20
409.413632696463
 42
0.4142135623730951
 10
262.1130222657302
 20
411.413632696463
 42
0.0
 97
        0
 92
       22
 72
     1
 73
     1
 93
        8
 10
261.1130222657302
 20
411.413632696463
 42
-0.4142135623730951
 10
260.1130222657302
 20
410.413632696463
 42
0.0
 10
259.1130222657302
 20
410.413632696463
 42
-0.4142135623730951
 10
258.1130222657302
 20
411.413632696463
 42
0.0
 10
258.1130222657302
 20
417.4136326964631
 42
-0.4142135623731284
 10
259.1130222657303
 20
418.4136326964631
 42
0.0
 10
260.1130222657302
 20
418.413632696463
 42
-0.4142135623730951
 10
261.1130222657302
 20
417.413632696463
 42
0.0
 97
        0
 75
     0
 76
     1
 52
45.0
 41
10.0
 77
     0
 78
     2
 53
45.0
 43
-0.8168964861116023
 44
35.0065187261269
 45
-0.8838834764831842
 46
0.8838834764831844
 79
     0
 53
135.0
 43
-0.8168964861116023
 44
35.0065187261269
 45
-0.8838834764831844
 46
-0.8838834764831842
 79
     0
 47
0.1212528115745328
 98
        2
 10
261.4400039819206
 20
415.9459865641038
 10
261.4400039819206
 20
415.9459865641038
  0
ARC
  5
1821
330
1E
100
AcDbEntity
  8
STEMPEL
100
AcDbCircle
 10
259.1130222657302
 20
417.4136326964631
 30
0.0
 40
2.0
100
AcDbArc
 50
90.0
 51
180.0
  0
ARC
  5
1822
330
1E
100
AcDbEntity
  8
STEMPEL
100
AcDbCircle
 10
259.1130222657302
 20
411.413632696463
 30
0.0
 40
2.0
100
AcDbArc
 50
180.0
 51
270.0
  0
ARC
  5
1823
102
{ACAD_REACTORS
330
1816
102
}
330
1E
100
AcDbEntity
  8
STEMPEL
100
AcDbCircle
 10
259.1130222657302
 20
417.4136326964631
 30
0.0
 40
1.0
100
AcDbArc
 50
90.0
 51
180.0
  0
ARC
  5
1824
102
{ACAD_REACTORS
330
1816
102
}
330
1E
100
AcDbEntity
  8
STEMPEL
100
AcDbCircle
 10
259.1130222657302
 20
411.413632696463
 30
0.0
 40
1.0
100
AcDbArc
 50
180.0
 51
270.0
  0
ARC
  5
1825
330
1E
100
AcDbEntity
  8
STEMPEL
100
AcDbCircle
 10
256.299194394327
 20
409.441641967078
 30
0.0
 40
10.82655519756146
100
AcDbArc
 50
357.2215433564766
 51
63.22048523125464
  0
LINE
  5
1826
330
1E
100
AcDbEntity
  8
STEMPEL
100
AcDbLine
 10
267.1130222657303
 20
409.9664507070097
 30
0.0
 11
267.1130222657303
 21
401.6887407970278
 31
0.0
  0
ARC
  5
1827
330
1E
100
AcDbEntity
  8
STEMPEL
100
AcDbCircle
 10
242.9130222657302
 20
401.6887407970277
 30
0.0
 40
24.2
100
AcDbArc
 50
335.4166065353522
 51
0.0
  0
ARC
  5
1828
330
1E
100
AcDbEntity
  8
STEMPEL
100
AcDbCircle
 10
274.0130222657302
 20
387.4609510881512
 30
0.0
 40
10.0
100
AcDbArc
 50
155.4166065353522
 51
180.0
  0
LINE
  5
1829
330
1E
100
AcDbEntity
  8
STEMPEL
100
AcDbLine
 10
264.1195695217504
 20
388.9168332271437
 30
0.0
 11
265.71302226573
 21
388.9168332271437
 31
0.0
  0
LINE
  5
182A
330
1E
100
AcDbEntity
  8
STEMPEL
100
AcDbLine
 10
146.3130222657301
 20
419.4136326964629
 30
0.0
 11
147.3130222657301
 21
419.4136326964631
 31
0.0
  0
ARC
  5
182B
102
{ACAD_REACTORS
330
1836
102
}
330
1E
100
AcDbEntity
  8
STEMPEL
100
AcDbCircle
 10
147.3130222657301
 20
411.413632696463
 30
0.0
 40
1.0
100
AcDbArc
 50
270.0
 51
0.0
  0
ARC
  5
182C
330
1E
100
AcDbEntity
  8
STEMPEL
100
AcDbCircle
 10
147.3130222657301
 20
411.413632696463
 30
0.0
 40
2.0
100
AcDbArc
 50
270.0
 51
0.0
  0
LINE
  5
182D
330
1E
100
AcDbEntity
  8
STEMPEL
  6
Continuous
100
AcDbLine
 10
149.3130222657301
 20
417.4136326964631
 30
0.0
 11
149.3130222657301
 21
411.413632696463
 31
0.0
  0
LINE
  5
182E
102
{ACAD_REACTORS
330
1836
102
}
330
1E
100
AcDbEntity
  8
STEMPEL
  6
Continuous
100
AcDbLine
 10
148.3130222657301
 20
417.4136326964631
 30
0.0
 11
148.3130222657301
 21
411.413632696463
 31
0.0
  0
ARC
  5
182F
330
1E
100
AcDbEntity
  8
STEMPEL
100
AcDbCircle
 10
146.3130222657301
 20
411.413632696463
 30
0.0
 40
2.0
100
AcDbArc
 50
180.0
 51
270.0
  0
ARC
  5
1830
102
{ACAD_REACTORS
330
1836
102
}
330
1E
100
AcDbEntity
  8
STEMPEL
100
AcDbCircle
 10
146.3130222657301
 20
411.413632696463
 30
0.0
 40
1.0
100
AcDbArc
 50
180.0
 51
270.0
  0
LINE
  5
1831
102
{ACAD_REACTORS
330
1836
102
}
330
1E
100
AcDbEntity
  8
STEMPEL
  6
Continuous
100
AcDbLine
 10
145.3130222657301
 20
417.413632696463
 30
0.0
 11
145.3130222657301
 21
411.413632696463
 31
0.0
  0
LINE
  5
1832
330
1E
100
AcDbEntity
  8
STEMPEL
  6
Continuous
100
AcDbLine
 10
144.3130222657301
 20
417.413632696463
 30
0.0
 11
144.3130222657301
 21
411.413632696463
 31
0.0
  0
LINE
  5
1833
330
1E
100
AcDbEntity
  8
STEMPEL
100
AcDbLine
 10
147.3130222657301
 20
409.413632696463
 30
0.0
 11
146.3130222657301
 21
409.413632696463
 31
0.0
  0
LINE
  5
1834
102
{ACAD_REACTORS
330
1836
102
}
330
1E
100
AcDbEntity
  8
STEMPEL
100
AcDbLine
 10
147.3130222657301
 20
410.413632696463
 30
0.0
 11
146.3130222657301
 21
410.413632696463
 31
0.0
  0
LINE
  5
1835
102
{ACAD_REACTORS
330
1836
102
}
330
1E
100
AcDbEntity
  8
STEMPEL
100
AcDbLine
 10
147.3130222657301
 20
418.4136326964631
 30
0.0
 11
146.3130222657301
 21
418.413632696463
 31
0.0
  0
HATCH
  5
1836
330
1E
100
AcDbEntity
  8
SCHRAFF
100
AcDbHatch
 10
0.0
 20
0.0
 30
0.0
210
0.0
220
0.0
230
1.0
  2
_USER
 70
     0
 71
     1
 91
        1
 92
        7
 72
     1
 73
     1
 93
        8
 10
145.3130222657301
 20
411.413632696463
 42
0.4142135623730951
 10
146.3130222657301
 20
410.413632696463
 42
0.0
 10
147.3130222657301
 20
410.413632696463
 42
0.4142135623730951
 10
148.3130222657301
 20
411.413632696463
 42
0.0
 10
148.3130222657301
 20
417.4136326964631
 42
0.4142135623731283
 10
147.31302226573
 20
418.4136326964631
 42
0.0
 10
146.3130222657301
 20
418.413632696463
 42
0.4142135623730951
 10
145.3130222657301
 20
417.413632696463
 42
0.0
 97
        8
330
183A
330
1835
330
1837
330
182E
330
182B
330
1834
330
1830
330
1831
 75
     0
 76
     0
 52
135.0
 41
1.0
 77
     0
 78
     1
 53
135.0
 43
-17.69532693579981
 44
17.06421036182098
 45
-0.7071067811865476
 46
-0.7071067811865475
 79
     0
 47
0.1071053300341939
 98
        1
 10
146.7478722539377
 20
414.1897081300397
  0
ARC
  5
1837
102
{ACAD_REACTORS
330
1836
102
}
330
1E
100
AcDbEntity
  8
STEMPEL
100
AcDbCircle
 10
147.3130222657301
 20
417.4136326964631
 30
0.0
 40
1.0
100
AcDbArc
 50
0.0
 51
90.0
  0
ARC
  5
1838
330
1E
100
AcDbEntity
  8
STEMPEL
100
AcDbCircle
 10
147.3130222657301
 20
417.4136326964631
 30
0.0
 40
2.0
100
AcDbArc
 50
0.0
 51
90.0
  0
HATCH
  5
1839
330
1E
100
AcDbEntity
  8
SCHRAFF
100
AcDbHatch
 10
0.0
 20
0.0
 30
0.0
210
0.0
220
0.0
230
1.0
  2
NET
 70
     0
 71
     0
 91
        2
 92
        7
 72
     1
 73
     1
 93
       10
 10
144.3130222657301
 20
417.413632696463
 42
-0.2539150913703598
 10
145.223412966666
 20
419.0907586832014
 42
-0.0005032130446828
 10
145.2488549506814
 20
419.1070162695444
 42
-0.1411920676771369
 10
146.31302226573
 20
419.4136326964629
 42
0.0
 10
147.3130222657301
 20
419.4136326964631
 42
-0.4142135623730951
 10
149.3130222657301
 20
417.4136326964631
 42
0.0
 10
149.3130222657301
 20
411.413632696463
 42
-0.4142135623730951
 10
147.3130222657301
 20
409.413632696463
 42
0.0
 10
146.3130222657301
 20
409.413632696463
 42
-0.4142135623730951
 10
144.3130222657301
 20
411.413632696463
 42
0.0
 97
        0
 92
       22
 72
     1
 73
     1
 93
        8
 10
145.3130222657301
 20
411.413632696463
 42
0.4142135623730951
 10
146.3130222657301
 20
410.413632696463
 42
0.0
 10
147.3130222657301
 20
410.413632696463
 42
0.4142135623730951
 10
148.3130222657301
 20
411.413632696463
 42
0.0
 10
148.3130222657301
 20
417.4136326964631
 42
0.4142135623731284
 10
147.31302226573
 20
418.4136326964631
 42
0.0
 10
146.3130222657301
 20
418.413632696463
 42
0.4142135623730951
 10
145.3130222657301
 20
417.413632696463
 42
0.0
 97
        0
 75
     0
 76
     1
 52
45.0
 41
10.0
 77
     0
 78
     2
 53
135.0
 43
407.2429410175719
 44
35.0065187261269
 45
0.8838834764831842
 46
0.8838834764831844
 79
     0
 53
45.0
 43
407.2429410175719
 44
35.0065187261269
 45
0.8838834764831844
 46
-0.8838834764831842
 79
     0
 47
0.1212528115745328
 98
        2
 10
144.9860405495397
 20
415.9459865641038
 10
144.9860405495397
 20
415.9459865641038
  0
ARC
  5
183A
102
{ACAD_REACTORS
330
1836
102
}
330
1E
100
AcDbEntity
  8
STEMPEL
100
AcDbCircle
 10
146.3130222657301
 20
417.413632696463
 30
0.0
 40
1.0
100
AcDbArc
 50
90.0
 51
180.0
  0
ARC
  5
183B
330
1E
100
AcDbEntity
  8
STEMPEL
100
AcDbCircle
 10
146.3130222657301
 20
417.413632696463
 30
0.0
 40
2.0
100
AcDbArc
 50
90.0
 51
180.0
  0
LINE
  5
183C
330
1E
100
AcDbEntity
  8
STEMPEL
100
AcDbLine
 10
129.7130222657302
 20
408.9168332271445
 30
0.0
 11
129.71302226573
 21
453.9168332271448
 31
0.0
  0
LINE
  5
183D
330
1E
100
AcDbEntity
  8
STEMPEL
100
AcDbLine
 10
129.7130222657302
 20
408.9168332271445
 30
0.0
 11
140.71302226573
 21
388.9168332271445
 31
0.0
  0
LINE
  5
183E
330
1E
100
AcDbEntity
  8
STEMPEL
100
AcDbLine
 10
129.7130222657302
 20
408.9168332271445
 30
0.0
 11
149.3130222657302
 21
408.9168332271445
 31
0.0
  0
LINE
  5
183F
330
1E
100
AcDbEntity
  8
STEMPEL
100
AcDbLine
 10
129.71302226573
 20
453.9168332271448
 30
0.0
 11
134.7485561716626
 21
453.9168332271448
 31
0.0
  0
LINE
  5
1840
330
1E
100
AcDbEntity
  8
STEMPEL
100
AcDbLine
 10
123.21302226573
 20
458.9168332271448
 30
0.0
 11
129.71302226573
 21
453.9168332271448
 31
0.0
  0
LINE
  5
1841
330
1E
100
AcDbEntity
  8
STEMPEL
100
AcDbLine
 10
140.71302226573
 20
388.9168332271445
 30
0.0
 11
140.7130222657299
 21
318.9168332271447
 31
0.0
  0
LINE
  5
1842
330
1E
100
AcDbEntity
  8
STEMPEL
100
AcDbLine
 10
152.4130222657302
 20
304.8768332271442
 30
0.0
 11
140.71302226573
 21
318.9168332271441
 31
0.0
  0
LINE
  5
1843
330
1E
100
AcDbEntity
  8
STEMPEL
100
AcDbLine
 10
140.7130222657299
 20
318.9168332271447
 30
0.0
 11
152.4130222657302
 21
318.9168332271446
 31
0.0
  0
LINE
  5
1887
330
1E
100
AcDbEntity
  8
STEMPEL
100
AcDbLine
 10
53.21302226573113
 20
611.9168332271448
 30
0.0
 11
353.2130222657312
 21
611.9168332271438
 31
0.0
  0
LINE
  5
1888
330
1E
100
AcDbEntity
  8
STEMPEL
100
AcDbLine
 10
53.21302226573101
 20
611.9168332271443
 30
0.0
 11
353.2130222657311
 21
611.9168332271443
 31
0.0
  0
LINE
  5
1897
330
1E
100
AcDbEntity
  8
MITTEL
100
AcDbLine
 10
306.6875299069953
 20
641.9168332271446
 30
0.0
 11
306.6875299069953
 21
611.9168332271446
 31
0.0
  0
LINE
  5
18DA
330
1E
100
AcDbEntity
  8
STEMPEL
100
AcDbLine
 10
53.21302226573084
 20
461.9168332271446
 30
0.0
 11
147.1284770278687
 21
461.9168332271443
 31
0.0
  0
LINE
  5
18DB
330
1E
100
AcDbEntity
  8
STEMPEL
100
AcDbLine
 10
53.21302226573073
 20
461.9168332271441
 30
0.0
 11
147.1284770278687
 21
461.9168332271441
 31
0.0
  0
LINE
  5
18DC
330
1E
100
AcDbEntity
  8
STEMPEL
100
AcDbLine
 10
96.21302226573092
 20
467.9168332271437
 30
0.0
 11
146.0814323639148
 21
467.9168332271437
 31
0.0
  0
LINE
  5
18ED
330
1E
100
AcDbEntity
  8
STEMPEL
100
AcDbLine
 10
259.2975675035932
 20
461.9168332271441
 30
0.0
 11
353.2130222657308
 21
461.9168332271441
 31
0.0
  0
LINE
  5
18EE
330
1E
100
AcDbEntity
  8
STEMPEL
100
AcDbLine
 10
259.2975675035932
 20
461.916833227144
 30
0.0
 11
353.2130222657309
 21
461.9168332271437
 31
0.0
  0
LINE
  5
192F
330
1E
100
AcDbEntity
  8
STEMPEL
100
AcDbLine
 10
353.2130222657311
 20
611.9168332271443
 30
0.0
 11
353.2130222657311
 21
614.9168332271443
 31
0.0
  0
LINE
  5
1930
330
1E
100
AcDbEntity
  8
STEMPEL
100
AcDbLine
 10
353.2130222657312
 20
611.9168332271438
 30
0.0
 11
353.2130222657312
 21
614.9168332271443
 31
0.0
  0
HATCH
  5
1931
330
1E
100
AcDbEntity
  8
SCHRAFF
100
AcDbHatch
 10
0.0
 20
0.0
 30
0.0
210
0.0
220
0.0
230
1.0
  2
NET
 70
     0
 71
     0
 91
        5
 92
        7
 72
     0
 73
     1
 93
        4
 10
353.2130222657311
 20
614.9168332271442
 10
339.418151607935
 20
614.9168332271442
 10
341.4250515217242
 20
611.9168332271442
 10
353.2130222657311
 20
611.9168332271442
 97
        0
 92
        7
 72
     0
 73
     1
 93
        4
 10
339.4181516079348
 20
614.9168332271442
 10
306.6875299069953
 20
614.9168332271442
 10
306.6875299069953
 20
611.9168332271443
 10
341.4250515217241
 20
611.9168332271442
 97
        0
 92
        7
 72
     0
 73
     1
 93
        4
 10
306.6875299069953
 20
614.9168332271442
 10
283.213022265731
 20
614.9168332271441
 10
283.213022265731
 20
611.9168332271443
 10
306.6875299069953
 20
611.9168332271443
 97
        0
 92
        7
 72
     0
 73
     1
 93
        4
 10
123.213022265731
 20
614.9168332271443
 10
99.21302226573136
 20
614.9168332271443
 10
99.21302226573134
 20
611.9168332271443
 10
123.213022265731
 20
611.9168332271442
 97
        0
 92
        7
 72
     0
 73
     1
 93
        4
 10
83.213022265731
 20
614.9168332271443
 10
53.21302226573101
 20
614.9168332271444
 10
53.21302226573101
 20
611.9168332271443
 10
83.213022265731
 20
611.9168332271443
 97
        0
 75
     0
 76
     1
 52
45.0
 41
15.0
 77
     0
 78
     2
 53
45.0
 43
0.0
 44
0.0
 45
-1.325825214724776
 46
1.325825214724776
 79
     0
 53
135.0
 43
0.0
 44
0.0
 45
-1.325825214724776
 46
-1.325825214724776
 79
     0
 47
0.3408066115903065
 98
        5
 10
344.0969772111216
 20
613.7726488405558
 10
335.9148431857402
 20
613.7726488405558
 10
297.7315501886251
 20
613.7726488405558
 10
109.5424676048551
 20
613.0910351450186
 10
77.49577710378116
 20
613.7726488405558
  0
LINE
  5
1932
330
1E
100
AcDbEntity
  8
STEMPEL
100
AcDbLine
 10
96.21302226573121
 20
614.9168332271443
 30
0.0
 11
353.2130222657311
 21
614.9168332271443
 31
0.0
  0
LINE
  5
1933
330
1E
100
AcDbEntity
  8
STEMPEL
100
AcDbLine
 10
311.6875299069954
 20
617.9168332271439
 30
0.0
 11
311.6875299069954
 21
614.9168332271443
 31
0.0
  0
LINE
  5
1934
330
1E
100
AcDbEntity
  8
HILF
100
AcDbLine
 10
310.6875299069953
 20
617.9168332271439
 30
0.0
 11
310.6875299069953
 21
614.9168332271443
 31
0.0
  0
LINE
  5
1935
330
1E
100
AcDbEntity
  8
STEMPEL
100
AcDbLine
 10
301.6875299069955
 20
617.9168332271439
 30
0.0
 11
301.6875299069953
 21
614.9168332271444
 31
0.0
  0
LINE
  5
1936
330
1E
100
AcDbEntity
  8
HILF
100
AcDbLine
 10
302.6875299069953
 20
617.9168332271439
 30
0.0
 11
302.6875299069952
 21
614.9168332271444
 31
0.0
  0
LINE
  5
1937
330
1E
100
AcDbEntity
  8
STEMPEL
100
AcDbLine
 10
283.213022265731
 20
611.9168332271443
 30
0.0
 11
283.213022265731
 21
614.9168332271443
 31
0.0
  0
LINE
  5
1938
330
1E
100
AcDbEntity
  8
HILF
100
AcDbLine
 10
221.8319557943769
 20
617.9168332271439
 30
0.0
 11
221.831955794377
 21
614.9168332271443
 31
0.0
  0
LINE
  5
1939
330
1E
100
AcDbEntity
  8
STEMPEL
100
AcDbLine
 10
222.831955794377
 20
617.9168332271439
 30
0.0
 11
222.831955794377
 21
614.9168332271443
 31
0.0
  0
LINE
  5
193A
330
1E
100
AcDbEntity
  8
HILF
100
AcDbLine
 10
213.831955794377
 20
617.9168332271439
 30
0.0
 11
213.831955794377
 21
614.9168332271443
 31
0.0
  0
LINE
  5
193B
330
1E
100
AcDbEntity
  8
STEMPEL
100
AcDbLine
 10
212.831955794377
 20
617.9168332271439
 30
0.0
 11
212.831955794377
 21
614.9168332271443
 31
0.0
  0
LINE
  5
193C
330
1E
100
AcDbEntity
  8
STEMPEL
100
AcDbLine
 10
152.2130222657312
 20
617.9168332271436
 30
0.0
 11
152.2130222657313
 21
614.9168332271444
 31
0.0
  0
LINE
  5
193D
330
1E
100
AcDbEntity
  8
HILF
100
AcDbLine
 10
151.2130222657313
 20
617.9168332271437
 30
0.0
 11
151.2130222657313
 21
614.9168332271443
 31
0.0
  0
LINE
  5
193E
330
1E
100
AcDbEntity
  8
HILF
100
AcDbLine
 10
143.2130222657312
 20
617.9168332271436
 30
0.0
 11
143.2130222657313
 21
614.9168332271444
 31
0.0
  0
LINE
  5
193F
330
1E
100
AcDbEntity
  8
STEMPEL
100
AcDbLine
 10
142.2130222657312
 20
617.9168332271436
 30
0.0
 11
142.2130222657313
 21
614.9168332271444
 31
0.0
  0
LINE
  5
1940
330
1E
100
AcDbEntity
  8
STEMPEL
100
AcDbLine
 10
99.21302226573136
 20
611.9168332271442
 30
0.0
 11
99.21302226573136
 21
614.9168332271442
 31
0.0
  0
LINE
  5
1941
330
1E
100
AcDbEntity
  8
STEMPEL
100
AcDbLine
 10
123.213022265731
 20
611.9168332271443
 30
0.0
 11
123.213022265731
 21
614.9168332271443
 31
0.0
  0
LINE
  5
1942
330
1E
100
AcDbEntity
  8
STEMPEL
100
AcDbLine
 10
53.21302226573101
 20
614.9168332271443
 30
0.0
 11
86.21302226573121
 21
614.9168332271443
 31
0.0
  0
LINE
  5
1943
330
1E
100
AcDbEntity
  8
STEMPEL
100
AcDbLine
 10
83.213022265731
 20
611.9168332271442
 30
0.0
 11
83.213022265731
 21
614.9168332271442
 31
0.0
  0
LINE
  5
1944
330
1E
100
AcDbEntity
  8
STEMPEL
100
AcDbLine
 10
53.21302226573101
 20
611.9168332271443
 30
0.0
 11
53.21302226573101
 21
614.9168332271443
 31
0.0
  0
LINE
  5
1945
330
1E
100
AcDbEntity
  8
STEMPEL
100
AcDbLine
 10
53.21302226573113
 20
611.9168332271438
 30
0.0
 11
53.21302226573113
 21
614.9168332271442
 31
0.0
  0
LINE
  5
1946
330
1E
100
AcDbEntity
  8
STEMPEL
100
AcDbLine
 10
353.2130222657307
 20
461.9168332271441
 30
0.0
 11
353.2130222657307
 21
464.9168332271441
 31
0.0
  0
LINE
  5
1947
330
1E
100
AcDbEntity
  8
STEMPEL
100
AcDbLine
 10
353.2130222657309
 20
461.9168332271437
 30
0.0
 11
353.2130222657309
 21
463.9168332271442
 31
0.0
  0
LINE
  5
1948
330
1E
100
AcDbEntity
  8
STEMPEL
100
AcDbLine
 10
258.3672204990674
 20
464.9168332271441
 30
0.0
 11
353.2130222657307
 21
464.9168332271441
 31
0.0
  0
LINE
  5
1949
330
1E
100
AcDbEntity
  8
STEMPEL
100
AcDbLine
 10
311.6875299069951
 20
467.9168332271437
 30
0.0
 11
311.6875299069952
 21
464.9168332271441
 31
0.0
  0
LINE
  5
194A
330
1E
100
AcDbEntity
  8
HILF
100
AcDbLine
 10
310.687529906995
 20
467.9168332271437
 30
0.0
 11
310.687529906995
 21
464.9168332271441
 31
0.0
  0
LINE
  5
194B
330
1E
100
AcDbEntity
  8
STEMPEL
100
AcDbLine
 10
301.6875299069952
 20
467.9168332271437
 30
0.0
 11
301.6875299069951
 21
464.9168332271441
 31
0.0
  0
LINE
  5
194C
330
1E
100
AcDbEntity
  8
HILF
100
AcDbLine
 10
302.6875299069951
 20
467.9168332271437
 30
0.0
 11
302.687529906995
 21
464.9168332271441
 31
0.0
  0
LINE
  5
194D
330
1E
100
AcDbEntity
  8
STEMPEL
100
AcDbLine
 10
283.2130222657307
 20
461.9168332271441
 30
0.0
 11
283.2130222657307
 21
464.9168332271441
 31
0.0
  0
LINE
  5
194E
330
1E
100
AcDbEntity
  8
HILF
100
AcDbLine
 10
143.2130222657309
 20
467.9168332271436
 30
0.0
 11
143.213022265731
 21
464.9168332271441
 31
0.0
  0
LINE
  5
194F
330
1E
100
AcDbEntity
  8
STEMPEL
100
AcDbLine
 10
142.213022265731
 20
467.9168332271436
 30
0.0
 11
142.213022265731
 21
464.9168332271441
 31
0.0
  0
LINE
  5
1950
330
1E
100
AcDbEntity
  8
STEMPEL
100
AcDbLine
 10
123.2130222657307
 20
461.9168332271441
 30
0.0
 11
123.2130222657307
 21
464.9168332271441
 31
0.0
  0
HATCH
  5
1951
330
1E
100
AcDbEntity
  8
SCHRAFF
100
AcDbHatch
 10
0.0
 20
0.0
 30
0.0
210
0.0
220
0.0
230
1.0
  2
NET
 70
     0
 71
     0
 91
        5
 92
        7
 72
     0
 73
     1
 93
        4
 10
353.2130222657307
 20
464.9168332271441
 10
339.4181516079347
 20
464.916833227144
 10
341.4250515217242
 20
461.9168332271437
 10
353.2130222657308
 20
461.9168332271437
 97
        0
 92
        7
 72
     0
 73
     1
 93
        4
 10
339.4181516079348
 20
464.9168332271441
 10
306.6875299069949
 20
464.9168332271442
 10
306.6875299069949
 20
461.9168332271438
 10
341.4250515217241
 20
461.9168332271437
 97
        0
 92
        7
 72
     0
 73
     1
 93
        4
 10
306.6875299069949
 20
464.9168332271441
 10
283.2130222657308
 20
464.9168332271441
 10
283.2130222657307
 20
461.9168332271438
 10
306.6875299069949
 20
461.9168332271438
 97
        0
 92
        7
 72
     0
 73
     1
 93
        4
 10
123.2130222657307
 20
464.9168332271441
 10
99.21302226573107
 20
464.9168332271442
 10
99.21302226573105
 20
461.9168332271441
 10
123.2130222657307
 20
461.9168332271442
 97
        0
 92
        7
 72
     0
 73
     1
 93
        4
 10
83.2130222657307
 20
464.9168332271441
 10
53.2130222657307
 20
464.9168332271442
 10
53.2130222657307
 20
461.9168332271441
 10
83.2130222657307
 20
461.9168332271441
 97
        0
 75
     0
 76
     1
 52
45.0
 41
15.0
 77
     0
 78
     2
 53
45.0
 43
0.0
 44
0.0
 45
-1.325825214724776
 46
1.325825214724776
 79
     0
 53
135.0
 43
0.0
 44
0.0
 45
-1.325825214724776
 46
-1.325825214724776
 79
     0
 47
0.3328781063554322
 98
        5
 10
348.0716578882525
 20
462.4155818854362
 10
311.7756331465807
 20
463.7470946213396
 10
300.7869284082767
 20
463.7470946213396
 10
116.6428762785108
 20
462.7484605623346
 10
77.01694101008024
 20
463.4142159444406
  0
LINE
  5
1952
330
1E
100
AcDbEntity
  8
STEMPEL
100
AcDbLine
 10
96.2130222657309
 20
464.9168332271441
 30
0.0
 11
148.0588240323944
 21
464.9168332271441
 31
0.0
  0
LINE
  5
1953
330
1E
100
AcDbEntity
  8
STEMPEL
100
AcDbLine
 10
99.21302226573104
 20
461.916833227144
 30
0.0
 11
99.21302226573105
 21
464.9168332271441
 31
0.0
  0
LINE
  5
1954
330
1E
100
AcDbEntity
  8
STEMPEL
100
AcDbLine
 10
53.2130222657307
 20
464.9168332271441
 30
0.0
 11
86.2130222657309
 21
464.9168332271441
 31
0.0
  0
LINE
  5
1955
330
1E
100
AcDbEntity
  8
STEMPEL
100
AcDbLine
 10
83.2130222657307
 20
461.916833227144
 30
0.0
 11
83.2130222657307
 21
464.9168332271441
 31
0.0
  0
LINE
  5
1956
330
1E
100
AcDbEntity
  8
STEMPEL
100
AcDbLine
 10
53.2130222657307
 20
461.9168332271441
 30
0.0
 11
53.2130222657307
 21
464.9168332271441
 31
0.0
  0
LINE
  5
1957
330
1E
100
AcDbEntity
  8
STEMPEL
100
AcDbLine
 10
53.21302226573081
 20
461.9168332271437
 30
0.0
 11
53.21302226573081
 21
463.9168332271441
 31
0.0
  0
ENDSEC
  0
SECTION
  2
OBJECTS
  0
DICTIONARY
  5
C
330
0
100
AcDbDictionary
281
     1
  3
ACAD_COLOR
350
11A
  3
ACAD_GROUP
350
D
  3
ACAD_LAYOUT
350
19
  3
ACAD_MATERIAL
350
119
  3
ACAD_MLINESTYLE
350
16
  3
ACAD_PLOTSETTINGS
350
18
  3
ACAD_PLOTSTYLENAME
350
E
  3
AcDbVariableDictionary
350
125
  0
DICTIONARY
  5
DB
330
1E
100
AcDbDictionary
280
     1
281
     1
  3
ACAD_LAYOUTSELFREF
360
10F
  0
DICTIONARY
  5
DD
330
1A
100
AcDbDictionary
280
     1
281
     1
  3
ACAD_LAYOUTSELFREF
360
10E
  0
DICTIONARY
  5
11A
102
{ACAD_REACTORS
330
C
102
}
330
C
100
AcDbDictionary
281
     1
  0
DICTIONARY
  5
D
102
{ACAD_REACTORS
330
C
102
}
330
C
100
AcDbDictionary
281
     1
  0
DICTIONARY
  5
19
102
{ACAD_REACTORS
330
C
102
}
330
C
100
AcDbDictionary
281
     1
  3
Layout1
350
1D
  3
Model
350
21
  0
DICTIONARY
  5
119
102
{ACAD_REACTORS
330
C
102
}
330
C
100
AcDbDictionary
281
     1
  0
DICTIONARY
  5
16
102
{ACAD_REACTORS
330
C
102
}
330
C
100
AcDbDictionary
281
     1
  3
Standard
350
17
  0
DICTIONARY
  5
18
102
{ACAD_REACTORS
330
C
102
}
330
C
100
AcDbDictionary
281
     1
  0
ACDBDICTIONARYWDFLT
  5
E
102
{ACAD_REACTORS
330
C
102
}
330
C
100
AcDbDictionary
281
     1
  3
Normal
350
F
100
AcDbDictionaryWithDefault
340
F
  0
DICTIONARY
  5
125
102
{ACAD_REACTORS
330
C
102
}
330
C
100
AcDbDictionary
281
     1
  3
DIMASSOC
350
126
  3
PROJECTNAME
350
127
  0
XRECORD
  5
10F
102
{ACAD_REACTORS
330
DB
102
}
330
DB
100
AcDbXrecord
280
     1
340
1E
  0
XRECORD
  5
10E
102
{ACAD_REACTORS
330
DD
102
}
330
DD
100
AcDbXrecord
280
     1
340
1A
  0
LAYOUT
  5
1D
102
{ACAD_REACTORS
330
19
102
}
330
19
100
AcDbPlotSettings
  1

  2
\\NT_WORK01\HP LaserJet 5000 PCL 6
  4

  6

 40
0.0
 41
0.0
 42
0.0
 43
0.0
 44
0.0
 45
0.0
 46
0.0
 47
0.0
 48
0.0
 49
0.0
140
0.0
141
0.0
142
1.0
143
1.0
 70
   688
 72
     0
 73
     0
 74
     5
  7

 75
    16
147
1.0
 76
     0
 77
     2
 78
   300
148
0.0
149
0.0
100
AcDbLayout
  1
Layout1
 70
     0
 71
     1
 10
0.0
 20
0.0
 11
12.0
 21
9.0
 12
0.0
 22
0.0
 32
0.0
 14
1.000000000000000E+20
 24
1.000000000000000E+20
 34
1.000000000000000E+20
 15
-1.000000000000000E+20
 25
-1.000000000000000E+20
 35
-1.000000000000000E+20
146
0.0
 13
0.0
 23
0.0
 33
0.0
 16
1.0
 26
0.0
 36
0.0
 17
0.0
 27
1.0
 37
0.0
 76
     0
330
1A
  0
LAYOUT
  5
21
102
{ACAD_REACTORS
330
19
102
}
330
19
100
AcDbPlotSettings
  1

  2
none_device
  4
Letter_(8.50_x_11.00_Inches)
  6

 40
6.349999904632568
 41
6.349999904632568
 42
6.350006103515625
 43
6.350006103515625
 44
215.8999938964844
 45
279.3999938964844
 46
0.0
 47
0.0
 48
0.0
 49
0.0
140
0.0
141
0.0
142
1.0
143
1.0
 70
 11952
 72
     0
 73
     1
 74
     0
  7

 75
     0
147
1.0
 76
     0
 77
     2
 78
   300
148
3124.2
149
0.0
100
AcDbLayout
  1
Model
 70
     1
 71
     0
 10
0.0
 20
0.0
 11
12.0
 21
9.0
 12
0.0
 22
0.0
 32
0.0
 14
0.0
 24
0.0
 34
0.0
 15
0.0
 25
0.0
 35
0.0
146
0.0
 13
0.0
 23
0.0
 33
0.0
 16
1.0
 26
0.0
 36
0.0
 17
0.0
 27
1.0
 37
0.0
 76
     0
330
1E
  0
MLINESTYLE
  5
17
102
{ACAD_REACTORS
330
16
102
}
330
16
100
AcDbMlineStyle
  2
STANDARD
 70
     0
  3

 62
   256
 51
90.0
 52
90.0
 71
     2
 49
0.5
 62
   256
  6
BYLAYER
 49
-0.5
 62
   256
  6
BYLAYER
  0
ACDBPLACEHOLDER
  5
F
102
{ACAD_REACTORS
330
E
102
}
330
E
  0
DICTIONARYVAR
  5
126
102
{ACAD_REACTORS
330
125
102
}
330
125
100
DictionaryVariables
280
     0
  1
1
  0
DICTIONARYVAR
  5
127
102
{ACAD_REACTORS
330
125
102
}
330
125
100
DictionaryVariables
280
     0
  1

  0
ENDSEC
  0
EOF
