  0
SECTION
  2
HEADER
  9
$ACADVER
  1
AC1018
  9
$ACADMAINTVER
 70
     2
  9
$DWGCODEPAGE
  3
ANSI_1252
  9
$INSBASE
 10
0.0
 20
0.0
 30
0.0
  9
$EXTMIN
 10
-0.0271749795954293
 20
-0.0384292640751483
 30
-0.000000000000013
  9
$EXTMAX
 10
594.0271991839242
 20
840.0384634924186
 30
0.0000000000000023
  9
$LIMMIN
 10
0.0
 20
0.0
  9
$LIMMAX
 10
594.0
 20
840.0
  9
$ORTHOMODE
 70
     1
  9
$REGENMODE
 70
     1
  9
$FILLMODE
 70
     1
  9
$QTEXTMODE
 70
     0
  9
$MIRRTEXT
 70
     1
  9
$LTSCALE
 40
20.0
  9
$ATTMODE
 70
     1
  9
$TEXTSIZE
 40
3.5
  9
$TRACEWID
 40
1.0
  9
$TEXTSTYLE
  7
STANDARD
  9
$CLAYER
  8
SCHRAFF
  9
$CELTYPE
  6
ByLayer
  9
$CECOLOR
 62
   256
  9
$CELTSCALE
 40
1.0
  9
$DISPSILH
 70
     0
  9
$DIMSCALE
 40
2.0
  9
$DIMASZ
 40
3.5
  9
$DIMEXO
 40
1.0
  9
$DIMDLI
 40
7.0
  9
$DIMRND
 40
0.0
  9
$DIMDLE
 40
0.0
  9
$DIMEXE
 40
1.0
  9
$DIMTP
 40
0.0
  9
$DIMTM
 40
0.0
  9
$DIMTXT
 40
3.5
  9
$DIMCEN
 40
1.5
  9
$DIMTSZ
 40
0.0
  9
$DIMTOL
 70
     0
  9
$DIMLIM
 70
     0
  9
$DIMTIH
 70
     0
  9
$DIMTOH
 70
     0
  9
$DIMSE1
 70
     0
  9
$DIMSE2
 70
     0
  9
$DIMTAD
 70
     1
  9
$DIMZIN
 70
     8
  9
$DIMBLK
  1

  9
$DIMASO
 70
     1
  9
$DIMSHO
 70
     0
  9
$DIMPOST
  1

  9
$DIMAPOST
  1

  9
$DIMALT
 70
     0
  9
$DIMALTD
 70
     2
  9
$DIMALTF
 40
25.4
  9
$DIMLFAC
 40
1.0
  9
$DIMTOFL
 70
     1
  9
$DIMTVP
 40
0.0
  9
$DIMTIX
 70
     0
  9
$DIMSOXD
 70
     0
  9
$DIMSAH
 70
     0
  9
$DIMBLK1
  1

  9
$DIMBLK2
  1

  9
$DIMSTYLE
  2
Standard
  9
$DIMCLRD
 70
     0
  9
$DIMCLRE
 70
     0
  9
$DIMCLRT
 70
     1
  9
$DIMTFAC
 40
0.5142857142857144
  9
$DIMGAP
 40
1.5
  9
$DIMJUST
 70
     0
  9
$DIMSD1
 70
     0
  9
$DIMSD2
 70
     0
  9
$DIMTOLJ
 70
     1
  9
$DIMTZIN
 70
     8
  9
$DIMALTZ
 70
     8
  9
$DIMALTTZ
 70
     8
  9
$DIMUPT
 70
     0
  9
$DIMDEC
 70
     2
  9
$DIMTDEC
 70
     2
  9
$DIMALTU
 70
     2
  9
$DIMALTTD
 70
     2
  9
$DIMTXSTY
  7
STANDARD
  9
$DIMAUNIT
 70
     0
  9
$DIMADEC
 70
     2
  9
$DIMALTRND
 40
0.0
  9
$DIMAZIN
 70
     2
  9
$DIMDSEP
 70
    46
  9
$DIMATFIT
 70
     3
  9
$DIMFRAC
 70
     0
  9
$DIMLDRBLK
  1

  9
$DIMLUNIT
 70
     2
  9
$DIMLWD
 70
    -2
  9
$DIMLWE
 70
    -2
  9
$DIMTMOVE
 70
     0
  9
$LUNITS
 70
     2
  9
$LUPREC
 70
     2
  9
$SKETCHINC
 40
1.0
  9
$FILLETRAD
 40
0.0
  9
$AUNITS
 70
     0
  9
$AUPREC
 70
     0
  9
$MENU
  1
ACAD
  9
$ELEVATION
 40
0.0
  9
$PELEVATION
 40
0.0
  9
$THICKNESS
 40
0.0
  9
$LIMCHECK
 70
     0
  9
$CHAMFERA
 40
0.0
  9
$CHAMFERB
 40
0.0
  9
$CHAMFERC
 40
0.0
  9
$CHAMFERD
 40
0.0
  9
$SKPOLY
 70
     0
  9
$TDCREATE
 40
2455397.825393172
  9
$TDUCREATE
 40
2455397.783726505
  9
$TDUPDATE
 40
2455593.605880197
  9
$TDUUPDATE
 40
2455593.564213530
  9
$TDINDWG
 40
0.0890908681
  9
$TDUSRTIMER
 40
0.0890908681
  9
$USRTIMER
 70
     1
  9
$ANGBASE
 50
0.0
  9
$ANGDIR
 70
     0
  9
$PDMODE
 70
     0
  9
$PDSIZE
 40
0.0
  9
$PLINEWID
 40
0.0
  9
$SPLFRAME
 70
     0
  9
$SPLINETYPE
 70
     6
  9
$SPLINESEGS
 70
     8
  9
$HANDSEED
  5
E16
  9
$SURFTAB1
 70
     6
  9
$SURFTAB2
 70
     6
  9
$SURFTYPE
 70
     6
  9
$SURFU
 70
     6
  9
$SURFV
 70
     6
  9
$UCSBASE
  2

  9
$UCSNAME
  2

  9
$UCSORG
 10
0.0
 20
0.0
 30
0.0
  9
$UCSXDIR
 10
1.0
 20
0.0
 30
0.0
  9
$UCSYDIR
 10
0.0
 20
1.0
 30
0.0
  9
$UCSORTHOREF
  2

  9
$UCSORTHOVIEW
 70
     0
  9
$UCSORGTOP
 10
0.0
 20
0.0
 30
0.0
  9
$UCSORGBOTTOM
 10
0.0
 20
0.0
 30
0.0
  9
$UCSORGLEFT
 10
0.0
 20
0.0
 30
0.0
  9
$UCSORGRIGHT
 10
0.0
 20
0.0
 30
0.0
  9
$UCSORGFRONT
 10
0.0
 20
0.0
 30
0.0
  9
$UCSORGBACK
 10
0.0
 20
0.0
 30
0.0
  9
$PUCSBASE
  2

  9
$PUCSNAME
  2

  9
$PUCSORG
 10
0.0
 20
0.0
 30
0.0
  9
$PUCSXDIR
 10
1.0
 20
0.0
 30
0.0
  9
$PUCSYDIR
 10
0.0
 20
1.0
 30
0.0
  9
$PUCSORTHOREF
  2

  9
$PUCSORTHOVIEW
 70
     0
  9
$PUCSORGTOP
 10
0.0
 20
0.0
 30
0.0
  9
$PUCSORGBOTTOM
 10
0.0
 20
0.0
 30
0.0
  9
$PUCSORGLEFT
 10
0.0
 20
0.0
 30
0.0
  9
$PUCSORGRIGHT
 10
0.0
 20
0.0
 30
0.0
  9
$PUCSORGFRONT
 10
0.0
 20
0.0
 30
0.0
  9
$PUCSORGBACK
 10
0.0
 20
0.0
 30
0.0
  9
$USERI1
 70
     0
  9
$USERI2
 70
     0
  9
$USERI3
 70
     0
  9
$USERI4
 70
     0
  9
$USERI5
 70
     0
  9
$USERR1
 40
0.0
  9
$USERR2
 40
0.0
  9
$USERR3
 40
0.0
  9
$USERR4
 40
0.0
  9
$USERR5
 40
0.0
  9
$WORLDVIEW
 70
     1
  9
$SHADEDGE
 70
     3
  9
$SHADEDIF
 70
    70
  9
$TILEMODE
 70
     1
  9
$MAXACTVP
 70
    16
  9
$PINSBASE
 10
0.0
 20
0.0
 30
0.0
  9
$PLIMCHECK
 70
     0
  9
$PEXTMIN
 10
1.000000000000000E+20
 20
1.000000000000000E+20
 30
1.000000000000000E+20
  9
$PEXTMAX
 10
-1.000000000000000E+20
 20
-1.000000000000000E+20
 30
-1.000000000000000E+20
  9
$PLIMMIN
 10
0.0
 20
0.0
  9
$PLIMMAX
 10
12.0
 20
9.0
  9
$UNITMODE
 70
     0
  9
$VISRETAIN
 70
     0
  9
$PLINEGEN
 70
     0
  9
$PSLTSCALE
 70
     0
  9
$TREEDEPTH
 70
  3020
  9
$CMLSTYLE
  2
Standard
  9
$CMLJUST
 70
     0
  9
$CMLSCALE
 40
1.0
  9
$PROXYGRAPHICS
 70
     1
  9
$MEASUREMENT
 70
     0
  9
$CELWEIGHT
370
    -1
  9
$ENDCAPS
280
     0
  9
$JOINSTYLE
280
     0
  9
$LWDISPLAY
290
     0
  9
$INSUNITS
 70
     0
  9
$HYPERLINKBASE
  1

  9
$STYLESHEET
  1
monochrome 1.ctb
  9
$XEDIT
290
     1
  9
$CEPSNTYPE
380
     0
  9
$PSTYLEMODE
290
     1
  9
$FINGERPRINTGUID
  2
{D68B0D0D-A558-11D7-B632-000102183313}
  9
$VERSIONGUID
  2
{B39B8420-5256-4880-9ABA-5EC20A235CC5}
  9
$EXTNAMES
290
     1
  9
$PSVPSCALE
 40
0.0
  9
$OLESTARTUP
290
     0
  9
$SORTENTS
280
   127
  9
$INDEXCTL
280
     0
  9
$HIDETEXT
280
     0
  9
$XCLIPFRAME
290
     0
  9
$HALOGAP
280
     0
  9
$OBSCOLOR
 70
   257
  9
$OBSLTYPE
280
     0
  9
$INTERSECTIONDISPLAY
280
     0
  9
$INTERSECTIONCOLOR
 70
   257
  9
$DIMASSOC
280
     1
  9
$PROJECTNAME
  1

  0
ENDSEC
  0
SECTION
  2
CLASSES
  0
CLASS
  1
ACDBDICTIONARYWDFLT
  2
AcDbDictionaryWithDefault
  3
ObjectDBX Classes
 90
        0
 91
        1
280
     0
281
     0
  0
CLASS
  1
DICTIONARYVAR
  2
AcDbDictionaryVar
  3
ObjectDBX Classes
 90
        0
 91
        2
280
     0
281
     0
  0
ENDSEC
  0
SECTION
  2
TABLES
  0
TABLE
  2
VPORT
  5
8
330
0
100
AcDbSymbolTable
 70
     2
  0
VPORT
  5
E15
330
8
100
AcDbSymbolTableRecord
100
AcDbViewportTableRecord
  2
*Active
 70
     0
 10
0.0
 20
0.0
 11
1.0
 21
1.0
 12
297.0000121021644
 22
420.0000171141717
 13
0.0
 23
0.0
 14
1.0
 24
1.0
 15
10.0
 25
10.0
 16
0.0
 26
0.0
 36
1.0
 17
0.0
 27
0.0
 37
0.0
 40
846.8608245957119
 41
1.336927223719676
 42
50.0
 43
0.0
 44
0.0
 50
0.0
 51
0.0
 71
     0
 72
  1500
 73
     1
 74
     0
 75
     0
 76
     0
 77
     0
 78
     0
281
     0
 65
     1
110
0.0
120
0.0
130
0.0
111
1.0
121
0.0
131
0.0
112
0.0
122
1.0
132
0.0
 79
     0
146
0.0
  0
ENDTAB
  0
TABLE
  2
LTYPE
  5
5
330
0
100
AcDbSymbolTable
 70
     3
  0
LTYPE
  5
13
330
5
100
AcDbSymbolTableRecord
100
AcDbLinetypeTableRecord
  2
ByBlock
 70
     0
  3

 72
    65
 73
     0
 40
0.0
  0
LTYPE
  5
14
330
5
100
AcDbSymbolTableRecord
100
AcDbLinetypeTableRecord
  2
ByLayer
 70
     0
  3

 72
    65
 73
     0
 40
0.0
  0
LTYPE
  5
15
330
5
100
AcDbSymbolTableRecord
100
AcDbLinetypeTableRecord
  2
Continuous
 70
     0
  3
Solid line
 72
    65
 73
     0
 40
0.0
  0
LTYPE
  5
25
330
5
100
AcDbSymbolTableRecord
100
AcDbLinetypeTableRecord
  2
STRICHPUNKT
 70
     0
  3
__ . __ . __ . __ . __ . __ . __ . __ . __ . __
 72
    65
 73
     4
 40
1.0
 49
0.5
 74
     0
 49
-0.25
 74
     0
 49
0.0
 74
     0
 49
-0.25
 74
     0
  0
LTYPE
  5
34
330
5
100
AcDbSymbolTableRecord
100
AcDbLinetypeTableRecord
  2
AUSGEZOGEN
 70
     0
  3
Ausgezogene Linie
 72
    65
 73
     0
 40
0.0
  0
ENDTAB
  0
TABLE
  2
LAYER
  5
2
330
0
100
AcDbSymbolTable
 70
     9
  0
LAYER
  5
10
330
2
100
AcDbSymbolTableRecord
100
AcDbLayerTableRecord
  2
0
 70
     0
 62
     7
  6
Continuous
370
    -3
390
F
  0
LAYER
  5
2B
330
2
100
AcDbSymbolTableRecord
100
AcDbLayerTableRecord
  2
VOLL
 70
     0
 62
     1
  6
Continuous
370
    -3
390
F
  0
LAYER
  5
2C
330
2
100
AcDbSymbolTableRecord
100
AcDbLayerTableRecord
  2
HILF
 70
     0
 62
     2
  6
Continuous
370
    -3
390
F
  0
LAYER
  5
2D
330
2
100
AcDbSymbolTableRecord
100
AcDbLayerTableRecord
  2
MITTEL
 70
     0
 62
     2
  6
STRICHPUNKT
370
    -3
390
F
  0
LAYER
  5
2F
330
2
100
AcDbSymbolTableRecord
100
AcDbLayerTableRecord
  2
BEM
 70
     0
 62
     7
  6
Continuous
370
    -3
390
F
  0
LAYER
  5
30
330
2
100
AcDbSymbolTableRecord
100
AcDbLayerTableRecord
  2
STEMPEL
 70
     0
 62
     3
  6
Continuous
370
    -3
390
F
  0
LAYER
  5
33
330
2
100
AcDbSymbolTableRecord
100
AcDbLayerTableRecord
  2
TEXT
 70
     0
 62
     7
  6
Continuous
370
    -3
390
F
  0
LAYER
  5
2C2
330
2
100
AcDbSymbolTableRecord
100
AcDbLayerTableRecord
  2
DEFPOINTS
 70
     0
 62
     7
  6
AUSGEZOGEN
290
     0
370
    -3
390
F
  0
LAYER
  5
2C3
330
2
100
AcDbSymbolTableRecord
100
AcDbLayerTableRecord
  2
SCHRAFF
 70
     0
 62
     7
  6
AUSGEZOGEN
370
    -3
390
F
  0
ENDTAB
  0
TABLE
  2
STYLE
  5
3
330
0
100
AcDbSymbolTable
 70
     2
  0
STYLE
  5
11
330
3
100
AcDbSymbolTableRecord
100
AcDbTextStyleTableRecord
  2
STANDARD
 70
     0
 40
0.0
 41
0.8
 50
0.0
 71
     0
 42
3.5
  3
simplex.shx
  4

  0
STYLE
  5
24
330
3
100
AcDbSymbolTableRecord
100
AcDbTextStyleTableRecord
  2
GREEKS
 70
     0
 40
0.0
 41
0.8
 50
0.0
 71
     0
 42
2.5
  3
SIMPLEX.shx
  4

  0
ENDTAB
  0
TABLE
  2
VIEW
  5
6
330
0
100
AcDbSymbolTable
 70
     0
  0
ENDTAB
  0
TABLE
  2
UCS
  5
7
330
0
100
AcDbSymbolTable
 70
     0
  0
ENDTAB
  0
TABLE
  2
APPID
  5
9
330
0
100
AcDbSymbolTable
 70
     1
  0
APPID
  5
12
330
9
100
AcDbSymbolTableRecord
100
AcDbRegAppTableRecord
  2
ACAD
 70
     0
  0
ENDTAB
  0
TABLE
  2
DIMSTYLE
  5
A
330
0
100
AcDbSymbolTable
 70
     1
100
AcDbDimStyleTable
 71
     1
340
A2
  0
DIMSTYLE
105
A2
102
{ACAD_REACTORS
330
59F
330
5A0
330
5A7
330
5B1
330
5E7
330
5E8
330
A78
330
A7A
330
A7F
102
}
330
A
100
AcDbSymbolTableRecord
100
AcDbDimStyleTableRecord
  2
Standard
 70
     0
340
11
  0
ENDTAB
  0
TABLE
  2
BLOCK_RECORD
  5
1
330
0
100
AcDbSymbolTable
 70
    11
  0
BLOCK_RECORD
  5
1E
102
{ACAD_XDICTIONARY
360
DB
102
}
330
1
100
AcDbSymbolTableRecord
100
AcDbBlockTableRecord
  2
*Model_Space
340
21
  0
BLOCK_RECORD
  5
1A
102
{ACAD_XDICTIONARY
360
DD
102
}
330
1
100
AcDbSymbolTableRecord
100
AcDbBlockTableRecord
  2
*Paper_Space
340
1D
  0
BLOCK_RECORD
  5
22
330
1
100
AcDbSymbolTableRecord
100
AcDbBlockTableRecord
  2
LOGO
340
0
102
{BLKREFS
331
807
102
}
  0
BLOCK_RECORD
  5
209
330
1
100
AcDbSymbolTableRecord
100
AcDbBlockTableRecord
  2
*X1
340
0
102
{BLKREFS
331
594
102
}
  0
BLOCK_RECORD
  5
833
330
1
100
AcDbSymbolTableRecord
100
AcDbBlockTableRecord
  2
*D2
340
0
  0
BLOCK_RECORD
  5
83F
330
1
100
AcDbSymbolTableRecord
100
AcDbBlockTableRecord
  2
*D3
340
0
  0
BLOCK_RECORD
  5
84B
330
1
100
AcDbSymbolTableRecord
100
AcDbBlockTableRecord
  2
*D4
340
0
  0
BLOCK_RECORD
  5
857
330
1
100
AcDbSymbolTableRecord
100
AcDbBlockTableRecord
  2
*D5
340
0
  0
BLOCK_RECORD
  5
863
330
1
100
AcDbSymbolTableRecord
100
AcDbBlockTableRecord
  2
*D6
340
0
  0
BLOCK_RECORD
  5
86F
330
1
100
AcDbSymbolTableRecord
100
AcDbBlockTableRecord
  2
*D7
340
0
  0
BLOCK_RECORD
  5
A87
330
1
100
AcDbSymbolTableRecord
100
AcDbBlockTableRecord
  2
*D8
340
0
  0
BLOCK_RECORD
  5
A93
330
1
100
AcDbSymbolTableRecord
100
AcDbBlockTableRecord
  2
*D9
340
0
  0
BLOCK_RECORD
  5
A9F
330
1
100
AcDbSymbolTableRecord
100
AcDbBlockTableRecord
  2
*D10
340
0
  0
ENDTAB
  0
ENDSEC
  0
SECTION
  2
BLOCKS
  0
BLOCK
  5
37
330
1E
100
AcDbEntity
  8
0
100
AcDbBlockBegin
  2
*Model_Space
 70
     0
 10
0.0
 20
0.0
 30
0.0
  3
*Model_Space
  1

  0
ENDBLK
  5
38
330
1E
100
AcDbEntity
  8
0
100
AcDbBlockEnd
  0
BLOCK
  5
35
330
1A
100
AcDbEntity
 67
     1
  8
0
100
AcDbBlockBegin
  2
*Paper_Space
 70
     0
 10
0.0
 20
0.0
 30
0.0
  3
*Paper_Space
  1

  0
ENDBLK
  5
36
330
1A
100
AcDbEntity
 67
     1
  8
0
100
AcDbBlockEnd
  0
BLOCK
  5
39
330
22
100
AcDbEntity
  8
0
100
AcDbBlockBegin
  2
LOGO
 70
     0
 10
0.0
 20
0.0
 30
0.0
  3
LOGO
  1

  0
ARC
  5
3A
330
22
100
AcDbEntity
  8
0
100
AcDbCircle
 10
11.59973089678112
 20
-9.271599258481501
 30
0.0
 40
4.5
100
AcDbArc
 50
270.0
 51
231.0575587310159
  0
LINE
  5
3B
330
22
100
AcDbEntity
  8
0
100
AcDbLine
 10
3.599730896781125
 20
-4.771599258481529
 30
0.0
 11
3.599730896781153
 21
-11.77159925848133
 31
0.0
  0
LINE
  5
3C
330
22
100
AcDbEntity
  8
0
100
AcDbLine
 10
2.599730896781125
 20
-4.771599258481529
 30
0.0
 11
2.599730896781153
 21
-11.77159925848133
 31
0.0
  0
CIRCLE
  5
3D
330
22
100
AcDbEntity
  8
0
100
AcDbCircle
 10
11.59973089678112
 20
-9.271599258481501
 30
0.0
 40
3.5
  0
ARC
  5
3E
330
22
100
AcDbEntity
  8
0
100
AcDbCircle
 10
31.59973089678115
 20
-9.271599258481472
 30
0.0
 40
4.5
100
AcDbArc
 50
270.0
 51
231.0575587310182
  0
LINE
  5
3F
330
22
100
AcDbEntity
  8
0
100
AcDbLine
 10
17.59973089678112
 20
-4.771599258481472
 30
0.0
 11
17.59973089678115
 21
-13.77159925848147
 31
0.0
  0
ARC
  5
40
330
22
100
AcDbEntity
  8
0
100
AcDbCircle
 10
22.59973089678116
 20
-7.271599258481472
 30
0.0
 40
2.5
100
AcDbArc
 50
293.1161887722295
 51
90.0
  0
CIRCLE
  5
41
330
22
100
AcDbEntity
  8
0
100
AcDbCircle
 10
31.59973089678115
 20
-9.271599258481472
 30
0.0
 40
3.5
  0
ARC
  5
42
330
22
100
AcDbEntity
  8
0
100
AcDbCircle
 10
4.599730896781153
 20
-11.77159925848133
 30
0.0
 40
1.0
100
AcDbArc
 50
180.0
 51
270.0
  0
ARC
  5
43
330
22
100
AcDbEntity
  8
0
100
AcDbCircle
 10
4.599730896781153
 20
-11.77159925848133
 30
0.0
 40
2.0
100
AcDbArc
 50
179.9999999999992
 51
270.0
  0
LINE
  5
44
330
22
100
AcDbEntity
  8
0
100
AcDbLine
 10
11.59973089678115
 20
-13.77159925848144
 30
0.0
 11
4.599730896781153
 21
-13.77159925848147
 31
0.0
  0
LINE
  5
45
330
22
100
AcDbEntity
  8
0
100
AcDbLine
 10
8.771303772034769
 20
-12.77159925848136
 30
0.0
 11
4.599730896781153
 21
-12.77159925848133
 31
0.0
  0
LINE
  5
46
330
22
100
AcDbEntity
  8
0
100
AcDbLine
 10
31.59973089678115
 20
-13.77159925848147
 30
0.0
 11
23.6715276665056
 21
-13.77159925848144
 31
0.0
  0
LINE
  5
47
330
22
100
AcDbEntity
  8
0
100
AcDbLine
 10
23.56565672307022
 20
-9.51278021337896
 30
0.0
 11
24.4388546544846
 21
-12.77159925848144
 31
0.0
  0
LINE
  5
48
330
22
100
AcDbEntity
  8
0
100
AcDbLine
 10
22.59973089678116
 20
-9.771599258481472
 30
0.0
 11
18.59973089678112
 21
-9.771599258481472
 31
0.0
  0
LINE
  5
49
330
22
100
AcDbEntity
  8
0
100
AcDbLine
 10
18.59973089678115
 20
-13.77159925848144
 30
0.0
 11
17.59973089678115
 21
-13.77159925848144
 31
0.0
  0
LINE
  5
4A
330
22
100
AcDbEntity
  8
0
100
AcDbLine
 10
18.59973089678115
 20
-9.771599258481472
 30
0.0
 11
18.59973089678115
 21
-13.77159925848144
 31
0.0
  0
LINE
  5
4B
330
22
100
AcDbEntity
  8
0
100
AcDbLine
 10
22.59973089678116
 20
-9.771599258481472
 30
0.0
 11
23.67152766650562
 21
-13.77159925848147
 31
0.0
  0
ARC
  5
4C
330
22
100
AcDbEntity
  8
0
100
AcDbCircle
 10
22.59973089678116
 20
-7.271599258481472
 30
0.0
 40
2.5
100
AcDbArc
 50
270.0
 51
270.0000000000007
  0
LINE
  5
4D
330
22
100
AcDbEntity
  8
0
100
AcDbLine
 10
28.77130377203494
 20
-12.77159925848147
 30
0.0
 11
24.43885465448463
 21
-12.77159925848144
 31
0.0
  0
LINE
  5
4E
330
22
100
AcDbEntity
  8
0
100
AcDbLine
 10
3.599730896781125
 20
-4.771599258481472
 30
0.0
 11
2.599730896781125
 21
-4.771599258481472
 31
0.0
  0
LINE
  5
4F
330
22
100
AcDbEntity
  8
0
100
AcDbLine
 10
22.59973089678116
 20
-8.771599258481472
 30
0.0
 11
18.59973089678115
 21
-8.771599258481472
 31
0.0
  0
LINE
  5
50
330
22
100
AcDbEntity
  8
0
100
AcDbLine
 10
22.59973089678116
 20
-5.771599258481472
 30
0.0
 11
18.59973089678115
 21
-5.771599258481472
 31
0.0
  0
LINE
  5
51
330
22
100
AcDbEntity
  8
0
100
AcDbLine
 10
22.59973089678116
 20
-4.771599258481472
 30
0.0
 11
17.59973089678115
 21
-4.771599258481472
 31
0.0
  0
LINE
  5
52
330
22
100
AcDbEntity
  8
0
100
AcDbLine
 10
18.59973089678115
 20
-5.771599258481472
 30
0.0
 11
18.59973089678115
 21
-8.771599258481472
 31
0.0
  0
ARC
  5
53
330
22
100
AcDbEntity
  8
0
100
AcDbCircle
 10
22.59973089678116
 20
-7.271599258481472
 30
0.0
 40
1.5
100
AcDbArc
 50
270.0
 51
90.0
  0
ENDBLK
  5
54
330
22
100
AcDbEntity
  8
0
100
AcDbBlockEnd
  0
BLOCK
  5
20A
330
209
100
AcDbEntity
  8
0
100
AcDbBlockBegin
  2
*X1
 70
     1
 10
0.0
 20
0.0
 30
0.0
  3
*X1
  1

  0
LINE
  5
20B
330
209
100
AcDbEntity
  8
SCHRAFF
 62
     0
100
AcDbLine
 10
361.3530656954375
 20
428.5282099081594
 30
0.0
 11
362.3530656954376
 21
429.5282099081595
 31
0.0
  0
LINE
  5
20C
330
209
100
AcDbEntity
  8
SCHRAFF
 62
     0
100
AcDbLine
 10
350.7464639776393
 20
428.5282099081594
 30
0.0
 11
351.7464639776398
 21
429.52820990816
 31
0.0
  0
LINE
  5
20D
330
209
100
AcDbEntity
  8
SCHRAFF
 62
     0
100
AcDbLine
 10
347.536101489645
 20
428.8533813260979
 30
0.0
 11
348.3429835939319
 21
429.6602634303847
 31
0.0
  0
LINE
  5
20E
330
209
100
AcDbEntity
  8
SCHRAFF
 62
     0
100
AcDbLine
 10
345.3383891982183
 20
430.1912029406039
 30
0.0
 11
346.0457107741778
 21
430.8985245165633
 31
0.0
  0
LINE
  5
20F
330
209
100
AcDbEntity
  8
SCHRAFF
 62
     0
100
AcDbLine
 10
343.9130455377835
 20
432.3013931861019
 30
0.0
 11
344.6971737132816
 21
433.0855213616
 31
0.0
  0
LINE
  5
210
330
209
100
AcDbEntity
  8
SCHRAFF
 62
     0
100
AcDbLine
 10
343.4845163746778
 20
435.4083979289289
 30
0.0
 11
344.4845163746779
 21
436.408397928929
 31
0.0
  0
LINE
  5
211
330
209
100
AcDbEntity
  8
SCHRAFF
 62
     0
100
AcDbLine
 10
343.4845163746778
 20
438.9439318348616
 30
0.0
 11
344.4845163746779
 21
439.9439318348616
 31
0.0
  0
LINE
  5
212
330
209
100
AcDbEntity
  8
SCHRAFF
 62
     0
100
AcDbLine
 10
343.4845163746777
 20
442.4794657407942
 30
0.0
 11
344.4845163746779
 21
443.4794657407945
 31
0.0
  0
LINE
  5
213
330
209
100
AcDbEntity
  8
SCHRAFF
 62
     0
100
AcDbLine
 10
343.4845163746778
 20
446.0149996467271
 30
0.0
 11
344.4845163746779
 21
447.0149996467272
 31
0.0
  0
LINE
  5
214
330
209
100
AcDbEntity
  8
SCHRAFF
 62
     0
100
AcDbLine
 10
343.4845163746778
 20
449.5505335526598
 30
0.0
 11
344.4845163746779
 21
450.5505335526598
 31
0.0
  0
LINE
  5
215
330
209
100
AcDbEntity
  8
SCHRAFF
 62
     0
100
AcDbLine
 10
343.4845163746778
 20
453.0860674585926
 30
0.0
 11
344.4845163746779
 21
454.0860674585927
 31
0.0
  0
LINE
  5
216
330
209
100
AcDbEntity
  8
SCHRAFF
 62
     0
100
AcDbLine
 10
343.4845163746777
 20
456.6216013645252
 30
0.0
 11
344.4845163746779
 21
457.6216013645254
 31
0.0
  0
LINE
  5
217
330
209
100
AcDbEntity
  8
SCHRAFF
 62
     0
100
AcDbLine
 10
343.4845163746777
 20
460.157135270458
 30
0.0
 11
344.4845163746779
 21
461.1571352704581
 31
0.0
  0
LINE
  5
218
330
209
100
AcDbEntity
  8
SCHRAFF
 62
     0
100
AcDbLine
 10
343.4845163746778
 20
463.6926691763907
 30
0.0
 11
344.4845163746779
 21
464.6926691763908
 31
0.0
  0
LINE
  5
219
330
209
100
AcDbEntity
  8
SCHRAFF
 62
     0
100
AcDbLine
 10
343.4845163746777
 20
467.2282030823234
 30
0.0
 11
344.4845163746779
 21
468.2282030823236
 31
0.0
  0
LINE
  5
21A
330
209
100
AcDbEntity
  8
SCHRAFF
 62
     0
100
AcDbLine
 10
343.4845163746777
 20
470.7637369882561
 30
0.0
 11
344.4845163746779
 21
471.7637369882563
 31
0.0
  0
LINE
  5
21B
330
209
100
AcDbEntity
  8
SCHRAFF
 62
     0
100
AcDbLine
 10
343.4845163746777
 20
474.299270894189
 30
0.0
 11
344.4845163746779
 21
475.2992708941891
 31
0.0
  0
LINE
  5
21C
330
209
100
AcDbEntity
  8
SCHRAFF
 62
     0
100
AcDbLine
 10
343.4845163746778
 20
477.8348048001216
 30
0.0
 11
344.4845163746779
 21
478.8348048001218
 31
0.0
  0
LINE
  5
21D
330
209
100
AcDbEntity
  8
SCHRAFF
 62
     0
100
AcDbLine
 10
343.4845163746778
 20
481.3703387060544
 30
0.0
 11
344.4845163746779
 21
482.3703387060545
 31
0.0
  0
LINE
  5
21E
330
209
100
AcDbEntity
  8
SCHRAFF
 62
     0
100
AcDbLine
 10
343.4845163746777
 20
484.9058726119871
 30
0.0
 11
344.4845163746779
 21
485.9058726119873
 31
0.0
  0
LINE
  5
21F
330
209
100
AcDbEntity
  8
SCHRAFF
 62
     0
100
AcDbLine
 10
343.4845163746778
 20
488.4414065179199
 30
0.0
 11
344.4845163746779
 21
489.44140651792
 31
0.0
  0
LINE
  5
220
330
209
100
AcDbEntity
  8
SCHRAFF
 62
     0
100
AcDbLine
 10
343.4845163746778
 20
491.9769404238526
 30
0.0
 11
344.4845163746779
 21
492.9769404238527
 31
0.0
  0
LINE
  5
221
330
209
100
AcDbEntity
  8
SCHRAFF
 62
     0
100
AcDbLine
 10
343.4845163746778
 20
495.5124743297854
 30
0.0
 11
344.4845163746779
 21
496.5124743297855
 31
0.0
  0
LINE
  5
222
330
209
100
AcDbEntity
  8
SCHRAFF
 62
     0
100
AcDbLine
 10
343.4599269805499
 20
499.0234188415903
 30
0.0
 11
344.3276533245371
 21
499.8911451855775
 31
0.0
  0
LINE
  5
223
330
209
100
AcDbEntity
  8
SCHRAFF
 62
     0
100
AcDbLine
 10
342.4606660313685
 20
501.5596917983416
 30
0.0
 11
343.1730907250824
 21
502.2721164920555
 31
0.0
  0
LINE
  5
224
330
209
100
AcDbEntity
  8
SCHRAFF
 62
     0
100
AcDbLine
 10
340.5040494148713
 20
503.1386090877771
 30
0.0
 11
341.2352235009612
 21
503.869783173867
 31
0.0
  0
LINE
  5
225
330
209
100
AcDbEntity
  8
SCHRAFF
 62
     0
100
AcDbLine
 10
338.2710799496559
 20
504.4411735284945
 30
0.0
 11
339.0022547182668
 21
505.1723482971054
 31
0.0
  0
LINE
  5
226
330
209
100
AcDbEntity
  8
SCHRAFF
 62
     0
100
AcDbLine
 10
336.0381104844405
 20
505.7437379692118
 30
0.0
 11
336.7692859355724
 21
506.4749134203437
 31
0.0
  0
LINE
  5
227
330
209
100
AcDbEntity
  8
SCHRAFF
 62
     0
100
AcDbLine
 10
333.8051410192252
 20
507.0463024099292
 30
0.0
 11
334.5363171528782
 21
507.7774785435821
 31
0.0
  0
LINE
  5
228
330
209
100
AcDbEntity
  8
SCHRAFF
 62
     0
100
AcDbLine
 10
331.5721715540097
 20
508.3488668506464
 30
0.0
 11
332.3033483701837
 21
509.0800436668205
 31
0.0
  0
LINE
  5
229
330
209
100
AcDbEntity
  8
SCHRAFF
 62
     0
100
AcDbLine
 10
329.3392020887944
 20
509.6514312913639
 30
0.0
 11
330.0703795874893
 21
510.3826087900587
 31
0.0
  0
LINE
  5
22A
330
209
100
AcDbEntity
  8
SCHRAFF
 62
     0
100
AcDbLine
 10
327.106232623579
 20
510.9539957320812
 30
0.0
 11
327.8374108047949
 21
511.6851739132972
 31
0.0
  0
LINE
  5
22B
330
209
100
AcDbEntity
  8
SCHRAFF
 62
     0
100
AcDbLine
 10
324.8732631583637
 20
512.2565601727987
 30
0.0
 11
325.6044420221004
 21
512.9877390365354
 31
0.0
  0
LINE
  5
22C
330
209
100
AcDbEntity
  8
SCHRAFF
 62
     0
100
AcDbLine
 10
322.6402936931483
 20
513.559124613516
 30
0.0
 11
323.3714732394061
 21
514.2903041597738
 31
0.0
  0
LINE
  5
22D
330
209
100
AcDbEntity
  8
SCHRAFF
 62
     0
100
AcDbLine
 10
320.4073242279329
 20
514.8616890542333
 30
0.0
 11
321.1385044567117
 21
515.5928692830122
 31
0.0
  0
LINE
  5
22E
330
209
100
AcDbEntity
  8
SCHRAFF
 62
     0
100
AcDbLine
 10
318.1743547627175
 20
516.1642534949508
 30
0.0
 11
318.9055356740174
 21
516.8954344062505
 31
0.0
  0
LINE
  5
22F
330
209
100
AcDbEntity
  8
SCHRAFF
 62
     0
100
AcDbLine
 10
315.820881490301
 20
517.3463141284669
 30
0.0
 11
316.6126742455683
 21
518.1381068837342
 31
0.0
  0
LINE
  5
230
330
209
100
AcDbEntity
  8
SCHRAFF
 62
     0
100
AcDbLine
 10
312.4672433640608
 20
517.5282099081595
 30
0.0
 11
313.4672433640607
 21
518.5282099081594
 31
0.0
  0
LINE
  5
231
330
209
100
AcDbEntity
  8
SCHRAFF
 62
     0
100
AcDbLine
 10
308.9317094581281
 20
517.5282099081595
 30
0.0
 11
309.931709458128
 21
518.5282099081594
 31
0.0
  0
LINE
  5
232
330
209
100
AcDbEntity
  8
SCHRAFF
 62
     0
100
AcDbLine
 10
305.3961755521953
 20
517.5282099081595
 30
0.0
 11
306.3961755521952
 21
518.5282099081594
 31
0.0
  0
LINE
  5
233
330
209
100
AcDbEntity
  8
SCHRAFF
 62
     0
100
AcDbLine
 10
301.8606416462625
 20
517.5282099081593
 30
0.0
 11
302.8606416462625
 21
518.5282099081594
 31
0.0
  0
LINE
  5
234
330
209
100
AcDbEntity
  8
SCHRAFF
 62
     0
100
AcDbLine
 10
298.3251077403297
 20
517.5282099081593
 30
0.0
 11
299.3251077403297
 21
518.5282099081594
 31
0.0
  0
LINE
  5
235
330
209
100
AcDbEntity
  8
SCHRAFF
 62
     0
100
AcDbLine
 10
294.789573834397
 20
517.5282099081593
 30
0.0
 11
295.789573834397
 21
518.5282099081594
 31
0.0
  0
LINE
  5
236
330
209
100
AcDbEntity
  8
SCHRAFF
 62
     0
100
AcDbLine
 10
291.2540399284642
 20
517.5282099081593
 30
0.0
 11
292.2540399284642
 21
518.5282099081594
 31
0.0
  0
LINE
  5
237
330
209
100
AcDbEntity
  8
SCHRAFF
 62
     0
100
AcDbLine
 10
287.7185060225315
 20
517.5282099081592
 30
0.0
 11
288.7185060225315
 21
518.5282099081594
 31
0.0
  0
LINE
  5
238
330
209
100
AcDbEntity
  8
SCHRAFF
 62
     0
100
AcDbLine
 10
284.1829721165987
 20
517.5282099081593
 30
0.0
 11
285.1829721165988
 21
518.5282099081594
 31
0.0
  0
LINE
  5
239
330
209
100
AcDbEntity
  8
SCHRAFF
 62
     0
100
AcDbLine
 10
280.647438210666
 20
517.5282099081593
 30
0.0
 11
281.647438210666
 21
518.5282099081594
 31
0.0
  0
LINE
  5
23A
330
209
100
AcDbEntity
  8
SCHRAFF
 62
     0
100
AcDbLine
 10
277.1119043047332
 20
517.5282099081593
 30
0.0
 11
278.1119043047332
 21
518.5282099081594
 31
0.0
  0
LINE
  5
23B
330
209
100
AcDbEntity
  8
SCHRAFF
 62
     0
100
AcDbLine
 10
273.5763703988006
 20
517.5282099081592
 30
0.0
 11
274.5763703988006
 21
518.5282099081594
 31
0.0
  0
LINE
  5
23C
330
209
100
AcDbEntity
  8
SCHRAFF
 62
     0
100
AcDbLine
 10
270.0408364928677
 20
517.5282099081592
 30
0.0
 11
271.0408364928678
 21
518.5282099081592
 31
0.0
  0
LINE
  5
23D
330
209
100
AcDbEntity
  8
SCHRAFF
 62
     0
100
AcDbLine
 10
266.5053025869349
 20
517.5282099081591
 30
0.0
 11
267.5053025869349
 21
518.5282099081591
 31
0.0
  0
LINE
  5
23E
330
209
100
AcDbEntity
  8
SCHRAFF
 62
     0
100
AcDbLine
 10
262.9697686810021
 20
517.5282099081591
 30
0.0
 11
263.9697686810022
 21
518.5282099081591
 31
0.0
  0
LINE
  5
23F
330
209
100
AcDbEntity
  8
SCHRAFF
 62
     0
100
AcDbLine
 10
259.4749079361372
 20
517.568883069227
 30
0.0
 11
260.4342347750694
 21
518.5282099081591
 31
0.0
  0
LINE
  5
240
330
209
100
AcDbEntity
  8
SCHRAFF
 62
     0
100
AcDbLine
 10
257.3940431461983
 20
519.0235521852208
 30
0.0
 11
258.1512520306926
 21
519.780761069715
 31
0.0
  0
LINE
  5
241
330
209
100
AcDbEntity
  8
SCHRAFF
 62
     0
100
AcDbLine
 10
252.3631669632039
 20
517.5282099081591
 30
0.0
 11
253.3631669632039
 21
518.5282099081591
 31
0.0
  0
LINE
  5
242
330
209
100
AcDbEntity
  8
SCHRAFF
 62
     0
100
AcDbLine
 10
248.8276330572712
 20
517.5282099081591
 30
0.0
 11
249.8276330572711
 21
518.5282099081591
 31
0.0
  0
LINE
  5
243
330
209
100
AcDbEntity
  8
SCHRAFF
 62
     0
100
AcDbLine
 10
246.1709275481826
 20
518.4070383050033
 30
0.0
 11
246.8818140855336
 21
519.1179248423543
 31
0.0
  0
LINE
  5
244
330
209
100
AcDbEntity
  8
SCHRAFF
 62
     0
100
AcDbLine
 10
242.1443006842736
 20
517.9159453470271
 30
0.0
 11
242.8540700154741
 21
518.6257146782276
 31
0.0
  0
LINE
  5
245
330
209
100
AcDbEntity
  8
SCHRAFF
 62
     0
100
AcDbLine
 10
239.7210313394731
 20
519.0282099081592
 30
0.0
 11
240.7210313394729
 21
520.0282099081591
 31
0.0
  0
LINE
  5
246
330
209
100
AcDbEntity
  8
SCHRAFF
 62
     0
100
AcDbLine
 10
236.1854974335404
 20
519.0282099081592
 30
0.0
 11
237.1854974335402
 21
520.0282099081591
 31
0.0
  0
LINE
  5
247
330
209
100
AcDbEntity
  8
SCHRAFF
 62
     0
100
AcDbLine
 10
232.6499635276076
 20
519.0282099081592
 30
0.0
 11
233.6499635276075
 21
520.0282099081591
 31
0.0
  0
LINE
  5
248
330
209
100
AcDbEntity
  8
SCHRAFF
 62
     0
100
AcDbLine
 10
227.6144296216747
 20
517.5282099081591
 30
0.0
 11
228.6170845409935
 21
518.5308648274778
 31
0.0
  0
LINE
  5
249
330
209
100
AcDbEntity
  8
SCHRAFF
 62
     0
100
AcDbLine
 10
224.078895715742
 20
517.5282099081591
 30
0.0
 11
225.078895715742
 21
518.5282099081591
 31
0.0
  0
LINE
  5
24A
330
209
100
AcDbEntity
  8
SCHRAFF
 62
     0
100
AcDbLine
 10
220.8586671457231
 20
517.8435152440729
 30
0.0
 11
221.6152455799146
 21
518.6000936782646
 31
0.0
  0
LINE
  5
24B
330
209
100
AcDbEntity
  8
SCHRAFF
 62
     0
100
AcDbLine
 10
217.0332086343661
 20
517.5535906386487
 30
0.0
 11
219.5074962454095
 21
520.0278782496921
 31
0.0
  0
LINE
  5
24C
330
209
100
AcDbEntity
  8
SCHRAFF
 62
     0
100
AcDbLine
 10
213.662515278557
 20
517.7184311887723
 30
0.0
 11
214.4788578596354
 21
518.5347737698508
 31
0.0
  0
LINE
  5
24D
330
209
100
AcDbEntity
  8
SCHRAFF
 62
     0
100
AcDbLine
 10
210.0931095030357
 20
517.6845593191838
 30
0.0
 11
212.3905210042391
 21
519.9819708203872
 31
0.0
  0
LINE
  5
24E
330
209
100
AcDbEntity
  8
SCHRAFF
 62
     0
100
AcDbLine
 10
121.1818415716838
 20
428.7732913878319
 30
0.0
 11
125.2394348950052
 21
432.8308847111533
 31
0.0
  0
LINE
  5
24F
330
209
100
AcDbEntity
  8
SCHRAFF
 62
     0
100
AcDbLine
 10
124.4845163746777
 20
435.6115000967585
 30
0.0
 11
125.4845163746778
 21
436.6115000967586
 31
0.0
  0
LINE
  5
250
330
209
100
AcDbEntity
  8
SCHRAFF
 62
     0
100
AcDbLine
 10
206.4012261860781
 20
517.5282099081589
 30
0.0
 11
207.4012261860782
 21
518.528209908159
 31
0.0
  0
LINE
  5
251
330
209
100
AcDbEntity
  8
SCHRAFF
 62
     0
100
AcDbLine
 10
117.4012261860785
 20
428.5282099081594
 30
0.0
 11
118.401226186079
 21
429.5282099081598
 31
0.0
  0
LINE
  5
252
330
209
100
AcDbEntity
  8
SCHRAFF
 62
     0
100
AcDbLine
 10
124.4845163746777
 20
439.1470340026912
 30
0.0
 11
125.4845163746778
 21
440.1470340026913
 31
0.0
  0
LINE
  5
253
330
209
100
AcDbEntity
  8
SCHRAFF
 62
     0
100
AcDbLine
 10
202.8656922801453
 20
517.5282099081589
 30
0.0
 11
203.8656922801454
 21
518.5282099081589
 31
0.0
  0
LINE
  5
254
330
209
100
AcDbEntity
  8
SCHRAFF
 62
     0
100
AcDbLine
 10
113.8656922801458
 20
428.5282099081594
 30
0.0
 11
114.8656922801461
 21
429.5282099081597
 31
0.0
  0
LINE
  5
255
330
209
100
AcDbEntity
  8
SCHRAFF
 62
     0
100
AcDbLine
 10
124.4845163746777
 20
442.682567908624
 30
0.0
 11
125.4845163746777
 21
443.682567908624
 31
0.0
  0
LINE
  5
256
330
209
100
AcDbEntity
  8
SCHRAFF
 62
     0
100
AcDbLine
 10
199.3301583742126
 20
517.5282099081589
 30
0.0
 11
200.3301583742126
 21
518.5282099081589
 31
0.0
  0
LINE
  5
257
330
209
100
AcDbEntity
  8
SCHRAFF
 62
     0
100
AcDbLine
 10
110.330158374213
 20
428.5282099081594
 30
0.0
 11
111.3301583742134
 21
429.5282099081597
 31
0.0
  0
LINE
  5
258
330
209
100
AcDbEntity
  8
SCHRAFF
 62
     0
100
AcDbLine
 10
124.4845163746776
 20
446.2181018145567
 30
0.0
 11
125.4845163746777
 21
447.2181018145568
 31
0.0
  0
LINE
  5
259
330
209
100
AcDbEntity
  8
SCHRAFF
 62
     0
100
AcDbLine
 10
195.7946244682799
 20
517.5282099081589
 30
0.0
 11
196.7946244682798
 21
518.5282099081589
 31
0.0
  0
LINE
  5
25A
330
209
100
AcDbEntity
  8
SCHRAFF
 62
     0
100
AcDbLine
 10
106.7946244682803
 20
428.5282099081594
 30
0.0
 11
107.7946244682805
 21
429.5282099081595
 31
0.0
  0
LINE
  5
25B
330
209
100
AcDbEntity
  8
SCHRAFF
 62
     0
100
AcDbLine
 10
192.2590905623471
 20
517.5282099081589
 30
0.0
 11
193.2590905623471
 21
518.5282099081589
 31
0.0
  0
LINE
  5
25C
330
209
100
AcDbEntity
  8
SCHRAFF
 62
     0
100
AcDbLine
 10
124.4845163746776
 20
449.7536357204894
 30
0.0
 11
125.4845163746778
 21
450.7536357204895
 31
0.0
  0
LINE
  5
25D
330
209
100
AcDbEntity
  8
SCHRAFF
 62
     0
100
AcDbLine
 10
188.7235566564143
 20
517.5282099081589
 30
0.0
 11
189.7235566564143
 21
518.5282099081589
 31
0.0
  0
LINE
  5
25E
330
209
100
AcDbEntity
  8
SCHRAFF
 62
     0
100
AcDbLine
 10
124.4845163746777
 20
453.2891696264222
 30
0.0
 11
125.4845163746778
 21
454.2891696264223
 31
0.0
  0
LINE
  5
25F
330
209
100
AcDbEntity
  8
SCHRAFF
 62
     0
100
AcDbLine
 10
185.1880227504816
 20
517.5282099081589
 30
0.0
 11
186.1880227504815
 21
518.5282099081587
 31
0.0
  0
LINE
  5
260
330
209
100
AcDbEntity
  8
SCHRAFF
 62
     0
100
AcDbLine
 10
124.4845163746776
 20
456.8247035323548
 30
0.0
 11
125.4845163746777
 21
457.8247035323549
 31
0.0
  0
LINE
  5
261
330
209
100
AcDbEntity
  8
SCHRAFF
 62
     0
100
AcDbLine
 10
181.6524888445489
 20
517.5282099081589
 30
0.0
 11
182.6524888445487
 21
518.5282099081587
 31
0.0
  0
LINE
  5
262
330
209
100
AcDbEntity
  8
SCHRAFF
 62
     0
100
AcDbLine
 10
124.4845163746776
 20
460.3602374382877
 30
0.0
 11
125.4845163746777
 21
461.3602374382877
 31
0.0
  0
LINE
  5
263
330
209
100
AcDbEntity
  8
SCHRAFF
 62
     0
100
AcDbLine
 10
178.1169549386161
 20
517.5282099081589
 30
0.0
 11
179.1169549386161
 21
518.5282099081589
 31
0.0
  0
LINE
  5
264
330
209
100
AcDbEntity
  8
SCHRAFF
 62
     0
100
AcDbLine
 10
124.4845163746777
 20
463.8957713442204
 30
0.0
 11
125.4845163746778
 21
464.8957713442205
 31
0.0
  0
LINE
  5
265
330
209
100
AcDbEntity
  8
SCHRAFF
 62
     0
100
AcDbLine
 10
174.5814210326834
 20
517.5282099081589
 30
0.0
 11
175.5814210326834
 21
518.5282099081589
 31
0.0
  0
LINE
  5
266
330
209
100
AcDbEntity
  8
SCHRAFF
 62
     0
100
AcDbLine
 10
124.4845163746777
 20
467.4313052501531
 30
0.0
 11
125.4845163746778
 21
468.4313052501533
 31
0.0
  0
LINE
  5
267
330
209
100
AcDbEntity
  8
SCHRAFF
 62
     0
100
AcDbLine
 10
171.0458871267506
 20
517.5282099081588
 30
0.0
 11
172.0458871267506
 21
518.5282099081588
 31
0.0
  0
LINE
  5
268
330
209
100
AcDbEntity
  8
SCHRAFF
 62
     0
100
AcDbLine
 10
124.4845163746776
 20
470.9668391560858
 30
0.0
 11
125.4845163746777
 21
471.9668391560859
 31
0.0
  0
LINE
  5
269
330
209
100
AcDbEntity
  8
SCHRAFF
 62
     0
100
AcDbLine
 10
167.5103532208179
 20
517.5282099081588
 30
0.0
 11
168.5103532208179
 21
518.5282099081588
 31
0.0
  0
LINE
  5
26A
330
209
100
AcDbEntity
  8
SCHRAFF
 62
     0
100
AcDbLine
 10
124.4845163746776
 20
474.5023730620186
 30
0.0
 11
125.4845163746777
 21
475.5023730620187
 31
0.0
  0
LINE
  5
26B
330
209
100
AcDbEntity
  8
SCHRAFF
 62
     0
100
AcDbLine
 10
163.9748193148851
 20
517.5282099081588
 30
0.0
 11
164.9748193148851
 21
518.5282099081587
 31
0.0
  0
LINE
  5
26C
330
209
100
AcDbEntity
  8
SCHRAFF
 62
     0
100
AcDbLine
 10
124.4845163746777
 20
478.0379069679513
 30
0.0
 11
125.4845163746778
 21
479.0379069679515
 31
0.0
  0
LINE
  5
26D
330
209
100
AcDbEntity
  8
SCHRAFF
 62
     0
100
AcDbLine
 10
160.4392854089524
 20
517.5282099081588
 30
0.0
 11
161.4392854089523
 21
518.5282099081587
 31
0.0
  0
LINE
  5
26E
330
209
100
AcDbEntity
  8
SCHRAFF
 62
     0
100
AcDbLine
 10
124.4845163746777
 20
481.573440873884
 30
0.0
 11
125.4845163746778
 21
482.5734408738842
 31
0.0
  0
LINE
  5
26F
330
209
100
AcDbEntity
  8
SCHRAFF
 62
     0
100
AcDbLine
 10
156.9037515030196
 20
517.5282099081588
 30
0.0
 11
157.9037515030196
 21
518.5282099081587
 31
0.0
  0
LINE
  5
270
330
209
100
AcDbEntity
  8
SCHRAFF
 62
     0
100
AcDbLine
 10
124.4845163746776
 20
485.1089747798168
 30
0.0
 11
125.4845163746777
 21
486.1089747798168
 31
0.0
  0
LINE
  5
271
330
209
100
AcDbEntity
  8
SCHRAFF
 62
     0
100
AcDbLine
 10
153.2005491399496
 20
517.3605414510214
 30
0.0
 11
154.3670679764303
 21
518.5270602875022
 31
0.0
  0
LINE
  5
272
330
209
100
AcDbEntity
  8
SCHRAFF
 62
     0
100
AcDbLine
 10
124.4845163746776
 20
488.6445086857496
 30
0.0
 11
125.4845163746778
 21
489.6445086857497
 31
0.0
  0
LINE
  5
273
330
209
100
AcDbEntity
  8
SCHRAFF
 62
     0
100
AcDbLine
 10
145.2124027695547
 20
512.9079289865594
 30
0.0
 11
147.990883748717
 21
515.6864099657216
 31
0.0
  0
LINE
  5
274
330
209
100
AcDbEntity
  8
SCHRAFF
 62
     0
100
AcDbLine
 10
124.4845163746777
 20
492.1800425916822
 30
0.0
 11
125.4845163746778
 21
493.1800425916824
 31
0.0
  0
LINE
  5
275
330
209
100
AcDbEntity
  8
SCHRAFF
 62
     0
100
AcDbLine
 10
136.7271312509051
 20
507.9581913738425
 30
0.0
 11
139.5056023744788
 21
510.7366624974162
 31
0.0
  0
LINE
  5
276
330
209
100
AcDbEntity
  8
SCHRAFF
 62
     0
100
AcDbLine
 10
124.4845163746776
 20
495.715576497615
 30
0.0
 11
125.4845163746778
 21
496.7155764976151
 31
0.0
  0
LINE
  5
277
330
209
100
AcDbEntity
  8
SCHRAFF
 62
     0
100
AcDbLine
 10
128.2418597322555
 20
503.0084537611257
 30
0.0
 11
131.0203210002406
 21
505.7869150291107
 31
0.0
  0
LINE
  5
278
330
209
100
AcDbEntity
  8
SCHRAFF
 62
     0
100
AcDbLine
 10
124.5345129736124
 20
499.3011070024826
 30
0.0
 11
126.027383285034
 21
500.7939773139042
 31
0.0
  0
ENDBLK
  5
279
330
209
100
AcDbEntity
  8
0
100
AcDbBlockEnd
  0
BLOCK
  5
83D
330
833
100
AcDbEntity
  8
0
100
AcDbBlockBegin
  2
*D2
 70
     1
 10
0.0
 20
0.0
 30
0.0
  3
*D2
  1

  0
LINE
  5
87B
330
833
100
AcDbEntity
  8
BEM
 62
     0
370
    -2
100
AcDbLine
 10
141.575499413892
 20
676.1173815020359
 30
0.0
 11
141.575499413892
 21
704.9297924660845
 31
0.0
  0
LINE
  5
87C
330
833
100
AcDbEntity
  8
BEM
 62
     0
370
    -2
100
AcDbLine
 10
361.5754994138922
 20
676.1173815020359
 30
0.0
 11
361.5754994138922
 21
704.9297924660845
 31
0.0
  0
LINE
  5
87D
330
833
100
AcDbEntity
  8
BEM
 62
     0
370
    -2
100
AcDbLine
 10
148.575499413892
 20
702.9297924660845
 30
0.0
 11
354.5754994138922
 21
702.9297924660845
 31
0.0
  0
SOLID
  5
87E
330
833
100
AcDbEntity
  8
BEM
 62
     0
100
AcDbTrace
 10
148.575499413892
 20
704.0964591327512
 30
0.0
 11
148.575499413892
 21
701.7631257994179
 31
0.0
 12
141.575499413892
 22
702.9297924660845
 32
0.0
 13
141.575499413892
 23
702.9297924660845
 33
0.0
  0
SOLID
  5
87F
330
833
100
AcDbEntity
  8
BEM
 62
     0
100
AcDbTrace
 10
354.5754994138922
 20
704.0964591327512
 30
0.0
 11
354.5754994138922
 21
701.7631257994179
 31
0.0
 12
361.5754994138922
 22
702.9297924660845
 32
0.0
 13
361.5754994138922
 23
702.9297924660845
 33
0.0
  0
MTEXT
  5
880
330
833
100
AcDbEntity
  8
BEM
 62
     1
100
AcDbMText
 10
251.5754994138921
 20
709.4297924660845
 30
0.0
 40
7.0
 41
0.0
 71
     5
 72
     1
  1
\A1;%%c220
  7
GREEKS
 73
     1
 44
1.0
  0
POINT
  5
881
330
833
100
AcDbEntity
  8
DEFPOINTS
 62
     0
100
AcDbPoint
 10
141.575499413892
 20
674.1173815020358
 30
0.0
  0
POINT
  5
882
330
833
100
AcDbEntity
  8
DEFPOINTS
 62
     0
100
AcDbPoint
 10
361.5754994138922
 20
674.1173815020358
 30
0.0
  0
POINT
  5
883
330
833
100
AcDbEntity
  8
DEFPOINTS
 62
     0
100
AcDbPoint
 10
361.5754994138922
 20
702.9297924660845
 30
0.0
  0
ENDBLK
  5
83E
330
833
100
AcDbEntity
  8
0
100
AcDbBlockEnd
  0
BLOCK
  5
849
330
83F
100
AcDbEntity
  8
0
100
AcDbBlockBegin
  2
*D3
 70
     1
 10
0.0
 20
0.0
 30
0.0
  3
*D3
  1

  0
LINE
  5
884
330
83F
100
AcDbEntity
  8
BEM
 62
     0
370
    -2
100
AcDbLine
 10
121.575499413892
 20
607.1174394693514
 30
0.0
 11
121.575499413892
 21
718.424993780392
 31
0.0
  0
LINE
  5
885
330
83F
100
AcDbEntity
  8
BEM
 62
     0
370
    -2
100
AcDbLine
 10
381.5754994138917
 20
607.1174394693517
 30
0.0
 11
381.5754994138917
 21
718.424993780392
 31
0.0
  0
LINE
  5
886
330
83F
100
AcDbEntity
  8
BEM
 62
     0
370
    -2
100
AcDbLine
 10
128.5754994138919
 20
716.424993780392
 30
0.0
 11
374.5754994138918
 21
716.424993780392
 31
0.0
  0
SOLID
  5
887
330
83F
100
AcDbEntity
  8
BEM
 62
     0
100
AcDbTrace
 10
128.5754994138919
 20
717.5916604470586
 30
0.0
 11
128.5754994138919
 21
715.2583271137253
 31
0.0
 12
121.575499413892
 22
716.424993780392
 32
0.0
 13
121.575499413892
 23
716.424993780392
 33
0.0
  0
SOLID
  5
888
330
83F
100
AcDbEntity
  8
BEM
 62
     0
100
AcDbTrace
 10
374.5754994138918
 20
717.5916604470586
 30
0.0
 11
374.5754994138918
 21
715.2583271137253
 31
0.0
 12
381.5754994138917
 22
716.424993780392
 32
0.0
 13
381.5754994138917
 23
716.424993780392
 33
0.0
  0
MTEXT
  5
889
330
83F
100
AcDbEntity
  8
BEM
 62
     1
100
AcDbMText
 10
251.5754994138919
 20
722.924993780392
 30
0.0
 40
7.0
 41
0.0
 71
     5
 72
     1
  1
\A1;%%c260
  7
GREEKS
 73
     1
 44
1.0
  0
POINT
  5
88A
330
83F
100
AcDbEntity
  8
DEFPOINTS
 62
     0
100
AcDbPoint
 10
121.575499413892
 20
605.1174394693514
 30
0.0
  0
POINT
  5
88B
330
83F
100
AcDbEntity
  8
DEFPOINTS
 62
     0
100
AcDbPoint
 10
381.5754994138917
 20
605.1174394693516
 30
0.0
  0
POINT
  5
88C
330
83F
100
AcDbEntity
  8
DEFPOINTS
 62
     0
100
AcDbPoint
 10
381.5754994138917
 20
716.424993780392
 30
0.0
  0
ENDBLK
  5
84A
330
83F
100
AcDbEntity
  8
0
100
AcDbBlockEnd
  0
BLOCK
  5
855
330
84B
100
AcDbEntity
  8
0
100
AcDbBlockBegin
  2
*D4
 70
     1
 10
0.0
 20
0.0
 30
0.0
  3
*D4
  1

  0
LINE
  5
DCE
330
84B
100
AcDbEntity
  8
BEM
 62
     0
370
    -2
100
AcDbLine
 10
213.5072129752068
 20
168.11743946935
 30
0.0
 11
111.1946230744021
 21
168.1174394693501
 31
0.0
  0
LINE
  5
DCF
330
84B
100
AcDbEntity
  8
BEM
 62
     0
370
    -2
100
AcDbLine
 10
127.0754994138922
 20
428.1174394693509
 30
0.0
 11
111.1946230744022
 21
428.1174394693509
 31
0.0
  0
LINE
  5
DD0
330
84B
100
AcDbEntity
  8
BEM
 62
     0
370
    -2
100
AcDbLine
 10
113.1946230744021
 20
175.1174394693501
 30
0.0
 11
113.1946230744022
 21
421.1174394693508
 31
0.0
  0
SOLID
  5
DD1
330
84B
100
AcDbEntity
  8
BEM
 62
     0
100
AcDbTrace
 10
112.0279564077355
 20
175.1174394693501
 30
0.0
 11
114.3612897410688
 21
175.1174394693501
 31
0.0
 12
113.1946230744021
 22
168.1174394693501
 32
0.0
 13
113.1946230744021
 23
168.1174394693501
 33
0.0
  0
SOLID
  5
DD2
330
84B
100
AcDbEntity
  8
BEM
 62
     0
100
AcDbTrace
 10
112.0279564077355
 20
421.1174394693508
 30
0.0
 11
114.3612897410689
 21
421.1174394693508
 31
0.0
 12
113.1946230744022
 22
428.1174394693509
 32
0.0
 13
113.1946230744022
 23
428.1174394693509
 33
0.0
  0
MTEXT
  5
DD3
330
84B
100
AcDbEntity
  8
BEM
 62
     1
100
AcDbMText
 10
106.6946230744021
 20
298.1174394693505
 30
0.0
 40
7.0
 41
0.0
 71
     5
 72
     1
  1
\A1;260
 11
0.0000000000000001
 21
1.0
 31
0.0
 73
     1
 44
1.0
  0
POINT
  5
DD4
330
84B
100
AcDbEntity
  8
DEFPOINTS
 62
     0
100
AcDbPoint
 10
215.5072129752068
 20
168.11743946935
 30
0.0
  0
POINT
  5
DD5
330
84B
100
AcDbEntity
  8
DEFPOINTS
 62
     0
100
AcDbPoint
 10
129.0754994138922
 20
428.1174394693508
 30
0.0
  0
POINT
  5
DD6
330
84B
100
AcDbEntity
  8
DEFPOINTS
 62
     0
100
AcDbPoint
 10
113.1946230744022
 20
428.1174394693509
 30
0.0
  0
ENDBLK
  5
856
330
84B
100
AcDbEntity
  8
0
100
AcDbBlockEnd
  0
BLOCK
  5
861
330
857
100
AcDbEntity
  8
0
100
AcDbBlockBegin
  2
*D5
 70
     1
 10
0.0
 20
0.0
 30
0.0
  3
*D5
  1

  0
LINE
  5
896
330
857
100
AcDbEntity
  8
BEM
 62
     0
370
    -2
100
AcDbLine
 10
215.0754994138922
 20
171.0519480549881
 30
0.0
 11
215.0754994138922
 21
148.1952762542606
 31
0.0
  0
LINE
  5
897
330
857
100
AcDbEntity
  8
BEM
 62
     0
370
    -2
100
AcDbLine
 10
288.0754994138921
 20
171.051948054988
 30
0.0
 11
288.0754994138921
 21
148.1952762542606
 31
0.0
  0
LINE
  5
898
330
857
100
AcDbEntity
  8
BEM
 62
     0
370
    -2
100
AcDbLine
 10
222.0754994138922
 20
150.1952762542606
 30
0.0
 11
281.0754994138921
 21
150.1952762542606
 31
0.0
  0
SOLID
  5
899
330
857
100
AcDbEntity
  8
BEM
 62
     0
100
AcDbTrace
 10
222.0754994138922
 20
151.3619429209273
 30
0.0
 11
222.0754994138922
 21
149.028609587594
 31
0.0
 12
215.0754994138922
 22
150.1952762542606
 32
0.0
 13
215.0754994138922
 23
150.1952762542606
 33
0.0
  0
SOLID
  5
89A
330
857
100
AcDbEntity
  8
BEM
 62
     0
100
AcDbTrace
 10
281.0754994138921
 20
151.3619429209273
 30
0.0
 11
281.0754994138921
 21
149.028609587594
 31
0.0
 12
288.0754994138921
 22
150.1952762542606
 32
0.0
 13
288.0754994138921
 23
150.1952762542606
 33
0.0
  0
MTEXT
  5
89B
330
857
100
AcDbEntity
  8
BEM
 62
     1
100
AcDbMText
 10
251.5754994138922
 20
156.6952762542606
 30
0.0
 40
7.0
 41
0.0
 71
     5
 72
     1
  1
\A1;%%c73
 73
     1
 44
1.0
  0
POINT
  5
89C
330
857
100
AcDbEntity
  8
DEFPOINTS
 62
     0
100
AcDbPoint
 10
215.0754994138922
 20
173.0519480549881
 30
0.0
  0
POINT
  5
89D
330
857
100
AcDbEntity
  8
DEFPOINTS
 62
     0
100
AcDbPoint
 10
288.0754994138921
 20
173.051948054988
 30
0.0
  0
POINT
  5
89E
330
857
100
AcDbEntity
  8
DEFPOINTS
 62
     0
100
AcDbPoint
 10
288.0754994138921
 20
150.1952762542606
 30
0.0
  0
ENDBLK
  5
862
330
857
100
AcDbEntity
  8
0
100
AcDbBlockEnd
  0
BLOCK
  5
86D
330
863
100
AcDbEntity
  8
0
100
AcDbBlockBegin
  2
*D6
 70
     1
 10
0.0
 20
0.0
 30
0.0
  3
*D6
  1

  0
LINE
  5
DC5
330
863
100
AcDbEntity
  8
BEM
 62
     0
370
    -2
100
AcDbLine
 10
127.0754994138918
 20
428.1174394693502
 30
0.0
 11
111.1946230744022
 21
428.1174394693502
 31
0.0
  0
LINE
  5
DC6
330
863
100
AcDbEntity
  8
BEM
 62
     0
370
    -2
100
AcDbLine
 10
127.0754994138917
 20
578.1174394693501
 30
0.0
 11
111.1946230744022
 21
578.1174394693501
 31
0.0
  0
LINE
  5
DC7
330
863
100
AcDbEntity
  8
BEM
 62
     0
370
    -2
100
AcDbLine
 10
113.1946230744022
 20
435.1174394693502
 30
0.0
 11
113.1946230744022
 21
571.11743946935
 31
0.0
  0
SOLID
  5
DC8
330
863
100
AcDbEntity
  8
BEM
 62
     0
100
AcDbTrace
 10
112.0279564077355
 20
435.1174394693502
 30
0.0
 11
114.3612897410688
 21
435.1174394693502
 31
0.0
 12
113.1946230744022
 22
428.1174394693502
 32
0.0
 13
113.1946230744022
 23
428.1174394693502
 33
0.0
  0
SOLID
  5
DC9
330
863
100
AcDbEntity
  8
BEM
 62
     0
100
AcDbTrace
 10
112.0279564077355
 20
571.11743946935
 30
0.0
 11
114.3612897410689
 21
571.11743946935
 31
0.0
 12
113.1946230744022
 22
578.1174394693501
 32
0.0
 13
113.1946230744022
 23
578.1174394693501
 33
0.0
  0
MTEXT
  5
DCA
330
863
100
AcDbEntity
  8
BEM
 62
     1
100
AcDbMText
 10
106.6946230744021
 20
503.1174394693501
 30
0.0
 40
7.0
 41
0.0
 71
     5
 72
     1
  1
\A1;min.35 - max.200
  7
GREEKS
 11
0.0000000000000001
 21
1.0
 31
0.0
 73
     1
 44
1.0
  0
POINT
  5
DCB
330
863
100
AcDbEntity
  8
DEFPOINTS
 62
     0
100
AcDbPoint
 10
129.0754994138918
 20
428.1174394693501
 30
0.0
  0
POINT
  5
DCC
330
863
100
AcDbEntity
  8
DEFPOINTS
 62
     0
100
AcDbPoint
 10
129.0754994138917
 20
578.1174394693501
 30
0.0
  0
POINT
  5
DCD
330
863
100
AcDbEntity
  8
DEFPOINTS
 62
     0
100
AcDbPoint
 10
113.1946230744022
 20
578.1174394693501
 30
0.0
  0
ENDBLK
  5
86E
330
863
100
AcDbEntity
  8
0
100
AcDbBlockEnd
  0
BLOCK
  5
879
330
86F
100
AcDbEntity
  8
0
100
AcDbBlockBegin
  2
*D7
 70
     1
 10
0.0
 20
0.0
 30
0.0
  3
*D7
  1

  0
LINE
  5
D74
330
86F
100
AcDbEntity
  8
BEM
 62
     0
370
    -2
100
AcDbLine
 10
169.575499413892
 20
694.1174394693507
 30
0.0
 11
111.2136767489317
 21
694.1174394693507
 31
0.0
  0
LINE
  5
D75
330
86F
100
AcDbEntity
  8
BEM
 62
     0
370
    -2
100
AcDbLine
 10
137.5754994138916
 20
584.11743946935
 30
0.0
 11
111.2136767489317
 21
584.11743946935
 31
0.0
  0
LINE
  5
D76
330
86F
100
AcDbEntity
  8
BEM
 62
     0
370
    -2
100
AcDbLine
 10
113.2136767489317
 20
687.1174394693507
 30
0.0
 11
113.2136767489317
 21
591.11743946935
 31
0.0
  0
SOLID
  5
D77
330
86F
100
AcDbEntity
  8
BEM
 62
     0
100
AcDbTrace
 10
112.047010082265
 20
687.1174394693507
 30
0.0
 11
114.3803434155983
 21
687.1174394693507
 31
0.0
 12
113.2136767489317
 22
694.1174394693507
 32
0.0
 13
113.2136767489317
 23
694.1174394693507
 33
0.0
  0
SOLID
  5
D78
330
86F
100
AcDbEntity
  8
BEM
 62
     0
100
AcDbTrace
 10
112.047010082265
 20
591.11743946935
 30
0.0
 11
114.3803434155983
 21
591.11743946935
 31
0.0
 12
113.2136767489317
 22
584.11743946935
 32
0.0
 13
113.2136767489317
 23
584.11743946935
 33
0.0
  0
MTEXT
  5
D79
330
86F
100
AcDbEntity
  8
BEM
 62
     1
100
AcDbMText
 10
106.7136767489316
 20
639.1174394693504
 30
0.0
 40
7.0
 41
0.0
 71
     5
 72
     1
  1
\A1;110
  7
GREEKS
 11
0.0000000000000001
 21
1.0
 31
0.0
 73
     1
 44
1.0
  0
POINT
  5
D7A
330
86F
100
AcDbEntity
  8
DEFPOINTS
 62
     0
100
AcDbPoint
 10
171.575499413892
 20
694.1174394693507
 30
0.0
  0
POINT
  5
D7B
330
86F
100
AcDbEntity
  8
DEFPOINTS
 62
     0
100
AcDbPoint
 10
139.5754994138916
 20
584.11743946935
 30
0.0
  0
POINT
  5
D7C
330
86F
100
AcDbEntity
  8
DEFPOINTS
 62
     0
100
AcDbPoint
 10
113.2136767489317
 20
584.11743946935
 30
0.0
  0
ENDBLK
  5
87A
330
86F
100
AcDbEntity
  8
0
100
AcDbBlockEnd
  0
BLOCK
  5
A91
330
A87
100
AcDbEntity
  8
0
100
AcDbBlockBegin
  2
*D8
 70
     1
 10
0.0
 20
0.0
 30
0.0
  3
*D8
  1

  0
LINE
  5
AC6
330
A87
100
AcDbEntity
  8
BEM
 62
     0
370
    -2
100
AcDbLine
 10
176.575499413892
 20
428.1174394693497
 30
0.0
 11
176.575499413892
 21
462.9975525761145
 31
0.0
  0
LINE
  5
AC7
330
A87
100
AcDbEntity
  8
BEM
 62
     0
370
    -2
100
AcDbLine
 10
326.5754994138923
 20
428.1174394693501
 30
0.0
 11
326.5754994138923
 21
462.9975525761145
 31
0.0
  0
LINE
  5
AC8
330
A87
100
AcDbEntity
  8
BEM
 62
     0
370
    -2
100
AcDbLine
 10
183.575499413892
 20
460.9975525761146
 30
0.0
 11
319.5754994138923
 21
460.9975525761146
 31
0.0
  0
SOLID
  5
AC9
330
A87
100
AcDbEntity
  8
BEM
 62
     0
100
AcDbTrace
 10
183.575499413892
 20
462.1642192427812
 30
0.0
 11
183.575499413892
 21
459.8308859094479
 31
0.0
 12
176.575499413892
 22
460.9975525761146
 32
0.0
 13
176.575499413892
 23
460.9975525761146
 33
0.0
  0
SOLID
  5
ACA
330
A87
100
AcDbEntity
  8
BEM
 62
     0
100
AcDbTrace
 10
319.5754994138923
 20
462.1642192427812
 30
0.0
 11
319.5754994138923
 21
459.8308859094479
 31
0.0
 12
326.5754994138923
 22
460.9975525761146
 32
0.0
 13
326.5754994138923
 23
460.9975525761146
 33
0.0
  0
MTEXT
  5
ACB
330
A87
100
AcDbEntity
  8
BEM
 62
     1
100
AcDbMText
 10
251.5754994138922
 20
467.4975525761145
 30
0.0
 40
7.0
 41
0.0
 71
     5
 72
     1
  1
\A1;%%c150
  7
GREEKS
 73
     1
 44
1.0
  0
POINT
  5
ACC
330
A87
100
AcDbEntity
  8
DEFPOINTS
 62
     0
100
AcDbPoint
 10
176.575499413892
 20
426.1174394693497
 30
0.0
  0
POINT
  5
ACD
330
A87
100
AcDbEntity
  8
DEFPOINTS
 62
     0
100
AcDbPoint
 10
326.5754994138923
 20
426.11743946935
 30
0.0
  0
POINT
  5
ACE
330
A87
100
AcDbEntity
  8
DEFPOINTS
 62
     0
100
AcDbPoint
 10
326.5754994138923
 20
460.9975525761146
 30
0.0
  0
ENDBLK
  5
A92
330
A87
100
AcDbEntity
  8
0
100
AcDbBlockEnd
  0
BLOCK
  5
A9D
330
A93
100
AcDbEntity
  8
0
100
AcDbBlockBegin
  2
*D9
 70
     1
 10
0.0
 20
0.0
 30
0.0
  3
*D9
  1

  0
LINE
  5
B15
330
A93
100
AcDbEntity
  8
BEM
 62
     0
370
    -2
100
AcDbLine
 10
186.5779547793702
 20
264.1174394693497
 30
0.0
 11
186.5779547793702
 21
246.8781696114756
 31
0.0
  0
LINE
  5
B16
330
A93
100
AcDbEntity
  8
BEM
 62
     0
370
    -2
100
AcDbLine
 10
316.5730440484136
 20
264.117439469348
 30
0.0
 11
316.5730440484136
 21
246.8781696114756
 31
0.0
  0
LINE
  5
B17
330
A93
100
AcDbEntity
  8
BEM
 62
     0
370
    -2
100
AcDbLine
 10
193.5779547793702
 20
248.8781696114756
 30
0.0
 11
309.5730440484136
 21
248.8781696114756
 31
0.0
  0
SOLID
  5
B18
330
A93
100
AcDbEntity
  8
BEM
 62
     0
100
AcDbTrace
 10
193.5779547793702
 20
250.0448362781423
 30
0.0
 11
193.5779547793702
 21
247.7115029448089
 31
0.0
 12
186.5779547793702
 22
248.8781696114756
 32
0.0
 13
186.5779547793702
 23
248.8781696114756
 33
0.0
  0
SOLID
  5
B19
330
A93
100
AcDbEntity
  8
BEM
 62
     0
100
AcDbTrace
 10
309.5730440484136
 20
250.0448362781423
 30
0.0
 11
309.5730440484136
 21
247.7115029448089
 31
0.0
 12
316.5730440484136
 22
248.8781696114756
 32
0.0
 13
316.5730440484136
 23
248.8781696114756
 33
0.0
  0
MTEXT
  5
B1A
330
A93
100
AcDbEntity
  8
BEM
 62
     1
100
AcDbMText
 10
251.5754994138919
 20
255.3781696114756
 30
0.0
 40
7.0
 41
0.0
 71
     5
 72
     1
  1
\A1;%%c130
  7
GREEKS
 73
     1
 44
1.0
  0
POINT
  5
B1B
330
A93
100
AcDbEntity
  8
DEFPOINTS
 62
     0
100
AcDbPoint
 10
186.5779547793702
 20
266.1174394693497
 30
0.0
  0
POINT
  5
B1C
330
A93
100
AcDbEntity
  8
DEFPOINTS
 62
     0
100
AcDbPoint
 10
316.5730440484136
 20
266.117439469348
 30
0.0
  0
POINT
  5
B1D
330
A93
100
AcDbEntity
  8
DEFPOINTS
 62
     0
100
AcDbPoint
 10
316.5730440484136
 20
248.8781696114756
 30
0.0
  0
ENDBLK
  5
A9E
330
A93
100
AcDbEntity
  8
0
100
AcDbBlockEnd
  0
BLOCK
  5
AA9
330
A9F
100
AcDbEntity
  8
0
100
AcDbBlockBegin
  2
*D10
 70
     1
 10
0.0
 20
0.0
 30
0.0
  3
*D10
  1

  0
LINE
  5
AEB
330
A9F
100
AcDbEntity
  8
BEM
 62
     0
370
    -2
100
AcDbLine
 10
133.2930138351638
 20
426.1174394693496
 30
0.0
 11
125.0022324983198
 21
426.1174394693496
 31
0.0
  0
LINE
  5
AEC
330
A9F
100
AcDbEntity
  8
BEM
 62
     0
370
    -2
100
AcDbLine
 10
184.5779547793702
 20
266.1174394693497
 30
0.0
 11
125.0022324983197
 21
266.1174394693498
 31
0.0
  0
LINE
  5
AED
330
A9F
100
AcDbEntity
  8
BEM
 62
     0
370
    -2
100
AcDbLine
 10
127.0022324983198
 20
419.1174394693495
 30
0.0
 11
127.0022324983197
 21
273.1174394693498
 31
0.0
  0
SOLID
  5
AEE
330
A9F
100
AcDbEntity
  8
BEM
 62
     0
100
AcDbTrace
 10
125.8355658316531
 20
419.1174394693495
 30
0.0
 11
128.1688991649864
 21
419.1174394693495
 31
0.0
 12
127.0022324983198
 22
426.1174394693496
 32
0.0
 13
127.0022324983198
 23
426.1174394693496
 33
0.0
  0
SOLID
  5
AEF
330
A9F
100
AcDbEntity
  8
BEM
 62
     0
100
AcDbTrace
 10
125.8355658316531
 20
273.1174394693498
 30
0.0
 11
128.1688991649864
 21
273.1174394693497
 31
0.0
 12
127.0022324983197
 22
266.1174394693498
 32
0.0
 13
127.0022324983197
 23
266.1174394693498
 33
0.0
  0
MTEXT
  5
AF0
330
A9F
100
AcDbEntity
  8
BEM
 62
     1
100
AcDbMText
 10
120.5022324983197
 20
346.1174394693497
 30
0.0
 40
7.0
 41
0.0
 71
     5
 72
     1
  1
\A1;160
  7
GREEKS
 11
0.0000000000000001
 21
1.0
 31
0.0
 73
     1
 44
1.0
  0
POINT
  5
AF1
330
A9F
100
AcDbEntity
  8
DEFPOINTS
 62
     0
100
AcDbPoint
 10
135.2930138351638
 20
426.1174394693496
 30
0.0
  0
POINT
  5
AF2
330
A9F
100
AcDbEntity
  8
DEFPOINTS
 62
     0
100
AcDbPoint
 10
186.5779547793702
 20
266.1174394693497
 30
0.0
  0
POINT
  5
AF3
330
A9F
100
AcDbEntity
  8
DEFPOINTS
 62
     0
100
AcDbPoint
 10
127.0022324983197
 20
266.1174394693498
 30
0.0
  0
ENDBLK
  5
AAA
330
A9F
100
AcDbEntity
  8
0
100
AcDbBlockEnd
  0
ENDSEC
  0
SECTION
  2
ENTITIES
  0
LINE
  5
87
330
1E
100
AcDbEntity
  8
HILF
100
AcDbLine
 10
594.0
 20
-0.0000000000000568
 30
0.0
 11
594.0
 21
840.0
 31
0.0
  0
LINE
  5
88
330
1E
100
AcDbEntity
  8
HILF
100
AcDbLine
 10
594.0
 20
840.0
 30
0.0
 11
0.0
 21
840.0
 31
0.0
  0
LINE
  5
89
330
1E
100
AcDbEntity
  8
HILF
100
AcDbLine
 10
0.0
 20
840.0
 30
0.0
 11
0.0
 21
0.0
 31
0.0
  0
LINE
  5
8B
330
1E
100
AcDbEntity
  8
STEMPEL
100
AcDbLine
 10
10.0
 20
830.0
 30
0.0
 11
10.0
 21
39.99999999999995
 31
0.0
  0
LINE
  5
8D
330
1E
100
AcDbEntity
  8
STEMPEL
100
AcDbLine
 10
584.0
 20
39.99999999999995
 30
0.0
 11
584.0
 21
830.0
 31
0.0
  0
LINE
  5
8E
330
1E
100
AcDbEntity
  8
STEMPEL
100
AcDbLine
 10
584.0
 20
830.0
 30
0.0
 11
10.0
 21
830.0
 31
0.0
  0
LINE
  5
9C
330
1E
100
AcDbEntity
  8
BEM
100
AcDbLine
 10
594.0
 20
455.9999999999999
 30
0.0
 11
584.0
 21
455.9999999999999
 31
0.0
  0
LINE
  5
13E
330
1E
100
AcDbEntity
  8
HILF
100
AcDbLine
 10
594.0
 20
-0.0000000000000568
 30
0.0
 11
0.0
 21
0.0
 31
0.0
  0
LINE
  5
13F
330
1E
100
AcDbEntity
  8
STEMPEL
100
AcDbLine
 10
584.0
 20
39.99999999999995
 30
0.0
 11
10.0
 21
39.99999999999995
 31
0.0
  0
LINE
  5
14A
330
1E
100
AcDbEntity
  8
HILF
100
AcDbLine
 10
297.0
 20
-0.0000000000000568
 30
0.0
 11
297.0
 21
39.99999999999995
 31
0.0
  0
TEXT
  5
15B
330
1E
100
AcDbEntity
  8
TEXT
100
AcDbText
 10
583.8320989200114
 20
837.3022923857165
 30
0.0
 40
4.0
  1
Diese Zeichnung ist urheberrechtlich geschützt und bleibt unser Eigentum. Sie darf weder ganz noch teilweise verfielfältigt und nicht an Dritte weitergegeben werden.
 50
180.0
 41
0.8
  7
GREEKS
100
AcDbText
  0
HATCH
  5
57E
330
1E
100
AcDbEntity
  8
SCHRAFF
100
AcDbHatch
 10
0.0
 20
0.0
 30
0.0
210
0.0
220
0.0
230
1.0
  2
_USER
 70
     0
 71
     1
 91
        4
 92
        7
 72
     1
 73
     1
 93
        8
 10
135.2930138351638
 20
428.1174394693501
 42
0.1989123673796801
 10
131.4039265386376
 20
426.5065267658757
 42
0.0
 10
129.0754994138916
 20
424.1780996411295
 42
0.0
 10
130.4897129762645
 20
422.7638860787561
 42
0.0
 10
132.8181401010107
 20
425.0923132035025
 42
-0.1989123673796735
 10
135.2930138351634
 20
426.1174394693503
 42
0.0
 10
161.5754994138918
 20
426.1174394693502
 42
0.0
 10
161.5754994138918
 20
428.1174394693501
 42
0.0
 97
        8
330
5F8
330
609
330
610
330
60F
330
60E
330
60A
330
601
330
622
 92
        7
 72
     1
 73
     1
 93
        8
 10
161.5754994138918
 20
428.1174394693502
 42
0.0
 10
161.5754994138918
 20
426.1174394693501
 42
0.0
 10
193.0554151667574
 20
426.1174394693498
 42
-0.2102773852970729
 10
197.4790791876179
 20
424.1709807150441
 42
0.0
 10
207.607783614336
 20
413.11743946935
 42
0.0
 10
209.0823382879563
 20
414.4686198845813
 42
0.0
 10
198.953633861238
 20
425.5221611302756
 42
0.2102773852970747
 10
193.0554151667574
 20
428.1174394693502
 42
0.0
 97
        8
330
5F8
330
622
330
601
330
634
330
5A5
330
5CF
330
5A4
330
633
 92
        7
 72
     1
 73
     1
 93
        8
 10
310.0955836610266
 20
428.1174394693501
 42
0.2102773852970736
 10
304.197364966546
 20
425.5221611302757
 42
0.0
 10
294.0686605398279
 20
414.4686198845812
 42
0.0
 10
295.5432152134481
 20
413.11743946935
 42
0.0
 10
305.671919640166
 20
424.1709807150441
 42
-0.2102773852970728
 10
310.0955836610265
 20
426.1174394693498
 42
0.0
 10
322.9754994138919
 20
426.11743946935
 42
0.0
 10
322.9754994138919
 20
428.1174394693501
 42
0.0
 97
        8
330
588
330
74C
330
581
330
5E6
330
582
330
74D
330
742
330
75B
 92
        7
 72
     1
 73
     1
 93
        8
 10
322.9754994138918
 20
428.1174394693501
 42
0.0
 10
322.9754994138919
 20
426.1174394693499
 42
0.0
 10
367.8579849926199
 20
426.1174394693503
 42
-0.1989123673797008
 10
370.332858726773
 20
425.0923132035025
 42
0.0
 10
372.6612858515192
 20
422.7638860787562
 42
0.0
 10
374.0754994138921
 20
424.1780996411296
 42
0.0
 10
371.7470722891461
 20
426.5065267658757
 42
0.1989123673796608
 10
367.8579849926203
 20
428.11743946935
 42
0.0
 97
        8
330
588
330
75B
330
742
330
772
330
771
330
776
330
770
330
773
 75
     0
 76
     0
 52
135.0
 41
2.0
 77
     0
 78
     1
 53
135.0
 43
0.0000000000002274
 44
-0.0000000000001705
 45
-1.414213562373095
 46
-1.414213562373094
 79
     0
 47
0.5341172407613316
 98
        4
 10
149.6129867452957
 20
427.1555043290805
 10
176.336862491705
 20
427.1555043290805
 10
312.6286351826368
 20
427.1555043290805
 10
332.4043070655268
 20
427.1555043290805
  0
HATCH
  5
57F
330
1E
100
AcDbEntity
  8
SCHRAFF
100
AcDbHatch
 10
0.0
 20
0.0
 30
0.0
210
0.0
220
0.0
230
1.0
  2
_USER
 70
     0
 71
     1
 91
        4
 92
        7
 72
     1
 73
     1
 93
        8
 10
135.2930138351641
 20
578.1174394693501
 42
0.198912367379703
 10
131.4039265386375
 20
576.5065267658756
 42
0.0
 10
129.0754994138916
 20
574.1780996411294
 42
0.0
 10
130.4897129762644
 20
572.7638860787561
 42
0.0
 10
132.8181401010106
 20
575.0923132035024
 42
-0.1989123673796732
 10
135.2930138351634
 20
576.11743946935
 42
0.0
 10
161.575499413892
 20
576.1174394693498
 42
0.0
 10
161.575499413892
 20
578.1174394693501
 42
0.0
 97
        8
330
591
330
64C
330
655
330
654
330
653
330
64D
330
63D
330
68F
 92
        7
 72
     1
 73
     1
 93
        8
 10
193.2617909149071
 20
576.1174394693496
 42
-0.1989123673796761
 10
197.5044316020269
 20
574.3600801564691
 42
0.0
 10
207.649019566315
 20
564.2154921921822
 42
0.0
 10
209.0632331286882
 20
565.6297057545554
 42
0.0
 10
198.9186451643995
 20
575.7742937188427
 42
0.1989123673796455
 10
193.2617909149074
 20
578.1174394693501
 42
0.0
 10
161.5754994138919
 20
578.1174394693501
 42
0.0
 10
161.5754994138919
 20
576.1174394693498
 42
0.0
 97
        8
330
591
330
68F
330
63D
330
6A5
330
5EB
330
6D8
330
5EC
330
6A4
 92
        7
 72
     1
 73
     1
 93
        8
 10
309.8892079128767
 20
578.11743946935
 42
0.1989123673796472
 10
304.2323536633845
 20
575.7742937188425
 42
0.0
 10
294.075499413892
 20
565.6174394693514
 42
0.0
 10
295.4897129762651
 20
564.2032259069782
 42
0.0
 10
305.6465672257577
 20
574.3600801564696
 42
-0.1989123673796289
 10
309.8892079128765
 20
576.1174394693498
 42
0.0
 10
322.9754994138918
 20
576.1174394693497
 42
0.0
 10
322.9754994138918
 20
578.1174394693498
 42
0.0
 97
        8
330
591
330
788
330
583
330
6FC
330
585
330
787
330
777
330
79B
 92
        7
 72
     1
 73
     1
 93
        8
 10
322.9754994138918
 20
578.1174394693501
 42
0.0
 10
322.9754994138918
 20
576.1174394693499
 42
0.0
 10
367.8579849926198
 20
576.11743946935
 42
-0.1989123673796944
 10
370.3328587267729
 20
575.0923132035024
 42
0.0
 10
372.6612858515192
 20
572.7638860787561
 42
0.0
 10
374.075499413892
 20
574.1780996411294
 42
0.0
 10
371.747072289146
 20
576.5065267658756
 42
0.1989123673796773
 10
367.8579849926198
 20
578.1174394693498
 42
0.0
 97
        8
330
591
330
79B
330
777
330
7CC
330
7CB
330
7CF
330
7CA
330
7CD
 75
     0
 76
     0
 52
45.0
 41
2.0
 77
     0
 78
     1
 53
45.0
 43
0.0000000000002274
 44
-0.0000000000001705
 45
-1.414213562373094
 46
1.414213562373095
 79
     0
 47
0.6632054384004947
 98
        4
 10
147.8109377792264
 20
577.1841804206379
 10
180.3299237536309
 20
576.5209750744948
 10
312.396836008598
 20
577.1841804206379
 10
348.2340876820119
 20
577.1841804206379
  0
ARC
  5
580
330
1E
100
AcDbEntity
  8
SCHRAFF
100
AcDbCircle
 10
293.3754994138922
 20
413.712167255237
 30
0.0
 40
3.0
100
AcDbArc
 50
270.0
 51
5.689685104220901
  0
LINE
  5
581
102
{ACAD_REACTORS
330
57E
102
}
330
1E
100
AcDbEntity
  8
STEMPEL
100
AcDbLine
 10
304.1973649665459
 20
425.5221611302756
 30
0.0
 11
293.3754994138923
 21
413.712167255237
 31
0.0
  0
LINE
  5
582
102
{ACAD_REACTORS
330
57E
102
}
330
1E
100
AcDbEntity
  8
STEMPEL
100
AcDbLine
 10
305.671919640166
 20
424.1709807150441
 30
0.0
 11
295.543215213448
 21
413.11743946935
 31
0.0
  0
LINE
  5
583
102
{ACAD_REACTORS
330
5A3
330
57F
102
}
330
1E
100
AcDbEntity
  8
STEMPEL
100
AcDbLine
 10
304.2323536633846
 20
575.7742937188427
 30
0.0
 11
288.4793053361779
 21
560.0212453916379
 31
0.0
  0
ARC
  5
584
330
1E
100
AcDbEntity
  8
SCHRAFF
100
AcDbCircle
 10
293.5754994138921
 20
565.1174394693514
 30
0.0
 40
3.5
100
AcDbArc
 50
250.3769335251439
 51
10.15009542095269
  0
LINE
  5
585
102
{ACAD_REACTORS
330
57F
102
}
330
1E
100
AcDbEntity
  8
STEMPEL
100
AcDbLine
 10
305.6465672257577
 20
574.3600801564696
 30
0.0
 11
295.489712976265
 21
564.2032259069781
 31
0.0
  0
HATCH
  5
586
330
1E
100
AcDbEntity
  8
SCHRAFF
100
AcDbHatch
 10
0.0
 20
0.0
 30
0.0
210
0.0
220
0.0
230
1.0
  2
_U
 70
     0
 71
     0
 91
        2
 92
        7
 72
     1
 73
     1
 93
        4
 10
208.0025729569083
 20
564.5690455827755
 42
0.0
 10
207.6490195663149
 20
564.2154921921822
 42
0.0
 10
206.1302762503601
 20
565.7342355081366
 42
0.5760313318603869
 10
210.7509072196126
 20
561.8207113200719
 42
0.0
 97
        0
 92
        7
 72
     1
 73
     1
 93
        4
 10
297.0207225774243
 20
565.7342355081371
 42
0.0
 10
295.4897129762649
 20
564.2032259069778
 42
0.0
 10
295.1361595856714
 20
564.5567792975714
 42
0.0
 10
292.4000916081716
 20
561.8207113200719
 42
0.5760313318604339
 97
        0
 75
     0
 76
     0
 52
0.0
 41
0.1
 77
     0
 78
     1
 53
0.0
 43
28.63674848197729
 44
121.9883951241793
 45
0.0
 46
0.1
 79
     0
 47
0.1173469678841337
 98
        2
 10
208.1528424837429
 20
562.9186154404101
 10
294.941638481157
 20
562.8012683778958
  0
HATCH
  5
587
330
1E
100
AcDbEntity
  8
SCHRAFF
100
AcDbHatch
 10
0.0
 20
0.0
 30
0.0
210
0.0
220
0.0
230
1.0
  2
_USER
 70
     0
 71
     1
 91
        7
 92
        7
 72
     1
 73
     1
 93
        4
 10
155.0754994138917
 20
584.11743946935
 42
0.0
 10
155.0754994138917
 20
590.1174394693505
 42
0.0
 10
139.5754994138917
 20
590.1174394693505
 42
1.0
 10
139.5754994138917
 20
584.11743946935
 42
0.0
 97
        4
330
593
330
661
330
650
330
65A
 92
        7
 72
     1
 73
     1
 93
        4
 10
168.0754994138918
 20
590.1174394693505
 42
0.0
 10
168.0754994138918
 20
584.11743946935
 42
0.0
 10
186.0754994138915
 20
584.11743946935
 42
1.0
 10
186.0754994138917
 20
590.1174394693505
 42
0.0
 97
        4
330
593
330
68E
330
59C
330
6A8
 92
        7
 72
     1
 73
     1
 93
        4
 10
317.075499413892
 20
590.1174394693507
 42
1.0
 10
317.075499413892
 20
584.1174394693499
 42
0.0
 10
322.9754994138918
 20
584.1174394693498
 42
0.0
 10
322.9754994138918
 20
590.1174394693509
 42
0.0
 97
        4
330
593
330
792
330
59C
330
79B
 92
        7
 72
     1
 73
     1
 93
        8
 10
322.9754994138918
 20
590.1174394693505
 42
0.0
 10
322.9754994138919
 20
584.1174394693499
 42
0.0
 10
370.5754994138917
 20
584.1174394693498
 42
0.0
 10
370.5754994138918
 20
591.3674394693516
 42
0.0
 10
370.5754994138918
 20
604.1174394693514
 42
0.0
 10
365.5754994138917
 20
604.1174394693513
 42
0.0
 10
365.4168806651005
 20
595.0301774371646
 42
-0.4091108014277337
 10
360.4176421893185
 20
590.1174394693507
 42
0.0
 97
        8
330
7D6
330
598
330
7BC
330
7BE
330
593
330
79B
330
59C
330
7DD
 92
        7
 72
     1
 73
     1
 93
        6
 10
376.5754994138918
 20
591.3674394693516
 42
0.0
 10
376.5754994138924
 20
584.1174394693499
 42
0.0
 10
376.8365637475952
 20
584.1174394693498
 42
0.4193348017584254
 10
381.835802223377
 20
589.204701501537
 42
0.0
 10
381.5754994138917
 20
604.1174394693514
 42
0.0
 10
376.5754994138917
 20
604.1174394693514
 42
0.0
 97
        6
330
7D3
330
7D4
330
7E0
330
59C
330
7C9
330
7EC
 92
        7
 72
     0
 73
     1
 93
        4
 10
375.9254994138918
 20
584.1174394693497
 10
376.5754994138925
 20
584.1174394693498
 10
376.5754994138918
 20
591.3674394693516
 10
375.9254994138918
 20
590.7174394693519
 97
        4
330
7DF
330
7DE
330
59C
330
7E0
 92
        7
 72
     0
 73
     1
 93
        4
 10
371.2254994138917
 20
590.7174394693515
 10
370.5754994138918
 20
591.3674394693515
 10
370.5754994138918
 20
584.1174394693499
 10
371.2254994138918
 20
584.1174394693499
 97
        4
330
7DC
330
7DD
330
59C
330
7DB
 75
     0
 76
     0
 52
135.0
 41
5.0
 77
     0
 78
     1
 53
135.0
 43
0.0000000000002274
 44
-0.0000000000001705
 45
-3.535533905932737
 46
-3.535533905932737
 79
     0
 47
0.4270155746372767
 98
        7
 10
145.1605820467737
 20
586.2922160604405
 10
172.5102789747659
 20
587.5732631872462
 10
320.3695802808381
 20
587.5732631872462
 10
336.181125443811
 20
587.5732631872462
 10
378.4876896262556
 20
592.2704346661819
 10
375.9896826857036
 20
588.9308452957455
 10
370.9471886621234
 20
588.8400573484648
  0
LINE
  5
588
102
{ACAD_REACTORS
330
57E
102
}
330
1E
100
AcDbEntity
  8
STEMPEL
100
AcDbLine
 10
292.2085388862571
 20
428.1174394693502
 30
0.0
 11
374.075499413892
 21
428.11743946935
 31
0.0
  0
LINE
  5
58B
330
1E
100
AcDbEntity
  8
STEMPEL
100
AcDbLine
 10
291.6842643390365
 20
434.11743946935
 30
0.0
 11
376.8365637475952
 21
434.1174394693498
 31
0.0
  0
LINE
  5
58C
330
1E
100
AcDbEntity
  8
STEMPEL
100
AcDbLine
 10
288.0754994138931
 20
440.1174394693509
 30
0.0
 11
360.4176421893185
 21
440.117439469351
 31
0.0
  0
LINE
  5
58D
330
1E
100
AcDbEntity
  8
STEMPEL
100
AcDbLine
 10
288.0754994138931
 20
440.1174394693509
 30
0.0
 11
360.4176421893186
 21
440.117439469351
 31
0.0
  0
HATCH
  5
58E
330
1E
100
AcDbEntity
  8
SCHRAFF
100
AcDbHatch
 10
0.0
 20
0.0
 30
0.0
210
0.0
220
0.0
230
1.0
  2
_USER
 70
     0
 71
     0
 91
        7
 92
        7
 72
     1
 73
     1
 93
        4
 10
139.5754994138918
 20
440.1174394693508
 42
1.0
 10
139.5754994138918
 20
434.1174394693501
 42
0.0
 10
155.0754994138917
 20
434.1174394693501
 42
0.0
 10
155.0754994138918
 20
440.1174394693508
 42
0.0
 97
        0
 92
        7
 72
     1
 73
     1
 93
        4
 10
168.0754994138918
 20
440.1174394693508
 42
0.0
 10
168.0754994138918
 20
434.1174394693501
 42
0.0
 10
186.0754994138921
 20
434.1174394693501
 42
1.0
 10
186.0754994138921
 20
440.1174394693508
 42
0.0
 97
        0
 92
        7
 72
     1
 73
     1
 93
        4
 10
317.0754994138917
 20
434.11743946935
 42
0.0
 10
322.9754994138918
 20
434.11743946935
 42
0.0
 10
322.9754994138918
 20
440.117439469351
 42
0.0
 10
317.0754994138917
 20
440.117439469351
 42
1.0
 97
        0
 92
        7
 72
     1
 73
     1
 93
        7
 10
322.9754994138919
 20
440.117439469351
 42
0.0
 10
322.9754994138919
 20
434.1174394693498
 42
0.0
 10
370.5754994138918
 20
434.1174394693498
 42
0.0
 10
370.5754994138916
 20
454.1174394693515
 42
0.0
 10
365.5754994138917
 20
454.1174394693515
 42
0.0
 10
365.4168806651005
 20
445.0301774371647
 42
-0.4091108014277173
 10
360.4176421893185
 20
440.117439469351
 42
0.0
 97
        0
 92
        7
 72
     1
 73
     1
 93
        5
 10
381.5754994138917
 20
454.1174394693515
 42
0.0
 10
376.5754994138905
 20
454.1174394693515
 42
0.0
 10
376.5754994138923
 20
434.1174394693498
 42
0.0
 10
376.8365637475963
 20
434.1174394693498
 42
0.4193348017583005
 10
381.835802223377
 20
439.2047015015362
 42
0.0
 97
        0
 92
        7
 72
     0
 73
     1
 93
        4
 10
376.5754994138905
 20
454.1174394693515
 10
375.9254994138915
 20
454.1174394693515
 10
375.9254994138918
 20
434.1174394693498
 10
376.5754994138924
 20
434.1174394693498
 97
        0
 92
        7
 72
     0
 73
     1
 93
        4
 10
371.2254994138917
 20
454.1174394693515
 10
370.5754994138916
 20
454.1174394693515
 10
370.5754994138916
 20
434.1174394693498
 10
371.2254994138917
 20
434.1174394693498
 97
        0
 75
     0
 76
     0
 52
135.0
 41
5.0
 77
     0
 78
     1
 53
135.0
 43
0.0000000000002274
 44
-0.0000000000001705
 45
-3.535533905932737
 46
-3.535533905932737
 79
     0
 47
0.1103864733436293
 98
        7
 10
145.2998211952928
 20
437.9130845762374
 10
176.8196338895687
 20
437.4931185375299
 10
315.086552930759
 20
436.6531845043371
 10
329.3755357421079
 20
437.4931185375299
 10
380.2275050582308
 20
448.8322152730771
 10
376.3533497089453
 20
446.4672051322734
 10
370.9405766429142
 20
451.5449841506661
  0
LINE
  5
591
102
{ACAD_REACTORS
330
57F
102
}
330
1E
100
AcDbEntity
  8
STEMPEL
100
AcDbLine
 10
135.2930138351641
 20
578.1174394693501
 30
0.0
 11
367.8579849926198
 21
578.1174394693498
 31
0.0
  0
LINE
  5
593
102
{ACAD_REACTORS
330
587
102
}
330
1E
100
AcDbEntity
  8
STEMPEL
100
AcDbLine
 10
139.5754994138917
 20
590.1174394693505
 30
0.0
 11
360.4176421893185
 21
590.1174394693507
 31
0.0
  0
INSERT
  5
594
330
1E
100
AcDbEntity
  8
SCHRAFF
  6
Continuous
100
AcDbBlockReference
  2
*X1
 10
17.09098303921428
 20
175.5892295611918
 30
0.0
1001
ACAD
1000
HATCH
1002
{
1070
    19
1000
ANSI31
1040
20.0
1040
0.0
1000
R14_HATCH_DATA
1000
B81
1011
18.09098303921428
1021
175.5892295611918
1031
0.0
1011
17.09098303921428
1021
176.5892295611918
1031
0.0
1011
17.09098303921428
1021
175.5892295611918
1031
1.0
1040
0.0
1010
0.0
1020
0.0
1030
1.0
1000
ANSI31
1070
     0
1070
     0
1071
        4
1071
        7
1070
     1
1070
     1
1071
       16
1040
125.4845163746777
1040
498.5281519408439
1040
-0.2667503951500901
1040
127.9651628065506
1040
502.8470473550401
1040
0.0
1040
151.9440166994974
1040
516.8347005212232
1040
-0.1340385084115534
1040
154.4845163746775
1040
517.5282099081588
1040
0.0
1040
181.3903590825795
1040
517.5282099081589
1040
0.0
1040
181.1206783245243
1040
518.5282099081589
1040
0.0
1040
154.4845163746775
1040
518.5282099081588
1040
0.1316524975839352
1040
151.4845163747482
1040
517.7243623309065
1040
0.0
1040
127.4518217529799
1040
503.7052904682087
1040
0.2662608607108822
1040
124.4845163746776
1040
498.5281519408439
1040
0.0
1040
124.4845163746776
1040
434.5282099081599
1040
-0.4142135623730909
1040
119.4845163746777
1040
429.5282099081599
1040
0.0
1040
104.4845163746775
1040
429.5282099081595
1040
0.0
1040
104.4845163746774
1040
428.5282099081594
1040
0.0
1040
119.4845163746777
1040
428.5282099081594
1040
0.4142135623730952
1040
125.4845163746777
1040
434.5282099081594
1040
0.0
1071
        0
1071
        7
1070
     1
1070
     1
1071
       32
1040
211.3879420564882
1040
518.7782099081592
1040
-0.2679491924311204
1040
211.8209547583804
1040
519.0282099081591
1040
0.0
1040
212.0209547583806
1040
519.0282099081591
1040
-0.2679491924312903
1040
212.4539674602732
1040
518.7782099081593
1040
0.2679491924311428
1040
214.6190309697343
1040
517.5282099081591
1040
0.0
1040
216.6778785470267
1040
517.5282099081591
1040
0.2679491924311518
1040
218.8429420564879
1040
518.7782099081593
1040
-0.2679491924310846
1040
219.2759547583801
1040
519.0282099081592
1040
0.0
1040
219.4759547583805
1040
519.0282099081592
1040
-0.2679491924309635
1040
219.9089674602724
1040
518.7782099081592
1040
0.267949192431125
1040
222.0740309697335
1040
517.5282099081591
1040
0.0
1040
228.5278785470276
1040
517.5282099081591
1040
0.2679491924310967
1040
230.6929420564886
1040
518.778209908159
1040
-0.2679491924312205
1040
231.1259547583809
1040
519.0282099081592
1040
0.0
1040
234.4845163746775
1040
519.0282099081592
1040
0.0
1040
234.4845163746775
1040
520.0282099081591
1040
0.0
1040
231.1259547583804
1040
520.0282099081591
1040
0.2679491924310706
1040
229.826916652704
1040
519.2782099081592
1040
-0.2679491924311248
1040
228.5278785470274
1040
518.5282099081591
1040
0.0
1040
222.0740309697335
1040
518.5282099081591
1040
-0.2679491924310946
1040
220.774992864057
1040
519.2782099081592
1040
0.2859076546238937
1040
219.3759547583801
1040
520.0248728628687
1040
0.2859076546238273
1040
217.9769166527036
1040
519.2782099081592
1040
-0.2679491924311237
1040
216.677878547027
1040
518.5282099081591
1040
0.0
1040
214.6190309697344
1040
518.5282099081591
1040
-0.2679491924311664
1040
213.3199928640575
1040
519.2782099081592
1040
0.2859076546239339
1040
211.9209547583805
1040
520.0248728628687
1040
0.2859076546238759
1040
210.5219166527038
1040
519.2782099081592
1040
-0.2679491924311312
1040
209.2228785470271
1040
518.528209908159
1040
0.0
1040
181.1206783245243
1040
518.5282099081588
1040
0.0
1040
181.3903590825796
1040
517.5282099081589
1040
0.0
1040
209.222878547027
1040
517.5282099081591
1040
0.267949192431136
1071
        0
1071
        7
1070
     1
1070
     1
1071
       44
1040
314.484516374678
1040
518.5282099081595
1040
0.0
1040
259.9240309697345
1040
518.5282099081592
1040
-0.2679491924312094
1040
258.6249928640574
1040
519.2782099081592
1040
0.285907654623908
1040
257.2259547583804
1040
520.0248728628687
1040
0.2859076546237761
1040
255.8269166527042
1040
519.2782099081592
1040
-0.2679491924311255
1040
254.5278785470276
1040
518.5282099081591
1040
0.0
1040
248.0740309697341
1040
518.5282099081591
1040
-0.2679491924311383
1040
246.7749928640573
1040
519.2782099081592
1040
0.2859076546238221
1040
245.3759547583809
1040
520.0248728628687
1040
0.3607372083888694
1040
243.8235860035526
1040
518.9032099081591
1040
-0.3419987131196436
1040
243.3394630852767
1040
518.5282099081591
1040
0.0
1040
243.1507138926773
1040
518.5282099081591
1040
-0.3419987131194885
1040
242.6665909744016
1040
518.9032099081591
1040
0.3419987131196458
1040
241.2142222195738
1040
520.0282099081591
1040
0.0
1040
234.4845163746775
1040
520.0282099081591
1040
0.0
1040
234.4845163746775
1040
519.0282099081592
1040
0.0
1040
241.214222219574
1040
519.0282099081592
1040
-0.3419987131195311
1040
241.6983451378496
1040
518.6532099081591
1040
0.3596757619904443
1040
243.2450884889767
1040
517.5311817068304
1040
0.359675761990552
1040
244.7918318401043
1040
518.6532099081591
1040
-0.3419987131196961
1040
245.2759547583802
1040
519.0282099081592
1040
0.0
1040
245.4759547583805
1040
519.0282099081592
1040
-0.267949192431149
1040
245.9089674602728
1040
518.7782099081593
1040
0.2679491924311277
1040
248.0740309697339
1040
517.5282099081592
1040
0.0
1040
254.5278785470281
1040
517.5282099081592
1040
0.2679491924310553
1040
256.6929420564888
1040
518.7782099081588
1040
-0.2679491924313444
1040
257.1259547583812
1040
519.0282099081591
1040
0.0
1040
257.3259547583804
1040
519.0282099081591
1040
-0.2679491924313275
1040
257.7589674602732
1040
518.7782099081593
1040
0.2679491924311476
1040
259.9240309697344
1040
517.5282099081592
1040
0.0
1040
314.4845163746779
1040
517.5282099081595
1040
-0.1340385084117589
1040
317.0250160498613
1040
516.8347005212212
1040
0.0
1040
341.0038699428049
1040
502.8470473550401
1040
-0.2667503951500871
1040
343.4845163746778
1040
498.528151940844
1040
0.0
1040
343.4845163746778
1040
434.5282099081599
1040
0.4142135623731166
1040
349.4845163746778
1040
428.5282099081594
1040
0.0
1040
352.4845163746777
1040
428.5282099081594
1040
0.0
1040
352.4845163746777
1040
429.5282099081599
1040
0.0
1040
350.4845163746775
1040
429.52820990816
1040
0.0
1040
349.484516374678
1040
429.5282099081599
1040
-0.4142135623731052
1040
344.4845163746779
1040
434.5282099081599
1040
0.0
1040
344.4845163746779
1040
498.5281519408439
1040
0.2662608607095104
1040
341.5172109964022
1040
503.7052904681933
1040
0.0
1040
317.4845163746013
1040
517.7243623309099
1040
0.1316524975836475
1071
        0
1071
        7
1070
     0
1070
     1
1071
        4
1040
364.4845163746775
1040
429.5282099081595
1040
360.4845163746777
1040
429.5282099081595
1040
360.4845163746776
1040
428.5282099081594
1040
364.4845163746776
1040
428.5282099081594
1071
        0
1070
     0
1070
     1
1040
0.0
1040
20.0
1070
     0
1070
     1
1040
0.7853981633974483
1040
0.0
1040
0.0
1040
-1.767766952966368
1040
1.767766952966368
1070
     0
1040
0.4109460669167521
1071
        4
1040
125.1226099263463
1040
464.822119640487
1040
0.0
1040
195.8618845685205
1040
517.8341632954173
1040
0.0
1040
271.5364586384376
1040
517.8341632954173
1040
0.0
1040
362.0169260900188
1040
429.0698116436324
1040
0.0
1002
}
  0
LINE
  5
595
330
1E
100
AcDbEntity
  8
STEMPEL
100
AcDbLine
 10
277.0150140089488
 20
694.1174394693511
 30
0.0
 11
331.5754994138922
 21
694.1174394693514
 31
0.0
  0
LINE
  5
596
330
1E
100
AcDbEntity
  8
STEMPEL
100
AcDbLine
 10
171.575499413892
 20
693.1174394693507
 30
0.0
 11
331.5754994138922
 21
693.1174394693514
 31
0.0
  0
LINE
  5
597
330
1E
100
AcDbEntity
  8
STEMPEL
100
AcDbLine
 10
301.3357414593588
 20
605.1174394693514
 30
0.0
 11
287.8611327373644
 21
605.1174394693514
 31
0.0
  0
LINE
  5
598
102
{ACAD_REACTORS
330
587
102
}
330
1E
100
AcDbEntity
  8
STEMPEL
100
AcDbLine
 10
121.5754994138917
 20
604.1174394693512
 30
0.0
 11
370.5754994138918
 21
604.1174394693514
 31
0.0
  0
LWPOLYLINE
  5
599
330
1E
100
AcDbEntity
  8
STEMPEL
100
AcDbPolyline
 90
       18
 70
   128
 43
0.0
 10
300.1182300266298
 20
616.6174394693496
 10
300.0002489913486
 20
617.995560852974
 10
299.650323588159
 20
619.3267519657538
 10
299.0803701069772
 20
620.5656806909305
 10
298.3097976300212
 20
621.6701567966997
 10
297.3648470787937
 20
622.6025686739526
 10
296.2776976109735
 20
623.331164154514
 10
295.0853707977953
 20
623.8311317931472
 10
293.8284698988434
 20
624.0854457915638
 10
292.549797166745
 20
624.0854457915638
 10
291.2928962677934
 20
623.8311317931472
 10
290.1005694546149
 20
623.331164154514
 10
289.013419986795
 20
622.6025686739526
 10
288.0684694355675
 20
621.6701567966997
 10
287.2978969586113
 20
620.5656806909305
 10
286.7279434774296
 20
619.3267519657538
 10
286.3780180742399
 20
617.995560852974
 10
286.2600370389589
 20
616.6174394693496
  0
LINE
  5
59A
102
{ACAD_REACTORS
330
DA8
102
}
330
1E
100
AcDbEntity
  8
STEMPEL
100
AcDbLine
 10
166.575499413892
 20
581.1174394693501
 30
0.0
 11
374.0754994138919
 21
581.1174394693498
 31
0.0
  0
LINE
  5
59C
102
{ACAD_REACTORS
330
587
102
}
330
1E
100
AcDbEntity
  8
STEMPEL
100
AcDbLine
 10
166.575499413892
 20
584.11743946935
 30
0.0
 11
376.8365637475952
 21
584.1174394693498
 31
0.0
  0
LINE
  5
59D
330
1E
100
AcDbEntity
  8
HILF
100
AcDbLine
 10
353.9018324714225
 20
677.1174394693542
 30
0.0
 11
148.7491663563612
 21
677.1174394693539
 31
0.0
  0
LINE
  5
59E
102
{ACAD_REACTORS
330
DA8
102
}
330
1E
100
AcDbEntity
  8
STEMPEL
100
AcDbLine
 10
129.0754994138917
 20
578.1174394693501
 30
0.0
 11
374.0754994138919
 21
578.1174394693498
 31
0.0
  0
DIMENSION
  5
59F
330
1E
100
AcDbEntity
  8
BEM
100
AcDbDimension
  2
*D2
 10
361.5754994138922
 20
702.9297924660845
 30
0.0
 11
251.5754994138921
 21
709.4297924660845
 31
0.0
 70
    32
  1
%%c<>
 71
     5
 42
220.0000000000002
  3
Standard
100
AcDbAlignedDimension
 13
141.575499413892
 23
674.1173815020358
 33
0.0
 14
361.5754994138922
 24
674.1173815020358
 34
0.0
100
AcDbRotatedDimension
1001
ACAD
1000
DSTYLE
1002
{
1070
    40
1040
2.0
1070
    41
1040
3.5
1070
    42
1040
1.0
1070
    43
1040
7.0
1070
    44
1040
1.0
1070
    73
1070
     0
1070
    74
1070
     0
1070
    77
1070
     1
1070
    78
1070
     8
1070
    79
1070
     2
1070
   140
1040
3.5
1070
   141
1040
1.5
1070
   146
1040
0.5142857142857144
1070
   147
1040
1.5
1070
   172
1070
     1
1070
   178
1070
     1
1070
   179
1070
     2
1070
   271
1070
     2
1070
   272
1070
     2
1070
   284
1070
     8
1070
   285
1070
     8
1070
   286
1070
     8
1070
   340
1005
24
1002
}
  0
DIMENSION
  5
5A0
330
1E
100
AcDbEntity
  8
BEM
100
AcDbDimension
  2
*D3
 10
381.5754994138917
 20
716.424993780392
 30
0.0
 11
251.5754994138919
 21
722.924993780392
 31
0.0
 70
    32
  1
%%c<>
 71
     5
 42
259.9999999999998
  3
Standard
100
AcDbAlignedDimension
 13
121.575499413892
 23
605.1174394693514
 33
0.0
 14
381.5754994138917
 24
605.1174394693516
 34
0.0
100
AcDbRotatedDimension
1001
ACAD
1000
DSTYLE
1002
{
1070
    40
1040
2.0
1070
    41
1040
3.5
1070
    42
1040
1.0
1070
    43
1040
7.0
1070
    44
1040
1.0
1070
    73
1070
     0
1070
    74
1070
     0
1070
    77
1070
     1
1070
    78
1070
     8
1070
    79
1070
     2
1070
   140
1040
3.5
1070
   141
1040
1.5
1070
   146
1040
0.5142857142857144
1070
   147
1040
1.5
1070
   172
1070
     1
1070
   178
1070
     1
1070
   179
1070
     2
1070
   271
1070
     2
1070
   272
1070
     2
1070
   284
1070
     8
1070
   285
1070
     8
1070
   286
1070
     8
1070
   340
1005
24
1002
}
  0
HATCH
  5
5A2
330
1E
100
AcDbEntity
  8
SCHRAFF
100
AcDbHatch
 10
0.0
 20
0.0
 30
0.0
210
0.0
220
0.0
230
1.0
  2
_USER
 70
     0
 71
     1
 91
        2
 92
        7
 72
     1
 73
     1
 93
       20
 10
213.7754994138922
 20
391.6174394693506
 42
0.092693060336358
 10
212.8633055293951
 20
396.4956704190397
 42
-0.0934034108731739
 10
211.2754994138921
 20
405.0536394361494
 42
0.0
 10
211.2754994138921
 20
420.5685170622321
 42
-0.1093332246020502
 10
213.4700259253123
 20
430.4845041249215
 42
0.0
 10
212.1101020856166
 20
431.117439469351
 42
0.1093332246020707
 10
209.7754994138921
 20
420.5685170622327
 42
0.0
 10
209.7754994138921
 20
404.919159421165
 42
0.0920044384191259
 10
211.4646604054503
 20
395.9536447579631
 42
-0.0926930603363501
 10
212.2754994138921
 20
391.6174394693509
 42
0.0
 10
212.275499413894
 20
316.5061658867676
 42
0.1346873523285361
 10
213.955499413894
 20
310.3826374921246
 42
-0.1346873523285467
 10
215.0754994138941
 20
306.3002852290292
 42
0.0
 10
215.0754994138922
 20
173.0519480549881
 42
0.0
 10
215.5072129752068
 20
168.1174394693501
 42
0.0
 10
217.0129427315219
 20
168.1174394693501
 42
0.0
 10
216.5754994138922
 20
173.1174394693499
 42
0.0
 10
216.575499413894
 20
306.3002852290293
 42
0.1346873523285371
 10
215.2454994138941
 20
311.1480785414548
 42
-0.1346873523285409
 10
213.775499413894
 20
316.5061658867676
 42
0.0
 97
       20
330
5CC
330
5CA
330
5AA
330
6C2
330
6C1
330
6BD
330
5AB
330
5CB
330
5CD
330
5C2
330
5C8
330
5C7
330
5B3
330
5B8
330
5B7
330
5B9
330
5B2
330
5C6
330
5C9
330
5C3
 92
        7
 72
     1
 73
     1
 93
       20
 10
290.875499413892
 20
391.6174394693506
 42
-0.0926930603363638
 10
291.6863384223339
 20
395.9536447579635
 42
0.0920044384190542
 10
293.375499413892
 20
404.9191594211582
 42
0.0
 10
293.375499413892
 20
420.5685170622321
 42
0.109333224602077
 10
291.0408967421675
 20
431.117439469351
 42
0.0
 10
289.680972902472
 20
430.4845041249215
 42
-0.1093332246020451
 10
291.875499413892
 20
420.5685170622325
 42
0.0
 10
291.875499413892
 20
405.05363943614
 42
-0.0934034108730753
 10
290.2876932983889
 20
396.4956704190395
 42
0.0926930603363437
 10
289.375499413892
 20
391.6174394693511
 42
0.0
 10
289.37549941389
 20
316.5061658867676
 42
-0.1346873523285341
 10
287.9054994138901
 20
311.148078541455
 42
0.1346873523285118
 10
286.5754994138941
 20
306.3002852290293
 42
0.0
 10
286.5754994138922
 20
173.1174394693595
 42
0.0
 10
286.1380560962618
 20
168.1174394693501
 42
0.0
 10
287.6437858525768
 20
168.1174394693501
 42
0.0
 10
288.0754994138921
 20
173.0519480549968
 42
0.0
 10
288.0754994138941
 20
306.3002852290296
 42
-0.1346873523284958
 10
289.1954994138901
 20
310.3826374921246
 42
0.1346873523285353
 10
290.87549941389
 20
316.5061658867676
 42
0.0
 97
       20
330
5DF
330
5DE
330
5A8
330
6CA
330
6CE
330
6C9
330
5A9
330
5DD
330
5E0
330
5D6
330
5DC
330
5DA
330
5B4
330
5BA
330
5B7
330
5BB
330
5B5
330
5DB
330
5D9
330
5D5
 75
     0
 76
     0
 52
45.0
 41
2.0
 77
     0
 78
     1
 53
45.0
 43
0.0000000000002274
 44
-0.0000000000001705
 45
-1.414213562373094
 46
1.414213562373095
 79
     0
 47
0.5341172407613316
 98
        2
 10
213.2158122985986
 20
340.6285111199405
 10
289.6461026791497
 20
350.7767378108652
  0
HATCH
  5
5A3
330
1E
100
AcDbEntity
  8
SCHRAFF
100
AcDbHatch
 10
0.0
 20
0.0
 30
0.0
210
0.0
220
0.0
230
1.0
  2
_USER
 70
     0
 71
     1
 91
        2
 92
        7
 72
     1
 73
     1
 93
       10
 10
216.5754994138937
 20
555.4250513139248
 42
0.1989123673796638
 10
214.6716934916067
 20
560.0212453916376
 42
0.0
 10
209.0632331286881
 20
565.6297057545555
 42
0.0
 10
208.0025729569084
 20
564.5690455827757
 42
0.0
 10
213.6110333198269
 20
558.9605852198578
 42
-0.1989123673796737
 10
215.0754994138942
 20
555.4250513139248
 42
0.0
 10
215.0754994138922
 20
323.0519480549868
 42
0.0
 10
215.5072129752068
 20
318.11743946935
 42
0.0
 10
217.0129427315217
 20
318.11743946935
 42
0.0
 10
216.575499413892
 20
323.1174394693497
 42
0.0
 97
       10
330
6D5
330
5EC
330
6D8
330
6D6
330
6D9
330
5AE
330
5C4
330
5C1
330
5C5
330
5AF
 92
        7
 72
     1
 73
     1
 93
       10
 10
288.0754994138943
 20
555.4250513139252
 42
-0.1989123673795876
 10
289.5399655079575
 20
558.9605852198583
 42
0.0
 10
295.1361595856716
 20
564.5567792975716
 42
0.0
 10
294.0754994138922
 20
565.6174394693514
 42
0.0
 10
288.4793053361779
 20
560.0212453916379
 42
0.1989123673796076
 10
286.5754994138942
 20
555.4250513139249
 42
0.0
 10
286.575499413892
 20
323.1174394693562
 42
0.0
 10
286.1380560962616
 20
318.11743946935
 42
0.0
 10
287.6437858525767
 20
318.11743946935
 42
0.0
 10
288.075499413892
 20
323.0519480549968
 42
0.0
 97
       10
330
6FA
330
6F9
330
6FC
330
583
330
6FB
330
5AD
330
5D7
330
5C1
330
5D8
330
5AC
 75
     0
 76
     0
 52
135.0
 41
2.0
 77
     0
 78
     1
 53
135.0
 43
0.0000000000002274
 44
-0.0000000000001705
 45
-1.414213562373095
 46
-1.414213562373094
 79
     0
 47
0.6632054384004947
 98
        2
 10
216.1671786191675
 20
549.9927572546067
 10
287.1780301030424
 20
553.3087839853228
  0
LINE
  5
5A4
102
{ACAD_REACTORS
330
57E
102
}
330
1E
100
AcDbEntity
  8
STEMPEL
100
AcDbLine
 10
198.953633861238
 20
425.5221611302756
 30
0.0
 11
209.7754994138924
 21
413.7121672552367
 31
0.0
  0
LINE
  5
5A5
102
{ACAD_REACTORS
330
57E
102
}
330
1E
100
AcDbEntity
  8
STEMPEL
100
AcDbLine
 10
197.4790791876179
 20
424.1709807150441
 30
0.0
 11
207.607783614336
 21
413.11743946935
 31
0.0
  0
HATCH
  5
5A6
330
1E
100
AcDbEntity
  8
SCHRAFF
100
AcDbHatch
 10
0.0
 20
0.0
 30
0.0
210
0.0
220
0.0
230
1.0
  2
NET
 70
     0
 71
     0
 91
        2
 92
        7
 72
     1
 73
     1
 93
       13
 10
288.0754994138928
 20
414.4949404701545
 42
0.128517640521409
 10
289.2835986574373
 20
416.1174394693508
 42
0.075813045109402
 10
289.5621493557915
 20
417.2909088571061
 42
-1.021524369171772
 10
290.922131190385
 20
417.4871462526091
 42
0.0
 10
291.3038523181737
 20
415.6608125335933
 42
0.0
 10
291.875499413892
 20
415.6608125335933
 42
0.0
 10
291.875499413892
 20
420.5685170622321
 42
0.1093332246020502
 10
289.6809729024719
 20
430.4845041249215
 42
0.0
 10
291.0408967421675
 20
431.117439469351
 42
0.0
 10
293.3754994138896
 20
431.1174394693508
 42
0.0
 10
290.8436726466669
 20
435.6085243661834
 42
0.7040385315423109
 10
288.9877531763054
 20
435.2910876470178
 42
0.0
 10
288.0754994138929
 20
430.1174394693709
 42
0.0
 97
        0
 92
        7
 72
     1
 73
     1
 93
       13
 10
215.0754994138931
 20
430.1174394693306
 42
0.0
 10
214.1632456514737
 20
435.2910876470178
 42
0.7040385315425906
 10
212.3073261811121
 20
435.6085243661834
 42
0.0
 10
209.7754994138895
 20
431.1174394693509
 42
0.0
 10
212.1101020856166
 20
431.117439469351
 42
0.0
 10
213.4700259253122
 20
430.4845041249215
 42
0.109333224602045
 10
211.2754994138921
 20
420.5685170622325
 42
0.0
 10
211.2754994138921
 20
415.6608125335933
 42
0.0
 10
211.8471465096052
 20
415.6608125335934
 42
0.0
 10
212.2288676373938
 20
417.4871462526077
 42
-1.021524369174619
 10
213.5888494719874
 20
417.290908857106
 42
0.0758130451093995
 10
213.8674001703416
 20
416.1174394693508
 42
0.1285176405219647
 10
215.0754994138929
 20
414.494940470149
 42
0.0
 97
        0
 75
     0
 76
     1
 52
45.0
 41
15.0
 77
     0
 78
     2
 53
45.0
 43
20.17268000242052
 44
-67.90875063864115
 45
-1.325825214724776
 46
1.325825214724776
 79
     0
 53
135.0
 43
20.17268000242052
 44
-67.90875063864115
 45
-1.325825214724776
 46
-1.325825214724776
 79
     0
 47
0.2686080656016512
 98
        2
 10
289.1622795879905
 20
423.1125023446283
 10
214.1675204759983
 20
422.8438939195652
  0
DIMENSION
  5
5A7
330
1E
100
AcDbEntity
  8
BEM
100
AcDbDimension
  2
*D4
 10
113.1946230744022
 20
428.1174394693509
 30
0.0
 11
106.6946230744021
 21
298.1174394693505
 31
0.0
 70
    32
 71
     5
 42
260.0000000000008
  3
Standard
100
AcDbAlignedDimension
 13
215.5072129752068
 23
168.11743946935
 33
0.0
 14
129.0754994138922
 24
428.1174394693508
 34
0.0
 50
90.0
100
AcDbRotatedDimension
1001
ACAD
1000
DSTYLE
1002
{
1070
    40
1040
2.0
1070
    41
1040
3.5
1070
    42
1040
1.0
1070
    43
1040
7.0
1070
    44
1040
1.0
1070
    47
1040
2.0
1070
    48
1040
2.0
1070
    73
1070
     0
1070
    74
1070
     0
1070
    77
1070
     1
1070
    78
1070
     8
1070
    79
1070
     2
1070
   140
1040
3.5
1070
   141
1040
1.5
1070
   146
1040
0.5142857142857144
1070
   147
1040
1.5
1070
   172
1070
     1
1070
   178
1070
     1
1070
   179
1070
     2
1070
   279
1070
     0
1002
}
  0
LINE
  5
5A8
102
{ACAD_REACTORS
330
5A2
102
}
330
1E
100
AcDbEntity
  8
STEMPEL
  6
Continuous
100
AcDbLine
 10
293.375499413892
 20
420.5685170622321
 30
0.0
 11
293.375499413892
 21
405.0557195175413
 31
0.0
  0
LINE
  5
5A9
102
{ACAD_REACTORS
330
5A2
102
}
330
1E
100
AcDbEntity
  8
STEMPEL
  6
Continuous
100
AcDbLine
 10
291.875499413892
 20
420.5685170622321
 30
0.0
 11
291.875499413892
 21
404.9212395025596
 31
0.0
  0
LINE
  5
5AA
102
{ACAD_REACTORS
330
5A2
102
}
330
1E
100
AcDbEntity
  8
STEMPEL
  6
Continuous
100
AcDbLine
 10
211.2754994138921
 20
420.5685170622321
 30
0.0
 11
211.2754994138921
 21
404.9212395025596
 31
0.0
  0
LINE
  5
5AB
102
{ACAD_REACTORS
330
5A2
102
}
330
1E
100
AcDbEntity
  8
STEMPEL
  6
Continuous
100
AcDbLine
 10
209.7754994138921
 20
420.5685170622321
 30
0.0
 11
209.7754994138921
 21
405.0557195175413
 31
0.0
  0
LINE
  5
5AC
102
{ACAD_REACTORS
330
5A3
102
}
330
1E
100
AcDbEntity
  8
STEMPEL
  6
Continuous
100
AcDbLine
 10
288.0754994138943
 20
555.4250513139252
 30
0.0
 11
288.075499413892
 21
323.0519480549968
 31
0.0
  0
LINE
  5
5AD
102
{ACAD_REACTORS
330
5A3
102
}
330
1E
100
AcDbEntity
  8
STEMPEL
  6
Continuous
100
AcDbLine
 10
286.5754994138942
 20
555.4250513139252
 30
0.0
 11
286.575499413892
 21
323.1174394693562
 31
0.0
  0
LINE
  5
5AE
102
{ACAD_REACTORS
330
5A3
102
}
330
1E
100
AcDbEntity
  8
STEMPEL
  6
Continuous
100
AcDbLine
 10
215.0754994138942
 20
555.4250513139249
 30
0.0
 11
215.0754994138922
 21
323.0519480549876
 31
0.0
  0
LINE
  5
5AF
102
{ACAD_REACTORS
330
5A3
102
}
330
1E
100
AcDbEntity
  8
STEMPEL
  6
Continuous
100
AcDbLine
 10
216.5754994138937
 20
555.4250513139248
 30
0.0
 11
216.575499413892
 21
323.11743946935
 31
0.0
  0
LINE
  5
5B0
330
1E
100
AcDbEntity
  8
MITTEL
100
AcDbLine
 10
251.5754994138918
 20
700.6174394693509
 30
0.0
 11
251.5754994138918
 21
475.4266685964514
 31
0.0
  0
DIMENSION
  5
5B1
330
1E
100
AcDbEntity
  8
BEM
100
AcDbDimension
  2
*D5
 10
288.0754994138921
 20
150.1952762542606
 30
0.0
 11
251.5754994138922
 21
156.6952762542606
 31
0.0
 70
    32
  1
%%c<>
 71
     5
 42
72.99999999999989
  3
Standard
100
AcDbAlignedDimension
 13
215.0754994138922
 23
173.0519480549881
 33
0.0
 14
288.0754994138921
 24
173.051948054988
 34
0.0
100
AcDbRotatedDimension
1001
ACAD
1000
DSTYLE
1002
{
1070
    40
1040
2.0
1070
    41
1040
3.5
1070
    42
1040
1.0
1070
    43
1040
7.0
1070
    44
1040
1.0
1070
    47
1040
0.7
1070
    48
1040
0.7
1070
    73
1070
     0
1070
    74
1070
     0
1070
    77
1070
     1
1070
    78
1070
     8
1070
    79
1070
     2
1070
   140
1040
3.5
1070
   141
1040
1.5
1070
   147
1040
1.5
1070
   172
1070
     1
1070
   178
1070
     1
1070
   179
1070
     2
1070
   279
1070
     0
1002
}
  0
LINE
  5
5B2
102
{ACAD_REACTORS
330
5A2
102
}
330
1E
100
AcDbEntity
  8
STEMPEL
  6
Continuous
100
AcDbLine
 10
216.575499413894
 20
306.3002852290293
 30
0.0
 11
216.5754994138922
 21
173.1174394693502
 31
0.0
  0
LINE
  5
5B3
102
{ACAD_REACTORS
330
5A2
330
CFF
102
}
330
1E
100
AcDbEntity
  8
STEMPEL
  6
Continuous
100
AcDbLine
 10
215.0754994138941
 20
306.3002852290294
 30
0.0
 11
215.0754994138922
 21
173.0519480549881
 31
0.0
  0
LINE
  5
5B4
102
{ACAD_REACTORS
330
5A2
102
}
330
1E
100
AcDbEntity
  8
STEMPEL
  6
Continuous
100
AcDbLine
 10
286.5754994138941
 20
306.3002852290295
 30
0.0
 11
286.5754994138922
 21
173.1174394693584
 31
0.0
  0
LINE
  5
5B5
102
{ACAD_REACTORS
330
5A2
102
}
330
1E
100
AcDbEntity
  8
STEMPEL
  6
Continuous
100
AcDbLine
 10
288.0754994138941
 20
306.3002852290296
 30
0.0
 11
288.0754994138922
 21
173.1174394693502
 31
0.0
  0
LINE
  5
5B6
330
1E
100
AcDbEntity
  8
HILF
100
AcDbLine
 10
285.0697696575764
 20
173.1174394693502
 30
0.0
 11
218.0812291702073
 21
173.1174394693502
 31
0.0
  0
LINE
  5
5B7
102
{ACAD_REACTORS
330
5A2
102
}
330
1E
100
AcDbEntity
  8
STEMPEL
100
AcDbLine
 10
287.6437858525768
 20
168.1174394693501
 30
0.0
 11
215.5072129752068
 21
168.11743946935
 31
0.0
  0
LINE
  5
5B8
102
{ACAD_REACTORS
330
5A2
102
}
330
1E
100
AcDbEntity
  8
STEMPEL
100
AcDbLine
 10
215.0754994138922
 20
173.0519480549881
 30
0.0
 11
215.5072129752068
 21
168.11743946935
 31
0.0
  0
LINE
  5
5B9
102
{ACAD_REACTORS
330
5A2
102
}
330
1E
100
AcDbEntity
  8
STEMPEL
100
AcDbLine
 10
216.5754994138922
 20
173.1174394693502
 30
0.0
 11
217.0129427315219
 21
168.1174394693501
 31
0.0
  0
LINE
  5
5BA
102
{ACAD_REACTORS
330
5A2
102
}
330
1E
100
AcDbEntity
  8
STEMPEL
100
AcDbLine
 10
286.5754994138922
 20
173.1174394693584
 30
0.0
 11
286.1380560962619
 21
168.1174394693501
 31
0.0
  0
LINE
  5
5BB
102
{ACAD_REACTORS
330
5A2
102
}
330
1E
100
AcDbEntity
  8
STEMPEL
100
AcDbLine
 10
288.069791461029
 20
172.9867058552287
 30
0.0
 11
287.6437858525768
 21
168.1174394693501
 31
0.0
  0
HATCH
  5
5BC
330
1E
100
AcDbEntity
  8
SCHRAFF
100
AcDbHatch
 10
0.0
 20
0.0
 30
0.0
210
0.0
220
0.0
230
1.0
  2
_USER
 70
     0
 71
     0
 91
        2
 92
        7
 72
     1
 73
     1
 93
        5
 10
209.7754994138924
 20
413.7121672552368
 42
0.0
 10
209.0823382879563
 20
414.4686198845813
 42
0.0
 10
207.6077836143361
 20
413.1174394693501
 42
0.0
 10
206.7902791111103
 20
414.0095890833826
 42
0.4436072552951912
 10
209.7754994138924
 20
410.7121672552367
 42
0.0
 97
        0
 92
        7
 72
     1
 73
     1
 93
        5
 10
296.3607197166742
 20
414.0095890833832
 42
0.0
 10
295.5432152134481
 20
413.1174394693501
 42
0.0
 10
294.0686605398279
 20
414.4686198845813
 42
0.0
 10
293.3754994138923
 20
413.712167255237
 42
0.0
 10
293.3754994138923
 20
410.7121672552371
 42
0.4436072552951932
 97
        0
 75
     0
 76
     0
 52
45.0
 41
0.1
 77
     0
 78
     1
 53
45.0
 43
31.08896478471513
 44
-36.59366315087996
 45
-0.0707106781186548
 46
0.0707106781186548
 79
     0
 47
0.1418006302582077
 98
        2
 10
208.5623145631715
 20
412.1652620753601
 10
294.8418672175502
 20
412.5906645374904
  0
LINE
  5
5BD
330
1E
100
AcDbEntity
  8
HILF
  6
Continuous
100
AcDbLine
 10
217.8217648895337
 20
309.2409118554063
 30
0.0
 11
285.3292339382541
 21
309.2409118554063
 31
0.0
  0
LINE
  5
5BE
330
1E
100
AcDbEntity
  8
HILF
  6
Continuous
100
AcDbLine
 10
216.0383709583675
 20
313.7626337791187
 30
0.0
 11
287.1126278694164
 21
313.7626337791187
 31
0.0
  0
LINE
  5
5BF
330
1E
100
AcDbEntity
  8
HILF
100
AcDbLine
 10
285.0697696575764
 20
323.11743946935
 30
0.0
 11
218.081229170207
 21
323.11743946935
 31
0.0
  0
LINE
  5
5C0
330
1E
100
AcDbEntity
  8
STEMPEL
100
AcDbLine
 10
287.5505982134626
 20
318.1161449156225
 30
0.0
 11
215.600400614321
 21
318.1161449156225
 31
0.0
  0
LINE
  5
5C1
102
{ACAD_REACTORS
330
5A3
102
}
330
1E
100
AcDbEntity
  8
STEMPEL
100
AcDbLine
 10
287.6437858525767
 20
318.11743946935
 30
0.0
 11
215.5072129752068
 21
318.11743946935
 31
0.0
  0
LINE
  5
5C2
102
{ACAD_REACTORS
330
5A2
102
}
330
1E
100
AcDbEntity
  8
STEMPEL
  6
Continuous
100
AcDbLine
 10
212.2754994138921
 20
391.6174394693506
 30
0.0
 11
212.275499413894
 21
316.5061658867676
 31
0.0
  0
LINE
  5
5C3
102
{ACAD_REACTORS
330
5A2
102
}
330
1E
100
AcDbEntity
  8
STEMPEL
  6
Continuous
100
AcDbLine
 10
213.7754994138922
 20
391.6174394693506
 30
0.0
 11
213.775499413894
 21
316.5061658867676
 31
0.0
  0
LINE
  5
5C4
102
{ACAD_REACTORS
330
5A3
102
}
330
1E
100
AcDbEntity
  8
STEMPEL
100
AcDbLine
 10
215.0754994138922
 20
323.0519480549876
 30
0.0
 11
215.5072129752068
 21
318.11743946935
 31
0.0
  0
LINE
  5
5C5
102
{ACAD_REACTORS
330
5A3
102
}
330
1E
100
AcDbEntity
  8
STEMPEL
100
AcDbLine
 10
216.575499413892
 20
323.11743946935
 30
0.0
 11
217.0129427315217
 21
318.11743946935
 31
0.0
  0
ARC
  5
5C6
102
{ACAD_REACTORS
330
5A2
102
}
330
1E
100
AcDbEntity
  8
STEMPEL
  6
Continuous
100
AcDbCircle
 10
207.0754994138944
 20
306.3002852290294
 30
0.0
 40
9.499999999999602
100
AcDbArc
 50
359.9999999999992
 51
30.68341710897484
  0
ARC
  5
5C7
102
{ACAD_REACTORS
330
5A2
102
}
330
1E
100
AcDbEntity
  8
STEMPEL
  6
Continuous
100
AcDbCircle
 10
207.0754994138944
 20
306.3002852290295
 30
0.0
 40
7.999999999999658
100
AcDbArc
 50
359.9999999999984
 51
30.68341710897484
  0
ARC
  5
5C8
102
{ACAD_REACTORS
330
5A2
102
}
330
1E
100
AcDbEntity
  8
STEMPEL
  6
Continuous
100
AcDbCircle
 10
224.275499413894
 20
316.5061658867676
 30
0.0
 40
12.0
100
AcDbArc
 50
180.0
 51
210.6834171089748
  0
ARC
  5
5C9
102
{ACAD_REACTORS
330
5A2
102
}
330
1E
100
AcDbEntity
  8
STEMPEL
  6
Continuous
100
AcDbCircle
 10
224.275499413894
 20
316.5061658867676
 30
0.0
 40
10.5
100
AcDbArc
 50
180.0
 51
210.6834171089748
  0
ARC
  5
5CA
102
{ACAD_REACTORS
330
5A2
102
}
330
1E
100
AcDbEntity
  8
STEMPEL
  6
Continuous
100
AcDbCircle
 10
234.7754994138921
 20
404.9874394693506
 30
0.0
 40
23.50009324312573
100
AcDbArc
 50
179.8435140456689
 51
201.183154393037
  0
ARC
  5
5CB
102
{ACAD_REACTORS
330
5A2
102
}
330
1E
100
AcDbEntity
  8
STEMPEL
  6
Continuous
100
AcDbCircle
 10
234.7754994138921
 20
404.9874394693506
 30
0.0
 40
25.00009324312574
100
AcDbArc
 50
179.8435140456689
 51
201.183154393037
  0
ARC
  5
5CC
102
{ACAD_REACTORS
330
5A2
102
}
330
1E
100
AcDbEntity
  8
STEMPEL
  6
Continuous
100
AcDbCircle
 10
200.2754994138921
 20
391.6174394693506
 30
0.0
 40
13.5
100
AcDbArc
 50
0.0
 51
21.18315439303776
  0
ARC
  5
5CD
102
{ACAD_REACTORS
330
5A2
102
}
330
1E
100
AcDbEntity
  8
STEMPEL
  6
Continuous
100
AcDbCircle
 10
200.2754994138921
 20
391.6174394693506
 30
0.0
 40
12.0
100
AcDbArc
 50
0.0
 51
21.18315439303776
  0
ARC
  5
5CE
330
1E
100
AcDbEntity
  8
SCHRAFF
100
AcDbCircle
 10
209.7754994138924
 20
413.7121672552367
 30
0.0
 40
3.0
100
AcDbArc
 50
174.3103148957807
 51
270.0
  0
LINE
  5
5CF
102
{ACAD_REACTORS
330
57E
102
}
330
1E
100
AcDbEntity
  8
STEMPEL
100
AcDbLine
 10
207.607783614336
 20
413.11743946935
 30
0.0
 11
209.0823382879563
 21
414.4686198845813
 31
0.0
  0
ARC
  5
5D0
330
1E
100
AcDbEntity
  8
STEMPEL
100
AcDbCircle
 10
217.5754994138895
 20
417.6174394693509
 30
0.0
 40
4.0
100
AcDbArc
 50
184.6824168622704
 51
202.0243128370452
  0
ARC
  5
5D1
330
1E
100
AcDbEntity
  8
STEMPEL
100
AcDbCircle
 10
217.5754994138895
 20
417.6174394693509
 30
0.0
 40
4.0
100
AcDbArc
 50
202.0243128370452
 51
231.3178125465766
  0
LINE
  5
5D2
330
1E
100
AcDbEntity
  8
STEMPEL
100
AcDbLine
 10
211.8471465096052
 20
415.6608125335933
 30
0.0
 11
212.2524683360509
 21
417.6000631141906
 31
0.0
  0
LINE
  5
5D3
330
1E
100
AcDbEntity
  8
STEMPEL
100
AcDbLine
 10
211.2754994138895
 20
415.6608125335933
 30
0.0
 11
214.0867158100718
 21
415.6608125335933
 31
0.0
  0
ARC
  5
5D4
330
1E
100
AcDbEntity
  8
STEMPEL
100
AcDbCircle
 10
212.9109482475642
 20
417.4035097300848
 30
0.0
 40
0.6871892218815297
100
AcDbArc
 50
350.569149099932
 51
163.3798649374571
  0
LINE
  5
5D5
102
{ACAD_REACTORS
330
5A2
102
}
330
1E
100
AcDbEntity
  8
STEMPEL
  6
Continuous
100
AcDbLine
 10
290.875499413892
 20
391.6174394693506
 30
0.0
 11
290.87549941389
 21
316.5061658867676
 31
0.0
  0
LINE
  5
5D6
102
{ACAD_REACTORS
330
5A2
102
}
330
1E
100
AcDbEntity
  8
STEMPEL
  6
Continuous
100
AcDbLine
 10
289.375499413892
 20
391.6174394693506
 30
0.0
 11
289.37549941389
 21
316.5061658867676
 31
0.0
  0
LINE
  5
5D7
102
{ACAD_REACTORS
330
5A3
102
}
330
1E
100
AcDbEntity
  8
STEMPEL
100
AcDbLine
 10
286.575499413892
 20
323.1174394693562
 30
0.0
 11
286.1380560962616
 21
318.11743946935
 31
0.0
  0
LINE
  5
5D8
102
{ACAD_REACTORS
330
5A3
102
}
330
1E
100
AcDbEntity
  8
STEMPEL
100
AcDbLine
 10
288.075499413892
 20
323.0519480549968
 30
0.0
 11
287.6437858525767
 21
318.11743946935
 31
0.0
  0
ARC
  5
5D9
102
{ACAD_REACTORS
330
5A2
102
}
330
1E
100
AcDbEntity
  8
STEMPEL
  6
Continuous
100
AcDbCircle
 10
278.87549941389
 20
316.5061658867676
 30
0.0
 40
12.0
100
AcDbArc
 50
329.3165828910252
 51
0.0
  0
ARC
  5
5DA
102
{ACAD_REACTORS
330
5A2
102
}
330
1E
100
AcDbEntity
  8
STEMPEL
  6
Continuous
100
AcDbCircle
 10
296.0754994138896
 20
306.3002852290294
 30
0.0
 40
9.499999999999602
100
AcDbArc
 50
149.3165828910251
 51
180.0000000000008
  0
ARC
  5
5DB
102
{ACAD_REACTORS
330
5A2
102
}
330
1E
100
AcDbEntity
  8
STEMPEL
  6
Continuous
100
AcDbCircle
 10
296.0754994138898
 20
306.3002852290295
 30
0.0
 40
7.999999999999658
100
AcDbArc
 50
149.3165828910251
 51
180.0000000000016
  0
ARC
  5
5DC
102
{ACAD_REACTORS
330
5A2
102
}
330
1E
100
AcDbEntity
  8
STEMPEL
  6
Continuous
100
AcDbCircle
 10
278.87549941389
 20
316.5061658867676
 30
0.0
 40
10.5
100
AcDbArc
 50
329.3165828910252
 51
0.0
  0
ARC
  5
5DD
102
{ACAD_REACTORS
330
5A2
102
}
330
1E
100
AcDbEntity
  8
STEMPEL
  6
Continuous
100
AcDbCircle
 10
268.375499413892
 20
404.9874394693506
 30
0.0
 40
23.50009324312573
100
AcDbArc
 50
338.8168456069626
 51
0.1564859543310882
  0
ARC
  5
5DE
102
{ACAD_REACTORS
330
5A2
102
}
330
1E
100
AcDbEntity
  8
STEMPEL
  6
Continuous
100
AcDbCircle
 10
268.375499413892
 20
404.9874394693506
 30
0.0
 40
25.00009324312574
100
AcDbArc
 50
338.8168456069626
 51
0.1564859543310882
  0
ARC
  5
5DF
102
{ACAD_REACTORS
330
5A2
102
}
330
1E
100
AcDbEntity
  8
STEMPEL
  6
Continuous
100
AcDbCircle
 10
302.8754994138921
 20
391.6174394693506
 30
0.0
 40
12.0
100
AcDbArc
 50
158.8168456069622
 51
180.0
  0
ARC
  5
5E0
102
{ACAD_REACTORS
330
5A2
102
}
330
1E
100
AcDbEntity
  8
STEMPEL
  6
Continuous
100
AcDbCircle
 10
302.8754994138921
 20
391.6174394693506
 30
0.0
 40
13.5
100
AcDbArc
 50
158.8168456069622
 51
180.0
  0
LINE
  5
5E1
330
1E
100
AcDbEntity
  8
STEMPEL
100
AcDbLine
 10
291.3038523181738
 20
415.6608125335933
 30
0.0
 11
290.8985304917282
 21
417.6000631141906
 31
0.0
  0
LINE
  5
5E2
330
1E
100
AcDbEntity
  8
STEMPEL
100
AcDbLine
 10
291.8754994138897
 20
415.6608125335933
 30
0.0
 11
289.0642830177073
 21
415.6608125335933
 31
0.0
  0
ARC
  5
5E3
330
1E
100
AcDbEntity
  8
STEMPEL
100
AcDbCircle
 10
285.5754994138895
 20
417.6174394693509
 30
0.0
 40
4.0
100
AcDbArc
 50
337.9756871629548
 51
355.3175831377287
  0
ARC
  5
5E4
330
1E
100
AcDbEntity
  8
STEMPEL
100
AcDbCircle
 10
290.2400505802148
 20
417.4035097300848
 30
0.0
 40
0.6871892218815297
100
AcDbArc
 50
16.62013506254284
 51
189.430850900068
  0
ARC
  5
5E5
330
1E
100
AcDbEntity
  8
STEMPEL
100
AcDbCircle
 10
285.5754994138895
 20
417.6174394693509
 30
0.0
 40
4.0
100
AcDbArc
 50
308.682187453548
 51
337.9756871629548
  0
LINE
  5
5E6
102
{ACAD_REACTORS
330
57E
102
}
330
1E
100
AcDbEntity
  8
STEMPEL
100
AcDbLine
 10
295.543215213448
 20
413.11743946935
 30
0.0
 11
294.0686605398279
 21
414.4686198845813
 31
0.0
  0
DIMENSION
  5
5E7
330
1E
100
AcDbEntity
  8
BEM
100
AcDbDimension
  2
*D6
 10
113.1946230744022
 20
578.1174394693501
 30
0.0
 11
106.6946230744021
 21
503.1174394693501
 31
0.0
 70
    32
  1
min.35 - max.200
 71
     5
 42
149.9999999999998
  3
Standard
100
AcDbAlignedDimension
 13
129.0754994138918
 23
428.1174394693501
 33
0.0
 14
129.0754994138917
 24
578.1174394693501
 34
0.0
 50
90.0
100
AcDbRotatedDimension
1001
ACAD
1000
DSTYLE
1002
{
1070
    40
1040
2.0
1070
    41
1040
3.5
1070
    42
1040
1.0
1070
    43
1040
7.0
1070
    44
1040
1.0
1070
    73
1070
     0
1070
    74
1070
     0
1070
    77
1070
     1
1070
    78
1070
     8
1070
    79
1070
     2
1070
   140
1040
3.5
1070
   141
1040
1.5
1070
   146
1040
0.5142857142857144
1070
   147
1040
1.5
1070
   172
1070
     1
1070
   178
1070
     1
1070
   179
1070
     2
1070
   271
1070
     2
1070
   272
1070
     2
1070
   284
1070
     8
1070
   285
1070
     8
1070
   286
1070
     8
1070
   340
1005
24
1002
}
  0
DIMENSION
  5
5E8
330
1E
100
AcDbEntity
  8
BEM
100
AcDbDimension
  2
*D7
 10
113.2136767489317
 20
584.11743946935
 30
0.0
 11
106.7136767489316
 21
639.1174394693504
 31
0.0
 70
    32
 71
     5
 42
110.0000000000006
  3
Standard
100
AcDbAlignedDimension
 13
171.575499413892
 23
694.1174394693507
 33
0.0
 14
139.5754994138916
 24
584.11743946935
 34
0.0
 50
90.0
100
AcDbRotatedDimension
1001
ACAD
1000
DSTYLE
1002
{
1070
    40
1040
2.0
1070
    41
1040
3.5
1070
    42
1040
1.0
1070
    43
1040
7.0
1070
    44
1040
1.0
1070
    73
1070
     0
1070
    74
1070
     0
1070
    77
1070
     1
1070
    78
1070
     8
1070
    79
1070
     2
1070
   140
1040
3.5
1070
   141
1040
1.5
1070
   146
1040
0.5142857142857144
1070
   147
1040
1.5
1070
   172
1070
     1
1070
   178
1070
     1
1070
   179
1070
     2
1070
   271
1070
     2
1070
   272
1070
     2
1070
   284
1070
     8
1070
   285
1070
     8
1070
   286
1070
     8
1070
   340
1005
24
1002
}
  0
LINE
  5
5E9
330
1E
100
AcDbEntity
  8
STEMPEL
100
AcDbLine
 10
145.0561458457648
 20
678.4362769162321
 30
0.0
 11
169.0349997387161
 21
692.4239300824176
 31
0.0
  0
LINE
  5
5EA
330
1E
100
AcDbEntity
  8
STEMPEL
100
AcDbLine
 10
144.5428047921841
 20
679.2945200293948
 30
0.0
 11
168.529107667651
 21
693.2865300400833
 31
0.0
  0
LINE
  5
5EB
102
{ACAD_REACTORS
330
57F
102
}
330
1E
100
AcDbEntity
  8
STEMPEL
100
AcDbLine
 10
197.5044316020264
 20
574.3600801564696
 30
0.0
 11
207.649019566315
 21
564.2154921921822
 31
0.0
  0
LINE
  5
5EC
102
{ACAD_REACTORS
330
5A3
330
57F
102
}
330
1E
100
AcDbEntity
  8
STEMPEL
100
AcDbLine
 10
198.9186451643995
 20
575.7742937188427
 30
0.0
 11
214.6716934916067
 21
560.0212453916376
 31
0.0
  0
LINE
  5
5ED
330
1E
100
AcDbEntity
  8
STEMPEL
100
AcDbLine
 10
139.5754994138918
 20
440.1174394693508
 30
0.0
 11
215.0754994138932
 21
440.1174394693509
 31
0.0
  0
LINE
  5
5F0
330
1E
100
AcDbEntity
  8
STEMPEL
100
AcDbLine
 10
201.5754994138918
 20
452.1174394693501
 30
0.0
 11
211.5754994138915
 21
452.1174394693501
 31
0.0
  0
LINE
  5
5F1
330
1E
100
AcDbEntity
  8
STEMPEL
100
AcDbLine
 10
210.5754994138917
 20
453.1174394693501
 30
0.0
 11
202.5754994138917
 21
453.1174394693501
 31
0.0
  0
LINE
  5
5F4
330
1E
100
AcDbEntity
  8
STEMPEL
100
AcDbLine
 10
166.5754994138918
 20
434.1174394693501
 30
0.0
 11
211.4667344887424
 21
434.11743946935
 31
0.0
  0
LINE
  5
5F7
330
1E
100
AcDbEntity
  8
STEMPEL
100
AcDbLine
 10
139.5754994138918
 20
440.1174394693508
 30
0.0
 11
215.0754994138932
 21
440.1174394693508
 31
0.0
  0
LINE
  5
5F8
102
{ACAD_REACTORS
330
57E
102
}
330
1E
100
AcDbEntity
  8
STEMPEL
100
AcDbLine
 10
129.0754994138918
 20
428.1174394693501
 30
0.0
 11
210.942459941527
 21
428.1174394693502
 31
0.0
  0
LINE
  5
5F9
330
1E
100
AcDbEntity
  8
STEMPEL
100
AcDbLine
 10
201.5754994138918
 20
602.1174394693501
 30
0.0
 11
211.5754994138915
 21
602.1174394693501
 31
0.0
  0
LINE
  5
5FA
330
1E
100
AcDbEntity
  8
STEMPEL
100
AcDbLine
 10
210.5754994138917
 20
603.1174394693501
 30
0.0
 11
202.5754994138917
 21
603.1174394693501
 31
0.0
  0
LWPOLYLINE
  5
5FF
330
1E
100
AcDbEntity
  8
STEMPEL
100
AcDbPolyline
 90
       18
 70
   128
 43
0.0
 10
-203.0327688011543
 20
616.6174394693496
 10
-203.1507498364354
 20
617.995560852974
 10
-203.500675239625
 20
619.3267519657538
 10
-204.0706287208068
 20
620.5656806909305
 10
-204.841201197763
 20
621.6701567966997
 10
-205.7861517489905
 20
622.6025686739526
 10
-206.8733012168106
 20
623.331164154514
 10
-208.0656280299888
 20
623.8311317931472
 10
-209.3225289289405
 20
624.0854457915638
 10
-210.6012016610389
 20
624.0854457915638
 10
-211.8581025599908
 20
623.8311317931472
 10
-213.050429373169
 20
623.331164154514
 10
-214.1375788409892
 20
622.6025686739526
 10
-215.0825293922167
 20
621.6701567966997
 10
-215.8531018691726
 20
620.5656806909305
 10
-216.4230553503544
 20
619.3267519657538
 10
-216.7729807535441
 20
617.995560852974
 10
-216.8909617888253
 20
616.6174394693496
210
0.0
220
0.0
230
-1.0
  0
LINE
  5
600
330
1E
100
AcDbEntity
  8
STEMPEL
100
AcDbLine
 10
201.7987009389061
 20
605.1174394693516
 30
0.0
 11
215.2898660904195
 21
605.1174394693514
 31
0.0
  0
LINE
  5
601
102
{ACAD_REACTORS
330
57E
330
CFF
102
}
330
1E
100
AcDbEntity
  8
STEMPEL
100
AcDbLine
 10
135.2930138351638
 20
426.1174394693503
 30
0.0
 11
193.0554151667574
 21
426.1174394693498
 31
0.0
  0
LINE
  5
602
330
1E
100
AcDbEntity
  8
STEMPEL
100
AcDbLine
 10
176.7850965008041
 20
422.7638860787561
 30
0.0
 11
130.4897129762647
 21
422.7638860787561
 31
0.0
  0
LINE
  5
603
330
1E
100
AcDbEntity
  8
STEMPEL
100
AcDbLine
 10
156.5754994138918
 20
452.1174394693501
 30
0.0
 11
166.5754994138916
 21
452.1174394693501
 31
0.0
  0
LINE
  5
604
330
1E
100
AcDbEntity
  8
STEMPEL
100
AcDbLine
 10
165.5754994138918
 20
453.1174394693501
 30
0.0
 11
157.5754994138918
 21
453.1174394693501
 31
0.0
  0
ARC
  5
609
102
{ACAD_REACTORS
330
57E
102
}
330
1E
100
AcDbEntity
  8
STEMPEL
100
AcDbCircle
 10
135.2930138351638
 20
422.6174394693497
 30
0.0
 40
5.499999999999851
100
AcDbArc
 50
90.0
 51
135.0000000000006
  0
ARC
  5
60A
102
{ACAD_REACTORS
330
57E
102
}
330
1E
100
AcDbEntity
  8
STEMPEL
100
AcDbCircle
 10
135.2930138351638
 20
422.6174394693497
 30
0.0
 40
3.499999999999851
100
AcDbArc
 50
90.0
 51
135.0000000000006
  0
LINE
  5
60B
330
1E
100
AcDbEntity
  8
STEMPEL
100
AcDbLine
 10
139.5754994138918
 20
434.1174394693502
 30
0.0
 11
156.5754994138918
 21
434.1174394693501
 31
0.0
  0
LINE
  5
60E
102
{ACAD_REACTORS
330
57E
102
}
330
1E
100
AcDbEntity
  8
STEMPEL
100
AcDbLine
 10
130.4897129762647
 20
422.7638860787563
 30
0.0
 11
132.8181401010107
 21
425.0923132035025
 31
0.0
  0
LINE
  5
60F
102
{ACAD_REACTORS
330
57E
102
}
330
1E
100
AcDbEntity
  8
STEMPEL
100
AcDbLine
 10
129.0754994138916
 20
424.1780996411295
 30
0.0
 11
130.4897129762645
 21
422.7638860787561
 31
0.0
  0
LINE
  5
610
102
{ACAD_REACTORS
330
57E
102
}
330
1E
100
AcDbEntity
  8
STEMPEL
100
AcDbLine
 10
129.0754994138916
 20
424.1780996411295
 30
0.0
 11
131.4039265386376
 21
426.5065267658757
 31
0.0
  0
LINE
  5
613
330
1E
100
AcDbEntity
  8
STEMPEL
100
AcDbLine
 10
157.5754994138918
 20
453.1174394693501
 30
0.0
 11
156.5754994138918
 21
452.1174394693501
 31
0.0
  0
LINE
  5
614
330
1E
100
AcDbEntity
  8
HILF
100
AcDbLine
 10
157.5754994138918
 20
453.1174394693499
 30
0.0
 11
157.5754994138919
 21
450.1174394693509
 31
0.0
  0
ARC
  5
615
330
1E
100
AcDbEntity
  8
STEMPEL
100
AcDbCircle
 10
139.5754994138918
 20
437.1174394693507
 30
0.0
 40
3.0
100
AcDbArc
 50
90.0
 51
270.0
  0
POINT
  5
616
330
1E
100
AcDbEntity
  8
BEM
100
AcDbPoint
 10
136.5754994138918
 20
437.1174394693507
 30
0.0
  0
LINE
  5
617
330
1E
100
AcDbEntity
  8
STEMPEL
100
AcDbLine
 10
155.0754994138918
 20
440.1174394693508
 30
0.0
 11
155.0754994138918
 21
434.11743946935
 31
0.0
  0
LINE
  5
618
330
1E
100
AcDbEntity
  8
STEMPEL
100
AcDbLine
 10
156.5754994138917
 20
440.1174394693508
 30
0.0
 11
156.5754994138918
 21
428.1174394693501
 31
0.0
  0
LINE
  5
619
330
1E
100
AcDbEntity
  8
HILF
100
AcDbLine
 10
157.5754994138918
 20
440.1174394693508
 30
0.0
 11
157.5754994138918
 21
428.1174394693501
 31
0.0
  0
LINE
  5
620
330
1E
100
AcDbEntity
  8
STEMPEL
100
AcDbLine
 10
156.5754994138918
 20
452.1174394693501
 30
0.0
 11
156.5754994138918
 21
450.1174394693508
 31
0.0
  0
LINE
  5
621
330
1E
100
AcDbEntity
  8
STEMPEL
100
AcDbLine
 10
166.5754994138918
 20
452.1174394693501
 30
0.0
 11
165.5754994138918
 21
453.1174394693501
 31
0.0
  0
LINE
  5
622
102
{ACAD_REACTORS
330
57E
102
}
330
1E
100
AcDbEntity
  8
MITTEL
100
AcDbLine
 10
161.5754994138918
 20
458.1174394693501
 30
0.0
 11
161.5754994138918
 21
423.1174394693499
 31
0.0
  0
LINE
  5
623
330
1E
100
AcDbEntity
  8
HILF
100
AcDbLine
 10
165.5754994138918
 20
453.1174394693501
 30
0.0
 11
165.5754994138919
 21
450.1174394693509
 31
0.0
  0
LINE
  5
626
330
1E
100
AcDbEntity
  8
STEMPEL
100
AcDbLine
 10
168.0754994138918
 20
440.1174394693508
 30
0.0
 11
168.0754994138918
 21
434.11743946935
 31
0.0
  0
LINE
  5
627
330
1E
100
AcDbEntity
  8
HILF
100
AcDbLine
 10
165.5754994138918
 20
440.1174394693508
 30
0.0
 11
165.5754994138918
 21
428.11743946935
 31
0.0
  0
LINE
  5
628
330
1E
100
AcDbEntity
  8
STEMPEL
100
AcDbLine
 10
166.5754994138918
 20
440.1174394693508
 30
0.0
 11
166.5754994138918
 21
428.11743946935
 31
0.0
  0
LINE
  5
62B
330
1E
100
AcDbEntity
  8
STEMPEL
100
AcDbLine
 10
166.5754994138918
 20
452.1174394693499
 30
0.0
 11
166.575499413892
 21
450.1174394693509
 31
0.0
  0
LINE
  5
62E
330
1E
100
AcDbEntity
  8
STEMPEL
100
AcDbLine
 10
202.5754994138917
 20
453.1174394693501
 30
0.0
 11
201.5754994138918
 21
452.1174394693501
 31
0.0
  0
LINE
  5
62F
330
1E
100
AcDbEntity
  8
HILF
100
AcDbLine
 10
202.5754994138917
 20
453.1174394693499
 30
0.0
 11
202.5754994138919
 21
450.1174394693509
 31
0.0
  0
ARC
  5
630
330
1E
100
AcDbEntity
  8
STEMPEL
100
AcDbCircle
 10
186.0754994138921
 20
437.117439469351
 30
0.0
 40
3.0
100
AcDbArc
 50
270.0
 51
90.0
  0
ARC
  5
633
102
{ACAD_REACTORS
330
57E
102
}
330
1E
100
AcDbEntity
  8
STEMPEL
100
AcDbCircle
 10
193.0554151667573
 20
420.11743946935
 30
0.0
 40
8.0
100
AcDbArc
 50
42.50000000000558
 51
90.0
  0
ARC
  5
634
102
{ACAD_REACTORS
330
57E
102
}
330
1E
100
AcDbEntity
  8
STEMPEL
100
AcDbCircle
 10
193.0554151667573
 20
420.11743946935
 30
0.0
 40
6.0
100
AcDbArc
 50
42.50000000000558
 51
90.0
  0
LINE
  5
63B
330
1E
100
AcDbEntity
  8
STEMPEL
100
AcDbLine
 10
201.5754994138918
 20
452.1174394693501
 30
0.0
 11
201.5754994138918
 21
450.1174394693509
 31
0.0
  0
LINE
  5
63D
102
{ACAD_REACTORS
330
57F
102
}
330
1E
100
AcDbEntity
  8
STEMPEL
100
AcDbLine
 10
135.2930138351637
 20
576.11743946935
 30
0.0
 11
193.2617909149071
 21
576.1174394693496
 31
0.0
  0
LINE
  5
63E
330
1E
100
AcDbEntity
  8
STEMPEL
100
AcDbLine
 10
199.1006256797395
 20
572.7638860787561
 30
0.0
 11
130.4897129762646
 21
572.7638860787561
 31
0.0
  0
LWPOLYLINE
  5
63F
330
1E
100
AcDbEntity
  8
STEMPEL
100
AcDbPolyline
 90
        8
 70
   128
 43
0.0
 10
157.3036373679547
 20
604.1174394693505
 10
158.5573713835176
 20
604.9212870466442
 10
159.1804545575639
 20
605.5211728106369
 10
159.7183111626755
 20
606.2607138112316
 10
160.1545986980743
 20
607.1174394693509
 10
160.4760607877697
 20
608.0653186093971
 10
160.6729299688336
 20
609.0755504033495
 10
160.7392244708205
 20
610.1174394693511
  0
LINE
  5
644
330
1E
100
AcDbEntity
  8
STEMPEL
100
AcDbLine
 10
165.575499413892
 20
603.1174394693501
 30
0.0
 11
157.5754994138919
 21
603.1174394693501
 31
0.0
  0
LINE
  5
645
330
1E
100
AcDbEntity
  8
STEMPEL
100
AcDbLine
 10
156.5754994138919
 20
602.1174394693501
 30
0.0
 11
166.5754994138917
 21
602.1174394693501
 31
0.0
  0
LWPOLYLINE
  5
646
330
1E
100
AcDbEntity
  8
STEMPEL
100
AcDbPolyline
 90
        9
 70
   128
 43
0.0
 10
-150.648272376148
 20
624.0191977140145
 10
-151.1373329194166
 20
623.6927648162573
 10
-151.5969458873176
 20
623.147495803
 10
-152.0128956909418
 20
622.400255559872
 10
-152.3723172202335
 20
621.4741558370945
 10
-152.664093755121
 20
620.3978404151241
 10
-152.879200799859
 20
619.2045991674933
 10
-153.0109852059665
 20
617.9313384224173
 10
-153.0553709506314
 20
616.6174394693512
210
0.0
220
0.0
230
-1.0
  0
LWPOLYLINE
  5
647
330
1E
100
AcDbEntity
  8
STEMPEL
100
AcDbPolyline
 90
        7
 70
   128
 43
0.0
 10
-143.2672437398084
 20
623.0794935251893
 10
-143.4050727493786
 20
622.3273872882507
 10
-143.5239370263448
 20
621.404673677536
 10
-143.6202850282461
 20
620.3389224276318
 10
-143.6912379757843
 20
619.1619770908107
 10
-143.7346758677922
 20
617.9090035844088
 10
-143.7493008246897
 20
616.6174394693496
210
0.0
220
0.0
230
-1.0
  0
LWPOLYLINE
  5
648
330
1E
100
AcDbEntity
  8
STEMPEL
100
AcDbPolyline
 90
       18
 70
   128
 43
0.0
 10
-142.7851866549272
 20
616.6174394693496
 10
-142.801855078404
 20
617.995560852974
 10
-142.8512927256645
 20
619.3267519657538
 10
-142.9318160569248
 20
620.5656806909305
 10
-143.0406829467165
 20
621.6701567966997
 10
-143.1741860636789
 20
622.6025686739526
 10
-143.3277791192829
 20
623.331164154514
 10
-143.496231686235
 20
623.8311317931472
 10
-143.673807314404
 20
624.0854457915638
 10
-143.8544588787511
 20
624.0854457915638
 10
-144.0320345069199
 20
623.8311317931472
 10
-144.2004870738719
 20
623.331164154514
 10
-144.3540801294762
 20
622.6025686739526
 10
-144.4875832464383
 20
621.6701567966997
 10
-144.59645013623
 20
620.5656806909305
 10
-144.6769734674906
 20
619.3267519657538
 10
-144.726411114751
 20
617.995560852974
 10
-144.7430795382276
 20
616.6174394693496
210
0.0
220
0.0
230
-1.0
  0
LWPOLYLINE
  5
649
330
1E
100
AcDbEntity
  8
STEMPEL
100
AcDbPolyline
 90
       18
 70
   128
 43
0.0
 10
-148.241173801661
 20
616.6174394693496
 10
-148.2900431465773
 20
617.995560852974
 10
-148.4349869943974
 20
619.3267519657538
 10
-148.6710694562246
 20
620.5656806909305
 10
-148.9902510269715
 20
621.6701567966997
 10
-149.3816623610617
 20
622.6025686739526
 10
-149.8319744149596
 20
623.331164154514
 10
-150.325852351759
 20
623.8311317931472
 10
-150.846477750664
 20
624.0854457915638
 10
-151.3761213381358
 20
624.0854457915638
 10
-151.8967467370407
 20
623.8311317931472
 10
-152.3906246738402
 20
623.331164154514
 10
-152.8409367277381
 20
622.6025686739526
 10
-153.2323480618286
 20
621.6701567966997
 10
-153.5515296325752
 20
620.5656806909305
 10
-153.7876120944024
 20
619.3267519657538
 10
-153.9325559422225
 20
617.995560852974
 10
-153.9814252871388
 20
616.6174394693496
210
0.0
220
0.0
230
-1.0
  0
LINE
  5
64A
330
1E
100
AcDbEntity
  8
STEMPEL
100
AcDbLine
 10
142.575499413892
 20
674.1173815020358
 30
0.0
 11
142.575499413892
 21
610.1174394693516
 31
0.0
  0
LINE
  5
64B
330
1E
100
AcDbEntity
  8
STEMPEL
100
AcDbLine
 10
141.575499413892
 20
674.1173815020358
 30
0.0
 11
141.575499413892
 21
610.1174394693516
 31
0.0
  0
ARC
  5
64C
102
{ACAD_REACTORS
330
57F
102
}
330
1E
100
AcDbEntity
  8
STEMPEL
100
AcDbCircle
 10
135.2930138351637
 20
572.6174394693495
 30
0.0
 40
5.499999999999851
100
AcDbArc
 50
90.0
 51
135.0000000000003
  0
ARC
  5
64D
102
{ACAD_REACTORS
330
57F
102
}
330
1E
100
AcDbEntity
  8
STEMPEL
100
AcDbCircle
 10
135.2930138351637
 20
572.6174394693495
 30
0.0
 40
3.499999999999851
100
AcDbArc
 50
90.0
 51
135.0000000000003
  0
LINE
  5
64F
102
{ACAD_REACTORS
330
DA8
102
}
330
1E
100
AcDbEntity
  8
STEMPEL
100
AcDbLine
 10
129.0754994138917
 20
581.1174394693501
 30
0.0
 11
156.5754994138919
 21
581.1174394693501
 31
0.0
  0
LINE
  5
650
102
{ACAD_REACTORS
330
587
102
}
330
1E
100
AcDbEntity
  8
STEMPEL
100
AcDbLine
 10
139.5754994138916
 20
584.11743946935
 30
0.0
 11
156.5754994138919
 21
584.11743946935
 31
0.0
  0
LINE
  5
651
330
1E
100
AcDbEntity
  8
STEMPEL
100
AcDbLine
 10
121.575499413892
 20
605.1174394693514
 30
0.0
 11
136.5754994138922
 21
605.1174394693516
 31
0.0
  0
LINE
  5
653
102
{ACAD_REACTORS
330
57F
102
}
330
1E
100
AcDbEntity
  8
STEMPEL
100
AcDbLine
 10
130.4897129762646
 20
572.7638860787562
 30
0.0
 11
132.8181401010106
 21
575.0923132035024
 31
0.0
  0
LINE
  5
654
102
{ACAD_REACTORS
330
57F
102
}
330
1E
100
AcDbEntity
  8
STEMPEL
100
AcDbLine
 10
129.0754994138915
 20
574.1780996411294
 30
0.0
 11
130.4897129762644
 21
572.7638860787561
 31
0.0
  0
LINE
  5
655
102
{ACAD_REACTORS
330
57F
102
}
330
1E
100
AcDbEntity
  8
STEMPEL
100
AcDbLine
 10
129.0754994138915
 20
574.1780996411294
 30
0.0
 11
131.4039265386375
 21
576.5065267658756
 31
0.0
  0
LINE
  5
656
102
{ACAD_REACTORS
330
DA8
102
}
330
1E
100
AcDbEntity
  8
STEMPEL
100
AcDbLine
 10
129.0754994138917
 20
581.1174394693501
 30
0.0
 11
129.0754994138917
 21
578.1174394693501
 31
0.0
  0
LINE
  5
657
330
1E
100
AcDbEntity
  8
STEMPEL
100
AcDbLine
 10
121.5754994138917
 20
605.1174394693516
 30
0.0
 11
121.5754994138917
 21
604.1174394693514
 31
0.0
  0
LINE
  5
658
330
1E
100
AcDbEntity
  8
STEMPEL
100
AcDbLine
 10
156.5754994138919
 20
590.1174394693505
 30
0.0
 11
156.5754994138919
 21
578.1174394693501
 31
0.0
  0
LINE
  5
659
330
1E
100
AcDbEntity
  8
HILF
100
AcDbLine
 10
157.5754994138919
 20
590.1174394693505
 30
0.0
 11
157.5754994138919
 21
578.1174394693501
 31
0.0
  0
LINE
  5
65A
102
{ACAD_REACTORS
330
587
102
}
330
1E
100
AcDbEntity
  8
STEMPEL
100
AcDbLine
 10
155.0754994138917
 20
590.1174394693507
 30
0.0
 11
155.0754994138917
 21
584.11743946935
 31
0.0
  0
LINE
  5
65B
102
{ACAD_REACTORS
330
DA8
102
}
330
1E
100
AcDbEntity
  8
STEMPEL
100
AcDbLine
 10
155.0754994138917
 20
581.1174394693501
 30
0.0
 11
155.0754994138917
 21
578.1174394693501
 31
0.0
  0
LWPOLYLINE
  5
65C
330
1E
100
AcDbEntity
  8
STEMPEL
100
AcDbPolyline
 90
       10
 70
   128
 43
0.0
 10
143.4258092750872
 20
604.1174394693514
 10
144.2619885499286
 20
604.2085929512782
 10
145.0727609406312
 20
604.4792837446359
 10
145.8334915383741
 20
604.9212870466447
 10
146.521065928893
 20
605.5211728106375
 10
147.1145925122614
 20
606.2607138112323
 10
147.5960372835825
 20
607.1174394693517
 10
147.9507717871029
 20
608.0653186093975
 10
148.168017594437
 20
609.0755504033502
 10
148.241173801661
 20
610.1174394693519
  0
LINE
  5
65D
330
1E
100
AcDbEntity
  8
STEMPEL
100
AcDbLine
 10
146.0876021689926
 20
605.1174394693514
 30
0.0
 11
150.9017993179639
 21
605.1174394693514
 31
0.0
  0
LINE
  5
65E
330
1E
100
AcDbEntity
  8
STEMPEL
100
AcDbLine
 10
143.7649459580243
 20
604.1174394693519
 30
0.0
 11
155.5754994138917
 21
604.1174394693509
 31
0.0
  0
LINE
  5
65F
330
1E
100
AcDbEntity
  8
STEMPEL
100
AcDbLine
 10
143.7649459580243
 20
604.1174394693519
 30
0.0
 11
143.6063272092331
 21
595.0301774371657
 31
0.0
  0
POINT
  5
660
330
1E
100
AcDbEntity
  8
BEM
100
AcDbPoint
 10
136.5754994138917
 20
587.1174394693505
 30
0.0
  0
ARC
  5
661
102
{ACAD_REACTORS
330
587
102
}
330
1E
100
AcDbEntity
  8
STEMPEL
100
AcDbCircle
 10
139.5754994138916
 20
587.1174394693505
 30
0.0
 40
2.999999999999943
100
AcDbArc
 50
90.0
 51
270.0
  0
LWPOLYLINE
  5
662
330
1E
100
AcDbEntity
  8
STEMPEL
100
AcDbPolyline
 90
       10
 70
   128
 43
0.0
 10
141.9717570905636
 20
590.1174394693505
 10
142.2555972129394
 20
590.1920749979439
 10
142.5308129968268
 20
590.413713820955
 10
142.7890421498984
 20
590.7756215549013
 10
143.0224385100082
 20
591.266801816421
 10
143.2239104468588
 20
591.8723303418171
 10
143.3873363375983
 20
592.5738084532574
 10
143.5077505692345
 20
593.3499220932913
 10
143.5814944162714
 20
594.1770894416984
 10
143.6063272092331
 20
595.0301774371644
  0
LINE
  5
663
330
1E
100
AcDbEntity
  8
STEMPEL
100
AcDbLine
 10
140.1647274712566
 20
605.1174394693514
 30
0.0
 11
141.1288416410193
 21
605.1174394693514
 31
0.0
  0
ARC
  5
664
330
1E
100
AcDbEntity
  8
STEMPEL
100
AcDbCircle
 10
136.5754994138919
 20
610.1174394693519
 30
0.0
 40
6.0
100
AcDbArc
 50
270.0
 51
0.0
  0
ARC
  5
665
330
1E
100
AcDbEntity
  8
STEMPEL
100
AcDbCircle
 10
136.5754994138919
 20
610.1174394693519
 30
0.0
 40
5.0
100
AcDbArc
 50
270.0
 51
0.0
  0
LWPOLYLINE
  5
666
330
1E
100
AcDbEntity
  8
STEMPEL
100
AcDbPolyline
 90
       10
 70
   128
 43
0.0
 10
137.2791979238964
 20
604.1174394693525
 10
138.1372709201691
 20
604.1835666839252
 10
138.9900831197915
 20
604.4361204336553
 10
139.8108414267085
 20
604.8671661499729
 10
140.5737597931074
 20
605.4631615204128
 10
141.2548693486067
 20
606.2053819521334
 10
141.8327714385523
 20
607.070508848931
 10
142.2893099129585
 20
608.031362219647
 10
142.6101415445562
 20
609.0577546013592
 10
142.7851866549272
 20
610.1174394693519
  0
LWPOLYLINE
  5
667
330
1E
100
AcDbEntity
  8
STEMPEL
100
AcDbPolyline
 90
       10
 70
   128
 43
0.0
 10
139.2370908071968
 20
604.1174394693514
 10
140.0951638034696
 20
604.183566683924
 10
140.947976003092
 20
604.4361204336541
 10
141.768734310009
 20
604.8671661499717
 10
142.5316526764079
 20
605.4631615204116
 10
143.2127622319072
 20
606.2053819521322
 10
143.7906643218527
 20
607.0705088489298
 10
144.247202796259
 20
608.0313622196459
 10
144.5680344278567
 20
609.057754601358
 10
144.7430795382276
 20
610.1174394693507
  0
LWPOLYLINE
  5
668
330
1E
100
AcDbEntity
  8
STEMPEL
100
AcDbPolyline
 90
        7
 70
   128
 43
0.0
 10
141.1288416410191
 20
605.1174394693519
 10
141.8055435160965
 20
605.7270401972109
 10
142.4050929397303
 20
606.4545992811225
 10
142.9113816128801
 20
607.2805691428027
 10
143.3108069049256
 20
608.1827581680059
 10
143.5926373201885
 20
609.1369269361994
 10
143.7493008246899
 20
610.1174394693519
  0
LINE
  5
669
330
1E
100
AcDbEntity
  8
STEMPEL
100
AcDbLine
 10
144.7430795382276
 20
616.6174394693496
 30
0.0
 11
144.7430795382276
 21
610.1174394693507
 31
0.0
  0
LINE
  5
66A
330
1E
100
AcDbEntity
  8
STEMPEL
100
AcDbLine
 10
143.7493008246899
 20
616.6174394693496
 30
0.0
 11
143.7493008246899
 21
610.1174394693519
 31
0.0
  0
LINE
  5
66B
330
1E
100
AcDbEntity
  8
STEMPEL
100
AcDbLine
 10
142.7851866549272
 20
616.6174394693496
 30
0.0
 11
142.7851866549272
 21
610.1174394693519
 31
0.0
  0
LINE
  5
66C
330
1E
100
AcDbEntity
  8
HILF
100
AcDbLine
 10
157.5754994138919
 20
603.1174394693498
 30
0.0
 11
157.575499413892
 21
600.1174394693505
 31
0.0
  0
LINE
  5
66D
330
1E
100
AcDbEntity
  8
STEMPEL
100
AcDbLine
 10
156.5754994138919
 20
602.1174394693501
 30
0.0
 11
156.575499413892
 21
600.1174394693505
 31
0.0
  0
LINE
  5
66E
330
1E
100
AcDbEntity
  8
MITTEL
100
AcDbLine
 10
154.7863918983616
 20
616.7174394693516
 30
0.0
 11
154.7863918983616
 21
588.1174394693505
 31
0.0
  0
LWPOLYLINE
  5
677
330
1E
100
AcDbEntity
  8
STEMPEL
100
AcDbPolyline
 90
        7
 70
   128
 43
0.0
 10
150.9017993179629
 20
605.1174394693514
 10
151.5218898410273
 20
605.7267773711921
 10
152.0537099878106
 20
606.4542076444813
 10
152.4829557875419
 20
607.2801651384252
 10
152.7980821353392
 20
608.1824346888875
 10
152.9906133123052
 20
609.1367486231306
 10
153.0553709506314
 20
610.1174394693519
  0
LWPOLYLINE
  5
678
330
1E
100
AcDbEntity
  8
STEMPEL
100
AcDbPolyline
 90
       10
 70
   128
 43
0.0
 10
149.1660607605649
 20
604.1174394693514
 10
150.0022400354064
 20
604.2085929512782
 10
150.813012426109
 20
604.4792837446359
 10
151.5737430238518
 20
604.9212870466447
 10
152.2613174143707
 20
605.5211728106375
 10
152.8548439977392
 20
606.2607138112323
 10
153.3362887690602
 20
607.1174394693517
 10
153.6910232725806
 20
608.0653186093975
 10
153.9082690799148
 20
609.0755504033502
 10
153.9814252871388
 20
610.1174394693519
  0
LINE
  5
67C
330
1E
100
AcDbEntity
  8
STEMPEL
100
AcDbLine
 10
150.9017993179633
 20
605.1174394693516
 30
0.0
 11
148.7863918983616
 21
605.1174394693519
 31
0.0
  0
LINE
  5
67D
330
1E
100
AcDbEntity
  8
STEMPEL
100
AcDbLine
 10
148.241173801661
 20
616.6174394693496
 30
0.0
 11
148.241173801661
 21
610.117439469353
 31
0.0
  0
LINE
  5
67E
330
1E
100
AcDbEntity
  8
STEMPEL
100
AcDbLine
 10
156.6091112144779
 20
604.1174394693505
 30
0.0
 11
156.6091112144779
 21
602.1510512699355
 31
0.0
  0
LINE
  5
67F
330
1E
100
AcDbEntity
  8
STEMPEL
100
AcDbLine
 10
157.5754994138919
 20
603.1174394693501
 30
0.0
 11
156.5754994138919
 21
602.1174394693501
 31
0.0
  0
LINE
  5
682
330
1E
100
AcDbEntity
  8
STEMPEL
100
AcDbLine
 10
153.0553709506316
 20
616.6174394693496
 30
0.0
 11
153.0553709506316
 21
610.117439469353
 31
0.0
  0
LINE
  5
683
330
1E
100
AcDbEntity
  8
STEMPEL
100
AcDbLine
 10
153.9814252871388
 20
616.6174394693496
 30
0.0
 11
153.9814252871388
 21
610.117439469353
 31
0.0
  0
ARC
  5
684
330
1E
100
AcDbEntity
  8
STEMPEL
100
AcDbCircle
 10
142.0643558095803
 20
683.6372764518132
 30
0.0
 40
5.0
100
AcDbArc
 50
300.0670458384834
 51
300.2564371635278
  0
ARC
  5
685
330
1E
100
AcDbEntity
  8
STEMPEL
100
AcDbCircle
 10
147.575499413892
 20
674.1173815020358
 30
0.0
 40
5.0
100
AcDbArc
 50
120.256416474818
 51
180.0
  0
ARC
  5
686
330
1E
100
AcDbEntity
  8
STEMPEL
100
AcDbCircle
 10
147.575499413892
 20
674.1173815020358
 30
0.0
 40
6.0
100
AcDbArc
 50
120.256416474818
 51
180.0
  0
LWPOLYLINE
  5
687
330
1E
100
AcDbEntity
  8
STEMPEL
100
AcDbPolyline
 90
        9
 70
   128
 43
0.0
 10
-185.072669991569
 20
624.1075735471731
 10
-186.1890777129401
 20
623.9002664107661
 10
-187.2543569646825
 20
623.4310116833123
 10
-188.2301919477209
 20
622.7166874461438
 10
-189.0814839805787
 20
621.7829864027473
 10
-189.7776139233151
 20
620.6634917675869
 10
-190.2935434820065
 20
619.3984693502482
 10
-190.6107157822225
 20
618.033419281039
 10
-190.7177228198106
 20
616.6174394693512
210
0.0
220
0.0
230
-1.0
  0
LWPOLYLINE
  5
688
330
1E
100
AcDbEntity
  8
STEMPEL
100
AcDbPolyline
 90
       18
 70
   128
 43
0.0
 10
-179.4276171633041
 20
616.6174394693496
 10
-179.5289297751085
 20
617.995560852974
 10
-179.8294175310377
 20
619.3267519657538
 10
-180.3188476809589
 20
620.5656806909305
 10
-180.9805532681232
 20
621.6701567966997
 10
-181.7920007023883
 20
622.6025686739526
 10
-182.725557114604
 20
623.331164154514
 10
-183.7494313608301
 20
623.8311317931472
 10
-184.828756631613
 20
624.0854457915638
 10
-185.9267777993641
 20
624.0854457915638
 10
-187.0061030701467
 20
623.8311317931472
 10
-188.0299773163729
 20
623.331164154514
 10
-188.9635337285886
 20
622.6025686739526
 10
-189.7749811628537
 20
621.6701567966997
 10
-190.4366867500182
 20
620.5656806909305
 10
-190.9261168999394
 20
619.3267519657538
 10
-191.2266046558686
 20
617.995560852974
 10
-191.327917267673
 20
616.6174394693496
210
0.0
220
0.0
230
-1.0
  0
LWPOLYLINE
  5
689
330
1E
100
AcDbEntity
  8
STEMPEL
100
AcDbPolyline
 90
       18
 70
   128
 43
0.0
 10
-160.7392244708208
 20
616.6174394693496
 10
-160.8169643720807
 20
617.995560852974
 10
-161.0475367367626
 20
619.3267519657538
 10
-161.4230896995277
 20
620.5656806909305
 10
-161.9308342546555
 20
621.6701567966997
 10
-162.5534797702935
 20
622.6025686739526
 10
-163.2698228001875
 20
623.331164154514
 10
-164.0554691416134
 20
623.8311317931472
 10
-164.8836645506928
 20
624.0854457915638
 10
-165.7262058260805
 20
624.0854457915638
 10
-166.5544012351599
 20
623.8311317931472
 10
-167.3400475765859
 20
623.331164154514
 10
-168.0563906064799
 20
622.6025686739526
 10
-168.6790361221178
 20
621.6701567966997
 10
-169.1867806772454
 20
620.5656806909305
 10
-169.5623336400106
 20
619.3267519657538
 10
-169.7929060046924
 20
617.995560852974
 10
-169.8706459059526
 20
616.6174394693496
210
0.0
220
0.0
230
-1.0
  0
LWPOLYLINE
  5
68A
330
1E
100
AcDbEntity
  8
STEMPEL
100
AcDbPolyline
 90
       10
 70
   128
 43
0.0
 10
-164.5097143015657
 20
624.1174394693528
 10
-165.3025416474254
 20
624.0034976169442
 10
-166.071279335571
 20
623.6651341252468
 10
-166.7925696603486
 20
623.1126299977359
 10
-167.4444965802301
 20
622.3627727927446
 10
-168.0072516256457
 20
621.4383465420012
 10
-168.4637357693086
 20
620.3674394693519
 10
-168.8000789715054
 20
619.1825905442942
 10
-169.0060616142354
 20
617.9198008018533
 10
-169.0754250191316
 20
616.6174394693512
210
0.0
220
0.0
230
-1.0
  0
LINE
  5
68B
330
1E
100
AcDbEntity
  8
STEMPEL
100
AcDbLine
 10
177.7895940871988
 20
605.1174394693514
 30
0.0
 11
189.079699743706
 21
605.1174394693514
 31
0.0
  0
LINE
  5
68C
330
1E
100
AcDbEntity
  8
STEMPEL
100
AcDbLine
 10
166.575499413892
 20
590.1174394693505
 30
0.0
 11
166.575499413892
 21
578.1174394693498
 31
0.0
  0
LINE
  5
68D
330
1E
100
AcDbEntity
  8
HILF
100
AcDbLine
 10
165.575499413892
 20
590.1174394693507
 30
0.0
 11
165.575499413892
 21
578.1174394693498
 31
0.0
  0
LINE
  5
68E
102
{ACAD_REACTORS
330
587
102
}
330
1E
100
AcDbEntity
  8
STEMPEL
100
AcDbLine
 10
168.0754994138918
 20
590.1174394693507
 30
0.0
 11
168.0754994138918
 21
584.1174394693502
 31
0.0
  0
LINE
  5
68F
102
{ACAD_REACTORS
330
57F
102
}
330
1E
100
AcDbEntity
  8
MITTEL
100
AcDbLine
 10
161.5754994138919
 20
608.1174394693498
 30
0.0
 11
161.5754994138919
 21
573.1174394693495
 31
0.0
  0
LINE
  5
690
102
{ACAD_REACTORS
330
DA8
102
}
330
1E
100
AcDbEntity
  8
STEMPEL
100
AcDbLine
 10
168.0754994138918
 20
581.1174394693501
 30
0.0
 11
168.0754994138918
 21
578.1174394693501
 31
0.0
  0
LWPOLYLINE
  5
693
330
1E
100
AcDbEntity
  8
STEMPEL
100
AcDbPolyline
 90
        8
 70
   128
 43
0.0
 10
166.4350588030865
 20
604.1174394693512
 10
167.6887928186495
 20
604.9212870466447
 10
168.3118759926958
 20
605.5211728106375
 10
168.8497325978073
 20
606.2607138112323
 10
169.2860201332062
 20
607.1174394693517
 10
169.6074822229016
 20
608.0653186093975
 10
169.8043514039655
 20
609.0755504033502
 10
169.8706459059524
 20
610.1174394693519
  0
LINE
  5
694
330
1E
100
AcDbEntity
  8
HILF
100
AcDbLine
 10
165.575499413892
 20
603.1174394693501
 30
0.0
 11
165.575499413892
 21
600.1174394693505
 31
0.0
  0
LINE
  5
695
330
1E
100
AcDbEntity
  8
STEMPEL
100
AcDbLine
 10
166.575499413892
 20
602.1174394693498
 30
0.0
 11
166.575499413892
 21
600.1174394693505
 31
0.0
  0
LINE
  5
697
330
1E
100
AcDbEntity
  8
STEMPEL
100
AcDbLine
 10
158.7611089640259
 20
605.1174394693514
 30
0.0
 11
167.1238481906134
 21
605.1174394693514
 31
0.0
  0
LINE
  5
698
330
1E
100
AcDbEntity
  8
STEMPEL
100
AcDbLine
 10
160.7392244708205
 20
616.6174394693496
 30
0.0
 11
160.7392244708205
 21
610.117439469353
 31
0.0
  0
LINE
  5
699
330
1E
100
AcDbEntity
  8
STEMPEL
100
AcDbLine
 10
165.9956898899311
 20
604.1174394693496
 30
0.0
 11
166.020919796559
 21
602.6720190866824
 31
0.0
  0
LINE
  5
69A
330
1E
100
AcDbEntity
  8
STEMPEL
100
AcDbLine
 10
166.575499413892
 20
602.1174394693501
 30
0.0
 11
165.575499413892
 21
603.1174394693501
 31
0.0
  0
LWPOLYLINE
  5
69B
330
1E
100
AcDbEntity
  8
STEMPEL
100
AcDbPolyline
 90
        7
 70
   128
 43
0.0
 10
167.1238481906134
 20
605.1174394693514
 10
167.6857771638774
 20
605.7267773711921
 10
168.1677151034646
 20
606.4542076444816
 10
168.5566996832144
 20
607.2801651384252
 10
168.8422686743211
 20
608.1824346888875
 10
169.0167413401168
 20
609.1367486231306
 10
169.0754250191319
 20
610.1174394693519
  0
LINE
  5
69C
330
1E
100
AcDbEntity
  8
STEMPEL
100
AcDbLine
 10
169.0754250191316
 20
616.6174394693496
 30
0.0
 11
169.0754250191316
 21
610.117439469353
 31
0.0
  0
LINE
  5
69F
330
1E
100
AcDbEntity
  8
STEMPEL
100
AcDbLine
 10
169.8706459059524
 20
616.6174394693496
 30
0.0
 11
169.8706459059524
 21
610.117439469353
 31
0.0
  0
LWPOLYLINE
  5
6A0
330
1E
100
AcDbEntity
  8
STEMPEL
100
AcDbPolyline
 90
       10
 70
   128
 43
0.0
 10
175.7650140277801
 20
604.1174394693514
 10
176.401018387781
 20
604.2085929512782
 10
177.0176980771371
 20
604.4792837446359
 10
177.5963155955421
 20
604.9212870466447
 10
178.1192899424941
 20
605.5211728106375
 10
178.5707308070984
 20
606.2607138112323
 10
178.9369213871245
 20
607.1174394693517
 10
179.2067351670994
 20
608.0653186093975
 10
179.371973991851
 20
609.0755504033502
 10
179.4276171633041
 20
610.1174394693519
  0
LINE
  5
6A1
330
1E
100
AcDbEntity
  8
STEMPEL
100
AcDbLine
 10
179.4276171633041
 20
616.6174394693496
 30
0.0
 11
179.4276171633041
 21
610.117439469353
 31
0.0
  0
LINE
  5
6A3
102
{ACAD_REACTORS
330
DA8
102
}
330
1E
100
AcDbEntity
  8
STEMPEL
100
AcDbLine
 10
189.0754994138917
 20
581.1174394693501
 30
0.0
 11
189.0754994138917
 21
578.1174394693498
 31
0.0
  0
ARC
  5
6A4
102
{ACAD_REACTORS
330
57F
102
}
330
1E
100
AcDbEntity
  8
STEMPEL
100
AcDbCircle
 10
193.2617909149073
 20
570.11743946935
 30
0.0
 40
8.0
100
AcDbArc
 50
44.99999999999971
 51
90.0
  0
ARC
  5
6A5
102
{ACAD_REACTORS
330
57F
102
}
330
1E
100
AcDbEntity
  8
STEMPEL
100
AcDbCircle
 10
193.2617909149073
 20
570.11743946935
 30
0.0
 40
6.0
100
AcDbArc
 50
44.99999999999971
 51
90.0
  0
LINE
  5
6A6
330
1E
100
AcDbEntity
  8
HILF
100
AcDbLine
 10
202.5754994138921
 20
584.11743946935
 30
0.0
 11
202.5754994138919
 21
581.1174394693501
 31
0.0
  0
LINE
  5
6A7
330
1E
100
AcDbEntity
  8
STEMPEL
100
AcDbLine
 10
201.575499413892
 20
584.11743946935
 30
0.0
 11
201.575499413892
 21
581.1174394693501
 31
0.0
  0
ARC
  5
6A8
102
{ACAD_REACTORS
330
587
102
}
330
1E
100
AcDbEntity
  8
STEMPEL
100
AcDbCircle
 10
186.0754994138915
 20
587.1174394693505
 30
0.0
 40
3.000000000000397
100
AcDbArc
 50
270.0000000000065
 51
89.99999999999349
  0
LWPOLYLINE
  5
6A9
330
1E
100
AcDbEntity
  8
STEMPEL
100
AcDbPolyline
 90
       10
 70
   128
 43
0.0
 10
187.6653141321489
 20
604.1174394693514
 10
188.3013184921499
 20
604.2085929512782
 10
188.9179981815059
 20
604.4792837446359
 10
189.496615699911
 20
604.9212870466447
 10
190.0195900468629
 20
605.5211728106375
 10
190.4710309114673
 20
606.2607138112323
 10
190.8372214914934
 20
607.1174394693517
 10
191.1070352714682
 20
608.0653186093975
 10
191.2722740962199
 20
609.0755504033502
 10
191.327917267673
 20
610.1174394693519
  0
LWPOLYLINE
  5
6AA
330
1E
100
AcDbEntity
  8
STEMPEL
100
AcDbPolyline
 90
        7
 70
   128
 43
0.0
 10
189.0796997437053
 20
605.1174394693514
 10
189.5513453442722
 20
605.7267773711921
 10
189.955851820655
 20
606.4542076444816
 10
190.2823394631441
 20
607.2801651384252
 10
190.5220269765523
 20
608.1824346888875
 10
190.6684676641782
 20
609.1367486231306
 10
190.7177228198106
 20
610.1174394693519
  0
LINE
  5
6AB
330
1E
100
AcDbEntity
  8
STEMPEL
100
AcDbLine
 10
190.7177228198106
 20
616.6174394693496
 30
0.0
 11
190.7177228198106
 21
610.117439469353
 31
0.0
  0
LINE
  5
6AC
330
1E
100
AcDbEntity
  8
STEMPEL
100
AcDbLine
 10
191.327917267673
 20
616.6174394693496
 30
0.0
 11
191.327917267673
 21
610.117439469353
 31
0.0
  0
LINE
  5
6AD
330
1E
100
AcDbEntity
  8
HILF
100
AcDbLine
 10
202.5754994138917
 20
603.1174394693498
 30
0.0
 11
202.5754994138917
 21
600.1174394693506
 31
0.0
  0
LINE
  5
6AE
330
1E
100
AcDbEntity
  8
STEMPEL
100
AcDbLine
 10
201.5754994138918
 20
602.1174394693501
 30
0.0
 11
201.5754994138918
 21
600.1174394693506
 31
0.0
  0
LWPOLYLINE
  5
6B4
330
1E
100
AcDbEntity
  8
STEMPEL
100
AcDbPolyline
 90
       10
 70
   128
 43
0.0
 10
200.3104254739453
 20
604.1174394693525
 10
200.7831554316988
 20
604.2085929512793
 10
201.241521728899
 20
604.4792837446371
 10
201.6715971375497
 20
604.9212870466458
 10
202.0603140339881
 20
605.5211728106387
 10
202.3958614520156
 20
606.2607138112334
 10
202.6680439531312
 20
607.1174394693528
 10
202.8685914097693
 20
608.0653186093987
 10
202.9914102889418
 20
609.0755504033514
 10
203.0327688011543
 20
610.117439469353
  0
LINE
  5
6B5
330
1E
100
AcDbEntity
  8
STEMPEL
100
AcDbLine
 10
202.5754994138917
 20
603.1174394693501
 30
0.0
 11
201.5754994138918
 21
602.1174394693501
 31
0.0
  0
LINE
  5
6B6
330
1E
100
AcDbEntity
  8
STEMPEL
100
AcDbLine
 10
203.0327688011543
 20
616.6174394693496
 30
0.0
 11
203.0327688011543
 21
610.117439469353
 31
0.0
  0
TEXT
  5
6B7
330
1E
100
AcDbEntity
  8
TEXT
 62
     1
100
AcDbText
 10
244.9667846841526
 20
423.3443416801897
 30
0.0
 40
7.0
  1
DN70
 50
90.0
 41
0.8
  7
GREEKS
100
AcDbText
  0
LINE
  5
6B8
330
1E
100
AcDbEntity
  8
STEMPEL
100
AcDbLine
 10
211.5754994138917
 20
452.1174394693501
 30
0.0
 11
210.5754994138917
 21
453.1174394693501
 31
0.0
  0
LINE
  5
6B9
330
1E
100
AcDbEntity
  8
HILF
100
AcDbLine
 10
210.5754994138917
 20
453.1174394693501
 30
0.0
 11
210.5754994138919
 21
450.1174394693509
 31
0.0
  0
LINE
  5
6BA
330
1E
100
AcDbEntity
  8
MITTEL
100
AcDbLine
 10
206.5754994138917
 20
458.1174394693501
 30
0.0
 11
206.5754994138917
 21
423.1174394693499
 31
0.0
  0
LINE
  5
6BB
330
1E
100
AcDbEntity
  8
STEMPEL
100
AcDbLine
 10
212.110102085614
 20
431.117439469351
 30
0.0
 11
209.7754994138895
 21
431.117439469351
 31
0.0
  0
LINE
  5
6BC
330
1E
100
AcDbEntity
  8
STEMPEL
100
AcDbLine
 10
209.7754994138895
 20
431.117439469351
 30
0.0
 11
212.3073261811121
 21
435.6085243661834
 31
0.0
  0
ARC
  5
6BD
102
{ACAD_REACTORS
330
5A2
102
}
330
1E
100
AcDbEntity
  8
STEMPEL
  6
Continuous
100
AcDbCircle
 10
234.7754994138921
 20
420.5685170622323
 30
0.0
 40
25.0
100
AcDbArc
 50
155.0418036876905
 51
180.0
  0
LINE
  5
6BE
330
1E
100
AcDbEntity
  8
STEMPEL
100
AcDbLine
 10
215.0754994138895
 20
430.117439469351
 30
0.0
 11
214.1632456514737
 21
435.2910876470178
 31
0.0
  0
ARC
  5
6BF
330
1E
100
AcDbEntity
  8
STEMPEL
100
AcDbCircle
 10
213.1784378984614
 20
435.117439469351
 30
0.0
 40
1.0
100
AcDbArc
 50
10.00000000000021
 51
150.5880863344662
  0
LINE
  5
6C0
330
1E
100
AcDbEntity
  8
STEMPEL
100
AcDbLine
 10
213.1784378984614
 20
436.1174394693509
 30
0.0
 11
215.0754994138931
 21
436.1174394693509
 31
0.0
  0
LINE
  5
6C1
102
{ACAD_REACTORS
330
5A2
102
}
330
1E
100
AcDbEntity
  8
STEMPEL
100
AcDbLine
 10
213.4700259253122
 20
430.4845041249215
 30
0.0
 11
212.1101020856166
 21
431.117439469351
 31
0.0
  0
ARC
  5
6C2
102
{ACAD_REACTORS
330
5A2
102
}
330
1E
100
AcDbEntity
  8
STEMPEL
  6
Continuous
100
AcDbCircle
 10
234.7754994138921
 20
420.5685170622323
 30
0.0
 40
23.5
100
AcDbArc
 50
155.0418036876905
 51
180.0
  0
LINE
  5
6C3
330
1E
100
AcDbEntity
  8
STEMPEL
100
AcDbLine
 10
211.5754994138917
 20
452.1174394693499
 30
0.0
 11
211.5754994138918
 21
450.1174394693509
 31
0.0
  0
LINE
  5
6C7
330
1E
100
AcDbEntity
  8
STEMPEL
100
AcDbLine
 10
293.3754994138896
 20
431.117439469351
 30
0.0
 11
291.0408967421649
 21
431.117439469351
 31
0.0
  0
LINE
  5
6C8
330
1E
100
AcDbEntity
  8
STEMPEL
100
AcDbLine
 10
293.3754994138896
 20
431.117439469351
 30
0.0
 11
290.8436726466669
 21
435.6085243661834
 31
0.0
  0
ARC
  5
6C9
102
{ACAD_REACTORS
330
5A2
102
}
330
1E
100
AcDbEntity
  8
STEMPEL
  6
Continuous
100
AcDbCircle
 10
268.375499413892
 20
420.5685170622323
 30
0.0
 40
23.5
100
AcDbArc
 50
0.0
 51
24.95819631230951
  0
ARC
  5
6CA
102
{ACAD_REACTORS
330
5A2
102
}
330
1E
100
AcDbEntity
  8
STEMPEL
  6
Continuous
100
AcDbCircle
 10
268.375499413892
 20
420.5685170622323
 30
0.0
 40
25.0
100
AcDbArc
 50
0.0
 51
24.95819631230951
  0
LINE
  5
6CB
330
1E
100
AcDbEntity
  8
STEMPEL
100
AcDbLine
 10
288.0754994138929
 20
436.1174394693509
 30
0.0
 11
289.9725609293175
 21
436.1174394693509
 31
0.0
  0
LINE
  5
6CC
330
1E
100
AcDbEntity
  8
STEMPEL
100
AcDbLine
 10
288.0754994138895
 20
430.117439469351
 30
0.0
 11
288.9877531763054
 21
435.2910876470178
 31
0.0
  0
ARC
  5
6CD
330
1E
100
AcDbEntity
  8
STEMPEL
100
AcDbCircle
 10
289.9725609293175
 20
435.117439469351
 30
0.0
 40
1.0
100
AcDbArc
 50
29.41191366553379
 51
169.9999999999997
  0
LINE
  5
6CE
102
{ACAD_REACTORS
330
5A2
102
}
330
1E
100
AcDbEntity
  8
STEMPEL
100
AcDbLine
 10
289.680972902472
 20
430.4845041249215
 30
0.0
 11
291.0408967421675
 21
431.117439469351
 31
0.0
  0
LINE
  5
6CF
330
1E
100
AcDbEntity
  8
STEMPEL
100
AcDbLine
 10
209.0632331286881
 20
565.6297057545555
 30
0.0
 11
294.0877656990961
 21
565.6297057545555
 31
0.0
  0
LINE
  5
6D0
330
1E
100
AcDbEntity
  8
HILF
100
AcDbLine
 10
217.6789611749978
 20
557.9124936242983
 30
0.0
 11
285.4720376527863
 21
557.9124936242983
 31
0.0
  0
LWPOLYLINE
  5
6D1
330
1E
100
AcDbEntity
  8
STEMPEL
100
AcDbPolyline
 90
       18
 70
   128
 43
0.0
 10
-229.9460273096051
 20
616.6174394693496
 10
-230.0726365557814
 20
617.995560852974
 10
-230.4481527682831
 20
619.3267519657538
 10
-231.0597881928754
 20
620.5656806909305
 10
-231.8867143187499
 20
621.6701567966997
 10
-232.9007711684781
 20
622.6025686739526
 10
-234.0674262522698
 20
623.331164154514
 10
-235.3469505304952
 20
623.8311317931472
 10
-236.6957713384793
 20
624.0854457915638
 10
-238.0679562013386
 20
624.0854457915638
 10
-239.4167770093227
 20
623.8311317931472
 10
-240.6963012875479
 20
623.331164154514
 10
-241.8629563713396
 20
622.6025686739526
 10
-242.8770132210679
 20
621.6701567966997
 10
-243.7039393469422
 20
620.5656806909305
 10
-244.3155747715346
 20
619.3267519657538
 10
-244.6910909840362
 20
617.995560852974
 10
-244.8177002302127
 20
616.6174394693496
210
0.0
220
0.0
230
-1.0
  0
LWPOLYLINE
  5
6D2
330
1E
100
AcDbEntity
  8
STEMPEL
100
AcDbPolyline
 90
        9
 70
   128
 43
0.0
 10
-237.3164470451655
 20
624.1171492291243
 10
-238.7577870290432
 20
623.9618478352006
 10
-240.1418679324927
 20
623.5274475881863
 10
-241.4160925450246
 20
622.830456367911
 10
-242.5320383647545
 20
621.8973609164654
 10
-243.4472977282076
 20
620.7636203011218
 10
-244.1270893669828
 20
619.4723184150525
 10
-244.5455801496321
 20
618.0725267228929
 10
-244.6868667805261
 20
616.6174394693512
210
0.0
220
0.0
230
-1.0
  0
LWPOLYLINE
  5
6D3
330
1E
100
AcDbEntity
  8
STEMPEL
100
AcDbPolyline
 90
        9
 70
   128
 43
0.0
 10
-209.7700731621778
 20
624.1145658923897
 10
-211.0942826125076
 20
623.9357329853419
 10
-212.3622620096937
 20
623.4854570680177
 10
-213.5269806977794
 20
622.7804393358785
 10
-214.545238066386
 20
621.846829619495
 10
-215.3792659056482
 20
620.7192564605188
 10
-215.9981292678422
 20
619.4395427035672
 10
-216.3788738763165
 20
618.0551542440317
 10
-216.5073775231483
 20
616.6174394693512
210
0.0
220
0.0
230
-1.0
  0
LINE
  5
6D4
330
1E
100
AcDbEntity
  8
MITTEL
100
AcDbLine
 10
206.5754994138917
 20
608.1174394693498
 30
0.0
 11
206.5754994138917
 21
573.1174394693495
 31
0.0
  0
ARC
  5
6D5
102
{ACAD_REACTORS
330
5A3
102
}
330
1E
100
AcDbEntity
  8
STEMPEL
100
AcDbCircle
 10
210.0754994138945
 20
555.4250513139248
 30
0.0
 40
6.5
100
AcDbArc
 50
0.0
 51
45.0
  0
LINE
  5
6D6
102
{ACAD_REACTORS
330
5A3
102
}
330
1E
100
AcDbEntity
  8
STEMPEL
100
AcDbLine
 10
208.0025729569083
 20
564.5690455827757
 30
0.0
 11
213.6110333198269
 21
558.9605852198578
 31
0.0
  0
ARC
  5
6D7
330
1E
100
AcDbEntity
  8
SCHRAFF
100
AcDbCircle
 10
209.5754994138923
 20
565.1174394693514
 30
0.0
 40
3.5
100
AcDbArc
 50
169.8499045790564
 51
289.6230664748492
  0
LINE
  5
6D8
102
{ACAD_REACTORS
330
5A3
330
57F
102
}
330
1E
100
AcDbEntity
  8
STEMPEL
100
AcDbLine
 10
209.063233128688
 20
565.6297057545552
 30
0.0
 11
207.6490195663149
 21
564.2154921921822
 31
0.0
  0
ARC
  5
6D9
102
{ACAD_REACTORS
330
5A3
102
}
330
1E
100
AcDbEntity
  8
STEMPEL
100
AcDbCircle
 10
210.0754994138945
 20
555.4250513139249
 30
0.0
 40
5.0
100
AcDbArc
 50
0.0
 51
45.0
  0
LINE
  5
6DA
330
1E
100
AcDbEntity
  8
HILF
100
AcDbLine
 10
210.575499413892
 20
584.11743946935
 30
0.0
 11
210.575499413892
 21
581.1174394693501
 31
0.0
  0
LINE
  5
6DB
330
1E
100
AcDbEntity
  8
STEMPEL
100
AcDbLine
 10
211.5754994138917
 20
584.11743946935
 30
0.0
 11
211.575499413892
 21
581.1174394693501
 31
0.0
  0
LWPOLYLINE
  5
6DE
330
1E
100
AcDbEntity
  8
STEMPEL
100
AcDbPolyline
 90
        7
 70
   128
 43
0.0
 10
215.2898660904191
 20
605.1174394693514
 10
215.6404313048311
 20
605.7267773711921
 10
215.9410932837698
 20
606.4542076444813
 10
216.1837653457044
 20
607.2801651384252
 10
216.3619205207528
 20
608.1824346888875
 10
216.4707671017334
 20
609.1367486231306
 10
216.5073775231483
 20
610.1174394693519
  0
LWPOLYLINE
  5
6DF
330
1E
100
AcDbEntity
  8
STEMPEL
100
AcDbPolyline
 90
       10
 70
   128
 43
0.0
 10
214.1686184616162
 20
604.1174394693514
 10
214.6413484193697
 20
604.2085929512782
 10
215.0997147165699
 20
604.4792837446359
 10
215.5297901252207
 20
604.9212870466447
 10
215.918507021659
 20
605.5211728106375
 10
216.2540544396866
 20
606.2607138112323
 10
216.5262369408022
 20
607.1174394693517
 10
216.7267843974403
 20
608.0653186093975
 10
216.8496032766127
 20
609.0755504033502
 10
216.8909617888253
 20
610.1174394693519
  0
LINE
  5
6E0
330
1E
100
AcDbEntity
  8
STEMPEL
100
AcDbLine
 10
211.5754994138917
 20
602.1174394693498
 30
0.0
 11
211.5754994138918
 21
600.1174394693506
 31
0.0
  0
LINE
  5
6E1
330
1E
100
AcDbEntity
  8
HILF
100
AcDbLine
 10
210.5754994138917
 20
603.1174394693501
 30
0.0
 11
210.5754994138917
 21
600.1174394693507
 31
0.0
  0
LINE
  5
6E3
330
1E
100
AcDbEntity
  8
STEMPEL
100
AcDbLine
 10
211.5754994138917
 20
602.1174394693501
 30
0.0
 11
210.5754994138917
 21
603.1174394693501
 31
0.0
  0
LINE
  5
6E6
330
1E
100
AcDbEntity
  8
STEMPEL
100
AcDbLine
 10
216.5073775231483
 20
616.6174394693496
 30
0.0
 11
216.5073775231483
 21
610.117439469353
 31
0.0
  0
LINE
  5
6E7
330
1E
100
AcDbEntity
  8
STEMPEL
100
AcDbLine
 10
216.8909617888253
 20
616.617439469348
 30
0.0
 11
216.8909617888253
 21
610.117439469353
 31
0.0
  0
LINE
  5
6E8
330
1E
100
AcDbEntity
  8
STEMPEL
100
AcDbLine
 10
229.3594527873479
 20
605.1174394693514
 30
0.0
 11
244.1002922582693
 21
605.1174394693514
 31
0.0
  0
LWPOLYLINE
  5
6E9
330
1E
100
AcDbEntity
  8
STEMPEL
100
AcDbPolyline
 90
       10
 70
   128
 43
0.0
 10
228.6344525730972
 20
604.1174394693514
 10
228.8622051359657
 20
604.2085929512782
 10
229.0830375524599
 20
604.4792837446359
 10
229.290239941351
 20
604.9212870466447
 10
229.4775165629023
 20
605.5211728106375
 10
229.6391771117342
 20
606.2607138112323
 10
229.7703096138748
 20
607.1174394693517
 10
229.8669296746027
 20
608.0653186093975
 10
229.9261015422651
 20
609.0755504033502
 10
229.9460273096049
 20
610.1174394693519
  0
LINE
  5
6EA
330
1E
100
AcDbEntity
  8
STEMPEL
100
AcDbLine
 10
229.9460273096049
 20
616.6174394693512
 30
0.0
 11
229.9460273096049
 21
610.117439469353
 31
0.0
  0
LWPOLYLINE
  5
6EB
330
1E
100
AcDbEntity
  8
STEMPEL
100
AcDbPolyline
 90
       10
 70
   128
 43
0.0
 10
243.5061254937048
 20
604.1174394693514
 10
243.7338780565733
 20
604.2085929512782
 10
243.9547104730675
 20
604.4792837446359
 10
244.1619128619586
 20
604.9212870466447
 10
244.3491894835099
 20
605.5211728106375
 10
244.5108500323418
 20
606.2607138112323
 10
244.6419825344824
 20
607.1174394693517
 10
244.7386025952103
 20
608.0653186093975
 10
244.7977744628726
 20
609.0755504033502
 10
244.8177002302125
 20
610.1174394693519
  0
LWPOLYLINE
  5
6EC
330
1E
100
AcDbEntity
  8
STEMPEL
100
AcDbPolyline
 90
        7
 70
   128
 43
0.0
 10
244.1002922582691
 20
605.1174394693514
 10
244.2691881040375
 20
605.7267773711921
 10
244.4140414926101
 20
606.4542076444816
 10
244.5309564101772
 20
607.2801651384252
 10
244.6167882831949
 20
608.1824346888875
 10
244.6692285556405
 20
609.1367486231306
 10
244.6868667805258
 20
610.1174394693519
  0
LINE
  5
6ED
330
1E
100
AcDbEntity
  8
STEMPEL
100
AcDbLine
 10
244.6868667805261
 20
616.6174394693496
 30
0.0
 11
244.6868667805261
 21
610.117439469353
 31
0.0
  0
LINE
  5
6EE
330
1E
100
AcDbEntity
  8
STEMPEL
100
AcDbLine
 10
244.8177002302125
 20
616.617439469348
 30
0.0
 11
244.8177002302125
 21
610.117439469353
 31
0.0
  0
LWPOLYLINE
  5
6EF
330
1E
100
AcDbEntity
  8
STEMPEL
100
AcDbPolyline
 90
        9
 70
   128
 43
0.0
 10
265.8345517826187
 20
624.1171492291243
 10
264.3932117987408
 20
623.9618478352006
 10
263.0091308952913
 20
623.5274475881863
 10
261.7349062827593
 20
622.830456367911
 10
260.6189604630294
 20
621.8973609164654
 10
259.7037010995764
 20
620.7636203011218
 10
259.0239094608014
 20
619.4723184150525
 10
258.6054186781518
 20
618.0725267228929
 10
258.4641320472581
 20
616.6174394693512
  0
LWPOLYLINE
  5
6F0
330
1E
100
AcDbEntity
  8
STEMPEL
100
AcDbPolyline
 90
       18
 70
   128
 43
0.0
 10
273.2049715181791
 20
616.6174394693496
 10
273.0783622720025
 20
617.995560852974
 10
272.7028460595009
 20
619.3267519657538
 10
272.0912106349085
 20
620.5656806909305
 10
271.2642845090343
 20
621.6701567966997
 10
270.2502276593059
 20
622.6025686739526
 10
269.0835725755142
 20
623.331164154514
 10
267.804048297289
 20
623.8311317931472
 10
266.4552274893049
 20
624.0854457915638
 10
265.0830426264456
 20
624.0854457915638
 10
263.7342218184615
 20
623.8311317931472
 10
262.4546975402361
 20
623.331164154514
 10
261.2880424564444
 20
622.6025686739526
 10
260.2739856067162
 20
621.6701567966997
 10
259.4470594808417
 20
620.5656806909305
 10
258.8354240562494
 20
619.3267519657538
 10
258.4599078437477
 20
617.995560852974
 10
258.3332985975715
 20
616.6174394693496
  0
LWPOLYLINE
  5
6F1
330
1E
100
AcDbEntity
  8
STEMPEL
100
AcDbPolyline
 90
        9
 70
   128
 43
0.0
 10
293.3809256656061
 20
624.1145658923897
 10
292.0567162152763
 20
623.9357329853419
 10
290.7887368180902
 20
623.4854570680177
 10
289.6240181300047
 20
622.7804393358785
 10
288.605760761398
 20
621.846829619495
 10
287.7717329221357
 20
620.7192564605188
 10
287.1528695599418
 20
619.4395427035672
 10
286.7721249514677
 20
618.0551542440317
 10
286.6436213046359
 20
616.6174394693512
  0
LWPOLYLINE
  5
6F2
330
1E
100
AcDbEntity
  8
STEMPEL
100
AcDbPolyline
 90
       10
 70
   128
 43
0.0
 10
-274.516546254687
 20
604.1174394693514
 10
-274.2887936918184
 20
604.2085929512782
 10
-274.0679612753242
 20
604.4792837446359
 10
-273.8607588864329
 20
604.9212870466447
 10
-273.6734822648819
 20
605.5211728106375
 10
-273.5118217160498
 20
606.2607138112323
 10
-273.3806892139091
 20
607.1174394693517
 10
-273.2840691531812
 20
608.0653186093975
 10
-273.2248972855191
 20
609.0755504033502
 10
-273.2049715181791
 20
610.1174394693519
210
0.0
220
0.0
230
-1.0
  0
LINE
  5
6F3
330
1E
100
AcDbEntity
  8
STEMPEL
100
AcDbLine
 10
273.791546040436
 20
605.1174394693514
 30
0.0
 11
259.0507065695147
 21
605.1174394693514
 31
0.0
  0
LWPOLYLINE
  5
6F4
330
1E
100
AcDbEntity
  8
STEMPEL
100
AcDbPolyline
 90
        7
 70
   128
 43
0.0
 10
-259.0507065695151
 20
605.1174394693514
 10
-258.8818107237466
 20
605.7267773711921
 10
-258.7369573351739
 20
606.4542076444816
 10
-258.6200424176068
 20
607.2801651384252
 10
-258.5342105445891
 20
608.1824346888875
 10
-258.4817702721434
 20
609.1367486231306
 10
-258.4641320472581
 20
610.1174394693519
210
0.0
220
0.0
230
-1.0
  0
LWPOLYLINE
  5
6F5
330
1E
100
AcDbEntity
  8
STEMPEL
100
AcDbPolyline
 90
       10
 70
   128
 43
0.0
 10
-259.6448733340794
 20
604.1174394693514
 10
-259.4171207712109
 20
604.2085929512782
 10
-259.1962883547167
 20
604.4792837446359
 10
-258.9890859658253
 20
604.9212870466447
 10
-258.8018093442743
 20
605.5211728106375
 10
-258.6401487954422
 20
606.2607138112323
 10
-258.5090162933016
 20
607.1174394693517
 10
-258.4123962325737
 20
608.0653186093975
 10
-258.3532243649115
 20
609.0755504033502
 10
-258.3332985975715
 20
610.1174394693519
210
0.0
220
0.0
230
-1.0
  0
LINE
  5
6F6
330
1E
100
AcDbEntity
  8
STEMPEL
100
AcDbLine
 10
258.3332985975715
 20
616.617439469348
 30
0.0
 11
258.3332985975715
 21
610.117439469353
 31
0.0
  0
LINE
  5
6F7
330
1E
100
AcDbEntity
  8
STEMPEL
100
AcDbLine
 10
258.4641320472581
 20
616.6174394693496
 30
0.0
 11
258.4641320472581
 21
610.117439469353
 31
0.0
  0
LINE
  5
6F8
330
1E
100
AcDbEntity
  8
STEMPEL
100
AcDbLine
 10
273.2049715181793
 20
616.6174394693512
 30
0.0
 11
273.2049715181793
 21
610.117439469353
 31
0.0
  0
LINE
  5
6F9
102
{ACAD_REACTORS
330
5A3
102
}
330
1E
100
AcDbEntity
  8
STEMPEL
100
AcDbLine
 10
295.1361595856715
 20
564.5567792975716
 30
0.0
 11
289.5399655079575
 21
558.9605852198583
 31
0.0
  0
ARC
  5
6FA
102
{ACAD_REACTORS
330
5A3
102
}
330
1E
100
AcDbEntity
  8
STEMPEL
100
AcDbCircle
 10
293.0754994138899
 20
555.4250513139252
 30
0.0
 40
5.0
100
AcDbArc
 50
135.0000000000003
 51
180.0
  0
ARC
  5
6FB
102
{ACAD_REACTORS
330
5A3
102
}
330
1E
100
AcDbEntity
  8
STEMPEL
100
AcDbCircle
 10
293.0754994138899
 20
555.4250513139252
 30
0.0
 40
6.5
100
AcDbArc
 50
135.0000000000003
 51
180.0
  0
LINE
  5
6FC
102
{ACAD_REACTORS
330
5A3
330
57F
102
}
330
1E
100
AcDbEntity
  8
STEMPEL
100
AcDbLine
 10
294.075499413892
 20
565.6174394693514
 30
0.0
 11
295.4897129762651
 21
564.2032259069781
 31
0.0
  0
LINE
  5
6FD
330
1E
100
AcDbEntity
  8
STEMPEL
100
AcDbLine
 10
286.2600370389589
 20
616.617439469348
 30
0.0
 11
286.2600370389589
 21
610.117439469353
 31
0.0
  0
LINE
  5
6FE
330
1E
100
AcDbEntity
  8
STEMPEL
100
AcDbLine
 10
286.6436213046359
 20
616.6174394693496
 30
0.0
 11
286.6436213046359
 21
610.117439469353
 31
0.0
  0
LWPOLYLINE
  5
6FF
330
1E
100
AcDbEntity
  8
STEMPEL
100
AcDbPolyline
 90
        7
 70
   128
 43
0.0
 10
-287.8611327373649
 20
605.1174394693514
 10
-287.5105675229529
 20
605.7267773711921
 10
-287.2099055440142
 20
606.4542076444813
 10
-286.9672334820796
 20
607.2801651384252
 10
-286.7890783070311
 20
608.1824346888875
 10
-286.6802317260506
 20
609.1367486231306
 10
-286.6436213046359
 20
610.1174394693519
210
0.0
220
0.0
230
-1.0
  0
LWPOLYLINE
  5
700
330
1E
100
AcDbEntity
  8
STEMPEL
100
AcDbPolyline
 90
       10
 70
   128
 43
0.0
 10
-288.982380366168
 20
604.1174394693514
 10
-288.5096504084142
 20
604.2085929512782
 10
-288.051284111214
 20
604.4792837446359
 10
-287.6212087025633
 20
604.9212870466447
 10
-287.2324918061252
 20
605.5211728106375
 10
-286.8969443880974
 20
606.2607138112323
 10
-286.6247618869818
 20
607.1174394693517
 10
-286.4242144303437
 20
608.0653186093975
 10
-286.3013955511712
 20
609.0755504033502
 10
-286.2600370389589
 20
610.1174394693519
210
0.0
220
0.0
230
-1.0
  0
LINE
  5
701
330
1E
100
AcDbEntity
  8
STEMPEL
100
AcDbLine
 10
171.575499413892
 20
694.1174394693507
 30
0.0
 11
226.3138615862413
 21
694.117439469351
 31
0.0
  0
ARC
  5
702
330
1E
100
AcDbEntity
  8
STEMPEL
100
AcDbCircle
 10
171.575499413892
 20
688.1174394693509
 30
0.0
 40
6.0
100
AcDbArc
 50
90.0
 51
120.5128743276207
  0
ARC
  5
703
330
1E
100
AcDbEntity
  8
STEMPEL
100
AcDbCircle
 10
171.575499413892
 20
688.1174394693509
 30
0.0
 40
5.0
100
AcDbArc
 50
90.0
 51
120.5373500482986
  0
ARC
  5
704
330
1E
100
AcDbEntity
  8
STEMPEL
100
AcDbCircle
 10
171.575499413892
 20
688.1174394693509
 30
0.0
 40
6.0
100
AcDbArc
 50
90.0
 51
90.0
  0
LINE
  5
705
330
1E
100
AcDbEntity
  8
STEMPEL
100
AcDbLine
 10
228.9119377975949
 20
695.6174394693509
 30
0.0
 11
274.4169377975948
 21
695.6174394693509
 31
0.0
  0
LINE
  5
706
330
1E
100
AcDbEntity
  8
STEMPEL
100
AcDbLine
 10
248.2169377975947
 20
694.6174394693512
 30
0.0
 11
258.3052052587882
 21
694.6174394693512
 31
0.0
  0
ARC
  5
707
330
1E
100
AcDbEntity
  8
STEMPEL
100
AcDbCircle
 10
226.3138615862413
 20
695.6174394693509
 30
0.0
 40
1.5
100
AcDbArc
 50
270.0
 51
330.0000000000006
  0
ARC
  5
708
330
1E
100
AcDbEntity
  8
STEMPEL
100
AcDbCircle
 10
226.3138615862413
 20
695.6174394693509
 30
0.0
 40
2.5
100
AcDbArc
 50
270.0
 51
329.9999999999995
  0
ARC
  5
709
330
1E
100
AcDbEntity
  8
STEMPEL
100
AcDbCircle
 10
239.1650140089478
 20
695.6174394693509
 30
0.0
 40
1.5
100
AcDbArc
 50
210.000000000002
 51
270.0
  0
ARC
  5
70A
330
1E
100
AcDbEntity
  8
STEMPEL
100
AcDbCircle
 10
239.1650140089478
 20
695.6174394693509
 30
0.0
 40
2.5
100
AcDbArc
 50
210.000000000002
 51
270.0
  0
LINE
  5
70B
330
1E
100
AcDbEntity
  8
STEMPEL
100
AcDbLine
 10
231.7100140089487
 20
694.117439469351
 30
0.0
 11
233.768861586241
 21
694.117439469351
 31
0.0
  0
LINE
  5
70C
330
1E
100
AcDbEntity
  8
STEMPEL
100
AcDbLine
 10
231.7100140089487
 20
694.117439469351
 30
0.0
 11
233.768861586241
 21
694.117439469351
 31
0.0
  0
ARC
  5
70D
330
1E
100
AcDbEntity
  8
STEMPEL
100
AcDbCircle
 10
228.9119377975949
 20
694.117439469351
 30
0.0
 40
1.5
100
AcDbArc
 50
90.0
 51
149.9999999999994
  0
ARC
  5
70E
330
1E
100
AcDbEntity
  8
STEMPEL
100
AcDbCircle
 10
229.1119377975949
 20
694.117439469351
 30
0.0
 40
1.5
100
AcDbArc
 50
29.99999999999129
 51
90.0
  0
ARC
  5
70F
330
1E
100
AcDbEntity
  8
STEMPEL
100
AcDbCircle
 10
229.1119377975949
 20
694.117439469351
 30
0.0
 40
0.5
100
AcDbArc
 50
30.00000000000055
 51
90.0
  0
LINE
  5
710
330
1E
100
AcDbEntity
  8
STEMPEL
100
AcDbLine
 10
228.9119377975949
 20
694.6174394693509
 30
0.0
 11
229.1119377975949
 21
694.6174394693509
 31
0.0
  0
ARC
  5
711
330
1E
100
AcDbEntity
  8
STEMPEL
100
AcDbCircle
 10
228.9119377975949
 20
694.117439469351
 30
0.0
 40
0.5
100
AcDbArc
 50
90.0
 51
149.9999999999987
  0
ARC
  5
712
330
1E
100
AcDbEntity
  8
STEMPEL
100
AcDbCircle
 10
231.7100140089487
 20
695.6174394693509
 30
0.0
 40
1.5
100
AcDbArc
 50
209.9999999999913
 51
270.0
  0
ARC
  5
713
330
1E
100
AcDbEntity
  8
STEMPEL
100
AcDbCircle
 10
231.7100140089487
 20
695.6174394693509
 30
0.0
 40
2.5
100
AcDbArc
 50
209.9999999999913
 51
270.0
  0
ARC
  5
714
330
1E
100
AcDbEntity
  8
STEMPEL
100
AcDbCircle
 10
236.5669377975948
 20
694.117439469351
 30
0.0
 40
1.5
100
AcDbArc
 50
30.00000000000196
 51
90.0
  0
ARC
  5
715
330
1E
100
AcDbEntity
  8
STEMPEL
100
AcDbCircle
 10
236.5669377975948
 20
694.117439469351
 30
0.0
 40
0.5
100
AcDbArc
 50
30.00000000000196
 51
90.0
  0
LINE
  5
716
330
1E
100
AcDbEntity
  8
STEMPEL
100
AcDbLine
 10
236.3669377975948
 20
694.6174394693512
 30
0.0
 11
236.5669377975948
 21
694.6174394693512
 31
0.0
  0
ARC
  5
717
330
1E
100
AcDbEntity
  8
STEMPEL
100
AcDbCircle
 10
236.3669377975948
 20
694.117439469351
 30
0.0
 40
0.5
100
AcDbArc
 50
90.0
 51
150.0000000000087
  0
ARC
  5
718
330
1E
100
AcDbEntity
  8
STEMPEL
100
AcDbCircle
 10
233.768861586241
 20
695.6174394693509
 30
0.0
 40
1.5
100
AcDbArc
 50
270.0
 51
330.0000000000087
  0
ARC
  5
719
330
1E
100
AcDbEntity
  8
STEMPEL
100
AcDbCircle
 10
236.3669377975948
 20
694.117439469351
 30
0.0
 40
1.5
100
AcDbArc
 50
90.0
 51
150.0000000000087
  0
ARC
  5
71A
330
1E
100
AcDbEntity
  8
STEMPEL
100
AcDbCircle
 10
233.768861586241
 20
695.6174394693509
 30
0.0
 40
2.5
100
AcDbArc
 50
270.0
 51
330.0000000000087
  0
LINE
  5
71B
330
1E
100
AcDbEntity
  8
STEMPEL
100
AcDbLine
 10
239.1650140089478
 20
694.117439469351
 30
0.0
 11
245.618861586242
 21
694.117439469351
 31
0.0
  0
LINE
  5
71C
330
1E
100
AcDbEntity
  8
STEMPEL
100
AcDbLine
 10
239.1650140089478
 20
694.117439469351
 30
0.0
 11
245.618861586242
 21
694.117439469351
 31
0.0
  0
ARC
  5
71D
330
1E
100
AcDbEntity
  8
STEMPEL
100
AcDbCircle
 10
248.2169377975947
 20
694.117439469351
 30
0.0
 40
0.5
100
AcDbArc
 50
90.0
 51
149.9999999999973
  0
ARC
  5
71E
330
1E
100
AcDbEntity
  8
STEMPEL
100
AcDbCircle
 10
245.618861586242
 20
695.6174394693509
 30
0.0
 40
1.5
100
AcDbArc
 50
270.0
 51
329.9999999999973
  0
ARC
  5
71F
330
1E
100
AcDbEntity
  8
STEMPEL
100
AcDbCircle
 10
248.2169377975947
 20
694.117439469351
 30
0.0
 40
1.5
100
AcDbArc
 50
90.0
 51
149.9999999999973
  0
ARC
  5
720
330
1E
100
AcDbEntity
  8
STEMPEL
100
AcDbCircle
 10
245.618861586242
 20
695.6174394693509
 30
0.0
 40
2.5
100
AcDbArc
 50
270.0
 51
329.9999999999973
  0
ARC
  5
721
330
1E
100
AcDbEntity
  8
STEMPEL
100
AcDbCircle
 10
274.2169377975947
 20
694.117439469351
 30
0.0
 40
0.5
100
AcDbArc
 50
90.0
 51
149.9999999999874
  0
ARC
  5
722
330
1E
100
AcDbEntity
  8
STEMPEL
100
AcDbCircle
 10
274.2169377975947
 20
694.117439469351
 30
0.0
 40
1.5
100
AcDbArc
 50
90.0
 51
149.9999999999874
  0
ARC
  5
723
330
1E
100
AcDbEntity
  8
STEMPEL
100
AcDbCircle
 10
271.6188615862423
 20
695.6174394693509
 30
0.0
 40
2.5
100
AcDbArc
 50
270.0
 51
329.9999999999956
  0
ARC
  5
724
330
1E
100
AcDbEntity
  8
STEMPEL
100
AcDbCircle
 10
262.3669377975948
 20
694.117439469351
 30
0.0
 40
0.5
100
AcDbArc
 50
90.0
 51
165.5224878140745
  0
ARC
  5
725
330
1E
100
AcDbEntity
  8
STEMPEL
100
AcDbCircle
 10
262.3669377975948
 20
694.117439469351
 30
0.0
 40
1.5
100
AcDbArc
 50
90.0
 51
165.5224878140745
  0
LINE
  5
726
330
1E
100
AcDbEntity
  8
STEMPEL
100
AcDbLine
 10
260.2416969318915
 20
694.117439469351
 30
0.0
 11
260.4304461244908
 21
694.117439469351
 31
0.0
  0
ARC
  5
727
330
1E
100
AcDbEntity
  8
STEMPEL
100
AcDbCircle
 10
260.4304461244908
 20
694.6174394693509
 30
0.0
 40
0.5
100
AcDbArc
 50
270.0
 51
345.5224878140745
  0
ARC
  5
728
330
1E
100
AcDbEntity
  8
STEMPEL
100
AcDbCircle
 10
258.3052052587882
 20
694.117439469351
 30
0.0
 40
1.5
100
AcDbArc
 50
14.47751218593024
 51
90.0
  0
ARC
  5
729
330
1E
100
AcDbEntity
  8
STEMPEL
100
AcDbCircle
 10
258.3052052587882
 20
694.117439469351
 30
0.0
 40
0.5
100
AcDbArc
 50
14.47751218593024
 51
90.0
  0
ARC
  5
72A
330
1E
100
AcDbEntity
  8
STEMPEL
100
AcDbCircle
 10
260.2416969318915
 20
694.6174394693509
 30
0.0
 40
0.5
100
AcDbArc
 50
194.4775121859287
 51
270.0
  0
ARC
  5
72B
330
1E
100
AcDbEntity
  8
STEMPEL
100
AcDbCircle
 10
260.4304461244908
 20
694.6174394693509
 30
0.0
 40
1.5
100
AcDbArc
 50
270.0
 51
345.5224878140745
  0
ARC
  5
72C
330
1E
100
AcDbEntity
  8
STEMPEL
100
AcDbCircle
 10
260.2416969318915
 20
694.6174394693509
 30
0.0
 40
1.5
100
AcDbArc
 50
194.4775121859287
 51
270.0
  0
LINE
  5
72D
330
1E
100
AcDbEntity
  8
STEMPEL
100
AcDbLine
 10
265.1650140089482
 20
694.117439469351
 30
0.0
 11
271.6188615862423
 21
694.117439469351
 31
0.0
  0
LINE
  5
72E
330
1E
100
AcDbEntity
  8
STEMPEL
100
AcDbLine
 10
265.1650140089482
 20
694.1174394693511
 30
0.0
 11
271.6188615862423
 21
694.1174394693511
 31
0.0
  0
ARC
  5
72F
330
1E
100
AcDbEntity
  8
STEMPEL
100
AcDbCircle
 10
262.5669377975949
 20
694.117439469351
 30
0.0
 40
0.5
100
AcDbArc
 50
30.00000000000055
 51
90.0
  0
LINE
  5
730
330
1E
100
AcDbEntity
  8
STEMPEL
100
AcDbLine
 10
262.3669377975948
 20
694.6174394693512
 30
0.0
 11
262.5669377975949
 21
694.6174394693512
 31
0.0
  0
ARC
  5
731
330
1E
100
AcDbEntity
  8
STEMPEL
100
AcDbCircle
 10
262.5669377975949
 20
694.117439469351
 30
0.0
 40
1.5
100
AcDbArc
 50
30.00000000000055
 51
90.0
  0
ARC
  5
732
330
1E
100
AcDbEntity
  8
STEMPEL
100
AcDbCircle
 10
265.1650140089482
 20
695.6174394693509
 30
0.0
 40
1.5
100
AcDbArc
 50
210.0000000000005
 51
270.0
  0
ARC
  5
733
330
1E
100
AcDbEntity
  8
STEMPEL
100
AcDbCircle
 10
265.1650140089482
 20
695.6174394693509
 30
0.0
 40
2.5
100
AcDbArc
 50
210.0000000000005
 51
270.0
  0
ARC
  5
734
330
1E
100
AcDbEntity
  8
STEMPEL
100
AcDbCircle
 10
271.6188615862423
 20
695.6174394693509
 30
0.0
 40
1.5
100
AcDbArc
 50
270.0
 51
329.9999999999956
  0
ARC
  5
735
330
1E
100
AcDbEntity
  8
STEMPEL
100
AcDbCircle
 10
274.4169377975948
 20
694.117439469351
 30
0.0
 40
1.5
100
AcDbArc
 50
29.99999999999059
 51
90.0
  0
ARC
  5
736
330
1E
100
AcDbEntity
  8
STEMPEL
100
AcDbCircle
 10
274.4169377975948
 20
694.117439469351
 30
0.0
 40
0.5
100
AcDbArc
 50
29.99999999999059
 51
90.0
  0
LINE
  5
737
330
1E
100
AcDbEntity
  8
STEMPEL
100
AcDbLine
 10
274.2169377975947
 20
694.6174394693509
 30
0.0
 11
274.4169377975948
 21
694.6174394693509
 31
0.0
  0
ARC
  5
738
330
1E
100
AcDbEntity
  8
STEMPEL
100
AcDbCircle
 10
277.0150140089488
 20
695.6174394693509
 30
0.0
 40
1.5
100
AcDbArc
 50
209.9999999999905
 51
270.0
  0
ARC
  5
739
330
1E
100
AcDbEntity
  8
STEMPEL
100
AcDbCircle
 10
277.0150140089488
 20
695.6174394693509
 30
0.0
 40
2.5
100
AcDbArc
 50
209.9999999999905
 51
270.0
  0
LINE
  5
73D
330
1E
100
AcDbEntity
  8
STEMPEL
100
AcDbLine
 10
358.6081940356
 20
679.2945200293948
 30
0.0
 11
334.6218911601332
 21
693.2865300400833
 31
0.0
  0
LINE
  5
73E
330
1E
100
AcDbEntity
  8
STEMPEL
100
AcDbLine
 10
358.0948529820191
 20
678.4362769162321
 30
0.0
 11
334.1159990890681
 21
692.4239300824176
 31
0.0
  0
LINE
  5
742
102
{ACAD_REACTORS
330
57E
330
CFF
102
}
330
1E
100
AcDbEntity
  8
STEMPEL
100
AcDbLine
 10
367.8579849926199
 20
426.1174394693503
 30
0.0
 11
310.0955836610265
 21
426.1174394693498
 31
0.0
  0
LINE
  5
743
330
1E
100
AcDbEntity
  8
STEMPEL
100
AcDbLine
 10
326.3659023269799
 20
422.7638860787561
 30
0.0
 11
372.661285851519
 21
422.7638860787561
 31
0.0
  0
LINE
  5
744
330
1E
100
AcDbEntity
  8
STEMPEL
100
AcDbLine
 10
326.9754994138919
 20
453.1174394693506
 30
0.0
 11
318.9754994138919
 21
453.1174394693506
 31
0.0
  0
LINE
  5
745
330
1E
100
AcDbEntity
  8
STEMPEL
100
AcDbLine
 10
317.975499413892
 20
452.1174394693505
 30
0.0
 11
327.9754994138917
 21
452.1174394693505
 31
0.0
  0
LINE
  5
74A
330
1E
100
AcDbEntity
  8
STEMPEL
100
AcDbLine
 10
318.9754994138919
 20
453.1174394693506
 30
0.0
 11
317.975499413892
 21
452.1174394693505
 31
0.0
  0
LINE
  5
74B
330
1E
100
AcDbEntity
  8
HILF
100
AcDbLine
 10
318.9754994138919
 20
453.1174394693506
 30
0.0
 11
318.9754994138919
 21
450.117439469351
 31
0.0
  0
ARC
  5
74C
102
{ACAD_REACTORS
330
57E
102
}
330
1E
100
AcDbEntity
  8
STEMPEL
100
AcDbCircle
 10
310.0955836610266
 20
420.11743946935
 30
0.0
 40
8.0
100
AcDbArc
 50
90.0
 51
137.4999999999941
  0
ARC
  5
74D
102
{ACAD_REACTORS
330
57E
102
}
330
1E
100
AcDbEntity
  8
STEMPEL
100
AcDbCircle
 10
310.0955836610266
 20
420.11743946935
 30
0.0
 40
6.0
100
AcDbArc
 50
90.0
 51
137.4999999999941
  0
ARC
  5
74E
330
1E
100
AcDbEntity
  8
STEMPEL
100
AcDbCircle
 10
317.0754994138917
 20
437.117439469351
 30
0.0
 40
3.0
100
AcDbArc
 50
90.0
 51
270.0
  0
LINE
  5
758
330
1E
100
AcDbEntity
  8
STEMPEL
100
AcDbLine
 10
317.975499413892
 20
452.1174394693505
 30
0.0
 11
317.9754994138919
 21
450.1174394693509
 31
0.0
  0
LINE
  5
759
330
1E
100
AcDbEntity
  8
STEMPEL
100
AcDbLine
 10
327.975499413892
 20
452.1174394693505
 30
0.0
 11
326.9754994138919
 21
453.1174394693506
 31
0.0
  0
LINE
  5
75A
330
1E
100
AcDbEntity
  8
HILF
100
AcDbLine
 10
326.9754994138919
 20
453.1174394693506
 30
0.0
 11
326.9754994138919
 21
450.117439469351
 31
0.0
  0
LINE
  5
75B
102
{ACAD_REACTORS
330
57E
102
}
330
1E
100
AcDbEntity
  8
MITTEL
100
AcDbLine
 10
322.9754994138918
 20
458.1174394693506
 30
0.0
 11
322.9754994138919
 21
423.1174394693499
 31
0.0
  0
LINE
  5
761
330
1E
100
AcDbEntity
  8
STEMPEL
100
AcDbLine
 10
327.975499413892
 20
452.1174394693505
 30
0.0
 11
327.9754994138919
 21
450.1174394693509
 31
0.0
  0
LINE
  5
764
330
1E
100
AcDbEntity
  8
STEMPEL
100
AcDbLine
 10
365.1360559465295
 20
454.1174394693515
 30
0.0
 11
381.575499413892
 21
454.1174394693515
 31
0.0
  0
LINE
  5
765
330
1E
100
AcDbEntity
  8
STEMPEL
100
AcDbLine
 10
365.1360559465295
 20
454.1174394693519
 30
0.0
 11
364.9774371977382
 21
445.0301774371658
 31
0.0
  0
LINE
  5
766
330
1E
100
AcDbEntity
  8
STEMPEL
100
AcDbLine
 10
365.5754994138917
 20
454.1174394693507
 30
0.0
 11
365.4168806651005
 21
445.0301774371649
 31
0.0
  0
ARC
  5
767
330
1E
100
AcDbEntity
  8
STEMPEL
100
AcDbCircle
 10
359.9781987219562
 20
445.1174394693522
 30
0.0
 40
5.0
100
AcDbArc
 50
270.0
 51
359.0000000000015
  0
ARC
  5
768
330
1E
100
AcDbEntity
  8
STEMPEL
100
AcDbCircle
 10
360.4176421893185
 20
445.117439469351
 30
0.0
 40
5.0
100
AcDbArc
 50
270.0
 51
359.0000000000015
  0
LINE
  5
769
330
1E
100
AcDbEntity
  8
MITTEL
100
AcDbLine
 10
373.5754994138919
 20
459.1174394693514
 30
0.0
 11
373.5754994138917
 21
429.1174394693499
 31
0.0
  0
LINE
  5
76A
330
1E
100
AcDbEntity
  8
STEMPEL
100
AcDbLine
 10
371.2254994138917
 20
454.1174394693515
 30
0.0
 11
371.2254994138918
 21
434.1174394693501
 31
0.0
  0
LINE
  5
76B
330
1E
100
AcDbEntity
  8
HILF
100
AcDbLine
 10
370.5754994138918
 20
454.1174394693515
 30
0.0
 11
370.5754994138918
 21
434.1174394693501
 31
0.0
  0
LINE
  5
76C
330
1E
100
AcDbEntity
  8
STEMPEL
100
AcDbLine
 10
375.9254994138914
 20
454.1174394693515
 30
0.0
 11
375.9254994138919
 21
434.1174394693501
 31
0.0
  0
LINE
  5
76D
330
1E
100
AcDbEntity
  8
HILF
100
AcDbLine
 10
376.5754994138905
 20
454.1174394693515
 30
0.0
 11
376.5754994138924
 21
434.1174394693501
 31
0.0
  0
LINE
  5
76E
330
1E
100
AcDbEntity
  8
STEMPEL
100
AcDbLine
 10
381.5754994138917
 20
454.1174394693507
 30
0.0
 11
381.835802223377
 21
439.2047015015373
 31
0.0
  0
ARC
  5
76F
330
1E
100
AcDbEntity
  8
STEMPEL
100
AcDbCircle
 10
376.8365637475952
 20
439.117439469351
 30
0.0
 40
5.0
100
AcDbArc
 50
270.0
 51
1.000000000000133
  0
LINE
  5
770
102
{ACAD_REACTORS
330
57E
102
}
330
1E
100
AcDbEntity
  8
STEMPEL
100
AcDbLine
 10
374.0754994138921
 20
424.1780996411295
 30
0.0
 11
371.7470722891461
 21
426.5065267658757
 31
0.0
  0
LINE
  5
771
102
{ACAD_REACTORS
330
57E
102
}
330
1E
100
AcDbEntity
  8
STEMPEL
100
AcDbLine
 10
372.661285851519
 20
422.7638860787563
 30
0.0
 11
370.332858726773
 21
425.0923132035025
 31
0.0
  0
ARC
  5
772
102
{ACAD_REACTORS
330
57E
102
}
330
1E
100
AcDbEntity
  8
STEMPEL
100
AcDbCircle
 10
367.8579849926199
 20
422.6174394693497
 30
0.0
 40
3.499999999999851
100
AcDbArc
 50
44.99999999999942
 51
90.0
  0
ARC
  5
773
102
{ACAD_REACTORS
330
57E
102
}
330
1E
100
AcDbEntity
  8
STEMPEL
100
AcDbCircle
 10
367.8579849926199
 20
422.6174394693497
 30
0.0
 40
5.499999999999851
100
AcDbArc
 50
44.99999999999942
 51
90.0
  0
LINE
  5
776
102
{ACAD_REACTORS
330
57E
102
}
330
1E
100
AcDbEntity
  8
STEMPEL
100
AcDbLine
 10
374.0754994138921
 20
424.1780996411295
 30
0.0
 11
372.6612858515192
 21
422.7638860787561
 31
0.0
  0
LINE
  5
777
102
{ACAD_REACTORS
330
57F
102
}
330
1E
100
AcDbEntity
  8
STEMPEL
100
AcDbLine
 10
367.8579849926198
 20
576.11743946935
 30
0.0
 11
309.8892079128765
 21
576.1174394693498
 31
0.0
  0
LINE
  5
778
330
1E
100
AcDbEntity
  8
STEMPEL
100
AcDbLine
 10
304.0503731480442
 20
572.7638860787561
 30
0.0
 11
372.6612858515189
 21
572.7638860787561
 31
0.0
  0
LWPOLYLINE
  5
779
330
1E
100
AcDbEntity
  8
STEMPEL
100
AcDbPolyline
 90
       10
 70
   128
 43
0.0
 10
-346.7754805315694
 20
604.1174394693514
 10
-346.0177309064752
 20
604.2085929512782
 10
-345.2830051202996
 20
604.4792837446359
 10
-344.5936274442666
 20
604.9212870466447
 10
-343.97054427022
 20
605.5211728106375
 10
-343.4326876651087
 20
606.2607138112323
 10
-342.9964001297096
 20
607.1174394693517
 10
-342.6749380400145
 20
608.0653186093975
 10
-342.4780688589503
 20
609.0755504033502
 10
-342.4117743569636
 20
610.1174394693519
210
0.0
220
0.0
230
-1.0
  0
LINE
  5
77A
330
1E
100
AcDbEntity
  8
STEMPEL
100
AcDbLine
 10
344.3633511854819
 20
605.1174394693514
 30
0.0
 11
336.0271506371701
 21
605.1174394693514
 31
0.0
  0
LWPOLYLINE
  5
77B
330
1E
100
AcDbEntity
  8
STEMPEL
100
AcDbPolyline
 90
       10
 70
   128
 43
0.0
 10
338.6412845262185
 20
624.1174394693528
 10
337.8484571803588
 20
624.0034976169442
 10
337.0797194922129
 20
623.6651341252468
 10
336.3584291674353
 20
623.1126299977359
 10
335.706502247554
 20
622.3627727927446
 10
335.1437472021382
 20
621.4383465420012
 10
334.6872630584753
 20
620.3674394693519
 10
334.3509198562785
 20
619.1825905442942
 10
334.1449372135485
 20
617.9198008018533
 10
334.0755738086525
 20
616.6174394693512
  0
LWPOLYLINE
  5
77C
330
1E
100
AcDbEntity
  8
STEMPEL
100
AcDbPolyline
 90
       18
 70
   128
 43
0.0
 10
342.4117743569634
 20
616.6174394693496
 10
342.3340344557032
 20
617.995560852974
 10
342.1034620910214
 20
619.3267519657538
 10
341.7279091282562
 20
620.5656806909305
 10
341.2201645731286
 20
621.6701567966997
 10
340.5975190574907
 20
622.6025686739526
 10
339.8811760275965
 20
623.331164154514
 10
339.0955296861707
 20
623.8311317931472
 10
338.2673342770913
 20
624.0854457915638
 10
337.4247930017036
 20
624.0854457915638
 10
336.5965975926242
 20
623.8311317931472
 10
335.8109512511983
 20
623.331164154514
 10
335.0946082213043
 20
622.6025686739526
 10
334.4719627056663
 20
621.6701567966997
 10
333.9642181505385
 20
620.5656806909305
 10
333.5886651877733
 20
619.3267519657538
 10
333.3580928230915
 20
617.995560852974
 10
333.2803529218316
 20
616.6174394693496
  0
LWPOLYLINE
  5
77D
330
1E
100
AcDbEntity
  8
STEMPEL
100
AcDbPolyline
 90
        9
 70
   128
 43
0.0
 10
318.078328836215
 20
624.1075735471731
 10
316.9619211148438
 20
623.9002664107661
 10
315.8966418631016
 20
623.4310116833123
 10
314.9208068800633
 20
622.7166874461438
 10
314.0695148472052
 20
621.7829864027473
 10
313.3733849044688
 20
620.6634917675869
 10
312.8574553457775
 20
619.3984693502482
 10
312.5402830455616
 20
618.033419281039
 10
312.4332760079735
 20
616.6174394693512
  0
LWPOLYLINE
  5
77E
330
1E
100
AcDbEntity
  8
STEMPEL
100
AcDbPolyline
 90
       18
 70
   128
 43
0.0
 10
323.72338166448
 20
616.6174394693496
 10
323.6220690526757
 20
617.995560852974
 10
323.3215812967464
 20
619.3267519657538
 10
322.8321511468252
 20
620.5656806909305
 10
322.1704455596607
 20
621.6701567966997
 10
321.3589981253956
 20
622.6025686739526
 10
320.4254417131799
 20
623.331164154514
 10
319.4015674669538
 20
623.8311317931472
 10
318.3222421961712
 20
624.0854457915638
 10
317.22422102842
 20
624.0854457915638
 10
316.1448957576372
 20
623.8311317931472
 10
315.1210215114111
 20
623.331164154514
 10
314.1874650991954
 20
622.6025686739526
 10
313.3760176649303
 20
621.6701567966997
 10
312.714312077766
 20
620.5656806909305
 10
312.2248819278448
 20
619.3267519657538
 10
311.9243941719155
 20
617.995560852974
 10
311.8230815601112
 20
616.6174394693496
  0
LINE
  5
77F
330
1E
100
AcDbEntity
  8
STEMPEL
100
AcDbLine
 10
326.9754994138919
 20
603.1174394693502
 30
0.0
 11
318.9754994138918
 21
603.1174394693502
 31
0.0
  0
LINE
  5
784
330
1E
100
AcDbEntity
  8
STEMPEL
100
AcDbLine
 10
317.9754994138918
 20
602.1174394693503
 30
0.0
 11
327.9754994138916
 21
602.1174394693503
 31
0.0
  0
LINE
  5
785
330
1E
100
AcDbEntity
  8
STEMPEL
100
AcDbLine
 10
325.3836795323299
 20
605.1174394693512
 30
0.0
 11
314.0712990840782
 21
605.1174394693514
 31
0.0
  0
ARC
  5
787
102
{ACAD_REACTORS
330
57F
102
}
330
1E
100
AcDbEntity
  8
STEMPEL
100
AcDbCircle
 10
309.8892079128766
 20
570.11743946935
 30
0.0
 40
6.0
100
AcDbArc
 50
90.0
 51
135.0000000000003
  0
ARC
  5
788
102
{ACAD_REACTORS
330
57F
102
}
330
1E
100
AcDbEntity
  8
STEMPEL
100
AcDbCircle
 10
309.8892079128766
 20
570.11743946935
 30
0.0
 40
8.0
100
AcDbArc
 50
90.0
 51
135.0000000000003
  0
LINE
  5
789
102
{ACAD_REACTORS
330
DA8
102
}
330
1E
100
AcDbEntity
  8
STEMPEL
100
AcDbLine
 10
314.0754994138918
 20
581.1174394693498
 30
0.0
 11
314.0754994138918
 21
578.1174394693498
 31
0.0
  0
LINE
  5
78A
330
1E
100
AcDbEntity
  8
HILF
100
AcDbLine
 10
318.9754994138922
 20
584.1174394693499
 30
0.0
 11
318.9754994138919
 21
581.1174394693503
 31
0.0
  0
LINE
  5
78B
330
1E
100
AcDbEntity
  8
STEMPEL
100
AcDbLine
 10
317.9754994138921
 20
584.1174394693499
 30
0.0
 11
317.9754994138921
 21
581.1174394693505
 31
0.0
  0
LWPOLYLINE
  5
78C
330
1E
100
AcDbEntity
  8
STEMPEL
100
AcDbPolyline
 90
       10
 70
   128
 43
0.0
 10
-302.8405733538388
 20
604.1174394693514
 10
-302.3678433960852
 20
604.2085929512782
 10
-301.909477098885
 20
604.4792837446359
 10
-301.4794016902342
 20
604.9212870466447
 10
-301.0906847937961
 20
605.5211728106375
 10
-300.7551373757683
 20
606.2607138112323
 10
-300.4829548746527
 20
607.1174394693517
 10
-300.2824074180146
 20
608.0653186093975
 10
-300.1595885388422
 20
609.0755504033502
 10
-300.1182300266298
 20
610.1174394693519
210
0.0
220
0.0
230
-1.0
  0
LINE
  5
78D
330
1E
100
AcDbEntity
  8
STEMPEL
100
AcDbLine
 10
300.1182300266298
 20
616.6174394693496
 30
0.0
 11
300.1182300266298
 21
610.117439469353
 31
0.0
  0
LINE
  5
78E
330
1E
100
AcDbEntity
  8
HILF
100
AcDbLine
 10
318.9754994138918
 20
603.1174394693502
 30
0.0
 11
318.9754994138918
 21
600.1174394693507
 31
0.0
  0
LINE
  5
78F
330
1E
100
AcDbEntity
  8
STEMPEL
100
AcDbLine
 10
317.9754994138918
 20
602.1174394693503
 30
0.0
 11
317.9754994138918
 21
600.1174394693507
 31
0.0
  0
ARC
  5
792
102
{ACAD_REACTORS
330
587
102
}
330
1E
100
AcDbEntity
  8
STEMPEL
100
AcDbCircle
 10
317.075499413892
 20
587.1174394693505
 30
0.0
 40
3.0
100
AcDbArc
 50
90.0
 51
270.0
  0
LWPOLYLINE
  5
796
330
1E
100
AcDbEntity
  8
STEMPEL
100
AcDbPolyline
 90
       10
 70
   128
 43
0.0
 10
-315.4856846956352
 20
604.1174394693514
 10
-314.8496803356343
 20
604.2085929512782
 10
-314.233000646278
 20
604.4792837446359
 10
-313.6543831278729
 20
604.9212870466447
 10
-313.1314087809212
 20
605.5211728106375
 10
-312.6799679163166
 20
606.2607138112323
 10
-312.3137773362907
 20
607.1174394693517
 10
-312.0439635563157
 20
608.0653186093975
 10
-311.8787247315641
 20
609.0755504033502
 10
-311.8230815601109
 20
610.1174394693519
210
0.0
220
0.0
230
-1.0
  0
LWPOLYLINE
  5
797
330
1E
100
AcDbEntity
  8
STEMPEL
100
AcDbPolyline
 90
        7
 70
   128
 43
0.0
 10
-314.0712990840786
 20
605.1174394693514
 10
-313.5996534835119
 20
605.7267773711921
 10
-313.195147007129
 20
606.4542076444816
 10
-312.8686593646401
 20
607.2801651384252
 10
-312.6289718512317
 20
608.1824346888875
 10
-312.4825311636057
 20
609.1367486231306
 10
-312.4332760079733
 20
610.1174394693519
210
0.0
220
0.0
230
-1.0
  0
LINE
  5
798
330
1E
100
AcDbEntity
  8
STEMPEL
100
AcDbLine
 10
311.8230815601109
 20
616.6174394693496
 30
0.0
 11
311.8230815601109
 21
610.117439469353
 31
0.0
  0
LINE
  5
799
330
1E
100
AcDbEntity
  8
STEMPEL
100
AcDbLine
 10
312.4332760079733
 20
616.6174394693496
 30
0.0
 11
312.4332760079733
 21
610.117439469353
 31
0.0
  0
LINE
  5
79A
330
1E
100
AcDbEntity
  8
STEMPEL
100
AcDbLine
 10
318.9754994138918
 20
603.1174394693502
 30
0.0
 11
317.9754994138918
 21
602.1174394693503
 31
0.0
  0
LINE
  5
79B
102
{ACAD_REACTORS
330
57F
330
587
330
DA8
102
}
330
1E
100
AcDbEntity
  8
MITTEL
100
AcDbLine
 10
322.9754994138917
 20
608.1174394693503
 30
0.0
 11
322.9754994138918
 21
573.1174394693495
 31
0.0
  0
LINE
  5
79C
330
1E
100
AcDbEntity
  8
STEMPEL
100
AcDbLine
 10
327.9754994138918
 20
584.1174394693499
 30
0.0
 11
327.9754994138921
 21
581.1174394693505
 31
0.0
  0
LINE
  5
79D
330
1E
100
AcDbEntity
  8
HILF
100
AcDbLine
 10
326.9754994138921
 20
584.1174394693499
 30
0.0
 11
326.9754994138921
 21
581.1174394693505
 31
0.0
  0
LINE
  5
7A0
330
1E
100
AcDbEntity
  8
STEMPEL
100
AcDbLine
 10
327.9754994138918
 20
602.1174394693503
 30
0.0
 11
327.9754994138918
 21
600.1174394693507
 31
0.0
  0
LINE
  5
7A1
330
1E
100
AcDbEntity
  8
HILF
100
AcDbLine
 10
326.9754994138919
 20
603.1174394693502
 30
0.0
 11
326.9754994138919
 21
600.1174394693507
 31
0.0
  0
LWPOLYLINE
  5
7A3
330
1E
100
AcDbEntity
  8
STEMPEL
100
AcDbPolyline
 90
       10
 70
   128
 43
0.0
 10
-327.3859848000041
 20
604.1174394693525
 10
-326.7499804400031
 20
604.2085929512793
 10
-326.1333007506469
 20
604.4792837446371
 10
-325.5546832322418
 20
604.9212870466458
 10
-325.0317088852901
 20
605.5211728106387
 10
-324.5802680206855
 20
606.2607138112334
 10
-324.2140774406596
 20
607.1174394693528
 10
-323.9442636606846
 20
608.0653186093987
 10
-323.7790248359329
 20
609.0755504033514
 10
-323.7233816644798
 20
610.117439469353
210
0.0
220
0.0
230
-1.0
  0
LINE
  5
7A4
330
1E
100
AcDbEntity
  8
STEMPEL
100
AcDbLine
 10
323.7233816644798
 20
616.6174394693496
 30
0.0
 11
323.7233816644798
 21
610.117439469353
 31
0.0
  0
LINE
  5
7A5
330
1E
100
AcDbEntity
  8
STEMPEL
100
AcDbLine
 10
327.9754994138918
 20
602.1174394693503
 30
0.0
 11
326.9754994138919
 21
603.1174394693502
 31
0.0
  0
LWPOLYLINE
  5
7A8
330
1E
100
AcDbEntity
  8
STEMPEL
100
AcDbPolyline
 90
       10
 70
   128
 43
0.0
 10
-337.6440590964376
 20
604.1174394693514
 10
-336.8863094713433
 20
604.2085929512782
 10
-336.1515836851677
 20
604.4792837446359
 10
-335.4622060091347
 20
604.9212870466447
 10
-334.8391228350881
 20
605.5211728106375
 10
-334.3012662299768
 20
606.2607138112323
 10
-333.8649786945778
 20
607.1174394693517
 10
-333.5435166048826
 20
608.0653186093975
 10
-333.3466474238185
 20
609.0755504033502
 10
-333.2803529218318
 20
610.1174394693519
210
0.0
220
0.0
230
-1.0
  0
LWPOLYLINE
  5
7A9
330
1E
100
AcDbEntity
  8
STEMPEL
100
AcDbPolyline
 90
        7
 70
   128
 43
0.0
 10
-336.0271506371707
 20
605.1174394693514
 10
-335.4652216639065
 20
605.7267773711921
 10
-334.9832837243194
 20
606.4542076444816
 10
-334.5942991445695
 20
607.2801651384252
 10
-334.3087301534631
 20
608.1824346888875
 10
-334.1342574876671
 20
609.1367486231306
 10
-334.0755738086523
 20
610.1174394693519
210
0.0
220
0.0
230
-1.0
  0
LINE
  5
7AA
330
1E
100
AcDbEntity
  8
STEMPEL
100
AcDbLine
 10
333.2803529218316
 20
616.6174394693496
 30
0.0
 11
333.2803529218316
 21
610.117439469353
 31
0.0
  0
LINE
  5
7AB
330
1E
100
AcDbEntity
  8
STEMPEL
100
AcDbLine
 10
334.0755738086523
 20
616.6174394693496
 30
0.0
 11
334.0755738086523
 21
610.117439469353
 31
0.0
  0
LINE
  5
7AC
330
1E
100
AcDbEntity
  8
STEMPEL
100
AcDbLine
 10
342.4117743569634
 20
616.6174394693496
 30
0.0
 11
342.4117743569634
 21
610.117439469353
 31
0.0
  0
LWPOLYLINE
  5
7AD
330
1E
100
AcDbEntity
  8
STEMPEL
100
AcDbPolyline
 90
        7
 70
   128
 43
0.0
 10
359.8837550879757
 20
623.0794935251893
 10
359.7459260784053
 20
622.3273872882507
 10
359.6270618014391
 20
621.404673677536
 10
359.530713799538
 20
620.3389224276318
 10
359.4597608519998
 20
619.1619770908107
 10
359.4163229599919
 20
617.9090035844088
 10
359.4016980030942
 20
616.6174394693496
  0
LWPOLYLINE
  5
7AE
330
1E
100
AcDbEntity
  8
STEMPEL
100
AcDbPolyline
 90
       18
 70
   128
 43
0.0
 10
360.3658121728567
 20
616.6174394693496
 10
360.3491437493799
 20
617.995560852974
 10
360.2997061021197
 20
619.3267519657538
 10
360.2191827708591
 20
620.5656806909305
 10
360.1103158810674
 20
621.6701567966997
 10
359.9768127641052
 20
622.6025686739526
 10
359.823219708501
 20
623.331164154514
 10
359.654767141549
 20
623.8311317931472
 10
359.4771915133801
 20
624.0854457915638
 10
359.2965399490331
 20
624.0854457915638
 10
359.118964320864
 20
623.8311317931472
 10
358.950511753912
 20
623.331164154514
 10
358.796918698308
 20
622.6025686739526
 10
358.6634155813456
 20
621.6701567966997
 10
358.5545486915539
 20
620.5656806909305
 10
358.4740253602936
 20
619.3267519657538
 10
358.4245877130332
 20
617.995560852974
 10
358.4079192895563
 20
616.6174394693496
  0
LWPOLYLINE
  5
7AF
330
1E
100
AcDbEntity
  8
STEMPEL
100
AcDbPolyline
 90
        9
 70
   128
 43
0.0
 10
352.5027264516361
 20
624.0191977140145
 10
352.0136659083673
 20
623.6927648162573
 10
351.5540529404664
 20
623.147495803
 10
351.1381031368421
 20
622.400255559872
 10
350.7786816075507
 20
621.4741558370945
 10
350.4869050726632
 20
620.3978404151241
 10
350.2717980279249
 20
619.2045991674933
 10
350.1400136218174
 20
617.9313384224173
 10
350.0956278771525
 20
616.6174394693512
  0
LWPOLYLINE
  5
7B0
330
1E
100
AcDbEntity
  8
STEMPEL
100
AcDbPolyline
 90
       18
 70
   128
 43
0.0
 10
354.9098250261229
 20
616.6174394693496
 10
354.8609556812067
 20
617.995560852974
 10
354.7160118333866
 20
619.3267519657538
 10
354.4799293715594
 20
620.5656806909305
 10
354.1607478008127
 20
621.6701567966997
 10
353.7693364667223
 20
622.6025686739526
 10
353.3190244128243
 20
623.331164154514
 10
352.8251464760249
 20
623.8311317931472
 10
352.3045210771199
 20
624.0854457915638
 10
351.7748774896481
 20
624.0854457915638
 10
351.2542520907432
 20
623.8311317931472
 10
350.7603741539437
 20
623.331164154514
 10
350.3100621000458
 20
622.6025686739526
 10
349.9186507659554
 20
621.6701567966997
 10
349.5994691952087
 20
620.5656806909305
 10
349.3633867333815
 20
619.3267519657538
 10
349.2184428855614
 20
617.995560852974
 10
349.1695735406452
 20
616.6174394693496
  0
LINE
  5
7B1
330
1E
100
AcDbEntity
  8
STEMPEL
100
AcDbLine
 10
361.5754994138922
 20
674.1173815020358
 30
0.0
 11
361.5754994138922
 21
610.1174394693519
 31
0.0
  0
LINE
  5
7B2
330
1E
100
AcDbEntity
  8
STEMPEL
100
AcDbLine
 10
360.575499413892
 20
674.1173815020358
 30
0.0
 11
360.575499413892
 21
610.1174394693519
 31
0.0
  0
LINE
  5
7B3
330
1E
100
AcDbEntity
  8
STEMPEL
100
AcDbLine
 10
381.5754994138917
 20
605.1174394693514
 30
0.0
 11
366.5754994138918
 21
605.1174394693516
 31
0.0
  0
LWPOLYLINE
  5
7B4
330
1E
100
AcDbEntity
  8
STEMPEL
100
AcDbPolyline
 90
       10
 70
   128
 43
0.0
 10
-359.725189552697
 20
604.1174394693514
 10
-358.8890102778553
 20
604.2085929512782
 10
-358.0782378871527
 20
604.4792837446359
 10
-357.3175072894098
 20
604.9212870466447
 10
-356.6299328988912
 20
605.5211728106375
 10
-356.0364063155228
 20
606.2607138112323
 10
-355.5549615442014
 20
607.1174394693517
 10
-355.2002270406811
 20
608.0653186093975
 10
-354.9829812333469
 20
609.0755504033502
 10
-354.9098250261229
 20
610.1174394693519
210
0.0
220
0.0
230
-1.0
  0
LINE
  5
7B5
330
1E
100
AcDbEntity
  8
STEMPEL
100
AcDbLine
 10
357.0633966587916
 20
605.1174394693514
 30
0.0
 11
352.2491995098201
 21
605.1174394693514
 31
0.0
  0
LWPOLYLINE
  5
7B6
330
1E
100
AcDbEntity
  8
STEMPEL
100
AcDbPolyline
 90
       10
 70
   128
 43
0.0
 10
-353.9849380672192
 20
604.1174394693514
 10
-353.1487587923775
 20
604.2085929512782
 10
-352.3379864016749
 20
604.4792837446359
 10
-351.5772558039321
 20
604.9212870466447
 10
-350.8896814134134
 20
605.5211728106375
 10
-350.296154830045
 20
606.2607138112323
 10
-349.8147100587237
 20
607.1174394693517
 10
-349.4599755552033
 20
608.0653186093975
 10
-349.2427297478692
 20
609.0755504033502
 10
-349.1695735406452
 20
610.1174394693519
210
0.0
220
0.0
230
-1.0
  0
LINE
  5
7B7
330
1E
100
AcDbEntity
  8
STEMPEL
100
AcDbLine
 10
349.1695735406452
 20
616.6174394693496
 30
0.0
 11
349.1695735406452
 21
610.117439469353
 31
0.0
  0
LWPOLYLINE
  5
7B8
330
1E
100
AcDbEntity
  8
STEMPEL
100
AcDbPolyline
 90
        7
 70
   128
 43
0.0
 10
-352.2491995098212
 20
605.1174394693514
 10
-351.6291089867568
 20
605.7267773711921
 10
-351.0972888399733
 20
606.4542076444813
 10
-350.6680430402421
 20
607.2801651384252
 10
-350.3529166924447
 20
608.1824346888875
 10
-350.160385515479
 20
609.1367486231306
 10
-350.0956278771525
 20
610.1174394693519
210
0.0
220
0.0
230
-1.0
  0
LINE
  5
7B9
330
1E
100
AcDbEntity
  8
STEMPEL
100
AcDbLine
 10
354.9098250261229
 20
616.6174394693496
 30
0.0
 11
354.9098250261229
 21
610.117439469353
 31
0.0
  0
LINE
  5
7BA
330
1E
100
AcDbEntity
  8
STEMPEL
100
AcDbLine
 10
350.0956278771525
 20
616.6174394693496
 30
0.0
 11
350.0956278771525
 21
610.117439469353
 31
0.0
  0
LINE
  5
7BB
330
1E
100
AcDbEntity
  8
STEMPEL
100
AcDbLine
 10
365.1360559465295
 20
604.1174394693516
 30
0.0
 11
364.9774371977382
 21
595.0301774371655
 31
0.0
  0
LINE
  5
7BC
102
{ACAD_REACTORS
330
587
102
}
330
1E
100
AcDbEntity
  8
STEMPEL
100
AcDbLine
 10
365.5754994138917
 20
604.1174394693505
 30
0.0
 11
365.4168806651005
 21
595.0301774371646
 31
0.0
  0
ARC
  5
7BD
330
1E
100
AcDbEntity
  8
STEMPEL
100
AcDbCircle
 10
359.9781987219562
 20
595.1174394693518
 30
0.0
 40
5.0
100
AcDbArc
 50
270.0
 51
359.0000000000015
  0
ARC
  5
7BE
102
{ACAD_REACTORS
330
587
102
}
330
1E
100
AcDbEntity
  8
STEMPEL
100
AcDbCircle
 10
360.4176421893185
 20
595.1174394693508
 30
0.0
 40
5.0
100
AcDbArc
 50
270.0
 51
359.0000000000015
  0
LWPOLYLINE
  5
7BF
330
1E
100
AcDbEntity
  8
STEMPEL
100
AcDbPolyline
 90
        7
 70
   128
 43
0.0
 10
-362.0221571867651
 20
605.1174394693519
 10
-361.3454553116876
 20
605.7270401972109
 10
-360.7459058880536
 20
606.4545992811225
 10
-360.239617214904
 20
607.2805691428027
 10
-359.8401919228584
 20
608.1827581680059
 10
-359.5583615075955
 20
609.1369269361994
 10
-359.401698003094
 20
610.1174394693519
210
0.0
220
0.0
230
-1.0
  0
LWPOLYLINE
  5
7C0
330
1E
100
AcDbEntity
  8
STEMPEL
100
AcDbPolyline
 90
       10
 70
   128
 43
0.0
 10
-363.9139080205871
 20
604.1174394693514
 10
-363.0558350243143
 20
604.183566683924
 10
-362.2030228246922
 20
604.4361204336541
 10
-361.3822645177752
 20
604.8671661499717
 10
-360.619346151376
 20
605.4631615204116
 10
-359.938236595877
 20
606.2053819521322
 10
-359.3603345059312
 20
607.0705088489298
 10
-358.903796031525
 20
608.0313622196459
 10
-358.5829643999275
 20
609.057754601358
 10
-358.4079192895563
 20
610.1174394693507
210
0.0
220
0.0
230
-1.0
  0
ARC
  5
7C1
330
1E
100
AcDbEntity
  8
STEMPEL
100
AcDbCircle
 10
366.575499413892
 20
610.1174394693519
 30
0.0
 40
6.0
100
AcDbArc
 50
180.0
 51
270.0
  0
LWPOLYLINE
  5
7C2
330
1E
100
AcDbEntity
  8
STEMPEL
100
AcDbPolyline
 90
       10
 70
   128
 43
0.0
 10
-365.8718009038876
 20
604.1174394693525
 10
-365.0137279076148
 20
604.1835666839252
 10
-364.1609157079927
 20
604.4361204336553
 10
-363.3401574010757
 20
604.8671661499729
 10
-362.5772390346765
 20
605.4631615204128
 10
-361.8961294791775
 20
606.2053819521334
 10
-361.3182273892316
 20
607.070508848931
 10
-360.8616889148255
 20
608.031362219647
 10
-360.540857283228
 20
609.0577546013592
 10
-360.3658121728567
 20
610.1174394693519
210
0.0
220
0.0
230
-1.0
  0
ARC
  5
7C3
330
1E
100
AcDbEntity
  8
STEMPEL
100
AcDbCircle
 10
366.575499413892
 20
610.1174394693519
 30
0.0
 40
5.0
100
AcDbArc
 50
180.0
 51
270.0
  0
LINE
  5
7C4
330
1E
100
AcDbEntity
  8
STEMPEL
100
AcDbLine
 10
359.4016980030942
 20
616.6174394693496
 30
0.0
 11
359.4016980030942
 21
610.1174394693519
 31
0.0
  0
LINE
  5
7C5
330
1E
100
AcDbEntity
  8
STEMPEL
100
AcDbLine
 10
358.4079192895563
 20
616.6174394693496
 30
0.0
 11
358.4079192895563
 21
610.1174394693507
 31
0.0
  0
LINE
  5
7C6
330
1E
100
AcDbEntity
  8
STEMPEL
100
AcDbLine
 10
360.3658121728567
 20
616.6174394693496
 30
0.0
 11
360.3658121728567
 21
610.1174394693519
 31
0.0
  0
LINE
  5
7C7
330
1E
100
AcDbEntity
  8
STEMPEL
100
AcDbLine
 10
362.9862713565274
 20
605.1174394693514
 30
0.0
 11
362.0221571867649
 21
605.1174394693514
 31
0.0
  0
ARC
  5
7C9
102
{ACAD_REACTORS
330
587
102
}
330
1E
100
AcDbEntity
  8
STEMPEL
100
AcDbCircle
 10
376.8365637475952
 20
589.1174394693507
 30
0.0
 40
5.0
100
AcDbArc
 50
270.0
 51
1.000000000000133
  0
LINE
  5
7CA
102
{ACAD_REACTORS
330
57F
102
}
330
1E
100
AcDbEntity
  8
STEMPEL
100
AcDbLine
 10
374.075499413892
 20
574.1780996411294
 30
0.0
 11
371.747072289146
 21
576.5065267658756
 31
0.0
  0
LINE
  5
7CB
102
{ACAD_REACTORS
330
57F
102
}
330
1E
100
AcDbEntity
  8
STEMPEL
100
AcDbLine
 10
372.6612858515189
 20
572.7638860787562
 30
0.0
 11
370.3328587267729
 21
575.0923132035024
 31
0.0
  0
ARC
  5
7CC
102
{ACAD_REACTORS
330
57F
102
}
330
1E
100
AcDbEntity
  8
STEMPEL
100
AcDbCircle
 10
367.8579849926198
 20
572.6174394693495
 30
0.0
 40
3.499999999999851
100
AcDbArc
 50
44.99999999999971
 51
90.0
  0
ARC
  5
7CD
102
{ACAD_REACTORS
330
57F
102
}
330
1E
100
AcDbEntity
  8
STEMPEL
100
AcDbCircle
 10
367.8579849926198
 20
572.6174394693495
 30
0.0
 40
5.499999999999851
100
AcDbArc
 50
44.99999999999971
 51
90.0
  0
LINE
  5
7CE
102
{ACAD_REACTORS
330
DA8
102
}
330
1E
100
AcDbEntity
  8
STEMPEL
100
AcDbLine
 10
374.0754994138919
 20
581.1174394693498
 30
0.0
 11
374.0754994138919
 21
578.1174394693498
 31
0.0
  0
LINE
  5
7CF
102
{ACAD_REACTORS
330
57F
102
}
330
1E
100
AcDbEntity
  8
STEMPEL
100
AcDbLine
 10
374.075499413892
 20
574.1780996411294
 30
0.0
 11
372.6612858515191
 21
572.7638860787561
 31
0.0
  0
LINE
  5
7D3
102
{ACAD_REACTORS
330
587
102
}
330
1E
100
AcDbEntity
  8
STEMPEL
100
AcDbLine
 10
376.5754994138918
 20
604.1174394693514
 30
0.0
 11
381.575499413892
 21
604.1174394693514
 31
0.0
  0
LINE
  5
7D4
102
{ACAD_REACTORS
330
587
102
}
330
1E
100
AcDbEntity
  8
STEMPEL
100
AcDbLine
 10
376.5754994138918
 20
605.1174394693516
 30
0.0
 11
376.5754994138918
 21
591.3674394693516
 31
0.0
  0
LINE
  5
7D5
330
1E
100
AcDbEntity
  8
HILF
100
AcDbLine
 10
375.9254994138919
 20
590.7174394693518
 30
0.0
 11
375.9254994138919
 21
605.1174394693516
 31
0.0
  0
LINE
  5
7D6
102
{ACAD_REACTORS
330
587
102
}
330
1E
100
AcDbEntity
  8
STEMPEL
100
AcDbLine
 10
370.5754994138918
 20
605.1174394693516
 30
0.0
 11
370.5754994138918
 21
591.3674394693516
 31
0.0
  0
LINE
  5
7D7
330
1E
100
AcDbEntity
  8
HILF
100
AcDbLine
 10
371.2254994138918
 20
590.7174394693518
 30
0.0
 11
371.2254994138918
 21
605.1174394693516
 31
0.0
  0
LINE
  5
7D8
330
1E
100
AcDbEntity
  8
MITTEL
100
AcDbLine
 10
373.5754994138917
 20
616.7174394693516
 30
0.0
 11
373.5754994138917
 21
584.1174394693499
 31
0.0
  0
LINE
  5
7D9
330
1E
100
AcDbEntity
  8
STEMPEL
100
AcDbLine
 10
370.5754994138918
 20
591.3674394693516
 30
0.0
 11
376.5754994138918
 21
591.3674394693516
 31
0.0
  0
LINE
  5
7DA
330
1E
100
AcDbEntity
  8
STEMPEL
100
AcDbLine
 10
371.2254994138918
 20
590.7174394693518
 30
0.0
 11
375.9254994138919
 21
590.7174394693518
 31
0.0
  0
LINE
  5
7DB
102
{ACAD_REACTORS
330
587
102
}
330
1E
100
AcDbEntity
  8
STEMPEL
100
AcDbLine
 10
371.2254994138918
 20
590.7174394693518
 30
0.0
 11
371.2254994138918
 21
584.11743946935
 31
0.0
  0
LINE
  5
7DC
102
{ACAD_REACTORS
330
587
102
}
330
1E
100
AcDbEntity
  8
STEMPEL
100
AcDbLine
 10
370.5754994138918
 20
591.3674394693516
 30
0.0
 11
371.2254994138918
 21
590.7174394693518
 31
0.0
  0
LINE
  5
7DD
102
{ACAD_REACTORS
330
587
102
}
330
1E
100
AcDbEntity
  8
HILF
100
AcDbLine
 10
370.5754994138918
 20
591.3674394693516
 30
0.0
 11
370.5754994138918
 21
584.11743946935
 31
0.0
  0
LINE
  5
7DE
102
{ACAD_REACTORS
330
587
102
}
330
1E
100
AcDbEntity
  8
STEMPEL
100
AcDbLine
 10
375.9254994138918
 20
590.7174394693518
 30
0.0
 11
375.9254994138919
 21
584.11743946935
 31
0.0
  0
LINE
  5
7DF
102
{ACAD_REACTORS
330
587
102
}
330
1E
100
AcDbEntity
  8
STEMPEL
100
AcDbLine
 10
375.9254994138919
 20
590.7174394693518
 30
0.0
 11
376.5754994138918
 21
591.3674394693516
 31
0.0
  0
LINE
  5
7E0
102
{ACAD_REACTORS
330
587
102
}
330
1E
100
AcDbEntity
  8
HILF
100
AcDbLine
 10
376.5754994138918
 20
591.3674394693516
 30
0.0
 11
376.5754994138924
 21
584.1174394693498
 31
0.0
  0
LINE
  5
7E8
330
1E
100
AcDbEntity
  8
STEMPEL
100
AcDbLine
 10
369.575499413892
 20
605.1174394693519
 30
0.0
 11
369.575499413892
 21
604.1174394693514
 31
0.0
  0
LINE
  5
7EB
330
1E
100
AcDbEntity
  8
STEMPEL
100
AcDbLine
 10
377.575499413892
 20
605.1174394693514
 30
0.0
 11
377.575499413892
 21
604.1174394693514
 31
0.0
  0
LINE
  5
7EC
102
{ACAD_REACTORS
330
587
102
}
330
1E
100
AcDbEntity
  8
STEMPEL
100
AcDbLine
 10
381.5754994138917
 20
604.1174394693505
 30
0.0
 11
381.835802223377
 21
589.204701501537
 31
0.0
  0
LINE
  5
7ED
330
1E
100
AcDbEntity
  8
STEMPEL
100
AcDbLine
 10
381.5754994138917
 20
605.1174394693516
 30
0.0
 11
381.575499413892
 21
604.1174394693514
 31
0.0
  0
ARC
  5
7F1
330
1E
100
AcDbEntity
  8
STEMPEL
100
AcDbCircle
 10
355.575499413892
 20
674.1173815020358
 30
0.0
 40
6.0
100
AcDbArc
 50
0.0
 51
59.74358352518194
  0
ARC
  5
7F2
330
1E
100
AcDbEntity
  8
STEMPEL
100
AcDbCircle
 10
355.575499413892
 20
674.1173815020358
 30
0.0
 40
5.0
100
AcDbArc
 50
0.0
 51
59.74358352518194
  0
ARC
  5
7F3
330
1E
100
AcDbEntity
  8
STEMPEL
100
AcDbCircle
 10
361.0866430182036
 20
683.6372764518132
 30
0.0
 40
5.0
100
AcDbArc
 50
239.7435628364722
 51
239.9329541615166
  0
ARC
  5
7F4
330
1E
100
AcDbEntity
  8
STEMPEL
100
AcDbCircle
 10
331.5754994138922
 20
688.1174394693509
 30
0.0
 40
5.0
100
AcDbArc
 50
59.46264995170133
 51
90.0
  0
ARC
  5
7F5
330
1E
100
AcDbEntity
  8
STEMPEL
100
AcDbCircle
 10
331.5754994138922
 20
688.1174394693509
 30
0.0
 40
6.0
100
AcDbArc
 50
59.4871256723793
 51
90.0
  0
ARC
  5
7F6
330
1E
100
AcDbEntity
  8
STEMPEL
100
AcDbCircle
 10
331.5754994138922
 20
688.1174394693509
 30
0.0
 40
6.0
100
AcDbArc
 50
90.0
 51
90.0
  0
TEXT
  5
7F7
330
1E
100
AcDbEntity
  8
TEXT
100
AcDbText
 10
482.3280000000001
 20
471.8550995097767
 30
0.0
 40
5.0
  1
Erstellt mit AUTOCAD 2004
 50
90.0
 41
0.8
  7
GREEKS
100
AcDbText
  0
TEXT
  5
7F8
330
1E
100
AcDbEntity
  8
TEXT
100
AcDbText
 10
551.3702584697737
 20
654.9837501577824
 30
0.0
 40
4.0
  1
21123070W.DWG
 50
90.0
 41
0.8
  7
GREEKS
100
AcDbText
  0
TEXT
  5
7F9
330
1E
100
AcDbEntity
  8
TEXT
100
AcDbText
 10
542.3598805695784
 20
655.1296391125313
 30
0.0
 40
5.0
  1
EDV-Art.Nr. 21123.070X
 50
90.0
 41
0.8
  7
GREEKS
100
AcDbText
  0
TEXT
  5
7FA
330
1E
100
AcDbEntity
  8
TEXT
100
AcDbText
 10
522.4966558241471
 20
655.1296391125313
 30
0.0
 40
5.0
  1
DN70 mit Wärmedämmung
 50
90.0
 41
0.8
  7
GREEKS
100
AcDbText
  0
TEXT
  5
7FB
330
1E
100
AcDbEntity
  8
TEXT
 62
     1
100
AcDbText
 10
506.5825121074622
 20
654.3055652248177
 30
0.0
 40
7.0
  1
Drainjet Kompletteinheit
 50
90.0
 41
0.7
  7
GREEKS
100
AcDbText
  0
LINE
  5
7FC
330
1E
100
AcDbEntity
  8
STEMPEL
100
AcDbLine
 10
584.0
 20
479.9999999999998
 30
0.0
 11
584.0
 21
829.9999999999997
 31
0.0
  0
TEXT
  5
7FD
330
1E
100
AcDbEntity
  8
TEXT
100
AcDbText
 10
563.1543942980694
 20
654.7422383911357
 30
0.0
 40
5.0
  1
Bauvorhaben
 50
90.0
 41
0.8
  7
GREEKS
100
AcDbText
  0
TEXT
  5
7FE
330
1E
100
AcDbEntity
  8
TEXT
100
AcDbText
 10
491.4510671988221
 20
654.8779403809008
 30
0.0
 40
5.0
  1
Benennung
 50
90.0
 41
0.8
  7
GREEKS
100
AcDbText
  0
LINE
  5
7FF
330
1E
100
AcDbEntity
  8
HILF
100
AcDbLine
 10
579.1060174197168
 20
653.4909699289883
 30
0.0
 11
579.1060174197168
 21
824.8588839326725
 31
0.0
  0
LINE
  5
800
330
1E
100
AcDbEntity
  8
HILF
100
AcDbLine
 10
544.0000000000001
 20
654.7736801096946
 30
0.0
 11
544.0000000000001
 21
744.8353916556307
 31
0.0
  0
LINE
  5
801
330
1E
100
AcDbEntity
  8
HILF
100
AcDbLine
 10
534.0000000000001
 20
654.7736801096946
 30
0.0
 11
534.0000000000001
 21
744.8353916556307
 31
0.0
  0
LINE
  5
802
330
1E
100
AcDbEntity
  8
HILF
100
AcDbLine
 10
524.0000000000001
 20
654.7736801096946
 30
0.0
 11
524.0000000000001
 21
744.8353916556307
 31
0.0
  0
LINE
  5
803
330
1E
100
AcDbEntity
  8
HILF
100
AcDbLine
 10
509.9624175243587
 20
654.7736801096946
 30
0.0
 11
509.9624175243587
 21
744.8353916556309
 31
0.0
  0
LINE
  5
804
330
1E
100
AcDbEntity
  8
STEMPEL
100
AcDbLine
 10
514.0
 20
829.9999999999997
 30
0.0
 11
514.0000000000001
 21
566.0
 31
0.0
  0
LINE
  5
805
330
1E
100
AcDbEntity
  8
STEMPEL
100
AcDbLine
 10
554.0
 20
829.9999999999997
 30
0.0
 11
554.0
 21
566.0
 31
0.0
  0
LINE
  5
806
330
1E
100
AcDbEntity
  8
STEMPEL
100
AcDbLine
 10
484.0
 20
829.9999999999997
 30
0.0
 11
484.0
 21
469.9999999999999
 31
0.0
  0
INSERT
  5
807
330
1E
100
AcDbEntity
  8
STEMPEL
100
AcDbBlockReference
  2
LOGO
 10
548.9789472355168
 20
570.9955485457794
 30
0.0
 41
2.0
 42
2.0
 43
2.0
 50
90.0
  0
LINE
  5
808
330
1E
100
AcDbEntity
  8
STEMPEL
100
AcDbLine
 10
584.0
 20
469.9999999999999
 30
0.0
 11
484.0
 21
469.9999999999999
 31
0.0
  0
TEXT
  5
809
330
1E
100
AcDbEntity
  8
TEXT
100
AcDbText
 10
575.3284373066019
 20
530.0571803261054
 30
0.0
 40
4.0
  1
Tag
 50
90.0
 41
0.8
  7
GREEKS
 72
     1
 11
575.3284373066019
 21
533.7905136594388
 31
0.0
100
AcDbText
  0
TEXT
  5
80A
330
1E
100
AcDbEntity
  8
TEXT
100
AcDbText
 10
580.3453415397281
 20
478.2664110704575
 30
0.0
 40
4.0
  1
Index
 50
180.0
 41
0.8
  7
GREEKS
100
AcDbText
  0
TEXT
  5
80B
330
1E
100
AcDbEntity
  8
TEXT
100
AcDbText
 10
575.3261810501586
 20
492.7826069847974
 30
0.0
 40
4.0
  1
Änderung
 50
90.0
 41
0.8
  7
GREEKS
 72
     1
 11
575.3261810501586
 21
503.5254641276546
 31
0.0
100
AcDbText
  0
LINE
  5
80C
330
1E
100
AcDbEntity
  8
VOLL
100
AcDbLine
 10
484.0000000000001
 20
544.0
 30
0.0
 11
584.0000000000001
 21
544.0
 31
0.0
  0
LINE
  5
80D
330
1E
100
AcDbEntity
  8
VOLL
100
AcDbLine
 10
484.0000000000001
 20
524.0
 30
0.0
 11
584.0000000000001
 21
524.0
 31
0.0
  0
LINE
  5
80E
330
1E
100
AcDbEntity
  8
VOLL
100
AcDbLine
 10
484.0
 20
484.0
 30
0.0
 11
584.0000000000001
 21
483.9999999999999
 31
0.0
  0
LINE
  5
80F
330
1E
100
AcDbEntity
  8
STEMPEL
100
AcDbLine
 10
484.0
 20
649.9999999999998
 30
0.0
 11
584.0000000000001
 21
649.9999999999998
 31
0.0
  0
LINE
  5
810
330
1E
100
AcDbEntity
  8
STEMPEL
100
AcDbLine
 10
484.0000000000001
 20
566.0
 30
0.0
 11
584.0000000000001
 21
566.0
 31
0.0
  0
TEXT
  5
811
330
1E
100
AcDbEntity
  8
TEXT
100
AcDbText
 10
575.4067578303359
 20
548.6614567187547
 30
0.0
 40
4.0
  1
Name
 50
90.0
 41
0.8
  7
GREEKS
 72
     1
 11
575.4067578303359
 21
554.9852662425641
 31
0.0
100
AcDbText
  0
LINE
  5
812
330
1E
100
AcDbEntity
  8
HILF
100
AcDbLine
 10
554.0
 20
470.0000000000001
 30
0.0
 11
554.0
 21
566.0
 31
0.0
  0
LINE
  5
813
330
1E
100
AcDbEntity
  8
HILF
100
AcDbLine
 10
544.0
 20
470.0000000000001
 30
0.0
 11
544.0000000000001
 21
566.0
 31
0.0
  0
LINE
  5
814
330
1E
100
AcDbEntity
  8
HILF
100
AcDbLine
 10
534.0
 20
470.0000000000001
 30
0.0
 11
534.0000000000001
 21
566.0
 31
0.0
  0
LINE
  5
815
330
1E
100
AcDbEntity
  8
HILF
100
AcDbLine
 10
524.0000000000001
 20
470.0000000000001
 30
0.0
 11
524.0000000000001
 21
566.0
 31
0.0
  0
LINE
  5
816
330
1E
100
AcDbEntity
  8
HILF
100
AcDbLine
 10
514.0000000000001
 20
470.0000000000001
 30
0.0
 11
514.0000000000001
 21
566.0
 31
0.0
  0
LINE
  5
817
330
1E
100
AcDbEntity
  8
HILF
100
AcDbLine
 10
504.0
 20
470.0000000000001
 30
0.0
 11
504.0
 21
566.0
 31
0.0
  0
LINE
  5
818
330
1E
100
AcDbEntity
  8
HILF
100
AcDbLine
 10
494.0
 20
470.0000000000001
 30
0.0
 11
494.0
 21
566.0
 31
0.0
  0
LINE
  5
819
330
1E
100
AcDbEntity
  8
STEMPEL
100
AcDbLine
 10
564.0000000000001
 20
565.9999999999997
 30
0.0
 11
564.0
 21
469.9999999999999
 31
0.0
  0
TEXT
  5
81C
330
1E
100
AcDbEntity
  8
TEXT
100
AcDbText
 10
530.3700963038203
 20
567.5836127167615
 30
0.0
 40
4.0
  1
Gez.
 50
90.0
 41
0.8
  7
GREEKS
100
AcDbText
  0
LINE
  5
81D
330
1E
100
AcDbEntity
  8
VOLL
100
AcDbLine
 10
484.0000000000002
 20
610.0
 30
0.0
 11
554.0
 21
609.9999999999997
 31
0.0
  0
LINE
  5
81E
330
1E
100
AcDbEntity
  8
VOLL
100
AcDbLine
 10
514.0000000000001
 20
584.0
 30
0.0
 11
554.0
 21
584.0
 31
0.0
  0
TEXT
  5
81F
330
1E
100
AcDbEntity
  8
TEXT
100
AcDbText
 10
503.2363615897698
 20
612.6261322080837
 30
0.0
 40
4.0
  1
DIN EN1124-3
 50
90.0
 41
0.8
  7
GREEKS
 72
     1
 11
503.2363615897698
 21
629.6166083985599
 31
0.0
100
AcDbText
  0
TEXT
  5
820
330
1E
100
AcDbEntity
  8
TEXT
100
AcDbText
 10
491.581583156518
 20
614.2858954734049
 30
0.0
 40
5.0
  1
Zul. Abw.
 50
90.0
 41
0.8
  7
GREEKS
100
AcDbText
  0
LINE
  5
821
330
1E
100
AcDbEntity
  8
HILF
100
AcDbLine
 10
524.0000000000001
 20
566.0
 30
0.0
 11
524.0000000000001
 21
649.9999999999998
 31
0.0
  0
TEXT
  5
822
330
1E
100
AcDbEntity
  8
TEXT
 62
     1
100
AcDbText
 10
505.8509857108604
 20
580.5006306481886
 30
0.0
 40
7.0
  1
1:2
 50
90.0
 41
0.8
  7
GREEKS
100
AcDbText
  0
TEXT
  5
823
330
1E
100
AcDbEntity
  8
TEXT
100
AcDbText
 10
491.537910491291
 20
573.5163572150376
 30
0.0
 40
5.0
  1
Maßstab
 50
90.0
 41
0.8
  7
GREEKS
100
AcDbText
  0
TEXT
  5
825
330
1E
100
AcDbEntity
  8
TEXT
100
AcDbText
 10
520.6811949877008
 20
592.3311673153651
 30
0.0
 40
4.0
  1
Tag
 50
90.0
 41
0.8
  7
GREEKS
100
AcDbText
  0
TEXT
  5
826
330
1E
100
AcDbEntity
  8
TEXT
100
AcDbText
 10
520.6903890808478
 20
622.4626584226293
 30
0.0
 40
4.0
  1
Name
 50
90.0
 41
0.8
  7
GREEKS
100
AcDbText
  0
LINE
  5
827
330
1E
100
AcDbEntity
  8
HILF
100
AcDbLine
 10
544.0000000000001
 20
566.0
 30
0.0
 11
544.0000000000001
 21
649.9999999999998
 31
0.0
  0
LINE
  5
828
330
1E
100
AcDbEntity
  8
HILF
100
AcDbLine
 10
534.0000000000001
 20
566.0
 30
0.0
 11
534.0000000000001
 21
649.9999999999998
 31
0.0
  0
TEXT
  5
829
330
1E
100
AcDbEntity
  8
TEXT
100
AcDbText
 10
540.3107370857163
 20
567.5515086571672
 30
0.0
 40
4.0
  1
Gepr.
 50
90.0
 41
0.8
  7
GREEKS
100
AcDbText
  0
TEXT
  5
82A
330
1E
100
AcDbEntity
  8
TEXT
100
AcDbText
 10
550.4705361035019
 20
567.6006777387303
 30
0.0
 40
4.0
  1
Norm.
 50
90.0
 41
0.8
  7
GREEKS
100
AcDbText
  0
LINE
  5
82C
330
1E
100
AcDbEntity
  8
HILF
100
AcDbLine
 10
510.2201636304418
 20
756.723861629699
 30
0.0
 11
510.2201636304418
 21
824.8588839326725
 31
0.0
  0
LINE
  5
82D
330
1E
100
AcDbEntity
  8
VOLL
100
AcDbLine
 10
534.0
 20
751.9999999999997
 30
0.0
 11
534.0
 21
829.9999999999997
 31
0.0
  0
LINE
  5
82E
330
1E
100
AcDbEntity
  8
STEMPEL
100
AcDbLine
 10
484.0000000000002
 20
751.9999999999997
 30
0.0
 11
554.0
 21
751.9999999999997
 31
0.0
  0
TEXT
  5
830
330
1E
100
AcDbEntity
  8
TEXT
100
AcDbText
 10
491.6867965462863
 20
756.1787549576338
 30
0.0
 40
5.0
  1
Zeichnungs Nr.
 50
90.0
 41
0.8
  7
GREEKS
100
AcDbText
  0
TEXT
  5
831
330
1E
100
AcDbEntity
  8
TEXT
100
AcDbText
 10
520.8188176290002
 20
756.723861629699
 30
0.0
 40
5.0
  1
Ersatz für:
 50
90.0
 41
0.8
  7
GREEKS
100
AcDbText
  0
TEXT
  5
832
330
1E
100
AcDbEntity
  8
TEXT
100
AcDbText
 10
541.925838221214
 20
757.2400861497003
 30
0.0
 40
5.0
  1
ersetzt durch:
 50
90.0
 41
0.8
  7
GREEKS
100
AcDbText
  0
TEXT
  5
8EC
330
1E
100
AcDbEntity
  8
TEXT
 62
     1
100
AcDbText
 10
318.9478966543277
 20
200.5158028829135
 30
0.0
 40
7.0
  1
EDV-Art.Nr. 21971.070X
 41
0.8
  7
GREEKS
100
AcDbText
  0
TEXT
  5
8ED
330
1E
100
AcDbEntity
  8
TEXT
 62
     1
100
AcDbText
 10
319.5548562669194
 20
214.2642013608333
 30
0.0
 40
7.0
  1
Unterteil DN70
 41
0.8
  7
GREEKS
100
AcDbText
  0
LINE
  5
8EE
330
1E
100
AcDbEntity
  8
TEXT
 62
     2
100
AcDbLine
 10
318.2034871187432
 20
211.4625063661615
 30
0.0
 11
421.897946051774
 21
211.4625063661615
 31
0.0
  0
LINE
  5
8EF
330
1E
100
AcDbEntity
  8
TEXT
 62
     2
100
AcDbLine
 10
318.2034871187432
 20
211.4625063661615
 30
0.0
 11
287.1562299203645
 21
196.4524519062174
 31
0.0
  0
TEXT
  5
8F0
330
1E
100
AcDbEntity
  8
TEXT
 62
     1
100
AcDbText
 10
420.1287531565494
 20
368.2798939026361
 30
0.0
 40
7.0
  1
Dichtelement DN70
 41
0.8
  7
GREEKS
100
AcDbText
  0
LINE
  5
8F1
102
{ACAD_REACTORS
330
CFF
102
}
330
1E
100
AcDbEntity
  8
TEXT
 62
     2
100
AcDbLine
 10
419.0480667577124
 20
364.6671256304423
 30
0.0
 11
289.7171696894528
 21
423.4121978270111
 31
0.0
  0
LINE
  5
8F2
330
1E
100
AcDbEntity
  8
TEXT
 62
     2
100
AcDbLine
 10
525.1719613653902
 20
364.6671256304426
 30
0.0
 11
419.0480667577124
 21
364.6671256304423
 31
0.0
  0
TEXT
  5
8F3
330
1E
100
AcDbEntity
  8
TEXT
 62
     1
100
AcDbText
 10
419.9481978623973
 20
355.2321217556569
 30
0.0
 40
7.0
  1
EDV-Art.Nr. 00911.070X
 41
0.8
  7
GREEKS
100
AcDbText
  0
TEXT
  5
8F4
330
1E
100
AcDbEntity
  8
TEXT
 62
     1
100
AcDbText
 10
420.3933590363799
 20
417.2580832882024
 30
0.0
 40
7.0
  1
EDV-Art.Nr. 21905.070X
 41
0.8
100
AcDbText
  0
LINE
  5
8F5
330
1E
100
AcDbEntity
  8
TEXT
 62
     2
100
AcDbLine
 10
525.7365677327586
 20
426.5505800960015
 30
0.0
 11
419.7980031576255
 21
426.5505800960015
 31
0.0
  0
TEXT
  5
8F6
330
1E
100
AcDbEntity
  8
TEXT
 62
     1
100
AcDbText
 10
420.3933590363799
 20
430.034414256912
 30
0.0
 40
7.0
  1
Losflansch DN70
 41
0.8
100
AcDbText
  0
LINE
  5
8F7
330
1E
100
AcDbEntity
  8
TEXT
 62
     2
100
AcDbLine
 10
419.7980031576255
 20
426.5505800960015
 30
0.0
 11
379.1993979035072
 21
442.9468593819461
 31
0.0
  0
TEXT
  5
8F8
330
1E
100
AcDbEntity
  8
TEXT
 62
     1
100
AcDbText
 10
419.3840735333187
 20
387.052596000638
 30
0.0
 40
7.0
  1
EDV-Art.Nr. 21920.070X
 41
0.8
100
AcDbText
  0
LINE
  5
8F9
330
1E
100
AcDbEntity
  8
TEXT
 62
     2
100
AcDbLine
 10
522.6417848546422
 20
396.3450928084371
 30
0.0
 11
416.7032202795092
 21
396.3450928084371
 31
0.0
  0
TEXT
  5
8FA
330
1E
100
AcDbEntity
  8
TEXT
 62
     1
100
AcDbText
 10
419.3840735333187
 20
399.8289269693476
 30
0.0
 40
7.0
  1
Kompressionsdichtung
 41
0.8
100
AcDbText
  0
LINE
  5
8FB
330
1E
100
AcDbEntity
  8
TEXT
 62
     2
100
AcDbLine
 10
416.7032202795092
 20
396.3450928084371
 30
0.0
 11
357.7203192834384
 21
429.3628864942989
 31
0.0
  0
LINE
  5
8FE
330
1E
100
AcDbEntity
  8
TEXT
 62
     2
100
AcDbLine
 10
361.9174928453574
 20
515.5250258770354
 30
0.0
 11
316.3453091010126
 21
579.8534615248533
 31
0.0
  0
TEXT
  5
8FF
330
1E
100
AcDbEntity
  8
TEXT
 62
     1
100
AcDbText
 10
364.598346099167
 20
519.0088600379458
 30
0.0
 40
7.0
  1
Kompressionsdichtung
 41
0.8
100
AcDbText
  0
LINE
  5
900
330
1E
100
AcDbEntity
  8
TEXT
 62
     2
100
AcDbLine
 10
467.8560574204905
 20
515.5250258770354
 30
0.0
 11
361.9174928453574
 21
515.5250258770354
 31
0.0
  0
TEXT
  5
901
330
1E
100
AcDbEntity
  8
TEXT
 62
     1
100
AcDbText
 10
364.598346099167
 20
506.2325290692363
 30
0.0
 40
7.0
  1
EDV-Art.Nr. 21920.070X
 41
0.8
100
AcDbText
  0
LINE
  5
902
102
{ACAD_REACTORS
330
DA8
102
}
330
1E
100
AcDbEntity
  8
TEXT
 62
     2
100
AcDbLine
 10
361.9174928453574
 20
551.4012078637334
 30
0.0
 11
345.0455465480989
 21
586.8716266006952
 31
0.0
  0
TEXT
  5
903
330
1E
100
AcDbEntity
  8
TEXT
 62
     1
100
AcDbText
 10
362.5128487241118
 20
554.8850420246437
 30
0.0
 40
7.0
  1
Losflansch DN70
 41
0.8
100
AcDbText
  0
LINE
  5
904
330
1E
100
AcDbEntity
  8
TEXT
 62
     2
100
AcDbLine
 10
467.8560574204905
 20
551.4012078637334
 30
0.0
 11
361.9174928453574
 21
551.4012078637334
 31
0.0
  0
TEXT
  5
905
330
1E
100
AcDbEntity
  8
TEXT
 62
     1
100
AcDbText
 10
362.5128487241118
 20
542.1087110559342
 30
0.0
 40
7.0
  1
EDV-Art.Nr. 21905.070X
 41
0.8
100
AcDbText
  0
TEXT
  5
906
330
1E
100
AcDbEntity
  8
TEXT
 62
     1
100
AcDbText
 10
364.1039544852727
 20
476.3786926916609
 30
0.0
 40
7.0
  1
EDV-Art.Nr. 21981.070X
 41
0.8
  7
GREEKS
100
AcDbText
  0
LINE
  5
907
330
1E
100
AcDbEntity
  8
TEXT
 62
     2
100
AcDbLine
 10
469.3277179882654
 20
485.8136965664466
 30
0.0
 11
363.2038233805876
 21
485.8136965664463
 31
0.0
  0
LINE
  5
908
330
1E
100
AcDbEntity
  8
TEXT
 62
     2
100
AcDbLine
 10
363.2038233805876
 20
485.8136965664463
 30
0.0
 11
287.6019092595105
 21
508.313403845864
 31
0.0
  0
TEXT
  5
909
330
1E
100
AcDbEntity
  8
TEXT
 62
     1
100
AcDbText
 10
364.2845097794248
 20
489.4264648386402
 30
0.0
 40
7.0
  1
Ablaufkörper DN70
 41
0.8
  7
GREEKS
100
AcDbText
  0
LINE
  5
90A
330
1E
100
AcDbEntity
  8
TEXT
 62
     2
100
AcDbLine
 10
311.6163011879962
 20
718.8762089570286
 30
0.0
 11
326.0016531242446
 21
772.2183607664026
 31
0.0
  0
TEXT
  5
90B
330
1E
100
AcDbEntity
  8
TEXT
 62
     1
100
AcDbText
 10
327.3530222724208
 20
775.3810223970341
 30
0.0
 40
7.0
  1
Drainjethaube
 41
0.8
  7
GREEKS
100
AcDbText
  0
LINE
  5
90C
330
1E
100
AcDbEntity
  8
TEXT
 62
     2
100
AcDbLine
 10
326.0016531242446
 20
772.2183607664026
 30
0.0
 11
434.3052578487563
 21
772.2183607664026
 31
0.0
  0
TEXT
  5
90D
330
1E
100
AcDbEntity
  8
TEXT
 62
     1
100
AcDbText
 10
327.3530222724208
 20
761.7046818792986
 30
0.0
 40
7.0
  1
EDV-Art.Nr. 21000.000X
 41
0.8
  7
GREEKS
100
AcDbText
  0
LINE
  5
90E
330
1E
100
AcDbEntity
  8
TEXT
 62
     2
100
AcDbLine
 10
308.0423989707985
 20
705.623864803999
 30
0.0
 11
310.3333867857226
 21
714.1190493749907
 31
0.0
  0
LINE
  5
90F
330
1E
100
AcDbEntity
  8
TEXT
 62
     2
100
AcDbLine
 10
304.7021733284803
 20
693.2380139690853
 30
0.0
 11
306.6513444558049
 21
700.4657121607579
 31
0.0
  0
TEXT
  5
990
330
1E
100
AcDbEntity
  8
VOLL
100
AcDbText
 10
216.6916793877867
 20
541.4893572428269
 30
0.0
 40
1.8
  1

  7
GREEKS
100
AcDbText
  0
ARC
  5
9A6
330
1E
100
AcDbEntity
  8
STEMPEL
100
AcDbCircle
 10
322.9754994138919
 20
419.8065503368961
 30
0.0
 40
30.31088913245485
100
AcDbArc
 50
81.78678929826221
 51
98.2132107017378
  0
ARC
  5
9A7
330
1E
100
AcDbEntity
  8
STEMPEL
100
AcDbCircle
 10
316.4803088855086
 20
442.4231337615665
 30
0.0
 40
7.694305707784447
100
AcDbArc
 50
73.65710669401501
 51
106.342893305985
  0
ARC
  5
9A8
330
1E
100
AcDbEntity
  8
STEMPEL
100
AcDbCircle
 10
329.4706899422751
 20
442.4231337615665
 30
0.0
 40
7.694305707784447
100
AcDbArc
 50
73.65710669401501
 51
106.342893305985
  0
ARC
  5
9A9
330
1E
100
AcDbEntity
  8
HILF
100
AcDbCircle
 10
322.9754994138919
 20
420.2189784216897
 30
0.0
 40
22.41111549782308
100
AcDbArc
 50
78.85962783890615
 51
101.1403721610938
  0
ARC
  5
9AA
330
1E
100
AcDbEntity
  8
HILF
100
AcDbCircle
 10
329.4706899422751
 20
436.8689533198213
 30
0.0
 40
5.761140599691502
100
AcDbArc
 50
67.92594526326206
 51
112.0740547367379
  0
ARC
  5
9AB
330
1E
100
AcDbEntity
  8
HILF
100
AcDbCircle
 10
316.4803088855086
 20
436.8689533198213
 30
0.0
 40
5.761140599691502
100
AcDbArc
 50
67.92594526326206
 51
112.0740547367379
  0
POINT
  5
9AC
330
1E
100
AcDbEntity
  8
0
100
AcDbPoint
 10
322.9754994138919
 20
440.117439469351
 30
0.0
210
0.0000000000000001
220
1.0
230
0.0
  0
LINE
  5
9AD
330
1E
100
AcDbEntity
  8
STEMPEL
100
AcDbLine
 10
315.475499413892
 20
450.1174394693509
 30
0.0
 11
330.4754994138919
 21
450.1174394693509
 31
0.0
  0
LINE
  5
9AE
330
1E
100
AcDbEntity
  8
STEMPEL
100
AcDbLine
 10
331.6357534517363
 20
442.2077959855507
 30
0.0
 11
331.6357534517363
 21
449.8065503368955
 31
0.0
  0
LINE
  5
9AF
330
1E
100
AcDbEntity
  8
STEMPEL
100
AcDbLine
 10
327.3056264328141
 20
442.2077959855507
 30
0.0
 11
327.3056264328141
 21
449.8065503368955
 31
0.0
  0
LINE
  5
9B0
330
1E
100
AcDbEntity
  8
STEMPEL
100
AcDbLine
 10
318.6453723949697
 20
442.2077959855507
 30
0.0
 11
318.6453723949697
 21
449.8065503368955
 31
0.0
  0
LINE
  5
9B1
330
1E
100
AcDbEntity
  8
STEMPEL
100
AcDbLine
 10
333.3820145213862
 20
441.5722089349404
 30
0.0
 11
312.5689843063976
 21
441.5722089349404
 31
0.0
  0
LINE
  5
9B2
330
1E
100
AcDbEntity
  8
STEMPEL
100
AcDbLine
 10
333.125499413892
 20
440.117439469351
 30
0.0
 11
312.8254994138919
 21
440.117439469351
 31
0.0
  0
LINE
  5
9B3
330
1E
100
AcDbEntity
  8
STEMPEL
100
AcDbLine
 10
314.3152453760475
 20
442.2077959855507
 30
0.0
 11
314.3152453760475
 21
449.8065503368955
 31
0.0
  0
LINE
  5
9B4
330
1E
100
AcDbEntity
  8
STEMPEL
100
AcDbLine
 10
315.475499413892
 20
450.1174394693509
 30
0.0
 11
314.3152453760475
 21
449.8065503368955
 31
0.0
  0
LINE
  5
9B5
330
1E
100
AcDbEntity
  8
STEMPEL
100
AcDbLine
 10
331.6357534517363
 20
449.8065503368955
 30
0.0
 11
330.4754994138919
 21
450.1174394693509
 31
0.0
  0
LINE
  5
9B6
330
1E
100
AcDbEntity
  8
STEMPEL
100
AcDbLine
 10
333.3820145213862
 20
441.5722089349404
 30
0.0
 11
331.6357534517363
 21
442.2077959855507
 31
0.0
  0
LINE
  5
9B7
330
1E
100
AcDbEntity
  8
STEMPEL
100
AcDbLine
 10
314.3152453760475
 20
442.2077959855507
 30
0.0
 11
312.5689843063976
 21
441.5722089349404
 31
0.0
  0
ARC
  5
9B8
330
1E
100
AcDbEntity
  8
STEMPEL
100
AcDbCircle
 10
312.8254994138919
 20
440.867439469351
 30
0.0
 40
0.7500000000000013
100
AcDbArc
 50
109.9999999999995
 51
269.9999991462263
  0
ARC
  5
9B9
330
1E
100
AcDbEntity
  8
STEMPEL
100
AcDbCircle
 10
333.125499413892
 20
440.867439469351
 30
0.0
 40
0.750000000000001
100
AcDbArc
 50
269.9999991462263
 51
70.00000000000047
  0
ARC
  5
9BA
330
1E
100
AcDbEntity
  8
STEMPEL
100
AcDbCircle
 10
206.5754994138917
 20
419.806550336896
 30
0.0
 40
30.31088913245485
100
AcDbArc
 50
81.78678929826221
 51
98.2132107017378
  0
ARC
  5
9BB
330
1E
100
AcDbEntity
  8
STEMPEL
100
AcDbCircle
 10
200.0803088855084
 20
442.4231337615665
 30
0.0
 40
7.694305707784447
100
AcDbArc
 50
73.65710669401501
 51
106.342893305985
  0
ARC
  5
9BC
330
1E
100
AcDbEntity
  8
STEMPEL
100
AcDbCircle
 10
213.070689942275
 20
442.4231337615665
 30
0.0
 40
7.694305707784447
100
AcDbArc
 50
74.89685203626483
 51
106.342893305985
  0
ARC
  5
9BD
330
1E
100
AcDbEntity
  8
HILF
100
AcDbCircle
 10
206.5754994138917
 20
420.2189784216897
 30
0.0
 40
22.41111549782308
100
AcDbArc
 50
78.85962783890615
 51
101.1403721610938
  0
ARC
  5
9BE
330
1E
100
AcDbEntity
  8
HILF
100
AcDbCircle
 10
213.070689942275
 20
436.8689533198213
 30
0.0
 40
5.761140599691502
100
AcDbArc
 50
69.63568072596913
 51
112.0740547367379
  0
ARC
  5
9BF
330
1E
100
AcDbEntity
  8
HILF
100
AcDbCircle
 10
200.0803088855084
 20
436.8689533198213
 30
0.0
 40
5.761140599691502
100
AcDbArc
 50
67.92594526326206
 51
112.0740547367379
  0
POINT
  5
9C0
330
1E
100
AcDbEntity
  8
0
100
AcDbPoint
 10
206.5754994138917
 20
440.1174394693509
 30
0.0
210
0.0000000000000001
220
1.0
230
0.0
  0
LINE
  5
9C1
330
1E
100
AcDbEntity
  8
STEMPEL
100
AcDbLine
 10
199.0754994138917
 20
450.1174394693509
 30
0.0
 11
214.0754994138918
 21
450.1174394693509
 31
0.0
  0
LINE
  5
9C3
330
1E
100
AcDbEntity
  8
STEMPEL
100
AcDbLine
 10
210.905626432814
 20
442.2077959855506
 30
0.0
 11
210.905626432814
 21
449.8065503368955
 31
0.0
  0
LINE
  5
9C4
330
1E
100
AcDbEntity
  8
STEMPEL
100
AcDbLine
 10
202.2453723949696
 20
442.2077959855506
 30
0.0
 11
202.2453723949696
 21
449.8065503368955
 31
0.0
  0
LINE
  5
9C5
330
1E
100
AcDbEntity
  8
STEMPEL
100
AcDbLine
 10
215.0754994138932
 20
441.5722089349403
 30
0.0
 11
196.1689843063975
 21
441.5722089349403
 31
0.0
  0
LINE
  5
9C6
330
1E
100
AcDbEntity
  8
STEMPEL
100
AcDbLine
 10
215.0754994138932
 20
440.1174394693509
 30
0.0
 11
196.4254994138917
 21
440.1174394693509
 31
0.0
  0
LINE
  5
9C7
330
1E
100
AcDbEntity
  8
STEMPEL
100
AcDbLine
 10
197.9152453760474
 20
442.2077959855506
 30
0.0
 11
197.9152453760474
 21
449.8065503368955
 31
0.0
  0
LINE
  5
9C8
330
1E
100
AcDbEntity
  8
STEMPEL
100
AcDbLine
 10
199.0754994138917
 20
450.1174394693509
 30
0.0
 11
197.9152453760474
 21
449.8065503368955
 31
0.0
  0
LINE
  5
9C9
330
1E
100
AcDbEntity
  8
STEMPEL
100
AcDbLine
 10
215.0754994138933
 20
449.8494902769193
 30
0.0
 11
214.0754994138918
 21
450.1174394693509
 31
0.0
  0
LINE
  5
9CB
330
1E
100
AcDbEntity
  8
STEMPEL
100
AcDbLine
 10
197.9152453760474
 20
442.2077959855506
 30
0.0
 11
196.1689843063975
 21
441.5722089349403
 31
0.0
  0
ARC
  5
9CC
330
1E
100
AcDbEntity
  8
STEMPEL
100
AcDbCircle
 10
196.4254994138917
 20
440.8674394693509
 30
0.0
 40
0.7500000000000013
100
AcDbArc
 50
109.9999999999995
 51
269.9999991462263
  0
ARC
  5
9CE
330
1E
100
AcDbEntity
  8
STEMPEL
100
AcDbCircle
 10
161.5754994138918
 20
419.806550336896
 30
0.0
 40
30.31088913245485
100
AcDbArc
 50
81.78678929826221
 51
98.2132107017378
  0
ARC
  5
9CF
330
1E
100
AcDbEntity
  8
STEMPEL
100
AcDbCircle
 10
155.0803088855085
 20
442.4231337615664
 30
0.0
 40
7.694305707784447
100
AcDbArc
 50
73.65710669401501
 51
106.342893305985
  0
ARC
  5
9D0
330
1E
100
AcDbEntity
  8
STEMPEL
100
AcDbCircle
 10
168.0706899422751
 20
442.4231337615664
 30
0.0
 40
7.694305707784447
100
AcDbArc
 50
73.65710669401501
 51
106.342893305985
  0
ARC
  5
9D1
330
1E
100
AcDbEntity
  8
HILF
100
AcDbCircle
 10
161.5754994138918
 20
420.2189784216896
 30
0.0
 40
22.41111549782308
100
AcDbArc
 50
78.85962783890615
 51
101.1403721610938
  0
ARC
  5
9D2
330
1E
100
AcDbEntity
  8
HILF
100
AcDbCircle
 10
168.0706899422751
 20
436.8689533198212
 30
0.0
 40
5.761140599691502
100
AcDbArc
 50
67.92594526326206
 51
112.0740547367379
  0
ARC
  5
9D3
330
1E
100
AcDbEntity
  8
HILF
100
AcDbCircle
 10
155.0803088855085
 20
436.8689533198212
 30
0.0
 40
5.761140599691502
100
AcDbArc
 50
67.92594526326206
 51
112.0740547367379
  0
POINT
  5
9D4
330
1E
100
AcDbEntity
  8
0
100
AcDbPoint
 10
161.5754994138918
 20
440.1174394693509
 30
0.0
210
0.0000000000000001
220
1.0
230
0.0
  0
LINE
  5
9D5
330
1E
100
AcDbEntity
  8
STEMPEL
100
AcDbLine
 10
154.0754994138919
 20
450.1174394693508
 30
0.0
 11
169.0754994138918
 21
450.1174394693508
 31
0.0
  0
LINE
  5
9D6
330
1E
100
AcDbEntity
  8
STEMPEL
100
AcDbLine
 10
170.2357534517362
 20
442.2077959855506
 30
0.0
 11
170.2357534517362
 21
449.8065503368954
 31
0.0
  0
LINE
  5
9D7
330
1E
100
AcDbEntity
  8
STEMPEL
100
AcDbLine
 10
165.9056264328141
 20
442.2077959855506
 30
0.0
 11
165.9056264328141
 21
449.8065503368954
 31
0.0
  0
LINE
  5
9D8
330
1E
100
AcDbEntity
  8
STEMPEL
100
AcDbLine
 10
157.2453723949696
 20
442.2077959855506
 30
0.0
 11
157.2453723949696
 21
449.8065503368954
 31
0.0
  0
LINE
  5
9D9
330
1E
100
AcDbEntity
  8
STEMPEL
100
AcDbLine
 10
171.9820145213861
 20
441.5722089349402
 30
0.0
 11
151.1689843063976
 21
441.5722089349402
 31
0.0
  0
LINE
  5
9DA
330
1E
100
AcDbEntity
  8
STEMPEL
100
AcDbLine
 10
171.7254994138919
 20
440.1174394693509
 30
0.0
 11
151.4254994138918
 21
440.1174394693509
 31
0.0
  0
LINE
  5
9DB
330
1E
100
AcDbEntity
  8
STEMPEL
100
AcDbLine
 10
152.9152453760475
 20
442.2077959855506
 30
0.0
 11
152.9152453760475
 21
449.8065503368954
 31
0.0
  0
LINE
  5
9DC
330
1E
100
AcDbEntity
  8
STEMPEL
100
AcDbLine
 10
154.0754994138919
 20
450.1174394693508
 30
0.0
 11
152.9152453760475
 21
449.8065503368954
 31
0.0
  0
LINE
  5
9DD
330
1E
100
AcDbEntity
  8
STEMPEL
100
AcDbLine
 10
170.2357534517362
 20
449.8065503368954
 30
0.0
 11
169.0754994138918
 21
450.1174394693508
 31
0.0
  0
LINE
  5
9DE
330
1E
100
AcDbEntity
  8
STEMPEL
100
AcDbLine
 10
171.9820145213861
 20
441.5722089349402
 30
0.0
 11
170.2357534517362
 21
442.2077959855506
 31
0.0
  0
LINE
  5
9DF
330
1E
100
AcDbEntity
  8
STEMPEL
100
AcDbLine
 10
152.9152453760475
 20
442.2077959855506
 30
0.0
 11
151.1689843063976
 21
441.5722089349402
 31
0.0
  0
ARC
  5
9E0
330
1E
100
AcDbEntity
  8
STEMPEL
100
AcDbCircle
 10
151.4254994138918
 20
440.8674394693508
 30
0.0
 40
0.7500000000000013
100
AcDbArc
 50
109.9999999999995
 51
269.9999991462263
  0
ARC
  5
9E1
330
1E
100
AcDbEntity
  8
STEMPEL
100
AcDbCircle
 10
171.7254994138919
 20
440.8674394693508
 30
0.0
 40
0.750000000000001
100
AcDbArc
 50
269.9999991462263
 51
70.00000000000047
  0
ARC
  5
9E2
330
1E
100
AcDbEntity
  8
STEMPEL
100
AcDbCircle
 10
322.9754994138918
 20
569.8065503368959
 30
0.0
 40
30.31088913245485
100
AcDbArc
 50
81.78678929826221
 51
98.2132107017378
  0
ARC
  5
9E3
330
1E
100
AcDbEntity
  8
STEMPEL
100
AcDbCircle
 10
316.4803088855085
 20
592.4231337615663
 30
0.0
 40
7.694305707784447
100
AcDbArc
 50
73.65710669401501
 51
106.342893305985
  0
ARC
  5
9E4
330
1E
100
AcDbEntity
  8
STEMPEL
100
AcDbCircle
 10
329.4706899422751
 20
592.4231337615663
 30
0.0
 40
7.694305707784447
100
AcDbArc
 50
73.65710669401501
 51
106.342893305985
  0
ARC
  5
9E5
330
1E
100
AcDbEntity
  8
HILF
100
AcDbCircle
 10
322.9754994138918
 20
570.2189784216896
 30
0.0
 40
22.41111549782308
100
AcDbArc
 50
78.85962783890615
 51
101.1403721610938
  0
ARC
  5
9E6
330
1E
100
AcDbEntity
  8
HILF
100
AcDbCircle
 10
329.4706899422751
 20
586.8689533198211
 30
0.0
 40
5.761140599691502
100
AcDbArc
 50
67.92594526326206
 51
112.0740547367379
  0
ARC
  5
9E7
330
1E
100
AcDbEntity
  8
HILF
100
AcDbCircle
 10
316.4803088855085
 20
586.8689533198211
 30
0.0
 40
5.761140599691502
100
AcDbArc
 50
67.92594526326206
 51
112.0740547367379
  0
POINT
  5
9E8
330
1E
100
AcDbEntity
  8
0
100
AcDbPoint
 10
322.9754994138918
 20
590.1174394693507
 30
0.0
210
0.0000000000000001
220
1.0
230
0.0
  0
LINE
  5
9E9
330
1E
100
AcDbEntity
  8
STEMPEL
100
AcDbLine
 10
315.4754994138918
 20
600.1174394693507
 30
0.0
 11
330.4754994138918
 21
600.1174394693507
 31
0.0
  0
LINE
  5
9EA
330
1E
100
AcDbEntity
  8
STEMPEL
100
AcDbLine
 10
331.6357534517361
 20
592.2077959855506
 30
0.0
 11
331.6357534517361
 21
599.8065503368954
 31
0.0
  0
LINE
  5
9EB
330
1E
100
AcDbEntity
  8
STEMPEL
100
AcDbLine
 10
327.305626432814
 20
592.2077959855506
 30
0.0
 11
327.305626432814
 21
599.8065503368954
 31
0.0
  0
LINE
  5
9EC
330
1E
100
AcDbEntity
  8
STEMPEL
100
AcDbLine
 10
318.6453723949696
 20
592.2077959855506
 30
0.0
 11
318.6453723949696
 21
599.8065503368954
 31
0.0
  0
LINE
  5
9ED
330
1E
100
AcDbEntity
  8
STEMPEL
100
AcDbLine
 10
333.3820145213861
 20
591.5722089349401
 30
0.0
 11
312.5689843063975
 21
591.5722089349401
 31
0.0
  0
LINE
  5
9EE
330
1E
100
AcDbEntity
  8
STEMPEL
100
AcDbLine
 10
333.1254994138918
 20
590.1174394693507
 30
0.0
 11
312.8254994138917
 21
590.1174394693507
 31
0.0
  0
LINE
  5
9EF
330
1E
100
AcDbEntity
  8
STEMPEL
100
AcDbLine
 10
314.3152453760474
 20
592.2077959855506
 30
0.0
 11
314.3152453760474
 21
599.8065503368954
 31
0.0
  0
LINE
  5
9F0
330
1E
100
AcDbEntity
  8
STEMPEL
100
AcDbLine
 10
315.4754994138918
 20
600.1174394693507
 30
0.0
 11
314.3152453760474
 21
599.8065503368954
 31
0.0
  0
LINE
  5
9F1
330
1E
100
AcDbEntity
  8
STEMPEL
100
AcDbLine
 10
331.6357534517361
 20
599.8065503368954
 30
0.0
 11
330.4754994138918
 21
600.1174394693507
 31
0.0
  0
LINE
  5
9F2
330
1E
100
AcDbEntity
  8
STEMPEL
100
AcDbLine
 10
333.3820145213861
 20
591.5722089349401
 30
0.0
 11
331.6357534517361
 21
592.2077959855506
 31
0.0
  0
LINE
  5
9F3
330
1E
100
AcDbEntity
  8
STEMPEL
100
AcDbLine
 10
314.3152453760474
 20
592.2077959855506
 30
0.0
 11
312.5689843063975
 21
591.5722089349401
 31
0.0
  0
ARC
  5
9F4
330
1E
100
AcDbEntity
  8
STEMPEL
100
AcDbCircle
 10
312.8254994138917
 20
590.8674394693507
 30
0.0
 40
0.7500000000000013
100
AcDbArc
 50
109.9999999999995
 51
269.9999991462263
  0
ARC
  5
9F5
330
1E
100
AcDbEntity
  8
STEMPEL
100
AcDbCircle
 10
333.1254994138918
 20
590.8674394693507
 30
0.0
 40
0.750000000000001
100
AcDbArc
 50
269.9999991462263
 51
70.00000000000047
  0
ARC
  5
9F6
330
1E
100
AcDbEntity
  8
STEMPEL
100
AcDbCircle
 10
206.5754994138917
 20
569.8065503368957
 30
0.0
 40
30.31088913245485
100
AcDbArc
 50
81.78678929826221
 51
98.2132107017378
  0
ARC
  5
9F7
330
1E
100
AcDbEntity
  8
STEMPEL
100
AcDbCircle
 10
200.0803088855084
 20
592.4231337615662
 30
0.0
 40
7.694305707784447
100
AcDbArc
 50
73.65710669401501
 51
106.342893305985
  0
ARC
  5
9F8
330
1E
100
AcDbEntity
  8
STEMPEL
100
AcDbCircle
 10
213.070689942275
 20
592.4231337615662
 30
0.0
 40
7.694305707784447
100
AcDbArc
 50
73.65710669401501
 51
106.342893305985
  0
ARC
  5
9F9
330
1E
100
AcDbEntity
  8
HILF
100
AcDbCircle
 10
206.5754994138917
 20
570.2189784216893
 30
0.0
 40
22.41111549782308
100
AcDbArc
 50
78.85962783890615
 51
101.1403721610938
  0
ARC
  5
9FA
330
1E
100
AcDbEntity
  8
HILF
100
AcDbCircle
 10
213.070689942275
 20
586.8689533198209
 30
0.0
 40
5.761140599691502
100
AcDbArc
 50
67.92594526326206
 51
112.0740547367379
  0
ARC
  5
9FB
330
1E
100
AcDbEntity
  8
HILF
100
AcDbCircle
 10
200.0803088855084
 20
586.8689533198209
 30
0.0
 40
5.761140599691502
100
AcDbArc
 50
67.92594526326206
 51
112.0740547367379
  0
POINT
  5
9FC
330
1E
100
AcDbEntity
  8
0
100
AcDbPoint
 10
206.5754994138917
 20
590.1174394693506
 30
0.0
210
0.0000000000000001
220
1.0
230
0.0
  0
LINE
  5
9FD
330
1E
100
AcDbEntity
  8
STEMPEL
100
AcDbLine
 10
199.0754994138917
 20
600.1174394693506
 30
0.0
 11
214.0754994138918
 21
600.1174394693506
 31
0.0
  0
LINE
  5
9FE
330
1E
100
AcDbEntity
  8
STEMPEL
100
AcDbLine
 10
215.2357534517361
 20
592.2077959855504
 30
0.0
 11
215.2357534517361
 21
599.8065503368953
 31
0.0
  0
LINE
  5
9FF
330
1E
100
AcDbEntity
  8
STEMPEL
100
AcDbLine
 10
210.905626432814
 20
592.2077959855504
 30
0.0
 11
210.905626432814
 21
599.8065503368953
 31
0.0
  0
LINE
  5
A00
330
1E
100
AcDbEntity
  8
STEMPEL
100
AcDbLine
 10
202.2453723949696
 20
592.2077959855504
 30
0.0
 11
202.2453723949696
 21
599.8065503368953
 31
0.0
  0
LINE
  5
A01
330
1E
100
AcDbEntity
  8
STEMPEL
100
AcDbLine
 10
216.982014521386
 20
591.57220893494
 30
0.0
 11
196.1689843063975
 21
591.57220893494
 31
0.0
  0
LINE
  5
A02
330
1E
100
AcDbEntity
  8
STEMPEL
100
AcDbLine
 10
216.7254994138918
 20
590.1174394693506
 30
0.0
 11
196.4254994138917
 21
590.1174394693506
 31
0.0
  0
LINE
  5
A03
330
1E
100
AcDbEntity
  8
STEMPEL
100
AcDbLine
 10
197.9152453760474
 20
592.2077959855504
 30
0.0
 11
197.9152453760474
 21
599.8065503368953
 31
0.0
  0
LINE
  5
A04
330
1E
100
AcDbEntity
  8
STEMPEL
100
AcDbLine
 10
199.0754994138917
 20
600.1174394693506
 30
0.0
 11
197.9152453760474
 21
599.8065503368953
 31
0.0
  0
LINE
  5
A05
330
1E
100
AcDbEntity
  8
STEMPEL
100
AcDbLine
 10
215.2357534517361
 20
599.8065503368953
 30
0.0
 11
214.0754994138918
 21
600.1174394693506
 31
0.0
  0
LINE
  5
A06
330
1E
100
AcDbEntity
  8
STEMPEL
100
AcDbLine
 10
216.982014521386
 20
591.57220893494
 30
0.0
 11
215.2357534517361
 21
592.2077959855504
 31
0.0
  0
LINE
  5
A07
330
1E
100
AcDbEntity
  8
STEMPEL
100
AcDbLine
 10
197.9152453760474
 20
592.2077959855504
 30
0.0
 11
196.1689843063975
 21
591.57220893494
 31
0.0
  0
ARC
  5
A08
330
1E
100
AcDbEntity
  8
STEMPEL
100
AcDbCircle
 10
196.4254994138917
 20
590.8674394693506
 30
0.0
 40
0.7500000000000013
100
AcDbArc
 50
109.9999999999995
 51
269.9999991462263
  0
ARC
  5
A09
330
1E
100
AcDbEntity
  8
STEMPEL
100
AcDbCircle
 10
216.7254994138918
 20
590.8674394693506
 30
0.0
 40
0.750000000000001
100
AcDbArc
 50
269.9999991462263
 51
70.00000000000047
  0
ARC
  5
A0A
330
1E
100
AcDbEntity
  8
STEMPEL
100
AcDbCircle
 10
161.5754994138919
 20
569.8065503368957
 30
0.0
 40
30.31088913245485
100
AcDbArc
 50
81.78678929826221
 51
98.2132107017378
  0
ARC
  5
A0B
330
1E
100
AcDbEntity
  8
STEMPEL
100
AcDbCircle
 10
155.0803088855087
 20
592.423133761566
 30
0.0
 40
7.694305707784447
100
AcDbArc
 50
73.65710669401501
 51
106.342893305985
  0
ARC
  5
A0C
330
1E
100
AcDbEntity
  8
STEMPEL
100
AcDbCircle
 10
168.0706899422752
 20
592.423133761566
 30
0.0
 40
7.694305707784447
100
AcDbArc
 50
73.65710669401501
 51
106.342893305985
  0
ARC
  5
A0D
330
1E
100
AcDbEntity
  8
HILF
100
AcDbCircle
 10
161.5754994138919
 20
570.2189784216893
 30
0.0
 40
22.41111549782308
100
AcDbArc
 50
78.85962783890615
 51
101.1403721610938
  0
ARC
  5
A0E
330
1E
100
AcDbEntity
  8
HILF
100
AcDbCircle
 10
168.0706899422752
 20
586.8689533198208
 30
0.0
 40
5.761140599691502
100
AcDbArc
 50
67.92594526326206
 51
112.0740547367379
  0
ARC
  5
A0F
330
1E
100
AcDbEntity
  8
HILF
100
AcDbCircle
 10
155.0803088855087
 20
586.8689533198208
 30
0.0
 40
5.761140599691502
100
AcDbArc
 50
67.92594526326206
 51
112.0740547367379
  0
POINT
  5
A10
330
1E
100
AcDbEntity
  8
0
100
AcDbPoint
 10
161.5754994138919
 20
590.1174394693505
 30
0.0
210
0.0000000000000001
220
1.0
230
0.0
  0
LINE
  5
A11
330
1E
100
AcDbEntity
  8
STEMPEL
100
AcDbLine
 10
154.075499413892
 20
600.1174394693505
 30
0.0
 11
169.0754994138919
 21
600.1174394693505
 31
0.0
  0
LINE
  5
A12
330
1E
100
AcDbEntity
  8
STEMPEL
100
AcDbLine
 10
170.2357534517364
 20
592.2077959855503
 30
0.0
 11
170.2357534517364
 21
599.8065503368951
 31
0.0
  0
LINE
  5
A13
330
1E
100
AcDbEntity
  8
STEMPEL
100
AcDbLine
 10
165.9056264328142
 20
592.2077959855503
 30
0.0
 11
165.9056264328142
 21
599.8065503368951
 31
0.0
  0
LINE
  5
A14
330
1E
100
AcDbEntity
  8
STEMPEL
100
AcDbLine
 10
157.2453723949698
 20
592.2077959855503
 30
0.0
 11
157.2453723949698
 21
599.8065503368951
 31
0.0
  0
LINE
  5
A15
330
1E
100
AcDbEntity
  8
STEMPEL
100
AcDbLine
 10
171.9820145213862
 20
591.5722089349399
 30
0.0
 11
151.1689843063977
 21
591.5722089349399
 31
0.0
  0
LINE
  5
A16
330
1E
100
AcDbEntity
  8
STEMPEL
100
AcDbLine
 10
171.725499413892
 20
590.1174394693505
 30
0.0
 11
151.425499413892
 21
590.1174394693505
 31
0.0
  0
LINE
  5
A17
330
1E
100
AcDbEntity
  8
STEMPEL
100
AcDbLine
 10
152.9152453760476
 20
592.2077959855503
 30
0.0
 11
152.9152453760476
 21
599.8065503368951
 31
0.0
  0
LINE
  5
A18
330
1E
100
AcDbEntity
  8
STEMPEL
100
AcDbLine
 10
154.075499413892
 20
600.1174394693505
 30
0.0
 11
152.9152453760476
 21
599.8065503368951
 31
0.0
  0
LINE
  5
A19
330
1E
100
AcDbEntity
  8
STEMPEL
100
AcDbLine
 10
170.2357534517364
 20
599.8065503368951
 30
0.0
 11
169.0754994138919
 21
600.1174394693505
 31
0.0
  0
LINE
  5
A1A
330
1E
100
AcDbEntity
  8
STEMPEL
100
AcDbLine
 10
171.9820145213862
 20
591.5722089349399
 30
0.0
 11
170.2357534517364
 21
592.2077959855503
 31
0.0
  0
LINE
  5
A1B
330
1E
100
AcDbEntity
  8
STEMPEL
100
AcDbLine
 10
152.9152453760476
 20
592.2077959855503
 30
0.0
 11
151.1689843063977
 21
591.5722089349399
 31
0.0
  0
ARC
  5
A1C
330
1E
100
AcDbEntity
  8
STEMPEL
100
AcDbCircle
 10
151.425499413892
 20
590.8674394693504
 30
0.0
 40
0.7500000000000013
100
AcDbArc
 50
109.9999999999995
 51
269.9999991462263
  0
ARC
  5
A1D
330
1E
100
AcDbEntity
  8
STEMPEL
100
AcDbCircle
 10
171.725499413892
 20
590.8674394693504
 30
0.0
 40
0.750000000000001
100
AcDbArc
 50
269.9999991462263
 51
70.00000000000047
  0
ARC
  5
A6B
102
{ACAD_REACTORS
330
CFF
102
}
330
1E
100
AcDbEntity
  8
STEMPEL
100
AcDbCircle
 10
189.3938530779948
 20
269.1174394693497
 30
0.0
 40
3.0
100
AcDbArc
 50
183.5763343749981
 51
270.0
  0
ARC
  5
A6C
102
{ACAD_REACTORS
330
CFF
102
}
330
1E
100
AcDbEntity
  8
STEMPEL
100
AcDbCircle
 10
313.7571457497892
 20
269.1174394693481
 30
0.0
 40
3.0
100
AcDbArc
 50
270.0
 51
356.4236656250018
  0
LINE
  5
A6E
102
{ACAD_REACTORS
330
CFF
102
}
330
1E
100
AcDbEntity
  8
STEMPEL
100
AcDbLine
 10
209.0754994138922
 20
268.1174394693495
 30
0.0
 11
209.0754994138922
 21
266.1174394693495
 31
0.0
  0
LINE
  5
A70
102
{ACAD_REACTORS
330
CFF
102
}
330
1E
100
AcDbEntity
  8
STEMPEL
100
AcDbLine
 10
204.0754994138918
 20
356.1174394693497
 30
0.0
 11
198.0754994138919
 21
362.1174394693496
 31
0.0
  0
LINE
  5
A71
102
{ACAD_REACTORS
330
CFF
102
}
330
1E
100
AcDbEntity
  8
STEMPEL
100
AcDbLine
 10
204.0754994138918
 20
356.1174394693497
 30
0.0
 11
204.0754994138922
 21
290.1174394693478
 31
0.0
  0
LINE
  5
A72
102
{ACAD_REACTORS
330
CFF
102
}
330
1E
100
AcDbEntity
  8
STEMPEL
100
AcDbLine
 10
215.0754994138937
 20
275.1574394693475
 30
0.0
 11
204.0754994138922
 21
290.1174394693478
 31
0.0
  0
LINE
  5
A73
102
{ACAD_REACTORS
330
CFF
102
}
330
1E
100
AcDbEntity
  8
STEMPEL
100
AcDbLine
 10
299.075499413892
 20
356.11743946935
 30
0.0
 11
305.0754994138918
 21
362.1174394693499
 31
0.0
  0
LINE
  5
A74
330
1E
100
AcDbEntity
  8
STEMPEL
100
AcDbLine
 10
299.0754994138921
 20
356.11743946935
 30
0.0
 11
298.2337879876876
 21
356.11743946935
 31
0.0
  0
LINE
  5
A75
330
1E
100
AcDbEntity
  8
STEMPEL
100
AcDbLine
 10
299.075499413892
 20
290.1174394693481
 30
0.0
 11
298.3325967719787
 21
290.1174394693482
 31
0.0
  0
LINE
  5
A76
102
{ACAD_REACTORS
330
CFF
102
}
330
1E
100
AcDbEntity
  8
STEMPEL
100
AcDbLine
 10
298.3325967719787
 20
289.107091876346
 30
0.0
 11
299.0754994138921
 21
290.1174394693482
 31
0.0
  0
LINE
  5
A77
102
{ACAD_REACTORS
330
CFF
102
}
330
1E
100
AcDbEntity
  8
STEMPEL
100
AcDbLine
 10
299.075499413892
 20
356.11743946935
 30
0.0
 11
299.0754994138921
 21
290.1174394693482
 31
0.0
  0
DIMENSION
  5
A78
330
1E
100
AcDbEntity
  8
BEM
100
AcDbDimension
  2
*D8
 10
326.5754994138923
 20
460.9975525761146
 30
0.0
 11
251.5754994138922
 21
467.4975525761145
 31
0.0
 70
    32
  1
%%c<>
 71
     5
 42
150.0000000000002
  3
Standard
100
AcDbAlignedDimension
 13
176.575499413892
 23
426.1174394693497
 33
0.0
 14
326.5754994138923
 24
426.11743946935
 34
0.0
100
AcDbRotatedDimension
1001
ACAD
1000
DSTYLE
1002
{
1070
    40
1040
2.0
1070
    41
1040
3.5
1070
    42
1040
1.0
1070
    43
1040
7.0
1070
    44
1040
1.0
1070
    73
1070
     0
1070
    74
1070
     0
1070
    77
1070
     1
1070
    78
1070
     8
1070
    79
1070
     2
1070
   140
1040
3.5
1070
   141
1040
1.5
1070
   146
1040
0.5
1070
   147
1040
1.5
1070
   172
1070
     1
1070
   178
1070
     1
1070
   179
1070
     2
1070
   271
1070
     2
1070
   272
1070
     2
1070
   284
1070
     8
1070
   285
1070
     8
1070
   286
1070
     8
1070
   340
1005
24
1002
}
  0
LINE
  5
A79
102
{ACAD_REACTORS
330
CFF
102
}
330
1E
100
AcDbEntity
  8
STEMPEL
100
AcDbLine
 10
313.7571457497891
 20
266.1174394693481
 30
0.0
 11
298.3325967719787
 21
266.1174394693483
 31
0.0
  0
DIMENSION
  5
A7A
330
1E
100
AcDbEntity
  8
BEM
100
AcDbDimension
  2
*D9
 10
316.5730440484136
 20
248.8781696114756
 30
0.0
 11
251.5754994138919
 21
255.3781696114756
 31
0.0
 70
    32
  1
%%c<>
 71
     5
 42
129.9950892690433
  3
Standard
100
AcDbAlignedDimension
 13
186.5779547793702
 23
266.1174394693497
 33
0.0
 14
316.5730440484136
 24
266.117439469348
 34
0.0
100
AcDbRotatedDimension
1001
ACAD
1000
DSTYLE
1002
{
1070
    40
1040
2.0
1070
    41
1040
3.5
1070
    42
1040
1.0
1070
    43
1040
7.0
1070
    44
1040
1.0
1070
    73
1070
     0
1070
    74
1070
     0
1070
    77
1070
     1
1070
    78
1070
     8
1070
    79
1070
     2
1070
   140
1040
3.5
1070
   141
1040
1.5
1070
   146
1040
0.5
1070
   147
1040
1.5
1070
   172
1070
     1
1070
   178
1070
     1
1070
   179
1070
     2
1070
   271
1070
     2
1070
   272
1070
     2
1070
   284
1070
     8
1070
   285
1070
     8
1070
   286
1070
     8
1070
   340
1005
24
1002
}
  0
LINE
  5
A7B
330
1E
100
AcDbEntity
  8
STEMPEL
100
AcDbLine
 10
305.0754994138923
 20
416.11743946935
 30
0.0
 11
298.2922087355005
 21
416.11743946935
 31
0.0
  0
LINE
  5
A7C
330
1E
100
AcDbEntity
  8
STEMPEL
100
AcDbLine
 10
305.0754994138916
 20
362.1174394693499
 30
0.0
 11
297.3345851491957
 21
362.1174394693498
 31
0.0
  0
LINE
  5
A7E
102
{ACAD_REACTORS
330
CFF
102
}
330
1E
100
AcDbEntity
  8
STEMPEL
100
AcDbLine
 10
176.575499413892
 20
426.1174394693497
 30
0.0
 11
186.3996953425461
 21
268.9303046108842
 31
0.0
  0
DIMENSION
  5
A7F
330
1E
100
AcDbEntity
  8
BEM
100
AcDbDimension
  2
*D10
 10
127.0022324983197
 20
266.1174394693498
 30
0.0
 11
120.5022324983197
 21
346.1174394693497
 31
0.0
 70
    32
 71
     5
 42
159.9999999999998
  3
Standard
100
AcDbAlignedDimension
 13
135.2930138351638
 23
426.1174394693496
 33
0.0
 14
186.5779547793702
 24
266.1174394693497
 34
0.0
 50
90.0
100
AcDbRotatedDimension
1001
ACAD
1000
DSTYLE
1002
{
1070
    40
1040
2.0
1070
    41
1040
3.5
1070
    42
1040
1.0
1070
    43
1040
7.0
1070
    44
1040
1.0
1070
    73
1070
     0
1070
    74
1070
     0
1070
    77
1070
     1
1070
    78
1070
     8
1070
    79
1070
     2
1070
   140
1040
3.5
1070
   141
1040
1.5
1070
   146
1040
0.5
1070
   147
1040
1.5
1070
   172
1070
     1
1070
   178
1070
     1
1070
   179
1070
     2
1070
   271
1070
     2
1070
   272
1070
     2
1070
   284
1070
     8
1070
   285
1070
     8
1070
   286
1070
     8
1070
   340
1005
24
1002
}
  0
LINE
  5
A81
102
{ACAD_REACTORS
330
CFF
102
}
330
1E
100
AcDbEntity
  8
STEMPEL
100
AcDbLine
 10
198.0754994138922
 20
362.1174394693496
 30
0.0
 11
198.075499413892
 21
416.1174394693498
 31
0.0
  0
LINE
  5
A82
102
{ACAD_REACTORS
330
CFF
102
}
330
1E
100
AcDbEntity
  8
STEMPEL
100
AcDbLine
 10
186.575499413892
 20
426.1174394693498
 30
0.0
 11
198.075499413892
 21
416.1174394693498
 31
0.0
  0
LINE
  5
A83
102
{ACAD_REACTORS
330
CFF
102
}
330
1E
100
AcDbEntity
  8
STEMPEL
100
AcDbLine
 10
326.575499413892
 20
426.1174394693497
 30
0.0
 11
316.7513034852378
 21
268.9303046108825
 31
0.0
  0
LINE
  5
A85
102
{ACAD_REACTORS
330
CFF
102
}
330
1E
100
AcDbEntity
  8
STEMPEL
100
AcDbLine
 10
316.575499413892
 20
426.1174394693498
 30
0.0
 11
305.075499413892
 21
416.1174394693498
 31
0.0
  0
LINE
  5
A86
102
{ACAD_REACTORS
330
CFF
102
}
330
1E
100
AcDbEntity
  8
STEMPEL
100
AcDbLine
 10
305.0754994138918
 20
362.1174394693496
 30
0.0
 11
305.075499413892
 21
416.1174394693498
 31
0.0
  0
LINE
  5
AD8
330
1E
100
AcDbEntity
  8
TEXT
 62
     2
100
AcDbLine
 10
419.7980031576255
 20
323.3448663827267
 30
0.0
 11
315.2884669397093
 21
339.7411456686711
 31
0.0
  0
TEXT
  5
AD9
330
1E
100
AcDbEntity
  8
TEXT
 62
     1
100
AcDbText
 10
420.3933590363799
 20
326.8287005436371
 30
0.0
 40
7.0
  1
Wärmedämmung
 41
0.8
100
AcDbText
  0
LINE
  5
ADA
330
1E
100
AcDbEntity
  8
TEXT
 62
     2
100
AcDbLine
 10
525.7365677327586
 20
323.3448663827267
 30
0.0
 11
419.7980031576255
 21
323.3448663827267
 31
0.0
  0
TEXT
  5
ADB
330
1E
100
AcDbEntity
  8
TEXT
 62
     1
100
AcDbText
 10
420.3933590363799
 20
314.0523695749275
 30
0.0
 40
7.0
  1
EDV-Art.Nr. 19842.070X
 41
0.8
100
AcDbText
  0
LINE
  5
ADC
330
1E
100
AcDbEntity
  8
STEMPEL
100
AcDbLine
 10
204.8587900922836
 20
416.11743946935
 30
0.0
 11
198.075499413892
 21
416.1174394693498
 31
0.0
  0
LINE
  5
ADD
330
1E
100
AcDbEntity
  8
STEMPEL
100
AcDbLine
 10
212.2754994138928
 20
362.1174394693496
 30
0.0
 11
198.0754994138922
 21
362.1174394693496
 31
0.0
  0
LINE
  5
ADE
330
1E
100
AcDbEntity
  8
STEMPEL
100
AcDbLine
 10
212.275499413893
 20
356.1174394693499
 30
0.0
 11
204.0754994138918
 21
356.1174394693499
 31
0.0
  0
LINE
  5
ADF
330
1E
100
AcDbEntity
  8
STEMPEL
100
AcDbLine
 10
215.0754994138938
 20
290.1174394693494
 30
0.0
 11
204.0754994138922
 21
290.1174394693496
 31
0.0
  0
LINE
  5
AE0
102
{ACAD_REACTORS
330
CFF
102
}
330
1E
100
AcDbEntity
  8
STEMPEL
100
AcDbLine
 10
215.0754994138936
 20
268.1174394693494
 30
0.0
 11
209.0754994138922
 21
268.1174394693495
 31
0.0
  0
LINE
  5
AE1
102
{ACAD_REACTORS
330
CFF
102
}
330
1E
100
AcDbEntity
  8
STEMPEL
100
AcDbLine
 10
215.0754994138935
 20
266.1174394693494
 30
0.0
 11
189.3938530779947
 21
266.1174394693497
 31
0.0
  0
LINE
  5
B14
330
1E
100
AcDbEntity
  8
MITTEL
100
AcDbLine
 10
251.5754994138918
 20
456.1378612370238
 30
0.0
 11
251.5754994138919
 21
261.3776478343757
 31
0.0
  0
LINE
  5
B1E
330
1E
100
AcDbEntity
  8
MITTEL
100
AcDbLine
 10
251.5754994138919
 20
246.4341072718555
 30
0.0
 11
251.5754994138919
 21
163.1174394693501
 31
0.0
  0
TEXT
  5
B1F
330
1E
100
AcDbEntity
  8
TEXT
100
AcDbText
 10
532.496655824147
 20
655.1296391125313
 30
0.0
 40
5.0
  1
und Heizung, zweiteilig
 50
90.0
 41
0.8
  7
GREEKS
100
AcDbText
  0
HATCH
  5
C26
330
1E
100
AcDbEntity
  8
SCHRAFF
100
AcDbHatch
 10
0.0
 20
0.0
 30
0.0
210
0.0
220
0.0
230
1.0
  2
_USER
 70
     0
 71
     1
 91
        2
 92
        7
 72
     1
 73
     1
 93
        8
 10
211.2754994138921
 20
381.6174394693506
 42
0.4142135623730951
 10
210.2754994138921
 20
382.6174394693506
 42
0.0
 10
209.2754994138921
 20
382.6174394693507
 42
0.4142135623730951
 10
208.2754994138921
 20
381.6174394693507
 42
0.0
 10
208.2754994138921
 20
375.6174394693506
 42
0.4142135623730951
 10
209.2754994138921
 20
374.6174394693506
 42
0.0
 10
210.2754994138921
 20
374.6174394693506
 42
0.4142135623730951
 10
211.2754994138921
 20
375.6174394693506
 42
0.0
 97
        8
330
C30
330
C2D
330
C2F
330
C2E
330
C2A
330
C2B
330
C2C
330
C31
 92
        7
 72
     1
 73
     1
 93
        8
 10
211.2754994138921
 20
391.6174394693506
 42
0.4142135623730951
 10
210.2754994138921
 20
392.6174394693506
 42
0.0
 10
209.2754994138921
 20
392.6174394693507
 42
0.4142135623730951
 10
208.2754994138921
 20
391.6174394693507
 42
0.0
 10
208.2754994138921
 20
385.6174394693506
 42
0.4142135623730951
 10
209.2754994138921
 20
384.6174394693506
 42
0.0
 10
210.2754994138921
 20
384.6174394693506
 42
0.4142135623730951
 10
211.2754994138921
 20
385.6174394693506
 42
0.0
 97
        8
330
C41
330
C44
330
C42
330
C43
330
C47
330
C46
330
C45
330
C40
 75
     0
 76
     0
 52
45.0
 41
1.0
 77
     0
 78
     1
 53
45.0
 43
33.35871628335269
 44
-58.38183548929379
 45
-0.7071067811865475
 46
0.7071067811865476
 79
     0
 47
0.1758758460342324
 98
        2
 10
210.1739355032923
 20
379.3112521400799
 10
210.1739355032923
 20
388.4567951770316
  0
HATCH
  5
C27
330
1E
100
AcDbEntity
  8
SCHRAFF
100
AcDbHatch
 10
0.0
 20
0.0
 30
0.0
210
0.0
220
0.0
230
1.0
  2
NET
 70
     0
 71
     1
 91
        4
 92
        7
 72
     1
 73
     1
 93
        8
 10
207.2754994138921
 20
385.6174394693506
 42
0.4142135623730951
 10
209.2754994138921
 20
383.6174394693506
 42
0.0
 10
210.2754994138921
 20
383.6174394693506
 42
0.4142135623730951
 10
212.2754994138921
 20
385.6174394693506
 42
0.0
 10
212.2754994138921
 20
391.6174394693506
 42
0.4142135623730951
 10
210.2754994138921
 20
393.6174394693506
 42
0.0
 10
209.2754994138921
 20
393.6174394693507
 42
0.4142135623730951
 10
207.2754994138921
 20
391.6174394693507
 42
0.0
 97
        8
330
C3B
330
C3A
330
C3E
330
C3D
330
C3F
330
C39
330
C3C
330
C38
 92
       22
 72
     1
 73
     1
 93
        8
 10
208.2754994138921
 20
391.6174394693507
 42
-0.4142135623731284
 10
209.2754994138922
 20
392.6174394693507
 42
0.0
 10
210.2754994138921
 20
392.6174394693506
 42
-0.4142135623730951
 10
211.2754994138921
 20
391.6174394693506
 42
0.0
 10
211.2754994138921
 20
385.6174394693506
 42
-0.4142135623730951
 10
210.2754994138921
 20
384.6174394693506
 42
0.0
 10
209.2754994138921
 20
384.6174394693506
 42
-0.4142135623730951
 10
208.2754994138921
 20
385.6174394693506
 42
0.0
 97
        8
330
C45
330
C46
330
C47
330
C43
330
C42
330
C44
330
C41
330
C40
 92
        7
 72
     1
 73
     1
 93
        8
 10
207.2754994138921
 20
375.6174394693506
 42
0.4142135623730951
 10
209.2754994138921
 20
373.6174394693506
 42
0.0
 10
210.2754994138921
 20
373.6174394693506
 42
0.4142135623730951
 10
212.2754994138921
 20
375.6174394693506
 42
0.0
 10
212.2754994138921
 20
381.6174394693506
 42
0.4142135623730951
 10
210.2754994138921
 20
383.6174394693506
 42
0.0
 10
209.2754994138921
 20
383.6174394693506
 42
0.4142135623730951
 10
207.2754994138921
 20
381.6174394693506
 42
0.0
 97
        8
330
C35
330
C39
330
C33
330
C29
330
C32
330
C28
330
C34
330
C37
 92
       22
 72
     1
 73
     1
 93
        8
 10
208.2754994138921
 20
381.6174394693507
 42
-0.4142135623731284
 10
209.2754994138922
 20
382.6174394693507
 42
0.0
 10
210.2754994138921
 20
382.6174394693506
 42
-0.4142135623730951
 10
211.2754994138921
 20
381.6174394693506
 42
0.0
 10
211.2754994138921
 20
375.6174394693506
 42
-0.4142135623730951
 10
210.2754994138921
 20
374.6174394693506
 42
0.0
 10
209.2754994138921
 20
374.6174394693506
 42
-0.4142135623730951
 10
208.2754994138921
 20
375.6174394693506
 42
0.0
 97
        8
330
C2C
330
C2B
330
C2A
330
C2E
330
C2F
330
C2D
330
C30
330
C31
 75
     0
 76
     1
 52
45.0
 41
10.0
 77
     0
 78
     2
 53
135.0
 43
460.2011027771959
 44
-73.71431979704334
 45
0.8838834764831842
 46
0.8838834764831844
 79
     0
 53
45.0
 43
460.2011027771959
 44
-73.71431979704334
 45
0.8838834764831844
 46
-0.8838834764831842
 79
     0
 47
0.1245679072124101
 98
        4
 10
207.6469308309486
 20
389.0128894404966
 10
207.6469308309486
 20
389.0128894404966
 10
207.5223248115039
 20
380.6668392719278
 10
207.5223248115039
 20
380.6668392719278
  0
LINE
  5
C28
102
{ACAD_REACTORS
330
C27
102
}
330
1E
100
AcDbEntity
  8
STEMPEL
100
AcDbLine
 10
209.2754994138921
 20
373.6174394693506
 30
0.0
 11
210.2754994138921
 21
373.6174394693506
 31
0.0
  0
LINE
  5
C29
102
{ACAD_REACTORS
330
C27
102
}
330
1E
100
AcDbEntity
  8
STEMPEL
  6
Continuous
100
AcDbLine
 10
212.2754994138921
 20
381.6174394693506
 30
0.0
 11
212.2754994138921
 21
375.6174394693506
 31
0.0
  0
ARC
  5
C2A
102
{ACAD_REACTORS
330
C27
330
C26
102
}
330
1E
100
AcDbEntity
  8
STEMPEL
100
AcDbCircle
 10
210.2754994138921
 20
375.6174394693506
 30
0.0
 40
1.0
100
AcDbArc
 50
270.0
 51
0.0
  0
LINE
  5
C2B
102
{ACAD_REACTORS
330
C27
330
C26
102
}
330
1E
100
AcDbEntity
  8
STEMPEL
100
AcDbLine
 10
209.2754994138921
 20
374.6174394693506
 30
0.0
 11
210.2754994138921
 21
374.6174394693506
 31
0.0
  0
ARC
  5
C2C
102
{ACAD_REACTORS
330
C27
330
C26
102
}
330
1E
100
AcDbEntity
  8
STEMPEL
100
AcDbCircle
 10
209.2754994138921
 20
375.6174394693506
 30
0.0
 40
1.0
100
AcDbArc
 50
180.0
 51
270.0
  0
LINE
  5
C2D
102
{ACAD_REACTORS
330
C27
330
C26
102
}
330
1E
100
AcDbEntity
  8
STEMPEL
100
AcDbLine
 10
209.2754994138921
 20
382.6174394693507
 30
0.0
 11
210.2754994138921
 21
382.6174394693506
 31
0.0
  0
LINE
  5
C2E
102
{ACAD_REACTORS
330
C27
330
C26
102
}
330
1E
100
AcDbEntity
  8
STEMPEL
  6
Continuous
100
AcDbLine
 10
211.2754994138921
 20
381.6174394693506
 30
0.0
 11
211.2754994138921
 21
375.6174394693506
 31
0.0
  0
ARC
  5
C2F
102
{ACAD_REACTORS
330
C27
330
C26
102
}
330
1E
100
AcDbEntity
  8
STEMPEL
100
AcDbCircle
 10
210.2754994138921
 20
381.6174394693506
 30
0.0
 40
1.0
100
AcDbArc
 50
0.0
 51
90.0
  0
ARC
  5
C30
102
{ACAD_REACTORS
330
C27
330
C26
102
}
330
1E
100
AcDbEntity
  8
STEMPEL
100
AcDbCircle
 10
209.2754994138921
 20
381.6174394693507
 30
0.0
 40
1.0
100
AcDbArc
 50
90.0
 51
180.0
  0
LINE
  5
C31
102
{ACAD_REACTORS
330
C27
330
C26
102
}
330
1E
100
AcDbEntity
  8
STEMPEL
  6
Continuous
100
AcDbLine
 10
208.2754994138921
 20
381.6174394693507
 30
0.0
 11
208.2754994138921
 21
375.6174394693506
 31
0.0
  0
ARC
  5
C32
102
{ACAD_REACTORS
330
C27
102
}
330
1E
100
AcDbEntity
  8
STEMPEL
100
AcDbCircle
 10
210.2754994138921
 20
375.6174394693506
 30
0.0
 40
2.0
100
AcDbArc
 50
270.0
 51
0.0
  0
ARC
  5
C33
102
{ACAD_REACTORS
330
C27
102
}
330
1E
100
AcDbEntity
  8
STEMPEL
100
AcDbCircle
 10
210.2754994138921
 20
381.6174394693506
 30
0.0
 40
2.0
100
AcDbArc
 50
0.0
 51
90.0
  0
ARC
  5
C34
102
{ACAD_REACTORS
330
C27
102
}
330
1E
100
AcDbEntity
  8
STEMPEL
100
AcDbCircle
 10
209.2754994138921
 20
375.6174394693506
 30
0.0
 40
2.0
100
AcDbArc
 50
180.0
 51
270.0
  0
ARC
  5
C35
102
{ACAD_REACTORS
330
C27
102
}
330
1E
100
AcDbEntity
  8
STEMPEL
100
AcDbCircle
 10
209.2754994138921
 20
381.6174394693507
 30
0.0
 40
2.0
100
AcDbArc
 50
90.0
 51
180.0
  0
LINE
  5
C36
330
1E
100
AcDbEntity
  8
STEMPEL
100
AcDbLine
 10
209.2754994138921
 20
373.6174394693506
 30
0.0
 11
210.2754994138921
 21
373.6174394693506
 31
0.0
  0
LINE
  5
C37
102
{ACAD_REACTORS
330
C27
102
}
330
1E
100
AcDbEntity
  8
STEMPEL
  6
Continuous
100
AcDbLine
 10
207.2754994138921
 20
381.6174394693507
 30
0.0
 11
207.2754994138921
 21
375.6174394693506
 31
0.0
  0
LINE
  5
C38
102
{ACAD_REACTORS
330
C27
102
}
330
1E
100
AcDbEntity
  8
STEMPEL
  6
Continuous
100
AcDbLine
 10
207.2754994138921
 20
391.6174394693507
 30
0.0
 11
207.2754994138921
 21
385.6174394693506
 31
0.0
  0
LINE
  5
C39
102
{ACAD_REACTORS
330
C27
102
}
330
1E
100
AcDbEntity
  8
STEMPEL
100
AcDbLine
 10
209.2754994138921
 20
383.6174394693506
 30
0.0
 11
210.2754994138921
 21
383.6174394693506
 31
0.0
  0
LINE
  5
C3A
102
{ACAD_REACTORS
330
C27
102
}
330
1E
100
AcDbEntity
  8
STEMPEL
100
AcDbLine
 10
209.2754994138921
 20
393.6174394693507
 30
0.0
 11
210.2754994138921
 21
393.6174394693506
 31
0.0
  0
ARC
  5
C3B
102
{ACAD_REACTORS
330
C27
102
}
330
1E
100
AcDbEntity
  8
STEMPEL
100
AcDbCircle
 10
209.2754994138921
 20
391.6174394693507
 30
0.0
 40
2.0
100
AcDbArc
 50
90.0
 51
180.0
  0
ARC
  5
C3C
102
{ACAD_REACTORS
330
C27
102
}
330
1E
100
AcDbEntity
  8
STEMPEL
100
AcDbCircle
 10
209.2754994138921
 20
385.6174394693506
 30
0.0
 40
2.0
100
AcDbArc
 50
180.0
 51
270.0
  0
LINE
  5
C3D
102
{ACAD_REACTORS
330
C27
102
}
330
1E
100
AcDbEntity
  8
STEMPEL
  6
Continuous
100
AcDbLine
 10
212.2754994138921
 20
391.6174394693506
 30
0.0
 11
212.2754994138921
 21
385.6174394693506
 31
0.0
  0
ARC
  5
C3E
102
{ACAD_REACTORS
330
C27
102
}
330
1E
100
AcDbEntity
  8
STEMPEL
100
AcDbCircle
 10
210.2754994138921
 20
391.6174394693506
 30
0.0
 40
2.0
100
AcDbArc
 50
0.0
 51
90.0
  0
ARC
  5
C3F
102
{ACAD_REACTORS
330
C27
102
}
330
1E
100
AcDbEntity
  8
STEMPEL
100
AcDbCircle
 10
210.2754994138921
 20
385.6174394693506
 30
0.0
 40
2.0
100
AcDbArc
 50
270.0
 51
0.0
  0
LINE
  5
C40
102
{ACAD_REACTORS
330
C27
330
C26
102
}
330
1E
100
AcDbEntity
  8
STEMPEL
  6
Continuous
100
AcDbLine
 10
208.2754994138921
 20
391.6174394693507
 30
0.0
 11
208.2754994138921
 21
385.6174394693506
 31
0.0
  0
ARC
  5
C41
102
{ACAD_REACTORS
330
C27
330
C26
102
}
330
1E
100
AcDbEntity
  8
STEMPEL
100
AcDbCircle
 10
209.2754994138921
 20
391.6174394693507
 30
0.0
 40
1.0
100
AcDbArc
 50
90.0
 51
180.0
  0
ARC
  5
C42
102
{ACAD_REACTORS
330
C27
330
C26
102
}
330
1E
100
AcDbEntity
  8
STEMPEL
100
AcDbCircle
 10
210.2754994138921
 20
391.6174394693506
 30
0.0
 40
1.0
100
AcDbArc
 50
0.0
 51
90.0
  0
LINE
  5
C43
102
{ACAD_REACTORS
330
C27
330
C26
102
}
330
1E
100
AcDbEntity
  8
STEMPEL
  6
Continuous
100
AcDbLine
 10
211.2754994138921
 20
391.6174394693506
 30
0.0
 11
211.2754994138921
 21
385.6174394693506
 31
0.0
  0
LINE
  5
C44
102
{ACAD_REACTORS
330
C27
330
C26
102
}
330
1E
100
AcDbEntity
  8
STEMPEL
100
AcDbLine
 10
209.2754994138921
 20
392.6174394693507
 30
0.0
 11
210.2754994138921
 21
392.6174394693506
 31
0.0
  0
ARC
  5
C45
102
{ACAD_REACTORS
330
C27
330
C26
102
}
330
1E
100
AcDbEntity
  8
STEMPEL
100
AcDbCircle
 10
209.2754994138921
 20
385.6174394693506
 30
0.0
 40
1.0
100
AcDbArc
 50
180.0
 51
270.0
  0
LINE
  5
C46
102
{ACAD_REACTORS
330
C27
330
C26
102
}
330
1E
100
AcDbEntity
  8
STEMPEL
100
AcDbLine
 10
209.2754994138921
 20
384.6174394693506
 30
0.0
 11
210.2754994138921
 21
384.6174394693506
 31
0.0
  0
ARC
  5
C47
102
{ACAD_REACTORS
330
C27
330
C26
102
}
330
1E
100
AcDbEntity
  8
STEMPEL
100
AcDbCircle
 10
210.2754994138921
 20
385.6174394693506
 30
0.0
 40
1.0
100
AcDbArc
 50
270.0
 51
0.0
  0
LINE
  5
C96
330
1E
100
AcDbEntity
  8
TEXT
 62
     2
100
AcDbLine
 10
381.1501603297323
 20
243.8697868353623
 30
0.0
 11
488.4333694025578
 21
243.8697868353623
 31
0.0
  0
TEXT
  5
C97
330
1E
100
AcDbEntity
  8
TEXT
 62
     1
100
AcDbText
 10
382.9492523241987
 20
248.014937445074
 30
0.0
 40
7.0
  1
Heizbandkabel
 41
0.8
  7
GREEKS
100
AcDbText
  0
TEXT
  5
C98
330
1E
100
AcDbEntity
  8
TEXT
 62
     1
100
AcDbText
 10
382.9492523241987
 20
233.0522316507075
 30
0.0
 40
7.0
  1
EDV-Art.Nr. 19853.000X
 41
0.8
  7
GREEKS
100
AcDbText
  0
LINE
  5
C99
330
1E
100
AcDbEntity
  8
TEXT
 62
     2
100
AcDbLine
 10
381.1501603297323
 20
243.8697868353623
 30
0.0
 11
299.0044568653356
 21
225.6379418774175
 31
0.0
  0
POLYLINE
  5
C9A
330
1E
100
AcDbEntity
  8
STEMPEL
100
AcDb2dPolyline
 66
     1
 10
0.0
 20
0.0
 30
0.0
 70
     4
 75
     6
  0
VERTEX
  5
C9B
330
C9A
100
AcDbEntity
  8
STEMPEL
100
AcDbVertex
100
AcDb2dVertex
 10
288.3325967719786
 20
259.5421752696571
 30
0.0
 70
    16
  0
VERTEX
  5
C9C
330
C9A
100
AcDbEntity
  8
STEMPEL
100
AcDbVertex
100
AcDb2dVertex
 10
288.3325967719786
 20
259.5421752696571
 30
0.0
 70
     8
  0
VERTEX
  5
C9D
330
C9A
100
AcDbEntity
  8
STEMPEL
100
AcDbVertex
100
AcDb2dVertex
 10
288.9872518756141
 20
252.6205531793224
 30
0.0
 70
     8
  0
VERTEX
  5
C9E
330
C9A
100
AcDbEntity
  8
STEMPEL
100
AcDbVertex
100
AcDb2dVertex
 10
289.5533203536981
 20
247.1701699746536
 30
0.0
 70
     8
  0
VERTEX
  5
C9F
330
C9A
100
AcDbEntity
  8
STEMPEL
100
AcDbVertex
100
AcDb2dVertex
 10
290.1247845464681
 20
242.7076749309674
 30
0.0
 70
     8
  0
VERTEX
  5
CA0
330
C9A
100
AcDbEntity
  8
STEMPEL
100
AcDbVertex
100
AcDb2dVertex
 10
290.795626794162
 20
238.7497173235809
 30
0.0
 70
     8
  0
VERTEX
  5
CA1
330
C9A
100
AcDbEntity
  8
STEMPEL
100
AcDbVertex
100
AcDb2dVertex
 10
291.6598294370177
 20
234.8129464278112
 30
0.0
 70
     8
  0
VERTEX
  5
CA2
330
C9A
100
AcDbEntity
  8
STEMPEL
100
AcDbVertex
100
AcDb2dVertex
 10
292.8113748152725
 20
230.414011518975
 30
0.0
 70
     8
  0
VERTEX
  5
CA3
330
C9A
100
AcDbEntity
  8
STEMPEL
100
AcDbVertex
100
AcDb2dVertex
 10
294.3442452691645
 20
225.0695618723894
 30
0.0
 70
     8
  0
VERTEX
  5
CA4
330
C9A
100
AcDbEntity
  8
STEMPEL
100
AcDbVertex
100
AcDb2dVertex
 10
296.3524231389313
 20
218.2962467633714
 30
0.0
 70
     8
  0
VERTEX
  5
CA5
330
C9A
100
AcDbEntity
  8
STEMPEL
100
AcDbVertex
100
AcDb2dVertex
 10
290.2799990737311
 20
238.6932194259365
 30
0.0
 70
    16
  0
VERTEX
  5
CA6
330
C9A
100
AcDbEntity
  8
STEMPEL
100
AcDbVertex
100
AcDb2dVertex
 10
296.3524231389314
 20
218.2962467633714
 30
0.0
 70
    16
  0
SEQEND
  5
CA7
330
C9A
100
AcDbEntity
  8
STEMPEL
  0
POLYLINE
  5
CA8
330
1E
100
AcDbEntity
  8
STEMPEL
100
AcDb2dPolyline
 66
     1
 10
0.0
 20
0.0
 30
0.0
  0
VERTEX
  5
CA9
330
CA8
100
AcDbEntity
  8
STEMPEL
100
AcDbVertex
100
AcDb2dVertex
 10
298.3325880941368
 20
259.5358194026908
 30
0.0
  0
VERTEX
  5
CAA
330
CA8
100
AcDbEntity
  8
STEMPEL
100
AcDbVertex
100
AcDb2dVertex
 10
298.3271323027758
 20
252.6687283599348
 30
0.0
  0
VERTEX
  5
CAB
330
CA8
100
AcDbEntity
  8
STEMPEL
100
AcDbVertex
100
AcDb2dVertex
 10
298.394583977339
 20
247.4149822467131
 30
0.0
  0
VERTEX
  5
CAC
330
CA8
100
AcDbEntity
  8
STEMPEL
100
AcDbVertex
100
AcDb2dVertex
 10
298.5920076639507
 20
243.3362028468255
 30
0.0
  0
VERTEX
  5
CAD
330
CA8
100
AcDbEntity
  8
STEMPEL
100
AcDbVertex
100
AcDb2dVertex
 10
298.9669908528035
 20
239.9050912634634
 30
0.0
  0
VERTEX
  5
CAE
330
CA8
100
AcDbEntity
  8
STEMPEL
100
AcDbVertex
100
AcDb2dVertex
 10
299.5921667099673
 20
236.4852351694091
 30
0.0
  0
VERTEX
  5
CAF
330
CA8
100
AcDbEntity
  8
STEMPEL
100
AcDbVertex
100
AcDb2dVertex
 10
300.5802487243406
 20
232.450704294
 30
0.0
  0
VERTEX
  5
CB0
330
CA8
100
AcDbEntity
  8
STEMPEL
100
AcDbVertex
100
AcDb2dVertex
 10
302.0342335788994
 20
227.2892226757745
 30
0.0
  0
VERTEX
  5
CB1
330
CA8
100
AcDbEntity
  8
STEMPEL
100
AcDbVertex
100
AcDb2dVertex
 10
304.0236209008672
 20
220.5662081941611
 30
0.0
  0
SEQEND
  5
CB2
330
CA8
100
AcDbEntity
  8
STEMPEL
  0
LINE
  5
CB3
330
1E
100
AcDbEntity
  8
MITTEL
100
AcDbLine
 10
306.9003200615931
 20
221.4174437307072
 30
0.0
 11
293.4757239782056
 21
217.4450112268252
 31
0.0
  0
LINE
  5
CB4
102
{ACAD_REACTORS
330
CFF
102
}
330
1E
100
AcDbEntity
  8
STEMPEL
100
AcDbLine
 10
298.3325967719786
 20
352.2908967717035
 30
0.0
 11
298.3325967719787
 21
252.2431061048763
 31
0.0
  0
POLYLINE
  5
CB5
330
1E
100
AcDbEntity
  8
STEMPEL
100
AcDb2dPolyline
 66
     1
 10
0.0
 20
0.0
 30
0.0
 70
     2
  0
VERTEX
  5
CB6
330
CB5
100
AcDbEntity
  8
STEMPEL
100
AcDbVertex
100
AcDb2dVertex
 10
298.3325967719786
 20
352.2908967717035
 30
0.0
 42
0.0342239605027637
  0
VERTEX
  5
CB7
330
CB5
100
AcDbEntity
  8
STEMPEL
100
AcDbVertex
100
AcDb2dVertex
 10
298.1855229516746
 20
356.6280866454086
 30
0.0
 42
0.0339983197563386
 70
     1
  0
VERTEX
  5
CB8
330
CB5
100
AcDbEntity
  8
STEMPEL
100
AcDbVertex
100
AcDb2dVertex
 10
297.4832600510837
 20
360.9397549434742
 30
0.0
 42
0.0111732230029884
  0
VERTEX
  5
CB9
330
CB5
100
AcDbEntity
  8
STEMPEL
100
AcDbVertex
100
AcDb2dVertex
 10
297.2251380266186
 20
362.8519194849715
 30
0.0
 42
0.0023933927877125
 70
     1
  0
VERTEX
  5
CBA
330
CB5
100
AcDbEntity
  8
STEMPEL
100
AcDbVertex
100
AcDb2dVertex
 10
295.927105547434
 20
371.7655432999216
 30
0.0
  0
SEQEND
  5
CBB
330
CB5
100
AcDbEntity
  8
STEMPEL
  0
ARC
  5
CBC
102
{ACAD_REACTORS
330
CDB
330
CDC
102
}
330
1E
100
AcDbEntity
  8
STEMPEL
100
AcDbCircle
 10
292.8754994138921
 20
385.6174394693506
 30
0.0
 40
1.0
100
AcDbArc
 50
180.0
 51
270.0
  0
LINE
  5
CBD
102
{ACAD_REACTORS
330
CDB
330
CDC
102
}
330
1E
100
AcDbEntity
  8
STEMPEL
100
AcDbLine
 10
293.875499413892
 20
384.6174394693506
 30
0.0
 11
292.8754994138921
 21
384.6174394693506
 31
0.0
  0
ARC
  5
CBE
102
{ACAD_REACTORS
330
CDB
330
CDC
102
}
330
1E
100
AcDbEntity
  8
STEMPEL
100
AcDbCircle
 10
293.875499413892
 20
385.6174394693506
 30
0.0
 40
1.0
100
AcDbArc
 50
270.0
 51
0.0
  0
LINE
  5
CBF
102
{ACAD_REACTORS
330
CDB
330
CDC
102
}
330
1E
100
AcDbEntity
  8
STEMPEL
100
AcDbLine
 10
293.875499413892
 20
392.6174394693507
 30
0.0
 11
292.8754994138921
 21
392.6174394693506
 31
0.0
  0
LINE
  5
CC0
102
{ACAD_REACTORS
330
CDB
330
CDC
102
}
330
1E
100
AcDbEntity
  8
STEMPEL
  6
Continuous
100
AcDbLine
 10
291.875499413892
 20
391.6174394693506
 30
0.0
 11
291.875499413892
 21
385.6174394693506
 31
0.0
  0
ARC
  5
CC1
102
{ACAD_REACTORS
330
CDB
330
CDC
102
}
330
1E
100
AcDbEntity
  8
STEMPEL
100
AcDbCircle
 10
292.8754994138921
 20
391.6174394693506
 30
0.0
 40
1.0
100
AcDbArc
 50
90.0
 51
180.0
  0
ARC
  5
CC2
102
{ACAD_REACTORS
330
CDB
330
CDC
102
}
330
1E
100
AcDbEntity
  8
STEMPEL
100
AcDbCircle
 10
293.875499413892
 20
391.6174394693507
 30
0.0
 40
1.0
100
AcDbArc
 50
0.0
 51
90.0
  0
LINE
  5
CC3
102
{ACAD_REACTORS
330
CDB
330
CDC
102
}
330
1E
100
AcDbEntity
  8
STEMPEL
  6
Continuous
100
AcDbLine
 10
294.8754994138921
 20
391.6174394693507
 30
0.0
 11
294.8754994138921
 21
385.6174394693506
 31
0.0
  0
ARC
  5
CC4
102
{ACAD_REACTORS
330
CDB
102
}
330
1E
100
AcDbEntity
  8
STEMPEL
100
AcDbCircle
 10
292.8754994138921
 20
385.6174394693506
 30
0.0
 40
2.0
100
AcDbArc
 50
180.0
 51
270.0
  0
ARC
  5
CC5
102
{ACAD_REACTORS
330
CDB
102
}
330
1E
100
AcDbEntity
  8
STEMPEL
100
AcDbCircle
 10
292.8754994138921
 20
391.6174394693506
 30
0.0
 40
2.0
100
AcDbArc
 50
90.0
 51
180.0
  0
ARC
  5
CC6
102
{ACAD_REACTORS
330
CDB
102
}
330
1E
100
AcDbEntity
  8
STEMPEL
100
AcDbCircle
 10
293.875499413892
 20
385.6174394693506
 30
0.0
 40
2.0
100
AcDbArc
 50
270.0
 51
0.0
  0
ARC
  5
CC7
102
{ACAD_REACTORS
330
CDB
102
}
330
1E
100
AcDbEntity
  8
STEMPEL
100
AcDbCircle
 10
293.875499413892
 20
391.6174394693507
 30
0.0
 40
2.0
100
AcDbArc
 50
0.0
 51
90.0
  0
LINE
  5
CC8
102
{ACAD_REACTORS
330
CDB
102
}
330
1E
100
AcDbEntity
  8
STEMPEL
100
AcDbLine
 10
293.875499413892
 20
393.6174394693507
 30
0.0
 11
292.8754994138921
 21
393.6174394693506
 31
0.0
  0
LINE
  5
CC9
102
{ACAD_REACTORS
330
CDB
102
}
330
1E
100
AcDbEntity
  8
STEMPEL
100
AcDbLine
 10
293.875499413892
 20
383.6174394693506
 30
0.0
 11
292.8754994138921
 21
383.6174394693506
 31
0.0
  0
LINE
  5
CCA
102
{ACAD_REACTORS
330
CDB
102
}
330
1E
100
AcDbEntity
  8
STEMPEL
  6
Continuous
100
AcDbLine
 10
295.875499413892
 20
391.6174394693507
 30
0.0
 11
295.875499413892
 21
385.6174394693506
 31
0.0
  0
LINE
  5
CCB
102
{ACAD_REACTORS
330
CDB
102
}
330
1E
100
AcDbEntity
  8
STEMPEL
  6
Continuous
100
AcDbLine
 10
295.875499413892
 20
381.6174394693507
 30
0.0
 11
295.875499413892
 21
375.6174394693506
 31
0.0
  0
LINE
  5
CCC
330
1E
100
AcDbEntity
  8
STEMPEL
100
AcDbLine
 10
293.875499413892
 20
373.6174394693506
 30
0.0
 11
292.8754994138921
 21
373.6174394693506
 31
0.0
  0
ARC
  5
CCD
102
{ACAD_REACTORS
330
CDB
102
}
330
1E
100
AcDbEntity
  8
STEMPEL
100
AcDbCircle
 10
293.875499413892
 20
381.6174394693507
 30
0.0
 40
2.0
100
AcDbArc
 50
0.0
 51
90.0
  0
ARC
  5
CCE
102
{ACAD_REACTORS
330
CDB
102
}
330
1E
100
AcDbEntity
  8
STEMPEL
100
AcDbCircle
 10
293.875499413892
 20
375.6174394693506
 30
0.0
 40
2.0
100
AcDbArc
 50
270.0
 51
0.0
  0
ARC
  5
CCF
102
{ACAD_REACTORS
330
CDB
102
}
330
1E
100
AcDbEntity
  8
STEMPEL
100
AcDbCircle
 10
292.8754994138921
 20
381.6174394693506
 30
0.0
 40
2.0
100
AcDbArc
 50
90.0
 51
180.0
  0
ARC
  5
CD0
102
{ACAD_REACTORS
330
CDB
102
}
330
1E
100
AcDbEntity
  8
STEMPEL
100
AcDbCircle
 10
292.8754994138921
 20
375.6174394693506
 30
0.0
 40
2.0
100
AcDbArc
 50
180.0
 51
270.0
  0
LINE
  5
CD1
102
{ACAD_REACTORS
330
CDB
330
CDC
102
}
330
1E
100
AcDbEntity
  8
STEMPEL
  6
Continuous
100
AcDbLine
 10
294.8754994138921
 20
381.6174394693507
 30
0.0
 11
294.8754994138921
 21
375.6174394693506
 31
0.0
  0
ARC
  5
CD2
102
{ACAD_REACTORS
330
CDB
330
CDC
102
}
330
1E
100
AcDbEntity
  8
STEMPEL
100
AcDbCircle
 10
293.875499413892
 20
381.6174394693507
 30
0.0
 40
1.0
100
AcDbArc
 50
0.0
 51
90.0
  0
ARC
  5
CD3
102
{ACAD_REACTORS
330
CDB
330
CDC
102
}
330
1E
100
AcDbEntity
  8
STEMPEL
100
AcDbCircle
 10
292.8754994138921
 20
381.6174394693506
 30
0.0
 40
1.0
100
AcDbArc
 50
90.0
 51
180.0
  0
LINE
  5
CD4
102
{ACAD_REACTORS
330
CDB
330
CDC
102
}
330
1E
100
AcDbEntity
  8
STEMPEL
  6
Continuous
100
AcDbLine
 10
291.875499413892
 20
381.6174394693506
 30
0.0
 11
291.875499413892
 21
375.6174394693506
 31
0.0
  0
LINE
  5
CD5
102
{ACAD_REACTORS
330
CDB
330
CDC
102
}
330
1E
100
AcDbEntity
  8
STEMPEL
100
AcDbLine
 10
293.875499413892
 20
382.6174394693507
 30
0.0
 11
292.8754994138921
 21
382.6174394693506
 31
0.0
  0
ARC
  5
CD6
102
{ACAD_REACTORS
330
CDB
330
CDC
102
}
330
1E
100
AcDbEntity
  8
STEMPEL
100
AcDbCircle
 10
293.875499413892
 20
375.6174394693506
 30
0.0
 40
1.0
100
AcDbArc
 50
270.0
 51
0.0
  0
LINE
  5
CD7
102
{ACAD_REACTORS
330
CDB
330
CDC
102
}
330
1E
100
AcDbEntity
  8
STEMPEL
100
AcDbLine
 10
293.875499413892
 20
374.6174394693506
 30
0.0
 11
292.8754994138921
 21
374.6174394693506
 31
0.0
  0
ARC
  5
CD8
102
{ACAD_REACTORS
330
CDB
330
CDC
102
}
330
1E
100
AcDbEntity
  8
STEMPEL
100
AcDbCircle
 10
292.8754994138921
 20
375.6174394693506
 30
0.0
 40
1.0
100
AcDbArc
 50
180.0
 51
270.0
  0
LINE
  5
CD9
102
{ACAD_REACTORS
330
CDB
102
}
330
1E
100
AcDbEntity
  8
STEMPEL
100
AcDbLine
 10
293.9325967719782
 20
373.6174394693506
 30
0.0
 11
290.8754994138915
 21
373.6174394693506
 31
0.0
  0
ARC
  5
CDA
330
1E
100
AcDbEntity
  8
STEMPEL
100
AcDbCircle
 10
293.9325967719782
 20
371.6174394693507
 30
0.0
 40
2.0
100
AcDbArc
 50
4.246749565170711
 51
90.0
  0
HATCH
  5
CDB
330
1E
100
AcDbEntity
  8
SCHRAFF
100
AcDbHatch
 10
0.0
 20
0.0
 30
0.0
210
0.0
220
0.0
230
1.0
  2
NET
 70
     0
 71
     1
 91
        4
 92
        7
 72
     1
 73
     1
 93
        8
 10
295.875499413892
 20
391.6174394693507
 42
0.4142135623731284
 10
293.8754994138918
 20
393.6174394693507
 42
0.0
 10
292.8754994138921
 20
393.6174394693506
 42
0.4142135623730951
 10
290.875499413892
 20
391.6174394693506
 42
0.0
 10
290.875499413892
 20
385.6174394693506
 42
0.4142135623730951
 10
292.8754994138921
 20
383.6174394693506
 42
0.0
 10
293.875499413892
 20
383.6174394693506
 42
0.4142135623730951
 10
295.875499413892
 20
385.6174394693506
 42
0.0
 97
        8
330
CC7
330
CC8
330
CC5
330
CDD
330
CC4
330
CC9
330
CC6
330
CCA
 92
       22
 72
     1
 73
     1
 93
        8
 10
294.8754994138921
 20
385.6174394693506
 42
-0.4142135623730951
 10
293.875499413892
 20
384.6174394693506
 42
0.0
 10
292.8754994138921
 20
384.6174394693506
 42
-0.4142135623730951
 10
291.875499413892
 20
385.6174394693506
 42
0.0
 10
291.875499413892
 20
391.6174394693506
 42
-0.4142135623730951
 10
292.8754994138921
 20
392.6174394693506
 42
0.0
 10
293.875499413892
 20
392.6174394693507
 42
-0.4142135623730951
 10
294.8754994138921
 20
391.6174394693507
 42
0.0
 97
        8
330
CBE
330
CBD
330
CBC
330
CC0
330
CC1
330
CBF
330
CC2
330
CC3
 92
        7
 72
     1
 73
     1
 93
        8
 10
295.875499413892
 20
381.6174394693507
 42
0.4142135623730784
 10
293.875499413892
 20
383.6174394693506
 42
0.0
 10
292.8754994138921
 20
383.6174394693506
 42
0.4142135623730951
 10
290.875499413892
 20
381.6174394693506
 42
0.0
 10
290.875499413892
 20
375.6174394693506
 42
0.4142135623730951
 10
292.8754994138921
 20
373.6174394693506
 42
0.0
 10
293.875499413892
 20
373.6174394693506
 42
0.4142135623730951
 10
295.875499413892
 20
375.6174394693506
 42
0.0
 97
        8
330
CCD
330
CC9
330
CCF
330
CDE
330
CD0
330
CD9
330
CCE
330
CCB
 92
       22
 72
     1
 73
     1
 93
        8
 10
294.8754994138921
 20
375.6174394693506
 42
-0.4142135623730951
 10
293.875499413892
 20
374.6174394693506
 42
0.0
 10
292.8754994138921
 20
374.6174394693506
 42
-0.4142135623730951
 10
291.875499413892
 20
375.6174394693506
 42
0.0
 10
291.875499413892
 20
381.6174394693506
 42
-0.4142135623730951
 10
292.8754994138921
 20
382.6174394693506
 42
0.0
 10
293.875499413892
 20
382.6174394693507
 42
-0.4142135623730951
 10
294.8754994138921
 20
381.6174394693507
 42
0.0
 97
        8
330
CD6
330
CD7
330
CD8
330
CD4
330
CD3
330
CD5
330
CD2
330
CD1
 75
     0
 76
     1
 52
45.0
 41
10.0
 77
     0
 78
     2
 53
45.0
 43
42.94989605058822
 44
-73.71431979704334
 45
-0.8838834764831842
 46
0.8838834764831844
 79
     0
 53
135.0
 43
42.94989605058822
 44
-73.71431979704334
 45
-0.8838834764831844
 46
-0.8838834764831842
 79
     0
 47
0.1245679072124101
 98
        4
 10
295.5040679968356
 20
389.0128894404966
 10
295.5040679968356
 20
389.0128894404966
 10
295.6286740162802
 20
380.6668392719278
 10
295.6286740162802
 20
380.6668392719278
  0
HATCH
  5
CDC
330
1E
100
AcDbEntity
  8
SCHRAFF
100
AcDbHatch
 10
0.0
 20
0.0
 30
0.0
210
0.0
220
0.0
230
1.0
  2
_USER
 70
     0
 71
     1
 91
        2
 92
        7
 72
     1
 73
     1
 93
        8
 10
291.875499413892
 20
375.6174394693506
 42
0.4142135623730951
 10
292.8754994138921
 20
374.6174394693506
 42
0.0
 10
293.875499413892
 20
374.6174394693506
 42
0.4142135623730951
 10
294.8754994138921
 20
375.6174394693506
 42
0.0
 10
294.8754994138921
 20
381.6174394693507
 42
0.4142135623731284
 10
293.8754994138919
 20
382.6174394693507
 42
0.0
 10
292.8754994138921
 20
382.6174394693506
 42
0.4142135623730951
 10
291.875499413892
 20
381.6174394693506
 42
0.0
 97
        8
330
CD2
330
CD5
330
CD3
330
CD4
330
CD8
330
CD7
330
CD6
330
CD1
 92
        7
 72
     1
 73
     1
 93
        8
 10
291.875499413892
 20
385.6174394693506
 42
0.4142135623730951
 10
292.8754994138921
 20
384.6174394693506
 42
0.0
 10
293.875499413892
 20
384.6174394693506
 42
0.4142135623730951
 10
294.8754994138921
 20
385.6174394693506
 42
0.0
 10
294.8754994138921
 20
391.6174394693507
 42
0.4142135623731284
 10
293.8754994138919
 20
392.6174394693507
 42
0.0
 10
292.8754994138921
 20
392.6174394693506
 42
0.4142135623730951
 10
291.875499413892
 20
391.6174394693506
 42
0.0
 97
        8
330
CC2
330
CBF
330
CC1
330
CC0
330
CBC
330
CBD
330
CBE
330
CC3
 75
     0
 76
     0
 52
45.0
 41
1.0
 77
     0
 78
     1
 53
45.0
 43
42.94989605058822
 44
-73.71431979704334
 45
-0.7071067811865475
 46
0.7071067811865476
 79
     0
 47
0.1758758460342324
 98
        2
 10
292.9770633244918
 20
379.3112521400799
 10
292.9770633244918
 20
388.4567951770316
  0
LINE
  5
CDD
102
{ACAD_REACTORS
330
CDB
102
}
330
1E
100
AcDbEntity
  8
STEMPEL
  6
Continuous
100
AcDbLine
 10
290.875499413892
 20
391.6174394693506
 30
0.0
 11
290.875499413892
 21
385.6174394693506
 31
0.0
  0
LINE
  5
CDE
102
{ACAD_REACTORS
330
CDB
102
}
330
1E
100
AcDbEntity
  8
STEMPEL
  6
Continuous
100
AcDbLine
 10
290.875499413892
 20
381.6174394693506
 30
0.0
 11
290.875499413892
 21
375.6174394693506
 31
0.0
  0
HATCH
  5
CFF
330
1E
100
AcDbEntity
  8
SCHRAFF
100
AcDbHatch
 10
0.0
 20
0.0
 30
0.0
210
0.0
220
0.0
230
1.0
  2
HONEY
 70
     0
 71
     1
 91
        3
 92
        7
 72
     1
 73
     1
 93
       10
 10
305.0754994138919
 20
362.1174394693499
 42
0.0
 10
299.075499413892
 20
356.11743946935
 42
0.0
 10
299.0754994138921
 20
290.1174394693482
 42
0.0
 10
298.3325967719787
 20
289.107091876346
 42
0.0
 10
298.3325967719786
 20
266.1174394693483
 42
0.0
 10
313.7571457497891
 20
266.1174394693481
 42
0.3960474615044538
 10
316.7513034852378
 20
268.9303046108825
 42
0.0
 10
325.3936056297785
 20
407.207138923534
 42
0.0
 10
305.3162110715493
 20
416.3267539542692
 42
0.0
 10
305.075499413892
 20
416.1174394693498
 42
0.0
 97
       10
330
8F1
330
A85
330
A86
330
A73
330
A77
330
A76
330
CB4
330
A79
330
A6C
330
A83
 92
        7
 72
     0
 73
     1
 93
        4
 10
305.3162110715494
 20
416.3267539542692
 10
325.3936056297785
 20
407.207138923534
 10
326.575499413892
 20
426.11743946935
 10
316.5754994138921
 20
426.1174394693498
 97
        4
330
742
330
A85
330
8F1
330
A83
 92
        7
 72
     1
 73
     1
 93
       12
 10
198.0754994138919
 20
416.1174394693499
 42
0.0
 10
186.5754994138919
 20
426.1174394693498
 42
0.0
 10
176.575499413892
 20
426.11743946935
 42
0.0
 10
186.3996953425461
 20
268.9303046108842
 42
0.3960474615044457
 10
189.3938530779947
 20
266.1174394693497
 42
0.0
 10
209.0754994138922
 20
266.1174394693495
 42
0.0
 10
209.0754994138922
 20
268.1174394693495
 42
0.0
 10
215.0754994138936
 20
268.1174394693494
 42
0.0
 10
215.0754994138937
 20
275.1574394693474
 42
0.0
 10
204.0754994138922
 20
290.1174394693478
 42
0.0
 10
204.0754994138918
 20
356.1174394693497
 42
0.0
 10
198.0754994138922
 20
362.1174394693493
 42
0.0
 97
       12
330
A82
330
601
330
A7E
330
A6B
330
AE1
330
A6E
330
AE0
330
5B3
330
A72
330
A71
330
A70
330
A81
 75
     0
 76
     1
 52
0.0
 41
30.0
 77
     0
 78
     3
 53
0.0
 43
0.0
 44
0.0
 45
5.625
 46
3.247595249999999
 79
     2
 49
3.75
 49
-7.5
 53
120.0
 43
0.0
 44
0.0
 45
-5.624999987709673
 46
3.247595271287468
 79
     2
 49
3.75
 49
-7.5
 53
60.0
 43
0.0
 44
0.0
 45
0.0000000122903263
 46
6.495190521287468
 79
     2
 49
-7.5
 49
3.75
 47
0.4965871957228056
 98
        3
 10
311.3464363920389
 20
366.0284965024723
 10
315.3204834629673
 20
420.1565009655062
 10
188.6477815760177
 20
393.3407917582179
  0
TEXT
  5
D2B
330
1E
100
AcDbEntity
  8
VOLL
100
AcDbText
 10
418.8488937297819
 20
531.0475380475703
 30
0.0
 40
1.8
  1

 50
270.0
  7
GREEKS
100
AcDbText
  0
ARC
  5
D4C
330
1E
100
AcDbEntity
  8
HILF
100
AcDbCircle
 10
373.5754994138917
 20
591.8761474421253
 30
0.0
 40
14.94074366520046
100
AcDbArc
 50
78.85962783889434
 51
101.1403721611056
  0
ARC
  5
D4D
330
1E
100
AcDbEntity
  8
HILF
100
AcDbCircle
 10
369.2453723949695
 20
602.9761307075351
 30
0.0
 40
3.840760399790701
100
AcDbArc
 50
67.92594526323999
 51
112.07405473676
  0
ARC
  5
D4E
330
1E
100
AcDbEntity
  8
HILF
100
AcDbCircle
 10
377.905626432814
 20
602.9749661456469
 30
0.0
 40
3.841839622940954
100
AcDbArc
 50
67.9324721810082
 51
112.0675278189918
  0
ARC
  5
D4F
330
1E
100
AcDbEntity
  8
STEMPEL
100
AcDbCircle
 10
373.5754994138917
 20
591.5101800477146
 30
0.0
 40
20.20725942163691
100
AcDbArc
 50
81.78678929826011
 51
98.21321070173988
  0
ARC
  5
D50
330
1E
100
AcDbEntity
  8
STEMPEL
100
AcDbCircle
 10
369.2453723949695
 20
606.5879023308284
 30
0.0
 40
5.129537138523076
100
AcDbArc
 50
73.65710669401657
 51
106.3428933059834
  0
LINE
  5
D51
330
1E
100
AcDbEntity
  8
STEMPEL
100
AcDbLine
 10
368.5754994138918
 20
611.7174394693515
 30
0.0
 11
367.8019967219955
 21
611.5101800477146
 31
0.0
  0
LINE
  5
D52
330
1E
100
AcDbEntity
  8
STEMPEL
100
AcDbLine
 10
378.5754994138918
 20
611.7174394693515
 30
0.0
 11
379.3490021057881
 21
611.5101800477146
 31
0.0
  0
ARC
  5
D53
330
1E
100
AcDbEntity
  8
STEMPEL
100
AcDbCircle
 10
377.905626432814
 20
606.5879023308284
 30
0.0
 40
5.129537138523076
100
AcDbArc
 50
73.65710669401657
 51
106.3428933059834
  0
LINE
  5
D54
330
1E
100
AcDbEntity
  8
STEMPEL
100
AcDbLine
 10
380.3136104927208
 20
606.1842704107838
 30
0.0
 11
366.8373883350627
 21
606.1842704107838
 31
0.0
  0
LINE
  5
D55
330
1E
100
AcDbEntity
  8
STEMPEL
100
AcDbLine
 10
380.1254994138917
 20
605.1174394693515
 30
0.0
 11
367.0254994138917
 21
605.1174394693515
 31
0.0
  0
LINE
  5
D56
330
1E
100
AcDbEntity
  8
STEMPEL
100
AcDbLine
 10
367.8019967219955
 20
611.5101800477146
 30
0.0
 11
367.8019967219955
 21
606.5353591513509
 31
0.0
  0
LINE
  5
D57
330
1E
100
AcDbEntity
  8
STEMPEL
100
AcDbLine
 10
370.6887480679436
 20
611.5101800477146
 30
0.0
 11
370.6887480679436
 21
606.5353591513509
 31
0.0
  0
LINE
  5
D58
330
1E
100
AcDbEntity
  8
STEMPEL
100
AcDbLine
 10
376.4622507598399
 20
611.5101800477146
 30
0.0
 11
376.4622507598399
 21
606.5353591513509
 31
0.0
  0
LINE
  5
D59
330
1E
100
AcDbEntity
  8
STEMPEL
100
AcDbLine
 10
379.3490021057881
 20
611.5101800477146
 30
0.0
 11
379.3490021057881
 21
606.5353591513509
 31
0.0
  0
LINE
  5
D5A
330
1E
100
AcDbEntity
  8
STEMPEL
100
AcDbLine
 10
378.5754994138918
 20
611.7174394693515
 30
0.0
 11
368.5754994138918
 21
611.7174394693515
 31
0.0
  0
LINE
  5
D5B
330
1E
100
AcDbEntity
  8
STEMPEL
100
AcDbLine
 10
367.8019967219955
 20
606.5353591513509
 30
0.0
 11
366.8373883350627
 21
606.1842704107838
 31
0.0
  0
LINE
  5
D5C
330
1E
100
AcDbEntity
  8
STEMPEL
100
AcDbLine
 10
380.3136104927208
 20
606.1842704107838
 30
0.0
 11
379.349002105788
 21
606.5353591513509
 31
0.0
  0
ARC
  5
D5D
330
1E
100
AcDbEntity
  8
STEMPEL
100
AcDbCircle
 10
380.1254994138917
 20
605.6674394693515
 30
0.0
 40
0.5500000000000009
100
AcDbArc
 50
270.0
 51
69.99999999999935
  0
ARC
  5
D5E
330
1E
100
AcDbEntity
  8
STEMPEL
100
AcDbCircle
 10
367.0254994138917
 20
605.6674394693515
 30
0.0
 40
0.5500000000000003
100
AcDbArc
 50
110.0000000000006
 51
270.0
  0
ARC
  5
D60
330
1E
100
AcDbEntity
  8
STEMPEL
100
AcDbCircle
 10
148.2363918983616
 20
605.6674394693515
 30
0.0
 40
0.5500000000000003
100
AcDbArc
 50
110.0000000000006
 51
270.0
  0
ARC
  5
D61
330
1E
100
AcDbEntity
  8
STEMPEL
100
AcDbCircle
 10
161.3363918983617
 20
605.6674394693515
 30
0.0
 40
0.5500000000000009
100
AcDbArc
 50
270.0
 51
69.99999999999935
  0
LINE
  5
D62
330
1E
100
AcDbEntity
  8
STEMPEL
100
AcDbLine
 10
161.5245029771907
 20
606.1842704107838
 30
0.0
 11
160.5598945902579
 21
606.5353591513509
 31
0.0
  0
LINE
  5
D63
330
1E
100
AcDbEntity
  8
STEMPEL
100
AcDbLine
 10
149.0128892064654
 20
606.5353591513509
 30
0.0
 11
148.0482808195326
 21
606.1842704107838
 31
0.0
  0
LINE
  5
D64
330
1E
100
AcDbEntity
  8
STEMPEL
100
AcDbLine
 10
153.0553709506316
 20
611.7174394693515
 30
0.0
 11
149.7863918983616
 21
611.7174394693515
 31
0.0
  0
LINE
  5
D65
330
1E
100
AcDbEntity
  8
STEMPEL
100
AcDbLine
 10
160.5598945902579
 20
608.4955107411664
 30
0.0
 11
160.5598945902579
 21
606.5353591513509
 31
0.0
  0
LINE
  5
D67
330
1E
100
AcDbEntity
  8
STEMPEL
100
AcDbLine
 10
151.8996405524135
 20
611.5101800477146
 30
0.0
 11
151.8996405524135
 21
606.5353591513509
 31
0.0
  0
LINE
  5
D68
330
1E
100
AcDbEntity
  8
STEMPEL
100
AcDbLine
 10
149.0128892064654
 20
611.5101800477146
 30
0.0
 11
149.0128892064654
 21
606.5353591513509
 31
0.0
  0
LINE
  5
D6A
330
1E
100
AcDbEntity
  8
STEMPEL
100
AcDbLine
 10
161.5245029771907
 20
606.1842704107838
 30
0.0
 11
159.6627150729184
 21
606.1842704107838
 31
0.0
  0
LINE
  5
D6D
330
1E
100
AcDbEntity
  8
STEMPEL
100
AcDbLine
 10
149.7863918983616
 20
611.7174394693515
 30
0.0
 11
149.0128892064654
 21
611.5101800477146
 31
0.0
  0
ARC
  5
D6E
330
1E
100
AcDbEntity
  8
STEMPEL
100
AcDbCircle
 10
150.4562648794394
 20
606.5879023308284
 30
0.0
 40
5.129537138523076
100
AcDbArc
 50
73.65710669401657
 51
106.3428933059834
  0
ARC
  5
D6F
330
1E
100
AcDbEntity
  8
STEMPEL
100
AcDbCircle
 10
154.7863918983616
 20
591.5101800477146
 30
0.0
 40
20.20725942163691
100
AcDbArc
 50
94.91416948520926
 51
98.21321070173988
  0
ARC
  5
D70
330
1E
100
AcDbEntity
  8
HILF
100
AcDbCircle
 10
159.1165189172839
 20
602.9749661456469
 30
0.0
 40
3.841839622940954
100
AcDbArc
 50
67.9324721810082
 51
77.40284130776847
  0
ARC
  5
D71
330
1E
100
AcDbEntity
  8
HILF
100
AcDbCircle
 10
150.4562648794394
 20
602.9761307075351
 30
0.0
 40
3.840760399790701
100
AcDbArc
 50
67.92594526323999
 51
112.07405473676
  0
ARC
  5
D72
330
1E
100
AcDbEntity
  8
HILF
100
AcDbCircle
 10
154.7863918983616
 20
591.8761474421253
 30
0.0
 40
14.94074366520046
100
AcDbArc
 50
100.290900677679
 51
101.1403721611056
  0
LINE
  5
D73
330
1E
100
AcDbEntity
  8
STEMPEL
100
AcDbLine
 10
151.8563604073509
 20
606.1842704107838
 30
0.0
 11
148.0482808195326
 21
606.1842704107838
 31
0.0
  0
HATCH
  5
DA8
330
1E
100
AcDbEntity
  8
SCHRAFF
100
AcDbHatch
 10
0.0
 20
0.0
 30
0.0
210
0.0
220
0.0
230
1.0
  2
NET
 70
     0
 71
     1
 91
        5
 92
        7
 72
     0
 73
     1
 93
        4
 10
374.0754994138918
 20
581.1174394693498
 10
347.7825972997231
 20
581.1174394693499
 10
349.2095846512718
 20
578.11743946935
 10
374.0754994138918
 20
578.1174394693498
 97
        4
330
59A
330
902
330
59E
330
7CE
 92
        7
 72
     0
 73
     1
 93
        4
 10
347.7825972997232
 20
581.1174394693498
 10
322.9754994138918
 20
581.1174394693498
 10
322.9754994138918
 20
578.1174394693498
 10
349.2095846512718
 20
578.1174394693498
 97
        4
330
59A
330
79B
330
59E
330
902
 92
        7
 72
     0
 73
     1
 93
        4
 10
322.9754994138918
 20
581.1174394693499
 10
314.0754994138918
 20
581.1174394693499
 10
314.0754994138918
 20
578.11743946935
 10
322.9754994138918
 20
578.1174394693498
 97
        4
330
59A
330
789
330
59E
330
79B
 92
        7
 72
     0
 73
     1
 93
        4
 10
189.0754994138917
 20
581.1174394693502
 10
168.0754994138918
 20
581.1174394693501
 10
168.0754994138919
 20
578.1174394693501
 10
189.0754994138917
 20
578.1174394693501
 97
        4
330
59A
330
690
330
59E
330
6A3
 92
        7
 72
     0
 73
     1
 93
        4
 10
155.0754994138917
 20
581.1174394693501
 10
129.0754994138917
 20
581.1174394693501
 10
129.0754994138917
 20
578.1174394693501
 10
155.0754994138918
 20
578.1174394693501
 97
        4
330
64F
330
656
330
59E
330
65B
 75
     0
 76
     1
 52
45.0
 41
15.0
 77
     0
 78
     2
 53
45.0
 43
0.0
 44
0.0
 45
-1.325825214724776
 46
1.325825214724776
 79
     0
 53
135.0
 43
0.0
 44
0.0
 45
-1.325825214724776
 46
-1.325825214724776
 79
     0
 47
0.3982815656555951
 98
        5
 10
361.5796813956549
 20
580.4971533691798
 10
334.885762141123
 20
580.0988719456779
 10
321.3395931074328
 20
580.0988719456779
 10
179.1048300208795
 20
579.700588566249
 10
142.0520765458545
 20
579.700588566249
  0
HATCH
  5
DD8
330
1E
100
AcDbEntity
  8
SCHRAFF
100
AcDbHatch
 10
0.0
 20
0.0
 30
0.0
210
0.0
220
0.0
230
1.0
  2
NET
 70
     0
 71
     0
 91
        5
 92
        7
 72
     0
 73
     1
 93
        4
 10
374.0754994138919
 20
431.1174394693499
 10
347.7825972997232
 20
431.1174394693501
 10
349.2095846512719
 20
428.1174394693501
 10
374.0754994138919
 20
428.11743946935
 97
        0
 92
        7
 72
     0
 73
     1
 93
        4
 10
347.7825972997233
 20
431.1174394693499
 10
322.9754994138919
 20
431.1174394693499
 10
322.9754994138919
 20
428.11743946935
 10
349.2095846512719
 20
428.11743946935
 97
        0
 92
        7
 72
     0
 73
     1
 93
        4
 10
322.9754994138919
 20
431.1174394693501
 10
314.0754994138919
 20
431.1174394693501
 10
314.0754994138919
 20
428.1174394693501
 10
322.9754994138919
 20
428.11743946935
 97
        0
 92
        7
 72
     0
 73
     1
 93
        4
 10
189.0754994138918
 20
431.1174394693503
 10
168.0754994138919
 20
431.1174394693502
 10
168.075499413892
 20
428.1174394693501
 10
189.0754994138918
 20
428.1174394693501
 97
        0
 92
        7
 72
     0
 73
     1
 93
        4
 10
155.0754994138918
 20
431.1174394693502
 10
129.0754994138918
 20
431.1174394693502
 10
129.0754994138918
 20
428.1174394693501
 10
155.0754994138919
 20
428.1174394693501
 97
        0
 75
     0
 76
     1
 52
45.0
 41
15.0
 77
     0
 78
     2
 53
45.0
 43
0.0000000000001137
 44
-149.9999999999999
 45
-1.325825214724776
 46
1.325825214724776
 79
     0
 53
135.0
 43
0.0000000000001137
 44
-149.9999999999999
 45
-1.325825214724776
 46
-1.325825214724776
 79
     0
 47
0.3982815656555951
 98
        5
 10
361.579681395655
 20
430.4971533691799
 10
334.8857621411231
 20
430.098871945678
 10
321.339593107433
 20
430.098871945678
 10
179.1048300208796
 20
429.7005885662492
 10
142.0520765458546
 20
429.7005885662492
  0
LINE
  5
DD9
330
1E
100
AcDbEntity
  8
STEMPEL
100
AcDbLine
 10
374.075499413892
 20
431.1174394693499
 30
0.0
 11
374.075499413892
 21
428.11743946935
 31
0.0
  0
LINE
  5
DDA
330
1E
100
AcDbEntity
  8
STEMPEL
100
AcDbLine
 10
166.5754994138921
 20
431.1174394693502
 30
0.0
 11
209.7754994138891
 21
431.1174394693503
 31
0.0
  0
LINE
  5
DDB
330
1E
100
AcDbEntity
  8
HILF
100
AcDbLine
 10
326.9754994138922
 20
434.11743946935
 30
0.0
 11
326.9754994138922
 21
431.1174394693506
 31
0.0
  0
LINE
  5
DDC
330
1E
100
AcDbEntity
  8
STEMPEL
100
AcDbLine
 10
327.975499413892
 20
434.11743946935
 30
0.0
 11
327.9754994138922
 21
431.1174394693506
 31
0.0
  0
LINE
  5
DDD
330
1E
100
AcDbEntity
  8
STEMPEL
100
AcDbLine
 10
317.9754994138922
 20
434.11743946935
 30
0.0
 11
317.9754994138922
 21
431.1174394693506
 31
0.0
  0
LINE
  5
DDE
330
1E
100
AcDbEntity
  8
HILF
100
AcDbLine
 10
318.9754994138923
 20
434.11743946935
 30
0.0
 11
318.9754994138921
 21
431.1174394693503
 31
0.0
  0
LINE
  5
DDF
330
1E
100
AcDbEntity
  8
STEMPEL
100
AcDbLine
 10
314.0754994138919
 20
431.1174394693499
 30
0.0
 11
314.0754994138919
 21
428.11743946935
 31
0.0
  0
LINE
  5
DE1
330
1E
100
AcDbEntity
  8
HILF
100
AcDbLine
 10
210.5754994138921
 20
434.1174394693502
 30
0.0
 11
210.5754994138921
 21
432.5365207287765
 31
0.0
  0
LINE
  5
DE2
330
1E
100
AcDbEntity
  8
STEMPEL
100
AcDbLine
 10
201.5754994138921
 20
434.1174394693502
 30
0.0
 11
201.5754994138921
 21
431.1174394693502
 31
0.0
  0
LINE
  5
DE3
330
1E
100
AcDbEntity
  8
HILF
100
AcDbLine
 10
202.5754994138922
 20
434.1174394693502
 30
0.0
 11
202.575499413892
 21
431.1174394693502
 31
0.0
  0
LINE
  5
DE4
330
1E
100
AcDbEntity
  8
STEMPEL
100
AcDbLine
 10
168.0754994138919
 20
431.1174394693502
 30
0.0
 11
168.0754994138919
 21
428.1174394693501
 31
0.0
  0
LINE
  5
DE5
330
1E
100
AcDbEntity
  8
STEMPEL
100
AcDbLine
 10
155.0754994138918
 20
431.1174394693502
 30
0.0
 11
155.0754994138918
 21
428.1174394693501
 31
0.0
  0
LINE
  5
DE6
330
1E
100
AcDbEntity
  8
STEMPEL
100
AcDbLine
 10
129.0754994138918
 20
431.1174394693502
 30
0.0
 11
129.0754994138918
 21
428.1174394693501
 31
0.0
  0
LINE
  5
DE7
330
1E
100
AcDbEntity
  8
STEMPEL
100
AcDbLine
 10
129.0754994138918
 20
431.1174394693502
 30
0.0
 11
156.5754994138921
 21
431.1174394693502
 31
0.0
  0
LINE
  5
DE8
330
1E
100
AcDbEntity
  8
STEMPEL
100
AcDbLine
 10
293.3754994138902
 20
431.1174394693502
 30
0.0
 11
374.075499413892
 21
431.1174394693499
 31
0.0
  0
TEXT
  5
E08
330
1E
100
AcDbEntity
  8
TEXT
 62
     1
100
AcDbText
 10
505.8509857108604
 20
767.940810061129
 30
0.0
 40
7.0
  1
21123070W
 50
90.0
 41
0.8
  7
GREEKS
 72
     1
 11
505.8509857108604
 21
790.8741433944624
 31
0.0
100
AcDbText
  0
TEXT
  5
E09
330
1E
100
AcDbEntity
  8
TEXT
100
AcDbText
 10
530.8923495917427
 20
591.0085209177597
 30
0.0
 40
4.0
  1
31.01.
 50
90.0
 41
0.8
  7
GREEKS
 72
     1
 11
530.8923495917427
 21
597.4085209177596
 31
0.0
100
AcDbText
  0
TEXT
  5
E0A
330
1E
100
AcDbEntity
  8
TEXT
100
AcDbText
 10
530.9103608027649
 20
624.4216048581255
 30
0.0
 40
4.0
  1
Koeh
 50
90.0
 41
0.8
  7
GREEKS
 72
     1
 11
530.9103608027649
 21
629.6787477152683
 31
0.0
100
AcDbText
  0
TEXT
  5
E0B
330
1E
100
AcDbEntity
  8
TEXT
100
AcDbText
 10
520.8597452884832
 20
568.6221098221039
 30
0.0
 40
4.0
  1
2011
 50
90.0
 41
0.8
  7
GREEKS
100
AcDbText
  0
ENDSEC
  0
SECTION
  2
OBJECTS
  0
DICTIONARY
  5
C
330
0
100
AcDbDictionary
281
     1
  3
ACAD_COLOR
350
11A
  3
ACAD_GROUP
350
D
  3
ACAD_LAYOUT
350
19
  3
ACAD_MATERIAL
350
119
  3
ACAD_MLINESTYLE
350
16
  3
ACAD_PLOTSETTINGS
350
18
  3
ACAD_PLOTSTYLENAME
350
E
  3
AcDbVariableDictionary
350
125
  0
DICTIONARY
  5
DB
330
1E
100
AcDbDictionary
280
     1
281
     1
  3
ACAD_LAYOUTSELFREF
360
10F
  0
DICTIONARY
  5
DD
330
1A
100
AcDbDictionary
280
     1
281
     1
  3
ACAD_LAYOUTSELFREF
360
10E
  0
DICTIONARY
  5
11A
102
{ACAD_REACTORS
330
C
102
}
330
C
100
AcDbDictionary
281
     1
  0
DICTIONARY
  5
D
102
{ACAD_REACTORS
330
C
102
}
330
C
100
AcDbDictionary
281
     1
  0
DICTIONARY
  5
19
102
{ACAD_REACTORS
330
C
102
}
330
C
100
AcDbDictionary
281
     1
  3
Layout1
350
1D
  3
Model
350
21
  0
DICTIONARY
  5
119
102
{ACAD_REACTORS
330
C
102
}
330
C
100
AcDbDictionary
281
     1
  0
DICTIONARY
  5
16
102
{ACAD_REACTORS
330
C
102
}
330
C
100
AcDbDictionary
281
     1
  3
Standard
350
17
  0
DICTIONARY
  5
18
102
{ACAD_REACTORS
330
C
102
}
330
C
100
AcDbDictionary
281
     1
  0
ACDBDICTIONARYWDFLT
  5
E
102
{ACAD_REACTORS
330
C
102
}
330
C
100
AcDbDictionary
281
     1
  3
Normal
350
F
100
AcDbDictionaryWithDefault
340
F
  0
DICTIONARY
  5
125
102
{ACAD_REACTORS
330
C
102
}
330
C
100
AcDbDictionary
281
     1
  3
DIMASSOC
350
126
  3
PROJECTNAME
350
127
  0
XRECORD
  5
10F
102
{ACAD_REACTORS
330
DB
102
}
330
DB
100
AcDbXrecord
280
     1
340
1E
  0
XRECORD
  5
10E
102
{ACAD_REACTORS
330
DD
102
}
330
DD
100
AcDbXrecord
280
     1
340
1A
  0
LAYOUT
  5
1D
102
{ACAD_REACTORS
330
19
102
}
330
19
100
AcDbPlotSettings
  1

  2
\\NT_WORK01\HP LaserJet 5000 PCL 6
  4

  6

 40
0.0
 41
0.0
 42
0.0
 43
0.0
 44
0.0
 45
0.0
 46
0.0
 47
0.0
 48
0.0
 49
0.0
140
0.0
141
0.0
142
1.0
143
1.0
 70
   688
 72
     0
 73
     0
 74
     5
  7

 75
    16
147
1.0
 76
     0
 77
     2
 78
   300
148
0.0
149
0.0
100
AcDbLayout
  1
Layout1
 70
     0
 71
     1
 10
0.0
 20
0.0
 11
12.0
 21
9.0
 12
0.0
 22
0.0
 32
0.0
 14
1.000000000000000E+20
 24
1.000000000000000E+20
 34
1.000000000000000E+20
 15
-1.000000000000000E+20
 25
-1.000000000000000E+20
 35
-1.000000000000000E+20
146
0.0
 13
0.0
 23
0.0
 33
0.0
 16
1.0
 26
0.0
 36
0.0
 17
0.0
 27
1.0
 37
0.0
 76
     0
330
1A
  0
LAYOUT
  5
21
102
{ACAD_REACTORS
330
19
102
}
330
19
100
AcDbPlotSettings
  1

  2
none_device
  4
Letter_(8.50_x_11.00_Inches)
  6

 40
6.349999904632568
 41
6.349999904632568
 42
6.350006103515625
 43
6.350006103515625
 44
215.8999938964844
 45
279.3999938964844
 46
0.0
 47
0.0
 48
0.0
 49
0.0
140
0.0
141
0.0
142
1.0
143
1.0
 70
 11952
 72
     0
 73
     1
 74
     0
  7

 75
     0
147
1.0
 76
     0
 77
     2
 78
   300
148
3124.2
149
0.0
100
AcDbLayout
  1
Model
 70
     1
 71
     0
 10
0.0
 20
0.0
 11
12.0
 21
9.0
 12
0.0
 22
0.0
 32
0.0
 14
0.0
 24
0.0
 34
0.0
 15
0.0
 25
0.0
 35
0.0
146
0.0
 13
0.0
 23
0.0
 33
0.0
 16
1.0
 26
0.0
 36
0.0
 17
0.0
 27
1.0
 37
0.0
 76
     0
330
1E
  0
MLINESTYLE
  5
17
102
{ACAD_REACTORS
330
16
102
}
330
16
100
AcDbMlineStyle
  2
STANDARD
 70
     0
  3

 62
   256
 51
90.0
 52
90.0
 71
     2
 49
0.5
 62
   256
  6
BYLAYER
 49
-0.5
 62
   256
  6
BYLAYER
  0
ACDBPLACEHOLDER
  5
F
102
{ACAD_REACTORS
330
E
102
}
330
E
  0
DICTIONARYVAR
  5
126
102
{ACAD_REACTORS
330
125
102
}
330
125
100
DictionaryVariables
280
     0
  1
1
  0
DICTIONARYVAR
  5
127
102
{ACAD_REACTORS
330
125
102
}
330
125
100
DictionaryVariables
280
     0
  1

  0
ENDSEC
  0
EOF
