  0
SECTION
  2
HEADER
  9
$ACADVER
  1
AC1018
  9
$ACADMAINTVER
 70
     2
  9
$DWGCODEPAGE
  3
ANSI_1252
  9
$INSBASE
 10
0.0
 20
0.0
 30
0.0
  9
$EXTMIN
 10
-0.1132567431263851
 20
-0.1601610508869271
 30
-0.0000000000000053
  9
$EXTMAX
 10
1485.00001728968
 20
2100.00002445005
 30
0.0000000000000099
  9
$LIMMIN
 10
0.0
 20
0.0
  9
$LIMMAX
 10
1485.0
 20
2100.0
  9
$ORTHOMODE
 70
     1
  9
$REGENMODE
 70
     1
  9
$FILLMODE
 70
     1
  9
$QTEXTMODE
 70
     0
  9
$MIRRTEXT
 70
     1
  9
$LTSCALE
 40
50.0
  9
$ATTMODE
 70
     1
  9
$TEXTSIZE
 40
3.5
  9
$TRACEWID
 40
1.0
  9
$TEXTSTYLE
  7
STANDARD
  9
$CLAYER
  8
BEM
  9
$CELTYPE
  6
ByLayer
  9
$CECOLOR
 62
   256
  9
$CELTSCALE
 40
1.0
  9
$DISPSILH
 70
     0
  9
$DIMSCALE
 40
5.0
  9
$DIMASZ
 40
3.5
  9
$DIMEXO
 40
1.0
  9
$DIMDLI
 40
7.0
  9
$DIMRND
 40
0.0
  9
$DIMDLE
 40
0.0
  9
$DIMEXE
 40
1.0
  9
$DIMTP
 40
0.0
  9
$DIMTM
 40
0.0
  9
$DIMTXT
 40
3.5
  9
$DIMCEN
 40
1.5
  9
$DIMTSZ
 40
0.0
  9
$DIMTOL
 70
     0
  9
$DIMLIM
 70
     0
  9
$DIMTIH
 70
     0
  9
$DIMTOH
 70
     0
  9
$DIMSE1
 70
     0
  9
$DIMSE2
 70
     0
  9
$DIMTAD
 70
     1
  9
$DIMZIN
 70
     8
  9
$DIMBLK
  1

  9
$DIMASO
 70
     1
  9
$DIMSHO
 70
     0
  9
$DIMPOST
  1

  9
$DIMAPOST
  1

  9
$DIMALT
 70
     0
  9
$DIMALTD
 70
     2
  9
$DIMALTF
 40
25.4
  9
$DIMLFAC
 40
1.0
  9
$DIMTOFL
 70
     1
  9
$DIMTVP
 40
0.0
  9
$DIMTIX
 70
     0
  9
$DIMSOXD
 70
     0
  9
$DIMSAH
 70
     0
  9
$DIMBLK1
  1

  9
$DIMBLK2
  1

  9
$DIMSTYLE
  2
Standard
  9
$DIMCLRD
 70
     0
  9
$DIMCLRE
 70
     0
  9
$DIMCLRT
 70
     1
  9
$DIMTFAC
 40
0.5142857142857144
  9
$DIMGAP
 40
1.5
  9
$DIMJUST
 70
     0
  9
$DIMSD1
 70
     0
  9
$DIMSD2
 70
     0
  9
$DIMTOLJ
 70
     1
  9
$DIMTZIN
 70
     8
  9
$DIMALTZ
 70
     8
  9
$DIMALTTZ
 70
     8
  9
$DIMUPT
 70
     0
  9
$DIMDEC
 70
     2
  9
$DIMTDEC
 70
     2
  9
$DIMALTU
 70
     2
  9
$DIMALTTD
 70
     2
  9
$DIMTXSTY
  7
STANDARD
  9
$DIMAUNIT
 70
     0
  9
$DIMADEC
 70
     2
  9
$DIMALTRND
 40
0.0
  9
$DIMAZIN
 70
     2
  9
$DIMDSEP
 70
    46
  9
$DIMATFIT
 70
     3
  9
$DIMFRAC
 70
     0
  9
$DIMLDRBLK
  1

  9
$DIMLUNIT
 70
     2
  9
$DIMLWD
 70
    -2
  9
$DIMLWE
 70
    -2
  9
$DIMTMOVE
 70
     0
  9
$LUNITS
 70
     2
  9
$LUPREC
 70
     2
  9
$SKETCHINC
 40
1.0
  9
$FILLETRAD
 40
0.0
  9
$AUNITS
 70
     0
  9
$AUPREC
 70
     0
  9
$MENU
  1
ACAD
  9
$ELEVATION
 40
0.0
  9
$PELEVATION
 40
0.0
  9
$THICKNESS
 40
0.0
  9
$LIMCHECK
 70
     0
  9
$CHAMFERA
 40
0.0
  9
$CHAMFERB
 40
0.0
  9
$CHAMFERC
 40
0.0
  9
$CHAMFERD
 40
0.0
  9
$SKPOLY
 70
     0
  9
$TDCREATE
 40
2455397.825393172
  9
$TDUCREATE
 40
2455397.783726505
  9
$TDUPDATE
 40
2455502.371210822
  9
$TDUUPDATE
 40
2455502.329544155
  9
$TDINDWG
 40
0.3523980440
  9
$TDUSRTIMER
 40
0.3523980440
  9
$USRTIMER
 70
     1
  9
$ANGBASE
 50
0.0
  9
$ANGDIR
 70
     0
  9
$PDMODE
 70
     0
  9
$PDSIZE
 40
0.0
  9
$PLINEWID
 40
0.0
  9
$SPLFRAME
 70
     0
  9
$SPLINETYPE
 70
     6
  9
$SPLINESEGS
 70
     8
  9
$HANDSEED
  5
108E
  9
$SURFTAB1
 70
     6
  9
$SURFTAB2
 70
     6
  9
$SURFTYPE
 70
     6
  9
$SURFU
 70
     6
  9
$SURFV
 70
     6
  9
$UCSBASE
  2

  9
$UCSNAME
  2

  9
$UCSORG
 10
0.0
 20
0.0
 30
0.0
  9
$UCSXDIR
 10
1.0
 20
0.0
 30
0.0
  9
$UCSYDIR
 10
0.0
 20
1.0
 30
0.0
  9
$UCSORTHOREF
  2

  9
$UCSORTHOVIEW
 70
     0
  9
$UCSORGTOP
 10
0.0
 20
0.0
 30
0.0
  9
$UCSORGBOTTOM
 10
0.0
 20
0.0
 30
0.0
  9
$UCSORGLEFT
 10
0.0
 20
0.0
 30
0.0
  9
$UCSORGRIGHT
 10
0.0
 20
0.0
 30
0.0
  9
$UCSORGFRONT
 10
0.0
 20
0.0
 30
0.0
  9
$UCSORGBACK
 10
0.0
 20
0.0
 30
0.0
  9
$PUCSBASE
  2

  9
$PUCSNAME
  2

  9
$PUCSORG
 10
0.0
 20
0.0
 30
0.0
  9
$PUCSXDIR
 10
1.0
 20
0.0
 30
0.0
  9
$PUCSYDIR
 10
0.0
 20
1.0
 30
0.0
  9
$PUCSORTHOREF
  2

  9
$PUCSORTHOVIEW
 70
     0
  9
$PUCSORGTOP
 10
0.0
 20
0.0
 30
0.0
  9
$PUCSORGBOTTOM
 10
0.0
 20
0.0
 30
0.0
  9
$PUCSORGLEFT
 10
0.0
 20
0.0
 30
0.0
  9
$PUCSORGRIGHT
 10
0.0
 20
0.0
 30
0.0
  9
$PUCSORGFRONT
 10
0.0
 20
0.0
 30
0.0
  9
$PUCSORGBACK
 10
0.0
 20
0.0
 30
0.0
  9
$USERI1
 70
     0
  9
$USERI2
 70
     0
  9
$USERI3
 70
     0
  9
$USERI4
 70
     0
  9
$USERI5
 70
     0
  9
$USERR1
 40
0.0
  9
$USERR2
 40
0.0
  9
$USERR3
 40
0.0
  9
$USERR4
 40
0.0
  9
$USERR5
 40
0.0
  9
$WORLDVIEW
 70
     1
  9
$SHADEDGE
 70
     3
  9
$SHADEDIF
 70
    70
  9
$TILEMODE
 70
     1
  9
$MAXACTVP
 70
    16
  9
$PINSBASE
 10
0.0
 20
0.0
 30
0.0
  9
$PLIMCHECK
 70
     0
  9
$PEXTMIN
 10
1.000000000000000E+20
 20
1.000000000000000E+20
 30
1.000000000000000E+20
  9
$PEXTMAX
 10
-1.000000000000000E+20
 20
-1.000000000000000E+20
 30
-1.000000000000000E+20
  9
$PLIMMIN
 10
0.0
 20
0.0
  9
$PLIMMAX
 10
12.0
 20
9.0
  9
$UNITMODE
 70
     0
  9
$VISRETAIN
 70
     0
  9
$PLINEGEN
 70
     0
  9
$PSLTSCALE
 70
     0
  9
$TREEDEPTH
 70
  3020
  9
$CMLSTYLE
  2
Standard
  9
$CMLJUST
 70
     0
  9
$CMLSCALE
 40
1.0
  9
$PROXYGRAPHICS
 70
     1
  9
$MEASUREMENT
 70
     0
  9
$CELWEIGHT
370
    -1
  9
$ENDCAPS
280
     0
  9
$JOINSTYLE
280
     0
  9
$LWDISPLAY
290
     0
  9
$INSUNITS
 70
     0
  9
$HYPERLINKBASE
  1

  9
$STYLESHEET
  1
monochrome 1.ctb
  9
$XEDIT
290
     1
  9
$CEPSNTYPE
380
     0
  9
$PSTYLEMODE
290
     1
  9
$FINGERPRINTGUID
  2
{D68B0D0D-A558-11D7-B632-000102183313}
  9
$VERSIONGUID
  2
{F64D378C-4D7B-4D69-83D1-42C06EFF1580}
  9
$EXTNAMES
290
     1
  9
$PSVPSCALE
 40
0.0
  9
$OLESTARTUP
290
     0
  9
$SORTENTS
280
   127
  9
$INDEXCTL
280
     0
  9
$HIDETEXT
280
     0
  9
$XCLIPFRAME
290
     0
  9
$HALOGAP
280
     0
  9
$OBSCOLOR
 70
   257
  9
$OBSLTYPE
280
     0
  9
$INTERSECTIONDISPLAY
280
     0
  9
$INTERSECTIONCOLOR
 70
   257
  9
$DIMASSOC
280
     1
  9
$PROJECTNAME
  1

  0
ENDSEC
  0
SECTION
  2
CLASSES
  0
CLASS
  1
ACDBDICTIONARYWDFLT
  2
AcDbDictionaryWithDefault
  3
ObjectDBX Classes
 90
        0
 91
        1
280
     0
281
     0
  0
CLASS
  1
DICTIONARYVAR
  2
AcDbDictionaryVar
  3
ObjectDBX Classes
 90
        0
 91
        2
280
     0
281
     0
  0
ENDSEC
  0
SECTION
  2
TABLES
  0
TABLE
  2
VPORT
  5
8
330
0
100
AcDbSymbolTable
 70
     2
  0
VPORT
  5
108D
330
8
100
AcDbSymbolTableRecord
100
AcDbViewportTableRecord
  2
*Active
 70
     0
 10
0.0
 20
0.0
 11
1.0
 21
1.0
 12
742.4433802732769
 22
1049.919931699581
 13
0.0
 23
0.0
 14
1.0
 24
1.0
 15
10.0
 25
10.0
 16
0.0
 26
0.0
 36
1.0
 17
0.0
 27
0.0
 37
0.0
 40
2117.119756312519
 41
1.336927223719676
 42
50.0
 43
0.0
 44
0.0
 50
0.0
 51
0.0
 71
     0
 72
  1500
 73
     1
 74
     0
 75
     0
 76
     0
 77
     0
 78
     0
281
     0
 65
     1
110
0.0
120
0.0
130
0.0
111
1.0
121
0.0
131
0.0
112
0.0
122
1.0
132
0.0
 79
     0
146
0.0
  0
ENDTAB
  0
TABLE
  2
LTYPE
  5
5
330
0
100
AcDbSymbolTable
 70
     3
  0
LTYPE
  5
13
330
5
100
AcDbSymbolTableRecord
100
AcDbLinetypeTableRecord
  2
ByBlock
 70
     0
  3

 72
    65
 73
     0
 40
0.0
  0
LTYPE
  5
14
330
5
100
AcDbSymbolTableRecord
100
AcDbLinetypeTableRecord
  2
ByLayer
 70
     0
  3

 72
    65
 73
     0
 40
0.0
  0
LTYPE
  5
15
330
5
100
AcDbSymbolTableRecord
100
AcDbLinetypeTableRecord
  2
Continuous
 70
     0
  3
Solid line
 72
    65
 73
     0
 40
0.0
  0
LTYPE
  5
25
330
5
100
AcDbSymbolTableRecord
100
AcDbLinetypeTableRecord
  2
STRICHPUNKT
 70
     0
  3
__ . __ . __ . __ . __ . __ . __ . __ . __ . __
 72
    65
 73
     4
 40
1.0
 49
0.5
 74
     0
 49
-0.25
 74
     0
 49
0.0
 74
     0
 49
-0.25
 74
     0
  0
LTYPE
  5
1B6
330
5
100
AcDbSymbolTableRecord
100
AcDbLinetypeTableRecord
  2
VERDECKT
 70
     0
  3
Verdeckt __ __ __ __ __ __ __ __ __ __ __ __ __
 72
    65
 73
     2
 40
0.375
 49
0.25
 74
     0
 49
-0.125
 74
     0
  0
ENDTAB
  0
TABLE
  2
LAYER
  5
2
330
0
100
AcDbSymbolTable
 70
    12
  0
LAYER
  5
10
330
2
100
AcDbSymbolTableRecord
100
AcDbLayerTableRecord
  2
0
 70
     0
 62
     7
  6
Continuous
370
    -3
390
F
  0
LAYER
  5
2B
330
2
100
AcDbSymbolTableRecord
100
AcDbLayerTableRecord
  2
VOLL
 70
     0
 62
     1
  6
Continuous
370
    -3
390
F
  0
LAYER
  5
2C
330
2
100
AcDbSymbolTableRecord
100
AcDbLayerTableRecord
  2
HILF
 70
     0
 62
     2
  6
Continuous
370
    -3
390
F
  0
LAYER
  5
2D
330
2
100
AcDbSymbolTableRecord
100
AcDbLayerTableRecord
  2
MITTEL
 70
     0
 62
     2
  6
STRICHPUNKT
370
    -3
390
F
  0
LAYER
  5
2F
330
2
100
AcDbSymbolTableRecord
100
AcDbLayerTableRecord
  2
BEM
 70
     0
 62
     7
  6
Continuous
370
    -3
390
F
  0
LAYER
  5
30
330
2
100
AcDbSymbolTableRecord
100
AcDbLayerTableRecord
  2
STEMPEL
 70
     0
 62
     3
  6
Continuous
370
    -3
390
F
  0
LAYER
  5
33
330
2
100
AcDbSymbolTableRecord
100
AcDbLayerTableRecord
  2
TEXT
 70
     0
 62
     7
  6
Continuous
370
    -3
390
F
  0
LAYER
  5
1B5
330
2
100
AcDbSymbolTableRecord
100
AcDbLayerTableRecord
  2
VERDECKT
 70
     0
 62
     6
  6
VERDECKT
370
    -3
390
F
  0
LAYER
  5
8E4
330
2
100
AcDbSymbolTableRecord
100
AcDbLayerTableRecord
  2
LEITBLECH
 70
     0
 62
     7
  6
Continuous
370
    -3
390
F
  0
LAYER
  5
922
330
2
100
AcDbSymbolTableRecord
100
AcDbLayerTableRecord
  2
DECKEL
 70
     0
 62
     7
  6
Continuous
370
    -3
390
F
  0
LAYER
  5
96A
330
2
100
AcDbSymbolTableRecord
100
AcDbLayerTableRecord
  2
SCHRAFF
 70
     0
 62
     7
  6
Continuous
370
    -3
390
F
  0
LAYER
  5
9DE
330
2
100
AcDbSymbolTableRecord
100
AcDbLayerTableRecord
  2
Defpoints
 70
     0
 62
     7
  6
Continuous
290
     0
370
    -3
390
F
  0
ENDTAB
  0
TABLE
  2
STYLE
  5
3
330
0
100
AcDbSymbolTable
 70
     2
  0
STYLE
  5
11
330
3
100
AcDbSymbolTableRecord
100
AcDbTextStyleTableRecord
  2
STANDARD
 70
     0
 40
0.0
 41
0.8
 50
0.0
 71
     0
 42
3.5
  3
simplex.shx
  4

  0
STYLE
  5
24
330
3
100
AcDbSymbolTableRecord
100
AcDbTextStyleTableRecord
  2
GREEKS
 70
     0
 40
0.0
 41
0.8
 50
0.0
 71
     0
 42
2.5
  3
SIMPLEX.shx
  4

  0
ENDTAB
  0
TABLE
  2
VIEW
  5
6
330
0
100
AcDbSymbolTable
 70
     0
  0
ENDTAB
  0
TABLE
  2
UCS
  5
7
330
0
100
AcDbSymbolTable
 70
     0
  0
ENDTAB
  0
TABLE
  2
APPID
  5
9
330
0
100
AcDbSymbolTable
 70
     2
  0
APPID
  5
12
330
9
100
AcDbSymbolTableRecord
100
AcDbRegAppTableRecord
  2
ACAD
 70
     0
  0
APPID
  5
B69
330
9
100
AcDbSymbolTableRecord
100
AcDbRegAppTableRecord
  2
DCO15
 70
     0
  0
ENDTAB
  0
TABLE
  2
DIMSTYLE
  5
A
330
0
100
AcDbSymbolTable
 70
     1
100
AcDbDimStyleTable
 71
     1
340
A2
  0
DIMSTYLE
105
A2
102
{ACAD_REACTORS
330
A3A
330
A49
330
A56
330
CC2
330
EE4
330
EF1
102
}
330
A
100
AcDbSymbolTableRecord
100
AcDbDimStyleTableRecord
  2
Standard
 70
     0
340
11
  0
ENDTAB
  0
TABLE
  2
BLOCK_RECORD
  5
1
330
0
100
AcDbSymbolTable
 70
     9
  0
BLOCK_RECORD
  5
1E
102
{ACAD_XDICTIONARY
360
DB
102
}
330
1
100
AcDbSymbolTableRecord
100
AcDbBlockTableRecord
  2
*Model_Space
340
21
  0
BLOCK_RECORD
  5
1A
102
{ACAD_XDICTIONARY
360
DD
102
}
330
1
100
AcDbSymbolTableRecord
100
AcDbBlockTableRecord
  2
*Paper_Space
340
1D
  0
BLOCK_RECORD
  5
22
330
1
100
AcDbSymbolTableRecord
100
AcDbBlockTableRecord
  2
LOGO
340
0
102
{BLKREFS
331
56
102
}
  0
BLOCK_RECORD
  5
23
330
1
100
AcDbSymbolTableRecord
100
AcDbBlockTableRecord
  2
LORO
340
0
102
{BLKREFS
331
9B
102
}
  0
BLOCK_RECORD
  5
A22
330
1
100
AcDbSymbolTableRecord
100
AcDbBlockTableRecord
  2
10DI931D
340
0
102
{BLKREFS
331
A27
331
A2D
331
A33
102
}
  0
BLOCK_RECORD
  5
A3B
330
1
100
AcDbSymbolTableRecord
100
AcDbBlockTableRecord
  2
*D3
340
0
  0
BLOCK_RECORD
  5
A4A
330
1
100
AcDbSymbolTableRecord
100
AcDbBlockTableRecord
  2
*D4
340
0
  0
BLOCK_RECORD
  5
A57
330
1
100
AcDbSymbolTableRecord
100
AcDbBlockTableRecord
  2
*D5
340
0
  0
BLOCK_RECORD
  5
D35
330
1
100
AcDbSymbolTableRecord
100
AcDbBlockTableRecord
  2
*D6
340
0
  0
BLOCK_RECORD
  5
EE5
330
1
100
AcDbSymbolTableRecord
100
AcDbBlockTableRecord
  2
*D7
340
0
  0
BLOCK_RECORD
  5
EF2
330
1
100
AcDbSymbolTableRecord
100
AcDbBlockTableRecord
  2
*D8
340
0
  0
ENDTAB
  0
ENDSEC
  0
SECTION
  2
BLOCKS
  0
BLOCK
  5
37
330
1E
100
AcDbEntity
  8
0
100
AcDbBlockBegin
  2
*Model_Space
 70
     0
 10
0.0
 20
0.0
 30
0.0
  3
*Model_Space
  1

  0
ENDBLK
  5
38
330
1E
100
AcDbEntity
  8
0
100
AcDbBlockEnd
  0
BLOCK
  5
35
330
1A
100
AcDbEntity
 67
     1
  8
0
100
AcDbBlockBegin
  2
*Paper_Space
 70
     0
 10
0.0
 20
0.0
 30
0.0
  3
*Paper_Space
  1

  0
ENDBLK
  5
36
330
1A
100
AcDbEntity
 67
     1
  8
0
100
AcDbBlockEnd
  0
BLOCK
  5
39
330
22
100
AcDbEntity
  8
0
100
AcDbBlockBegin
  2
LOGO
 70
     0
 10
0.0
 20
0.0
 30
0.0
  3
LOGO
  1

  0
ARC
  5
3A
330
22
100
AcDbEntity
  8
0
100
AcDbCircle
 10
11.59973089678112
 20
-9.271599258481501
 30
0.0
 40
4.5
100
AcDbArc
 50
270.0
 51
231.0575587310159
  0
LINE
  5
3B
330
22
100
AcDbEntity
  8
0
100
AcDbLine
 10
3.599730896781125
 20
-4.771599258481529
 30
0.0
 11
3.599730896781153
 21
-11.77159925848133
 31
0.0
  0
LINE
  5
3C
330
22
100
AcDbEntity
  8
0
100
AcDbLine
 10
2.599730896781125
 20
-4.771599258481529
 30
0.0
 11
2.599730896781153
 21
-11.77159925848133
 31
0.0
  0
CIRCLE
  5
3D
330
22
100
AcDbEntity
  8
0
100
AcDbCircle
 10
11.59973089678112
 20
-9.271599258481501
 30
0.0
 40
3.5
  0
ARC
  5
3E
330
22
100
AcDbEntity
  8
0
100
AcDbCircle
 10
31.59973089678115
 20
-9.271599258481472
 30
0.0
 40
4.5
100
AcDbArc
 50
270.0
 51
231.0575587310182
  0
LINE
  5
3F
330
22
100
AcDbEntity
  8
0
100
AcDbLine
 10
17.59973089678112
 20
-4.771599258481472
 30
0.0
 11
17.59973089678115
 21
-13.77159925848147
 31
0.0
  0
ARC
  5
40
330
22
100
AcDbEntity
  8
0
100
AcDbCircle
 10
22.59973089678116
 20
-7.271599258481472
 30
0.0
 40
2.5
100
AcDbArc
 50
293.1161887722295
 51
90.0
  0
CIRCLE
  5
41
330
22
100
AcDbEntity
  8
0
100
AcDbCircle
 10
31.59973089678115
 20
-9.271599258481472
 30
0.0
 40
3.5
  0
ARC
  5
42
330
22
100
AcDbEntity
  8
0
100
AcDbCircle
 10
4.599730896781153
 20
-11.77159925848133
 30
0.0
 40
1.0
100
AcDbArc
 50
180.0
 51
270.0
  0
ARC
  5
43
330
22
100
AcDbEntity
  8
0
100
AcDbCircle
 10
4.599730896781153
 20
-11.77159925848133
 30
0.0
 40
2.0
100
AcDbArc
 50
179.9999999999992
 51
270.0
  0
LINE
  5
44
330
22
100
AcDbEntity
  8
0
100
AcDbLine
 10
11.59973089678115
 20
-13.77159925848144
 30
0.0
 11
4.599730896781153
 21
-13.77159925848147
 31
0.0
  0
LINE
  5
45
330
22
100
AcDbEntity
  8
0
100
AcDbLine
 10
8.771303772034769
 20
-12.77159925848136
 30
0.0
 11
4.599730896781153
 21
-12.77159925848133
 31
0.0
  0
LINE
  5
46
330
22
100
AcDbEntity
  8
0
100
AcDbLine
 10
31.59973089678115
 20
-13.77159925848147
 30
0.0
 11
23.6715276665056
 21
-13.77159925848144
 31
0.0
  0
LINE
  5
47
330
22
100
AcDbEntity
  8
0
100
AcDbLine
 10
23.56565672307022
 20
-9.51278021337896
 30
0.0
 11
24.4388546544846
 21
-12.77159925848144
 31
0.0
  0
LINE
  5
48
330
22
100
AcDbEntity
  8
0
100
AcDbLine
 10
22.59973089678116
 20
-9.771599258481472
 30
0.0
 11
18.59973089678112
 21
-9.771599258481472
 31
0.0
  0
LINE
  5
49
330
22
100
AcDbEntity
  8
0
100
AcDbLine
 10
18.59973089678115
 20
-13.77159925848144
 30
0.0
 11
17.59973089678115
 21
-13.77159925848144
 31
0.0
  0
LINE
  5
4A
330
22
100
AcDbEntity
  8
0
100
AcDbLine
 10
18.59973089678115
 20
-9.771599258481472
 30
0.0
 11
18.59973089678115
 21
-13.77159925848144
 31
0.0
  0
LINE
  5
4B
330
22
100
AcDbEntity
  8
0
100
AcDbLine
 10
22.59973089678116
 20
-9.771599258481472
 30
0.0
 11
23.67152766650562
 21
-13.77159925848147
 31
0.0
  0
ARC
  5
4C
330
22
100
AcDbEntity
  8
0
100
AcDbCircle
 10
22.59973089678116
 20
-7.271599258481472
 30
0.0
 40
2.5
100
AcDbArc
 50
270.0
 51
270.0000000000007
  0
LINE
  5
4D
330
22
100
AcDbEntity
  8
0
100
AcDbLine
 10
28.77130377203494
 20
-12.77159925848147
 30
0.0
 11
24.43885465448463
 21
-12.77159925848144
 31
0.0
  0
LINE
  5
4E
330
22
100
AcDbEntity
  8
0
100
AcDbLine
 10
3.599730896781125
 20
-4.771599258481472
 30
0.0
 11
2.599730896781125
 21
-4.771599258481472
 31
0.0
  0
LINE
  5
4F
330
22
100
AcDbEntity
  8
0
100
AcDbLine
 10
22.59973089678116
 20
-8.771599258481472
 30
0.0
 11
18.59973089678115
 21
-8.771599258481472
 31
0.0
  0
LINE
  5
50
330
22
100
AcDbEntity
  8
0
100
AcDbLine
 10
22.59973089678116
 20
-5.771599258481472
 30
0.0
 11
18.59973089678115
 21
-5.771599258481472
 31
0.0
  0
LINE
  5
51
330
22
100
AcDbEntity
  8
0
100
AcDbLine
 10
22.59973089678116
 20
-4.771599258481472
 30
0.0
 11
17.59973089678115
 21
-4.771599258481472
 31
0.0
  0
LINE
  5
52
330
22
100
AcDbEntity
  8
0
100
AcDbLine
 10
18.59973089678115
 20
-5.771599258481472
 30
0.0
 11
18.59973089678115
 21
-8.771599258481472
 31
0.0
  0
ARC
  5
53
330
22
100
AcDbEntity
  8
0
100
AcDbCircle
 10
22.59973089678116
 20
-7.271599258481472
 30
0.0
 40
1.5
100
AcDbArc
 50
270.0
 51
90.0
  0
ENDBLK
  5
54
330
22
100
AcDbEntity
  8
0
100
AcDbBlockEnd
  0
BLOCK
  5
55
330
23
100
AcDbEntity
  8
0
100
AcDbBlockBegin
  2
LORO
 70
     0
 10
0.0
 20
0.0
 30
0.0
  3
LORO
  1

  0
INSERT
  5
56
330
23
100
AcDbEntity
  8
STEMPEL
100
AcDbBlockReference
  2
LOGO
 10
-1.748032802467321
 20
3.771489518552062
 30
0.0
  0
ENDBLK
  5
57
330
23
100
AcDbEntity
  8
0
100
AcDbBlockEnd
  0
BLOCK
  5
A25
330
A22
100
AcDbEntity
  8
0
100
AcDbBlockBegin
  2
10DI931D
 70
     0
 10
0.0
 20
0.0
 30
0.0
  3
10DI931D
  1

  0
LWPOLYLINE
  5
F0F
330
A22
100
AcDbEntity
  8
STEMPEL
100
AcDbPolyline
 90
        6
 70
     1
 43
0.0
 10
-4.907477288111806
 20
8.5
 10
-9.814954576223641
 20
0.0
 10
-4.907477288111834
 20
-8.5
 10
4.907477288111806
 20
-8.5
 10
9.814954576223641
 20
0.0
 10
4.907477288111834
 20
8.5
  0
CIRCLE
  5
F10
330
A22
100
AcDbEntity
  8
STEMPEL
100
AcDbCircle
 10
0.0
 20
0.0
 30
0.0
 40
8.5
  0
ENDBLK
  5
A26
330
A22
100
AcDbEntity
  8
0
100
AcDbBlockEnd
  0
BLOCK
  5
A47
330
A3B
100
AcDbEntity
  8
0
100
AcDbBlockBegin
  2
*D3
 70
     1
 10
0.0
 20
0.0
 30
0.0
  3
*D3
  1

  0
LINE
  5
BA6
330
A3B
100
AcDbEntity
  8
BEM
 62
     0
370
    -2
100
AcDbLine
 10
177.6851615059995
 20
1755.825397543679
 30
0.0
 11
155.3167774528729
 21
1755.825397543679
 31
0.0
  0
LINE
  5
BA7
330
A3B
100
AcDbEntity
  8
BEM
 62
     0
370
    -2
100
AcDbLine
 10
187.6851615059997
 20
1717.825397543679
 30
0.0
 11
155.3167774528729
 21
1717.825397543679
 31
0.0
  0
LINE
  5
BA8
330
A3B
100
AcDbEntity
  8
BEM
 62
     0
370
    -2
100
AcDbLine
 10
160.3167774528729
 20
1773.325397543679
 30
0.0
 11
160.3167774528729
 21
1790.825397543679
 31
0.0
  0
LINE
  5
BA9
330
A3B
100
AcDbEntity
  8
BEM
 62
     0
370
    -2
100
AcDbLine
 10
160.3167774528729
 20
1700.325397543679
 30
0.0
 11
160.3167774528729
 21
1682.825397543679
 31
0.0
  0
LINE
  5
BAA
330
A3B
100
AcDbEntity
  8
BEM
 62
     0
370
    -2
100
AcDbLine
 10
160.3167774528729
 20
1755.825397543679
 30
0.0
 11
160.3167774528729
 21
1717.825397543679
 31
0.0
  0
SOLID
  5
BAB
330
A3B
100
AcDbEntity
  8
BEM
 62
     0
100
AcDbTrace
 10
157.4001107862062
 20
1773.325397543679
 30
0.0
 11
163.2334441195395
 21
1773.325397543679
 31
0.0
 12
160.3167774528729
 22
1755.825397543679
 32
0.0
 13
160.3167774528729
 23
1755.825397543679
 33
0.0
  0
SOLID
  5
BAC
330
A3B
100
AcDbEntity
  8
BEM
 62
     0
100
AcDbTrace
 10
157.4001107862062
 20
1700.325397543679
 30
0.0
 11
163.2334441195395
 21
1700.325397543679
 31
0.0
 12
160.3167774528729
 22
1717.825397543679
 32
0.0
 13
160.3167774528729
 23
1717.825397543679
 33
0.0
  0
MTEXT
  5
BAD
330
A3B
100
AcDbEntity
  8
BEM
 62
     1
100
AcDbMText
 10
144.0667774528726
 20
1736.825397543679
 30
0.0
 40
17.5
 41
0.0
 71
     5
 72
     1
  1
\A1;38
 11
0.0000000000000001
 21
1.0
 31
0.0
 73
     1
 44
1.0
  0
POINT
  5
BAE
330
A3B
100
AcDbEntity
  8
Defpoints
 62
     0
100
AcDbPoint
 10
182.6851615059995
 20
1755.825397543679
 30
0.0
  0
POINT
  5
BAF
330
A3B
100
AcDbEntity
  8
Defpoints
 62
     0
100
AcDbPoint
 10
192.6851615059997
 20
1717.825397543679
 30
0.0
  0
POINT
  5
BB0
330
A3B
100
AcDbEntity
  8
Defpoints
 62
     0
100
AcDbPoint
 10
160.3167774528729
 20
1717.825397543679
 30
0.0
  0
ENDBLK
  5
A48
330
A3B
100
AcDbEntity
  8
0
100
AcDbBlockEnd
  0
BLOCK
  5
A54
330
A4A
100
AcDbEntity
  8
0
100
AcDbBlockBegin
  2
*D4
 70
     1
 10
0.0
 20
0.0
 30
0.0
  3
*D4
  1

  0
LINE
  5
B9D
330
A4A
100
AcDbEntity
  8
BEM
 62
     0
370
    -2
100
AcDbLine
 10
367.6851615059995
 20
1699.825397543679
 30
0.0
 11
116.455332249644
 21
1699.825397543679
 31
0.0
  0
LINE
  5
B9E
330
A4A
100
AcDbEntity
  8
BEM
 62
     0
370
    -2
100
AcDbLine
 10
177.6851615059995
 20
1755.825397543679
 30
0.0
 11
116.455332249644
 21
1755.825397543679
 31
0.0
  0
LINE
  5
B9F
330
A4A
100
AcDbEntity
  8
BEM
 62
     0
370
    -2
100
AcDbLine
 10
121.455332249644
 20
1717.325397543679
 30
0.0
 11
121.455332249644
 21
1738.325397543679
 31
0.0
  0
SOLID
  5
BA0
330
A4A
100
AcDbEntity
  8
BEM
 62
     0
100
AcDbTrace
 10
118.5386655829773
 20
1717.325397543679
 30
0.0
 11
124.3719989163107
 21
1717.325397543679
 31
0.0
 12
121.455332249644
 22
1699.825397543679
 32
0.0
 13
121.455332249644
 23
1699.825397543679
 33
0.0
  0
SOLID
  5
BA1
330
A4A
100
AcDbEntity
  8
BEM
 62
     0
100
AcDbTrace
 10
118.5386655829773
 20
1738.325397543679
 30
0.0
 11
124.3719989163107
 21
1738.325397543679
 31
0.0
 12
121.455332249644
 22
1755.825397543679
 32
0.0
 13
121.455332249644
 23
1755.825397543679
 33
0.0
  0
MTEXT
  5
BA2
330
A4A
100
AcDbEntity
  8
BEM
 62
     1
100
AcDbMText
 10
105.2053322496437
 20
1727.825397543679
 30
0.0
 40
17.5
 41
0.0
 71
     5
 72
     1
  1
\A1;56
 11
0.0000000000000001
 21
1.0
 31
0.0
 73
     1
 44
1.0
  0
POINT
  5
BA3
330
A4A
100
AcDbEntity
  8
Defpoints
 62
     0
100
AcDbPoint
 10
372.6851615059995
 20
1699.825397543679
 30
0.0
  0
POINT
  5
BA4
330
A4A
100
AcDbEntity
  8
Defpoints
 62
     0
100
AcDbPoint
 10
182.6851615059995
 20
1755.825397543679
 30
0.0
  0
POINT
  5
BA5
330
A4A
100
AcDbEntity
  8
Defpoints
 62
     0
100
AcDbPoint
 10
121.455332249644
 20
1755.825397543679
 30
0.0
  0
ENDBLK
  5
A55
330
A4A
100
AcDbEntity
  8
0
100
AcDbBlockEnd
  0
BLOCK
  5
A61
330
A57
100
AcDbEntity
  8
0
100
AcDbBlockBegin
  2
*D5
 70
     1
 10
0.0
 20
0.0
 30
0.0
  3
*D5
  1

  0
LINE
  5
B94
330
A57
100
AcDbEntity
  8
BEM
 62
     0
370
    -2
100
AcDbLine
 10
182.6851615059995
 20
1760.825397543679
 30
0.0
 11
182.6851615059995
 21
1803.773980609194
 31
0.0
  0
LINE
  5
B95
330
A57
100
AcDbEntity
  8
BEM
 62
     0
370
    -2
100
AcDbLine
 10
982.6851615059997
 20
1760.825397543679
 30
0.0
 11
982.6851615059997
 21
1803.773980609194
 31
0.0
  0
LINE
  5
B96
330
A57
100
AcDbEntity
  8
BEM
 62
     0
370
    -2
100
AcDbLine
 10
200.1851615059995
 20
1798.773980609194
 30
0.0
 11
965.1851615059996
 21
1798.773980609194
 31
0.0
  0
SOLID
  5
B97
330
A57
100
AcDbEntity
  8
BEM
 62
     0
100
AcDbTrace
 10
200.1851615059995
 20
1801.690647275861
 30
0.0
 11
200.1851615059995
 21
1795.857313942527
 31
0.0
 12
182.6851615059995
 22
1798.773980609194
 32
0.0
 13
182.6851615059995
 23
1798.773980609194
 33
0.0
  0
SOLID
  5
B98
330
A57
100
AcDbEntity
  8
BEM
 62
     0
100
AcDbTrace
 10
965.1851615059996
 20
1801.690647275861
 30
0.0
 11
965.1851615059996
 21
1795.857313942527
 31
0.0
 12
982.6851615059997
 22
1798.773980609194
 32
0.0
 13
982.6851615059997
 23
1798.773980609194
 33
0.0
  0
MTEXT
  5
B99
330
A57
100
AcDbEntity
  8
BEM
 62
     1
100
AcDbMText
 10
582.6851615059995
 20
1815.023980609194
 30
0.0
 40
17.5
 41
0.0
 71
     5
 72
     1
  1
\A1;%%c800
 73
     1
 44
1.0
  0
POINT
  5
B9A
330
A57
100
AcDbEntity
  8
Defpoints
 62
     0
100
AcDbPoint
 10
182.6851615059995
 20
1755.825397543679
 30
0.0
  0
POINT
  5
B9B
330
A57
100
AcDbEntity
  8
Defpoints
 62
     0
100
AcDbPoint
 10
982.6851615059997
 20
1755.825397543679
 30
0.0
  0
POINT
  5
B9C
330
A57
100
AcDbEntity
  8
Defpoints
 62
     0
100
AcDbPoint
 10
982.6851615059997
 20
1798.773980609194
 30
0.0
  0
ENDBLK
  5
A62
330
A57
100
AcDbEntity
  8
0
100
AcDbBlockEnd
  0
BLOCK
  5
D3F
330
D35
100
AcDbEntity
  8
0
100
AcDbBlockBegin
  2
*D6
 70
     1
 10
0.0
 20
0.0
 30
0.0
  3
*D6
  1

  0
LINE
  5
DC3
330
D35
100
AcDbEntity
  8
BEM
 62
     0
370
    -2
100
AcDbLine
 10
662.1851615059996
 20
1425.82539754368
 30
0.0
 11
662.1851615059996
 21
1363.206373902527
 31
0.0
  0
LINE
  5
DC4
330
D35
100
AcDbEntity
  8
BEM
 62
     0
370
    -2
100
AcDbLine
 10
503.1851615059998
 20
1425.825397543679
 30
0.0
 11
503.1851615059998
 21
1363.206373902527
 31
0.0
  0
LINE
  5
DC5
330
D35
100
AcDbEntity
  8
BEM
 62
     0
370
    -2
100
AcDbLine
 10
644.6851615059996
 20
1368.206373902527
 30
0.0
 11
520.6851615059997
 21
1368.206373902527
 31
0.0
  0
SOLID
  5
DC6
330
D35
100
AcDbEntity
  8
BEM
 62
     0
100
AcDbTrace
 10
644.6851615059996
 20
1371.123040569194
 30
0.0
 11
644.6851615059996
 21
1365.28970723586
 31
0.0
 12
662.1851615059996
 22
1368.206373902527
 32
0.0
 13
662.1851615059996
 23
1368.206373902527
 33
0.0
  0
SOLID
  5
DC7
330
D35
100
AcDbEntity
  8
BEM
 62
     0
100
AcDbTrace
 10
520.6851615059997
 20
1371.123040569194
 30
0.0
 11
520.6851615059997
 21
1365.28970723586
 31
0.0
 12
503.1851615059998
 22
1368.206373902527
 32
0.0
 13
503.1851615059998
 23
1368.206373902527
 33
0.0
  0
MTEXT
  5
DC8
330
D35
100
AcDbEntity
  8
BEM
 62
     1
100
AcDbMText
 10
582.6851615059998
 20
1384.456373902527
 30
0.0
 40
17.5
 41
0.0
 71
     5
 72
     1
  1
\A1;%%c159
 73
     1
 44
1.0
  0
POINT
  5
DC9
330
D35
100
AcDbEntity
  8
Defpoints
 62
     0
100
AcDbPoint
 10
662.1851615059996
 20
1430.82539754368
 30
0.0
  0
POINT
  5
DCA
330
D35
100
AcDbEntity
  8
Defpoints
 62
     0
100
AcDbPoint
 10
503.1851615059998
 20
1430.825397543679
 30
0.0
  0
POINT
  5
DCB
330
D35
100
AcDbEntity
  8
Defpoints
 62
     0
100
AcDbPoint
 10
503.1851615059998
 20
1368.206373902527
 30
0.0
  0
ENDBLK
  5
D40
330
D35
100
AcDbEntity
  8
0
100
AcDbBlockEnd
  0
BLOCK
  5
EEF
330
EE5
100
AcDbEntity
  8
0
100
AcDbBlockBegin
  2
*D7
 70
     1
 10
0.0
 20
0.0
 30
0.0
  3
*D7
  1

  0
LINE
  5
EE6
330
EE5
100
AcDbEntity
  8
BEM
 62
     0
370
    -2
100
AcDbLine
 10
412.6851615059996
 20
1693.82539754368
 30
0.0
 11
310.1273342991627
 21
1693.82539754368
 31
0.0
  0
LINE
  5
EE7
330
EE5
100
AcDbEntity
  8
BEM
 62
     0
370
    -2
100
AcDbLine
 10
499.6724687859405
 20
1413.825397543679
 30
0.0
 11
310.1273342991627
 21
1413.825397543679
 31
0.0
  0
LINE
  5
EE8
330
EE5
100
AcDbEntity
  8
BEM
 62
     0
370
    -2
100
AcDbLine
 10
315.1273342991627
 20
1676.32539754368
 30
0.0
 11
315.1273342991627
 21
1431.325397543679
 31
0.0
  0
SOLID
  5
EE9
330
EE5
100
AcDbEntity
  8
BEM
 62
     0
100
AcDbTrace
 10
312.210667632496
 20
1676.32539754368
 30
0.0
 11
318.0440009658294
 21
1676.32539754368
 31
0.0
 12
315.1273342991627
 22
1693.82539754368
 32
0.0
 13
315.1273342991627
 23
1693.82539754368
 33
0.0
  0
SOLID
  5
EEA
330
EE5
100
AcDbEntity
  8
BEM
 62
     0
100
AcDbTrace
 10
312.210667632496
 20
1431.325397543679
 30
0.0
 11
318.0440009658294
 21
1431.325397543679
 31
0.0
 12
315.1273342991627
 22
1413.825397543679
 32
0.0
 13
315.1273342991627
 23
1413.825397543679
 33
0.0
  0
MTEXT
  5
EEB
330
EE5
100
AcDbEntity
  8
BEM
 62
     1
100
AcDbMText
 10
298.8773342991624
 20
1553.825397543679
 30
0.0
 40
17.5
 41
0.0
 71
     5
 72
     1
  1
\A1;280
 11
0.0000000000000001
 21
1.0
 31
0.0
 73
     1
 44
1.0
  0
POINT
  5
EEC
330
EE5
100
AcDbEntity
  8
Defpoints
 62
     0
100
AcDbPoint
 10
417.6851615059996
 20
1693.82539754368
 30
0.0
  0
POINT
  5
EED
330
EE5
100
AcDbEntity
  8
Defpoints
 62
     0
100
AcDbPoint
 10
504.6724687859405
 20
1413.825397543679
 30
0.0
  0
POINT
  5
EEE
330
EE5
100
AcDbEntity
  8
Defpoints
 62
     0
100
AcDbPoint
 10
315.1273342991627
 20
1413.825397543679
 30
0.0
  0
ENDBLK
  5
EF0
330
EE5
100
AcDbEntity
  8
0
100
AcDbBlockEnd
  0
BLOCK
  5
EFE
330
EF2
100
AcDbEntity
  8
0
100
AcDbBlockBegin
  2
*D8
 70
     1
 10
0.0
 20
0.0
 30
0.0
  3
*D8
  1

  0
LINE
  5
EF3
330
EF2
100
AcDbEntity
  8
BEM
 62
     0
370
    -2
100
AcDbLine
 10
412.6851615059996
 20
1693.82539754368
 30
0.0
 11
341.0001029215127
 21
1693.82539754368
 31
0.0
  0
LINE
  5
EF4
330
EF2
100
AcDbEntity
  8
BEM
 62
     0
370
    -2
100
AcDbLine
 10
412.6851615059996
 20
1687.825397543679
 30
0.0
 11
341.0001029215127
 21
1687.825397543679
 31
0.0
  0
LINE
  5
EF5
330
EF2
100
AcDbEntity
  8
BEM
 62
     0
370
    -2
100
AcDbLine
 10
346.0001029215127
 20
1711.32539754368
 30
0.0
 11
346.0001029215127
 21
1728.825397543679
 31
0.0
  0
LINE
  5
EF6
330
EF2
100
AcDbEntity
  8
BEM
 62
     0
370
    -2
100
AcDbLine
 10
346.0001029215127
 20
1670.325397543679
 30
0.0
 11
346.0001029215127
 21
1629.158730877012
 31
0.0
  0
LINE
  5
EF7
330
EF2
100
AcDbEntity
  8
BEM
 62
     0
370
    -2
100
AcDbLine
 10
346.0001029215127
 20
1693.82539754368
 30
0.0
 11
346.0001029215127
 21
1687.825397543679
 31
0.0
  0
SOLID
  5
EF8
330
EF2
100
AcDbEntity
  8
BEM
 62
     0
100
AcDbTrace
 10
343.083436254846
 20
1711.32539754368
 30
0.0
 11
348.9167695881794
 21
1711.32539754368
 31
0.0
 12
346.0001029215127
 22
1693.82539754368
 32
0.0
 13
346.0001029215127
 23
1693.82539754368
 33
0.0
  0
SOLID
  5
EF9
330
EF2
100
AcDbEntity
  8
BEM
 62
     0
100
AcDbTrace
 10
343.083436254846
 20
1670.325397543679
 30
0.0
 11
348.9167695881794
 21
1670.325397543679
 31
0.0
 12
346.0001029215127
 22
1687.825397543679
 32
0.0
 13
346.0001029215127
 23
1687.825397543679
 33
0.0
  0
MTEXT
  5
EFA
330
EF2
100
AcDbEntity
  8
BEM
 62
     1
100
AcDbMText
 10
329.7501029215125
 20
1640.992064210346
 30
0.0
 40
17.5
 41
0.0
 71
     5
 72
     1
  1
\A1;6
 11
0.0000000000000001
 21
1.0
 31
0.0
 73
     1
 44
1.0
  0
POINT
  5
EFB
330
EF2
100
AcDbEntity
  8
Defpoints
 62
     0
100
AcDbPoint
 10
417.6851615059996
 20
1693.82539754368
 30
0.0
  0
POINT
  5
EFC
330
EF2
100
AcDbEntity
  8
Defpoints
 62
     0
100
AcDbPoint
 10
417.6851615059996
 20
1687.825397543679
 30
0.0
  0
POINT
  5
EFD
330
EF2
100
AcDbEntity
  8
Defpoints
 62
     0
100
AcDbPoint
 10
346.0001029215127
 20
1687.825397543679
 30
0.0
  0
ENDBLK
  5
EFF
330
EF2
100
AcDbEntity
  8
0
100
AcDbBlockEnd
  0
ENDSEC
  0
SECTION
  2
ENTITIES
  0
LINE
  5
58
330
1E
100
AcDbEntity
  8
STEMPEL
100
AcDbLine
 10
1210.0
 20
2075.000000000001
 30
0.0
 11
1210.0
 21
1175.0
 31
0.0
  0
LINE
  5
59
330
1E
100
AcDbEntity
  8
STEMPEL
100
AcDbLine
 10
1210.0
 20
1175.0
 30
0.0
 11
1460.0
 21
1175.0
 31
0.0
  0
LINE
  5
5A
330
1E
100
AcDbEntity
  8
STEMPEL
100
AcDbLine
 10
1210.0
 20
1415.0
 30
0.0
 11
1460.0
 21
1415.0
 31
0.0
  0
LINE
  5
5B
330
1E
100
AcDbEntity
  8
STEMPEL
100
AcDbLine
 10
1210.0
 20
1625.0
 30
0.0
 11
1460.0
 21
1625.0
 31
0.0
  0
LINE
  5
5C
330
1E
100
AcDbEntity
  8
STEMPEL
100
AcDbLine
 10
1210.000000000001
 20
1880.0
 30
0.0
 11
1385.0
 21
1880.0
 31
0.0
  0
LINE
  5
5D
330
1E
100
AcDbEntity
  8
STEMPEL
100
AcDbLine
 10
1410.0
 20
1415.0
 30
0.0
 11
1410.0
 21
1175.0
 31
0.0
  0
LINE
  5
5E
330
1E
100
AcDbEntity
  8
STEMPEL
100
AcDbLine
 10
1385.0
 20
2075.000000000001
 30
0.0
 11
1385.0
 21
1415.0
 31
0.0
  0
LINE
  5
5F
330
1E
100
AcDbEntity
  8
STEMPEL
100
AcDbLine
 10
1285.0
 20
2075.000000000001
 30
0.0
 11
1285.0
 21
1415.0
 31
0.0
  0
LINE
  5
60
330
1E
100
AcDbEntity
  8
VOLL
100
AcDbLine
 10
1210.0
 20
1210.0
 30
0.0
 11
1460.0
 21
1210.0
 31
0.0
  0
LINE
  5
61
330
1E
100
AcDbEntity
  8
VOLL
100
AcDbLine
 10
1210.0
 20
1310.0
 30
0.0
 11
1460.0
 21
1310.0
 31
0.0
  0
LINE
  5
62
330
1E
100
AcDbEntity
  8
VOLL
100
AcDbLine
 10
1210.0
 20
1360.0
 30
0.0
 11
1460.0
 21
1360.0
 31
0.0
  0
LINE
  5
63
330
1E
100
AcDbEntity
  8
VOLL
100
AcDbLine
 10
1285.0
 20
1460.0
 30
0.0
 11
1385.0
 21
1460.0
 31
0.0
  0
LINE
  5
64
330
1E
100
AcDbEntity
  8
VOLL
100
AcDbLine
 10
1210.0
 20
1525.0
 30
0.0
 11
1385.0
 21
1525.0
 31
0.0
  0
LINE
  5
65
330
1E
100
AcDbEntity
  8
HILF
100
AcDbLine
 10
1235.0
 20
1175.0
 30
0.0
 11
1235.0
 21
1415.0
 31
0.0
  0
LINE
  5
66
330
1E
100
AcDbEntity
  8
HILF
100
AcDbLine
 10
1260.0
 20
1175.0
 30
0.0
 11
1260.0
 21
1415.0
 31
0.0
  0
LINE
  5
67
330
1E
100
AcDbEntity
  8
HILF
100
AcDbLine
 10
1285.0
 20
1175.0
 30
0.0
 11
1285.0
 21
1415.0
 31
0.0
  0
LINE
  5
68
330
1E
100
AcDbEntity
  8
HILF
100
AcDbLine
 10
1310.0
 20
1175.0
 30
0.0
 11
1310.0
 21
1415.0
 31
0.0
  0
LINE
  5
69
330
1E
100
AcDbEntity
  8
HILF
100
AcDbLine
 10
1335.0
 20
1175.0
 30
0.0
 11
1335.0
 21
1415.0
 31
0.0
  0
LINE
  5
6A
330
1E
100
AcDbEntity
  8
HILF
100
AcDbLine
 10
1360.0
 20
1175.0
 30
0.0
 11
1360.0
 21
1415.0
 31
0.0
  0
LINE
  5
6B
330
1E
100
AcDbEntity
  8
HILF
100
AcDbLine
 10
1385.0
 20
1175.0
 30
0.0
 11
1385.0
 21
1415.0
 31
0.0
  0
LINE
  5
6C
330
1E
100
AcDbEntity
  8
HILF
100
AcDbLine
 10
1310.0
 20
1415.0
 30
0.0
 11
1310.0
 21
1625.0
 31
0.0
  0
LINE
  5
6D
330
1E
100
AcDbEntity
  8
HILF
100
AcDbLine
 10
1335.0
 20
1415.0
 30
0.0
 11
1335.0
 21
1625.0
 31
0.0
  0
LINE
  5
6E
330
1E
100
AcDbEntity
  8
HILF
100
AcDbLine
 10
1360.0
 20
1415.0
 30
0.0
 11
1360.0
 21
1625.0
 31
0.0
  0
LINE
  5
6F
330
1E
100
AcDbEntity
  8
HILF
100
AcDbLine
 10
1274.906043810897
 20
1636.934200274237
 30
0.0
 11
1274.906043810897
 21
1866.574460628703
 31
0.0
  0
LINE
  5
70
330
1E
100
AcDbEntity
  8
HILF
100
AcDbLine
 10
1310.0
 20
1636.934200274237
 30
0.0
 11
1310.0
 21
1866.574460628703
 31
0.0
  0
LINE
  5
71
330
1E
100
AcDbEntity
  8
HILF
100
AcDbLine
 10
1335.0
 20
1636.934200274237
 30
0.0
 11
1335.0
 21
1866.574460628703
 31
0.0
  0
LINE
  5
72
330
1E
100
AcDbEntity
  8
HILF
100
AcDbLine
 10
1360.0
 20
1636.934200274237
 30
0.0
 11
1360.0
 21
1866.574460628703
 31
0.0
  0
LINE
  5
73
330
1E
100
AcDbEntity
  8
VOLL
100
AcDbLine
 10
1335.0
 20
1880.0
 30
0.0
 11
1335.0
 21
2075.000000000001
 31
0.0
  0
LINE
  5
74
330
1E
100
AcDbEntity
  8
HILF
100
AcDbLine
 10
1275.550409076104
 20
1891.809654074249
 30
0.0
 11
1275.550409076104
 21
2062.147209831683
 31
0.0
  0
LINE
  5
75
330
1E
100
AcDbEntity
  8
HILF
100
AcDbLine
 10
1447.765043549292
 20
1636.934200274237
 30
0.0
 11
1447.765043549292
 21
2062.147209831683
 31
0.0
  0
TEXT
  5
76
330
1E
100
AcDbEntity
  8
TEXT
100
AcDbText
 10
1438.315452625397
 20
1230.999559815824
 30
0.0
 40
10.0
  1
Änderung
 50
90.0
 41
0.8
  7
GREEKS
 72
     1
 11
1438.315452625397
 21
1257.856702672967
 31
0.0
100
AcDbText
  0
TEXT
  5
78
330
1E
100
AcDbEntity
  8
TEXT
100
AcDbText
 10
1228.844776228228
 20
1433.790893037594
 30
0.0
 40
12.5
  1
Maßstab
 50
90.0
 41
0.8
  7
GREEKS
100
AcDbText
  0
TEXT
  5
79
330
1E
100
AcDbEntity
  8
TEXT
100
AcDbText
 10
1228.627667997055
 20
1637.194850952252
 30
0.0
 40
12.5
  1
Benennung
 50
90.0
 41
0.8
  7
GREEKS
100
AcDbText
  0
TEXT
  5
7A
330
1E
100
AcDbEntity
  8
TEXT
100
AcDbText
 10
1229.216991365716
 20
1890.446887394086
 30
0.0
 40
12.5
  1
Zeichnungs Nr.
 50
90.0
 41
0.8
  7
GREEKS
100
AcDbText
  0
TEXT
  5
7B
330
1E
100
AcDbEntity
  8
TEXT
100
AcDbText
 10
1407.885985745173
 20
1636.85559597784
 30
0.0
 40
12.5
  1
Bauvorhaben
 50
90.0
 41
0.8
  7
GREEKS
100
AcDbText
  0
TEXT
  5
7C
330
1E
100
AcDbEntity
  8
TEXT
100
AcDbText
 10
1302.047044072501
 20
1891.809654074249
 30
0.0
 40
12.5
  1
Ersatz für:
 50
90.0
 41
0.8
  7
GREEKS
100
AcDbText
  0
TEXT
  5
7D
330
1E
100
AcDbEntity
  8
TEXT
100
AcDbText
 10
1450.86335384932
 20
1195.666027676144
 30
0.0
 40
10.0
  1
Index
 50
180.0
 41
0.8
  7
GREEKS
100
AcDbText
  0
TEXT
  5
7E
330
1E
100
AcDbEntity
  8
TEXT
100
AcDbText
 10
1438.321093266505
 20
1324.747528296744
 30
0.0
 40
10.0
  1
Tag
 50
90.0
 41
0.8
  7
GREEKS
 72
     1
 11
1438.321093266505
 21
1334.080861630078
 31
0.0
100
AcDbText
  0
TEXT
  5
7F
330
1E
100
AcDbEntity
  8
TEXT
100
AcDbText
 10
1438.51689457584
 20
1372.448919534573
 30
0.0
 40
10.0
  1
Name
 50
90.0
 41
0.8
  7
GREEKS
 72
     1
 11
1438.51689457584
 21
1388.258443344097
 31
0.0
100
AcDbText
  0
TEXT
  5
80
330
1E
100
AcDbEntity
  8
TEXT
100
AcDbText
 10
1301.702987469252
 20
1480.827918288412
 30
0.0
 40
10.0
  1
Tag
 50
90.0
 41
0.8
  7
GREEKS
100
AcDbText
  0
TEXT
  5
81
330
1E
100
AcDbEntity
  8
TEXT
100
AcDbText
 10
1301.725972702119
 20
1556.156646056574
 30
0.0
 40
10.0
  1
Name
 50
90.0
 41
0.8
  7
GREEKS
100
AcDbText
  0
TEXT
  5
82
330
1E
100
AcDbEntity
  8
TEXT
100
AcDbText
 10
1325.925240759551
 20
1418.959031791904
 30
0.0
 40
10.0
  1
Gez.
 50
90.0
 41
0.8
  7
GREEKS
100
AcDbText
  0
TEXT
  5
83
330
1E
100
AcDbEntity
  8
TEXT
100
AcDbText
 10
1350.77684271429
 20
1418.878771642918
 30
0.0
 40
10.0
  1
Gepr.
 50
90.0
 41
0.8
  7
GREEKS
100
AcDbText
  0
TEXT
  5
84
330
1E
100
AcDbEntity
  8
TEXT
100
AcDbText
 10
1376.176340258755
 20
1419.001694346826
 30
0.0
 40
10.0
  1
Norm.
 50
90.0
 41
0.8
  7
GREEKS
100
AcDbText
  0
TEXT
  5
85
330
1E
100
AcDbEntity
  8
TEXT
100
AcDbText
 10
1354.814595553035
 20
1893.100215374252
 30
0.0
 40
12.5
  1
ersetzt durch:
 50
90.0
 41
0.8
  7
GREEKS
100
AcDbText
  0
TEXT
  5
86
330
1E
100
AcDbEntity
  8
TEXT
100
AcDbText
 10
1302.582935086907
 20
1422.173256951831
 30
0.0
 40
10.0
  1
2010
 50
90.0
 41
0.8
  7
GREEKS
100
AcDbText
  0
LINE
  5
87
330
1E
100
AcDbEntity
  8
HILF
100
AcDbLine
 10
1485.0
 20
-0.0000000000001421
 30
0.0
 11
1485.0
 21
2100.0
 31
0.0
  0
LINE
  5
88
330
1E
100
AcDbEntity
  8
HILF
100
AcDbLine
 10
1485.0
 20
2100.0
 30
0.0
 11
0.0
 21
2100.0
 31
0.0
  0
LINE
  5
89
330
1E
100
AcDbEntity
  8
HILF
100
AcDbLine
 10
0.0
 20
2100.0
 30
0.0
 11
0.0
 21
0.0
 31
0.0
  0
LINE
  5
8B
330
1E
100
AcDbEntity
  8
STEMPEL
100
AcDbLine
 10
25.0
 20
2075.0
 30
0.0
 11
25.0
 21
99.99999999999985
 31
0.0
  0
LINE
  5
8D
330
1E
100
AcDbEntity
  8
STEMPEL
100
AcDbLine
 10
1460.0
 20
99.99999999999985
 30
0.0
 11
1460.0
 21
2075.0
 31
0.0
  0
LINE
  5
8E
330
1E
100
AcDbEntity
  8
STEMPEL
100
AcDbLine
 10
1460.0
 20
2075.0
 30
0.0
 11
25.0
 21
2075.0
 31
0.0
  0
TEXT
  5
8F
330
1E
100
AcDbEntity
  8
TEXT
 62
     1
100
AcDbText
 10
1266.566423108686
 20
1637.597643118297
 30
0.0
 40
17.5
  1
LORO-Drainjet-Ablauf 100l
 50
90.0
 41
0.65
  7
GREEKS
100
AcDbText
  0
TEXT
  5
90
330
1E
100
AcDbEntity
  8
TEXT
 62
     1
100
AcDbText
 10
1266.566423108686
 20
1920.6570222127
 30
0.0
 40
17.5
  1
21114150W
 50
90.0
 41
0.8
  7
GREEKS
 72
     1
 11
1266.566423108686
 21
1975.323688879367
 31
0.0
100
AcDbText
  0
TEXT
  5
91
330
1E
100
AcDbEntity
  8
TEXT
100
AcDbText
 10
1227.900259715525
 20
1546.272556603957
 30
0.0
 40
12.5
  1
Zul.Abw.
 50
90.0
 41
0.8
  7
GREEKS
100
AcDbText
  0
TEXT
  5
93
330
1E
100
AcDbEntity
  8
TEXT
100
AcDbText
 10
1327.122853096994
 20
1476.153214139872
 30
0.0
 40
10.0
  1
29.10.
 50
90.0
 41
0.8
  7
GREEKS
 72
     1
 11
1327.122853096994
 21
1492.915118901776
 31
0.0
100
AcDbText
  0
TEXT
  5
94
330
1E
100
AcDbEntity
  8
TEXT
100
AcDbText
 10
1327.642558620863
 20
1560.057938306652
 30
0.0
 40
10.0
  1
Koeh
 50
90.0
 41
0.8
  7
GREEKS
 72
     1
 11
1327.642558620863
 21
1573.200795449509
 31
0.0
100
AcDbText
  0
TEXT
  5
96
330
1E
100
AcDbEntity
  8
TEXT
100
AcDbText
 10
1329.136022869774
 20
1635.852735221248
 30
0.0
 40
12.5
  1

 50
90.0
 41
0.8
  7
GREEKS
100
AcDbText
  0
TEXT
  5
97
330
1E
100
AcDbEntity
  8
TEXT
100
AcDbText
 10
1353.522566553848
 20
1635.852735221248
 30
0.0
 40
12.5
  1
EDV-Art.Nr. 21114.150X
 50
90.0
 41
0.8
  7
GREEKS
100
AcDbText
  0
TEXT
  5
98
330
1E
100
AcDbEntity
  8
TEXT
100
AcDbText
 10
1376.721809380212
 20
1635.419012527336
 30
0.0
 40
10.0
  1
21114150W.DWG
 50
90.0
 41
0.8
  7
GREEKS
100
AcDbText
  0
TEXT
  5
99
330
1E
100
AcDbEntity
  8
TEXT
 62
     1
100
AcDbText
 10
1266.323072789625
 20
1456.758728008555
 30
0.0
 40
17.5
  1
1:5
 50
90.0
 41
0.8
  7
GREEKS
100
AcDbText
  0
TEXT
  5
9A
330
1E
100
AcDbEntity
  8
TEXT
100
AcDbText
 10
1199.714103737239
 20
1175.110284837532
 30
0.0
 40
12.5
  1
Erstellt mit AUTOCAD 2004
 50
90.0
 41
0.8
  7
GREEKS
100
AcDbText
  0
INSERT
  5
9B
330
1E
100
AcDbEntity
  8
HILF
100
AcDbBlockReference
  2
LORO
 10
1392.548517492526
 20
1432.656246490588
 30
0.0
 41
5.0
 42
5.0
 43
5.0
 50
90.0
  0
LINE
  5
9C
330
1E
100
AcDbEntity
  8
BEM
100
AcDbLine
 10
1485.0
 20
1140.0
 30
0.0
 11
1460.0
 21
1140.0
 31
0.0
  0
LINE
  5
13E
330
1E
100
AcDbEntity
  8
HILF
100
AcDbLine
 10
1485.0
 20
-0.0000000000001421
 30
0.0
 11
0.0
 21
0.0
 31
0.0
  0
LINE
  5
13F
330
1E
100
AcDbEntity
  8
STEMPEL
100
AcDbLine
 10
1460.0
 20
99.99999999999985
 30
0.0
 11
25.0
 21
99.99999999999985
 31
0.0
  0
LINE
  5
14A
330
1E
100
AcDbEntity
  8
HILF
100
AcDbLine
 10
742.4999999999999
 20
-0.0000000000001421
 30
0.0
 11
742.4999999999999
 21
99.99999999999985
 31
0.0
  0
TEXT
  5
15B
330
1E
100
AcDbEntity
  8
BEM
100
AcDbText
 10
1459.580247300028
 20
2093.255730964292
 30
0.0
 40
10.0
  1
Diese Zeichnung ist urheberrechtlich geschützt und bleibt unser Eigentum. Sie darf weder ganz noch teilweise verfielfältigt und nicht an Dritte weitergegeben werden.
 50
180.0
 41
0.8
  7
GREEKS
100
AcDbText
  0
LINE
  5
198
330
1E
100
AcDbEntity
  8
MITTEL
100
AcDbLine
 10
987.6851615059996
 20
701.839363381403
 30
0.0
 11
177.6851615059995
 21
701.839363381403
 31
0.0
  0
LINE
  5
199
330
1E
100
AcDbEntity
  8
MITTEL
100
AcDbLine
 10
582.6851615059995
 20
296.839363381403
 30
0.0
 11
582.6851615059995
 21
1106.839363381403
 31
0.0
  0
CIRCLE
  5
19A
330
1E
100
AcDbEntity
  8
STEMPEL
100
AcDbCircle
 10
582.6851615059995
 20
701.839363381403
 30
0.0
 40
400.0
  0
LINE
  5
19B
330
1E
100
AcDbEntity
  8
STEMPEL
100
AcDbLine
 10
792.6851615059994
 20
1699.825397543679
 30
0.0
 11
715.6851615059995
 21
1699.825397543679
 31
0.0
  0
LINE
  5
19C
330
1E
100
AcDbEntity
  8
STEMPEL
100
AcDbLine
 10
918.3358738728387
 20
1702.825397543679
 30
0.0
 11
247.0344491391601
 21
1702.825397543679
 31
0.0
  0
LINE
  5
1A7
330
1E
100
AcDbEntity
  8
STEMPEL
100
AcDbLine
 10
792.6851615059995
 20
1699.825397543679
 30
0.0
 11
792.6851615059993
 21
1702.825397543679
 31
0.0
  0
LINE
  5
1A8
330
1E
100
AcDbEntity
  8
STEMPEL
100
AcDbLine
 10
372.6851615059995
 20
1699.825397543679
 30
0.0
 11
372.6851615059995
 21
1702.825397543679
 31
0.0
  0
LINE
  5
1A9
330
1E
100
AcDbEntity
  8
DECKEL
 62
     3
100
AcDbLine
 10
982.6851615059997
 20
1752.825397543679
 30
0.0
 11
787.6851615059996
 21
1752.825397543679
 31
0.0
  0
LINE
  5
1AA
330
1E
100
AcDbEntity
  8
DECKEL
 62
     3
100
AcDbLine
 10
982.6851615059997
 20
1755.825397543679
 30
0.0
 11
182.6851615059995
 21
1755.825397543679
 31
0.0
  0
LINE
  5
1AE
330
1E
100
AcDbEntity
  8
MITTEL
100
AcDbLine
 10
582.6851615059995
 20
1695.825397543679
 30
0.0
 11
582.6851615059995
 21
1760.825397543679
 31
0.0
  0
LINE
  5
1AF
330
1E
100
AcDbEntity
  8
DECKEL
 62
     3
100
AcDbLine
 10
982.6851615059995
 20
1752.825397543679
 30
0.0
 11
982.6851615059995
 21
1755.825397543679
 31
0.0
  0
LINE
  5
1B0
330
1E
100
AcDbEntity
  8
DECKEL
 62
     3
100
AcDbLine
 10
182.6851615059995
 20
1752.825397543679
 30
0.0
 11
182.6851615059995
 21
1755.825397543679
 31
0.0
  0
CIRCLE
  5
1C1
330
1E
100
AcDbEntity
  8
VERDECKT
100
AcDbCircle
 10
582.6851615059995
 20
701.839363381403
 30
0.0
 40
390.0
  0
CIRCLE
  5
1C5
330
1E
100
AcDbEntity
  8
VERDECKT
100
AcDbCircle
 10
582.6851615059995
 20
701.839363381403
 30
0.0
 40
387.0
  0
LINE
  5
1C7
330
1E
100
AcDbEntity
  8
VERDECKT
100
AcDbLine
 10
581.6851615059995
 20
792.3338383508728
 30
0.0
 11
581.6851615059995
 21
1088.838071389582
 31
0.0
  0
LINE
  5
1C8
330
1E
100
AcDbEntity
  8
VERDECKT
100
AcDbLine
 10
583.6851615059996
 20
792.3338383508728
 30
0.0
 11
583.6851615059995
 21
1088.838071389582
 31
0.0
  0
LINE
  5
1C9
330
1E
100
AcDbEntity
  8
VERDECKT
100
AcDbLine
 10
504.8146472803036
 20
747.9526262699225
 30
0.0
 11
248.0344491391599
 21
896.2047427892771
 31
0.0
  0
LINE
  5
1CA
330
1E
100
AcDbEntity
  8
VERDECKT
100
AcDbLine
 10
503.8146472803036
 20
746.2205754623535
 30
0.0
 11
247.03444913916
 21
894.4726919817084
 31
0.0
  0
LINE
  5
1CB
330
1E
100
AcDbEntity
  8
VERDECKT
100
AcDbLine
 10
503.8146472803034
 20
657.4581513004527
 30
0.0
 11
247.03444913916
 21
509.206034781098
 31
0.0
  0
LINE
  5
1CC
330
1E
100
AcDbEntity
  8
VERDECKT
100
AcDbLine
 10
504.8146472803035
 20
655.7261004928837
 30
0.0
 11
248.0344491391599
 21
507.4739839735291
 31
0.0
  0
LINE
  5
1CD
330
1E
100
AcDbEntity
  8
VERDECKT
100
AcDbLine
 10
581.6851615059992
 20
611.3448884119333
 30
0.0
 11
581.6851615059994
 21
314.8406553732239
 31
0.0
  0
LINE
  5
1CE
330
1E
100
AcDbEntity
  8
VERDECKT
100
AcDbLine
 10
583.6851615059994
 20
611.3448884119333
 30
0.0
 11
583.6851615059994
 21
314.8406553732239
 31
0.0
  0
LINE
  5
1CF
330
1E
100
AcDbEntity
  8
VERDECKT
100
AcDbLine
 10
660.5556757316951
 20
655.7261004928834
 30
0.0
 11
917.3358738728385
 21
507.4739839735286
 31
0.0
  0
LINE
  5
1D0
330
1E
100
AcDbEntity
  8
VERDECKT
100
AcDbLine
 10
661.5556757316952
 20
657.4581513004523
 30
0.0
 11
918.3358738728385
 21
509.2060347810975
 31
0.0
  0
LINE
  5
1D1
330
1E
100
AcDbEntity
  8
VERDECKT
100
AcDbLine
 10
661.5556757316953
 20
746.2205754623532
 30
0.0
 11
918.335873872839
 21
894.4726919817078
 31
0.0
  0
LINE
  5
1D2
330
1E
100
AcDbEntity
  8
VERDECKT
100
AcDbLine
 10
660.5556757316953
 20
747.9526262699221
 30
0.0
 11
917.335873872839
 21
896.2047427892766
 31
0.0
  0
LINE
  5
1D4
330
1E
100
AcDbEntity
  8
DECKEL
 62
     3
100
AcDbLine
 10
972.6851615059993
 20
1717.825397543679
 30
0.0
 11
972.6851615059995
 21
1752.825397543679
 31
0.0
  0
LINE
  5
1D5
330
1E
100
AcDbEntity
  8
DECKEL
 62
     3
100
AcDbLine
 10
969.6851615059992
 20
1717.825397543679
 30
0.0
 11
969.6851615059996
 21
1752.825397543679
 31
0.0
  0
LINE
  5
1DF
330
1E
100
AcDbEntity
  8
DECKEL
 62
     3
100
AcDbLine
 10
972.6851615059993
 20
1717.825397543679
 30
0.0
 11
918.335873872839
 21
1717.825397543679
 31
0.0
  0
LINE
  5
1E3
102
{ACAD_REACTORS
330
107F
102
}
330
1E
100
AcDbEntity
  8
STEMPEL
100
AcDbLine
 10
495.1851615059996
 20
1693.82539754368
 30
0.0
 11
495.1851615059995
 21
1696.825397543679
 31
0.0
  0
LINE
  5
1E4
102
{ACAD_REACTORS
330
107F
102
}
330
1E
100
AcDbEntity
  8
STEMPEL
100
AcDbLine
 10
670.1851615059998
 20
1693.82539754368
 30
0.0
 11
670.1851615059998
 21
1696.825397543679
 31
0.0
  0
LINE
  5
8DA
330
1E
100
AcDbEntity
  8
DECKEL
 62
     3
100
AcDbLine
 10
195.6851615059997
 20
1717.825397543679
 30
0.0
 11
195.6851615059995
 21
1752.825397543679
 31
0.0
  0
LINE
  5
8DB
330
1E
100
AcDbEntity
  8
DECKEL
 62
     3
100
AcDbLine
 10
192.6851615059997
 20
1717.825397543679
 30
0.0
 11
192.6851615059995
 21
1752.825397543679
 31
0.0
  0
LINE
  5
8E5
330
1E
100
AcDbEntity
  8
LEITBLECH
 62
     3
100
AcDbLine
 10
581.6851615059995
 20
1702.825397543679
 30
0.0
 11
581.6851615059992
 21
1752.825397543679
 31
0.0
  0
LINE
  5
8E6
330
1E
100
AcDbEntity
  8
LEITBLECH
 62
     3
100
AcDbLine
 10
583.6851615059995
 20
1702.825397543679
 30
0.0
 11
583.6851615059991
 21
1752.825397543679
 31
0.0
  0
LINE
  5
8EB
330
1E
100
AcDbEntity
  8
LEITBLECH
 62
     3
100
AcDbLine
 10
918.3358738728387
 20
1702.825397543679
 30
0.0
 11
918.335873872839
 21
1752.825397543679
 31
0.0
  0
LINE
  5
8EC
330
1E
100
AcDbEntity
  8
LEITBLECH
 62
     3
100
AcDbLine
 10
661.5556757316956
 20
1702.825397543679
 30
0.0
 11
661.5556757316959
 21
1752.825397543679
 31
0.0
  0
LINE
  5
8ED
330
1E
100
AcDbEntity
  8
LEITBLECH
 62
     3
100
AcDbLine
 10
660.5556757316951
 20
1702.825397543679
 30
0.0
 11
660.5556757316947
 21
1752.825397543679
 31
0.0
  0
LINE
  5
8EF
330
1E
100
AcDbEntity
  8
LEITBLECH
 62
     3
100
AcDbLine
 10
504.8146472803039
 20
1702.825397543679
 30
0.0
 11
504.8146472803038
 21
1752.825397543679
 31
0.0
  0
LINE
  5
8F0
330
1E
100
AcDbEntity
  8
LEITBLECH
 62
     3
100
AcDbLine
 10
503.8146472803034
 20
1702.825397543679
 30
0.0
 11
503.8146472803037
 21
1752.825397543679
 31
0.0
  0
LINE
  5
8F1
330
1E
100
AcDbEntity
  8
LEITBLECH
 62
     3
100
AcDbLine
 10
247.0344491391601
 20
1702.825397543679
 30
0.0
 11
247.0344491391601
 21
1752.825397543679
 31
0.0
  0
CIRCLE
  5
8FA
330
1E
100
AcDbEntity
  8
MITTEL
100
AcDbCircle
 10
582.6851615059995
 20
701.839363381403
 30
0.0
 40
127.0
  0
LINE
  5
8FC
330
1E
100
AcDbEntity
  8
MITTEL
100
AcDbLine
 10
638.2351615059994
 20
798.0547857418539
 30
0.0
 11
654.1351615059993
 21
825.5943935821992
 31
0.0
  0
LINE
  5
8FE
330
1E
100
AcDbEntity
  8
MITTEL
100
AcDbLine
 10
638.2351615059993
 20
605.623941020952
 30
0.0
 11
654.1351615059994
 21
578.0843331806068
 31
0.0
  0
LINE
  5
905
330
1E
100
AcDbEntity
  8
STEMPEL
100
AcDbLine
 10
447.6851615059995
 20
1699.825397543679
 30
0.0
 11
447.6851615059995
 21
1702.825397543679
 31
0.0
  0
LINE
  5
906
330
1E
100
AcDbEntity
  8
STEMPEL
100
AcDbLine
 10
463.6851615059994
 20
1699.825397543679
 30
0.0
 11
463.6851615059994
 21
1702.825397543679
 31
0.0
  0
LINE
  5
90A
330
1E
100
AcDbEntity
  8
MITTEL
100
AcDbLine
 10
527.1351615059995
 20
798.0547857418542
 30
0.0
 11
511.2351615059996
 21
825.5943935821994
 31
0.0
  0
LINE
  5
90C
330
1E
100
AcDbEntity
  8
MITTEL
100
AcDbLine
 10
527.1351615059995
 20
605.623941020952
 30
0.0
 11
511.2351615059996
 21
578.0843331806067
 31
0.0
  0
LINE
  5
90E
330
1E
100
AcDbEntity
  8
STEMPEL
100
AcDbLine
 10
701.6851615059997
 20
1699.825397543679
 30
0.0
 11
701.6851615059997
 21
1702.825397543679
 31
0.0
  0
LINE
  5
90F
330
1E
100
AcDbEntity
  8
STEMPEL
100
AcDbLine
 10
717.6851615059996
 20
1699.825397543679
 30
0.0
 11
717.6851615059996
 21
1702.825397543679
 31
0.0
  0
ARC
  5
911
330
1E
100
AcDbEntity
  8
MITTEL
100
AcDbCircle
 10
582.6851615059995
 20
701.839363381403
 30
0.0
 40
200.0
100
AcDbArc
 50
235.7018087462719
 51
244.298191253728
  0
LINE
  5
912
330
1E
100
AcDbEntity
  8
MITTEL
100
AcDbLine
 10
782.6851615059995
 20
1694.825397543679
 30
0.0
 11
782.6851615059994
 21
1780.425397543679
 31
0.0
  0
LINE
  5
913
330
1E
100
AcDbEntity
  8
MITTEL
100
AcDbLine
 10
382.6851615059995
 20
1694.825397543679
 30
0.0
 11
382.6851615059995
 21
1760.825397543679
 31
0.0
  0
LINE
  5
916
330
1E
100
AcDbEntity
  8
STEMPEL
100
AcDbLine
 10
777.6851615059995
 20
1702.825397543679
 30
0.0
 11
777.6851615059996
 21
1755.825397543679
 31
0.0
  0
LINE
  5
917
330
1E
100
AcDbEntity
  8
STEMPEL
100
AcDbLine
 10
787.6851615059995
 20
1702.825397543679
 30
0.0
 11
787.6851615059996
 21
1755.825397543679
 31
0.0
  0
LINE
  5
91D
330
1E
100
AcDbEntity
  8
HILF
100
AcDbLine
 10
786.1851615059995
 20
1702.825397543679
 30
0.0
 11
786.1851615059995
 21
1755.825397543679
 31
0.0
  0
LINE
  5
91E
330
1E
100
AcDbEntity
  8
HILF
100
AcDbLine
 10
779.1851615059995
 20
1702.825397543679
 30
0.0
 11
779.1851615059995
 21
1755.825397543679
 31
0.0
  0
LINE
  5
923
330
1E
100
AcDbEntity
  8
LEITBLECH
 62
     3
100
AcDbLine
 10
247.0344491391601
 20
1752.825397543679
 30
0.0
 11
504.814647280304
 21
1752.825397543679
 31
0.0
  0
LINE
  5
924
330
1E
100
AcDbEntity
  8
LEITBLECH
 62
     3
100
AcDbLine
 10
660.5556757316953
 20
1752.825397543679
 30
0.0
 11
777.6851615059995
 21
1752.825397543679
 31
0.0
  0
LINE
  5
925
330
1E
100
AcDbEntity
  8
STEMPEL
100
AcDbLine
 10
581.6851615059995
 20
1752.825397543679
 30
0.0
 11
583.6851615059993
 21
1752.825397543679
 31
0.0
  0
LINE
  5
926
330
1E
100
AcDbEntity
  8
MITTEL
100
AcDbLine
 10
490.1851615059995
 20
862.0540630815241
 30
0.0
 11
475.1851615059994
 21
888.0348251950573
 31
0.0
  0
LINE
  5
929
330
1E
100
AcDbEntity
  8
MITTEL
100
AcDbLine
 10
490.1851615059992
 20
541.6246636812817
 30
0.0
 11
475.1851615059993
 21
515.6439015677485
 31
0.0
  0
CIRCLE
  5
92A
330
1E
100
AcDbEntity
  8
STEMPEL
100
AcDbCircle
 10
782.6851615059995
 20
701.839363381403
 30
0.0
 40
7.65
  0
CIRCLE
  5
92C
330
1E
100
AcDbEntity
  8
STEMPEL
100
AcDbCircle
 10
782.6851615059995
 20
701.839363381403
 30
0.0
 40
10.0
  0
CIRCLE
  5
92D
330
1E
100
AcDbEntity
  8
STEMPEL
100
AcDbCircle
 10
482.6851615059995
 20
875.0444441382908
 30
0.0
 40
10.0
  0
CIRCLE
  5
92F
330
1E
100
AcDbEntity
  8
STEMPEL
100
AcDbCircle
 10
482.6851615059995
 20
875.0444441382908
 30
0.0
 40
7.65
  0
CIRCLE
  5
930
330
1E
100
AcDbEntity
  8
STEMPEL
100
AcDbCircle
 10
482.6851615059991
 20
528.6342826245152
 30
0.0
 40
10.0
  0
CIRCLE
  5
932
330
1E
100
AcDbEntity
  8
STEMPEL
100
AcDbCircle
 10
482.6851615059991
 20
528.6342826245152
 30
0.0
 40
7.65
  0
TEXT
  5
946
330
1E
100
AcDbEntity
  8
TEXT
100
AcDbText
 10
1263.252208920591
 20
1530.724604973319
 30
0.0
 40
10.0
  1
DIN EN1123-2
 50
90.0
 41
0.8
  7
GREEKS
 72
     1
 11
1263.252208920591
 21
1573.200795449509
 31
0.0
100
AcDbText
  0
LINE
  5
96F
330
1E
100
AcDbEntity
  8
STEMPEL
100
AcDbLine
 10
775.6851615059996
 20
1752.825397543679
 30
0.0
 11
775.6851615059996
 21
1755.825397543679
 31
0.0
  0
LINE
  5
970
330
1E
100
AcDbEntity
  8
STEMPEL
100
AcDbLine
 10
789.6851615059996
 20
1752.825397543679
 30
0.0
 11
789.6851615059996
 21
1755.825397543679
 31
0.0
  0
LINE
  5
971
330
1E
100
AcDbEntity
  8
LEITBLECH
 62
     3
100
AcDbLine
 10
787.6851615059995
 20
1752.825397543679
 30
0.0
 11
918.335873872839
 21
1752.825397543679
 31
0.0
  0
LINE
  5
972
330
1E
100
AcDbEntity
  8
DECKEL
 62
     3
100
AcDbLine
 10
777.6851615059996
 20
1752.825397543679
 30
0.0
 11
182.6851615059995
 21
1752.825397543679
 31
0.0
  0
HATCH
  5
97B
330
1E
100
AcDbEntity
  8
SCHRAFF
100
AcDbHatch
 10
0.0
 20
0.0
 30
0.0
210
0.0
220
0.0
230
1.0
  2
_USER
 70
     0
 71
     0
 91
        2
 92
        7
 72
     0
 73
     1
 93
        4
 10
972.6851615059997
 20
1752.825397543679
 10
969.6851615059996
 20
1752.825397543679
 10
969.6851615059991
 20
1717.825397543679
 10
972.6851615059993
 20
1717.825397543679
 97
        0
 92
        7
 72
     0
 73
     1
 93
        4
 10
195.6851615059995
 20
1752.825397543679
 10
192.6851615059995
 20
1752.825397543679
 10
192.6851615059997
 20
1717.825397543679
 10
195.6851615059997
 20
1717.825397543679
 97
        0
 75
     0
 76
     0
 52
45.0
 41
2.0
 77
     0
 78
     1
 53
45.0
 43
0.0
 44
247.7840593104993
 45
-1.414213562373094
 46
1.414213562373095
 79
     0
 47
0.9697966486168043
 98
        2
 10
971.4984613614342
 20
1735.522120895917
 10
194.2223439018844
 20
1740.371104289439
  0
HATCH
  5
98D
330
1E
100
AcDbEntity
  8
SCHRAFF
100
AcDbHatch
 10
0.0
 20
0.0
 30
0.0
210
0.0
220
0.0
230
1.0
  2
_USER
 70
     0
 71
     0
 91
        4
 92
        7
 72
     0
 73
     1
 93
        5
 10
789.6851615059997
 20
1755.825397543679
 10
789.6851615059996
 20
1752.825397543679
 10
918.335873872839
 20
1752.825397543679
 10
982.6851615059995
 20
1752.825397543679
 10
982.6851615059993
 20
1755.825397543679
 97
        0
 92
        7
 72
     0
 73
     1
 93
        4
 10
582.6851615059996
 20
1755.825397543679
 10
582.6851615059995
 20
1752.825397543679
 10
775.6851615059997
 20
1752.825397543679
 10
775.6851615059995
 20
1755.825397543679
 97
        0
 92
        7
 72
     0
 73
     1
 93
        4
 10
382.6851615059995
 20
1755.825397543679
 10
382.6851615059995
 20
1752.825397543679
 10
582.6851615059996
 20
1752.825397543679
 10
582.6851615059995
 20
1755.825397543679
 97
        0
 92
        7
 72
     0
 73
     1
 93
        4
 10
382.6851615059995
 20
1752.825397543679
 10
382.6851615059995
 20
1755.825397543679
 10
182.6851615059996
 20
1755.825397543679
 10
182.6851615059995
 20
1752.825397543679
 97
        0
 75
     0
 76
     0
 52
135.0
 41
2.0
 77
     0
 78
     1
 53
135.0
 43
0.0
 44
247.7840593104993
 45
-1.414213562373095
 46
-1.414213562373094
 79
     0
 47
0.9385128887238225
 98
        4
 10
946.3859099152832
 20
1754.358856928656
 10
737.9102588236055
 20
1754.358856928656
 10
547.2771177884887
 20
1754.358856928656
 10
325.6543479627871
 20
1753.420344332451
  0
LINE
  5
98E
330
1E
100
AcDbEntity
  8
DECKEL
 62
     3
100
AcDbLine
 10
247.0344491391601
 20
1717.825397543679
 30
0.0
 11
192.6851615059997
 21
1717.825397543679
 31
0.0
  0
LINE
  5
999
330
1E
100
AcDbEntity
  8
STEMPEL
 62
     3
100
AcDbLine
 10
792.6851615059996
 20
1757.825397543679
 30
0.0
 11
772.6851615059995
 21
1757.825397543679
 31
0.0
  0
LINE
  5
99A
330
1E
100
AcDbEntity
  8
STEMPEL
100
AcDbLine
 10
772.6851615059995
 20
1755.825397543679
 30
0.0
 11
772.6851615059993
 21
1757.825397543679
 31
0.0
  0
LINE
  5
99B
330
1E
100
AcDbEntity
  8
STEMPEL
100
AcDbLine
 10
792.6851615059994
 20
1755.825397543679
 30
0.0
 11
792.6851615059996
 21
1757.825397543679
 31
0.0
  0
ARC
  5
9BF
330
1E
100
AcDbEntity
  8
STEMPEL
100
AcDbCircle
 10
775.5962133771995
 20
1761.977007378584
 30
0.0
 40
3.848390227184345
100
AcDbArc
 50
52.11936428281847
 51
121.4691945240804
  0
ARC
  5
9C0
330
1E
100
AcDbEntity
  8
STEMPEL
100
AcDbCircle
 10
775.5962133771995
 20
1761.673787708775
 30
0.0
 40
3.848390227184345
100
AcDbArc
 50
238.5308054759196
 51
307.8806357171815
  0
LINE
  5
9C1
330
1E
100
AcDbEntity
  8
STEMPEL
100
AcDbLine
 10
775.5969046675873
 20
1765.825397543679
 30
0.0
 11
789.7734183443995
 21
1765.825397543679
 31
0.0
  0
LINE
  5
9C2
330
1E
100
AcDbEntity
  8
STEMPEL
100
AcDbLine
 10
775.5969046675873
 20
1757.825397543679
 30
0.0
 11
789.7734183443995
 21
1757.825397543679
 31
0.0
  0
LINE
  5
9C3
330
1E
100
AcDbEntity
  8
STEMPEL
100
AcDbLine
 10
773.2332306675995
 20
1765.055016084285
 30
0.0
 11
773.2332306675997
 21
1758.595779003073
 31
0.0
  0
LINE
  5
9C4
330
1E
100
AcDbEntity
  8
STEMPEL
100
AcDbLine
 10
773.2332306675995
 20
1758.595779003073
 30
0.0
 11
773.7581021602188
 21
1758.292744305519
 31
0.0
  0
LINE
  5
9C7
330
1E
100
AcDbEntity
  8
STEMPEL
100
AcDbLine
 10
773.2332306675995
 20
1765.055016084285
 30
0.0
 11
773.7581021602188
 21
1765.358050781839
 31
0.0
  0
ARC
  5
9C8
330
1E
100
AcDbEntity
  8
STEMPEL
100
AcDbCircle
 10
782.6851615059995
 20
1751.648167543679
 30
0.0
 40
14.17723
100
AcDbArc
 50
70.52782738138624
 51
109.4721726186137
  0
ARC
  5
9C9
330
1E
100
AcDbEntity
  8
STEMPEL
100
AcDbCircle
 10
782.6851615059995
 20
1772.002627543679
 30
0.0
 40
14.17723
100
AcDbArc
 50
250.5278273813862
 51
289.4721726186137
  0
LINE
  5
9CA
330
1E
100
AcDbEntity
  8
STEMPEL
100
AcDbLine
 10
777.9591960867995
 20
1765.014509650981
 30
0.0
 11
777.9591960867995
 21
1758.636285436377
 31
0.0
  0
LINE
  5
9CD
330
1E
100
AcDbEntity
  8
STEMPEL
100
AcDbLine
 10
792.1370923443995
 20
1765.055016084285
 30
0.0
 11
792.1370923443996
 21
1758.595779003073
 31
0.0
  0
LINE
  5
9CE
330
1E
100
AcDbEntity
  8
STEMPEL
100
AcDbLine
 10
787.4111269251997
 20
1765.014509650981
 30
0.0
 11
787.4111269251997
 21
1758.636285436377
 31
0.0
  0
ARC
  5
9CF
330
1E
100
AcDbEntity
  8
STEMPEL
100
AcDbCircle
 10
789.7741096347995
 20
1761.673787708775
 30
0.0
 40
3.848390227184345
100
AcDbArc
 50
232.1193642828185
 51
301.4691945240804
  0
LINE
  5
9D1
330
1E
100
AcDbEntity
  8
STEMPEL
100
AcDbLine
 10
789.7673314616961
 20
1757.825397543679
 30
0.0
 11
789.7734183443859
 21
1757.825397543679
 31
0.0
  0
LINE
  5
9D2
330
1E
100
AcDbEntity
  8
STEMPEL
100
AcDbLine
 10
792.1370923443995
 20
1758.595779003073
 30
0.0
 11
791.6122208517801
 21
1758.292744305519
 31
0.0
  0
ARC
  5
9D6
330
1E
100
AcDbEntity
  8
STEMPEL
100
AcDbCircle
 10
789.7741096347995
 20
1761.977007378584
 30
0.0
 40
3.848390227184345
100
AcDbArc
 50
58.53080547591956
 51
127.8806357171815
  0
LINE
  5
9D8
330
1E
100
AcDbEntity
  8
STEMPEL
100
AcDbLine
 10
789.7673314616961
 20
1765.825397543679
 30
0.0
 11
789.7734183443859
 21
1765.825397543679
 31
0.0
  0
LINE
  5
9D9
330
1E
100
AcDbEntity
  8
STEMPEL
100
AcDbLine
 10
792.1370923443995
 20
1765.055016084285
 30
0.0
 11
791.6122208517801
 21
1765.358050781839
 31
0.0
  0
ARC
  5
9F0
330
1E
100
AcDbEntity
  8
STEMPEL
100
AcDbCircle
 10
782.6851615059996
 20
1767.775397543679
 30
0.0
 40
7.65
100
AcDbArc
 50
0.0
 51
180.0
  0
LINE
  5
9F1
330
1E
100
AcDbEntity
  8
STEMPEL
100
AcDbLine
 10
790.3351615059996
 20
1767.775397543679
 30
0.0
 11
790.3351615059996
 21
1765.784280436628
 31
0.0
  0
LINE
  5
9F2
330
1E
100
AcDbEntity
  8
STEMPEL
100
AcDbLine
 10
775.0351615059996
 20
1767.775397543679
 30
0.0
 11
775.0351615059996
 21
1765.784280436628
 31
0.0
  0
LINE
  5
A09
330
1E
100
AcDbEntity
  8
STEMPEL
100
AcDbLine
 10
475.0351615059996
 20
1767.775397543679
 30
0.0
 11
475.0351615059996
 21
1765.784280436628
 31
0.0
  0
LINE
  5
A0A
330
1E
100
AcDbEntity
  8
STEMPEL
100
AcDbLine
 10
490.3351615059996
 20
1767.775397543679
 30
0.0
 11
490.3351615059996
 21
1765.784280436627
 31
0.0
  0
ARC
  5
A0B
330
1E
100
AcDbEntity
  8
STEMPEL
100
AcDbCircle
 10
482.6851615059996
 20
1767.775397543679
 30
0.0
 40
7.65
100
AcDbArc
 50
0.0
 51
180.0
  0
LINE
  5
A0C
330
1E
100
AcDbEntity
  8
STEMPEL
100
AcDbLine
 10
492.1370923443995
 20
1765.055016084285
 30
0.0
 11
491.6122208517801
 21
1765.358050781838
 31
0.0
  0
LINE
  5
A0D
330
1E
100
AcDbEntity
  8
STEMPEL
100
AcDbLine
 10
489.7673314616961
 20
1765.825397543679
 30
0.0
 11
489.7734183443859
 21
1765.825397543679
 31
0.0
  0
ARC
  5
A0E
330
1E
100
AcDbEntity
  8
STEMPEL
100
AcDbCircle
 10
489.7741096347995
 20
1761.977007378583
 30
0.0
 40
3.848390227184345
100
AcDbArc
 50
58.53080547591956
 51
127.8806357171815
  0
LINE
  5
A0F
330
1E
100
AcDbEntity
  8
STEMPEL
100
AcDbLine
 10
492.1370923443995
 20
1758.595779003073
 30
0.0
 11
491.6122208517801
 21
1758.292744305519
 31
0.0
  0
LINE
  5
A10
330
1E
100
AcDbEntity
  8
STEMPEL
100
AcDbLine
 10
489.7673314616961
 20
1757.825397543679
 30
0.0
 11
489.7734183443859
 21
1757.825397543679
 31
0.0
  0
ARC
  5
A11
330
1E
100
AcDbEntity
  8
STEMPEL
100
AcDbCircle
 10
489.7741096347995
 20
1761.673787708774
 30
0.0
 40
3.848390227184345
100
AcDbArc
 50
232.1193642828185
 51
301.4691945240804
  0
LINE
  5
A12
330
1E
100
AcDbEntity
  8
STEMPEL
100
AcDbLine
 10
487.4111269251996
 20
1765.014509650981
 30
0.0
 11
487.4111269251996
 21
1758.636285436377
 31
0.0
  0
LINE
  5
A13
330
1E
100
AcDbEntity
  8
STEMPEL
100
AcDbLine
 10
492.1370923443995
 20
1765.055016084285
 30
0.0
 11
492.1370923443996
 21
1758.595779003073
 31
0.0
  0
LINE
  5
A14
330
1E
100
AcDbEntity
  8
STEMPEL
100
AcDbLine
 10
477.9591960867995
 20
1765.014509650981
 30
0.0
 11
477.9591960867995
 21
1758.636285436377
 31
0.0
  0
ARC
  5
A15
330
1E
100
AcDbEntity
  8
STEMPEL
100
AcDbCircle
 10
482.6851615059995
 20
1772.002627543679
 30
0.0
 40
14.17723
100
AcDbArc
 50
250.5278273813862
 51
289.4721726186137
  0
ARC
  5
A16
330
1E
100
AcDbEntity
  8
STEMPEL
100
AcDbCircle
 10
482.6851615059995
 20
1751.648167543679
 30
0.0
 40
14.17723
100
AcDbArc
 50
70.52782738138624
 51
109.4721726186137
  0
LINE
  5
A17
330
1E
100
AcDbEntity
  8
STEMPEL
100
AcDbLine
 10
473.2332306675995
 20
1765.055016084285
 30
0.0
 11
473.7581021602188
 21
1765.358050781838
 31
0.0
  0
LINE
  5
A18
330
1E
100
AcDbEntity
  8
STEMPEL
100
AcDbLine
 10
473.2332306675995
 20
1758.595779003073
 30
0.0
 11
473.7581021602188
 21
1758.292744305519
 31
0.0
  0
LINE
  5
A19
330
1E
100
AcDbEntity
  8
STEMPEL
100
AcDbLine
 10
473.2332306675995
 20
1765.055016084285
 30
0.0
 11
473.2332306675997
 21
1758.595779003073
 31
0.0
  0
LINE
  5
A1A
330
1E
100
AcDbEntity
  8
STEMPEL
100
AcDbLine
 10
475.5969046675873
 20
1757.825397543679
 30
0.0
 11
489.7734183443995
 21
1757.825397543679
 31
0.0
  0
LINE
  5
A1B
330
1E
100
AcDbEntity
  8
STEMPEL
100
AcDbLine
 10
475.5969046675873
 20
1765.825397543679
 30
0.0
 11
489.7734183443995
 21
1765.825397543679
 31
0.0
  0
ARC
  5
A1C
330
1E
100
AcDbEntity
  8
STEMPEL
100
AcDbCircle
 10
475.5962133771995
 20
1761.673787708774
 30
0.0
 40
3.848390227184345
100
AcDbArc
 50
238.5308054759196
 51
307.8806357171815
  0
ARC
  5
A1D
330
1E
100
AcDbEntity
  8
STEMPEL
100
AcDbCircle
 10
475.5962133771995
 20
1761.977007378583
 30
0.0
 40
3.848390227184345
100
AcDbArc
 50
52.11936428281847
 51
121.4691945240804
  0
LINE
  5
A1E
330
1E
100
AcDbEntity
  8
STEMPEL
100
AcDbLine
 10
492.6851615059994
 20
1755.825397543679
 30
0.0
 11
492.6851615059996
 21
1757.825397543679
 31
0.0
  0
LINE
  5
A1F
330
1E
100
AcDbEntity
  8
STEMPEL
100
AcDbLine
 10
472.6851615059995
 20
1755.825397543679
 30
0.0
 11
472.6851615059993
 21
1757.825397543679
 31
0.0
  0
LINE
  5
A20
330
1E
100
AcDbEntity
  8
STEMPEL
 62
     3
100
AcDbLine
 10
492.6851615059996
 20
1757.825397543679
 30
0.0
 11
472.6851615059995
 21
1757.825397543679
 31
0.0
  0
LINE
  5
A21
330
1E
100
AcDbEntity
  8
MITTEL
100
AcDbLine
 10
482.6851615059995
 20
1695.825397543679
 30
0.0
 11
482.6851615059994
 21
1780.425397543679
 31
0.0
  0
INSERT
  5
A27
330
1E
100
AcDbEntity
  8
VOLL
100
AcDbBlockReference
  2
10DI931D
 10
782.6851615059995
 20
701.839363381403
 30
0.0
  0
INSERT
  5
A2D
330
1E
100
AcDbEntity
  8
VOLL
100
AcDbBlockReference
  2
10DI931D
 10
482.6851615059993
 20
875.0444441382907
 30
0.0
  0
INSERT
  5
A33
330
1E
100
AcDbEntity
  8
VOLL
100
AcDbBlockReference
  2
10DI931D
 10
482.6851615059991
 20
528.6342826245152
 30
0.0
  0
ARC
  5
A37
330
1E
100
AcDbEntity
  8
MITTEL
100
AcDbCircle
 10
582.6851615059995
 20
701.839363381403
 30
0.0
 40
200.0
100
AcDbArc
 50
355.701808746272
 51
4.298191253728037
  0
ARC
  5
A38
330
1E
100
AcDbEntity
  8
MITTEL
100
AcDbCircle
 10
582.6851615059995
 20
701.839363381403
 30
0.0
 40
200.0
100
AcDbArc
 50
115.7018087462719
 51
124.298191253728
  0
DIMENSION
  5
A3A
330
1E
100
AcDbEntity
  8
BEM
100
AcDbDimension
  2
*D3
 10
160.3167774528729
 20
1717.825397543679
 30
0.0
 11
144.0667774528726
 21
1736.825397543679
 31
0.0
 70
    32
 71
     5
 42
38.0
  3
Standard
100
AcDbAlignedDimension
 13
182.6851615059995
 23
1755.825397543679
 33
0.0
 14
192.6851615059997
 24
1717.825397543679
 34
0.0
 50
90.0
100
AcDbRotatedDimension
1001
ACAD
1000
DSTYLE
1002
{
1070
    40
1040
5.0
1070
    41
1040
3.5
1070
    42
1040
1.0
1070
    43
1040
7.0
1070
    44
1040
1.0
1070
    73
1070
     0
1070
    74
1070
     0
1070
    77
1070
     1
1070
    78
1070
     8
1070
    79
1070
     2
1070
   140
1040
3.5
1070
   141
1040
1.5
1070
   146
1040
0.5142857142857144
1070
   147
1040
1.5
1070
   172
1070
     1
1070
   178
1070
     1
1070
   179
1070
     2
1070
   271
1070
     2
1070
   272
1070
     2
1070
   284
1070
     8
1070
   285
1070
     8
1070
   286
1070
     8
1002
}
  0
DIMENSION
  5
A49
330
1E
100
AcDbEntity
  8
BEM
100
AcDbDimension
  2
*D4
 10
121.455332249644
 20
1755.825397543679
 30
0.0
 11
105.2053322496437
 21
1727.825397543679
 31
0.0
 70
    32
 71
     5
 42
56.0
  3
Standard
100
AcDbAlignedDimension
 13
372.6851615059995
 23
1699.825397543679
 33
0.0
 14
182.6851615059995
 24
1755.825397543679
 34
0.0
 50
90.0
100
AcDbRotatedDimension
1001
ACAD
1000
DSTYLE
1002
{
1070
    40
1040
5.0
1070
    41
1040
3.5
1070
    42
1040
1.0
1070
    43
1040
7.0
1070
    44
1040
1.0
1070
    73
1070
     0
1070
    74
1070
     0
1070
    77
1070
     1
1070
    78
1070
     8
1070
    79
1070
     2
1070
   140
1040
3.5
1070
   141
1040
1.5
1070
   146
1040
0.5142857142857144
1070
   147
1040
1.5
1070
   172
1070
     1
1070
   178
1070
     1
1070
   179
1070
     2
1070
   271
1070
     2
1070
   272
1070
     2
1070
   284
1070
     8
1070
   285
1070
     8
1070
   286
1070
     8
1002
}
  0
DIMENSION
  5
A56
330
1E
100
AcDbEntity
  8
BEM
100
AcDbDimension
  2
*D5
 10
982.6851615059997
 20
1798.773980609194
 30
0.0
 11
582.6851615059995
 21
1815.023980609194
 31
0.0
 70
    32
  1
%%c<>
 71
     5
 42
800.0000000000001
  3
Standard
100
AcDbAlignedDimension
 13
182.6851615059995
 23
1755.825397543679
 33
0.0
 14
982.6851615059997
 24
1755.825397543679
 34
0.0
100
AcDbRotatedDimension
1001
ACAD
1000
DSTYLE
1002
{
1070
    40
1040
5.0
1070
    41
1040
3.5
1070
    42
1040
1.0
1070
    43
1040
7.0
1070
    44
1040
1.0
1070
    73
1070
     0
1070
    74
1070
     0
1070
    77
1070
     1
1070
    78
1070
     8
1070
    79
1070
     2
1070
   140
1040
3.5
1070
   141
1040
1.5
1070
   146
1040
0.5142857142857144
1070
   147
1040
1.5
1070
   172
1070
     1
1070
   178
1070
     1
1070
   179
1070
     2
1070
   271
1070
     2
1070
   272
1070
     2
1070
   284
1070
     8
1070
   285
1070
     8
1070
   286
1070
     8
1002
}
  0
LINE
  5
AB7
330
1E
100
AcDbEntity
  8
TEXT
 62
     2
100
AcDbLine
 10
301.2226619152523
 20
1881.078910397883
 30
0.0
 11
572.9537762300038
 21
1881.078910397883
 31
0.0
  0
TEXT
  5
AB8
330
1E
100
AcDbEntity
  8
TEXT
 62
     1
100
AcDbText
 10
301.8861047593124
 20
1889.418531100094
 30
0.0
 40
17.5
  1
Drainjet Siebkorb
 41
0.8
  7
GREEKS
100
AcDbText
  0
TEXT
  5
AB9
330
1E
100
AcDbEntity
  8
TEXT
 62
     1
100
AcDbText
 10
301.8861047593124
 20
1855.136133846851
 30
0.0
 40
17.5
  1
EDV-Art.Nr. 60072.000X
 41
0.8
  7
GREEKS
100
AcDbText
  0
TEXT
  5
ABA
330
1E
100
AcDbEntity
  8
TEXT
 62
     1
100
AcDbText
 10
933.7018298284567
 20
1613.652188313692
 30
0.0
 40
17.5
  1
EDV-Art.Nr. 60071.150X
 41
0.8
  7
GREEKS
100
AcDbText
  0
TEXT
  5
ABB
330
1E
100
AcDbEntity
  8
TEXT
 62
     1
100
AcDbText
 10
933.7018298284567
 20
1647.934585566936
 30
0.0
 40
17.5
  1
Losflansch %%C800
 41
0.8
  7
GREEKS
100
AcDbText
  0
LINE
  5
ABC
330
1E
100
AcDbEntity
  8
TEXT
 62
     2
100
AcDbLine
 10
921.248557393671
 20
1639.594964864725
 30
0.0
 11
1196.12666620953
 21
1639.594964864725
 31
0.0
  0
LINE
  5
ABD
330
1E
100
AcDbEntity
  8
TEXT
 62
     2
100
AcDbLine
 10
787.0967618399536
 20
1701.204773287164
 30
0.0
 11
921.248557393671
 21
1639.594964864725
 31
0.0
  0
LINE
  5
B13
330
1E
100
AcDbEntity
  8
MITTEL
100
AcDbLine
 10
372.6851615059995
 20
1694.825397543679
 30
0.0
 11
372.6851615059995
 21
1760.825397543679
 31
0.0
  0
CIRCLE
  5
B4B
330
1E
100
AcDbEntity
  8
VERDECKT
100
AcDbCircle
 10
582.6851615059995
 20
701.839363381403
 30
0.0
 40
210.0
  0
LINE
  5
B55
330
1E
100
AcDbEntity
  8
VERDECKT
100
AcDbLine
 10
563.6851615059993
 20
611.3448884119332
 30
0.0
 11
563.6851615059994
 21
314.8406553732239
 31
0.0
  0
LINE
  5
B56
330
1E
100
AcDbEntity
  8
VERDECKT
100
AcDbLine
 10
563.6851615059994
 20
314.8406553732239
 30
0.0
 11
583.6851615059994
 21
314.8406553732239
 31
0.0
  0
LINE
  5
B57
330
1E
100
AcDbEntity
  8
VERDECKT
100
AcDbLine
 10
908.3358738728389
 20
491.885526705409
 30
0.0
 11
918.3358738728388
 21
509.2060347810977
 31
0.0
  0
LINE
  5
B58
330
1E
100
AcDbEntity
  8
VERDECKT
100
AcDbLine
 10
651.5556757316951
 20
640.1376432247636
 30
0.0
 11
908.3358738728389
 21
491.885526705409
 31
0.0
  0
LINE
  5
B59
330
1E
100
AcDbEntity
  8
VERDECKT
100
AcDbLine
 10
661.5556757316952
 20
657.4581513004525
 30
0.0
 11
651.5556757316951
 21
640.1376432247636
 31
0.0
  0
LINE
  5
B5A
330
1E
100
AcDbEntity
  8
VERDECKT
100
AcDbLine
 10
927.335873872839
 20
878.8842347135881
 30
0.0
 11
917.335873872839
 21
896.2047427892768
 31
0.0
  0
LINE
  5
B5B
330
1E
100
AcDbEntity
  8
VERDECKT
100
AcDbLine
 10
670.5556757316955
 20
730.6321181942335
 30
0.0
 11
927.335873872839
 21
878.8842347135881
 31
0.0
  0
LINE
  5
B5C
330
1E
100
AcDbEntity
  8
VERDECKT
100
AcDbLine
 10
660.5556757316951
 20
747.9526262699221
 30
0.0
 11
670.5556757316955
 21
730.6321181942335
 31
0.0
  0
LINE
  5
B5D
330
1E
100
AcDbEntity
  8
VERDECKT
100
AcDbLine
 10
601.6851615059996
 20
1088.838071389582
 30
0.0
 11
581.6851615059996
 21
1088.838071389582
 31
0.0
  0
LINE
  5
B5E
330
1E
100
AcDbEntity
  8
VERDECKT
100
AcDbLine
 10
601.6851615059996
 20
792.3338383508729
 30
0.0
 11
601.6851615059996
 21
1088.838071389582
 31
0.0
  0
LINE
  5
B5F
330
1E
100
AcDbEntity
  8
VERDECKT
100
AcDbLine
 10
581.6851615059995
 20
792.3338383508727
 30
0.0
 11
601.6851615059996
 21
792.3338383508729
 31
0.0
  0
LINE
  5
B60
330
1E
100
AcDbEntity
  8
VERDECKT
100
AcDbLine
 10
257.0344491391601
 20
911.793200057397
 30
0.0
 11
247.03444913916
 21
894.4726919817084
 31
0.0
  0
LINE
  5
B61
330
1E
100
AcDbEntity
  8
VERDECKT
100
AcDbLine
 10
513.8146472803035
 20
763.5410835380423
 30
0.0
 11
257.0344491391601
 21
911.793200057397
 31
0.0
  0
LINE
  5
B62
330
1E
100
AcDbEntity
  8
VERDECKT
100
AcDbLine
 10
503.8146472803036
 20
746.2205754623532
 30
0.0
 11
513.8146472803035
 21
763.5410835380423
 31
0.0
  0
LINE
  5
B63
330
1E
100
AcDbEntity
  8
VERDECKT
100
AcDbLine
 10
238.0344491391598
 20
524.7944920492179
 30
0.0
 11
248.0344491391599
 21
507.4739839735292
 31
0.0
  0
LINE
  5
B64
330
1E
100
AcDbEntity
  8
VERDECKT
100
AcDbLine
 10
494.8146472803033
 20
673.0466085685725
 30
0.0
 11
238.0344491391598
 21
524.7944920492179
 31
0.0
  0
LINE
  5
B65
330
1E
100
AcDbEntity
  8
VERDECKT
100
AcDbLine
 10
504.8146472803036
 20
655.7261004928838
 30
0.0
 11
494.8146472803033
 21
673.0466085685725
 31
0.0
  0
LINE
  5
B66
330
1E
100
AcDbEntity
  8
VERDECKT
100
AcDbLine
 10
563.6851615059993
 20
611.3448884119332
 30
0.0
 11
583.6851615059994
 21
611.3448884119333
 31
0.0
  0
CIRCLE
  5
B6C
330
1E
100
AcDbEntity
  8
VERDECKT
100
AcDbCircle
 10
582.6851615059995
 20
701.839363381403
 30
0.0
 40
87.5
  0
HATCH
  5
C7C
330
1E
100
AcDbEntity
  8
SCHRAFF
100
AcDbHatch
 10
0.0
 20
0.0
 30
0.0
210
0.0
220
0.0
230
1.0
  2
_USER
 70
     0
 71
     1
 91
        2
 92
        7
 72
     1
 73
     1
 93
        3
 10
492.5291290727344
 20
1682.937128970021
 42
-0.0357599562310597
 10
493.580238178293
 20
1687.825397543679
 42
0.0
 10
488.5802381782929
 20
1687.825397543679
 42
0.3534540684175097
 97
        3
330
C9B
330
C7D
330
CA7
 92
        7
 72
     1
 73
     1
 93
        3
 10
671.7900848337063
 20
1687.825397543679
 42
-0.0357599562310595
 10
672.8411939392647
 20
1682.937128970021
 42
0.3534540684175173
 10
676.7900848337063
 20
1687.825397543679
 42
0.0
 97
        3
330
C9B
330
CB5
330
C7E
 75
     0
 76
     0
 52
0.0
 41
0.1
 77
     0
 78
     1
 53
0.0
 43
338.1552901108727
 44
990.8047003988206
 45
0.0
 46
0.1
 79
     0
 47
0.3123162083749499
 98
        2
 10
490.8540764928722
 20
1685.031722550687
 10
674.3027751741707
 20
1686.280986798292
  0
ARC
  5
C7D
102
{ACAD_REACTORS
330
C7C
102
}
330
1E
100
AcDbEntity
  8
SCHRAFF
100
AcDbCircle
 10
493.5802381782929
 20
1687.825397543679
 30
0.0
 40
5.0
100
AcDbArc
 50
180.0
 51
257.8646481589236
  0
ARC
  5
C7E
102
{ACAD_REACTORS
330
C7C
102
}
330
1E
100
AcDbEntity
  8
SCHRAFF
100
AcDbCircle
 10
671.7900848337063
 20
1687.825397543679
 30
0.0
 40
5.0
100
AcDbArc
 50
282.1353518410764
 51
0.0
  0
HATCH
  5
C7F
330
1E
100
AcDbEntity
  8
SCHRAFF
100
AcDbHatch
 10
0.0
 20
0.0
 30
0.0
210
0.0
220
0.0
230
1.0
  2
_USER
 70
     0
 71
     0
 91
        2
 92
        7
 72
     0
 73
     1
 93
        5
 10
747.6851615059996
 20
1687.825397543679
 10
747.6851615059996
 20
1691.825397543679
 10
745.6851615059998
 20
1693.825397543679
 10
668.1851615059996
 20
1693.825397543679
 10
668.1851615059996
 20
1687.825397543679
 97
        0
 92
        7
 72
     0
 73
     1
 93
        5
 10
497.1851615059998
 20
1687.825397543679
 10
497.1851615059997
 20
1693.82539754368
 10
419.6851615059996
 20
1693.825397543679
 10
417.6851615059996
 20
1691.825397543679
 10
417.6851615059996
 20
1687.825397543679
 97
        0
 75
     0
 76
     0
 52
135.0
 41
5.0
 77
     0
 78
     1
 53
135.0
 43
338.1552901108727
 44
990.8047003988206
 45
-3.535533905932737
 46
-3.535533905932737
 79
     0
 47
0.6407199638404306
 98
        2
 10
685.6987461445757
 20
1690.69475789298
 10
481.1763178982229
 20
1690.054036501022
  0
HATCH
  5
C80
330
1E
100
AcDbEntity
  8
SCHRAFF
100
AcDbHatch
 10
0.0
 20
0.0
 30
0.0
210
0.0
220
0.0
230
1.0
  2
_USER
 70
     0
 71
     1
 91
        2
 92
        7
 72
     1
 73
     1
 93
       20
 10
670.6851615059996
 20
1661.875907621947
 42
-0.1211241773284917
 10
667.0059324833195
 20
1646.799870201349
 42
0.1206909349745589
 10
664.6851615059996
 20
1637.325397543679
 42
0.0
 10
664.6851615059996
 20
1622.266369051746
 42
-0.1528962216020656
 10
661.9173043631416
 20
1613.42654222848
 42
0.1528962216020071
 10
659.6851615059996
 20
1606.297649629075
 42
0.0
 10
659.6851615059996
 20
1430.934549900949
 42
0.0
 10
658.1883046322006
 20
1413.825397543679
 42
0.0
 10
660.6978542260591
 20
1413.825397543679
 42
0.0
 10
662.1851615059996
 20
1430.82539754368
 42
0.0
 10
662.1851615059996
 20
1606.297649629075
 42
-0.1528962216020179
 10
663.9708757917134
 20
1612.0007637086
 42
0.1528962216020501
 10
667.1851615059996
 20
1622.266369051746
 42
0.0
 10
667.1851615059996
 20
1637.325397543679
 42
-0.1206909349745746
 10
669.2229116324273
 20
1645.644446706513
 42
0.121108416987073
 10
673.1851615059996
 20
1661.878003072856
 42
0.0
 10
673.1851615059996
 20
1678.042293325745
 42
0.0709414746593055
 10
671.7900848337063
 20
1687.825397543679
 42
0.0
 10
669.1777553287348
 20
1687.825397543679
 42
-0.076589383049796
 10
670.6851615059996
 20
1678.042293325745
 42
0.0
 97
       20
330
CB5
330
C9B
330
CB4
330
CBC
330
CB6
330
CB8
330
CB9
330
CB0
330
CB2
330
C96
330
C99
330
C92
330
C98
330
C97
330
CB3
330
CB1
330
CBA
330
CBB
330
CB7
330
CBD
 92
        7
 72
     1
 73
     1
 93
       20
 10
492.1851615059996
 20
1661.878003072856
 42
0.1211084169870769
 10
496.1474113795721
 20
1645.644446706512
 42
-0.1206909349745675
 10
498.1851615059996
 20
1637.325397543679
 42
0.0
 10
498.1851615059996
 20
1622.266369051746
 42
0.1528962216020382
 10
501.3994472202853
 20
1612.0007637086
 42
-0.1528962216020394
 10
503.1851615059998
 20
1606.297649629075
 42
0.0
 10
503.1851615059998
 20
1430.825397543678
 42
0.0
 10
504.6724687859405
 20
1413.825397543679
 42
0.0
 10
507.1820183797989
 20
1413.825397543679
 42
0.0
 10
505.6851615059997
 20
1430.93454990095
 42
0.0
 10
505.6851615059997
 20
1606.297649629075
 42
0.1528962216020405
 10
503.4530186488568
 20
1613.426542228481
 42
-0.1528962216020409
 10
500.6851615059996
 20
1622.266369051746
 42
0.0
 10
500.6851615059996
 20
1637.325397543679
 42
0.1206909349745683
 10
498.3643905286794
 20
1646.79987020135
 42
-0.1211241773288817
 10
494.6851615059996
 20
1661.875907621998
 42
0.0
 10
494.6851615059996
 20
1678.042293325745
 42
-0.076589383049796
 10
496.1925676832644
 20
1687.825397543679
 42
0.0
 10
493.5802381782929
 20
1687.825397543679
 42
0.0709414746593055
 10
492.1851615059996
 20
1678.042293325745
 42
0.0
 97
       20
330
CA6
330
C9B
330
CA7
330
CAC
330
CAA
330
CA9
330
CAE
330
CA3
330
CA5
330
C8D
330
C91
330
C92
330
C90
330
C8E
330
CA4
330
CA2
330
CAD
330
CAF
330
CA8
330
CAB
 75
     0
 76
     0
 52
45.0
 41
2.0
 77
     0
 78
     1
 53
45.0
 43
338.1552901108727
 44
990.8047003988206
 45
-1.414213562373094
 46
1.414213562373095
 79
     0
 47
0.6407199638404306
 98
        2
 10
671.5937528902546
 20
1669.550999310025
 10
493.3579033995539
 20
1670.191718643215
  0
LINE
  5
C8D
102
{ACAD_REACTORS
330
C80
102
}
330
1E
100
AcDbEntity
  8
STEMPEL
  6
Continuous
100
AcDbLine
 10
503.1851615059998
 20
1606.297649629075
 30
0.0
 11
503.1851615059998
 21
1430.825397543679
 31
0.0
  0
LINE
  5
C8E
102
{ACAD_REACTORS
330
C80
102
}
330
1E
100
AcDbEntity
  8
STEMPEL
  6
Continuous
100
AcDbLine
 10
505.6851615059997
 20
1606.297649629075
 30
0.0
 11
505.6851615059997
 21
1430.93454990095
 31
0.0
  0
LINE
  5
C90
102
{ACAD_REACTORS
330
C80
102
}
330
1E
100
AcDbEntity
  8
STEMPEL
100
AcDbLine
 10
505.6851615059997
 20
1430.93454990095
 30
0.0
 11
507.1820183797988
 21
1413.825397543679
 31
0.0
  0
LINE
  5
C91
102
{ACAD_REACTORS
330
C80
102
}
330
1E
100
AcDbEntity
  8
STEMPEL
100
AcDbLine
 10
503.1851615059998
 20
1430.82539754368
 30
0.0
 11
504.6724687859405
 21
1413.825397543679
 31
0.0
  0
LINE
  5
C92
102
{ACAD_REACTORS
330
C80
102
}
330
1E
100
AcDbEntity
  8
STEMPEL
100
AcDbLine
 10
504.6724687859405
 20
1413.825397543679
 30
0.0
 11
660.6978542260591
 21
1413.825397543679
 31
0.0
  0
LINE
  5
C93
330
1E
100
AcDbEntity
  8
HILF
100
AcDbLine
 10
508.6851615059996
 20
1430.825397543679
 30
0.0
 11
656.6851615059996
 21
1430.825397543679
 31
0.0
  0
LINE
  5
C94
330
1E
100
AcDbEntity
  8
MITTEL
100
AcDbLine
 10
455.6851615059997
 20
1723.825397543679
 30
0.0
 11
455.6851615059997
 21
1693.82539754368
 31
0.0
  0
LINE
  5
C95
330
1E
100
AcDbEntity
  8
STEMPEL
100
AcDbLine
 10
419.6851615059995
 20
1693.825397543679
 30
0.0
 11
417.6851615059996
 21
1691.825397543679
 31
0.0
  0
LINE
  5
C96
102
{ACAD_REACTORS
330
C80
102
}
330
1E
100
AcDbEntity
  8
STEMPEL
  6
Continuous
100
AcDbLine
 10
659.6851615059996
 20
1606.297649629075
 30
0.0
 11
659.6851615059996
 21
1430.93454990095
 31
0.0
  0
LINE
  5
C97
102
{ACAD_REACTORS
330
C80
102
}
330
1E
100
AcDbEntity
  8
STEMPEL
  6
Continuous
100
AcDbLine
 10
662.1851615059996
 20
1606.297649629075
 30
0.0
 11
662.1851615059996
 21
1430.82539754368
 31
0.0
  0
LINE
  5
C98
102
{ACAD_REACTORS
330
C80
102
}
330
1E
100
AcDbEntity
  8
STEMPEL
100
AcDbLine
 10
662.1851615059996
 20
1430.82539754368
 30
0.0
 11
660.6978542260591
 21
1413.825397543679
 31
0.0
  0
LINE
  5
C99
102
{ACAD_REACTORS
330
C80
102
}
330
1E
100
AcDbEntity
  8
STEMPEL
100
AcDbLine
 10
659.6851615059996
 20
1430.93454990095
 30
0.0
 11
658.1883046322006
 21
1413.825397543679
 31
0.0
  0
LINE
  5
C9A
102
{ACAD_REACTORS
330
107F
102
}
330
1E
100
AcDbEntity
  8
STEMPEL
  6
Continuous
100
AcDbLine
 10
747.6851615059997
 20
1693.825397543679
 30
0.0
 11
417.6851615059996
 21
1693.82539754368
 31
0.0
  0
LINE
  5
C9B
102
{ACAD_REACTORS
330
C80
330
C7C
102
}
330
1E
100
AcDbEntity
  8
STEMPEL
  6
Continuous
100
AcDbLine
 10
747.6851615059996
 20
1687.825397543679
 30
0.0
 11
417.6851615059996
 21
1687.825397543679
 31
0.0
  0
LINE
  5
C9C
330
1E
100
AcDbEntity
  8
MITTEL
100
AcDbLine
 10
709.6851615059996
 20
1723.825397543679
 30
0.0
 11
709.6851615059996
 21
1693.825397543679
 31
0.0
  0
LINE
  5
C9E
330
1E
100
AcDbEntity
  8
STEMPEL
100
AcDbLine
 10
745.6851615059997
 20
1693.825397543679
 30
0.0
 11
747.6851615059996
 21
1691.825397543679
 31
0.0
  0
LINE
  5
CA1
330
1E
100
AcDbEntity
  8
HILF
  6
Continuous
100
AcDbLine
 10
507.7126907915616
 20
1610.032739033245
 30
0.0
 11
657.6576322204378
 21
1610.032739033245
 31
0.0
  0
ARC
  5
CA2
102
{ACAD_REACTORS
330
C80
102
}
330
1E
100
AcDbEntity
  8
STEMPEL
  6
Continuous
100
AcDbCircle
 10
516.1851615059996
 20
1622.266369051746
 30
0.0
 40
15.5
100
AcDbArc
 50
180.0
 51
214.7719440319437
  0
ARC
  5
CA3
102
{ACAD_REACTORS
330
C80
102
}
330
1E
100
AcDbEntity
  8
STEMPEL
  6
Continuous
100
AcDbCircle
 10
516.1851615059996
 20
1622.266369051746
 30
0.0
 40
18.0
100
AcDbArc
 50
180.0
 51
214.7719440319437
  0
ARC
  5
CA4
102
{ACAD_REACTORS
330
C80
102
}
330
1E
100
AcDbEntity
  8
STEMPEL
  6
Continuous
100
AcDbCircle
 10
493.1851615059996
 20
1606.297649629075
 30
0.0
 40
12.5
100
AcDbArc
 50
0.0
 51
34.77194403194368
  0
ARC
  5
CA5
102
{ACAD_REACTORS
330
C80
102
}
330
1E
100
AcDbEntity
  8
STEMPEL
  6
Continuous
100
AcDbCircle
 10
493.1851615059996
 20
1606.297649629075
 30
0.0
 40
10.0
100
AcDbArc
 50
0.0
 51
34.77194403194368
  0
ARC
  5
CA6
102
{ACAD_REACTORS
330
C80
102
}
330
1E
100
AcDbEntity
  8
STEMPEL
  6
Continuous
100
AcDbCircle
 10
527.1851615059996
 20
1678.042293325745
 30
0.0
 40
32.5
100
AcDbArc
 50
162.481207654954
 51
180.0
  0
ARC
  5
CA7
102
{ACAD_REACTORS
330
C80
330
C7C
102
}
330
1E
100
AcDbEntity
  8
STEMPEL
  6
Continuous
100
AcDbCircle
 10
527.1851615059996
 20
1678.042293325745
 30
0.0
 40
35.0
100
AcDbArc
 50
163.7686044007684
 51
180.0
  0
ARC
  5
CA8
102
{ACAD_REACTORS
330
C80
102
}
330
1E
100
AcDbEntity
  8
STEMPEL
  6
Continuous
100
AcDbCircle
 10
527.1851615059996
 20
1661.820397543679
 30
0.0
 40
32.50004740563918
100
AcDbArc
 50
179.9056985509114
 51
207.5271836205534
  0
ARC
  5
CA9
102
{ACAD_REACTORS
330
C80
102
}
330
1E
100
AcDbEntity
  8
STEMPEL
  6
Continuous
100
AcDbCircle
 10
480.1851615059996
 20
1637.325397543679
 30
0.0
 40
18.0
100
AcDbArc
 50
0.0
 51
27.52718362055335
  0
ARC
  5
CAA
102
{ACAD_REACTORS
330
C80
102
}
330
1E
100
AcDbEntity
  8
STEMPEL
  6
Continuous
100
AcDbCircle
 10
527.1851615059996
 20
1661.820397543679
 30
0.0
 40
35.00004740563918
100
AcDbArc
 50
179.9056985509114
 51
207.5271836205534
  0
LINE
  5
CAB
102
{ACAD_REACTORS
330
C80
102
}
330
1E
100
AcDbEntity
  8
STEMPEL
  6
Continuous
100
AcDbLine
 10
494.6851615059996
 20
1678.042293325745
 30
0.0
 11
494.6851615059996
 21
1661.878003072856
 31
0.0
  0
LINE
  5
CAC
102
{ACAD_REACTORS
330
C80
102
}
330
1E
100
AcDbEntity
  8
STEMPEL
  6
Continuous
100
AcDbLine
 10
492.1851615059996
 20
1678.042293325745
 30
0.0
 11
492.1851615059996
 21
1661.878003072856
 31
0.0
  0
LINE
  5
CAD
102
{ACAD_REACTORS
330
C80
102
}
330
1E
100
AcDbEntity
  8
STEMPEL
  6
Continuous
100
AcDbLine
 10
500.6851615059996
 20
1637.325397543679
 30
0.0
 11
500.6851615059996
 21
1622.266369051746
 31
0.0
  0
LINE
  5
CAE
102
{ACAD_REACTORS
330
C80
102
}
330
1E
100
AcDbEntity
  8
STEMPEL
  6
Continuous
100
AcDbLine
 10
498.1851615059996
 20
1637.325397543679
 30
0.0
 11
498.1851615059996
 21
1622.266369051746
 31
0.0
  0
ARC
  5
CAF
102
{ACAD_REACTORS
330
C80
102
}
330
1E
100
AcDbEntity
  8
STEMPEL
  6
Continuous
100
AcDbCircle
 10
480.1851615059996
 20
1637.325397543679
 30
0.0
 40
20.5
100
AcDbArc
 50
0.0
 51
27.52718362055335
  0
ARC
  5
CB0
102
{ACAD_REACTORS
330
C80
102
}
330
1E
100
AcDbEntity
  8
STEMPEL
  6
Continuous
100
AcDbCircle
 10
649.1851615059996
 20
1622.266369051746
 30
0.0
 40
15.5
100
AcDbArc
 50
325.2280559680456
 51
0.0
  0
ARC
  5
CB1
102
{ACAD_REACTORS
330
C80
102
}
330
1E
100
AcDbEntity
  8
STEMPEL
  6
Continuous
100
AcDbCircle
 10
649.1851615059996
 20
1622.266369051746
 30
0.0
 40
18.0
100
AcDbArc
 50
325.2280559680456
 51
0.0
  0
ARC
  5
CB2
102
{ACAD_REACTORS
330
C80
102
}
330
1E
100
AcDbEntity
  8
STEMPEL
  6
Continuous
100
AcDbCircle
 10
672.1851615059996
 20
1606.297649629075
 30
0.0
 40
12.5
100
AcDbArc
 50
145.2280559680563
 51
180.0
  0
ARC
  5
CB3
102
{ACAD_REACTORS
330
C80
102
}
330
1E
100
AcDbEntity
  8
STEMPEL
  6
Continuous
100
AcDbCircle
 10
672.1851615059996
 20
1606.297649629075
 30
0.0
 40
10.0
100
AcDbArc
 50
145.2280559680563
 51
180.0
  0
ARC
  5
CB4
102
{ACAD_REACTORS
330
C80
102
}
330
1E
100
AcDbEntity
  8
STEMPEL
  6
Continuous
100
AcDbCircle
 10
638.1851615059996
 20
1678.042293325745
 30
0.0
 40
32.5
100
AcDbArc
 50
0.0
 51
17.51879234504597
  0
ARC
  5
CB5
102
{ACAD_REACTORS
330
C80
330
C7C
102
}
330
1E
100
AcDbEntity
  8
STEMPEL
  6
Continuous
100
AcDbCircle
 10
638.1851615059996
 20
1678.042293325745
 30
0.0
 40
35.0
100
AcDbArc
 50
0.0
 51
16.23139559923158
  0
ARC
  5
CB6
102
{ACAD_REACTORS
330
C80
102
}
330
1E
100
AcDbEntity
  8
STEMPEL
  6
Continuous
100
AcDbCircle
 10
638.1851615059996
 20
1661.820397543679
 30
0.0
 40
32.50004740563918
100
AcDbArc
 50
332.4728163794467
 51
0.0943014490885628
  0
ARC
  5
CB7
102
{ACAD_REACTORS
330
C80
102
}
330
1E
100
AcDbEntity
  8
STEMPEL
  6
Continuous
100
AcDbCircle
 10
638.1851615059996
 20
1661.820397543679
 30
0.0
 40
35.00004740563918
100
AcDbArc
 50
332.4728163794467
 51
0.0943014490885628
  0
ARC
  5
CB8
102
{ACAD_REACTORS
330
C80
102
}
330
1E
100
AcDbEntity
  8
STEMPEL
  6
Continuous
100
AcDbCircle
 10
685.1851615059996
 20
1637.325397543679
 30
0.0
 40
20.5
100
AcDbArc
 50
152.4728163794466
 51
180.0
  0
LINE
  5
CB9
102
{ACAD_REACTORS
330
C80
102
}
330
1E
100
AcDbEntity
  8
STEMPEL
  6
Continuous
100
AcDbLine
 10
664.6851615059996
 20
1637.325397543679
 30
0.0
 11
664.6851615059996
 21
1622.266369051746
 31
0.0
  0
LINE
  5
CBA
102
{ACAD_REACTORS
330
C80
102
}
330
1E
100
AcDbEntity
  8
STEMPEL
  6
Continuous
100
AcDbLine
 10
667.1851615059996
 20
1637.325397543679
 30
0.0
 11
667.1851615059996
 21
1622.266369051746
 31
0.0
  0
ARC
  5
CBB
102
{ACAD_REACTORS
330
C80
102
}
330
1E
100
AcDbEntity
  8
STEMPEL
  6
Continuous
100
AcDbCircle
 10
685.1851615059996
 20
1637.325397543679
 30
0.0
 40
18.0
100
AcDbArc
 50
152.4728163794466
 51
180.0
  0
LINE
  5
CBC
102
{ACAD_REACTORS
330
C80
102
}
330
1E
100
AcDbEntity
  8
STEMPEL
  6
Continuous
100
AcDbLine
 10
670.6851615059996
 20
1678.042293325745
 30
0.0
 11
670.6851615059996
 21
1661.878003072856
 31
0.0
  0
LINE
  5
CBD
102
{ACAD_REACTORS
330
C80
102
}
330
1E
100
AcDbEntity
  8
STEMPEL
  6
Continuous
100
AcDbLine
 10
673.1851615059996
 20
1678.042293325745
 30
0.0
 11
673.1851615059996
 21
1661.878003072856
 31
0.0
  0
LINE
  5
CBE
330
1E
100
AcDbEntity
  8
STEMPEL
100
AcDbLine
 10
497.1851615059997
 20
1693.825397543679
 30
0.0
 11
497.1851615059997
 21
1687.825397543679
 31
0.0
  0
LINE
  5
CBF
330
1E
100
AcDbEntity
  8
STEMPEL
100
AcDbLine
 10
668.1851615059996
 20
1693.825397543679
 30
0.0
 11
668.1851615059996
 21
1687.825397543679
 31
0.0
  0
LINE
  5
CC0
330
1E
100
AcDbEntity
  8
MITTEL
100
AcDbLine
 10
582.6851615059995
 20
1699.825397543679
 30
0.0
 11
582.6851615059996
 21
1408.825397543679
 31
0.0
  0
DIMENSION
  5
CC2
330
1E
100
AcDbEntity
  8
BEM
100
AcDbDimension
  2
*D6
 10
503.1851615059998
 20
1368.206373902527
 30
0.0
 11
582.6851615059998
 21
1384.456373902527
 31
0.0
 70
    32
  1
%%c<>
 71
     5
 42
158.9999999999999
  3
Standard
100
AcDbAlignedDimension
 13
662.1851615059996
 23
1430.82539754368
 33
0.0
 14
503.1851615059998
 24
1430.825397543679
 34
0.0
100
AcDbRotatedDimension
1001
ACAD
1000
DSTYLE
1002
{
1070
    40
1040
5.0
1070
    41
1040
3.5
1070
    42
1040
1.0
1070
    43
1040
7.0
1070
    44
1040
1.0
1070
    73
1070
     0
1070
    74
1070
     0
1070
    77
1070
     1
1070
    78
1070
     8
1070
    79
1070
     2
1070
   140
1040
3.5
1070
   141
1040
1.5
1070
   146
1040
0.5142857142857144
1070
   147
1040
1.5
1070
   172
1070
     1
1070
   178
1070
     1
1070
   179
1070
     2
1070
   271
1070
     2
1070
   272
1070
     2
1070
   284
1070
     8
1070
   285
1070
     8
1070
   286
1070
     8
1002
}
  0
LINE
  5
CC3
330
1E
100
AcDbEntity
  8
HILF
  6
Continuous
100
AcDbLine
 10
504.0381821636748
 20
1617.634858190576
 30
0.0
 11
661.3321408483244
 21
1617.634858190576
 31
0.0
  0
LINE
  5
CC4
330
1E
100
AcDbEntity
  8
HILF
  6
Continuous
100
AcDbLine
 10
502.6485353604174
 20
1642.26471278738
 30
0.0
 11
662.7217876515818
 21
1642.26471278738
 31
0.0
  0
LINE
  5
CCD
330
1E
100
AcDbEntity
  8
MITTEL
100
AcDbLine
 10
519.1851615059999
 20
1723.825397543679
 30
0.0
 11
519.1851615059997
 21
1693.82539754368
 31
0.0
  0
LINE
  5
CDB
330
1E
100
AcDbEntity
  8
MITTEL
100
AcDbLine
 10
646.1851615059995
 20
1723.825397543679
 30
0.0
 11
646.1851615059994
 21
1693.82539754368
 31
0.0
  0
LINE
  5
DA7
102
{ACAD_REACTORS
330
107F
102
}
330
1E
100
AcDbEntity
  8
STEMPEL
  6
Continuous
100
AcDbLine
 10
747.6851615059996
 20
1696.825397543679
 30
0.0
 11
714.3784591424089
 21
1696.825397543679
 31
0.0
  0
LINE
  5
DA9
330
1E
100
AcDbEntity
  8
STEMPEL
  6
Continuous
100
AcDbLine
 10
747.6851615059996
 20
1699.825397543679
 30
0.0
 11
714.3784591424089
 21
1699.825397543679
 31
0.0
  0
LINE
  5
DAB
102
{ACAD_REACTORS
330
107F
102
}
330
1E
100
AcDbEntity
  8
STEMPEL
100
AcDbLine
 10
417.6851615059996
 20
1696.825397543679
 30
0.0
 11
417.6851615059996
 21
1693.82539754368
 31
0.0
  0
LINE
  5
DAE
102
{ACAD_REACTORS
330
107F
102
}
330
1E
100
AcDbEntity
  8
STEMPEL
100
AcDbLine
 10
464.6851615059999
 20
1696.825397543679
 30
0.0
 11
464.6851615059997
 21
1693.82539754368
 31
0.0
  0
LINE
  5
DAF
102
{ACAD_REACTORS
330
107F
102
}
330
1E
100
AcDbEntity
  8
STEMPEL
100
AcDbLine
 10
446.6851615059998
 20
1696.825397543679
 30
0.0
 11
446.6851615059997
 21
1693.82539754368
 31
0.0
  0
LINE
  5
DB1
102
{ACAD_REACTORS
330
107F
102
}
330
1E
100
AcDbEntity
  8
STEMPEL
  6
Continuous
100
AcDbLine
 10
450.3784591424091
 20
1696.825397543679
 30
0.0
 11
417.6851615059996
 21
1696.825397543679
 31
0.0
  0
LINE
  5
DBC
102
{ACAD_REACTORS
330
107F
102
}
330
1E
100
AcDbEntity
  8
STEMPEL
100
AcDbLine
 10
718.6851615059996
 20
1696.825397543679
 30
0.0
 11
718.6851615059996
 21
1693.825397543679
 31
0.0
  0
LINE
  5
DBD
102
{ACAD_REACTORS
330
107F
102
}
330
1E
100
AcDbEntity
  8
STEMPEL
100
AcDbLine
 10
700.6851615059996
 20
1696.825397543679
 30
0.0
 11
700.6851615059996
 21
1693.825397543679
 31
0.0
  0
LINE
  5
DBF
102
{ACAD_REACTORS
330
107F
102
}
330
1E
100
AcDbEntity
  8
STEMPEL
  6
Continuous
100
AcDbLine
 10
704.3784591424089
 20
1696.825397543679
 30
0.0
 11
460.378459142409
 21
1696.825397543679
 31
0.0
  0
LINE
  5
DC0
102
{ACAD_REACTORS
330
107F
102
}
330
1E
100
AcDbEntity
  8
STEMPEL
100
AcDbLine
 10
747.6851615059996
 20
1696.825397543679
 30
0.0
 11
747.6851615059996
 21
1693.825397543679
 31
0.0
  0
LINE
  5
DC1
330
1E
100
AcDbEntity
  8
STEMPEL
100
AcDbLine
 10
747.6851615059996
 20
1691.825397543679
 30
0.0
 11
747.6851615059996
 21
1687.825397543679
 31
0.0
  0
LINE
  5
DC2
330
1E
100
AcDbEntity
  8
STEMPEL
100
AcDbLine
 10
417.6851615059996
 20
1691.825397543679
 30
0.0
 11
417.6851615059996
 21
1687.825397543679
 31
0.0
  0
LINE
  5
DCC
330
1E
100
AcDbEntity
  8
STEMPEL
  6
Continuous
100
AcDbLine
 10
449.6851615059997
 20
1699.825397543679
 30
0.0
 11
417.6851615059996
 21
1699.825397543679
 31
0.0
  0
LINE
  5
DCD
330
1E
100
AcDbEntity
  8
STEMPEL
100
AcDbLine
 10
450.3784591424091
 20
1699.825397543679
 30
0.0
 11
372.6851615059995
 21
1699.825397543679
 31
0.0
  0
LINE
  5
DCE
330
1E
100
AcDbEntity
  8
STEMPEL
  6
Continuous
100
AcDbLine
 10
703.6851615059996
 20
1699.825397543679
 30
0.0
 11
461.6851615059996
 21
1699.825397543679
 31
0.0
  0
LINE
  5
DCF
330
1E
100
AcDbEntity
  8
STEMPEL
100
AcDbLine
 10
704.3784591424089
 20
1699.825397543679
 30
0.0
 11
460.3784591424091
 21
1699.825397543679
 31
0.0
  0
LINE
  5
DD0
330
1E
100
AcDbEntity
  8
TEXT
 62
     2
100
AcDbLine
 10
731.6623651016107
 20
1694.467010768247
 30
0.0
 11
835.9613197203852
 21
1553.043384436474
 31
0.0
  0
LINE
  5
DD1
330
1E
100
AcDbEntity
  8
TEXT
 62
     2
100
AcDbLine
 10
835.9613197203852
 20
1553.043384436474
 30
0.0
 11
1159.69783016817
 21
1553.043384436474
 31
0.0
  0
TEXT
  5
DD2
330
1E
100
AcDbEntity
  8
TEXT
 62
     1
100
AcDbText
 10
848.4145921551709
 20
1561.383005138684
 30
0.0
 40
17.5
  1
Kompressionsdichtung DN150
 41
0.8
  7
GREEKS
100
AcDbText
  0
TEXT
  5
DD3
330
1E
100
AcDbEntity
  8
TEXT
 62
     1
100
AcDbText
 10
848.4145921551709
 20
1527.100607885441
 30
0.0
 40
17.5
  1
EDV-Art.Nr. 21810.150X
 41
0.8
  7
GREEKS
100
AcDbText
  0
LINE
  5
DD5
330
1E
100
AcDbEntity
  8
STEMPEL
100
AcDbLine
 10
670.1851615059996
 20
1699.825397543679
 30
0.0
 11
670.1851615059994
 21
1702.825397543679
 31
0.0
  0
HATCH
  5
DF7
330
1E
100
AcDbEntity
  8
SCHRAFF
100
AcDbHatch
 10
0.0
 20
0.0
 30
0.0
210
0.0
220
0.0
230
1.0
  2
_USER
 70
     0
 71
     0
 91
        7
 92
        7
 72
     0
 73
     1
 93
        4
 10
792.6851615059993
 20
1702.825397543679
 10
782.6851615059995
 20
1702.825397543679
 10
782.6851615059995
 20
1699.825397543679
 10
792.6851615059997
 20
1699.825397543679
 97
        0
 92
        7
 72
     0
 73
     1
 93
        5
 10
782.6851615059994
 20
1702.825397543679
 10
717.6851615059996
 20
1702.825397543679
 10
717.6851615059997
 20
1699.825397543679
 10
747.6851615059996
 20
1699.825397543679
 10
782.6851615059995
 20
1699.825397543679
 97
        0
 92
        7
 72
     0
 73
     1
 93
        4
 10
701.6851615059997
 20
1702.825397543679
 10
670.1851615059991
 20
1702.825397543679
 10
670.1851615059996
 20
1699.825397543679
 10
701.6851615059998
 20
1699.825397543679
 97
        0
 92
        7
 72
     0
 73
     1
 93
        4
 10
495.1851615059993
 20
1702.825397543679
 10
482.6851615059994
 20
1702.825397543679
 10
482.6851615059995
 20
1699.825397543679
 10
495.1851615059994
 20
1699.825397543679
 97
        0
 92
        7
 72
     0
 73
     1
 93
        4
 10
482.6851615059993
 20
1702.825397543679
 10
463.6851615059994
 20
1702.825397543679
 10
463.6851615059994
 20
1699.825397543679
 10
482.6851615059996
 20
1699.825397543679
 97
        0
 92
        7
 72
     0
 73
     1
 93
        4
 10
447.6851615059995
 20
1702.825397543679
 10
382.6851615059995
 20
1702.825397543679
 10
382.6851615059995
 20
1699.825397543679
 10
447.6851615059995
 20
1699.825397543679
 97
        0
 92
        7
 72
     0
 73
     1
 93
        4
 10
382.6851615059995
 20
1702.825397543679
 10
372.6851615059995
 20
1702.825397543679
 10
372.6851615059995
 20
1699.825397543679
 10
382.6851615059996
 20
1699.825397543679
 97
        0
 75
     0
 76
     0
 52
45.0
 41
2.0
 77
     0
 78
     1
 53
45.0
 43
0.0
 44
0.0
 45
-1.414213562373094
 46
1.414213562373095
 79
     0
 47
0.5923687437502739
 98
        7
 10
788.0318752550283
 20
1701.07583852666
 10
774.3985475824247
 20
1701.07583852666
 10
692.0058040552921
 20
1701.07583852666
 10
493.4333770026496
 20
1701.668207901845
 10
472.6870063106125
 20
1701.668207901845
 10
431.1942553639146
 20
1701.668207901845
 10
376.6609351108764
 20
1701.668207901845
  0
LINE
  5
E0C
330
1E
100
AcDbEntity
  8
STEMPEL
100
AcDbLine
 10
495.1851615059994
 20
1699.825397543679
 30
0.0
 11
495.1851615059994
 21
1702.825397543679
 31
0.0
  0
DIMENSION
  5
EE4
330
1E
100
AcDbEntity
  8
BEM
100
AcDbDimension
  2
*D7
 10
315.1273342991627
 20
1413.825397543679
 30
0.0
 11
298.8773342991624
 21
1553.825397543679
 31
0.0
 70
    32
 71
     5
 42
280.0000000000005
  3
Standard
100
AcDbAlignedDimension
 13
417.6851615059996
 23
1693.82539754368
 33
0.0
 14
504.6724687859405
 24
1413.825397543679
 34
0.0
 50
90.0
100
AcDbRotatedDimension
1001
ACAD
1000
DSTYLE
1002
{
1070
    40
1040
5.0
1070
    41
1040
3.5
1070
    42
1040
1.0
1070
    43
1040
7.0
1070
    44
1040
1.0
1070
    73
1070
     0
1070
    74
1070
     0
1070
    77
1070
     1
1070
    78
1070
     8
1070
    79
1070
     2
1070
   140
1040
3.5
1070
   141
1040
1.5
1070
   146
1040
0.5142857142857144
1070
   147
1040
1.5
1070
   172
1070
     1
1070
   178
1070
     1
1070
   179
1070
     2
1070
   271
1070
     2
1070
   272
1070
     2
1070
   284
1070
     8
1070
   285
1070
     8
1070
   286
1070
     8
1002
}
  0
DIMENSION
  5
EF1
330
1E
100
AcDbEntity
  8
BEM
100
AcDbDimension
  2
*D8
 10
346.0001029215127
 20
1687.825397543679
 30
0.0
 11
329.7501029215125
 21
1640.992064210346
 31
0.0
 70
    32
 71
     5
 42
6.000000000000454
  3
Standard
100
AcDbAlignedDimension
 13
417.6851615059996
 23
1693.82539754368
 33
0.0
 14
417.6851615059996
 24
1687.825397543679
 34
0.0
 50
90.0
100
AcDbRotatedDimension
1001
ACAD
1000
DSTYLE
1002
{
1070
    40
1040
5.0
1070
    41
1040
3.5
1070
    42
1040
1.0
1070
    43
1040
7.0
1070
    44
1040
1.0
1070
    73
1070
     0
1070
    74
1070
     0
1070
    77
1070
     1
1070
    78
1070
     8
1070
    79
1070
     2
1070
   140
1040
3.5
1070
   141
1040
1.5
1070
   146
1040
0.5142857142857144
1070
   147
1040
1.5
1070
   172
1070
     1
1070
   178
1070
     1
1070
   179
1070
     2
1070
   271
1070
     2
1070
   272
1070
     2
1070
   284
1070
     8
1070
   285
1070
     8
1070
   286
1070
     8
1002
}
  0
TEXT
  5
F00
330
1E
100
AcDbEntity
  8
TEXT
 62
     1
100
AcDbText
 10
558.067020438262
 20
1513.540220877688
 30
0.0
 40
17.5
  1
DN150
 50
90.0
 41
0.8
  7
GREEKS
100
AcDbText
  0
LINE
  5
F01
330
1E
100
AcDbEntity
  8
TEXT
 62
     2
100
AcDbLine
 10
257.1881671643799
 20
1754.624443531062
 30
0.0
 11
271.4349019096594
 21
1795.536988502903
 31
0.0
  0
LINE
  5
F02
330
1E
100
AcDbEntity
  8
TEXT
 62
     2
100
AcDbLine
 10
661.1725159555407
 20
1515.512698510125
 30
0.0
 11
822.9392758665607
 21
1443.104046153663
 31
0.0
  0
LINE
  5
F03
330
1E
100
AcDbEntity
  8
TEXT
 62
     2
100
AcDbLine
 10
822.9392758665607
 20
1443.104046153663
 30
0.0
 11
1097.709888321542
 21
1443.104046153663
 31
0.0
  0
TEXT
  5
F04
330
1E
100
AcDbEntity
  8
TEXT
 62
     1
100
AcDbText
 10
835.3925483013464
 20
1451.443666855874
 30
0.0
 40
17.5
  1
Ablauftopf DN150
 41
0.8
  7
GREEKS
100
AcDbText
  0
TEXT
  5
F05
330
1E
100
AcDbEntity
  8
TEXT
 62
     1
100
AcDbText
 10
835.3925483013464
 20
1417.161269602631
 30
0.0
 40
17.5
  1
EDV-Art.Nr. 21981.150X
 41
0.8
  7
GREEKS
100
AcDbText
  0
CIRCLE
  5
F06
330
1E
100
AcDbEntity
  8
VERDECKT
100
AcDbCircle
 10
582.6851615059995
 20
701.839363381403
 30
0.0
 40
165.0
  0
LINE
  5
F7B
330
1E
100
AcDbEntity
  8
TEXT
 62
     2
100
AcDbLine
 10
273.521297807638
 20
1801.528520424517
 30
0.0
 11
301.2226619152523
 21
1881.078910397883
 31
0.0
  0
ARC
  5
FAC
330
1E
100
AcDbEntity
  8
STEMPEL
100
AcDbCircle
 10
455.3784591424089
 20
1682.514508411224
 30
0.0
 40
30.31088913245485
100
AcDbArc
 50
81.78678929826105
 51
98.21321070173894
  0
LINE
  5
FAD
330
1E
100
AcDbEntity
  8
STEMPEL
100
AcDbLine
 10
450.3784591424091
 20
1717.825397543686
 30
0.0
 11
450.378459142409
 21
1712.825397543679
 31
0.0
  0
LINE
  5
FAE
330
1E
100
AcDbEntity
  8
HILF
100
AcDbLine
 10
451.3784591424091
 20
1718.825397543686
 30
0.0
 11
451.3784591424091
 21
1712.825397543679
 31
0.0
  0
LINE
  5
FAF
330
1E
100
AcDbEntity
  8
STEMPEL
100
AcDbLine
 10
451.3784591424091
 20
1718.825397543686
 30
0.0
 11
450.3784591424091
 21
1717.825397543686
 31
0.0
  0
LINE
  5
FB0
330
1E
100
AcDbEntity
  8
STEMPEL
100
AcDbLine
 10
460.3784591424091
 20
1717.825397543686
 30
0.0
 11
460.3784591424091
 21
1712.825397543679
 31
0.0
  0
LINE
  5
FB1
330
1E
100
AcDbEntity
  8
HILF
100
AcDbLine
 10
459.3784591424091
 20
1718.825397543686
 30
0.0
 11
459.3784591424091
 21
1712.825397543679
 31
0.0
  0
LINE
  5
FB2
330
1E
100
AcDbEntity
  8
STEMPEL
100
AcDbLine
 10
460.3784591424091
 20
1717.825397543686
 30
0.0
 11
450.3784591424091
 21
1717.825397543686
 31
0.0
  0
LINE
  5
FB3
330
1E
100
AcDbEntity
  8
STEMPEL
100
AcDbLine
 10
460.3784591424091
 20
1717.825397543686
 30
0.0
 11
459.3784591424091
 21
1718.825397543686
 31
0.0
  0
LINE
  5
FB4
330
1E
100
AcDbEntity
  8
STEMPEL
100
AcDbLine
 10
459.3784591424091
 20
1718.825397543686
 30
0.0
 11
451.3784591424091
 21
1718.825397543686
 31
0.0
  0
ARC
  5
FB5
330
1E
100
AcDbEntity
  8
STEMPEL
100
AcDbCircle
 10
465.528459142409
 20
1703.575397543679
 30
0.0
 40
0.750000000000001
100
AcDbArc
 50
269.9999991462263
 51
70.00000000000159
  0
ARC
  5
FB6
330
1E
100
AcDbEntity
  8
STEMPEL
100
AcDbCircle
 10
445.2284591424089
 20
1703.575397543679
 30
0.0
 40
0.7500000000000013
100
AcDbArc
 50
109.9999999999984
 51
269.9999991462263
  0
LINE
  5
FB7
330
1E
100
AcDbEntity
  8
STEMPEL
100
AcDbLine
 10
446.7182051045646
 20
1704.915754059879
 30
0.0
 11
444.9719440349148
 21
1704.280167009268
 31
0.0
  0
LINE
  5
FB8
330
1E
100
AcDbEntity
  8
STEMPEL
100
AcDbLine
 10
465.7849742499032
 20
1704.280167009268
 30
0.0
 11
464.0387131802533
 21
1704.915754059879
 31
0.0
  0
LINE
  5
FB9
330
1E
100
AcDbEntity
  8
STEMPEL
100
AcDbLine
 10
464.0387131802533
 20
1712.514508411224
 30
0.0
 11
462.8784591424089
 21
1712.825397543679
 31
0.0
  0
LINE
  5
FBA
330
1E
100
AcDbEntity
  8
STEMPEL
100
AcDbLine
 10
447.878459142409
 20
1712.825397543679
 30
0.0
 11
446.7182051045646
 21
1712.514508411224
 31
0.0
  0
LINE
  5
FBB
330
1E
100
AcDbEntity
  8
STEMPEL
100
AcDbLine
 10
446.7182051045646
 20
1704.915754059879
 30
0.0
 11
446.7182051045646
 21
1712.514508411224
 31
0.0
  0
LINE
  5
FBC
330
1E
100
AcDbEntity
  8
STEMPEL
100
AcDbLine
 10
465.528459142409
 20
1702.825397543679
 30
0.0
 11
445.2284591424089
 21
1702.825397543679
 31
0.0
  0
LINE
  5
FBD
330
1E
100
AcDbEntity
  8
STEMPEL
100
AcDbLine
 10
465.7849742499032
 20
1704.280167009268
 30
0.0
 11
444.9719440349147
 21
1704.280167009268
 31
0.0
  0
LINE
  5
FBE
330
1E
100
AcDbEntity
  8
STEMPEL
100
AcDbLine
 10
451.0483321234867
 20
1704.915754059879
 30
0.0
 11
451.0483321234867
 21
1712.514508411224
 31
0.0
  0
LINE
  5
FBF
330
1E
100
AcDbEntity
  8
STEMPEL
100
AcDbLine
 10
459.7085861613312
 20
1704.915754059879
 30
0.0
 11
459.7085861613312
 21
1712.514508411224
 31
0.0
  0
LINE
  5
FC0
330
1E
100
AcDbEntity
  8
STEMPEL
100
AcDbLine
 10
464.0387131802533
 20
1704.915754059879
 30
0.0
 11
464.0387131802533
 21
1712.514508411224
 31
0.0
  0
LINE
  5
FC1
330
1E
100
AcDbEntity
  8
STEMPEL
100
AcDbLine
 10
447.878459142409
 20
1712.825397543679
 30
0.0
 11
462.8784591424089
 21
1712.825397543679
 31
0.0
  0
POINT
  5
FC2
330
1E
100
AcDbEntity
  8
0
100
AcDbPoint
 10
455.3784591424089
 20
1702.825397543679
 30
0.0
210
0.0000000000000001
220
1.0
230
0.0
  0
ARC
  5
FC3
330
1E
100
AcDbEntity
  8
HILF
100
AcDbCircle
 10
448.8832686140256
 20
1699.576911394149
 30
0.0
 40
5.761140599691502
100
AcDbArc
 50
67.9259452632581
 51
112.0740547367419
  0
ARC
  5
FC4
330
1E
100
AcDbEntity
  8
HILF
100
AcDbCircle
 10
461.8736496707922
 20
1699.576911394149
 30
0.0
 40
5.761140599691502
100
AcDbArc
 50
67.9259452632581
 51
112.0740547367419
  0
ARC
  5
FC5
330
1E
100
AcDbEntity
  8
HILF
100
AcDbCircle
 10
455.3784591424089
 20
1682.926936496018
 30
0.0
 40
22.41111549782308
100
AcDbArc
 50
78.85962783890391
 51
101.1403721610961
  0
ARC
  5
FC6
330
1E
100
AcDbEntity
  8
STEMPEL
100
AcDbCircle
 10
461.8736496707922
 20
1705.131091835895
 30
0.0
 40
7.694305707784447
100
AcDbArc
 50
73.65710669401528
 51
106.3428933059816
  0
ARC
  5
FC7
330
1E
100
AcDbEntity
  8
STEMPEL
100
AcDbCircle
 10
448.8832686140256
 20
1705.131091835895
 30
0.0
 40
7.694305707784447
100
AcDbArc
 50
73.65710669401841
 51
106.3428933059847
  0
LINE
  5
FC8
330
1E
100
AcDbEntity
  8
HILF
100
AcDbLine
 10
459.3784591424091
 20
1702.825397543679
 30
0.0
 11
459.3784591424091
 21
1693.825397543686
 31
0.0
  0
LINE
  5
FC9
330
1E
100
AcDbEntity
  8
STEMPEL
100
AcDbLine
 10
460.3784591424091
 20
1702.825397543679
 30
0.0
 11
460.3784591424091
 21
1693.825397543686
 31
0.0
  0
LINE
  5
FCA
330
1E
100
AcDbEntity
  8
STEMPEL
100
AcDbLine
 10
450.3784591424091
 20
1702.825397543679
 30
0.0
 11
450.3784591424091
 21
1693.825397543686
 31
0.0
  0
LINE
  5
FCB
330
1E
100
AcDbEntity
  8
HILF
100
AcDbLine
 10
451.3784591424091
 20
1702.825397543679
 30
0.0
 11
451.3784591424091
 21
1693.825397543686
 31
0.0
  0
ARC
  5
FCE
330
1E
100
AcDbEntity
  8
STEMPEL
100
AcDbCircle
 10
512.3832686140257
 20
1705.131091835895
 30
0.0
 40
7.694305707784447
100
AcDbArc
 50
73.65710669401841
 51
106.3428933059847
  0
ARC
  5
FCF
330
1E
100
AcDbEntity
  8
STEMPEL
100
AcDbCircle
 10
525.3736496707922
 20
1705.131091835895
 30
0.0
 40
7.694305707784447
100
AcDbArc
 50
73.65710669401528
 51
106.3428933059816
  0
ARC
  5
FD0
330
1E
100
AcDbEntity
  8
HILF
100
AcDbCircle
 10
518.8784591424089
 20
1682.926936496018
 30
0.0
 40
22.41111549782308
100
AcDbArc
 50
78.85962783890391
 51
101.1403721610961
  0
ARC
  5
FD1
330
1E
100
AcDbEntity
  8
HILF
100
AcDbCircle
 10
525.3736496707922
 20
1699.576911394149
 30
0.0
 40
5.761140599691502
100
AcDbArc
 50
67.9259452632581
 51
112.0740547367419
  0
ARC
  5
FD2
330
1E
100
AcDbEntity
  8
HILF
100
AcDbCircle
 10
512.3832686140257
 20
1699.576911394149
 30
0.0
 40
5.761140599691502
100
AcDbArc
 50
67.9259452632581
 51
112.0740547367419
  0
POINT
  5
FD3
330
1E
100
AcDbEntity
  8
0
100
AcDbPoint
 10
518.8784591424089
 20
1702.825397543679
 30
0.0
210
0.0000000000000001
220
1.0
230
0.0
  0
LINE
  5
FD4
330
1E
100
AcDbEntity
  8
STEMPEL
100
AcDbLine
 10
511.378459142409
 20
1712.825397543679
 30
0.0
 11
526.3784591424089
 21
1712.825397543679
 31
0.0
  0
LINE
  5
FD5
330
1E
100
AcDbEntity
  8
STEMPEL
100
AcDbLine
 10
527.5387131802533
 20
1704.915754059879
 30
0.0
 11
527.5387131802533
 21
1712.514508411224
 31
0.0
  0
LINE
  5
FD6
330
1E
100
AcDbEntity
  8
STEMPEL
100
AcDbLine
 10
523.2085861613311
 20
1704.915754059879
 30
0.0
 11
523.2085861613311
 21
1712.514508411224
 31
0.0
  0
LINE
  5
FD7
330
1E
100
AcDbEntity
  8
STEMPEL
100
AcDbLine
 10
514.5483321234867
 20
1704.915754059879
 30
0.0
 11
514.5483321234867
 21
1712.514508411224
 31
0.0
  0
LINE
  5
FD8
330
1E
100
AcDbEntity
  8
STEMPEL
100
AcDbLine
 10
529.2849742499032
 20
1704.280167009268
 30
0.0
 11
508.4719440349147
 21
1704.280167009268
 31
0.0
  0
LINE
  5
FD9
330
1E
100
AcDbEntity
  8
STEMPEL
100
AcDbLine
 10
529.0284591424089
 20
1702.825397543679
 30
0.0
 11
508.728459142409
 21
1702.825397543679
 31
0.0
  0
LINE
  5
FDA
330
1E
100
AcDbEntity
  8
STEMPEL
100
AcDbLine
 10
510.2182051045645
 20
1704.915754059879
 30
0.0
 11
510.2182051045645
 21
1712.514508411224
 31
0.0
  0
LINE
  5
FDB
330
1E
100
AcDbEntity
  8
STEMPEL
100
AcDbLine
 10
511.378459142409
 20
1712.825397543679
 30
0.0
 11
510.2182051045645
 21
1712.514508411224
 31
0.0
  0
LINE
  5
FDC
330
1E
100
AcDbEntity
  8
STEMPEL
100
AcDbLine
 10
527.5387131802533
 20
1712.514508411224
 30
0.0
 11
526.3784591424089
 21
1712.825397543679
 31
0.0
  0
LINE
  5
FDD
330
1E
100
AcDbEntity
  8
STEMPEL
100
AcDbLine
 10
529.2849742499032
 20
1704.280167009268
 30
0.0
 11
527.5387131802533
 21
1704.915754059879
 31
0.0
  0
LINE
  5
FDE
330
1E
100
AcDbEntity
  8
STEMPEL
100
AcDbLine
 10
510.2182051045645
 20
1704.915754059879
 30
0.0
 11
508.4719440349148
 21
1704.280167009268
 31
0.0
  0
ARC
  5
FDF
330
1E
100
AcDbEntity
  8
STEMPEL
100
AcDbCircle
 10
508.728459142409
 20
1703.575397543679
 30
0.0
 40
0.7500000000000013
100
AcDbArc
 50
109.9999999999984
 51
269.9999991462263
  0
ARC
  5
FE0
330
1E
100
AcDbEntity
  8
STEMPEL
100
AcDbCircle
 10
529.0284591424089
 20
1703.575397543679
 30
0.0
 40
0.750000000000001
100
AcDbArc
 50
269.9999991462263
 51
70.00000000000159
  0
LINE
  5
FE1
330
1E
100
AcDbEntity
  8
STEMPEL
100
AcDbLine
 10
522.8784591424092
 20
1718.825397543686
 30
0.0
 11
514.8784591424091
 21
1718.825397543686
 31
0.0
  0
LINE
  5
FE2
330
1E
100
AcDbEntity
  8
STEMPEL
100
AcDbLine
 10
523.8784591424091
 20
1717.825397543686
 30
0.0
 11
522.8784591424092
 21
1718.825397543686
 31
0.0
  0
LINE
  5
FE3
330
1E
100
AcDbEntity
  8
STEMPEL
100
AcDbLine
 10
523.8784591424091
 20
1717.825397543686
 30
0.0
 11
513.8784591424091
 21
1717.825397543686
 31
0.0
  0
LINE
  5
FE4
330
1E
100
AcDbEntity
  8
HILF
100
AcDbLine
 10
522.8784591424092
 20
1718.825397543686
 30
0.0
 11
522.8784591424092
 21
1712.825397543679
 31
0.0
  0
LINE
  5
FE5
330
1E
100
AcDbEntity
  8
STEMPEL
100
AcDbLine
 10
523.8784591424091
 20
1717.825397543686
 30
0.0
 11
523.8784591424091
 21
1712.825397543679
 31
0.0
  0
LINE
  5
FE6
330
1E
100
AcDbEntity
  8
STEMPEL
100
AcDbLine
 10
514.8784591424091
 20
1718.825397543686
 30
0.0
 11
513.8784591424091
 21
1717.825397543686
 31
0.0
  0
LINE
  5
FE7
330
1E
100
AcDbEntity
  8
HILF
100
AcDbLine
 10
514.8784591424091
 20
1718.825397543686
 30
0.0
 11
514.8784591424091
 21
1712.825397543679
 31
0.0
  0
LINE
  5
FE8
330
1E
100
AcDbEntity
  8
STEMPEL
100
AcDbLine
 10
513.8784591424091
 20
1717.825397543686
 30
0.0
 11
513.878459142409
 21
1712.825397543679
 31
0.0
  0
ARC
  5
FE9
330
1E
100
AcDbEntity
  8
STEMPEL
100
AcDbCircle
 10
518.8784591424089
 20
1682.514508411224
 30
0.0
 40
30.31088913245485
100
AcDbArc
 50
81.78678929826105
 51
98.21321070173894
  0
LINE
  5
FEA
330
1E
100
AcDbEntity
  8
STEMPEL
100
AcDbLine
 10
523.8784591424091
 20
1699.825397543679
 30
0.0
 11
523.8784591424091
 21
1696.825397543679
 31
0.0
  0
LINE
  5
FEB
330
1E
100
AcDbEntity
  8
HILF
100
AcDbLine
 10
522.8784591424092
 20
1699.825397543679
 30
0.0
 11
522.8784591424092
 21
1696.825397543679
 31
0.0
  0
LINE
  5
FEC
330
1E
100
AcDbEntity
  8
HILF
100
AcDbLine
 10
514.8784591424091
 20
1699.825397543679
 30
0.0
 11
514.8784591424091
 21
1696.825397543679
 31
0.0
  0
LINE
  5
FED
330
1E
100
AcDbEntity
  8
STEMPEL
100
AcDbLine
 10
513.8784591424091
 20
1699.825397543679
 30
0.0
 11
513.8784591424091
 21
1696.825397543679
 31
0.0
  0
ARC
  5
FEE
330
1E
100
AcDbEntity
  8
STEMPEL
100
AcDbCircle
 10
639.3832686140253
 20
1705.131091835895
 30
0.0
 40
7.694305707784447
100
AcDbArc
 50
73.65710669401841
 51
106.3428933059847
  0
ARC
  5
FEF
330
1E
100
AcDbEntity
  8
STEMPEL
100
AcDbCircle
 10
652.373649670792
 20
1705.131091835895
 30
0.0
 40
7.694305707784447
100
AcDbArc
 50
73.65710669401528
 51
106.3428933059816
  0
ARC
  5
FF0
330
1E
100
AcDbEntity
  8
HILF
100
AcDbCircle
 10
645.8784591424087
 20
1682.926936496018
 30
0.0
 40
22.41111549782308
100
AcDbArc
 50
78.85962783890391
 51
101.1403721610961
  0
ARC
  5
FF1
330
1E
100
AcDbEntity
  8
HILF
100
AcDbCircle
 10
652.373649670792
 20
1699.576911394149
 30
0.0
 40
5.761140599691502
100
AcDbArc
 50
67.9259452632581
 51
112.0740547367419
  0
ARC
  5
FF2
330
1E
100
AcDbEntity
  8
HILF
100
AcDbCircle
 10
639.3832686140253
 20
1699.576911394149
 30
0.0
 40
5.761140599691502
100
AcDbArc
 50
67.9259452632581
 51
112.0740547367419
  0
POINT
  5
FF3
330
1E
100
AcDbEntity
  8
0
100
AcDbPoint
 10
645.8784591424087
 20
1702.825397543679
 30
0.0
210
0.0000000000000001
220
1.0
230
0.0
  0
LINE
  5
FF4
330
1E
100
AcDbEntity
  8
STEMPEL
100
AcDbLine
 10
638.3784591424086
 20
1712.825397543679
 30
0.0
 11
653.3784591424087
 21
1712.825397543679
 31
0.0
  0
LINE
  5
FF5
330
1E
100
AcDbEntity
  8
STEMPEL
100
AcDbLine
 10
654.538713180253
 20
1704.915754059879
 30
0.0
 11
654.538713180253
 21
1712.514508411224
 31
0.0
  0
LINE
  5
FF6
330
1E
100
AcDbEntity
  8
STEMPEL
100
AcDbLine
 10
650.2085861613309
 20
1704.915754059879
 30
0.0
 11
650.2085861613309
 21
1712.514508411224
 31
0.0
  0
LINE
  5
FF7
330
1E
100
AcDbEntity
  8
STEMPEL
100
AcDbLine
 10
641.5483321234865
 20
1704.915754059879
 30
0.0
 11
641.5483321234865
 21
1712.514508411224
 31
0.0
  0
LINE
  5
FF8
330
1E
100
AcDbEntity
  8
STEMPEL
100
AcDbLine
 10
656.2849742499029
 20
1704.280167009268
 30
0.0
 11
635.4719440349144
 21
1704.280167009268
 31
0.0
  0
LINE
  5
FF9
330
1E
100
AcDbEntity
  8
STEMPEL
100
AcDbLine
 10
656.0284591424085
 20
1702.825397543679
 30
0.0
 11
635.7284591424086
 21
1702.825397543679
 31
0.0
  0
LINE
  5
FFA
330
1E
100
AcDbEntity
  8
STEMPEL
100
AcDbLine
 10
637.2182051045642
 20
1704.915754059879
 30
0.0
 11
637.2182051045642
 21
1712.514508411224
 31
0.0
  0
LINE
  5
FFB
330
1E
100
AcDbEntity
  8
STEMPEL
100
AcDbLine
 10
638.3784591424086
 20
1712.825397543679
 30
0.0
 11
637.2182051045642
 21
1712.514508411224
 31
0.0
  0
LINE
  5
FFC
330
1E
100
AcDbEntity
  8
STEMPEL
100
AcDbLine
 10
654.538713180253
 20
1712.514508411224
 30
0.0
 11
653.3784591424087
 21
1712.825397543679
 31
0.0
  0
LINE
  5
FFD
330
1E
100
AcDbEntity
  8
STEMPEL
100
AcDbLine
 10
656.2849742499029
 20
1704.280167009268
 30
0.0
 11
654.538713180253
 21
1704.915754059879
 31
0.0
  0
LINE
  5
FFE
330
1E
100
AcDbEntity
  8
STEMPEL
100
AcDbLine
 10
637.2182051045642
 20
1704.915754059879
 30
0.0
 11
635.4719440349144
 21
1704.280167009268
 31
0.0
  0
ARC
  5
FFF
330
1E
100
AcDbEntity
  8
STEMPEL
100
AcDbCircle
 10
635.7284591424086
 20
1703.575397543679
 30
0.0
 40
0.7500000000000013
100
AcDbArc
 50
109.9999999999984
 51
269.9999991462263
  0
ARC
  5
1000
330
1E
100
AcDbEntity
  8
STEMPEL
100
AcDbCircle
 10
656.0284591424085
 20
1703.575397543679
 30
0.0
 40
0.750000000000001
100
AcDbArc
 50
269.9999991462263
 51
70.00000000000159
  0
LINE
  5
1001
330
1E
100
AcDbEntity
  8
STEMPEL
100
AcDbLine
 10
649.8784591424087
 20
1718.825397543686
 30
0.0
 11
641.8784591424087
 21
1718.825397543686
 31
0.0
  0
LINE
  5
1002
330
1E
100
AcDbEntity
  8
STEMPEL
100
AcDbLine
 10
650.8784591424086
 20
1717.825397543686
 30
0.0
 11
649.8784591424087
 21
1718.825397543686
 31
0.0
  0
LINE
  5
1003
330
1E
100
AcDbEntity
  8
STEMPEL
100
AcDbLine
 10
650.8784591424086
 20
1717.825397543686
 30
0.0
 11
640.8784591424087
 21
1717.825397543686
 31
0.0
  0
LINE
  5
1004
330
1E
100
AcDbEntity
  8
HILF
100
AcDbLine
 10
649.8784591424087
 20
1718.825397543686
 30
0.0
 11
649.8784591424087
 21
1712.825397543679
 31
0.0
  0
LINE
  5
1005
330
1E
100
AcDbEntity
  8
STEMPEL
100
AcDbLine
 10
650.8784591424086
 20
1717.825397543686
 30
0.0
 11
650.8784591424086
 21
1712.825397543679
 31
0.0
  0
LINE
  5
1006
330
1E
100
AcDbEntity
  8
STEMPEL
100
AcDbLine
 10
641.8784591424087
 20
1718.825397543686
 30
0.0
 11
640.8784591424087
 21
1717.825397543686
 31
0.0
  0
LINE
  5
1007
330
1E
100
AcDbEntity
  8
HILF
100
AcDbLine
 10
641.8784591424087
 20
1718.825397543686
 30
0.0
 11
641.8784591424087
 21
1712.825397543679
 31
0.0
  0
LINE
  5
1008
330
1E
100
AcDbEntity
  8
STEMPEL
100
AcDbLine
 10
640.8784591424087
 20
1717.825397543686
 30
0.0
 11
640.8784591424087
 21
1712.825397543679
 31
0.0
  0
ARC
  5
1009
330
1E
100
AcDbEntity
  8
STEMPEL
100
AcDbCircle
 10
645.8784591424087
 20
1682.514508411224
 30
0.0
 40
30.31088913245485
100
AcDbArc
 50
81.78678929826105
 51
98.21321070173894
  0
LINE
  5
100A
330
1E
100
AcDbEntity
  8
STEMPEL
100
AcDbLine
 10
650.8784591424086
 20
1699.825397543679
 30
0.0
 11
650.8784591424086
 21
1696.825397543679
 31
0.0
  0
LINE
  5
100B
330
1E
100
AcDbEntity
  8
HILF
100
AcDbLine
 10
649.8784591424087
 20
1699.825397543679
 30
0.0
 11
649.8784591424086
 21
1696.825397543679
 31
0.0
  0
LINE
  5
100C
330
1E
100
AcDbEntity
  8
HILF
100
AcDbLine
 10
641.8784591424087
 20
1699.825397543679
 30
0.0
 11
641.8784591424086
 21
1696.825397543679
 31
0.0
  0
LINE
  5
100D
330
1E
100
AcDbEntity
  8
STEMPEL
100
AcDbLine
 10
640.8784591424087
 20
1699.825397543679
 30
0.0
 11
640.8784591424086
 21
1696.825397543679
 31
0.0
  0
ARC
  5
100E
330
1E
100
AcDbEntity
  8
STEMPEL
100
AcDbCircle
 10
702.8832686140256
 20
1705.131091835894
 30
0.0
 40
7.694305707784447
100
AcDbArc
 50
73.65710669401841
 51
106.3428933059847
  0
ARC
  5
100F
330
1E
100
AcDbEntity
  8
STEMPEL
100
AcDbCircle
 10
715.8736496707923
 20
1705.131091835894
 30
0.0
 40
7.694305707784447
100
AcDbArc
 50
73.65710669401528
 51
106.3428933059816
  0
ARC
  5
1010
330
1E
100
AcDbEntity
  8
HILF
100
AcDbCircle
 10
709.3784591424089
 20
1682.926936496017
 30
0.0
 40
22.41111549782308
100
AcDbArc
 50
78.85962783890391
 51
101.1403721610961
  0
ARC
  5
1011
330
1E
100
AcDbEntity
  8
HILF
100
AcDbCircle
 10
715.8736496707923
 20
1699.576911394149
 30
0.0
 40
5.761140599691502
100
AcDbArc
 50
67.9259452632581
 51
112.0740547367419
  0
ARC
  5
1012
330
1E
100
AcDbEntity
  8
HILF
100
AcDbCircle
 10
702.8832686140256
 20
1699.576911394149
 30
0.0
 40
5.761140599691502
100
AcDbArc
 50
67.9259452632581
 51
112.0740547367419
  0
POINT
  5
1013
330
1E
100
AcDbEntity
  8
0
100
AcDbPoint
 10
709.3784591424089
 20
1702.825397543678
 30
0.0
210
0.0000000000000001
220
1.0
230
0.0
  0
LINE
  5
1014
330
1E
100
AcDbEntity
  8
STEMPEL
100
AcDbLine
 10
701.8784591424089
 20
1712.825397543679
 30
0.0
 11
716.8784591424089
 21
1712.825397543679
 31
0.0
  0
LINE
  5
1015
330
1E
100
AcDbEntity
  8
STEMPEL
100
AcDbLine
 10
718.0387131802532
 20
1704.915754059878
 30
0.0
 11
718.0387131802532
 21
1712.514508411223
 31
0.0
  0
LINE
  5
1016
330
1E
100
AcDbEntity
  8
STEMPEL
100
AcDbLine
 10
713.7085861613311
 20
1704.915754059878
 30
0.0
 11
713.7085861613311
 21
1712.514508411223
 31
0.0
  0
LINE
  5
1017
330
1E
100
AcDbEntity
  8
STEMPEL
100
AcDbLine
 10
705.0483321234866
 20
1704.915754059878
 30
0.0
 11
705.0483321234866
 21
1712.514508411223
 31
0.0
  0
LINE
  5
1018
330
1E
100
AcDbEntity
  8
STEMPEL
100
AcDbLine
 10
719.7849742499031
 20
1704.280167009268
 30
0.0
 11
698.9719440349146
 21
1704.280167009268
 31
0.0
  0
LINE
  5
1019
330
1E
100
AcDbEntity
  8
STEMPEL
100
AcDbLine
 10
719.5284591424088
 20
1702.825397543678
 30
0.0
 11
699.2284591424088
 21
1702.825397543678
 31
0.0
  0
LINE
  5
101A
330
1E
100
AcDbEntity
  8
STEMPEL
100
AcDbLine
 10
700.7182051045645
 20
1704.915754059878
 30
0.0
 11
700.7182051045645
 21
1712.514508411223
 31
0.0
  0
LINE
  5
101B
330
1E
100
AcDbEntity
  8
STEMPEL
100
AcDbLine
 10
701.8784591424089
 20
1712.825397543679
 30
0.0
 11
700.7182051045645
 21
1712.514508411223
 31
0.0
  0
LINE
  5
101C
330
1E
100
AcDbEntity
  8
STEMPEL
100
AcDbLine
 10
718.0387131802532
 20
1712.514508411223
 30
0.0
 11
716.8784591424089
 21
1712.825397543679
 31
0.0
  0
LINE
  5
101D
330
1E
100
AcDbEntity
  8
STEMPEL
100
AcDbLine
 10
719.7849742499031
 20
1704.280167009268
 30
0.0
 11
718.0387131802532
 21
1704.915754059878
 31
0.0
  0
LINE
  5
101E
330
1E
100
AcDbEntity
  8
STEMPEL
100
AcDbLine
 10
700.7182051045645
 20
1704.915754059878
 30
0.0
 11
698.9719440349147
 21
1704.280167009268
 31
0.0
  0
ARC
  5
101F
330
1E
100
AcDbEntity
  8
STEMPEL
100
AcDbCircle
 10
699.2284591424088
 20
1703.575397543678
 30
0.0
 40
0.7500000000000013
100
AcDbArc
 50
109.9999999999984
 51
269.9999991462263
  0
ARC
  5
1020
330
1E
100
AcDbEntity
  8
STEMPEL
100
AcDbCircle
 10
719.5284591424088
 20
1703.575397543678
 30
0.0
 40
0.750000000000001
100
AcDbArc
 50
269.9999991462263
 51
70.00000000000159
  0
LINE
  5
1021
330
1E
100
AcDbEntity
  8
STEMPEL
100
AcDbLine
 10
713.3784591424089
 20
1718.825397543685
 30
0.0
 11
705.3784591424089
 21
1718.825397543685
 31
0.0
  0
LINE
  5
1022
330
1E
100
AcDbEntity
  8
STEMPEL
100
AcDbLine
 10
714.3784591424089
 20
1717.825397543685
 30
0.0
 11
713.3784591424089
 21
1718.825397543685
 31
0.0
  0
LINE
  5
1023
330
1E
100
AcDbEntity
  8
STEMPEL
100
AcDbLine
 10
714.3784591424089
 20
1717.825397543685
 30
0.0
 11
704.3784591424089
 21
1717.825397543685
 31
0.0
  0
LINE
  5
1024
330
1E
100
AcDbEntity
  8
HILF
100
AcDbLine
 10
713.3784591424089
 20
1718.825397543685
 30
0.0
 11
713.3784591424089
 21
1712.825397543679
 31
0.0
  0
LINE
  5
1025
330
1E
100
AcDbEntity
  8
STEMPEL
100
AcDbLine
 10
714.3784591424089
 20
1717.825397543685
 30
0.0
 11
714.3784591424089
 21
1712.825397543679
 31
0.0
  0
LINE
  5
1026
330
1E
100
AcDbEntity
  8
STEMPEL
100
AcDbLine
 10
705.3784591424089
 20
1718.825397543685
 30
0.0
 11
704.3784591424089
 21
1717.825397543685
 31
0.0
  0
LINE
  5
1027
330
1E
100
AcDbEntity
  8
HILF
100
AcDbLine
 10
705.3784591424089
 20
1718.825397543685
 30
0.0
 11
705.3784591424089
 21
1712.825397543679
 31
0.0
  0
LINE
  5
1028
330
1E
100
AcDbEntity
  8
STEMPEL
100
AcDbLine
 10
704.3784591424089
 20
1717.825397543685
 30
0.0
 11
704.3784591424089
 21
1712.825397543679
 31
0.0
  0
ARC
  5
1029
330
1E
100
AcDbEntity
  8
STEMPEL
100
AcDbCircle
 10
709.3784591424089
 20
1682.514508411224
 30
0.0
 40
30.31088913245485
100
AcDbArc
 50
81.78678929826105
 51
98.21321070173894
  0
LINE
  5
102A
330
1E
100
AcDbEntity
  8
STEMPEL
100
AcDbLine
 10
714.3784591424089
 20
1702.825397543678
 30
0.0
 11
714.3784591424089
 21
1693.825397543686
 31
0.0
  0
LINE
  5
102B
330
1E
100
AcDbEntity
  8
HILF
100
AcDbLine
 10
713.3784591424089
 20
1702.825397543678
 30
0.0
 11
713.3784591424089
 21
1693.825397543686
 31
0.0
  0
LINE
  5
102C
330
1E
100
AcDbEntity
  8
HILF
100
AcDbLine
 10
705.3784591424089
 20
1702.825397543678
 30
0.0
 11
705.3784591424089
 21
1693.825397543686
 31
0.0
  0
LINE
  5
102D
330
1E
100
AcDbEntity
  8
STEMPEL
100
AcDbLine
 10
704.3784591424089
 20
1702.825397543678
 30
0.0
 11
704.3784591424089
 21
1693.825397543686
 31
0.0
  0
TEXT
  5
103E
330
1E
100
AcDbEntity
  8
VOLL
100
AcDbText
 10
513.9973395421268
 20
713.2890082841083
 30
0.0
 40
1.8
  1

  7
GREEKS
100
AcDbText
  0
CIRCLE
  5
1040
330
1E
100
AcDbEntity
  8
VERDECKT
100
AcDbCircle
 10
455.6851615059995
 20
701.839363381403
 30
0.0
 40
7.499999999999968
  0
ARC
  5
1044
330
1E
100
AcDbEntity
  8
VERDECKT
100
AcDbCircle
 10
455.6851615059994
 20
701.839363381403
 30
0.0
 40
4.188000000000005
100
AcDbArc
 50
200.0
 51
109.055253550021
  0
CIRCLE
  5
1045
330
1E
100
AcDbEntity
  8
VERDECKT
100
AcDbCircle
 10
455.6851615059995
 20
701.839363381403
 30
0.0
 40
10.40651510749425
  0
CIRCLE
  5
1046
330
1E
100
AcDbEntity
  8
VERDECKT
100
AcDbCircle
 10
455.6851615059995
 20
701.839363381403
 30
0.0
 40
10.9
  0
LWPOLYLINE
  5
1047
330
1E
100
AcDbEntity
  8
VERDECKT
100
AcDbPolyline
 90
        6
 70
     1
 43
0.0
 10
451.3550344870774
 20
709.339363381403
 10
447.0249074681551
 20
701.839363381403
 10
451.3550344870773
 20
694.339363381403
 10
460.0152885249217
 20
694.339363381403
 10
464.345415543844
 20
701.839363381403
 10
460.0152885249217
 20
709.339363381403
  0
CIRCLE
  5
1048
330
1E
100
AcDbEntity
  8
VERDECKT
100
AcDbCircle
 10
455.6851615059995
 20
701.839363381403
 30
0.0
 40
5.0
  0
CIRCLE
  5
104B
330
1E
100
AcDbEntity
  8
VERDECKT
100
AcDbCircle
 10
519.1851615059995
 20
591.8541371007794
 30
0.0
 40
5.0
  0
LWPOLYLINE
  5
104C
330
1E
100
AcDbEntity
  8
VERDECKT
100
AcDbPolyline
 90
        6
 70
     1
 43
0.0
 10
510.5249074681551
 20
591.8541371007793
 10
514.8550344870773
 20
584.3541371007793
 10
523.5152885249217
 20
584.3541371007793
 10
527.8454155438439
 20
591.8541371007793
 10
523.5152885249217
 20
599.3541371007793
 10
514.8550344870773
 20
599.3541371007793
  0
CIRCLE
  5
104D
330
1E
100
AcDbEntity
  8
VERDECKT
100
AcDbCircle
 10
519.1851615059995
 20
591.8541371007794
 30
0.0
 40
10.9
  0
CIRCLE
  5
104E
330
1E
100
AcDbEntity
  8
VERDECKT
100
AcDbCircle
 10
519.1851615059995
 20
591.8541371007794
 30
0.0
 40
10.40651510749425
  0
ARC
  5
104F
330
1E
100
AcDbEntity
  8
VERDECKT
100
AcDbCircle
 10
519.1851615059994
 20
591.8541371007793
 30
0.0
 40
4.188000000000005
100
AcDbArc
 50
260.0
 51
169.055253550021
  0
CIRCLE
  5
1050
330
1E
100
AcDbEntity
  8
VERDECKT
100
AcDbCircle
 10
519.1851615059995
 20
591.8541371007794
 30
0.0
 40
7.499999999999968
  0
CIRCLE
  5
1052
330
1E
100
AcDbEntity
  8
VERDECKT
100
AcDbCircle
 10
646.1851615059994
 20
591.8541371007794
 30
0.0
 40
5.0
  0
LWPOLYLINE
  5
1053
330
1E
100
AcDbEntity
  8
VERDECKT
100
AcDbPolyline
 90
        6
 70
     1
 43
0.0
 10
641.8550344870773
 20
584.3541371007794
 10
650.5152885249215
 20
584.3541371007793
 10
654.8454155438438
 20
591.8541371007793
 10
650.5152885249216
 20
599.3541371007793
 10
641.8550344870772
 20
599.3541371007794
 10
637.524907468155
 20
591.8541371007793
  0
CIRCLE
  5
1054
330
1E
100
AcDbEntity
  8
VERDECKT
100
AcDbCircle
 10
646.1851615059994
 20
591.8541371007794
 30
0.0
 40
10.9
  0
CIRCLE
  5
1055
330
1E
100
AcDbEntity
  8
VERDECKT
100
AcDbCircle
 10
646.1851615059994
 20
591.8541371007794
 30
0.0
 40
10.40651510749425
  0
ARC
  5
1056
330
1E
100
AcDbEntity
  8
VERDECKT
100
AcDbCircle
 10
646.1851615059995
 20
591.8541371007793
 30
0.0
 40
4.188000000000005
100
AcDbArc
 50
320.0
 51
229.055253550021
  0
CIRCLE
  5
1057
330
1E
100
AcDbEntity
  8
VERDECKT
100
AcDbCircle
 10
646.1851615059994
 20
591.8541371007794
 30
0.0
 40
7.499999999999968
  0
CIRCLE
  5
1059
330
1E
100
AcDbEntity
  8
VERDECKT
100
AcDbCircle
 10
709.6851615059994
 20
701.8393633814031
 30
0.0
 40
5.0
  0
LWPOLYLINE
  5
105A
330
1E
100
AcDbEntity
  8
VERDECKT
100
AcDbPolyline
 90
        6
 70
     1
 43
0.0
 10
714.0152885249214
 20
694.339363381403
 10
718.3454155438437
 20
701.839363381403
 10
714.0152885249217
 20
709.339363381403
 10
705.3550344870773
 20
709.339363381403
 10
701.0249074681549
 20
701.8393633814031
 10
705.3550344870772
 20
694.339363381403
  0
CIRCLE
  5
105B
330
1E
100
AcDbEntity
  8
VERDECKT
100
AcDbCircle
 10
709.6851615059994
 20
701.8393633814031
 30
0.0
 40
10.9
  0
CIRCLE
  5
105C
330
1E
100
AcDbEntity
  8
VERDECKT
100
AcDbCircle
 10
709.6851615059994
 20
701.8393633814031
 30
0.0
 40
10.40651510749425
  0
ARC
  5
105D
330
1E
100
AcDbEntity
  8
VERDECKT
100
AcDbCircle
 10
709.6851615059995
 20
701.8393633814031
 30
0.0
 40
4.188000000000005
100
AcDbArc
 50
20.00000000000001
 51
289.0552535500211
  0
CIRCLE
  5
105E
330
1E
100
AcDbEntity
  8
VERDECKT
100
AcDbCircle
 10
709.6851615059994
 20
701.8393633814031
 30
0.0
 40
7.499999999999968
  0
CIRCLE
  5
1060
330
1E
100
AcDbEntity
  8
VERDECKT
100
AcDbCircle
 10
646.1851615059994
 20
811.8245896620265
 30
0.0
 40
5.0
  0
LWPOLYLINE
  5
1061
330
1E
100
AcDbEntity
  8
VERDECKT
100
AcDbPolyline
 90
        6
 70
     1
 43
0.0
 10
654.8454155438437
 20
811.8245896620264
 10
650.5152885249216
 20
819.3245896620265
 10
641.8550344870772
 20
819.3245896620265
 10
637.5249074681549
 20
811.8245896620264
 10
641.8550344870772
 20
804.3245896620264
 10
650.5152885249215
 20
804.3245896620264
  0
CIRCLE
  5
1062
330
1E
100
AcDbEntity
  8
VERDECKT
100
AcDbCircle
 10
646.1851615059994
 20
811.8245896620265
 30
0.0
 40
10.9
  0
CIRCLE
  5
1063
330
1E
100
AcDbEntity
  8
VERDECKT
100
AcDbCircle
 10
646.1851615059994
 20
811.8245896620265
 30
0.0
 40
10.40651510749425
  0
ARC
  5
1064
330
1E
100
AcDbEntity
  8
VERDECKT
100
AcDbCircle
 10
646.1851615059994
 20
811.8245896620265
 30
0.0
 40
4.188000000000005
100
AcDbArc
 50
79.99999999999999
 51
349.055253550021
  0
CIRCLE
  5
1065
330
1E
100
AcDbEntity
  8
VERDECKT
100
AcDbCircle
 10
646.1851615059994
 20
811.8245896620265
 30
0.0
 40
7.499999999999968
  0
CIRCLE
  5
1067
330
1E
100
AcDbEntity
  8
VERDECKT
100
AcDbCircle
 10
519.1851615059994
 20
811.8245896620267
 30
0.0
 40
5.0
  0
LWPOLYLINE
  5
1068
330
1E
100
AcDbEntity
  8
VERDECKT
100
AcDbPolyline
 90
        6
 70
     1
 43
0.0
 10
523.5152885249216
 20
819.3245896620267
 10
514.8550344870774
 20
819.3245896620267
 10
510.5249074681551
 20
811.8245896620267
 10
514.8550344870773
 20
804.3245896620266
 10
523.5152885249217
 20
804.3245896620266
 10
527.8454155438438
 20
811.8245896620267
  0
CIRCLE
  5
1069
330
1E
100
AcDbEntity
  8
VERDECKT
100
AcDbCircle
 10
519.1851615059994
 20
811.8245896620267
 30
0.0
 40
10.9
  0
CIRCLE
  5
106A
330
1E
100
AcDbEntity
  8
VERDECKT
100
AcDbCircle
 10
519.1851615059994
 20
811.8245896620267
 30
0.0
 40
10.40651510749425
  0
ARC
  5
106B
330
1E
100
AcDbEntity
  8
VERDECKT
100
AcDbCircle
 10
519.1851615059992
 20
811.8245896620267
 30
0.0
 40
4.188000000000005
100
AcDbArc
 50
139.9999999999999
 51
49.055253550021
  0
CIRCLE
  5
106C
330
1E
100
AcDbEntity
  8
VERDECKT
100
AcDbCircle
 10
519.1851615059994
 20
811.8245896620267
 30
0.0
 40
7.499999999999968
  0
HATCH
  5
107F
330
1E
100
AcDbEntity
  8
SCHRAFF
100
AcDbHatch
 10
0.0
 20
0.0
 30
0.0
210
0.0
220
0.0
230
1.0
  2
NET
 70
     0
 71
     1
 91
        4
 92
        7
 72
     0
 73
     1
 93
        4
 10
747.6851615059995
 20
1693.825397543679
 10
747.6851615059997
 20
1696.825397543679
 10
718.6851615059996
 20
1696.825397543679
 10
718.6851615059996
 20
1693.825397543679
 97
        4
330
DA7
330
DBC
330
C9A
330
DC0
 92
        7
 72
     0
 73
     1
 93
        4
 10
700.6851615059995
 20
1693.825397543679
 10
700.6851615059996
 20
1696.825397543679
 10
670.1851615059998
 20
1696.825397543679
 10
670.1851615059999
 20
1693.82539754368
 97
        4
330
DBF
330
1E4
330
C9A
330
DBD
 92
        7
 72
     0
 73
     1
 93
        4
 10
495.1851615059996
 20
1693.82539754368
 10
495.1851615059994
 20
1696.825397543679
 10
464.6851615059999
 20
1696.825397543679
 10
464.6851615059998
 20
1693.82539754368
 97
        4
330
DBF
330
DAE
330
C9A
330
1E3
 92
        7
 72
     0
 73
     1
 93
        4
 10
417.6851615059995
 20
1696.825397543679
 10
417.6851615059996
 20
1693.82539754368
 10
446.6851615059998
 20
1693.82539754368
 10
446.6851615059998
 20
1696.825397543679
 97
        4
330
DB1
330
DAB
330
C9A
330
DAF
 75
     0
 76
     1
 52
45.0
 41
15.0
 77
     0
 78
     2
 53
45.0
 43
0.0
 44
0.0
 45
-1.325825214724776
 46
1.325825214724776
 79
     0
 53
135.0
 43
0.0
 44
0.0
 45
-1.325825214724776
 46
-1.325825214724776
 79
     0
 47
0.4033563560615811
 98
        4
 10
727.3267286401023
 20
1694.731337720618
 10
695.4507604827941
 20
1694.731337720618
 10
484.4238050286913
 20
1695.134692699345
 10
440.443040096301
 20
1695.941407546841
  0
TEXT
  5
1080
330
1E
100
AcDbEntity
  8
TEXT
 62
     1
100
AcDbText
 10
1327.84503956708
 20
1975.323688879367
 30
0.0
 40
17.5
  1

 50
90.0
 41
0.8
  7
GREEKS
 72
     1
 11
1327.84503956708
 21
1975.323688879367
 31
0.0
100
AcDbText
  0
ENDSEC
  0
SECTION
  2
OBJECTS
  0
DICTIONARY
  5
C
330
0
100
AcDbDictionary
281
     1
  3
ACAD_COLOR
350
11A
  3
ACAD_GROUP
350
D
  3
ACAD_LAYOUT
350
19
  3
ACAD_MATERIAL
350
119
  3
ACAD_MLINESTYLE
350
16
  3
ACAD_PLOTSETTINGS
350
18
  3
ACAD_PLOTSTYLENAME
350
E
  3
AcDbVariableDictionary
350
125
  3
ASE_INDEX_DICTIONARY
350
B68
  0
DICTIONARY
  5
DB
330
1E
100
AcDbDictionary
280
     1
281
     1
  3
ACAD_LAYOUTSELFREF
360
10F
  0
DICTIONARY
  5
DD
330
1A
100
AcDbDictionary
280
     1
281
     1
  3
ACAD_LAYOUTSELFREF
360
10E
  0
DICTIONARY
  5
11A
102
{ACAD_REACTORS
330
C
102
}
330
C
100
AcDbDictionary
281
     1
  0
DICTIONARY
  5
D
102
{ACAD_REACTORS
330
C
102
}
330
C
100
AcDbDictionary
281
     1
  0
DICTIONARY
  5
19
102
{ACAD_REACTORS
330
C
102
}
330
C
100
AcDbDictionary
281
     1
  3
Layout1
350
1D
  3
Model
350
21
  0
DICTIONARY
  5
119
102
{ACAD_REACTORS
330
C
102
}
330
C
100
AcDbDictionary
281
     1
  0
DICTIONARY
  5
16
102
{ACAD_REACTORS
330
C
102
}
330
C
100
AcDbDictionary
281
     1
  3
Standard
350
17
  0
DICTIONARY
  5
18
102
{ACAD_REACTORS
330
C
102
}
330
C
100
AcDbDictionary
281
     1
  0
ACDBDICTIONARYWDFLT
  5
E
102
{ACAD_REACTORS
330
C
102
}
330
C
100
AcDbDictionary
281
     1
  3
Normal
350
F
100
AcDbDictionaryWithDefault
340
F
  0
DICTIONARY
  5
125
102
{ACAD_REACTORS
330
C
102
}
330
C
100
AcDbDictionary
281
     1
  3
DIMASSOC
350
126
  3
PROJECTNAME
350
127
  0
DICTIONARY
  5
B68
102
{ACAD_REACTORS
330
C
102
}
330
C
100
AcDbDictionary
281
     1
  3
ASEBlockHierarchyIndexRecord
350
B6A
1001
DCO15
1040
1635662184.25
  0
XRECORD
  5
10F
102
{ACAD_REACTORS
330
DB
102
}
330
DB
100
AcDbXrecord
280
     1
340
1E
  0
XRECORD
  5
10E
102
{ACAD_REACTORS
330
DD
102
}
330
DD
100
AcDbXrecord
280
     1
340
1A
  0
LAYOUT
  5
1D
102
{ACAD_REACTORS
330
19
102
}
330
19
100
AcDbPlotSettings
  1

  2
\\NT_WORK01\HP LaserJet 5000 PCL 6
  4

  6

 40
0.0
 41
0.0
 42
0.0
 43
0.0
 44
0.0
 45
0.0
 46
0.0
 47
0.0
 48
0.0
 49
0.0
140
0.0
141
0.0
142
1.0
143
1.0
 70
   688
 72
     0
 73
     0
 74
     5
  7
monochrome.ctb
 75
    16
147
1.0
 76
     0
 77
     2
 78
   300
148
0.0
149
0.0
100
AcDbLayout
  1
Layout1
 70
     0
 71
     1
 10
0.0
 20
0.0
 11
12.0
 21
9.0
 12
0.0
 22
0.0
 32
0.0
 14
1.000000000000000E+20
 24
1.000000000000000E+20
 34
1.000000000000000E+20
 15
-1.000000000000000E+20
 25
-1.000000000000000E+20
 35
-1.000000000000000E+20
146
0.0
 13
0.0
 23
0.0
 33
0.0
 16
1.0
 26
0.0
 36
0.0
 17
0.0
 27
1.0
 37
0.0
 76
     0
330
1A
  0
LAYOUT
  5
21
102
{ACAD_REACTORS
330
19
102
}
330
19
100
AcDbPlotSettings
  1

  2
RICOH Aficio MP 2510 RPCS
  4
A4
  6

 40
5.027083
 41
5.027084999999999
 42
5.027084
 43
5.027069
 44
209.973328
 45
296.925995
 46
0.0
 47
2.08
 48
860.6164320000001
 49
704.062178
140
1233.560643
141
997.3925559999999
142
1.0
143
7.428002361414471
 70
 11956
 72
     1
 73
     0
 74
     2
  7
monochrome 1.ctb
 75
     0
147
0.1346256976430976
 76
     1
 77
     2
 78
   300
148
0.0
149
0.0
100
AcDbLayout
  1
Model
 70
     1
 71
     0
 10
0.0
 20
0.0
 11
12.0
 21
9.0
 12
0.0
 22
0.0
 32
0.0
 14
0.0
 24
0.0
 34
0.0
 15
0.0
 25
0.0
 35
0.0
146
0.0
 13
0.0
 23
0.0
 33
0.0
 16
1.0
 26
0.0
 36
0.0
 17
0.0
 27
1.0
 37
0.0
 76
     0
330
1E
  0
MLINESTYLE
  5
17
102
{ACAD_REACTORS
330
16
102
}
330
16
100
AcDbMlineStyle
  2
STANDARD
 70
     0
  3

 62
   256
 51
90.0
 52
90.0
 71
     2
 49
0.5
 62
   256
  6
BYLAYER
 49
-0.5
 62
   256
  6
BYLAYER
  0
ACDBPLACEHOLDER
  5
F
102
{ACAD_REACTORS
330
E
102
}
330
E
  0
DICTIONARYVAR
  5
126
102
{ACAD_REACTORS
330
125
102
}
330
125
100
DictionaryVariables
280
     0
  1
1
  0
DICTIONARYVAR
  5
127
102
{ACAD_REACTORS
330
125
102
}
330
125
100
DictionaryVariables
280
     0
  1

  0
XRECORD
  5
B6A
102
{ACAD_REACTORS
330
B68
102
}
330
B68
100
AcDbXrecord
280
     1
330
A27
330
A2D
330
A33
330
9B
330
56
  0
ENDSEC
  0
EOF
