  0
SECTION
  2
HEADER
  9
$ACADVER
  1
AC1018
  9
$ACADMAINTVER
 70
     2
  9
$DWGCODEPAGE
  3
ANSI_1252
  9
$INSBASE
 10
0.0
 20
0.0
 30
0.0
  9
$EXTMIN
 10
-0.0090483683015918
 20
-0.0127956723461011
 30
-0.0000000000000053
  9
$EXTMAX
 10
594.0090698065177
 20
840.0128259890157
 30
0.0000000000000099
  9
$LIMMIN
 10
0.0
 20
0.0
  9
$LIMMAX
 10
594.0
 20
840.0
  9
$ORTHOMODE
 70
     1
  9
$REGENMODE
 70
     1
  9
$FILLMODE
 70
     1
  9
$QTEXTMODE
 70
     0
  9
$MIRRTEXT
 70
     1
  9
$LTSCALE
 40
20.0
  9
$ATTMODE
 70
     1
  9
$TEXTSIZE
 40
3.5
  9
$TRACEWID
 40
1.0
  9
$TEXTSTYLE
  7
STANDARD
  9
$CLAYER
  8
VOLL
  9
$CELTYPE
  6
ByLayer
  9
$CECOLOR
 62
   256
  9
$CELTSCALE
 40
1.0
  9
$DISPSILH
 70
     0
  9
$DIMSCALE
 40
2.0
  9
$DIMASZ
 40
3.5
  9
$DIMEXO
 40
1.0
  9
$DIMDLI
 40
7.0
  9
$DIMRND
 40
0.0
  9
$DIMDLE
 40
0.0
  9
$DIMEXE
 40
1.0
  9
$DIMTP
 40
0.0
  9
$DIMTM
 40
0.0
  9
$DIMTXT
 40
3.5
  9
$DIMCEN
 40
1.5
  9
$DIMTSZ
 40
0.0
  9
$DIMTOL
 70
     0
  9
$DIMLIM
 70
     0
  9
$DIMTIH
 70
     0
  9
$DIMTOH
 70
     0
  9
$DIMSE1
 70
     0
  9
$DIMSE2
 70
     0
  9
$DIMTAD
 70
     1
  9
$DIMZIN
 70
     8
  9
$DIMBLK
  1

  9
$DIMASO
 70
     1
  9
$DIMSHO
 70
     0
  9
$DIMPOST
  1

  9
$DIMAPOST
  1

  9
$DIMALT
 70
     0
  9
$DIMALTD
 70
     2
  9
$DIMALTF
 40
25.4
  9
$DIMLFAC
 40
1.0
  9
$DIMTOFL
 70
     1
  9
$DIMTVP
 40
0.0
  9
$DIMTIX
 70
     0
  9
$DIMSOXD
 70
     0
  9
$DIMSAH
 70
     0
  9
$DIMBLK1
  1

  9
$DIMBLK2
  1

  9
$DIMSTYLE
  2
Standard
  9
$DIMCLRD
 70
     0
  9
$DIMCLRE
 70
     0
  9
$DIMCLRT
 70
     1
  9
$DIMTFAC
 40
0.5142857142857144
  9
$DIMGAP
 40
1.5
  9
$DIMJUST
 70
     0
  9
$DIMSD1
 70
     0
  9
$DIMSD2
 70
     0
  9
$DIMTOLJ
 70
     1
  9
$DIMTZIN
 70
     8
  9
$DIMALTZ
 70
     8
  9
$DIMALTTZ
 70
     8
  9
$DIMUPT
 70
     0
  9
$DIMDEC
 70
     2
  9
$DIMTDEC
 70
     2
  9
$DIMALTU
 70
     2
  9
$DIMALTTD
 70
     2
  9
$DIMTXSTY
  7
STANDARD
  9
$DIMAUNIT
 70
     0
  9
$DIMADEC
 70
     2
  9
$DIMALTRND
 40
0.0
  9
$DIMAZIN
 70
     2
  9
$DIMDSEP
 70
    46
  9
$DIMATFIT
 70
     3
  9
$DIMFRAC
 70
     0
  9
$DIMLDRBLK
  1

  9
$DIMLUNIT
 70
     2
  9
$DIMLWD
 70
    -2
  9
$DIMLWE
 70
    -2
  9
$DIMTMOVE
 70
     0
  9
$LUNITS
 70
     2
  9
$LUPREC
 70
     2
  9
$SKETCHINC
 40
1.0
  9
$FILLETRAD
 40
0.0
  9
$AUNITS
 70
     0
  9
$AUPREC
 70
     0
  9
$MENU
  1
ACAD
  9
$ELEVATION
 40
0.0
  9
$PELEVATION
 40
0.0
  9
$THICKNESS
 40
0.0
  9
$LIMCHECK
 70
     0
  9
$CHAMFERA
 40
0.0
  9
$CHAMFERB
 40
0.0
  9
$CHAMFERC
 40
0.0
  9
$CHAMFERD
 40
0.0
  9
$SKPOLY
 70
     0
  9
$TDCREATE
 40
2455397.825393172
  9
$TDUCREATE
 40
2455397.783726505
  9
$TDUPDATE
 40
2455545.451103391
  9
$TDUUPDATE
 40
2455545.409436725
  9
$TDINDWG
 40
0.0936148727
  9
$TDUSRTIMER
 40
0.0936148727
  9
$USRTIMER
 70
     1
  9
$ANGBASE
 50
0.0
  9
$ANGDIR
 70
     0
  9
$PDMODE
 70
     0
  9
$PDSIZE
 40
0.0
  9
$PLINEWID
 40
0.0
  9
$SPLFRAME
 70
     0
  9
$SPLINETYPE
 70
     6
  9
$SPLINESEGS
 70
     8
  9
$HANDSEED
  5
1404
  9
$SURFTAB1
 70
     6
  9
$SURFTAB2
 70
     6
  9
$SURFTYPE
 70
     6
  9
$SURFU
 70
     6
  9
$SURFV
 70
     6
  9
$UCSBASE
  2

  9
$UCSNAME
  2

  9
$UCSORG
 10
0.0
 20
0.0
 30
0.0
  9
$UCSXDIR
 10
1.0
 20
0.0
 30
0.0
  9
$UCSYDIR
 10
0.0
 20
1.0
 30
0.0
  9
$UCSORTHOREF
  2

  9
$UCSORTHOVIEW
 70
     0
  9
$UCSORGTOP
 10
0.0
 20
0.0
 30
0.0
  9
$UCSORGBOTTOM
 10
0.0
 20
0.0
 30
0.0
  9
$UCSORGLEFT
 10
0.0
 20
0.0
 30
0.0
  9
$UCSORGRIGHT
 10
0.0
 20
0.0
 30
0.0
  9
$UCSORGFRONT
 10
0.0
 20
0.0
 30
0.0
  9
$UCSORGBACK
 10
0.0
 20
0.0
 30
0.0
  9
$PUCSBASE
  2

  9
$PUCSNAME
  2

  9
$PUCSORG
 10
0.0
 20
0.0
 30
0.0
  9
$PUCSXDIR
 10
1.0
 20
0.0
 30
0.0
  9
$PUCSYDIR
 10
0.0
 20
1.0
 30
0.0
  9
$PUCSORTHOREF
  2

  9
$PUCSORTHOVIEW
 70
     0
  9
$PUCSORGTOP
 10
0.0
 20
0.0
 30
0.0
  9
$PUCSORGBOTTOM
 10
0.0
 20
0.0
 30
0.0
  9
$PUCSORGLEFT
 10
0.0
 20
0.0
 30
0.0
  9
$PUCSORGRIGHT
 10
0.0
 20
0.0
 30
0.0
  9
$PUCSORGFRONT
 10
0.0
 20
0.0
 30
0.0
  9
$PUCSORGBACK
 10
0.0
 20
0.0
 30
0.0
  9
$USERI1
 70
     0
  9
$USERI2
 70
     0
  9
$USERI3
 70
     0
  9
$USERI4
 70
     0
  9
$USERI5
 70
     0
  9
$USERR1
 40
0.0
  9
$USERR2
 40
0.0
  9
$USERR3
 40
0.0
  9
$USERR4
 40
0.0
  9
$USERR5
 40
0.0
  9
$WORLDVIEW
 70
     1
  9
$SHADEDGE
 70
     3
  9
$SHADEDIF
 70
    70
  9
$TILEMODE
 70
     1
  9
$MAXACTVP
 70
    16
  9
$PINSBASE
 10
0.0
 20
0.0
 30
0.0
  9
$PLIMCHECK
 70
     0
  9
$PEXTMIN
 10
1.000000000000000E+20
 20
1.000000000000000E+20
 30
1.000000000000000E+20
  9
$PEXTMAX
 10
-1.000000000000000E+20
 20
-1.000000000000000E+20
 30
-1.000000000000000E+20
  9
$PLIMMIN
 10
0.0
 20
0.0
  9
$PLIMMAX
 10
12.0
 20
9.0
  9
$UNITMODE
 70
     0
  9
$VISRETAIN
 70
     0
  9
$PLINEGEN
 70
     0
  9
$PSLTSCALE
 70
     0
  9
$TREEDEPTH
 70
  3020
  9
$CMLSTYLE
  2
Standard
  9
$CMLJUST
 70
     0
  9
$CMLSCALE
 40
1.0
  9
$PROXYGRAPHICS
 70
     1
  9
$MEASUREMENT
 70
     0
  9
$CELWEIGHT
370
    -1
  9
$ENDCAPS
280
     0
  9
$JOINSTYLE
280
     0
  9
$LWDISPLAY
290
     0
  9
$INSUNITS
 70
     0
  9
$HYPERLINKBASE
  1

  9
$STYLESHEET
  1
monochrome 1.ctb
  9
$XEDIT
290
     1
  9
$CEPSNTYPE
380
     0
  9
$PSTYLEMODE
290
     1
  9
$FINGERPRINTGUID
  2
{D68B0D0D-A558-11D7-B632-000102183313}
  9
$VERSIONGUID
  2
{C574FCB6-41A8-40F3-9B66-74FD3734AF84}
  9
$EXTNAMES
290
     1
  9
$PSVPSCALE
 40
0.0
  9
$OLESTARTUP
290
     0
  9
$SORTENTS
280
   127
  9
$INDEXCTL
280
     0
  9
$HIDETEXT
280
     0
  9
$XCLIPFRAME
290
     0
  9
$HALOGAP
280
     0
  9
$OBSCOLOR
 70
   257
  9
$OBSLTYPE
280
     0
  9
$INTERSECTIONDISPLAY
280
     0
  9
$INTERSECTIONCOLOR
 70
   257
  9
$DIMASSOC
280
     1
  9
$PROJECTNAME
  1

  0
ENDSEC
  0
SECTION
  2
CLASSES
  0
CLASS
  1
ACDBDICTIONARYWDFLT
  2
AcDbDictionaryWithDefault
  3
ObjectDBX Classes
 90
        0
 91
        1
280
     0
281
     0
  0
CLASS
  1
DICTIONARYVAR
  2
AcDbDictionaryVar
  3
ObjectDBX Classes
 90
        0
 91
        2
280
     0
281
     0
  0
ENDSEC
  0
SECTION
  2
TABLES
  0
TABLE
  2
VPORT
  5
8
330
0
100
AcDbSymbolTable
 70
     2
  0
VPORT
  5
1403
330
8
100
AcDbSymbolTableRecord
100
AcDbViewportTableRecord
  2
*Active
 70
     0
 10
0.0
 20
0.0
 11
1.0
 21
1.0
 12
297.0000107191081
 22
420.0000151583347
 13
0.0
 23
0.0
 14
1.0
 24
1.0
 15
10.0
 25
10.0
 16
0.0
 26
0.0
 36
1.0
 17
0.0
 27
0.0
 37
0.0
 40
846.80913946751
 41
1.336927223719676
 42
50.0
 43
0.0
 44
0.0
 50
0.0
 51
0.0
 71
     0
 72
  1500
 73
     1
 74
     0
 75
     0
 76
     0
 77
     0
 78
     0
281
     0
 65
     1
110
0.0
120
0.0
130
0.0
111
1.0
121
0.0
131
0.0
112
0.0
122
1.0
132
0.0
 79
     0
146
0.0
  0
ENDTAB
  0
TABLE
  2
LTYPE
  5
5
330
0
100
AcDbSymbolTable
 70
     3
  0
LTYPE
  5
13
330
5
100
AcDbSymbolTableRecord
100
AcDbLinetypeTableRecord
  2
ByBlock
 70
     0
  3

 72
    65
 73
     0
 40
0.0
  0
LTYPE
  5
14
330
5
100
AcDbSymbolTableRecord
100
AcDbLinetypeTableRecord
  2
ByLayer
 70
     0
  3

 72
    65
 73
     0
 40
0.0
  0
LTYPE
  5
15
330
5
100
AcDbSymbolTableRecord
100
AcDbLinetypeTableRecord
  2
Continuous
 70
     0
  3
Solid line
 72
    65
 73
     0
 40
0.0
  0
LTYPE
  5
25
330
5
100
AcDbSymbolTableRecord
100
AcDbLinetypeTableRecord
  2
STRICHPUNKT
 70
     0
  3
__ . __ . __ . __ . __ . __ . __ . __ . __ . __
 72
    65
 73
     4
 40
1.0
 49
0.5
 74
     0
 49
-0.25
 74
     0
 49
0.0
 74
     0
 49
-0.25
 74
     0
  0
LTYPE
  5
34
330
5
100
AcDbSymbolTableRecord
100
AcDbLinetypeTableRecord
  2
AUSGEZOGEN
 70
     0
  3
Ausgezogene Linie
 72
    65
 73
     0
 40
0.0
  0
ENDTAB
  0
TABLE
  2
LAYER
  5
2
330
0
100
AcDbSymbolTable
 70
     9
  0
LAYER
  5
10
330
2
100
AcDbSymbolTableRecord
100
AcDbLayerTableRecord
  2
0
 70
     0
 62
     7
  6
Continuous
370
    -3
390
F
  0
LAYER
  5
2B
330
2
100
AcDbSymbolTableRecord
100
AcDbLayerTableRecord
  2
VOLL
 70
     0
 62
     1
  6
Continuous
370
    -3
390
F
  0
LAYER
  5
2C
330
2
100
AcDbSymbolTableRecord
100
AcDbLayerTableRecord
  2
HILF
 70
     0
 62
     2
  6
Continuous
370
    -3
390
F
  0
LAYER
  5
2D
330
2
100
AcDbSymbolTableRecord
100
AcDbLayerTableRecord
  2
MITTEL
 70
     0
 62
     2
  6
STRICHPUNKT
370
    -3
390
F
  0
LAYER
  5
2F
330
2
100
AcDbSymbolTableRecord
100
AcDbLayerTableRecord
  2
BEM
 70
     0
 62
     7
  6
Continuous
370
    -3
390
F
  0
LAYER
  5
30
330
2
100
AcDbSymbolTableRecord
100
AcDbLayerTableRecord
  2
STEMPEL
 70
     0
 62
     3
  6
Continuous
370
    -3
390
F
  0
LAYER
  5
33
330
2
100
AcDbSymbolTableRecord
100
AcDbLayerTableRecord
  2
TEXT
 70
     0
 62
     7
  6
Continuous
370
    -3
390
F
  0
LAYER
  5
1DD
330
2
100
AcDbSymbolTableRecord
100
AcDbLayerTableRecord
  2
DEFPOINTS
 70
     0
 62
     7
  6
AUSGEZOGEN
290
     0
370
    -3
390
F
  0
LAYER
  5
1DE
330
2
100
AcDbSymbolTableRecord
100
AcDbLayerTableRecord
  2
SCHRAFF
 70
     0
 62
     7
  6
AUSGEZOGEN
370
    -3
390
F
  0
ENDTAB
  0
TABLE
  2
STYLE
  5
3
330
0
100
AcDbSymbolTable
 70
     2
  0
STYLE
  5
11
330
3
100
AcDbSymbolTableRecord
100
AcDbTextStyleTableRecord
  2
STANDARD
 70
     0
 40
0.0
 41
0.8
 50
0.0
 71
     0
 42
3.5
  3
simplex.shx
  4

  0
STYLE
  5
24
330
3
100
AcDbSymbolTableRecord
100
AcDbTextStyleTableRecord
  2
GREEKS
 70
     0
 40
0.0
 41
0.8
 50
0.0
 71
     0
 42
2.5
  3
SIMPLEX.shx
  4

  0
ENDTAB
  0
TABLE
  2
VIEW
  5
6
330
0
100
AcDbSymbolTable
 70
     0
  0
ENDTAB
  0
TABLE
  2
UCS
  5
7
330
0
100
AcDbSymbolTable
 70
     0
  0
ENDTAB
  0
TABLE
  2
APPID
  5
9
330
0
100
AcDbSymbolTable
 70
     1
  0
APPID
  5
12
330
9
100
AcDbSymbolTableRecord
100
AcDbRegAppTableRecord
  2
ACAD
 70
     0
  0
ENDTAB
  0
TABLE
  2
DIMSTYLE
  5
A
330
0
100
AcDbSymbolTable
 70
     1
100
AcDbDimStyleTable
 71
     1
340
A2
  0
DIMSTYLE
105
A2
102
{ACAD_REACTORS
330
DF9
330
DEF
330
DE5
330
DDE
330
104A
330
12F6
330
1305
330
135E
102
}
330
A
100
AcDbSymbolTableRecord
100
AcDbDimStyleTableRecord
  2
Standard
 70
     0
340
11
  0
ENDTAB
  0
TABLE
  2
BLOCK_RECORD
  5
1
330
0
100
AcDbSymbolTable
 70
    10
  0
BLOCK_RECORD
  5
1E
102
{ACAD_XDICTIONARY
360
DB
102
}
330
1
100
AcDbSymbolTableRecord
100
AcDbBlockTableRecord
  2
*Model_Space
340
21
  0
BLOCK_RECORD
  5
1A
102
{ACAD_XDICTIONARY
360
DD
102
}
330
1
100
AcDbSymbolTableRecord
100
AcDbBlockTableRecord
  2
*Paper_Space
340
1D
  0
BLOCK_RECORD
  5
22
330
1
100
AcDbSymbolTableRecord
100
AcDbBlockTableRecord
  2
LOGO
340
0
102
{BLKREFS
331
56
102
}
  0
BLOCK_RECORD
  5
23
330
1
100
AcDbSymbolTableRecord
100
AcDbBlockTableRecord
  2
LORO
340
0
102
{BLKREFS
331
9B
102
}
  0
BLOCK_RECORD
  5
F98
330
1
100
AcDbSymbolTableRecord
100
AcDbBlockTableRecord
  2
*D2
340
0
  0
BLOCK_RECORD
  5
FA5
330
1
100
AcDbSymbolTableRecord
100
AcDbBlockTableRecord
  2
*D3
340
0
  0
BLOCK_RECORD
  5
FBF
330
1
100
AcDbSymbolTableRecord
100
AcDbBlockTableRecord
  2
*D4
340
0
  0
BLOCK_RECORD
  5
FCC
330
1
100
AcDbSymbolTableRecord
100
AcDbBlockTableRecord
  2
*D5
340
0
  0
BLOCK_RECORD
  5
104B
330
1
100
AcDbSymbolTableRecord
100
AcDbBlockTableRecord
  2
*D6
340
0
  0
BLOCK_RECORD
  5
1333
330
1
100
AcDbSymbolTableRecord
100
AcDbBlockTableRecord
  2
*D7
340
0
  0
BLOCK_RECORD
  5
133F
330
1
100
AcDbSymbolTableRecord
100
AcDbBlockTableRecord
  2
*D8
340
0
  0
BLOCK_RECORD
  5
135F
330
1
100
AcDbSymbolTableRecord
100
AcDbBlockTableRecord
  2
*D9
340
0
  0
ENDTAB
  0
ENDSEC
  0
SECTION
  2
BLOCKS
  0
BLOCK
  5
37
330
1E
100
AcDbEntity
  8
0
100
AcDbBlockBegin
  2
*Model_Space
 70
     0
 10
0.0
 20
0.0
 30
0.0
  3
*Model_Space
  1

  0
ENDBLK
  5
38
330
1E
100
AcDbEntity
  8
0
100
AcDbBlockEnd
  0
BLOCK
  5
35
330
1A
100
AcDbEntity
 67
     1
  8
0
100
AcDbBlockBegin
  2
*Paper_Space
 70
     0
 10
0.0
 20
0.0
 30
0.0
  3
*Paper_Space
  1

  0
ENDBLK
  5
36
330
1A
100
AcDbEntity
 67
     1
  8
0
100
AcDbBlockEnd
  0
BLOCK
  5
39
330
22
100
AcDbEntity
  8
0
100
AcDbBlockBegin
  2
LOGO
 70
     0
 10
0.0
 20
0.0
 30
0.0
  3
LOGO
  1

  0
ARC
  5
3A
330
22
100
AcDbEntity
  8
0
100
AcDbCircle
 10
11.59973089678112
 20
-9.271599258481501
 30
0.0
 40
4.5
100
AcDbArc
 50
270.0
 51
231.0575587310159
  0
LINE
  5
3B
330
22
100
AcDbEntity
  8
0
100
AcDbLine
 10
3.599730896781125
 20
-4.771599258481529
 30
0.0
 11
3.599730896781153
 21
-11.77159925848133
 31
0.0
  0
LINE
  5
3C
330
22
100
AcDbEntity
  8
0
100
AcDbLine
 10
2.599730896781125
 20
-4.771599258481529
 30
0.0
 11
2.599730896781153
 21
-11.77159925848133
 31
0.0
  0
CIRCLE
  5
3D
330
22
100
AcDbEntity
  8
0
100
AcDbCircle
 10
11.59973089678112
 20
-9.271599258481501
 30
0.0
 40
3.5
  0
ARC
  5
3E
330
22
100
AcDbEntity
  8
0
100
AcDbCircle
 10
31.59973089678115
 20
-9.271599258481472
 30
0.0
 40
4.5
100
AcDbArc
 50
270.0
 51
231.0575587310182
  0
LINE
  5
3F
330
22
100
AcDbEntity
  8
0
100
AcDbLine
 10
17.59973089678112
 20
-4.771599258481472
 30
0.0
 11
17.59973089678115
 21
-13.77159925848147
 31
0.0
  0
ARC
  5
40
330
22
100
AcDbEntity
  8
0
100
AcDbCircle
 10
22.59973089678116
 20
-7.271599258481472
 30
0.0
 40
2.5
100
AcDbArc
 50
293.1161887722295
 51
90.0
  0
CIRCLE
  5
41
330
22
100
AcDbEntity
  8
0
100
AcDbCircle
 10
31.59973089678115
 20
-9.271599258481472
 30
0.0
 40
3.5
  0
ARC
  5
42
330
22
100
AcDbEntity
  8
0
100
AcDbCircle
 10
4.599730896781153
 20
-11.77159925848133
 30
0.0
 40
1.0
100
AcDbArc
 50
180.0
 51
270.0
  0
ARC
  5
43
330
22
100
AcDbEntity
  8
0
100
AcDbCircle
 10
4.599730896781153
 20
-11.77159925848133
 30
0.0
 40
2.0
100
AcDbArc
 50
179.9999999999992
 51
270.0
  0
LINE
  5
44
330
22
100
AcDbEntity
  8
0
100
AcDbLine
 10
11.59973089678115
 20
-13.77159925848144
 30
0.0
 11
4.599730896781153
 21
-13.77159925848147
 31
0.0
  0
LINE
  5
45
330
22
100
AcDbEntity
  8
0
100
AcDbLine
 10
8.771303772034769
 20
-12.77159925848136
 30
0.0
 11
4.599730896781153
 21
-12.77159925848133
 31
0.0
  0
LINE
  5
46
330
22
100
AcDbEntity
  8
0
100
AcDbLine
 10
31.59973089678115
 20
-13.77159925848147
 30
0.0
 11
23.6715276665056
 21
-13.77159925848144
 31
0.0
  0
LINE
  5
47
330
22
100
AcDbEntity
  8
0
100
AcDbLine
 10
23.56565672307022
 20
-9.51278021337896
 30
0.0
 11
24.4388546544846
 21
-12.77159925848144
 31
0.0
  0
LINE
  5
48
330
22
100
AcDbEntity
  8
0
100
AcDbLine
 10
22.59973089678116
 20
-9.771599258481472
 30
0.0
 11
18.59973089678112
 21
-9.771599258481472
 31
0.0
  0
LINE
  5
49
330
22
100
AcDbEntity
  8
0
100
AcDbLine
 10
18.59973089678115
 20
-13.77159925848144
 30
0.0
 11
17.59973089678115
 21
-13.77159925848144
 31
0.0
  0
LINE
  5
4A
330
22
100
AcDbEntity
  8
0
100
AcDbLine
 10
18.59973089678115
 20
-9.771599258481472
 30
0.0
 11
18.59973089678115
 21
-13.77159925848144
 31
0.0
  0
LINE
  5
4B
330
22
100
AcDbEntity
  8
0
100
AcDbLine
 10
22.59973089678116
 20
-9.771599258481472
 30
0.0
 11
23.67152766650562
 21
-13.77159925848147
 31
0.0
  0
ARC
  5
4C
330
22
100
AcDbEntity
  8
0
100
AcDbCircle
 10
22.59973089678116
 20
-7.271599258481472
 30
0.0
 40
2.5
100
AcDbArc
 50
270.0
 51
270.0000000000007
  0
LINE
  5
4D
330
22
100
AcDbEntity
  8
0
100
AcDbLine
 10
28.77130377203494
 20
-12.77159925848147
 30
0.0
 11
24.43885465448463
 21
-12.77159925848144
 31
0.0
  0
LINE
  5
4E
330
22
100
AcDbEntity
  8
0
100
AcDbLine
 10
3.599730896781125
 20
-4.771599258481472
 30
0.0
 11
2.599730896781125
 21
-4.771599258481472
 31
0.0
  0
LINE
  5
4F
330
22
100
AcDbEntity
  8
0
100
AcDbLine
 10
22.59973089678116
 20
-8.771599258481472
 30
0.0
 11
18.59973089678115
 21
-8.771599258481472
 31
0.0
  0
LINE
  5
50
330
22
100
AcDbEntity
  8
0
100
AcDbLine
 10
22.59973089678116
 20
-5.771599258481472
 30
0.0
 11
18.59973089678115
 21
-5.771599258481472
 31
0.0
  0
LINE
  5
51
330
22
100
AcDbEntity
  8
0
100
AcDbLine
 10
22.59973089678116
 20
-4.771599258481472
 30
0.0
 11
17.59973089678115
 21
-4.771599258481472
 31
0.0
  0
LINE
  5
52
330
22
100
AcDbEntity
  8
0
100
AcDbLine
 10
18.59973089678115
 20
-5.771599258481472
 30
0.0
 11
18.59973089678115
 21
-8.771599258481472
 31
0.0
  0
ARC
  5
53
330
22
100
AcDbEntity
  8
0
100
AcDbCircle
 10
22.59973089678116
 20
-7.271599258481472
 30
0.0
 40
1.5
100
AcDbArc
 50
270.0
 51
90.0
  0
ENDBLK
  5
54
330
22
100
AcDbEntity
  8
0
100
AcDbBlockEnd
  0
BLOCK
  5
55
330
23
100
AcDbEntity
  8
0
100
AcDbBlockBegin
  2
LORO
 70
     0
 10
0.0
 20
0.0
 30
0.0
  3
LORO
  1

  0
INSERT
  5
56
330
23
100
AcDbEntity
  8
STEMPEL
100
AcDbBlockReference
  2
LOGO
 10
-1.748032802467321
 20
3.771489518552062
 30
0.0
  0
ENDBLK
  5
57
330
23
100
AcDbEntity
  8
0
100
AcDbBlockEnd
  0
BLOCK
  5
FA3
330
F98
100
AcDbEntity
  8
0
100
AcDbBlockBegin
  2
*D2
 70
     1
 10
0.0
 20
0.0
 30
0.0
  3
*D2
  1

  0
LINE
  5
114E
330
F98
100
AcDbEntity
  8
BEM
 62
     0
370
    -2
100
AcDbLine
 10
197.5694886365713
 20
215.341284020288
 30
0.0
 11
197.5694886365713
 21
187.0575229947582
 31
0.0
  0
LINE
  5
114F
330
F98
100
AcDbEntity
  8
BEM
 62
     0
370
    -2
100
AcDbLine
 10
299.1694886365715
 20
215.3412840202876
 30
0.0
 11
299.1694886365715
 21
187.0575229947582
 31
0.0
  0
LINE
  5
1150
330
F98
100
AcDbEntity
  8
BEM
 62
     0
370
    -2
100
AcDbLine
 10
204.5694886365713
 20
189.0575229947582
 30
0.0
 11
292.1694886365715
 21
189.0575229947582
 31
0.0
  0
SOLID
  5
1151
330
F98
100
AcDbEntity
  8
BEM
 62
     0
100
AcDbTrace
 10
204.5694886365713
 20
190.2241896614249
 30
0.0
 11
204.5694886365713
 21
187.8908563280916
 31
0.0
 12
197.5694886365713
 22
189.0575229947582
 32
0.0
 13
197.5694886365713
 23
189.0575229947582
 33
0.0
  0
SOLID
  5
1152
330
F98
100
AcDbEntity
  8
BEM
 62
     0
100
AcDbTrace
 10
292.1694886365715
 20
190.2241896614249
 30
0.0
 11
292.1694886365715
 21
187.8908563280916
 31
0.0
 12
299.1694886365715
 22
189.0575229947582
 32
0.0
 13
299.1694886365715
 23
189.0575229947582
 33
0.0
  0
MTEXT
  5
1153
330
F98
100
AcDbEntity
  8
BEM
 62
     1
100
AcDbMText
 10
248.3694886365714
 20
195.5575229947582
 30
0.0
 40
7.0
 41
0.0
 71
     5
 72
     1
  1
\A1;%%c101.6
 73
     1
 44
1.0
  0
POINT
  5
1154
330
F98
100
AcDbEntity
  8
DEFPOINTS
 62
     0
100
AcDbPoint
 10
197.5694886365713
 20
217.341284020288
 30
0.0
  0
POINT
  5
1155
330
F98
100
AcDbEntity
  8
DEFPOINTS
 62
     0
100
AcDbPoint
 10
299.1694886365715
 20
217.3412840202876
 30
0.0
  0
POINT
  5
1156
330
F98
100
AcDbEntity
  8
DEFPOINTS
 62
     0
100
AcDbPoint
 10
299.1694886365715
 20
189.0575229947582
 30
0.0
  0
ENDBLK
  5
FA4
330
F98
100
AcDbEntity
  8
0
100
AcDbBlockEnd
  0
BLOCK
  5
FB0
330
FA5
100
AcDbEntity
  8
0
100
AcDbBlockBegin
  2
*D3
 70
     1
 10
0.0
 20
0.0
 30
0.0
  3
*D3
  1

  0
LINE
  5
1073
330
FA5
100
AcDbEntity
  8
BEM
 62
     0
370
    -2
100
AcDbLine
 10
138.3694886365716
 20
577.3412260529714
 30
0.0
 11
138.3694886365716
 21
606.6805011670774
 31
0.0
  0
LINE
  5
1074
330
FA5
100
AcDbEntity
  8
BEM
 62
     0
370
    -2
100
AcDbLine
 10
358.3694886365719
 20
577.3412260529714
 30
0.0
 11
358.3694886365719
 21
606.6805011670774
 31
0.0
  0
LINE
  5
1075
330
FA5
100
AcDbEntity
  8
BEM
 62
     0
370
    -2
100
AcDbLine
 10
145.3694886365716
 20
604.6805011670774
 30
0.0
 11
351.3694886365719
 21
604.6805011670774
 31
0.0
  0
SOLID
  5
1076
330
FA5
100
AcDbEntity
  8
BEM
 62
     0
100
AcDbTrace
 10
145.3694886365716
 20
605.847167833744
 30
0.0
 11
145.3694886365716
 21
603.5138345004107
 31
0.0
 12
138.3694886365716
 22
604.6805011670774
 32
0.0
 13
138.3694886365716
 23
604.6805011670774
 33
0.0
  0
SOLID
  5
1077
330
FA5
100
AcDbEntity
  8
BEM
 62
     0
100
AcDbTrace
 10
351.3694886365719
 20
605.847167833744
 30
0.0
 11
351.3694886365719
 21
603.5138345004107
 31
0.0
 12
358.3694886365719
 22
604.6805011670774
 32
0.0
 13
358.3694886365719
 23
604.6805011670774
 33
0.0
  0
MTEXT
  5
1078
330
FA5
100
AcDbEntity
  8
BEM
 62
     1
100
AcDbMText
 10
248.3694886365718
 20
611.1805011670774
 30
0.0
 40
7.0
 41
0.0
 71
     5
 72
     1
  1
\A1;%%c220
 73
     1
 44
1.0
  0
POINT
  5
1079
330
FA5
100
AcDbEntity
  8
DEFPOINTS
 62
     0
100
AcDbPoint
 10
138.3694886365716
 20
575.3412260529715
 30
0.0
  0
POINT
  5
107A
330
FA5
100
AcDbEntity
  8
DEFPOINTS
 62
     0
100
AcDbPoint
 10
358.3694886365719
 20
575.3412260529715
 30
0.0
  0
POINT
  5
107B
330
FA5
100
AcDbEntity
  8
DEFPOINTS
 62
     0
100
AcDbPoint
 10
358.3694886365719
 20
604.6805011670774
 30
0.0
  0
ENDBLK
  5
FB1
330
FA5
100
AcDbEntity
  8
0
100
AcDbBlockEnd
  0
BLOCK
  5
FCA
330
FBF
100
AcDbEntity
  8
0
100
AcDbBlockBegin
  2
*D4
 70
     1
 10
0.0
 20
0.0
 30
0.0
  3
*D4
  1

  0
LINE
  5
1133
330
FBF
100
AcDbEntity
  8
BEM
 62
     0
370
    -2
100
AcDbLine
 10
96.3694886365716
 20
479.3412840202869
 30
0.0
 11
78.57312069631524
 21
479.3412840202869
 31
0.0
  0
LINE
  5
1134
330
FBF
100
AcDbEntity
  8
BEM
 62
     0
370
    -2
100
AcDbLine
 10
196.2693979447788
 20
209.3412840202879
 30
0.0
 11
78.57312069631518
 21
209.3412840202879
 31
0.0
  0
LINE
  5
1135
330
FBF
100
AcDbEntity
  8
BEM
 62
     0
370
    -2
100
AcDbLine
 10
80.57312069631525
 20
472.3412840202869
 30
0.0
 11
80.57312069631519
 21
216.3412840202879
 31
0.0
  0
SOLID
  5
1136
330
FBF
100
AcDbEntity
  8
BEM
 62
     0
100
AcDbTrace
 10
79.40645402964857
 20
472.3412840202869
 30
0.0
 11
81.73978736298192
 21
472.3412840202869
 31
0.0
 12
80.57312069631525
 22
479.3412840202869
 32
0.0
 13
80.57312069631525
 23
479.3412840202869
 33
0.0
  0
SOLID
  5
1137
330
FBF
100
AcDbEntity
  8
BEM
 62
     0
100
AcDbTrace
 10
79.40645402964851
 20
216.3412840202879
 30
0.0
 11
81.73978736298186
 21
216.3412840202879
 31
0.0
 12
80.57312069631519
 22
209.3412840202879
 32
0.0
 13
80.57312069631519
 23
209.3412840202879
 33
0.0
  0
MTEXT
  5
1138
330
FBF
100
AcDbEntity
  8
BEM
 62
     1
100
AcDbMText
 10
74.07312069631515
 20
344.3412840202874
 30
0.0
 40
7.0
 41
0.0
 71
     5
 72
     1
  1
\A1;270
 11
0.0000000000000001
 21
1.0
 31
0.0
 73
     1
 44
1.0
  0
POINT
  5
1139
330
FBF
100
AcDbEntity
  8
DEFPOINTS
 62
     0
100
AcDbPoint
 10
98.36948863657159
 20
479.3412840202869
 30
0.0
  0
POINT
  5
113A
330
FBF
100
AcDbEntity
  8
DEFPOINTS
 62
     0
100
AcDbPoint
 10
198.2693979447788
 20
209.3412840202879
 30
0.0
  0
POINT
  5
113B
330
FBF
100
AcDbEntity
  8
DEFPOINTS
 62
     0
100
AcDbPoint
 10
80.57312069631519
 20
209.3412840202879
 30
0.0
  0
ENDBLK
  5
FCB
330
FBF
100
AcDbEntity
  8
0
100
AcDbBlockEnd
  0
BLOCK
  5
FD7
330
FCC
100
AcDbEntity
  8
0
100
AcDbBlockBegin
  2
*D5
 70
     1
 10
0.0
 20
0.0
 30
0.0
  3
*D5
  1

  0
LINE
  5
13D7
330
FCC
100
AcDbEntity
  8
BEM
 62
     0
370
    -2
100
AcDbLine
 10
104.3694886365716
 20
485.3412840202869
 30
0.0
 11
78.57312069631517
 21
485.3412840202869
 31
0.0
  0
LINE
  5
13D8
330
FCC
100
AcDbEntity
  8
BEM
 62
     0
370
    -2
100
AcDbLine
 10
166.3694886365716
 20
595.3412840202861
 30
0.0
 11
78.57312069631518
 21
595.3412840202861
 31
0.0
  0
LINE
  5
13D9
330
FCC
100
AcDbEntity
  8
BEM
 62
     0
370
    -2
100
AcDbLine
 10
80.57312069631517
 20
492.3412840202869
 30
0.0
 11
80.57312069631519
 21
588.3412840202861
 31
0.0
  0
SOLID
  5
13DA
330
FCC
100
AcDbEntity
  8
BEM
 62
     0
100
AcDbTrace
 10
79.4064540296485
 20
492.3412840202869
 30
0.0
 11
81.73978736298185
 21
492.3412840202869
 31
0.0
 12
80.57312069631517
 22
485.3412840202869
 32
0.0
 13
80.57312069631517
 23
485.3412840202869
 33
0.0
  0
SOLID
  5
13DB
330
FCC
100
AcDbEntity
  8
BEM
 62
     0
100
AcDbTrace
 10
79.40645402964851
 20
588.3412840202861
 30
0.0
 11
81.73978736298186
 21
588.3412840202861
 31
0.0
 12
80.57312069631519
 22
595.3412840202861
 32
0.0
 13
80.57312069631519
 23
595.3412840202861
 33
0.0
  0
MTEXT
  5
13DC
330
FCC
100
AcDbEntity
  8
BEM
 62
     1
100
AcDbMText
 10
74.07312069631508
 20
540.3412840202865
 30
0.0
 40
7.0
 41
0.0
 71
     5
 72
     1
  1
\A1;110
 11
0.0000000000000001
 21
1.0
 31
0.0
 73
     1
 44
1.0
  0
POINT
  5
13DD
330
FCC
100
AcDbEntity
  8
DEFPOINTS
 62
     0
100
AcDbPoint
 10
106.3694886365716
 20
485.3412840202869
 30
0.0
  0
POINT
  5
13DE
330
FCC
100
AcDbEntity
  8
DEFPOINTS
 62
     0
100
AcDbPoint
 10
168.3694886365716
 20
595.3412840202861
 30
0.0
  0
POINT
  5
13DF
330
FCC
100
AcDbEntity
  8
DEFPOINTS
 62
     0
100
AcDbPoint
 10
80.57312069631519
 20
595.3412840202861
 30
0.0
  0
ENDBLK
  5
FD8
330
FCC
100
AcDbEntity
  8
0
100
AcDbBlockEnd
  0
BLOCK
  5
1055
330
104B
100
AcDbEntity
  8
0
100
AcDbBlockBegin
  2
*D6
 70
     1
 10
0.0
 20
0.0
 30
0.0
  3
*D6
  1

  0
LINE
  5
107C
330
104B
100
AcDbEntity
  8
BEM
 62
     0
370
    -2
100
AcDbLine
 10
98.36948863657163
 20
476.4554975826611
 30
0.0
 11
98.36948863657163
 21
619.3511850199991
 31
0.0
  0
LINE
  5
107D
330
104B
100
AcDbEntity
  8
BEM
 62
     0
370
    -2
100
AcDbLine
 10
398.3694886365717
 20
476.4554975826611
 30
0.0
 11
398.3694886365717
 21
619.3511850199991
 31
0.0
  0
LINE
  5
107E
330
104B
100
AcDbEntity
  8
BEM
 62
     0
370
    -2
100
AcDbLine
 10
105.3694886365716
 20
617.351185019999
 30
0.0
 11
391.3694886365716
 21
617.351185019999
 31
0.0
  0
SOLID
  5
107F
330
104B
100
AcDbEntity
  8
BEM
 62
     0
100
AcDbTrace
 10
105.3694886365716
 20
618.5178516866657
 30
0.0
 11
105.3694886365716
 21
616.1845183533324
 31
0.0
 12
98.36948863657163
 22
617.351185019999
 32
0.0
 13
98.36948863657163
 23
617.351185019999
 33
0.0
  0
SOLID
  5
1080
330
104B
100
AcDbEntity
  8
BEM
 62
     0
100
AcDbTrace
 10
391.3694886365716
 20
618.5178516866657
 30
0.0
 11
391.3694886365716
 21
616.1845183533324
 31
0.0
 12
398.3694886365717
 22
617.351185019999
 32
0.0
 13
398.3694886365717
 23
617.351185019999
 33
0.0
  0
MTEXT
  5
1081
330
104B
100
AcDbEntity
  8
BEM
 62
     1
100
AcDbMText
 10
248.3694886365717
 20
623.8511850199991
 30
0.0
 40
7.0
 41
0.0
 71
     5
 72
     1
  1
\A1;%%c300
 73
     1
 44
1.0
  0
POINT
  5
1082
330
104B
100
AcDbEntity
  8
DEFPOINTS
 62
     0
100
AcDbPoint
 10
98.36948863657163
 20
474.455497582661
 30
0.0
  0
POINT
  5
1083
330
104B
100
AcDbEntity
  8
DEFPOINTS
 62
     0
100
AcDbPoint
 10
398.3694886365717
 20
474.455497582661
 30
0.0
  0
POINT
  5
1084
330
104B
100
AcDbEntity
  8
DEFPOINTS
 62
     0
100
AcDbPoint
 10
398.3694886365717
 20
617.351185019999
 30
0.0
  0
ENDBLK
  5
1056
330
104B
100
AcDbEntity
  8
0
100
AcDbBlockEnd
  0
BLOCK
  5
133D
330
1333
100
AcDbEntity
  8
0
100
AcDbBlockBegin
  2
*D7
 70
     1
 10
0.0
 20
0.0
 30
0.0
  3
*D7
  1

  0
LINE
  5
134B
330
1333
100
AcDbEntity
  8
BEM
 62
     0
370
    -2
100
AcDbLine
 10
168.3694886365708
 20
315.341284020288
 30
0.0
 11
168.3694886365708
 21
298.1660686135548
 31
0.0
  0
LINE
  5
134C
330
1333
100
AcDbEntity
  8
BEM
 62
     0
370
    -2
100
AcDbLine
 10
328.3694886365708
 20
315.3412840202874
 30
0.0
 11
328.3694886365708
 21
298.1660686135548
 31
0.0
  0
LINE
  5
134D
330
1333
100
AcDbEntity
  8
BEM
 62
     0
370
    -2
100
AcDbLine
 10
175.3694886365708
 20
300.1660686135548
 30
0.0
 11
321.3694886365709
 21
300.1660686135548
 31
0.0
  0
SOLID
  5
134E
330
1333
100
AcDbEntity
  8
BEM
 62
     0
100
AcDbTrace
 10
175.3694886365708
 20
301.3327352802215
 30
0.0
 11
175.3694886365708
 21
298.9994019468881
 31
0.0
 12
168.3694886365708
 22
300.1660686135548
 32
0.0
 13
168.3694886365708
 23
300.1660686135548
 33
0.0
  0
SOLID
  5
134F
330
1333
100
AcDbEntity
  8
BEM
 62
     0
100
AcDbTrace
 10
321.3694886365709
 20
301.3327352802215
 30
0.0
 11
321.3694886365709
 21
298.9994019468881
 31
0.0
 12
328.3694886365708
 22
300.1660686135548
 32
0.0
 13
328.3694886365708
 23
300.1660686135548
 33
0.0
  0
MTEXT
  5
1350
330
1333
100
AcDbEntity
  8
BEM
 62
     1
100
AcDbMText
 10
248.3694886365709
 20
306.6660686135548
 30
0.0
 40
7.0
 41
0.0
 71
     5
 72
     1
  1
\A1;%%c160
 73
     1
 44
1.0
  0
POINT
  5
1351
330
1333
100
AcDbEntity
  8
DEFPOINTS
 62
     0
100
AcDbPoint
 10
168.3694886365708
 20
317.341284020288
 30
0.0
  0
POINT
  5
1352
330
1333
100
AcDbEntity
  8
DEFPOINTS
 62
     0
100
AcDbPoint
 10
328.3694886365708
 20
317.3412840202874
 30
0.0
  0
POINT
  5
1353
330
1333
100
AcDbEntity
  8
DEFPOINTS
 62
     0
100
AcDbPoint
 10
328.3694886365708
 20
300.1660686135548
 30
0.0
  0
ENDBLK
  5
133E
330
1333
100
AcDbEntity
  8
0
100
AcDbBlockEnd
  0
BLOCK
  5
1349
330
133F
100
AcDbEntity
  8
0
100
AcDbBlockBegin
  2
*D8
 70
     1
 10
0.0
 20
0.0
 30
0.0
  3
*D8
  1

  0
LINE
  5
1354
330
133F
100
AcDbEntity
  8
BEM
 62
     0
370
    -2
100
AcDbLine
 10
102.4979157613171
 20
476.341284020288
 30
0.0
 11
91.807078008664
 21
476.341284020288
 31
0.0
  0
LINE
  5
1355
330
133F
100
AcDbEntity
  8
BEM
 62
     0
370
    -2
100
AcDbLine
 10
166.3694886365709
 20
316.3412840202879
 30
0.0
 11
91.80707800866398
 21
316.341284020288
 31
0.0
  0
LINE
  5
1356
330
133F
100
AcDbEntity
  8
BEM
 62
     0
370
    -2
100
AcDbLine
 10
93.80707800866401
 20
469.341284020288
 30
0.0
 11
93.80707800866398
 21
323.341284020288
 31
0.0
  0
SOLID
  5
1357
330
133F
100
AcDbEntity
  8
BEM
 62
     0
100
AcDbTrace
 10
92.64041134199734
 20
469.341284020288
 30
0.0
 11
94.97374467533068
 21
469.341284020288
 31
0.0
 12
93.80707800866401
 22
476.341284020288
 32
0.0
 13
93.80707800866401
 23
476.341284020288
 33
0.0
  0
SOLID
  5
1358
330
133F
100
AcDbEntity
  8
BEM
 62
     0
100
AcDbTrace
 10
92.64041134199731
 20
323.341284020288
 30
0.0
 11
94.97374467533065
 21
323.341284020288
 31
0.0
 12
93.80707800866398
 22
316.341284020288
 32
0.0
 13
93.80707800866398
 23
316.341284020288
 33
0.0
  0
MTEXT
  5
1359
330
133F
100
AcDbEntity
  8
BEM
 62
     1
100
AcDbMText
 10
87.30707800866394
 20
396.341284020288
 30
0.0
 40
7.0
 41
0.0
 71
     5
 72
     1
  1
\A1;160
 11
0.0000000000000001
 21
1.0
 31
0.0
 73
     1
 44
1.0
  0
POINT
  5
135A
330
133F
100
AcDbEntity
  8
DEFPOINTS
 62
     0
100
AcDbPoint
 10
104.4979157613171
 20
476.341284020288
 30
0.0
  0
POINT
  5
135B
330
133F
100
AcDbEntity
  8
DEFPOINTS
 62
     0
100
AcDbPoint
 10
168.3694886365709
 20
316.3412840202879
 30
0.0
  0
POINT
  5
135C
330
133F
100
AcDbEntity
  8
DEFPOINTS
 62
     0
100
AcDbPoint
 10
93.80707800866398
 20
316.341284020288
 30
0.0
  0
ENDBLK
  5
134A
330
133F
100
AcDbEntity
  8
0
100
AcDbBlockEnd
  0
BLOCK
  5
1369
330
135F
100
AcDbEntity
  8
0
100
AcDbBlockBegin
  2
*D9
 70
     1
 10
0.0
 20
0.0
 30
0.0
  3
*D9
  1

  0
LINE
  5
1374
330
135F
100
AcDbEntity
  8
BEM
 62
     0
370
    -2
100
AcDbLine
 10
343.369488636571
 20
474.3412840202879
 30
0.0
 11
343.369488636571
 21
434.4317686622371
 31
0.0
  0
LINE
  5
1375
330
135F
100
AcDbEntity
  8
BEM
 62
     0
370
    -2
100
AcDbLine
 10
153.3694886365709
 20
474.3412840202879
 30
0.0
 11
153.3694886365709
 21
434.4317686622371
 31
0.0
  0
LINE
  5
1376
330
135F
100
AcDbEntity
  8
BEM
 62
     0
370
    -2
100
AcDbLine
 10
336.369488636571
 20
436.4317686622371
 30
0.0
 11
160.3694886365709
 21
436.4317686622371
 31
0.0
  0
SOLID
  5
1377
330
135F
100
AcDbEntity
  8
BEM
 62
     0
100
AcDbTrace
 10
336.369488636571
 20
437.5984353289037
 30
0.0
 11
336.369488636571
 21
435.2651019955704
 31
0.0
 12
343.369488636571
 22
436.4317686622371
 32
0.0
 13
343.369488636571
 23
436.4317686622371
 33
0.0
  0
SOLID
  5
1378
330
135F
100
AcDbEntity
  8
BEM
 62
     0
100
AcDbTrace
 10
160.3694886365709
 20
437.5984353289037
 30
0.0
 11
160.3694886365709
 21
435.2651019955704
 31
0.0
 12
153.3694886365709
 22
436.4317686622371
 32
0.0
 13
153.3694886365709
 23
436.4317686622371
 33
0.0
  0
MTEXT
  5
1379
330
135F
100
AcDbEntity
  8
BEM
 62
     1
100
AcDbMText
 10
248.369488636571
 20
442.9317686622371
 30
0.0
 40
7.0
 41
0.0
 71
     5
 72
     1
  1
\A1;%%c190
 73
     1
 44
1.0
  0
POINT
  5
137A
330
135F
100
AcDbEntity
  8
DEFPOINTS
 62
     0
100
AcDbPoint
 10
343.369488636571
 20
476.3412840202879
 30
0.0
  0
POINT
  5
137B
330
135F
100
AcDbEntity
  8
DEFPOINTS
 62
     0
100
AcDbPoint
 10
153.3694886365709
 20
476.3412840202879
 30
0.0
  0
POINT
  5
137C
330
135F
100
AcDbEntity
  8
DEFPOINTS
 62
     0
100
AcDbPoint
 10
153.3694886365709
 20
436.4317686622371
 30
0.0
  0
ENDBLK
  5
136A
330
135F
100
AcDbEntity
  8
0
100
AcDbBlockEnd
  0
ENDSEC
  0
SECTION
  2
ENTITIES
  0
LINE
  5
58
330
1E
100
AcDbEntity
  8
STEMPEL
100
AcDbLine
 10
484.0
 20
830.0000000000002
 30
0.0
 11
484.0
 21
470.0000000000001
 31
0.0
  0
LINE
  5
59
330
1E
100
AcDbEntity
  8
STEMPEL
100
AcDbLine
 10
484.0
 20
470.0000000000001
 30
0.0
 11
584.0
 21
470.0000000000001
 31
0.0
  0
LINE
  5
5A
330
1E
100
AcDbEntity
  8
STEMPEL
100
AcDbLine
 10
484.0000000000001
 20
566.0000000000002
 30
0.0
 11
584.0000000000001
 21
566.0
 31
0.0
  0
LINE
  5
5B
330
1E
100
AcDbEntity
  8
STEMPEL
100
AcDbLine
 10
484.0
 20
650.0
 30
0.0
 11
584.0
 21
650.0
 31
0.0
  0
LINE
  5
5C
330
1E
100
AcDbEntity
  8
STEMPEL
100
AcDbLine
 10
484.0000000000003
 20
752.0000000000002
 30
0.0
 11
554.0
 21
752.0000000000002
 31
0.0
  0
LINE
  5
5D
330
1E
100
AcDbEntity
  8
STEMPEL
100
AcDbLine
 10
564.0
 20
566.0
 30
0.0
 11
564.0
 21
470.0000000000001
 31
0.0
  0
LINE
  5
5E
330
1E
100
AcDbEntity
  8
STEMPEL
100
AcDbLine
 10
554.0
 20
830.0000000000002
 30
0.0
 11
554.0
 21
566.0
 31
0.0
  0
LINE
  5
5F
330
1E
100
AcDbEntity
  8
STEMPEL
100
AcDbLine
 10
514.0
 20
830.0000000000002
 30
0.0
 11
514.0
 21
566.0000000000002
 31
0.0
  0
LINE
  5
60
330
1E
100
AcDbEntity
  8
VOLL
100
AcDbLine
 10
484.0
 20
484.0000000000001
 30
0.0
 11
584.0
 21
484.0
 31
0.0
  0
LINE
  5
61
330
1E
100
AcDbEntity
  8
VOLL
100
AcDbLine
 10
484.0000000000001
 20
524.0000000000001
 30
0.0
 11
584.0000000000001
 21
524.0
 31
0.0
  0
LINE
  5
62
330
1E
100
AcDbEntity
  8
VOLL
100
AcDbLine
 10
484.0000000000001
 20
544.0000000000002
 30
0.0
 11
584.0000000000001
 21
544.0
 31
0.0
  0
LINE
  5
63
330
1E
100
AcDbEntity
  8
VOLL
100
AcDbLine
 10
514.0
 20
584.0000000000002
 30
0.0
 11
554.0
 21
584.0000000000002
 31
0.0
  0
LINE
  5
64
330
1E
100
AcDbEntity
  8
VOLL
100
AcDbLine
 10
484.0000000000002
 20
610.0000000000002
 30
0.0
 11
554.0
 21
610.0
 31
0.0
  0
LINE
  5
65
330
1E
100
AcDbEntity
  8
HILF
100
AcDbLine
 10
494.0
 20
470.0000000000001
 30
0.0
 11
494.0
 21
566.0000000000002
 31
0.0
  0
LINE
  5
66
330
1E
100
AcDbEntity
  8
HILF
100
AcDbLine
 10
504.0
 20
470.0000000000001
 30
0.0
 11
504.0
 21
566.0000000000002
 31
0.0
  0
LINE
  5
67
330
1E
100
AcDbEntity
  8
HILF
100
AcDbLine
 10
514.0
 20
470.0000000000001
 30
0.0
 11
514.0
 21
566.0000000000002
 31
0.0
  0
LINE
  5
68
330
1E
100
AcDbEntity
  8
HILF
100
AcDbLine
 10
524.0
 20
470.0000000000001
 30
0.0
 11
524.0
 21
566.0000000000002
 31
0.0
  0
LINE
  5
69
330
1E
100
AcDbEntity
  8
HILF
100
AcDbLine
 10
534.0
 20
470.0000000000001
 30
0.0
 11
534.0
 21
566.0000000000002
 31
0.0
  0
LINE
  5
6A
330
1E
100
AcDbEntity
  8
HILF
100
AcDbLine
 10
544.0
 20
470.0000000000001
 30
0.0
 11
544.0
 21
566.0000000000002
 31
0.0
  0
LINE
  5
6B
330
1E
100
AcDbEntity
  8
HILF
100
AcDbLine
 10
554.0
 20
470.0000000000001
 30
0.0
 11
554.0
 21
566.0000000000002
 31
0.0
  0
LINE
  5
6C
330
1E
100
AcDbEntity
  8
HILF
100
AcDbLine
 10
524.0
 20
566.0000000000002
 30
0.0
 11
524.0
 21
650.0
 31
0.0
  0
LINE
  5
6D
330
1E
100
AcDbEntity
  8
HILF
100
AcDbLine
 10
534.0
 20
566.0000000000002
 30
0.0
 11
534.0
 21
650.0
 31
0.0
  0
LINE
  5
6E
330
1E
100
AcDbEntity
  8
HILF
100
AcDbLine
 10
544.0
 20
566.0000000000002
 30
0.0
 11
544.0
 21
650.0
 31
0.0
  0
LINE
  5
6F
330
1E
100
AcDbEntity
  8
HILF
100
AcDbLine
 10
509.9624175243587
 20
654.7736801096948
 30
0.0
 11
509.9624175243587
 21
746.6297842514811
 31
0.0
  0
LINE
  5
70
330
1E
100
AcDbEntity
  8
HILF
100
AcDbLine
 10
524.0
 20
654.7736801096948
 30
0.0
 11
524.0
 21
746.6297842514811
 31
0.0
  0
LINE
  5
71
330
1E
100
AcDbEntity
  8
HILF
100
AcDbLine
 10
534.0
 20
654.7736801096948
 30
0.0
 11
534.0
 21
746.6297842514811
 31
0.0
  0
LINE
  5
72
330
1E
100
AcDbEntity
  8
HILF
100
AcDbLine
 10
544.0
 20
654.7736801096948
 30
0.0
 11
544.0
 21
746.6297842514811
 31
0.0
  0
LINE
  5
73
330
1E
100
AcDbEntity
  8
VOLL
100
AcDbLine
 10
534.0
 20
752.0000000000002
 30
0.0
 11
534.0
 21
830.0000000000002
 31
0.0
  0
LINE
  5
74
330
1E
100
AcDbEntity
  8
HILF
100
AcDbLine
 10
510.2201636304418
 20
756.7238616296995
 30
0.0
 11
510.2201636304418
 21
824.858883932673
 31
0.0
  0
LINE
  5
75
330
1E
100
AcDbEntity
  8
HILF
100
AcDbLine
 10
579.1060174197169
 20
654.7736801096948
 30
0.0
 11
579.1060174197169
 21
824.858883932673
 31
0.0
  0
TEXT
  5
76
330
1E
100
AcDbEntity
  8
TEXT
100
AcDbText
 10
575.3261810501587
 20
492.3998239263297
 30
0.0
 40
4.0
  1
Änderung
 50
90.0
 41
0.8
  7
GREEKS
 72
     1
 11
575.3261810501587
 21
503.1426810691868
 31
0.0
100
AcDbText
  0
TEXT
  5
78
330
1E
100
AcDbEntity
  8
TEXT
100
AcDbText
 10
491.5379104912911
 20
573.5163572150376
 30
0.0
 40
5.0
  1
Maßstab
 50
90.0
 41
0.8
  7
GREEKS
100
AcDbText
  0
TEXT
  5
79
330
1E
100
AcDbEntity
  8
TEXT
100
AcDbText
 10
491.4510671988221
 20
654.8779403809009
 30
0.0
 40
5.0
  1
Benennung
 50
90.0
 41
0.8
  7
GREEKS
100
AcDbText
  0
TEXT
  5
7A
330
1E
100
AcDbEntity
  8
TEXT
100
AcDbText
 10
491.6867965462863
 20
756.1787549576343
 30
0.0
 40
5.0
  1
Zeichnungs Nr.
 50
90.0
 41
0.8
  7
GREEKS
100
AcDbText
  0
TEXT
  5
7B
330
1E
100
AcDbEntity
  8
TEXT
100
AcDbText
 10
563.1543942980694
 20
654.7422383911359
 30
0.0
 40
5.0
  1
Bauvorhaben
 50
90.0
 41
0.8
  7
GREEKS
100
AcDbText
  0
TEXT
  5
7C
330
1E
100
AcDbEntity
  8
TEXT
100
AcDbText
 10
520.8188176290003
 20
756.7238616296995
 30
0.0
 40
5.0
  1
Ersatz für:
 50
90.0
 41
0.8
  7
GREEKS
100
AcDbText
  0
TEXT
  5
7D
330
1E
100
AcDbEntity
  8
TEXT
100
AcDbText
 10
580.3453415397281
 20
478.2664110704577
 30
0.0
 40
4.0
  1
Index
 50
180.0
 41
0.8
  7
GREEKS
100
AcDbText
  0
TEXT
  5
7E
330
1E
100
AcDbEntity
  8
TEXT
100
AcDbText
 10
575.3284373066019
 20
529.8990113186978
 30
0.0
 40
4.0
  1
Tag
 50
90.0
 41
0.8
  7
GREEKS
 72
     1
 11
575.3284373066019
 21
533.6323446520311
 31
0.0
100
AcDbText
  0
TEXT
  5
7F
330
1E
100
AcDbEntity
  8
TEXT
100
AcDbText
 10
575.4067578303359
 20
548.9795678138292
 30
0.0
 40
4.0
  1
Name
 50
90.0
 41
0.8
  7
GREEKS
 72
     1
 11
575.4067578303359
 21
555.3033773376387
 31
0.0
100
AcDbText
  0
TEXT
  5
80
330
1E
100
AcDbEntity
  8
TEXT
100
AcDbText
 10
520.6811949877008
 20
592.3311673153651
 30
0.0
 40
4.0
  1
Tag
 50
90.0
 41
0.8
  7
GREEKS
100
AcDbText
  0
TEXT
  5
81
330
1E
100
AcDbEntity
  8
TEXT
100
AcDbText
 10
520.6903890808478
 20
622.4626584226296
 30
0.0
 40
4.0
  1
Name
 50
90.0
 41
0.8
  7
GREEKS
100
AcDbText
  0
TEXT
  5
82
330
1E
100
AcDbEntity
  8
TEXT
100
AcDbText
 10
530.3700963038204
 20
567.5836127167615
 30
0.0
 40
4.0
  1
Gez.
 50
90.0
 41
0.8
  7
GREEKS
100
AcDbText
  0
TEXT
  5
83
330
1E
100
AcDbEntity
  8
TEXT
100
AcDbText
 10
540.3107370857163
 20
567.5515086571672
 30
0.0
 40
4.0
  1
Gepr.
 50
90.0
 41
0.8
  7
GREEKS
100
AcDbText
  0
TEXT
  5
84
330
1E
100
AcDbEntity
  8
TEXT
100
AcDbText
 10
550.470536103502
 20
567.6006777387303
 30
0.0
 40
4.0
  1
Norm.
 50
90.0
 41
0.8
  7
GREEKS
100
AcDbText
  0
TEXT
  5
85
330
1E
100
AcDbEntity
  8
TEXT
100
AcDbText
 10
541.925838221214
 20
757.2400861497007
 30
0.0
 40
5.0
  1
ersetzt durch:
 50
90.0
 41
0.8
  7
GREEKS
100
AcDbText
  0
TEXT
  5
86
330
1E
100
AcDbEntity
  8
TEXT
100
AcDbText
 10
521.0331740347627
 20
568.8693027807324
 30
0.0
 40
4.0
  1
2010
 50
90.0
 41
0.8
  7
GREEKS
100
AcDbText
  0
LINE
  5
87
330
1E
100
AcDbEntity
  8
HILF
100
AcDbLine
 10
594.0
 20
-0.0000000000000568
 30
0.0
 11
594.0
 21
840.0
 31
0.0
  0
LINE
  5
88
330
1E
100
AcDbEntity
  8
HILF
100
AcDbLine
 10
594.0
 20
840.0
 30
0.0
 11
0.0
 21
840.0
 31
0.0
  0
LINE
  5
89
330
1E
100
AcDbEntity
  8
HILF
100
AcDbLine
 10
0.0
 20
840.0
 30
0.0
 11
0.0
 21
0.0
 31
0.0
  0
LINE
  5
8B
330
1E
100
AcDbEntity
  8
STEMPEL
100
AcDbLine
 10
10.0
 20
830.0
 30
0.0
 11
10.0
 21
39.99999999999995
 31
0.0
  0
LINE
  5
8D
330
1E
100
AcDbEntity
  8
STEMPEL
100
AcDbLine
 10
584.0
 20
39.99999999999995
 30
0.0
 11
584.0
 21
830.0
 31
0.0
  0
LINE
  5
8E
330
1E
100
AcDbEntity
  8
STEMPEL
100
AcDbLine
 10
584.0
 20
830.0
 30
0.0
 11
10.0
 21
830.0
 31
0.0
  0
TEXT
  5
8F
330
1E
100
AcDbEntity
  8
TEXT
 62
     1
100
AcDbText
 10
506.6265692434746
 20
655.0390572473189
 30
0.0
 40
7.0
  1
Drainjet Kompletteinheit 
 50
90.0
 41
0.7
  7
GREEKS
100
AcDbText
  0
TEXT
  5
90
330
1E
100
AcDbEntity
  8
TEXT
 62
     1
100
AcDbText
 10
506.6265692434746
 20
768.2628088850803
 30
0.0
 40
7.0
  1
21113100W
 50
90.0
 41
0.8
  7
GREEKS
 72
     1
 11
506.6265692434746
 21
790.1294755517469
 31
0.0
100
AcDbText
  0
TEXT
  5
91
330
1E
100
AcDbEntity
  8
TEXT
100
AcDbText
 10
491.16010388621
 20
618.5090226415829
 30
0.0
 40
5.0
  1
Zul.Abw.
 50
90.0
 41
0.8
  7
GREEKS
100
AcDbText
  0
TEXT
  5
93
330
1E
100
AcDbEntity
  8
TEXT
100
AcDbText
 10
530.8491412387978
 20
590.7660475607107
 30
0.0
 40
4.0
  1
14.12.
 50
90.0
 41
0.8
  7
GREEKS
 72
     1
 11
530.8491412387978
 21
597.1660475607107
 31
0.0
100
AcDbText
  0
TEXT
  5
94
330
1E
100
AcDbEntity
  8
TEXT
100
AcDbText
 10
531.0570234483452
 20
624.0231753226609
 30
0.0
 40
4.0
  1
Koeh
 50
90.0
 41
0.8
  7
GREEKS
 72
     1
 11
531.0570234483452
 21
629.2803181798038
 31
0.0
100
AcDbText
  0
TEXT
  5
95
330
1E
100
AcDbEntity
  8
TEXT
100
AcDbText
 10
521.8997861689246
 20
654.3410940884991
 30
0.0
 40
5.0
  1
DN100 mit Wärmedämmung
 50
90.0
 41
0.8
  7
GREEKS
100
AcDbText
  0
TEXT
  5
96
330
1E
100
AcDbEntity
  8
TEXT
100
AcDbText
 10
531.6544091479096
 20
654.3410940884991
 30
0.0
 40
5.0
  1

 50
90.0
 41
0.8
  7
GREEKS
100
AcDbText
  0
TEXT
  5
97
330
1E
100
AcDbEntity
  8
TEXT
100
AcDbText
 10
541.4090266215394
 20
654.3410940884991
 30
0.0
 40
5.0
  1
EDV-Art.Nr. 21113.100X
 50
90.0
 41
0.8
  7
GREEKS
100
AcDbText
  0
TEXT
  5
98
330
1E
100
AcDbEntity
  8
TEXT
100
AcDbText
 10
550.6887237520849
 20
654.1676050109347
 30
0.0
 40
4.0
  1
21113100W.DWG
 50
90.0
 41
0.8
  7
GREEKS
100
AcDbText
  0
TEXT
  5
99
330
1E
100
AcDbEntity
  8
TEXT
 62
     1
100
AcDbText
 10
506.5292291158502
 20
582.703491203422
 30
0.0
 40
7.0
  1
1:2
 50
90.0
 41
0.8
  7
GREEKS
100
AcDbText
  0
TEXT
  5
9A
330
1E
100
AcDbEntity
  8
TEXT
100
AcDbText
 10
479.8856414948956
 20
470.0441139350127
 30
0.0
 40
5.0
  1
Erstellt mit AUTOCAD 2004
 50
90.0
 41
0.8
  7
GREEKS
100
AcDbText
  0
INSERT
  5
9B
330
1E
100
AcDbEntity
  8
HILF
100
AcDbBlockReference
  2
LORO
 10
557.0194069970104
 20
573.0624985962354
 30
0.0
 41
2.0
 42
2.0
 43
2.0
 50
90.0
  0
LINE
  5
9C
330
1E
100
AcDbEntity
  8
BEM
100
AcDbLine
 10
594.0
 20
455.9999999999999
 30
0.0
 11
584.0
 21
455.9999999999999
 31
0.0
  0
LINE
  5
13E
330
1E
100
AcDbEntity
  8
HILF
100
AcDbLine
 10
594.0
 20
-0.0000000000000568
 30
0.0
 11
0.0
 21
0.0
 31
0.0
  0
LINE
  5
13F
330
1E
100
AcDbEntity
  8
STEMPEL
100
AcDbLine
 10
584.0
 20
39.99999999999995
 30
0.0
 11
10.0
 21
39.99999999999995
 31
0.0
  0
LINE
  5
14A
330
1E
100
AcDbEntity
  8
HILF
100
AcDbLine
 10
297.0
 20
-0.0000000000000568
 30
0.0
 11
297.0
 21
39.99999999999995
 31
0.0
  0
TEXT
  5
15B
330
1E
100
AcDbEntity
  8
BEM
100
AcDbText
 10
583.8320989200114
 20
837.3022923857165
 30
0.0
 40
4.0
  1
Diese Zeichnung ist urheberrechtlich geschützt und bleibt unser Eigentum. Sie darf weder ganz noch teilweise verfielfältigt und nicht an Dritte weitergegeben werden.
 50
180.0
 41
0.8
  7
GREEKS
100
AcDbText
  0
LINE
  5
19C
330
1E
100
AcDbEntity
  8
BEM
100
AcDbLine
 10
0.0
 20
455.9999999999999
 30
0.0
 11
10.0
 21
455.9999999999999
 31
0.0
  0
TEXT
  5
663
330
1E
100
AcDbEntity
  8
TEXT
100
AcDbText
 10
504.5307583482736
 20
612.2898419893275
 30
0.0
 40
4.0
  1
DIN EN1124-3
 50
90.0
 41
0.8
  7
GREEKS
 72
     1
 11
504.5307583482736
 21
629.2803181798038
 31
0.0
100
AcDbText
  0
TEXT
  5
664
330
1E
100
AcDbEntity
  8
TEXT
 62
     1
100
AcDbText
 10
531.5924625427206
 20
790.1294755517469
 30
0.0
 40
7.0
  1

 50
90.0
 41
0.8
  7
GREEKS
 72
     1
 11
531.5924625427206
 21
790.1294755517469
 31
0.0
100
AcDbText
  0
TEXT
  5
998
330
1E
100
AcDbEntity
  8
TEXT
 62
     1
100
AcDbText
 10
244.5781388179069
 20
364.9504437044627
 30
0.0
 40
7.0
  1
DN100
 50
90.0
 41
0.8
  7
GREEKS
 72
     1
 11
244.5781388179069
 21
377.3504437044627
 31
0.0
100
AcDbText
  0
TEXT
  5
B55
330
1E
100
AcDbEntity
  8
TEXT
 62
     1
100
AcDbText
 10
324.1470114951009
 20
663.4285264302333
 30
0.0
 40
7.0
  1
EDV-Art.Nr. 21000.000X
 41
0.8
  7
GREEKS
100
AcDbText
  0
LINE
  5
B56
330
1E
100
AcDbEntity
  8
TEXT
 62
     2
100
AcDbLine
 10
322.7956423469247
 20
673.9422053173373
 30
0.0
 11
431.0992470714364
 21
673.9422053173373
 31
0.0
  0
TEXT
  5
B57
330
1E
100
AcDbEntity
  8
TEXT
 62
     1
100
AcDbText
 10
324.1470114951009
 20
677.1048669479688
 30
0.0
 40
7.0
  1
Drainjethaube
 41
0.8
  7
GREEKS
100
AcDbText
  0
LINE
  5
B58
330
1E
100
AcDbEntity
  8
TEXT
 62
     2
100
AcDbLine
 10
308.4102904106762
 20
620.6000535079633
 30
0.0
 11
322.7956423469247
 21
673.9422053173373
 31
0.0
  0
LINE
  5
B59
330
1E
100
AcDbEntity
  8
TEXT
 62
     2
100
AcDbLine
 10
304.8363881934787
 20
607.3477093549337
 30
0.0
 11
307.1273760084026
 21
615.8428939259254
 31
0.0
  0
LINE
  5
B5A
330
1E
100
AcDbEntity
  8
TEXT
 62
     2
100
AcDbLine
 10
301.4961625511603
 20
594.9618585200201
 30
0.0
 11
303.4453336784849
 21
602.1895567116926
 31
0.0
  0
TEXT
  5
B6D
330
1E
100
AcDbEntity
  8
TEXT
 62
     1
100
AcDbText
 10
404.1906182803765
 20
444.6159127694366
 30
0.0
 40
7.0
  1
EDV-Art.Nr. 21905.100X
 41
0.8
100
AcDbText
  0
LINE
  5
B6E
330
1E
100
AcDbEntity
  8
TEXT
 62
     2
100
AcDbLine
 10
509.5338269767552
 20
453.9084095772358
 30
0.0
 11
403.595262401622
 21
453.9084095772358
 31
0.0
  0
TEXT
  5
B6F
330
1E
100
AcDbEntity
  8
TEXT
 62
     1
100
AcDbText
 10
404.1906182803765
 20
457.3922437381462
 30
0.0
 40
7.0
  1
Losflansch DN100
 41
0.8
100
AcDbText
  0
LINE
  5
B70
102
{ACAD_REACTORS
330
13FA
102
}
330
1E
100
AcDbEntity
  8
TEXT
 62
     2
100
AcDbLine
 10
403.595262401622
 20
453.9084095772358
 30
0.0
 11
379.8667356331965
 21
489.3788283141977
 31
0.0
  0
LINE
  5
B74
330
1E
100
AcDbEntity
  8
TEXT
 62
     2
100
AcDbLine
 10
386.7263469617805
 20
416.8487066629133
 30
0.0
 11
334.2975827462686
 21
480.9027968668917
 31
0.0
  0
TEXT
  5
B76
330
1E
100
AcDbEntity
  8
TEXT
 62
     1
100
AcDbText
 10
380.1156353261309
 20
225.3578744722914
 30
0.0
 40
7.0
  1
Ablaufkörper DN100
 41
0.8
  7
GREEKS
100
AcDbText
  0
LINE
  5
B77
330
1E
100
AcDbEntity
  8
TEXT
 62
     2
100
AcDbLine
 10
379.0349489272939
 20
221.7451062000977
 30
0.0
 11
298.3363750246628
 21
244.2448134795153
 31
0.0
  0
LINE
  5
B78
330
1E
100
AcDbEntity
  8
TEXT
 62
     2
100
AcDbLine
 10
485.1588435349716
 20
221.7451062000979
 30
0.0
 11
379.0349489272939
 21
221.7451062000977
 31
0.0
  0
TEXT
  5
B79
330
1E
100
AcDbEntity
  8
TEXT
 62
     1
100
AcDbText
 10
379.9350800319788
 20
212.3101023253122
 30
0.0
 40
7.0
  1
EDV-Art.Nr. 21981.100X
 41
0.8
  7
GREEKS
100
AcDbText
  0
TEXT
  5
BB1
330
1E
100
AcDbEntity
  8
TEXT
 62
     1
100
AcDbText
 10
393.4521736621257
 20
419.8352471549664
 30
0.0
 40
7.0
  1
Kompressionsdichtung
 41
0.8
100
AcDbText
  0
TEXT
  5
BB2
330
1E
100
AcDbEntity
  8
TEXT
 62
     1
100
AcDbText
 10
393.8081326649624
 20
406.297233849918
 30
0.0
 40
7.0
  1
EDV-Art.Nr. 21810.125X
 41
0.8
100
AcDbText
  0
LINE
  5
BB3
330
1E
100
AcDbEntity
  8
TEXT
 62
     2
100
AcDbLine
 10
386.7263469617805
 20
416.8487066629133
 30
0.0
 11
498.2560882961832
 21
416.8487066629133
 31
0.0
  0
LINE
  5
DCE
330
1E
100
AcDbEntity
  8
STEMPEL
100
AcDbLine
 10
104.9121293236908
 20
479.3412840202878
 30
0.0
 11
391.8268479494535
 21
479.3412840202868
 31
0.0
  0
LINE
  5
DD6
330
1E
100
AcDbEntity
  8
STEMPEL
100
AcDbLine
 10
228.3049435960992
 20
512.0090273546873
 30
0.0
 11
236.585642774842
 21
512.0090273546873
 31
0.0
  0
LINE
  5
DD7
330
1E
100
AcDbEntity
  8
STEMPEL
100
AcDbLine
 10
226.5030738687261
 20
507.9412840202873
 30
0.0
 11
238.445293185725
 21
507.9412840202871
 31
0.0
  0
ARC
  5
DD8
330
1E
100
AcDbEntity
  8
STEMPEL
100
AcDbCircle
 10
232.4452931857251
 20
503.7279097610873
 30
0.0
 40
8.281117593600001
100
AcDbArc
 50
70.52782738138933
 51
109.4721726186137
  0
LINE
  5
DD9
330
1E
100
AcDbEntity
  8
STEMPEL
100
AcDbLine
 10
238.4452931857253
 20
506.341284020287
 30
0.0
 11
226.4452931857251
 21
506.3412840202874
 31
0.0
  0
LINE
  5
DDA
102
{ACAD_REACTORS
330
F5F
330
10B3
102
}
330
1E
100
AcDbEntity
  8
STEMPEL
100
AcDbLine
 10
118.3694886365714
 20
505.3412840202899
 30
0.0
 11
367.3694886365715
 21
505.3412840202871
 31
0.0
  0
ARC
  5
DDB
330
1E
100
AcDbEntity
  8
STEMPEL
100
AcDbCircle
 10
230.5628508089208
 20
596.8412840202866
 30
0.0
 40
1.5
100
AcDbArc
 50
270.0
 51
330.0000000000076
  0
ARC
  5
DDC
330
1E
100
AcDbEntity
  8
STEMPEL
100
AcDbCircle
 10
230.5628508089208
 20
596.8412840202866
 30
0.0
 40
2.5
100
AcDbArc
 50
270.0
 51
330.0000000000076
  0
ARC
  5
DDD
330
1E
100
AcDbEntity
  8
STEMPEL
100
AcDbCircle
 10
233.1609270202745
 20
595.3412840202865
 30
0.0
 40
1.5
100
AcDbArc
 50
90.0
 51
150.0000000000075
  0
DIMENSION
  5
DDE
330
1E
100
AcDbEntity
  8
BEM
100
AcDbDimension
  2
*D2
 10
299.1694886365715
 20
189.0575229947582
 30
0.0
 11
248.3694886365714
 21
195.5575229947582
 31
0.0
 70
    32
  1
%%c<>
 71
     5
 42
101.6000000000001
  3
Standard
100
AcDbAlignedDimension
 13
197.5694886365713
 23
217.341284020288
 33
0.0
 14
299.1694886365715
 24
217.3412840202876
 34
0.0
100
AcDbRotatedDimension
1001
ACAD
1000
DSTYLE
1002
{
1070
    40
1040
2.0
1070
    41
1040
3.5
1070
    42
1040
1.0
1070
    43
1040
7.0
1070
    44
1040
1.0
1070
    73
1070
     0
1070
    74
1070
     0
1070
    77
1070
     1
1070
    78
1070
     8
1070
    79
1070
     2
1070
   140
1040
3.5
1070
   141
1040
1.5
1070
   146
1040
0.5142857142857144
1070
   147
1040
1.5
1070
   172
1070
     1
1070
   178
1070
     1
1070
   179
1070
     2
1070
   271
1070
     2
1070
   272
1070
     2
1070
   284
1070
     8
1070
   285
1070
     8
1070
   286
1070
     8
1002
}
  0
LINE
  5
DE0
330
1E
100
AcDbEntity
  8
STEMPEL
100
AcDbLine
 10
224.9452931857253
 20
505.3412840202869
 30
0.0
 11
239.9452931857253
 21
505.3412840202869
 31
0.0
  0
LINE
  5
DE3
102
{ACAD_REACTORS
330
10B3
102
}
330
1E
100
AcDbEntity
  8
STEMPEL
100
AcDbLine
 10
106.3694886365716
 20
491.3412840202869
 30
0.0
 11
357.7116314119984
 21
491.3412840202871
 31
0.0
  0
LINE
  5
DE4
102
{ACAD_REACTORS
330
F5F
330
10B3
102
}
330
1E
100
AcDbEntity
  8
STEMPEL
100
AcDbLine
 10
390.3694886365716
 20
485.341284020287
 30
0.0
 11
141.3694886365716
 21
485.3412840202868
 31
0.0
  0
DIMENSION
  5
DE5
330
1E
100
AcDbEntity
  8
BEM
100
AcDbDimension
  2
*D3
 10
358.3694886365719
 20
604.6805011670774
 30
0.0
 11
248.3694886365718
 21
611.1805011670774
 31
0.0
 70
    32
  1
%%c<>
 71
     5
 42
220.0000000000002
  3
Standard
100
AcDbAlignedDimension
 13
138.3694886365716
 23
575.3412260529715
 33
0.0
 14
358.3694886365719
 24
575.3412260529715
 34
0.0
100
AcDbRotatedDimension
1001
ACAD
1000
DSTYLE
1002
{
1070
    40
1040
2.0
1070
    41
1040
3.5
1070
    42
1040
1.0
1070
    43
1040
7.0
1070
    44
1040
1.0
1070
    73
1070
     0
1070
    74
1070
     0
1070
    77
1070
     1
1070
    78
1070
     8
1070
    79
1070
     2
1070
   140
1040
3.5
1070
   141
1040
1.5
1070
   146
1040
0.5142857142857144
1070
   147
1040
1.5
1070
   172
1070
     1
1070
   178
1070
     1
1070
   179
1070
     2
1070
   271
1070
     2
1070
   272
1070
     2
1070
   284
1070
     8
1070
   285
1070
     8
1070
   286
1070
     8
1002
}
  0
LINE
  5
DE7
330
1E
100
AcDbEntity
  8
HILF
100
AcDbLine
 10
350.6958216941023
 20
578.3412840202897
 30
0.0
 11
145.5431555790409
 21
578.3412840202895
 31
0.0
  0
LINE
  5
DE8
330
1E
100
AcDbEntity
  8
STEMPEL
100
AcDbLine
 10
168.3694886365716
 20
594.3412840202861
 30
0.0
 11
328.3694886365719
 21
594.341284020287
 31
0.0
  0
LWPOLYLINE
  5
DE9
330
1E
100
AcDbEntity
  8
STEMPEL
100
AcDbPolyline
 90
       18
 70
   128
 43
0.0
 10
-226.7400165322848
 20
517.8412840202851
 10
-226.8666257784611
 20
519.2194054039098
 10
-227.2421419909628
 20
520.5505965166894
 10
-227.8537774155552
 20
521.7895252418661
 10
-228.6807035414295
 20
522.8940013476353
 10
-229.6947603911578
 20
523.8264132248882
 10
-230.8614154749495
 20
524.5550087054495
 10
-232.1409397531748
 20
525.0549763440829
 10
-233.4897605611589
 20
525.3092903424994
 10
-234.8619454240182
 20
525.3092903424994
 10
-236.2107662320023
 20
525.0549763440829
 10
-237.4902905102276
 20
524.5550087054495
 10
-238.6569455940193
 20
523.8264132248882
 10
-239.6710024437476
 20
522.8940013476353
 10
-240.4979285696219
 20
521.7895252418661
 10
-241.1095639942143
 20
520.5505965166894
 10
-241.485080206716
 20
519.2194054039098
 10
-241.6116894528923
 20
517.8412840202851
210
0.0
220
0.0
230
-1.0
  0
LINE
  5
DEA
330
1E
100
AcDbEntity
  8
STEMPEL
100
AcDbLine
 10
226.1534420100277
 20
506.341284020287
 30
0.0
 11
240.8942814809491
 21
506.341284020287
 31
0.0
  0
LINE
  5
DEB
330
1E
100
AcDbEntity
  8
STEMPEL
100
AcDbLine
 10
225.7059270202745
 20
596.8412840202866
 30
0.0
 11
271.2109270202744
 21
596.8412840202866
 31
0.0
  0
HATCH
  5
DEC
330
1E
100
AcDbEntity
  8
SCHRAFF
  6
Continuous
100
AcDbHatch
 10
0.0
 20
0.0
 30
0.0
210
0.0
220
0.0
230
1.0
  2
_U
 70
     0
 71
     0
 91
        4
 92
        7
 72
     1
 73
     1
 93
       44
 10
139.3694886365717
 20
575.3412260529715
 42
-0.266750395150088
 10
141.8501350684446
 20
579.6601214671677
 42
0.0
 10
165.8289889613855
 20
593.6477746333471
 42
-0.134038508411906
 10
168.3694886365716
 20
594.3412840202861
 42
0.0
 10
223.107850808921
 20
594.3412840202865
 42
0.2679491924311371
 10
225.2729143183822
 20
595.5912840202866
 42
-0.2679491924311204
 10
225.7059270202744
 20
595.8412840202866
 42
0.0
 10
225.9059270202746
 20
595.8412840202866
 42
-0.2679491924312574
 10
226.3389397221671
 20
595.5912840202868
 42
0.2679491924311556
 10
228.5040032316283
 20
594.3412840202865
 42
0.0
 10
230.5628508089207
 20
594.3412840202865
 42
0.2679491924311518
 10
232.727914318382
 20
595.5912840202866
 42
-0.2679491924310975
 10
233.1609270202742
 20
595.8412840202866
 42
0.0
 10
233.3609270202745
 20
595.8412840202866
 42
-0.2679491924309788
 10
233.7939397221664
 20
595.5912840202866
 42
0.2679491924311251
 10
235.9590032316275
 20
594.3412840202865
 42
0.0
 10
242.4128508089216
 20
594.3412840202865
 42
0.2679491924310973
 10
244.5779143183826
 20
595.5912840202863
 42
-0.2679491924312862
 10
245.0109270202749
 20
595.8412840202866
 42
0.0
 10
248.3694886365718
 20
595.8412840202868
 42
0.0
 10
248.3694886365718
 20
596.8412840202866
 42
0.0
 10
245.0109270202744
 20
596.8412840202866
 42
0.2679491924310756
 10
243.711888914598
 20
596.0912840202865
 42
-0.2679491924311246
 10
242.4128508089213
 20
595.3412840202865
 42
0.0
 10
235.9590032316274
 20
595.3412840202865
 42
-0.2679491924310962
 10
234.6599651259509
 20
596.0912840202865
 42
0.2859076546238575
 10
233.2609270202743
 20
596.8379469749961
 42
0.2859076546238756
 10
231.8618889145976
 20
596.0912840202865
 42
-0.2679491924311237
 10
230.5628508089209
 20
595.3412840202865
 42
0.0
 10
228.5040032316284
 20
595.3412840202865
 42
-0.2679491924311723
 10
227.2049651259515
 20
596.0912840202865
 42
0.2859076546238861
 10
225.8059270202747
 20
596.8379469749961
 42
0.2859076546239122
 10
224.4068889145978
 20
596.0912840202865
 42
-0.2679491924311319
 10
223.1078508089211
 20
595.3412840202865
 42
0.0
 10
168.3694886365716
 20
595.3412840202861
 42
0.1316524975837886
 10
165.3694886366452
 20
594.5374364430356
 42
0.0
 10
141.3367940148743
 20
580.5183645803365
 42
0.2662608607109036
 10
138.3694886365716
 20
575.3412260529715
 42
0.0
 10
138.3694886365716
 20
511.3412840202875
 42
-0.4142135623730909
 10
133.3694886365717
 20
506.3412840202874
 42
0.0
 10
118.3694886365715
 20
506.341284020287
 42
0.0
 10
118.3694886365714
 20
505.341284020287
 42
0.0
 10
133.3694886365717
 20
505.341284020287
 42
0.4142135623730952
 10
139.3694886365717
 20
511.341284020287
 42
0.0
 97
        0
 92
        7
 72
     1
 73
     1
 93
       31
 10
308.5118329820607
 20
595.341284020287
 42
0.0
 10
273.8090032316285
 20
595.3412840202865
 42
-0.2679491924311948
 10
272.5099651259514
 20
596.0912840202865
 42
0.2859076546239628
 10
271.1109270202742
 20
596.8379469749961
 42
0.2859076546237491
 10
269.7118889145981
 20
596.0912840202865
 42
-0.2679491924311143
 10
268.4128508089216
 20
595.3412840202865
 42
0.0
 10
261.959003231628
 20
595.3412840202865
 42
-0.2679491924311449
 10
260.6599651259512
 20
596.0912840202865
 42
0.2859076546238161
 10
259.2609270202749
 20
596.8379469749963
 42
0.3607372083888945
 10
257.7085582654466
 20
595.7162840202865
 42
-0.3419987131196436
 10
257.2244353471707
 20
595.3412840202865
 42
0.0
 10
257.0356861545713
 20
595.3412840202865
 42
-0.3419987131195289
 10
256.5515632362956
 20
595.7162840202865
 42
0.3419987131196487
 10
255.0991944814678
 20
596.8412840202866
 42
0.0
 10
248.3694886365717
 20
596.8412840202866
 42
0.0
 10
248.3694886365717
 20
595.8412840202866
 42
0.0
 10
255.099194481468
 20
595.8412840202866
 42
-0.3419987131195064
 10
255.5833173997436
 20
595.4662840202866
 42
0.3596757619904947
 10
257.1300607508709
 20
594.3442558189579
 42
0.3596757619905158
 10
258.6768041019983
 20
595.4662840202866
 42
-0.3419987131196715
 10
259.1609270202742
 20
595.8412840202866
 42
0.0
 10
259.3609270202745
 20
595.8412840202866
 42
-0.2679491924311643
 10
259.7939397221668
 20
595.5912840202866
 42
0.2679491924311343
 10
261.959003231628
 20
594.3412840202865
 42
0.0
 10
268.412850808922
 20
594.3412840202865
 42
0.2679491924310781
 10
270.5779143183828
 20
595.5912840202863
 42
-0.2679491924312612
 10
271.0109270202752
 20
595.8412840202866
 42
0.0
 10
271.2109270202744
 20
595.8412840202866
 42
-0.2679491924313018
 10
271.643939722167
 20
595.5912840202868
 42
0.2679491924311476
 10
273.8090032316284
 20
594.3412840202865
 42
0.0
 10
309.0125363082547
 20
594.341284020287
 42
0.0
 97
        0
 92
        7
 72
     1
 73
     1
 93
       16
 10
328.3694886365719
 20
595.341284020287
 42
0.0
 10
308.5118329820608
 20
595.341284020287
 42
0.0
 10
309.0125363082547
 20
594.3412840202868
 42
0.0
 10
328.3694886365719
 20
594.341284020287
 42
-0.1340385084118612
 10
330.9099883117569
 20
593.6477746333478
 42
0.0
 10
354.8888422046989
 20
579.6601214671677
 42
-0.2667503951500871
 10
357.3694886365718
 20
575.3412260529715
 42
0.0
 10
357.3694886365718
 20
511.3412840202875
 42
0.4142135623731166
 10
363.3694886365717
 20
505.341284020287
 42
0.0
 10
366.3694886365716
 20
505.341284020287
 42
0.0
 10
366.3694886365716
 20
506.3412840202873
 42
0.0
 10
363.3694886365715
 20
506.3412840202874
 42
-0.4142135623730784
 10
358.3694886365719
 20
511.3412840202875
 42
0.0
 10
358.3694886365719
 20
575.3412260529715
 42
0.2662608607107455
 10
355.4021832582722
 20
580.5183645803347
 42
0.0
 10
331.3694886364952
 20
594.5374364430374
 42
0.131652497583648
 97
        0
 92
        7
 72
     0
 73
     1
 93
        4
 10
378.3694886365716
 20
506.341284020287
 10
374.3694886365716
 20
506.341284020287
 10
374.3694886365716
 20
505.341284020287
 10
378.3694886365716
 20
505.341284020287
 97
        0
 75
     0
 76
     0
 52
135.0
 41
2.0
 77
     0
 78
     1
 53
135.0
 43
0.0
 44
0.0
 45
-1.414213562373095
 46
-1.414213562373094
 79
     0
 47
0.4197568243763778
 98
        4
 10
139.0648956431709
 20
544.4167719002548
 10
293.232299360995
 20
594.7875920745941
 10
325.5780475191582
 20
594.7875920745941
 10
375.5669338650982
 20
505.7991437453345
  0
DIMENSION
  5
DEF
330
1E
100
AcDbEntity
  8
BEM
100
AcDbDimension
  2
*D4
 10
80.57312069631519
 20
209.3412840202879
 30
0.0
 11
74.07312069631515
 21
344.3412840202874
 31
0.0
 70
    32
 71
     5
 42
269.999999999999
  3
Standard
100
AcDbAlignedDimension
 13
98.36948863657159
 23
479.3412840202869
 33
0.0
 14
198.2693979447788
 24
209.3412840202879
 34
0.0
 50
90.0
100
AcDbRotatedDimension
1001
ACAD
1000
DSTYLE
1002
{
1070
    40
1040
2.0
1070
    41
1040
3.5
1070
    42
1040
1.0
1070
    43
1040
7.0
1070
    44
1040
1.0
1070
    73
1070
     0
1070
    74
1070
     0
1070
    77
1070
     1
1070
    78
1070
     8
1070
    79
1070
     2
1070
   140
1040
3.5
1070
   141
1040
1.5
1070
   146
1040
0.5142857142857144
1070
   147
1040
1.5
1070
   172
1070
     1
1070
   178
1070
     1
1070
   179
1070
     2
1070
   271
1070
     2
1070
   272
1070
     2
1070
   284
1070
     8
1070
   285
1070
     8
1070
   286
1070
     8
1002
}
  0
LINE
  5
DF7
330
1E
100
AcDbEntity
  8
STEMPEL
100
AcDbLine
 10
106.3694886365716
 20
485.3412840202869
 30
0.0
 11
131.3694886365716
 21
485.3412840202868
 31
0.0
  0
LINE
  5
DF8
102
{ACAD_REACTORS
330
10B3
102
}
330
1E
100
AcDbEntity
  8
STEMPEL
100
AcDbLine
 10
131.3694886365716
 20
485.3412840202868
 30
0.0
 11
106.3694886365716
 21
485.3412840202869
 31
0.0
  0
DIMENSION
  5
DF9
330
1E
100
AcDbEntity
  8
BEM
100
AcDbDimension
  2
*D5
 10
80.57312069631519
 20
595.3412840202861
 30
0.0
 11
74.07312069631508
 21
540.3412840202865
 31
0.0
 70
    32
 71
     5
 42
109.9999999999992
  3
Standard
100
AcDbAlignedDimension
 13
106.3694886365716
 23
485.3412840202869
 33
0.0
 14
168.3694886365716
 24
595.3412840202861
 34
0.0
 50
90.0
100
AcDbRotatedDimension
1001
ACAD
1000
DSTYLE
1002
{
1070
    40
1040
2.0
1070
    41
1040
3.5
1070
    42
1040
1.0
1070
    43
1040
7.0
1070
    44
1040
1.0
1070
    73
1070
     0
1070
    74
1070
     0
1070
    77
1070
     1
1070
    78
1070
     8
1070
    79
1070
     2
1070
   140
1040
3.5
1070
   141
1040
1.5
1070
   146
1040
0.5142857142857144
1070
   147
1040
1.5
1070
   172
1070
     1
1070
   178
1070
     1
1070
   179
1070
     2
1070
   271
1070
     2
1070
   272
1070
     2
1070
   284
1070
     8
1070
   285
1070
     8
1070
   286
1070
     8
1002
}
  0
LINE
  5
DFC
330
1E
100
AcDbEntity
  8
STEMPEL
100
AcDbLine
 10
98.36948863657159
 20
479.3412840202869
 30
0.0
 11
98.36948863657159
 21
483.3412840202869
 31
0.0
  0
LINE
  5
DFD
330
1E
100
AcDbEntity
  8
STEMPEL
100
AcDbLine
 10
138.3694886365716
 20
575.3412260529715
 30
0.0
 11
138.3694886365716
 21
511.3412840202875
 31
0.0
  0
LINE
  5
DFE
330
1E
100
AcDbEntity
  8
STEMPEL
100
AcDbLine
 10
139.3694886365717
 20
575.3412260529715
 30
0.0
 11
139.3694886365717
 21
511.3412840202875
 31
0.0
  0
LWPOLYLINE
  5
E00
330
1E
100
AcDbEntity
  8
STEMPEL
100
AcDbPolyline
 90
       18
 70
   128
 43
0.0
 10
-157.5332136935004
 20
517.8412840202851
 10
-157.6109535947605
 20
519.2194054039098
 10
-157.8415259594423
 20
520.5505965166894
 10
-158.2170789222075
 20
521.7895252418661
 10
-158.7248234773352
 20
522.8940013476353
 10
-159.3474689929731
 20
523.8264132248882
 10
-160.0638120228671
 20
524.5550087054495
 10
-160.8494583642931
 20
525.0549763440829
 10
-161.6776537733725
 20
525.3092903424994
 10
-162.5201950487602
 20
525.3092903424994
 10
-163.3483904578396
 20
525.0549763440829
 10
-164.1340367992655
 20
524.5550087054495
 10
-164.8503798291595
 20
523.8264132248882
 10
-165.4730253447975
 20
522.8940013476353
 10
-165.9807698999252
 20
521.7895252418661
 10
-166.3563228626903
 20
520.5505965166894
 10
-166.5868952273722
 20
519.2194054039098
 10
-166.6646351286322
 20
517.8412840202851
210
0.0
220
0.0
230
-1.0
  0
ARC
  5
E01
102
{ACAD_REACTORS
330
10B3
102
}
330
1E
100
AcDbEntity
  8
STEMPEL
100
AcDbCircle
 10
166.3694886365717
 20
488.3412840202869
 30
0.0
 40
3.0
100
AcDbArc
 50
270.0
 51
90.0
  0
LWPOLYLINE
  5
E02
330
1E
100
AcDbEntity
  8
STEMPEL
100
AcDbPolyline
 90
       10
 70
   128
 43
0.0
 10
162.3009289540262
 20
505.341284020287
 10
163.0586785791205
 20
505.4324375022138
 10
163.793404365296
 20
505.7031282955716
 10
164.4827820413291
 20
506.1451315975802
 10
165.1058652153754
 20
506.7450173615732
 10
165.643721820487
 20
507.4845583621679
 10
166.0800093558859
 20
508.3412840202872
 10
166.4014714455812
 20
509.2891631603331
 10
166.5983406266452
 20
510.2993949542858
 10
166.664635128632
 20
511.3412840202875
  0
LINE
  5
E03
330
1E
100
AcDbEntity
  8
STEMPEL
100
AcDbLine
 10
140.3694886365716
 20
504.3412840202876
 30
0.0
 11
132.3694886365716
 21
504.3412840202876
 31
0.0
  0
LINE
  5
E04
330
1E
100
AcDbEntity
  8
STEMPEL
100
AcDbLine
 10
131.3694886365716
 20
503.3412840202877
 30
0.0
 11
141.3694886365716
 21
503.3412840202877
 31
0.0
  0
ARC
  5
E09
330
1E
100
AcDbEntity
  8
STEMPEL
100
AcDbCircle
 10
133.3694886365717
 20
511.3412840202875
 30
0.0
 40
5.0
100
AcDbArc
 50
270.0000000000017
 51
0.0
  0
ARC
  5
E0A
330
1E
100
AcDbEntity
  8
STEMPEL
100
AcDbCircle
 10
133.3694886365717
 20
511.3412840202875
 30
0.0
 40
6.0
100
AcDbArc
 50
270.0000000000017
 51
0.0
  0
ARC
  5
E0D
102
{ACAD_REACTORS
330
10B3
102
}
330
1E
100
AcDbEntity
  8
STEMPEL
100
AcDbCircle
 10
106.3694886365716
 20
488.3412840202869
 30
0.0
 40
3.0
100
AcDbArc
 50
90.0
 51
270.0
  0
LINE
  5
E0E
102
{ACAD_REACTORS
330
10B3
102
}
330
1E
100
AcDbEntity
  8
STEMPEL
100
AcDbLine
 10
129.3694886365716
 20
491.3412840202869
 30
0.0
 11
129.3694886365716
 21
485.3412840202868
 31
0.0
  0
LINE
  5
E0F
330
1E
100
AcDbEntity
  8
STEMPEL
100
AcDbLine
 10
131.3694886365716
 20
491.3412840202869
 30
0.0
 11
131.3694886365716
 21
479.3412840202877
 31
0.0
  0
LINE
  5
E10
330
1E
100
AcDbEntity
  8
HILF
100
AcDbLine
 10
132.3694886365716
 20
491.3412840202869
 30
0.0
 11
132.3694886365716
 21
479.3412840202877
 31
0.0
  0
LINE
  5
E12
330
1E
100
AcDbEntity
  8
STEMPEL
100
AcDbLine
 10
118.3694886365716
 20
506.341284020287
 30
0.0
 11
133.3694886365718
 21
506.3412840202874
 31
0.0
  0
LINE
  5
E13
330
1E
100
AcDbEntity
  8
STEMPEL
100
AcDbLine
 10
118.3694886365715
 20
506.3412840202873
 30
0.0
 11
118.3694886365714
 21
505.341284020287
 31
0.0
  0
LINE
  5
E19
330
1E
100
AcDbEntity
  8
HILF
100
AcDbLine
 10
132.3694886365716
 20
504.3412840202876
 30
0.0
 11
132.3694886365716
 21
501.3412840202869
 31
0.0
  0
LINE
  5
E1A
330
1E
100
AcDbEntity
  8
STEMPEL
100
AcDbLine
 10
131.3694886365716
 20
503.3412840202876
 30
0.0
 11
131.3694886365716
 21
501.3412840202868
 31
0.0
  0
LINE
  5
E1B
330
1E
100
AcDbEntity
  8
STEMPEL
100
AcDbLine
 10
132.3694886365716
 20
504.3412840202876
 30
0.0
 11
131.3694886365716
 21
503.3412840202876
 31
0.0
  0
LWPOLYLINE
  5
E1C
330
1E
100
AcDbEntity
  8
STEMPEL
100
AcDbPolyline
 90
       10
 70
   128
 43
0.0
 10
153.1695075188944
 20
505.341284020287
 10
153.9272571439886
 20
505.4324375022138
 10
154.6619829301641
 20
505.7031282955716
 10
155.3513606061973
 20
506.1451315975802
 10
155.9744437802436
 20
506.7450173615732
 10
156.5123003853551
 20
507.4845583621679
 10
156.948587920754
 20
508.3412840202872
 10
157.2700500104493
 20
509.2891631603331
 10
157.4669191915133
 20
510.2993949542858
 10
157.5332136935002
 20
511.3412840202875
  0
LWPOLYLINE
  5
E1D
330
1E
100
AcDbEntity
  8
STEMPEL
100
AcDbPolyline
 90
       10
 70
   128
 43
0.0
 10
145.9600499832446
 20
505.341284020287
 10
146.7962292580862
 20
505.4324375022138
 10
147.6070016487888
 20
505.7031282955716
 10
148.3677322465316
 20
506.1451315975802
 10
149.0553066370504
 20
506.7450173615732
 10
149.6488332204188
 20
507.4845583621679
 10
150.13027799174
 20
508.3412840202872
 10
150.4850124952604
 20
509.2891631603331
 10
150.7022583025946
 20
510.2993949542858
 10
150.7754145098185
 20
511.3412840202875
  0
LWPOLYLINE
  5
E1E
330
1E
100
AcDbEntity
  8
STEMPEL
100
AcDbPolyline
 90
       10
 70
   128
 43
0.0
 10
140.2197984977668
 20
505.341284020287
 10
141.0559777726084
 20
505.4324375022138
 10
141.866750163311
 20
505.7031282955716
 10
142.6274807610538
 20
506.1451315975802
 10
143.3150551515726
 20
506.7450173615732
 10
143.908581734941
 20
507.4845583621679
 10
144.3900265062622
 20
508.3412840202872
 10
144.7447610097826
 20
509.2891631603331
 10
144.9620068171168
 20
510.2993949542858
 10
145.0351630243408
 20
511.3412840202875
  0
LWPOLYLINE
  5
E1F
330
1E
100
AcDbEntity
  8
STEMPEL
100
AcDbPolyline
 90
        7
 70
   128
 43
0.0
 10
137.9228308636987
 20
506.3412840202874
 10
138.5995327387762
 20
506.9508847481465
 10
139.1990821624101
 20
507.678443832058
 10
139.7053708355598
 20
508.5044136937383
 10
140.1047961276053
 20
509.4066027189414
 10
140.3866265428682
 20
510.3607714871352
 10
140.5432900473697
 20
511.3412840202875
  0
LWPOLYLINE
  5
E20
330
1E
100
AcDbEntity
  8
STEMPEL
100
AcDbPolyline
 90
        7
 70
   128
 43
0.0
 10
147.6957885406426
 20
506.341284020287
 10
148.315879063707
 20
506.9506219221278
 10
148.8476992104904
 20
507.6780521954171
 10
149.2769450102216
 20
508.5040096893608
 10
149.5920713580189
 20
509.4062792398231
 10
149.7846025349848
 20
510.3605931740662
 10
149.8493601733111
 20
511.3412840202875
  0
LWPOLYLINE
  5
E21
330
1E
100
AcDbEntity
  8
STEMPEL
100
AcDbPolyline
 90
        7
 70
   128
 43
0.0
 10
163.9178374132931
 20
506.341284020287
 10
164.4797663865572
 20
506.9506219221278
 10
164.9617043261443
 20
507.6780521954171
 10
165.3506889058942
 20
508.5040096893608
 10
165.6362578970007
 20
509.4062792398231
 10
165.8107305627965
 20
510.3605931740662
 10
165.8694142418115
 20
511.3412840202875
  0
LINE
  5
E22
330
1E
100
AcDbEntity
  8
MITTEL
100
AcDbLine
 10
136.3694886365716
 20
509.3412840202875
 30
0.0
 11
136.3694886365716
 21
479.3412840202877
 31
0.0
  0
LWPOLYLINE
  5
E23
330
1E
100
AcDbEntity
  8
STEMPEL
100
AcDbPolyline
 90
       10
 70
   128
 43
0.0
 10
136.0310800298766
 20
505.341284020287
 10
136.8891530261494
 20
505.4074112348596
 10
137.7419652257716
 20
505.6599649845898
 10
138.5627235326886
 20
506.0910107009074
 10
139.3256418990876
 20
506.6870060713474
 10
140.0067514545868
 20
507.4292265030678
 10
140.5846535445325
 20
508.2943533998655
 10
141.0411920189387
 20
509.2552067705814
 10
141.3620236505363
 20
510.2815991522937
 10
141.5370687609074
 20
511.3412840202864
  0
LWPOLYLINE
  5
E24
330
1E
100
AcDbEntity
  8
STEMPEL
100
AcDbPolyline
 90
       10
 70
   128
 43
0.0
 10
134.0731871465761
 20
505.3412840202882
 10
134.9312601428489
 20
505.4074112348607
 10
135.7840723424711
 20
505.6599649845909
 10
136.6048306493881
 20
506.0910107009085
 10
137.3677490157871
 20
506.6870060713483
 10
138.0488585712863
 20
507.4292265030692
 10
138.626760661232
 20
508.2943533998665
 10
139.0832991356383
 20
509.2552067705826
 10
139.4041307672358
 20
510.2815991522947
 10
139.5791758776069
 20
511.3412840202875
  0
LINE
  5
E25
102
{ACAD_REACTORS
330
10B3
102
}
330
1E
100
AcDbEntity
  8
STEMPEL
100
AcDbLine
 10
143.3694886365716
 20
491.341284020287
 30
0.0
 11
143.3694886365717
 21
485.3412840202869
 31
0.0
  0
LINE
  5
E26
330
1E
100
AcDbEntity
  8
HILF
100
AcDbLine
 10
140.3694886365716
 20
491.3412840202869
 30
0.0
 11
140.3694886365716
 21
479.3412840202877
 31
0.0
  0
LINE
  5
E27
330
1E
100
AcDbEntity
  8
STEMPEL
100
AcDbLine
 10
141.3694886365716
 20
491.3412840202869
 30
0.0
 11
141.3694886365716
 21
479.3412840202877
 31
0.0
  0
LINE
  5
E2C
330
1E
100
AcDbEntity
  8
STEMPEL
100
AcDbLine
 10
136.9587166939363
 20
506.341284020287
 30
0.0
 11
137.922830863699
 21
506.341284020287
 31
0.0
  0
LINE
  5
E2D
330
1E
100
AcDbEntity
  8
HILF
100
AcDbLine
 10
140.3694886365716
 20
504.3412840202876
 30
0.0
 11
140.3694886365716
 21
501.3412840202869
 31
0.0
  0
LINE
  5
E2E
330
1E
100
AcDbEntity
  8
STEMPEL
100
AcDbLine
 10
141.3694886365716
 20
503.3412840202876
 30
0.0
 11
141.3694886365716
 21
501.3412840202869
 31
0.0
  0
LINE
  5
E2F
330
1E
100
AcDbEntity
  8
STEMPEL
100
AcDbLine
 10
141.3694886365716
 20
503.3412840202876
 30
0.0
 11
140.3694886365716
 21
504.3412840202876
 31
0.0
  0
LINE
  5
E32
330
1E
100
AcDbEntity
  8
STEMPEL
100
AcDbLine
 10
142.8815913916722
 20
506.341284020287
 30
0.0
 11
147.6957885406436
 21
506.341284020287
 31
0.0
  0
LINE
  5
E33
330
1E
100
AcDbEntity
  8
STEMPEL
100
AcDbLine
 10
155.5816368649819
 20
506.341284020287
 30
0.0
 11
163.9178374132938
 21
506.341284020287
 31
0.0
  0
LWPOLYLINE
  5
E34
330
1E
100
AcDbEntity
  8
STEMPEL
100
AcDbPolyline
 90
       18
 70
   128
 43
0.0
 10
-145.0351630243408
 20
517.8412840202851
 10
-145.084032369257
 20
519.2194054039098
 10
-145.2289762170771
 20
520.5505965166894
 10
-145.4650586789043
 20
521.7895252418661
 10
-145.7842402496511
 20
522.8940013476353
 10
-146.1756515837414
 20
523.8264132248882
 10
-146.6259636376394
 20
524.5550087054495
 10
-147.1198415744388
 20
525.0549763440829
 10
-147.6404669733437
 20
525.3092903424994
 10
-148.1701105608155
 20
525.3092903424994
 10
-148.6907359597205
 20
525.0549763440829
 10
-149.1846138965199
 20
524.5550087054495
 10
-149.6349259504179
 20
523.8264132248882
 10
-150.0263372845082
 20
522.8940013476353
 10
-150.345518855255
 20
521.7895252418661
 10
-150.5816013170822
 20
520.5505965166894
 10
-150.7265451649022
 20
519.2194054039098
 10
-150.7754145098185
 20
517.8412840202851
210
0.0
220
0.0
230
-1.0
  0
LWPOLYLINE
  5
E35
330
1E
100
AcDbEntity
  8
STEMPEL
100
AcDbPolyline
 90
       18
 70
   128
 43
0.0
 10
-139.5791758776069
 20
517.8412840202851
 10
-139.5958443010837
 20
519.2194054039098
 10
-139.6452819483441
 20
520.5505965166894
 10
-139.7258052796046
 20
521.7895252418661
 10
-139.8346721693962
 20
522.8940013476353
 10
-139.9681752863585
 20
523.8264132248882
 10
-140.1217683419627
 20
524.5550087054495
 10
-140.2902209089147
 20
525.0549763440829
 10
-140.4677965370837
 20
525.3092903424994
 10
-140.6484481014307
 20
525.3092903424994
 10
-140.8260237295996
 20
525.0549763440829
 10
-140.9944762965517
 20
524.5550087054495
 10
-141.1480693521558
 20
523.8264132248882
 10
-141.2815724691181
 20
522.8940013476353
 10
-141.3904393589097
 20
521.7895252418661
 10
-141.4709626901702
 20
520.5505965166894
 10
-141.5204003374307
 20
519.2194054039098
 10
-141.5370687609074
 20
517.8412840202851
210
0.0
220
0.0
230
-1.0
  0
LWPOLYLINE
  5
E36
330
1E
100
AcDbEntity
  8
STEMPEL
100
AcDbPolyline
 90
        7
 70
   128
 43
0.0
 10
-140.0612329624881
 20
524.3033380761251
 10
-140.1990619720583
 20
523.5512318391863
 10
-140.3179262490245
 20
522.6285182284716
 10
-140.4142742509258
 20
521.5627669785674
 10
-140.485227198464
 20
520.3858216417463
 10
-140.5286650904719
 20
519.1328481353446
 10
-140.5432900473694
 20
517.8412840202851
210
0.0
220
0.0
230
-1.0
  0
LINE
  5
E37
330
1E
100
AcDbEntity
  8
STEMPEL
100
AcDbLine
 10
139.579175877607
 20
517.8412840202851
 30
0.0
 11
139.579175877607
 21
511.3412840202875
 31
0.0
  0
LINE
  5
E38
330
1E
100
AcDbEntity
  8
STEMPEL
100
AcDbLine
 10
140.5432900473696
 20
517.8412840202851
 30
0.0
 11
140.5432900473696
 21
511.3412840202875
 31
0.0
  0
LINE
  5
E39
330
1E
100
AcDbEntity
  8
STEMPEL
100
AcDbLine
 10
141.5370687609074
 20
517.8412840202851
 30
0.0
 11
141.5370687609074
 21
511.3412840202864
 31
0.0
  0
LWPOLYLINE
  5
E3A
330
1E
100
AcDbEntity
  8
STEMPEL
100
AcDbPolyline
 90
        9
 70
   128
 43
0.0
 10
-147.4422615988277
 20
525.2430422649502
 10
-147.9313221420964
 20
524.9166093671929
 10
-148.3909351099973
 20
524.3713403539357
 10
-148.8068849136216
 20
523.6241001108075
 10
-149.1663064429132
 20
522.69800038803
 10
-149.4580829778007
 20
521.6216849660598
 10
-149.6731900225388
 20
520.428443718429
 10
-149.8049744286463
 20
519.1551829733533
 10
-149.8493601733111
 20
517.8412840202867
210
0.0
220
0.0
230
-1.0
  0
LINE
  5
E3B
330
1E
100
AcDbEntity
  8
STEMPEL
100
AcDbLine
 10
145.0351630243408
 20
517.8412840202851
 30
0.0
 11
145.0351630243408
 21
511.3412840202886
 31
0.0
  0
LINE
  5
E3C
330
1E
100
AcDbEntity
  8
STEMPEL
100
AcDbLine
 10
149.8493601733113
 20
517.8412840202851
 30
0.0
 11
149.8493601733113
 21
511.3412840202886
 31
0.0
  0
LINE
  5
E3D
330
1E
100
AcDbEntity
  8
STEMPEL
100
AcDbLine
 10
150.7754145098185
 20
517.8412840202851
 30
0.0
 11
150.7754145098185
 21
511.3412840202886
 31
0.0
  0
LINE
  5
E3E
330
1E
100
AcDbEntity
  8
STEMPEL
100
AcDbLine
 10
157.5332136935003
 20
517.8412840202851
 30
0.0
 11
157.5332136935003
 21
511.3412840202886
 31
0.0
  0
LWPOLYLINE
  5
E3F
330
1E
100
AcDbEntity
  8
STEMPEL
100
AcDbPolyline
 90
       10
 70
   128
 43
0.0
 10
-161.3037035242454
 20
525.3412840202884
 10
-162.096530870105
 20
525.2273421678799
 10
-162.8652685582508
 20
524.8889786761826
 10
-163.5865588830283
 20
524.3364745486714
 10
-164.2384858029098
 20
523.5866173436802
 10
-164.8012408483254
 20
522.6621910929368
 10
-165.2577249919884
 20
521.5912840202874
 10
-165.5940681941851
 20
520.4064350952299
 10
-165.8000508369152
 20
519.143645352789
 10
-165.8694142418113
 20
517.8412840202867
210
0.0
220
0.0
230
-1.0
  0
LINE
  5
E40
330
1E
100
AcDbEntity
  8
STEMPEL
100
AcDbLine
 10
165.8694142418114
 20
517.8412840202851
 30
0.0
 11
165.8694142418114
 21
511.3412840202886
 31
0.0
  0
LWPOLYLINE
  5
E4A
330
1E
100
AcDbEntity
  8
STEMPEL
100
AcDbPolyline
 90
       10
 70
   128
 43
0.0
 10
197.1044146966249
 20
505.341284020287
 10
197.5771446543785
 20
505.4324375022138
 10
198.0355109515787
 20
505.7031282955716
 10
198.4655863602295
 20
506.1451315975802
 10
198.8543032566677
 20
506.7450173615732
 10
199.1898506746954
 20
507.4845583621679
 10
199.462033175811
 20
508.3412840202872
 10
199.6625806324491
 20
509.2891631603331
 10
199.7853995116215
 20
510.2993949542858
 10
199.826758023834
 20
511.3412840202875
  0
LINE
  5
E4B
330
1E
100
AcDbEntity
  8
STEMPEL
100
AcDbLine
 10
198.6092465911049
 20
506.341284020287
 30
0.0
 11
212.0838553130993
 21
506.341284020287
 31
0.0
  0
LINE
  5
E4C
330
1E
100
AcDbEntity
  8
MITTEL
100
AcDbLine
 10
192.3694886365717
 20
509.3412840202875
 30
0.0
 11
192.3694886365717
 21
479.3412840202875
 31
0.0
  0
LWPOLYLINE
  5
E4D
330
1E
100
AcDbEntity
  8
STEMPEL
100
AcDbPolyline
 90
        7
 70
   128
 43
0.0
 10
185.873688966385
 20
506.341284020287
 10
186.3453345669519
 20
506.9506219221278
 10
186.7498410433347
 20
507.6780521954171
 10
187.0763286858237
 20
508.5040096893608
 10
187.3160161992319
 20
509.4062792398231
 10
187.462456886858
 20
510.3605931740662
 10
187.5117120424904
 20
511.3412840202875
  0
LWPOLYLINE
  5
E4E
330
1E
100
AcDbEntity
  8
STEMPEL
100
AcDbPolyline
 90
       10
 70
   128
 43
0.0
 10
184.4593033548286
 20
505.341284020287
 10
185.0953077148295
 20
505.4324375022138
 10
185.7119874041856
 20
505.7031282955716
 10
186.2906049225907
 20
506.1451315975802
 10
186.8135792695426
 20
506.7450173615732
 10
187.265020134147
 20
507.4845583621679
 10
187.631210714173
 20
508.3412840202872
 10
187.901024494148
 20
509.2891631603331
 10
188.0662633188997
 20
510.2993949542858
 10
188.1219064903527
 20
511.3412840202875
  0
LWPOLYLINE
  5
E4F
330
1E
100
AcDbEntity
  8
STEMPEL
100
AcDbPolyline
 90
       10
 70
   128
 43
0.0
 10
172.5590032504597
 20
505.341284020287
 10
173.1950076104607
 20
505.4324375022138
 10
173.8116872998168
 20
505.7031282955716
 10
174.3903048182219
 20
506.1451315975802
 10
174.9132791651737
 20
506.7450173615732
 10
175.3647200297782
 20
507.4845583621679
 10
175.7309106098042
 20
508.3412840202872
 10
176.0007243897791
 20
509.2891631603331
 10
176.1659632145308
 20
510.2993949542858
 10
176.2216063859839
 20
511.3412840202875
  0
LINE
  5
E51
330
1E
100
AcDbEntity
  8
STEMPEL
100
AcDbLine
 10
174.5835833098785
 20
506.341284020287
 30
0.0
 11
185.8736889663856
 21
506.341284020287
 31
0.0
  0
LINE
  5
E5C
330
1E
100
AcDbEntity
  8
STEMPEL
100
AcDbLine
 10
187.3694886365719
 20
503.3412840202876
 30
0.0
 11
197.3694886365716
 21
503.3412840202876
 31
0.0
  0
LINE
  5
E5D
330
1E
100
AcDbEntity
  8
STEMPEL
100
AcDbLine
 10
196.3694886365717
 20
504.3412840202874
 30
0.0
 11
188.3694886365717
 21
504.3412840202875
 31
0.0
  0
LINE
  5
E64
330
1E
100
AcDbEntity
  8
STEMPEL
100
AcDbLine
 10
187.3694886365717
 20
503.3412840202875
 30
0.0
 11
187.3694886365717
 21
501.3412840202869
 31
0.0
  0
LINE
  5
E65
330
1E
100
AcDbEntity
  8
HILF
100
AcDbLine
 10
188.3694886365717
 20
504.3412840202875
 30
0.0
 11
188.3694886365718
 21
501.3412840202869
 31
0.0
  0
LINE
  5
E66
330
1E
100
AcDbEntity
  8
STEMPEL
100
AcDbLine
 10
188.3694886365717
 20
504.3412840202875
 30
0.0
 11
187.3694886365717
 21
503.3412840202875
 31
0.0
  0
LINE
  5
E68
330
1E
100
AcDbEntity
  8
STEMPEL
100
AcDbLine
 10
197.3694886365717
 20
503.3412840202873
 30
0.0
 11
197.3694886365717
 21
501.3412840202869
 31
0.0
  0
LINE
  5
E69
330
1E
100
AcDbEntity
  8
HILF
100
AcDbLine
 10
196.3694886365717
 20
504.3412840202874
 30
0.0
 11
196.3694886365718
 21
501.3412840202869
 31
0.0
  0
LINE
  5
E6A
330
1E
100
AcDbEntity
  8
STEMPEL
100
AcDbLine
 10
197.3694886365717
 20
503.3412840202873
 30
0.0
 11
196.3694886365717
 21
504.3412840202874
 31
0.0
  0
LWPOLYLINE
  5
E6B
330
1E
100
AcDbEntity
  8
STEMPEL
100
AcDbPolyline
 90
        9
 70
   128
 43
0.0
 10
-181.8666592142487
 20
525.331418098109
 10
-182.9830669356199
 20
525.1241109617017
 10
-184.0483461873621
 20
524.6548562342479
 10
-185.0241811704005
 20
523.9405319970794
 10
-185.8754732032584
 20
523.006830953683
 10
-186.5716031459949
 20
521.8873363185225
 10
-187.0875327046862
 20
520.6223139011838
 10
-187.4047050049022
 20
519.2572638319745
 10
-187.5117120424903
 20
517.8412840202867
210
0.0
220
0.0
230
-1.0
  0
LWPOLYLINE
  5
E6C
330
1E
100
AcDbEntity
  8
STEMPEL
100
AcDbPolyline
 90
       18
 70
   128
 43
0.0
 10
-176.2216063859838
 20
517.8412840202851
 10
-176.3229189977881
 20
519.2194054039098
 10
-176.6234067537173
 20
520.5505965166894
 10
-177.1128369036385
 20
521.7895252418661
 10
-177.774542490803
 20
522.8940013476353
 10
-178.5859899250681
 20
523.8264132248882
 10
-179.5195463372838
 20
524.5550087054495
 10
-180.5434205835099
 20
525.0549763440829
 10
-181.6227458542926
 20
525.3092903424994
 10
-182.7207670220437
 20
525.3092903424994
 10
-183.8000922928265
 20
525.0549763440829
 10
-184.8239665390526
 20
524.5550087054495
 10
-185.7575229512683
 20
523.8264132248882
 10
-186.5689703855334
 20
522.8940013476353
 10
-187.2306759726978
 20
521.7895252418661
 10
-187.720106122619
 20
520.5505965166894
 10
-188.0205938785483
 20
519.2194054039098
 10
-188.1219064903526
 20
517.8412840202851
210
0.0
220
0.0
230
-1.0
  0
LINE
  5
E6D
330
1E
100
AcDbEntity
  8
STEMPEL
100
AcDbLine
 10
166.6646351286322
 20
517.8412840202851
 30
0.0
 11
166.6646351286322
 21
511.3412840202886
 31
0.0
  0
LINE
  5
E6E
330
1E
100
AcDbEntity
  8
STEMPEL
100
AcDbLine
 10
176.2216063859839
 20
517.8412840202851
 30
0.0
 11
176.2216063859839
 21
511.3412840202886
 31
0.0
  0
LINE
  5
E6F
330
1E
100
AcDbEntity
  8
STEMPEL
100
AcDbLine
 10
188.1219064903527
 20
517.8412840202851
 30
0.0
 11
188.1219064903527
 21
511.3412840202886
 31
0.0
  0
LINE
  5
E70
330
1E
100
AcDbEntity
  8
STEMPEL
100
AcDbLine
 10
187.5117120424904
 20
517.8412840202851
 30
0.0
 11
187.5117120424904
 21
511.3412840202886
 31
0.0
  0
LINE
  5
E71
330
1E
100
AcDbEntity
  8
STEMPEL
100
AcDbLine
 10
226.4452931857251
 20
507.5637865054646
 30
0.0
 11
226.4452931857251
 21
506.3412840202872
 31
0.0
  0
LWPOLYLINE
  5
E72
330
1E
100
AcDbEntity
  8
STEMPEL
100
AcDbPolyline
 90
       10
 70
   128
 43
0.0
 10
210.9626076842959
 20
505.341284020287
 10
211.4353376420495
 20
505.4324375022138
 10
211.8937039392497
 20
505.7031282955716
 10
212.3237793479004
 20
506.1451315975802
 10
212.7124962443387
 20
506.7450173615732
 10
213.0480436623663
 20
507.4845583621679
 10
213.3202261634819
 20
508.3412840202872
 10
213.52077362012
 20
509.2891631603331
 10
213.6435924992925
 20
510.2993949542858
 10
213.6849510115049
 20
511.3412840202875
  0
LWPOLYLINE
  5
E73
330
1E
100
AcDbEntity
  8
STEMPEL
100
AcDbPolyline
 90
        7
 70
   128
 43
0.0
 10
212.0838553130989
 20
506.341284020287
 10
212.4344205275108
 20
506.9506219221278
 10
212.7350825064495
 20
507.6780521954171
 10
212.9777545683841
 20
508.5040096893608
 10
213.1559097434326
 20
509.4062792398231
 10
213.2647563244131
 20
510.3605931740662
 10
213.3013667458279
 20
511.3412840202875
  0
LWPOLYLINE
  5
E74
330
1E
100
AcDbEntity
  8
STEMPEL
100
AcDbPolyline
 90
       10
 70
   128
 43
0.0
 10
225.4284417957768
 20
505.341284020287
 10
225.6561943586454
 20
505.4324375022138
 10
225.8770267751396
 20
505.7031282955716
 10
226.0842291640308
 20
506.1451315975802
 10
226.271505785582
 20
506.7450173615732
 10
226.4331663344139
 20
507.4845583621679
 10
226.5642988365546
 20
508.3412840202872
 10
226.6609188972825
 20
509.2891631603331
 10
226.7200907649447
 20
510.2993949542858
 10
226.7400165322847
 20
511.3412840202875
  0
ARC
  5
E77
330
1E
100
AcDbEntity
  8
STEMPEL
100
AcDbCircle
 10
219.7874359611519
 20
496.3412840202871
 30
0.0
 40
5.0
100
AcDbArc
 50
270.0
 51
358.9999999999982
  0
LINE
  5
E78
330
1E
100
AcDbEntity
  8
STEMPEL
100
AcDbLine
 10
224.7866744369338
 20
496.2540219881007
 30
0.0
 11
224.9452931857253
 21
505.3412840202869
 31
0.0
  0
LWPOLYLINE
  5
E79
330
1E
100
AcDbEntity
  8
STEMPEL
100
AcDbPolyline
 90
        9
 70
   128
 43
0.0
 10
-206.5640623848576
 20
525.3384104433252
 10
-207.8882718351874
 20
525.1595775362775
 10
-209.1562512323735
 20
524.7093016189532
 10
-210.3209699204591
 20
524.0042838868141
 10
-211.3392272890657
 20
523.0706741704307
 10
-212.173255128328
 20
521.9431010114546
 10
-212.7921184905219
 20
520.6633872545028
 10
-213.1728630989961
 20
519.2789987949672
 10
-213.3013667458279
 20
517.8412840202867
210
0.0
220
0.0
230
-1.0
  0
LWPOLYLINE
  5
E7A
330
1E
100
AcDbEntity
  8
STEMPEL
100
AcDbPolyline
 90
       18
 70
   128
 43
0.0
 10
-199.826758023834
 20
517.8412840202851
 10
-199.9447390591151
 20
519.2194054039098
 10
-200.2946644623048
 20
520.5505965166894
 10
-200.8646179434865
 20
521.7895252418661
 10
-201.6351904204426
 20
522.8940013476353
 10
-202.5801409716701
 20
523.8264132248882
 10
-203.6672904394903
 20
524.5550087054495
 10
-204.8596172526685
 20
525.0549763440829
 10
-206.1165181516203
 20
525.3092903424994
 10
-207.3951908837186
 20
525.3092903424994
 10
-208.6520917826705
 20
525.0549763440829
 10
-209.8444185958486
 20
524.5550087054495
 10
-210.9315680636688
 20
523.8264132248882
 10
-211.8765186148963
 20
522.8940013476353
 10
-212.6470910918524
 20
521.7895252418661
 10
-213.2170445730341
 20
520.5505965166894
 10
-213.5669699762238
 20
519.2194054039098
 10
-213.6849510115049
 20
517.8412840202851
210
0.0
220
0.0
230
-1.0
  0
LINE
  5
E7B
330
1E
100
AcDbEntity
  8
STEMPEL
100
AcDbLine
 10
199.826758023834
 20
517.8412840202851
 30
0.0
 11
199.826758023834
 21
511.3412840202886
 31
0.0
  0
LINE
  5
E7C
330
1E
100
AcDbEntity
  8
STEMPEL
100
AcDbLine
 10
213.6849510115049
 20
517.8412840202836
 30
0.0
 11
213.6849510115049
 21
511.3412840202886
 31
0.0
  0
LINE
  5
E7D
330
1E
100
AcDbEntity
  8
STEMPEL
100
AcDbLine
 10
213.301366745828
 20
517.8412840202851
 30
0.0
 11
213.301366745828
 21
511.3412840202886
 31
0.0
  0
ARC
  5
E7E
330
1E
100
AcDbEntity
  8
STEMPEL
100
AcDbCircle
 10
228.304539803751
 20
509.7611290344081
 30
0.0
 40
2.247898356545996
100
AcDbArc
 50
52.11936428281976
 51
121.4691945163663
  0
LINE
  5
E7F
330
1E
100
AcDbEntity
  8
STEMPEL
100
AcDbLine
 10
226.9242886764265
 20
511.5590368094841
 30
0.0
 11
227.1310468082119
 21
511.6784086725275
 31
0.0
  0
LINE
  5
E80
330
1E
100
AcDbEntity
  8
STEMPEL
100
AcDbLine
 10
226.9242886764265
 20
511.5590368094841
 30
0.0
 11
226.9242886764265
 21
507.9412840202873
 31
0.0
  0
LINE
  5
E81
330
1E
100
AcDbEntity
  8
STEMPEL
100
AcDbLine
 10
226.7400165322846
 20
517.8412840202867
 30
0.0
 11
226.7400165322846
 21
511.3412840202886
 31
0.0
  0
LINE
  5
E82
330
1E
100
AcDbEntity
  8
STEMPEL
100
AcDbLine
 10
229.6847909310758
 20
511.5353764373598
 30
0.0
 11
229.6847909310758
 21
507.9412840202873
 31
0.0
  0
ARC
  5
E83
330
1E
100
AcDbEntity
  8
STEMPEL
100
AcDbCircle
 10
168.3694886365716
 20
589.3412840202866
 30
0.0
 40
5.0
100
AcDbArc
 50
90.0
 51
120.5373500483005
  0
ARC
  5
E84
330
1E
100
AcDbEntity
  8
STEMPEL
100
AcDbCircle
 10
168.3694886365716
 20
589.3412840202866
 30
0.0
 40
6.0
100
AcDbArc
 50
90.0
 51
120.5128743276197
  0
LINE
  5
E85
330
1E
100
AcDbEntity
  8
STEMPEL
100
AcDbLine
 10
141.3367940148638
 20
580.5183645803303
 30
0.0
 11
165.3230968903307
 21
594.5103745910189
 31
0.0
  0
LINE
  5
E86
330
1E
100
AcDbEntity
  8
STEMPEL
100
AcDbLine
 10
141.8501350684446
 20
579.6601214671677
 30
0.0
 11
165.8289889613958
 21
593.6477746333532
 31
0.0
  0
ARC
  5
E87
330
1E
100
AcDbEntity
  8
STEMPEL
100
AcDbCircle
 10
144.3694886365717
 20
575.3412260529715
 30
0.0
 40
5.0
100
AcDbArc
 50
120.2564164748189
 51
180.0
  0
ARC
  5
E88
330
1E
100
AcDbEntity
  8
STEMPEL
100
AcDbCircle
 10
144.3694886365717
 20
575.3412260529715
 30
0.0
 40
6.0
100
AcDbArc
 50
120.2564164748189
 51
180.0
  0
ARC
  5
E89
330
1E
100
AcDbEntity
  8
STEMPEL
100
AcDbCircle
 10
138.8583450322601
 20
584.8611210027488
 30
0.0
 40
5.0
100
AcDbArc
 50
300.0670458384858
 51
300.2564371635302
  0
LINE
  5
E8A
330
1E
100
AcDbEntity
  8
STEMPEL
100
AcDbLine
 10
168.3694886365716
 20
595.3412840202861
 30
0.0
 11
223.1078508089211
 21
595.3412840202865
 31
0.0
  0
ARC
  5
E8B
330
1E
100
AcDbEntity
  8
STEMPEL
100
AcDbCircle
 10
168.3694886365716
 20
589.3412840202866
 30
0.0
 40
6.0
100
AcDbArc
 50
90.0
 51
90.0
  0
ARC
  5
E8C
330
1E
100
AcDbEntity
  8
STEMPEL
100
AcDbCircle
 10
223.1078508089211
 20
596.8412840202866
 30
0.0
 40
2.5
100
AcDbArc
 50
270.0
 51
330.0000000000003
  0
ARC
  5
E8D
330
1E
100
AcDbEntity
  8
STEMPEL
100
AcDbCircle
 10
223.1078508089211
 20
596.8412840202866
 30
0.0
 40
1.5
100
AcDbArc
 50
270.0
 51
330.0000000000003
  0
ARC
  5
E8E
330
1E
100
AcDbEntity
  8
STEMPEL
100
AcDbCircle
 10
228.5040032316284
 20
596.8412840202866
 30
0.0
 40
2.5
100
AcDbArc
 50
209.9999999999925
 51
270.0
  0
ARC
  5
E8F
330
1E
100
AcDbEntity
  8
STEMPEL
100
AcDbCircle
 10
228.5040032316284
 20
596.8412840202866
 30
0.0
 40
1.5
100
AcDbArc
 50
209.9999999999925
 51
270.0
  0
ARC
  5
E90
330
1E
100
AcDbEntity
  8
STEMPEL
100
AcDbCircle
 10
225.7059270202745
 20
595.3412840202865
 30
0.0
 40
0.5
100
AcDbArc
 50
90.0
 51
149.9999999999994
  0
LINE
  5
E91
330
1E
100
AcDbEntity
  8
STEMPEL
100
AcDbLine
 10
225.7059270202745
 20
595.8412840202866
 30
0.0
 11
225.9059270202746
 21
595.8412840202866
 31
0.0
  0
ARC
  5
E92
330
1E
100
AcDbEntity
  8
STEMPEL
100
AcDbCircle
 10
225.9059270202746
 20
595.3412840202865
 30
0.0
 40
0.5
100
AcDbArc
 50
29.99999999999973
 51
90.0
  0
ARC
  5
E93
330
1E
100
AcDbEntity
  8
STEMPEL
100
AcDbCircle
 10
225.9059270202746
 20
595.3412840202865
 30
0.0
 40
1.5
100
AcDbArc
 50
29.99999999999246
 51
90.0
  0
ARC
  5
E94
330
1E
100
AcDbEntity
  8
STEMPEL
100
AcDbCircle
 10
225.7059270202745
 20
595.3412840202865
 30
0.0
 40
1.5
100
AcDbArc
 50
90.0
 51
150.0000000000002
  0
LINE
  5
E95
330
1E
100
AcDbEntity
  8
STEMPEL
100
AcDbLine
 10
228.5040032316284
 20
595.3412840202865
 30
0.0
 11
230.5628508089208
 21
595.3412840202865
 31
0.0
  0
LINE
  5
E96
330
1E
100
AcDbEntity
  8
STEMPEL
100
AcDbLine
 10
228.5040032316284
 20
595.3412840202865
 30
0.0
 11
230.5628508089208
 21
595.3412840202865
 31
0.0
  0
LINE
  5
E99
330
1E
100
AcDbEntity
  8
MITTEL
100
AcDbLine
 10
248.3694886365718
 20
601.8412840202866
 30
0.0
 11
248.3694886365714
 21
449.9307293080628
 31
0.0
  0
ARC
  5
E9E
102
{ACAD_REACTORS
330
10B3
102
}
330
1E
100
AcDbEntity
  8
STEMPEL
100
AcDbCircle
 10
357.7116314119984
 20
496.3412840202871
 30
0.0
 40
5.0
100
AcDbArc
 50
270.0
 51
358.9999999999982
  0
ARC
  5
E9F
330
1E
100
AcDbEntity
  8
STEMPEL
100
AcDbCircle
 10
363.3694886365717
 20
511.3412840202875
 30
0.0
 40
5.0
100
AcDbArc
 50
180.0
 51
269.9999999999984
  0
ARC
  5
EA0
330
1E
100
AcDbEntity
  8
STEMPEL
100
AcDbCircle
 10
363.3694886365717
 20
511.3412840202875
 30
0.0
 40
6.0
100
AcDbArc
 50
180.0
 51
269.9999999999984
  0
LINE
  5
EA1
330
1E
100
AcDbEntity
  8
STEMPEL
100
AcDbLine
 10
357.3694886365718
 20
575.3412260529715
 30
0.0
 11
357.3694886365718
 21
511.3412840202875
 31
0.0
  0
LINE
  5
EA2
330
1E
100
AcDbEntity
  8
STEMPEL
100
AcDbLine
 10
358.3694886365719
 20
575.3412260529715
 30
0.0
 11
358.3694886365719
 21
511.3412840202875
 31
0.0
  0
LINE
  5
EA3
330
1E
100
AcDbEntity
  8
STEMPEL
100
AcDbLine
 10
298.1297306820386
 20
506.341284020287
 30
0.0
 11
284.6551219600442
 21
506.341284020287
 31
0.0
  0
LWPOLYLINE
  5
EA4
330
1E
100
AcDbEntity
  8
STEMPEL
100
AcDbPolyline
 90
       10
 70
   128
 43
0.0
 10
-299.6345625765185
 20
505.341284020287
 10
-299.161832618765
 20
505.4324375022138
 10
-298.7034663215648
 20
505.7031282955716
 10
-298.273390912914
 20
506.1451315975802
 10
-297.8846740164757
 20
506.7450173615732
 10
-297.5491265984481
 20
507.4845583621679
 10
-297.2769440973325
 20
508.3412840202872
 10
-297.0763966406944
 20
509.2891631603331
 10
-296.953577761522
 20
510.2993949542858
 10
-296.9122192493095
 20
511.3412840202875
210
0.0
220
0.0
230
-1.0
  0
LINE
  5
EA7
330
1E
100
AcDbEntity
  8
STEMPEL
100
AcDbLine
 10
266.9884221652174
 20
504.3412840202874
 30
0.0
 11
258.9884221652174
 21
504.3412840202875
 31
0.0
  0
LINE
  5
EA8
330
1E
100
AcDbEntity
  8
STEMPEL
100
AcDbLine
 10
257.9884221652176
 20
503.3412840202876
 30
0.0
 11
267.9884221652173
 21
503.3412840202876
 31
0.0
  0
LWPOLYLINE
  5
EAB
330
1E
100
AcDbEntity
  8
STEMPEL
100
AcDbPolyline
 90
       18
 70
   128
 43
0.0
 10
269.9989607408587
 20
517.8412840202851
 10
269.8723514946824
 20
519.2194054039098
 10
269.4968352821807
 20
520.5505965166894
 10
268.8851998575883
 20
521.7895252418661
 10
268.058273731714
 20
522.8940013476353
 10
267.0442168819857
 20
523.8264132248882
 10
265.8775617981939
 20
524.5550087054495
 10
264.5980375199687
 20
525.0549763440829
 10
263.2492167119846
 20
525.3092903424994
 10
261.8770318491253
 20
525.3092903424994
 10
260.5282110411412
 20
525.0549763440829
 10
259.2486867629159
 20
524.5550087054495
 10
258.0820316791242
 20
523.8264132248882
 10
257.0679748293959
 20
522.8940013476353
 10
256.2410487035215
 20
521.7895252418661
 10
255.6294132789291
 20
520.5505965166894
 10
255.2538970664275
 20
519.2194054039098
 10
255.1272878202511
 20
517.8412840202851
  0
LINE
  5
EAC
330
1E
100
AcDbEntity
  8
STEMPEL
100
AcDbLine
 10
270.5855352631159
 20
506.341284020287
 30
0.0
 11
255.8446957921944
 21
506.341284020287
 31
0.0
  0
LINE
  5
EAD
330
1E
100
AcDbEntity
  8
STEMPEL
100
AcDbLine
 10
238.445293185725
 20
507.9412840202871
 30
0.0
 11
238.445293185725
 21
506.3412840202872
 31
0.0
  0
LINE
  5
EAE
330
1E
100
AcDbEntity
  8
MITTEL
100
AcDbLine
 10
262.9884221652174
 20
509.3412840202875
 30
0.0
 11
262.9884221652174
 21
479.3412840202875
 31
0.0
  0
LWPOLYLINE
  5
EAF
330
1E
100
AcDbEntity
  8
STEMPEL
100
AcDbPolyline
 90
       10
 70
   128
 43
0.0
 10
240.3001147163844
 20
505.341284020287
 10
240.527867279253
 20
505.4324375022138
 10
240.7486996957472
 20
505.7031282955716
 10
240.9559020846384
 20
506.1451315975802
 10
241.1431787061895
 20
506.7450173615732
 10
241.3048392550215
 20
507.4845583621679
 10
241.4359717571621
 20
508.3412840202872
 10
241.5325918178901
 20
509.2891631603331
 10
241.5917636855523
 20
510.2993949542858
 10
241.6116894528923
 20
511.3412840202875
  0
LWPOLYLINE
  5
EB0
330
1E
100
AcDbEntity
  8
STEMPEL
100
AcDbPolyline
 90
        7
 70
   128
 43
0.0
 10
240.8942814809487
 20
506.341284020287
 10
241.0631773267172
 20
506.9506219221278
 10
241.2080307152898
 20
507.6780521954171
 10
241.3249456328569
 20
508.5040096893608
 10
241.4107775058746
 20
509.4062792398231
 10
241.4632177783203
 20
510.3605931740662
 10
241.4808560032056
 20
511.3412840202875
  0
LWPOLYLINE
  5
EB1
330
1E
100
AcDbEntity
  8
STEMPEL
100
AcDbPolyline
 90
       10
 70
   128
 43
0.0
 10
-256.4388625567591
 20
505.341284020287
 10
-256.2111099938905
 20
505.4324375022138
 10
-255.9902775773963
 20
505.7031282955716
 10
-255.7830751885051
 20
506.1451315975802
 10
-255.5957985669539
 20
506.7450173615732
 10
-255.434138018122
 20
507.4845583621679
 10
-255.3030055159813
 20
508.3412840202872
 10
-255.2063854552534
 20
509.2891631603331
 10
-255.1472135875911
 20
510.2993949542858
 10
-255.1272878202512
 20
511.3412840202875
210
0.0
220
0.0
230
-1.0
  0
LWPOLYLINE
  5
EB2
330
1E
100
AcDbEntity
  8
STEMPEL
100
AcDbPolyline
 90
        7
 70
   128
 43
0.0
 10
-255.8446957921947
 20
506.341284020287
 10
-255.6757999464263
 20
506.9506219221278
 10
-255.5309465578536
 20
507.6780521954171
 10
-255.4140316402865
 20
508.5040096893608
 10
-255.3281997672689
 20
509.4062792398231
 10
-255.2757594948232
 20
510.3605931740662
 10
-255.2581212699378
 20
511.3412840202875
210
0.0
220
0.0
230
-1.0
  0
LINE
  5
EB3
330
1E
100
AcDbEntity
  8
MITTEL
100
AcDbLine
 10
232.4452931857253
 20
481.341284020287
 30
0.0
 11
232.4452931857253
 21
510.341284020287
 31
0.0
  0
ARC
  5
EB4
330
1E
100
AcDbEntity
  8
STEMPEL
100
AcDbCircle
 10
245.1031504102988
 20
496.3412840202869
 30
0.0
 40
5.0
100
AcDbArc
 50
181.0000000000017
 51
270.0
  0
LINE
  5
EB5
330
1E
100
AcDbEntity
  8
STEMPEL
100
AcDbLine
 10
240.1039119345167
 20
496.2540219881005
 30
0.0
 11
239.9452931857253
 21
505.3412840202869
 31
0.0
  0
LINE
  5
EBD
330
1E
100
AcDbEntity
  8
STEMPEL
100
AcDbLine
 10
257.9884221652175
 20
503.3412840202875
 30
0.0
 11
257.9884221652175
 21
501.3412840202871
 31
0.0
  0
LINE
  5
EBE
330
1E
100
AcDbEntity
  8
HILF
100
AcDbLine
 10
258.9884221652174
 20
504.3412840202875
 30
0.0
 11
258.9884221652174
 21
501.341284020287
 31
0.0
  0
LINE
  5
EBF
330
1E
100
AcDbEntity
  8
STEMPEL
100
AcDbLine
 10
258.9884221652174
 20
504.3412840202875
 30
0.0
 11
257.9884221652175
 21
503.3412840202875
 31
0.0
  0
LWPOLYLINE
  5
EC0
330
1E
100
AcDbEntity
  8
STEMPEL
100
AcDbPolyline
 90
        9
 70
   128
 43
0.0
 10
-234.1104362678451
 20
525.34099378006
 10
-235.5517762517229
 20
525.1856923861362
 10
-236.9358571551725
 20
524.7512921391218
 10
-238.2100817677044
 20
524.0543009188465
 10
-239.3260275874343
 20
523.121205467401
 10
-240.2412869508873
 20
521.9874648520574
 10
-240.9210785896624
 20
520.6961629659881
 10
-241.3395693723118
 20
519.2963712738285
 10
-241.4808560032057
 20
517.8412840202867
210
0.0
220
0.0
230
-1.0
  0
ARC
  5
EC1
330
1E
100
AcDbEntity
  8
STEMPEL
100
AcDbCircle
 10
236.5860465676991
 20
509.7611290344081
 30
0.0
 40
2.247898356545996
100
AcDbArc
 50
58.53080548383258
 51
127.8806357171802
  0
LINE
  5
EC2
330
1E
100
AcDbEntity
  8
STEMPEL
100
AcDbLine
 10
235.2057954403746
 20
511.5353764373598
 30
0.0
 11
235.2057954403743
 21
507.9412840202873
 31
0.0
  0
LINE
  5
EC3
330
1E
100
AcDbEntity
  8
STEMPEL
100
AcDbLine
 10
237.9662976950239
 20
511.5590368094841
 30
0.0
 11
237.7595395632314
 21
511.6784086725315
 31
0.0
  0
LINE
  5
EC4
330
1E
100
AcDbEntity
  8
STEMPEL
100
AcDbLine
 10
237.9662976950239
 20
511.559036809484
 30
0.0
 11
237.9662976950239
 21
507.9412840202873
 31
0.0
  0
LINE
  5
EC5
330
1E
100
AcDbEntity
  8
STEMPEL
100
AcDbLine
 10
236.5820873423398
 20
512.0090273546873
 30
0.0
 11
236.5856427753359
 21
512.0090273546873
 31
0.0
  0
LINE
  5
EC6
330
1E
100
AcDbEntity
  8
STEMPEL
100
AcDbLine
 10
241.6116894528923
 20
517.8412840202836
 30
0.0
 11
241.6116894528923
 21
511.3412840202886
 31
0.0
  0
LINE
  5
EC7
330
1E
100
AcDbEntity
  8
STEMPEL
100
AcDbLine
 10
241.4808560032057
 20
517.8412840202851
 30
0.0
 11
241.4808560032057
 21
511.3412840202886
 31
0.0
  0
LWPOLYLINE
  5
EC8
330
1E
100
AcDbEntity
  8
STEMPEL
100
AcDbPolyline
 90
        9
 70
   128
 43
0.0
 10
262.6285410052984
 20
525.34099378006
 10
261.1872010214206
 20
525.1856923861362
 10
259.803120117971
 20
524.7512921391218
 10
258.5288955054391
 20
524.0543009188465
 10
257.4129496857092
 20
523.121205467401
 10
256.4976903222562
 20
521.9874648520574
 10
255.8178986834811
 20
520.6961629659881
 10
255.3994079008316
 20
519.2963712738285
 10
255.2581212699377
 20
517.8412840202867
  0
LINE
  5
EC9
330
1E
100
AcDbEntity
  8
STEMPEL
100
AcDbLine
 10
255.2581212699378
 20
517.8412840202851
 30
0.0
 11
255.2581212699378
 21
511.3412840202886
 31
0.0
  0
LINE
  5
ECA
330
1E
100
AcDbEntity
  8
STEMPEL
100
AcDbLine
 10
255.1272878202512
 20
517.8412840202836
 30
0.0
 11
255.1272878202512
 21
511.3412840202886
 31
0.0
  0
LWPOLYLINE
  5
ECB
330
1E
100
AcDbEntity
  8
STEMPEL
100
AcDbPolyline
 90
       10
 70
   128
 43
0.0
 10
-285.7763695888476
 20
505.341284020287
 10
-285.303639631094
 20
505.4324375022138
 10
-284.8452733338938
 20
505.7031282955716
 10
-284.4151979252431
 20
506.1451315975802
 10
-284.0264810288048
 20
506.7450173615732
 10
-283.6909336107772
 20
507.4845583621679
 10
-283.4187511096616
 20
508.3412840202872
 10
-283.2182036530235
 20
509.2891631603331
 10
-283.0953847738511
 20
510.2993949542858
 10
-283.0540262616386
 20
511.3412840202875
210
0.0
220
0.0
230
-1.0
  0
LWPOLYLINE
  5
ECC
330
1E
100
AcDbEntity
  8
STEMPEL
100
AcDbPolyline
 90
       10
 70
   128
 43
0.0
 10
-271.3105354773666
 20
505.341284020287
 10
-271.0827829144981
 20
505.4324375022138
 10
-270.8619504980039
 20
505.7031282955716
 10
-270.6547481091127
 20
506.1451315975802
 10
-270.4674714875615
 20
506.7450173615732
 10
-270.3058109387296
 20
507.4845583621679
 10
-270.1746784365889
 20
508.3412840202872
 10
-270.078058375861
 20
509.2891631603331
 10
-270.0188865081989
 20
510.2993949542858
 10
-269.9989607408588
 20
511.3412840202875
210
0.0
220
0.0
230
-1.0
  0
LWPOLYLINE
  5
ECD
330
1E
100
AcDbEntity
  8
STEMPEL
100
AcDbPolyline
 90
        7
 70
   128
 43
0.0
 10
-284.6551219600446
 20
506.341284020287
 10
-284.3045567456327
 20
506.9506219221278
 10
-284.003894766694
 20
507.6780521954171
 10
-283.7612227047594
 20
508.5040096893608
 10
-283.5830675297109
 20
509.4062792398231
 10
-283.4742209487304
 20
510.3605931740662
 10
-283.4376105273155
 20
511.3412840202875
210
0.0
220
0.0
230
-1.0
  0
LINE
  5
ED4
330
1E
100
AcDbEntity
  8
HILF
100
AcDbLine
 10
266.9884221652174
 20
504.3412840202874
 30
0.0
 11
266.9884221652174
 21
501.3412840202871
 31
0.0
  0
LINE
  5
ED5
330
1E
100
AcDbEntity
  8
STEMPEL
100
AcDbLine
 10
267.9884221652175
 20
503.3412840202873
 30
0.0
 11
267.9884221652175
 21
501.3412840202871
 31
0.0
  0
LINE
  5
ED6
330
1E
100
AcDbEntity
  8
STEMPEL
100
AcDbLine
 10
267.9884221652175
 20
503.3412840202873
 30
0.0
 11
266.9884221652174
 21
504.3412840202874
 31
0.0
  0
LINE
  5
ED8
330
1E
100
AcDbEntity
  8
STEMPEL
100
AcDbLine
 10
269.9989607408589
 20
517.8412840202867
 30
0.0
 11
269.9989607408589
 21
511.3412840202886
 31
0.0
  0
LWPOLYLINE
  5
ED9
330
1E
100
AcDbEntity
  8
STEMPEL
100
AcDbPolyline
 90
        9
 70
   128
 43
0.0
 10
290.1749148882859
 20
525.3384104433252
 10
288.8507054379561
 20
525.1595775362775
 10
287.58272604077
 20
524.7093016189532
 10
286.4180073526844
 20
524.0042838868141
 10
285.3997499840777
 20
523.0706741704307
 10
284.5657221448155
 20
521.9431010114546
 10
283.9468587826216
 20
520.6633872545028
 10
283.5661141741474
 20
519.2789987949672
 10
283.4376105273155
 20
517.8412840202867
  0
LWPOLYLINE
  5
EDA
330
1E
100
AcDbEntity
  8
STEMPEL
100
AcDbPolyline
 90
       18
 70
   128
 43
0.0
 10
296.9122192493095
 20
517.8412840202851
 10
296.7942382140284
 20
519.2194054039098
 10
296.4443128108387
 20
520.5505965166894
 10
295.874359329657
 20
521.7895252418661
 10
295.1037868527009
 20
522.8940013476353
 10
294.1588363014734
 20
523.8264132248882
 10
293.0716868336533
 20
524.5550087054495
 10
291.879360020475
 20
525.0549763440829
 10
290.6224591215232
 20
525.3092903424994
 10
289.3437863894249
 20
525.3092903424994
 10
288.0868854904731
 20
525.0549763440829
 10
286.8945586772948
 20
524.5550087054495
 10
285.8074092094747
 20
523.8264132248882
 10
284.8624586582472
 20
522.8940013476353
 10
284.0918861812911
 20
521.7895252418661
 10
283.5219327001094
 20
520.5505965166894
 10
283.1720072969197
 20
519.2194054039098
 10
283.0540262616386
 20
517.8412840202851
  0
LINE
  5
EDB
330
1E
100
AcDbEntity
  8
STEMPEL
100
AcDbLine
 10
283.4376105273155
 20
517.8412840202851
 30
0.0
 11
283.4376105273155
 21
511.3412840202886
 31
0.0
  0
LINE
  5
EDC
330
1E
100
AcDbEntity
  8
STEMPEL
100
AcDbLine
 10
283.0540262616386
 20
517.8412840202836
 30
0.0
 11
283.0540262616386
 21
511.3412840202886
 31
0.0
  0
LINE
  5
EDD
330
1E
100
AcDbEntity
  8
STEMPEL
100
AcDbLine
 10
296.9122192493095
 20
517.8412840202851
 30
0.0
 11
296.9122192493095
 21
511.3412840202886
 31
0.0
  0
LWPOLYLINE
  5
EE3
330
1E
100
AcDbEntity
  8
STEMPEL
100
AcDbPolyline
 90
       10
 70
   128
 43
0.0
 10
-334.4380483191172
 20
505.341284020287
 10
-333.680298694023
 20
505.4324375022138
 10
-332.9455729078475
 20
505.7031282955716
 10
-332.2561952318143
 20
506.1451315975802
 10
-331.6331120577679
 20
506.7450173615732
 10
-331.0952554526565
 20
507.4845583621679
 10
-330.6589679172575
 20
508.3412840202872
 10
-330.3375058275623
 20
509.2891631603331
 10
-330.1406366464982
 20
510.2993949542858
 10
-330.0743421445115
 20
511.3412840202875
210
0.0
220
0.0
230
-1.0
  0
LWPOLYLINE
  5
EE4
330
1E
100
AcDbEntity
  8
STEMPEL
100
AcDbPolyline
 90
       18
 70
   128
 43
0.0
 10
339.2057635796431
 20
517.8412840202851
 10
339.128023678383
 20
519.2194054039098
 10
338.8974513137011
 20
520.5505965166894
 10
338.521898350936
 20
521.7895252418661
 10
338.0141537958083
 20
522.8940013476353
 10
337.3915082801703
 20
523.8264132248882
 10
336.6751652502762
 20
524.5550087054495
 10
335.8895189088504
 20
525.0549763440829
 10
335.061323499771
 20
525.3092903424994
 10
334.2187822243833
 20
525.3092903424994
 10
333.3905868153039
 20
525.0549763440829
 10
332.604940473878
 20
524.5550087054495
 10
331.8885974439839
 20
523.8264132248882
 10
331.265951928346
 20
522.8940013476353
 10
330.7582073732183
 20
521.7895252418661
 10
330.3826544104532
 20
520.5505965166894
 10
330.1520820457713
 20
519.2194054039098
 10
330.0743421445112
 20
517.8412840202851
  0
LWPOLYLINE
  5
EE5
330
1E
100
AcDbEntity
  8
STEMPEL
100
AcDbPolyline
 90
        7
 70
   128
 43
0.0
 10
-310.8652883067585
 20
506.341284020287
 10
-310.3936427061916
 20
506.9506219221278
 10
-309.9891362298088
 20
507.6780521954171
 10
-309.6626485873197
 20
508.5040096893608
 10
-309.4229610739114
 20
509.4062792398231
 10
-309.2765203862855
 20
510.3605931740662
 10
-309.2272652306531
 20
511.3412840202875
210
0.0
220
0.0
230
-1.0
  0
LWPOLYLINE
  5
EE6
330
1E
100
AcDbEntity
  8
STEMPEL
100
AcDbPolyline
 90
       10
 70
   128
 43
0.0
 10
-312.2796739183149
 20
505.341284020287
 10
-311.643669558314
 20
505.4324375022138
 10
-311.0269898689578
 20
505.7031282955716
 10
-310.4483723505528
 20
506.1451315975802
 10
-309.9253980036009
 20
506.7450173615732
 10
-309.4739571389964
 20
507.4845583621679
 10
-309.1077665589704
 20
508.3412840202872
 10
-308.8379527789955
 20
509.2891631603331
 10
-308.6727139542438
 20
510.2993949542858
 10
-308.6170707827907
 20
511.3412840202875
210
0.0
220
0.0
230
-1.0
  0
LWPOLYLINE
  5
EE7
330
1E
100
AcDbEntity
  8
STEMPEL
100
AcDbPolyline
 90
       10
 70
   128
 43
0.0
 10
-324.1799740226837
 20
505.341284020287
 10
-323.5439696626828
 20
505.4324375022138
 10
-322.9272899733266
 20
505.7031282955716
 10
-322.3486724549216
 20
506.1451315975802
 10
-321.8256981079698
 20
506.7450173615732
 10
-321.3742572433653
 20
507.4845583621679
 10
-321.0080666633392
 20
508.3412840202872
 10
-320.7382528833643
 20
509.2891631603331
 10
-320.5730140586127
 20
510.2993949542858
 10
-320.5173708871596
 20
511.3412840202875
210
0.0
220
0.0
230
-1.0
  0
LINE
  5
EE9
330
1E
100
AcDbEntity
  8
STEMPEL
100
AcDbLine
 10
322.155393963265
 20
506.341284020287
 30
0.0
 11
310.8652883067579
 21
506.341284020287
 31
0.0
  0
ARC
  5
EEF
102
{ACAD_REACTORS
330
10B3
102
}
330
1E
100
AcDbEntity
  8
STEMPEL
100
AcDbCircle
 10
330.3694886365718
 20
488.3412840202872
 30
0.0
 40
2.999999999999886
100
AcDbArc
 50
90.0
 51
270.0
  0
LWPOLYLINE
  5
EF0
330
1E
100
AcDbEntity
  8
STEMPEL
100
AcDbPolyline
 90
        9
 70
   128
 43
0.0
 10
314.8723180588947
 20
525.331418098109
 10
313.7559103375236
 20
525.1241109617017
 10
312.6906310857813
 20
524.6548562342479
 10
311.714796102743
 20
523.9405319970794
 10
310.863504069885
 20
523.006830953683
 10
310.1673741271486
 20
521.8873363185225
 10
309.6514445684572
 20
520.6223139011838
 10
309.3342722682414
 20
519.2572638319745
 10
309.2272652306532
 20
517.8412840202867
  0
LWPOLYLINE
  5
EF1
330
1E
100
AcDbEntity
  8
STEMPEL
100
AcDbPolyline
 90
       18
 70
   128
 43
0.0
 10
320.5173708871597
 20
517.8412840202851
 10
320.4160582753553
 20
519.2194054039098
 10
320.1155705194261
 20
520.5505965166894
 10
319.6261403695049
 20
521.7895252418661
 10
318.9644347823405
 20
522.8940013476353
 10
318.1529873480754
 20
523.8264132248882
 10
317.2194309358597
 20
524.5550087054495
 10
316.1955566896336
 20
525.0549763440829
 10
315.1162314188508
 20
525.3092903424994
 10
314.0182102510997
 20
525.3092903424994
 10
312.938884980317
 20
525.0549763440829
 10
311.9150107340908
 20
524.5550087054495
 10
310.9814543218752
 20
523.8264132248882
 10
310.17000688761
 20
522.8940013476353
 10
309.5083013004456
 20
521.7895252418661
 10
309.0188711505244
 20
520.5505965166894
 10
308.7183833945952
 20
519.2194054039098
 10
308.6170707827908
 20
517.8412840202851
  0
LINE
  5
EF2
330
1E
100
AcDbEntity
  8
STEMPEL
100
AcDbLine
 10
309.2272652306531
 20
517.8412840202851
 30
0.0
 11
309.2272652306531
 21
511.3412840202886
 31
0.0
  0
LINE
  5
EF3
330
1E
100
AcDbEntity
  8
STEMPEL
100
AcDbLine
 10
308.6170707827907
 20
517.8412840202851
 30
0.0
 11
308.6170707827907
 21
511.3412840202886
 31
0.0
  0
LINE
  5
EF4
330
1E
100
AcDbEntity
  8
STEMPEL
100
AcDbLine
 10
320.5173708871596
 20
517.8412840202851
 30
0.0
 11
320.5173708871596
 21
511.3412840202886
 31
0.0
  0
LINE
  5
EF5
330
1E
100
AcDbEntity
  8
STEMPEL
100
AcDbLine
 10
330.0743421445113
 20
517.8412840202851
 30
0.0
 11
330.0743421445113
 21
511.3412840202886
 31
0.0
  0
LINE
  5
EF6
102
{ACAD_REACTORS
330
10B3
330
13FA
102
}
330
1E
100
AcDbEntity
  8
MITTEL
100
AcDbLine
 10
351.8439962778358
 20
509.3412840202875
 30
0.0
 11
351.8439962778358
 21
479.3412840202877
 31
0.0
  0
LWPOLYLINE
  5
EF7
330
1E
100
AcDbEntity
  8
STEMPEL
100
AcDbPolyline
 90
       10
 70
   128
 43
0.0
 10
-343.5694697542491
 20
505.341284020287
 10
-342.8117201291549
 20
505.4324375022138
 10
-342.0769943429793
 20
505.7031282955716
 10
-341.3876166669462
 20
506.1451315975802
 10
-340.7645334928998
 20
506.7450173615732
 10
-340.2266768877884
 20
507.4845583621679
 10
-339.7903893523894
 20
508.3412840202872
 10
-339.4689272626941
 20
509.2891631603331
 10
-339.2720580816301
 20
510.2993949542858
 10
-339.2057635796433
 20
511.3412840202875
210
0.0
220
0.0
230
-1.0
  0
LWPOLYLINE
  5
EF8
330
1E
100
AcDbEntity
  8
STEMPEL
100
AcDbPolyline
 90
        7
 70
   128
 43
0.0
 10
-349.0431887325009
 20
506.341284020287
 10
-348.4230982094366
 20
506.9506219221278
 10
-347.8912780626531
 20
507.6780521954171
 10
-347.4620322629219
 20
508.5040096893608
 10
-347.1469059151246
 20
509.4062792398231
 10
-346.9543747381587
 20
510.3605931740662
 10
-346.8896170998323
 20
511.3412840202875
210
0.0
220
0.0
230
-1.0
  0
LWPOLYLINE
  5
EF9
330
1E
100
AcDbEntity
  8
STEMPEL
100
AcDbPolyline
 90
       10
 70
   128
 43
0.0
 10
-350.7789272898989
 20
505.341284020287
 10
-349.9427480150573
 20
505.4324375022138
 10
-349.1319756243547
 20
505.7031282955716
 10
-348.3712450266119
 20
506.1451315975802
 10
-347.6836706360931
 20
506.7450173615732
 10
-347.0901440527247
 20
507.4845583621679
 10
-346.6086992814035
 20
508.3412840202872
 10
-346.2539647778831
 20
509.2891631603331
 10
-346.0367189705489
 20
510.2993949542858
 10
-345.9635627633249
 20
511.3412840202875
210
0.0
220
0.0
230
-1.0
  0
LWPOLYLINE
  5
EFA
330
1E
100
AcDbEntity
  8
STEMPEL
100
AcDbPolyline
 90
       10
 70
   128
 43
0.0
 10
-362.6657901265673
 20
505.3412840202882
 10
-361.8077171302946
 20
505.4074112348607
 10
-360.9549049306723
 20
505.6599649845909
 10
-360.1341466237553
 20
506.0910107009085
 10
-359.3712282573563
 20
506.6870060713483
 10
-358.6901187018572
 20
507.4292265030692
 10
-358.1122166119115
 20
508.2943533998665
 10
-357.6556781375052
 20
509.2552067705826
 10
-357.3348465059077
 20
510.2815991522947
 10
-357.1598013955366
 20
511.3412840202875
210
0.0
220
0.0
230
-1.0
  0
LWPOLYLINE
  5
EFB
330
1E
100
AcDbEntity
  8
STEMPEL
100
AcDbPolyline
 90
       10
 70
   128
 43
0.0
 10
-360.7078972432669
 20
505.341284020287
 10
-359.8498242469941
 20
505.4074112348596
 10
-358.9970120473719
 20
505.6599649845898
 10
-358.1762537404549
 20
506.0910107009074
 10
-357.4133353740558
 20
506.6870060713474
 10
-356.7322258185567
 20
507.4292265030678
 10
-356.154323728611
 20
508.2943533998655
 10
-355.6977852542047
 20
509.2552067705814
 10
-355.3769536226072
 20
510.2815991522937
 10
-355.2019085122361
 20
511.3412840202864
210
0.0
220
0.0
230
-1.0
  0
LWPOLYLINE
  5
EFC
330
1E
100
AcDbEntity
  8
STEMPEL
100
AcDbPolyline
 90
       10
 70
   128
 43
0.0
 10
-356.5191787753767
 20
505.341284020287
 10
-355.6829995005351
 20
505.4324375022138
 10
-354.8722271098325
 20
505.7031282955716
 10
-354.1114965120896
 20
506.1451315975802
 10
-353.4239221215709
 20
506.7450173615732
 10
-352.8303955382024
 20
507.4845583621679
 10
-352.3489507668812
 20
508.3412840202872
 10
-351.9942162633608
 20
509.2891631603331
 10
-351.7769704560267
 20
510.2993949542858
 10
-351.7038142488027
 20
511.3412840202875
210
0.0
220
0.0
230
-1.0
  0
LWPOLYLINE
  5
EFD
330
1E
100
AcDbEntity
  8
STEMPEL
100
AcDbPolyline
 90
        7
 70
   128
 43
0.0
 10
-358.8161464094448
 20
506.3412840202874
 10
-358.1394445343674
 20
506.9508847481465
 10
-357.5398951107334
 20
507.678443832058
 10
-357.0336064375838
 20
508.5044136937383
 10
-356.6341811455381
 20
509.4066027189414
 10
-356.3523507302753
 20
510.3607714871352
 10
-356.1956872257738
 20
511.3412840202875
210
0.0
220
0.0
230
-1.0
  0
LWPOLYLINE
  5
EFE
330
1E
100
AcDbEntity
  8
STEMPEL
100
AcDbPolyline
 90
        7
 70
   128
 43
0.0
 10
-332.8211398598504
 20
506.341284020287
 10
-332.2592108865863
 20
506.9506219221278
 10
-331.7772729469991
 20
507.6780521954171
 10
-331.3882883672493
 20
508.5040096893608
 10
-331.1027193761429
 20
509.4062792398231
 10
-330.9282467103469
 20
510.3605931740662
 10
-330.8695630313319
 20
511.3412840202875
210
0.0
220
0.0
230
-1.0
  0
LINE
  5
F03
330
1E
100
AcDbEntity
  8
STEMPEL
100
AcDbLine
 10
341.1573404081616
 20
506.341284020287
 30
0.0
 11
332.8211398598497
 21
506.341284020287
 31
0.0
  0
LINE
  5
F0A
330
1E
100
AcDbEntity
  8
STEMPEL
100
AcDbLine
 10
356.8439962778358
 20
503.3412840202877
 30
0.0
 11
346.8439962778358
 21
503.3412840202877
 31
0.0
  0
LINE
  5
F0B
330
1E
100
AcDbEntity
  8
STEMPEL
100
AcDbLine
 10
347.8439962778358
 20
504.3412840202876
 30
0.0
 11
355.8439962778358
 21
504.3412840202876
 31
0.0
  0
LINE
  5
F0F
330
1E
100
AcDbEntity
  8
STEMPEL
100
AcDbLine
 10
353.8573858814713
 20
506.341284020287
 30
0.0
 11
349.0431887324998
 21
506.341284020287
 31
0.0
  0
LINE
  5
F10
330
1E
100
AcDbEntity
  8
HILF
100
AcDbLine
 10
347.8439962778358
 20
504.3412840202876
 30
0.0
 11
347.8439962778359
 21
501.3412840202872
 31
0.0
  0
LINE
  5
F11
330
1E
100
AcDbEntity
  8
STEMPEL
100
AcDbLine
 10
346.8439962778358
 20
503.3412840202876
 30
0.0
 11
346.8439962778358
 21
501.3412840202871
 31
0.0
  0
LINE
  5
F12
330
1E
100
AcDbEntity
  8
STEMPEL
100
AcDbLine
 10
346.8439962778358
 20
503.3412840202876
 30
0.0
 11
347.8439962778358
 21
504.3412840202876
 31
0.0
  0
LINE
  5
F17
330
1E
100
AcDbEntity
  8
STEMPEL
100
AcDbLine
 10
359.7802605792072
 20
506.341284020287
 30
0.0
 11
358.8161464094445
 21
506.341284020287
 31
0.0
  0
LINE
  5
F18
330
1E
100
AcDbEntity
  8
STEMPEL
100
AcDbLine
 10
356.8439962778358
 20
503.3412840202876
 30
0.0
 11
356.8439962778358
 21
501.3412840202871
 31
0.0
  0
LINE
  5
F19
330
1E
100
AcDbEntity
  8
HILF
100
AcDbLine
 10
355.8439962778358
 20
504.3412840202876
 30
0.0
 11
355.8439962778358
 21
501.3412840202871
 31
0.0
  0
LINE
  5
F1A
330
1E
100
AcDbEntity
  8
STEMPEL
100
AcDbLine
 10
355.8439962778358
 20
504.3412840202876
 30
0.0
 11
356.8439962778358
 21
503.3412840202876
 31
0.0
  0
LINE
  5
F1B
102
{ACAD_REACTORS
330
10B3
102
}
330
1E
100
AcDbEntity
  8
STEMPEL
100
AcDbLine
 10
362.7108698877803
 20
496.2540219881009
 30
0.0
 11
362.8694886365716
 21
505.3412840202869
 31
0.0
  0
LWPOLYLINE
  5
F1C
330
1E
100
AcDbEntity
  8
STEMPEL
100
AcDbPolyline
 90
       18
 70
   128
 43
0.0
 10
351.7038142488027
 20
517.8412840202851
 10
351.6549449038864
 20
519.2194054039098
 10
351.5100010560664
 20
520.5505965166894
 10
351.2739185942391
 20
521.7895252418661
 10
350.9547370234925
 20
522.8940013476353
 10
350.5633256894021
 20
523.8264132248882
 10
350.1130136355041
 20
524.5550087054495
 10
349.6191356987047
 20
525.0549763440829
 10
349.0985102997997
 20
525.3092903424994
 10
348.5688667123279
 20
525.3092903424994
 10
348.048241313423
 20
525.0549763440829
 10
347.5543633766235
 20
524.5550087054495
 10
347.1040513227256
 20
523.8264132248882
 10
346.7126399886351
 20
522.8940013476353
 10
346.3934584178885
 20
521.7895252418661
 10
346.1573759560613
 20
520.5505965166894
 10
346.0124321082412
 20
519.2194054039098
 10
345.9635627633249
 20
517.8412840202851
  0
LWPOLYLINE
  5
F1D
330
1E
100
AcDbEntity
  8
STEMPEL
100
AcDbPolyline
 90
       10
 70
   128
 43
0.0
 10
335.4352737488981
 20
525.3412840202884
 10
334.6424464030385
 20
525.2273421678799
 10
333.8737087148927
 20
524.8889786761826
 10
333.1524183901152
 20
524.3364745486714
 10
332.5004914702337
 20
523.5866173436802
 10
331.937736424818
 20
522.6621910929368
 10
331.4812522811551
 20
521.5912840202874
 10
331.1449090789583
 20
520.4064350952299
 10
330.9389264362283
 20
519.143645352789
 10
330.8695630313322
 20
517.8412840202867
  0
LINE
  5
F1E
330
1E
100
AcDbEntity
  8
STEMPEL
100
AcDbLine
 10
330.8695630313321
 20
517.8412840202851
 30
0.0
 11
330.8695630313321
 21
511.3412840202886
 31
0.0
  0
LINE
  5
F1F
330
1E
100
AcDbEntity
  8
STEMPEL
100
AcDbLine
 10
339.2057635796432
 20
517.8412840202851
 30
0.0
 11
339.2057635796432
 21
511.3412840202886
 31
0.0
  0
LINE
  5
F20
330
1E
100
AcDbEntity
  8
STEMPEL
100
AcDbLine
 10
345.9635627633249
 20
517.8412840202851
 30
0.0
 11
345.9635627633249
 21
511.3412840202886
 31
0.0
  0
LWPOLYLINE
  5
F21
330
1E
100
AcDbEntity
  8
STEMPEL
100
AcDbPolyline
 90
        9
 70
   128
 43
0.0
 10
349.2967156743159
 20
525.2430422649502
 10
348.8076551310471
 20
524.9166093671929
 10
348.3480421631461
 20
524.3713403539357
 10
347.9320923595219
 20
523.6241001108075
 10
347.5726708302303
 20
522.69800038803
 10
347.2808942953428
 20
521.6216849660598
 10
347.0657872506047
 20
520.428443718429
 10
346.9340028444972
 20
519.1551829733533
 10
346.8896170998323
 20
517.8412840202867
  0
LINE
  5
F22
330
1E
100
AcDbEntity
  8
STEMPEL
100
AcDbLine
 10
346.8896170998322
 20
517.8412840202851
 30
0.0
 11
346.8896170998322
 21
511.3412840202886
 31
0.0
  0
LINE
  5
F23
330
1E
100
AcDbEntity
  8
STEMPEL
100
AcDbLine
 10
351.7038142488027
 20
517.8412840202851
 30
0.0
 11
351.7038142488027
 21
511.3412840202886
 31
0.0
  0
LWPOLYLINE
  5
F24
330
1E
100
AcDbEntity
  8
STEMPEL
100
AcDbPolyline
 90
       18
 70
   128
 43
0.0
 10
357.1598013955366
 20
517.8412840202851
 10
357.1431329720597
 20
519.2194054039098
 10
357.0936953247993
 20
520.5505965166894
 10
357.0131719935389
 20
521.7895252418661
 10
356.9043051037472
 20
522.8940013476353
 10
356.7708019867849
 20
523.8264132248882
 10
356.6172089311808
 20
524.5550087054495
 10
356.4487563642288
 20
525.0549763440829
 10
356.2711807360598
 20
525.3092903424994
 10
356.0905291717128
 20
525.3092903424994
 10
355.9129535435439
 20
525.0549763440829
 10
355.7445009765918
 20
524.5550087054495
 10
355.5909079209877
 20
523.8264132248882
 10
355.4574048040254
 20
522.8940013476353
 10
355.3485379142337
 20
521.7895252418661
 10
355.2680145829733
 20
520.5505965166894
 10
355.2185769357129
 20
519.2194054039098
 10
355.2019085122361
 20
517.8412840202851
  0
LWPOLYLINE
  5
F25
330
1E
100
AcDbEntity
  8
STEMPEL
100
AcDbPolyline
 90
        7
 70
   128
 43
0.0
 10
356.6777443106554
 20
524.3033380761251
 10
356.5399153010851
 20
523.5512318391863
 10
356.4210510241189
 20
522.6285182284716
 10
356.3247030222177
 20
521.5627669785674
 10
356.2537500746796
 20
520.3858216417463
 10
356.2103121826716
 20
519.1328481353446
 10
356.195687225774
 20
517.8412840202851
  0
LINE
  5
F26
330
1E
100
AcDbEntity
  8
STEMPEL
100
AcDbLine
 10
357.1598013955366
 20
517.8412840202851
 30
0.0
 11
357.1598013955366
 21
511.3412840202875
 31
0.0
  0
LINE
  5
F27
330
1E
100
AcDbEntity
  8
STEMPEL
100
AcDbLine
 10
355.2019085122361
 20
517.8412840202851
 30
0.0
 11
355.2019085122361
 21
511.3412840202864
 31
0.0
  0
LINE
  5
F28
330
1E
100
AcDbEntity
  8
STEMPEL
100
AcDbLine
 10
356.1956872257739
 20
517.8412840202851
 30
0.0
 11
356.1956872257739
 21
511.3412840202875
 31
0.0
  0
LINE
  5
F29
330
1E
100
AcDbEntity
  8
STEMPEL
100
AcDbLine
 10
273.8090032316285
 20
595.3412840202865
 30
0.0
 11
328.3694886365719
 21
595.341284020287
 31
0.0
  0
LINE
  5
F2A
330
1E
100
AcDbEntity
  8
STEMPEL
100
AcDbLine
 10
261.959003231628
 20
595.3412840202865
 30
0.0
 11
268.412850808922
 21
595.3412840202865
 31
0.0
  0
LINE
  5
F2B
330
1E
100
AcDbEntity
  8
STEMPEL
100
AcDbLine
 10
261.959003231628
 20
595.3412840202865
 30
0.0
 11
268.412850808922
 21
595.3412840202865
 31
0.0
  0
LINE
  5
F2C
330
1E
100
AcDbEntity
  8
STEMPEL
100
AcDbLine
 10
245.0109270202744
 20
595.8412840202866
 30
0.0
 11
255.099194481468
 21
595.8412840202866
 31
0.0
  0
LINE
  5
F2D
330
1E
100
AcDbEntity
  8
STEMPEL
100
AcDbLine
 10
235.9590032316274
 20
595.3412840202865
 30
0.0
 11
242.4128508089217
 21
595.3412840202865
 31
0.0
  0
LINE
  5
F2E
330
1E
100
AcDbEntity
  8
STEMPEL
100
AcDbLine
 10
235.9590032316274
 20
595.3412840202865
 30
0.0
 11
242.4128508089217
 21
595.3412840202865
 31
0.0
  0
ARC
  5
F2F
330
1E
100
AcDbEntity
  8
STEMPEL
100
AcDbCircle
 10
235.9590032316274
 20
596.8412840202866
 30
0.0
 40
2.5
100
AcDbArc
 50
210.0000000000005
 51
270.0
  0
ARC
  5
F30
330
1E
100
AcDbEntity
  8
STEMPEL
100
AcDbCircle
 10
235.9590032316274
 20
596.8412840202866
 30
0.0
 40
1.5
100
AcDbArc
 50
210.0000000000005
 51
270.0
  0
ARC
  5
F31
330
1E
100
AcDbEntity
  8
STEMPEL
100
AcDbCircle
 10
233.1609270202745
 20
595.3412840202865
 30
0.0
 40
0.5
100
AcDbArc
 50
90.0
 51
150.0000000000075
  0
LINE
  5
F32
330
1E
100
AcDbEntity
  8
STEMPEL
100
AcDbLine
 10
233.1609270202745
 20
595.8412840202866
 30
0.0
 11
233.3609270202745
 21
595.8412840202866
 31
0.0
  0
ARC
  5
F33
330
1E
100
AcDbEntity
  8
STEMPEL
100
AcDbCircle
 10
233.3609270202745
 20
595.3412840202865
 30
0.0
 40
0.5
100
AcDbArc
 50
30.00000000000055
 51
90.0
  0
ARC
  5
F34
330
1E
100
AcDbEntity
  8
STEMPEL
100
AcDbCircle
 10
233.3609270202745
 20
595.3412840202865
 30
0.0
 40
1.5
100
AcDbArc
 50
30.00000000000055
 51
90.0
  0
ARC
  5
F35
330
1E
100
AcDbEntity
  8
STEMPEL
100
AcDbCircle
 10
242.4128508089217
 20
596.8412840202866
 30
0.0
 40
2.5
100
AcDbArc
 50
270.0
 51
329.999999999993
  0
ARC
  5
F36
330
1E
100
AcDbEntity
  8
STEMPEL
100
AcDbCircle
 10
245.0109270202744
 20
595.3412840202865
 30
0.0
 40
1.5
100
AcDbArc
 50
90.0
 51
149.999999999993
  0
ARC
  5
F37
330
1E
100
AcDbEntity
  8
STEMPEL
100
AcDbCircle
 10
242.4128508089217
 20
596.8412840202866
 30
0.0
 40
1.5
100
AcDbArc
 50
270.0
 51
329.999999999993
  0
ARC
  5
F38
330
1E
100
AcDbEntity
  8
STEMPEL
100
AcDbCircle
 10
245.0109270202744
 20
595.3412840202865
 30
0.0
 40
0.5
100
AcDbArc
 50
90.0
 51
149.999999999993
  0
ARC
  5
F39
330
1E
100
AcDbEntity
  8
STEMPEL
100
AcDbCircle
 10
257.0356861545713
 20
595.8412840202866
 30
0.0
 40
1.5
100
AcDbArc
 50
194.4775121859299
 51
270.0
  0
ARC
  5
F3A
330
1E
100
AcDbEntity
  8
STEMPEL
100
AcDbCircle
 10
257.0356861545713
 20
595.8412840202866
 30
0.0
 40
0.5
100
AcDbArc
 50
194.4775121859299
 51
270.0
  0
ARC
  5
F3B
330
1E
100
AcDbEntity
  8
STEMPEL
100
AcDbCircle
 10
255.099194481468
 20
595.3412840202865
 30
0.0
 40
1.5
100
AcDbArc
 50
14.47751218592986
 51
90.0
  0
ARC
  5
F3C
330
1E
100
AcDbEntity
  8
STEMPEL
100
AcDbCircle
 10
255.099194481468
 20
595.3412840202865
 30
0.0
 40
0.5
100
AcDbArc
 50
14.47751218592986
 51
90.0
  0
ARC
  5
F3D
330
1E
100
AcDbEntity
  8
STEMPEL
100
AcDbCircle
 10
259.3609270202745
 20
595.3412840202865
 30
0.0
 40
1.5
100
AcDbArc
 50
29.99999999999973
 51
90.0
  0
ARC
  5
F3E
330
1E
100
AcDbEntity
  8
STEMPEL
100
AcDbCircle
 10
261.959003231628
 20
596.8412840202866
 30
0.0
 40
2.5
100
AcDbArc
 50
209.9999999999997
 51
270.0
  0
ARC
  5
F3F
330
1E
100
AcDbEntity
  8
STEMPEL
100
AcDbCircle
 10
261.959003231628
 20
596.8412840202866
 30
0.0
 40
1.5
100
AcDbArc
 50
209.9999999999997
 51
270.0
  0
ARC
  5
F40
330
1E
100
AcDbEntity
  8
STEMPEL
100
AcDbCircle
 10
257.2244353471705
 20
595.8412840202866
 30
0.0
 40
1.5
100
AcDbArc
 50
270.0
 51
345.5224878140701
  0
ARC
  5
F41
330
1E
100
AcDbEntity
  8
STEMPEL
100
AcDbCircle
 10
259.1609270202745
 20
595.3412840202865
 30
0.0
 40
1.5
100
AcDbArc
 50
90.0
 51
165.5224878140701
  0
ARC
  5
F42
330
1E
100
AcDbEntity
  8
STEMPEL
100
AcDbCircle
 10
257.2244353471705
 20
595.8412840202866
 30
0.0
 40
0.5
100
AcDbArc
 50
270.0
 51
345.5224878140701
  0
LINE
  5
F43
330
1E
100
AcDbEntity
  8
STEMPEL
100
AcDbLine
 10
257.0356861545713
 20
595.3412840202865
 30
0.0
 11
257.2244353471705
 21
595.3412840202865
 31
0.0
  0
ARC
  5
F44
330
1E
100
AcDbEntity
  8
STEMPEL
100
AcDbCircle
 10
259.1609270202745
 20
595.3412840202865
 30
0.0
 40
0.5
100
AcDbArc
 50
90.0
 51
165.5224878140701
  0
LINE
  5
F45
330
1E
100
AcDbEntity
  8
STEMPEL
100
AcDbLine
 10
259.1609270202745
 20
595.8412840202866
 30
0.0
 11
259.3609270202745
 21
595.8412840202866
 31
0.0
  0
ARC
  5
F46
330
1E
100
AcDbEntity
  8
STEMPEL
100
AcDbCircle
 10
259.3609270202745
 20
595.3412840202865
 30
0.0
 40
0.5
100
AcDbArc
 50
29.99999999999973
 51
90.0
  0
ARC
  5
F47
330
1E
100
AcDbEntity
  8
STEMPEL
100
AcDbCircle
 10
273.8090032316285
 20
596.8412840202866
 30
0.0
 40
2.5
100
AcDbArc
 50
209.9999999999925
 51
270.0
  0
ARC
  5
F48
330
1E
100
AcDbEntity
  8
STEMPEL
100
AcDbCircle
 10
273.8090032316285
 20
596.8412840202866
 30
0.0
 40
1.5
100
AcDbArc
 50
209.9999999999925
 51
270.0
  0
ARC
  5
F49
330
1E
100
AcDbEntity
  8
STEMPEL
100
AcDbCircle
 10
268.412850808922
 20
596.8412840202866
 30
0.0
 40
1.5
100
AcDbArc
 50
270.0
 51
329.9999999999922
  0
ARC
  5
F4A
330
1E
100
AcDbEntity
  8
STEMPEL
100
AcDbCircle
 10
268.412850808922
 20
596.8412840202866
 30
0.0
 40
2.5
100
AcDbArc
 50
270.0
 51
329.9999999999922
  0
ARC
  5
F4B
330
1E
100
AcDbEntity
  8
STEMPEL
100
AcDbCircle
 10
271.0109270202744
 20
595.3412840202865
 30
0.0
 40
1.5
100
AcDbArc
 50
90.0
 51
149.9999999999922
  0
ARC
  5
F4C
330
1E
100
AcDbEntity
  8
STEMPEL
100
AcDbCircle
 10
271.0109270202744
 20
595.3412840202865
 30
0.0
 40
0.5
100
AcDbArc
 50
90.0
 51
149.9999999999922
  0
LINE
  5
F4D
330
1E
100
AcDbEntity
  8
STEMPEL
100
AcDbLine
 10
271.0109270202744
 20
595.8412840202866
 30
0.0
 11
271.2109270202744
 21
595.8412840202866
 31
0.0
  0
ARC
  5
F4E
330
1E
100
AcDbEntity
  8
STEMPEL
100
AcDbCircle
 10
271.2109270202744
 20
595.3412840202865
 30
0.0
 40
0.5
100
AcDbArc
 50
29.99999999999246
 51
90.0
  0
ARC
  5
F4F
330
1E
100
AcDbEntity
  8
STEMPEL
100
AcDbCircle
 10
271.2109270202744
 20
595.3412840202865
 30
0.0
 40
1.5
100
AcDbArc
 50
29.99999999999246
 51
90.0
  0
ARC
  5
F50
330
1E
100
AcDbEntity
  8
STEMPEL
100
AcDbCircle
 10
328.3694886365719
 20
589.3412840202866
 30
0.0
 40
5.0
100
AcDbArc
 50
59.46264995169952
 51
90.0
  0
ARC
  5
F51
330
1E
100
AcDbEntity
  8
STEMPEL
100
AcDbCircle
 10
328.3694886365719
 20
589.3412840202866
 30
0.0
 40
6.0
100
AcDbArc
 50
59.48712567238029
 51
90.0
  0
ARC
  5
F52
330
1E
100
AcDbEntity
  8
STEMPEL
100
AcDbCircle
 10
328.3694886365719
 20
589.3412840202866
 30
0.0
 40
6.0
100
AcDbArc
 50
90.0
 51
90.0
  0
LINE
  5
F53
330
1E
100
AcDbEntity
  8
STEMPEL
100
AcDbLine
 10
354.8888422046989
 20
579.6601214671677
 30
0.0
 11
330.9099883117477
 21
593.6477746333532
 31
0.0
  0
LINE
  5
F54
330
1E
100
AcDbEntity
  8
STEMPEL
100
AcDbLine
 10
355.4021832582797
 20
580.5183645803303
 30
0.0
 11
331.4158803828128
 21
594.5103745910189
 31
0.0
  0
ARC
  5
F55
330
1E
100
AcDbEntity
  8
STEMPEL
100
AcDbCircle
 10
352.3694886365718
 20
575.3412260529715
 30
0.0
 40
5.0
100
AcDbArc
 50
0.0
 51
59.74358352518112
  0
ARC
  5
F56
330
1E
100
AcDbEntity
  8
STEMPEL
100
AcDbCircle
 10
352.3694886365718
 20
575.3412260529715
 30
0.0
 40
6.0
100
AcDbArc
 50
0.0
 51
59.74358352518112
  0
ARC
  5
F57
330
1E
100
AcDbEntity
  8
STEMPEL
100
AcDbCircle
 10
357.8806322408834
 20
584.8611210027488
 30
0.0
 40
5.0
100
AcDbArc
 50
239.7435628364698
 51
239.9329541615142
  0
LINE
  5
F5A
330
1E
100
AcDbEntity
  8
MITTEL
100
AcDbLine
 10
370.3694886365716
 20
481.3412840202871
 30
0.0
 11
370.3694886365716
 21
514.0090273546872
 31
0.0
  0
LINE
  5
F5B
330
1E
100
AcDbEntity
  8
MITTEL
100
AcDbLine
 10
370.3694886365716
 20
511.3412840202872
 30
0.0
 11
370.3694886365716
 21
500.341284020287
 31
0.0
  0
LINE
  5
F5C
330
1E
100
AcDbEntity
  8
STEMPEL
100
AcDbLine
 10
376.3694886365714
 20
507.9412840202872
 30
0.0
 11
376.3694886365714
 21
506.3412840202873
 31
0.0
  0
LINE
  5
F5D
330
1E
100
AcDbEntity
  8
STEMPEL
100
AcDbLine
 10
364.3694886365714
 20
507.9412840202873
 30
0.0
 11
364.3694886365714
 21
506.3412840202873
 31
0.0
  0
ARC
  5
F5E
102
{ACAD_REACTORS
330
10B3
102
}
330
1E
100
AcDbEntity
  8
STEMPEL
100
AcDbCircle
 10
383.0273458611451
 20
496.3412840202869
 30
0.0
 40
4.99999999999995
100
AcDbArc
 50
181.0000000000017
 51
270.0
  0
HATCH
  5
F5F
330
1E
100
AcDbEntity
  8
SCHRAFF
100
AcDbHatch
 10
0.0
 20
0.0
 30
0.0
210
0.0
220
0.0
230
1.0
  2
_USER
 70
     0
 71
     1
 91
        4
 92
        7
 72
     0
 73
     1
 93
       13
 10
374.3694886365716
 20
505.3412840202871
 10
373.3694886365715
 20
505.3412840202871
 10
373.3694886365718
 20
497.9412840202873
 10
373.3694886365716
 20
485.341284020287
 10
374.3694886365716
 20
485.341284020287
 10
374.3694886365716
 20
488.3412840202876
 10
373.8694886365717
 20
488.3412840202876
 10
373.8694886365717
 20
491.3412840202875
 10
374.3694886365716
 20
491.3412840202877
 10
374.3694886365714
 20
499.3412840202874
 10
373.8694886365716
 20
499.3412840202874
 10
373.8694886365717
 20
502.3412840202873
 10
374.3694886365715
 20
502.3412840202874
 97
       13
330
F7A
330
F82
330
F75
330
DE4
330
F77
330
F78
330
F79
330
F76
330
F73
330
F7D
330
F7E
330
F7C
330
F7B
 92
        7
 72
     0
 73
     1
 93
        5
 10
373.3694886365715
 20
497.941284020287
 10
372.7194886365717
 20
497.2912840202872
 10
372.3694886365715
 20
497.2912840202872
 10
372.3694886365715
 20
485.3412840202869
 10
373.3694886365715
 20
485.3412840202868
 97
        5
330
F80
330
F60
330
F74
330
DE4
330
F75
 92
        7
 72
     0
 73
     1
 93
        5
 10
368.3694886365715
 20
497.2912840202872
 10
368.0194886365715
 20
497.2912840202872
 10
367.3694886365715
 20
497.9412840202876
 10
367.3694886365717
 20
485.341284020287
 10
368.3694886365715
 20
485.3412840202871
 97
        5
330
F60
330
F72
330
F66
330
DE4
330
F65
 92
        7
 72
     0
 73
     1
 93
       13
 10
367.3694886365715
 20
497.9412840202874
 10
367.3694886365713
 20
505.3412840202871
 10
366.3694886365715
 20
505.3412840202871
 10
366.3694886365714
 20
502.3412840202874
 10
366.8694886365717
 20
502.3412840202874
 10
366.8694886365717
 20
499.3412840202874
 10
366.3694886365714
 20
499.3412840202874
 10
366.3694886365716
 20
491.3412840202874
 10
366.8694886365717
 20
491.3412840202874
 10
366.8694886365717
 20
488.3412840202875
 10
366.3694886365716
 20
488.3412840202875
 10
366.3694886365716
 20
485.3412840202869
 10
367.3694886365715
 20
485.3412840202869
 97
       13
330
F71
330
DDA
330
F6B
330
F6C
330
F6E
330
F6D
330
F64
330
F67
330
F6A
330
F69
330
F68
330
DE4
330
F66
 75
     0
 76
     0
 52
135.0
 41
2.0
 77
     0
 78
     1
 53
135.0
 43
21.92149821491432
 44
70.96202873958839
 45
-1.414213562373095
 46
-1.414213562373094
 79
     0
 47
0.0720222516071515
 98
        4
 10
373.9753781694032
 20
503.3931324887788
 10
372.9663284214859
 20
491.941594907034
 10
367.5607045771704
 20
495.254618692859
 10
366.4795792629826
 20
496.5510185136086
  0
LINE
  5
F60
102
{ACAD_REACTORS
330
F5F
102
}
330
1E
100
AcDbEntity
  8
STEMPEL
100
AcDbLine
 10
368.0194886365714
 20
497.2912840202872
 30
0.0
 11
372.7194886365717
 21
497.2912840202872
 31
0.0
  0
LINE
  5
F61
330
1E
100
AcDbEntity
  8
STEMPEL
100
AcDbLine
 10
378.3694886365714
 20
506.341284020287
 30
0.0
 11
363.3694886365715
 21
506.3412840202874
 31
0.0
  0
LINE
  5
F62
330
1E
100
AcDbEntity
  8
STEMPEL
100
AcDbLine
 10
367.3694886365717
 20
497.9412840202873
 30
0.0
 11
373.3694886365718
 21
497.9412840202873
 31
0.0
  0
LINE
  5
F63
330
1E
100
AcDbEntity
  8
STEMPEL
100
AcDbLine
 10
376.3694886365716
 20
506.341284020287
 30
0.0
 11
364.3694886365714
 21
506.3412840202874
 31
0.0
  0
LINE
  5
F64
102
{ACAD_REACTORS
330
F5F
330
10B3
102
}
330
1E
100
AcDbEntity
  8
STEMPEL
100
AcDbLine
 10
366.3694886365716
 20
491.3412840202873
 30
0.0
 11
366.3694886365714
 21
499.3412840202874
 31
0.0
  0
LINE
  5
F65
102
{ACAD_REACTORS
330
F5F
102
}
330
1E
100
AcDbEntity
  8
STEMPEL
100
AcDbLine
 10
368.3694886365715
 20
485.3412840202873
 30
0.0
 11
368.3694886365715
 21
497.2912840202872
 31
0.0
  0
LINE
  5
F66
102
{ACAD_REACTORS
330
F5F
102
}
330
1E
100
AcDbEntity
  8
HILF
100
AcDbLine
 10
367.3694886365715
 20
485.3412840202873
 30
0.0
 11
367.3694886365715
 21
497.9412840202874
 31
0.0
  0
LINE
  5
F67
102
{ACAD_REACTORS
330
F5F
330
10B3
102
}
330
1E
100
AcDbEntity
  8
STEMPEL
100
AcDbLine
 10
366.8694886365717
 20
491.3412840202874
 30
0.0
 11
366.3694886365716
 21
491.3412840202874
 31
0.0
  0
LINE
  5
F68
102
{ACAD_REACTORS
330
F5F
330
10B3
102
}
330
1E
100
AcDbEntity
  8
STEMPEL
100
AcDbLine
 10
366.3694886365716
 20
485.3412840202875
 30
0.0
 11
366.3694886365716
 21
488.3412840202876
 31
0.0
  0
LINE
  5
F69
102
{ACAD_REACTORS
330
F5F
330
10B3
102
}
330
1E
100
AcDbEntity
  8
STEMPEL
100
AcDbLine
 10
366.8694886365717
 20
488.3412840202876
 30
0.0
 11
366.3694886365716
 21
488.3412840202876
 31
0.0
  0
LINE
  5
F6A
102
{ACAD_REACTORS
330
F5F
330
10B3
102
}
330
1E
100
AcDbEntity
  8
STEMPEL
100
AcDbLine
 10
366.8694886365717
 20
488.3412840202874
 30
0.0
 11
366.8694886365717
 21
491.3412840202874
 31
0.0
  0
LINE
  5
F6B
102
{ACAD_REACTORS
330
F5F
330
10B3
102
}
330
1E
100
AcDbEntity
  8
STEMPEL
100
AcDbLine
 10
366.3694886365714
 20
502.3412840202873
 30
0.0
 11
366.3694886365715
 21
505.3412840202874
 31
0.0
  0
LINE
  5
F6C
102
{ACAD_REACTORS
330
F5F
330
10B3
102
}
330
1E
100
AcDbEntity
  8
STEMPEL
100
AcDbLine
 10
366.8694886365717
 20
502.3412840202874
 30
0.0
 11
366.3694886365715
 21
502.3412840202874
 31
0.0
  0
LINE
  5
F6D
102
{ACAD_REACTORS
330
F5F
330
10B3
102
}
330
1E
100
AcDbEntity
  8
STEMPEL
100
AcDbLine
 10
366.8694886365717
 20
499.3412840202874
 30
0.0
 11
366.3694886365715
 21
499.3412840202874
 31
0.0
  0
LINE
  5
F6E
102
{ACAD_REACTORS
330
F5F
330
10B3
102
}
330
1E
100
AcDbEntity
  8
STEMPEL
100
AcDbLine
 10
366.8694886365717
 20
499.3412840202874
 30
0.0
 11
366.8694886365717
 21
502.3412840202875
 31
0.0
  0
LINE
  5
F6F
330
1E
100
AcDbEntity
  8
STEMPEL
100
AcDbLine
 10
366.3694886365716
 20
506.3412840202874
 30
0.0
 11
366.3694886365716
 21
505.341284020287
 31
0.0
  0
LINE
  5
F70
330
1E
100
AcDbEntity
  8
HILF
100
AcDbLine
 10
368.0194886365709
 20
497.2912840202872
 30
0.0
 11
368.0194886365707
 21
506.3412840202873
 31
0.0
  0
LINE
  5
F71
102
{ACAD_REACTORS
330
F5F
102
}
330
1E
100
AcDbEntity
  8
STEMPEL
100
AcDbLine
 10
367.3694886365714
 20
506.3412840202873
 30
0.0
 11
367.3694886365717
 21
497.9412840202873
 31
0.0
  0
LINE
  5
F72
102
{ACAD_REACTORS
330
F5F
102
}
330
1E
100
AcDbEntity
  8
STEMPEL
100
AcDbLine
 10
367.3694886365717
 20
497.9412840202873
 30
0.0
 11
368.0194886365714
 21
497.2912840202872
 31
0.0
  0
LINE
  5
F73
102
{ACAD_REACTORS
330
F5F
330
10B3
102
}
330
1E
100
AcDbEntity
  8
STEMPEL
100
AcDbLine
 10
374.3694886365716
 20
491.3412840202875
 30
0.0
 11
374.3694886365714
 21
499.3412840202874
 31
0.0
  0
LINE
  5
F74
102
{ACAD_REACTORS
330
F5F
102
}
330
1E
100
AcDbEntity
  8
STEMPEL
100
AcDbLine
 10
372.3694886365715
 20
485.3412840202873
 30
0.0
 11
372.3694886365715
 21
497.2912840202872
 31
0.0
  0
LINE
  5
F75
102
{ACAD_REACTORS
330
F5F
102
}
330
1E
100
AcDbEntity
  8
HILF
100
AcDbLine
 10
373.3694886365715
 20
485.3412840202873
 30
0.0
 11
373.3694886365715
 21
497.9412840202874
 31
0.0
  0
LINE
  5
F76
102
{ACAD_REACTORS
330
F5F
330
10B3
102
}
330
1E
100
AcDbEntity
  8
STEMPEL
100
AcDbLine
 10
374.3694886365716
 20
491.3412840202877
 30
0.0
 11
373.8694886365717
 21
491.3412840202875
 31
0.0
  0
LINE
  5
F77
102
{ACAD_REACTORS
330
F5F
330
10B3
102
}
330
1E
100
AcDbEntity
  8
STEMPEL
100
AcDbLine
 10
374.3694886365716
 20
485.3412840202875
 30
0.0
 11
374.3694886365716
 21
488.3412840202876
 31
0.0
  0
LINE
  5
F78
102
{ACAD_REACTORS
330
F5F
330
10B3
102
}
330
1E
100
AcDbEntity
  8
STEMPEL
100
AcDbLine
 10
374.3694886365716
 20
488.3412840202876
 30
0.0
 11
373.8694886365715
 21
488.3412840202876
 31
0.0
  0
LINE
  5
F79
102
{ACAD_REACTORS
330
F5F
330
10B3
102
}
330
1E
100
AcDbEntity
  8
STEMPEL
100
AcDbLine
 10
373.8694886365717
 20
488.3412840202876
 30
0.0
 11
373.8694886365717
 21
491.3412840202877
 31
0.0
  0
LINE
  5
F7A
102
{ACAD_REACTORS
330
F5F
330
10B3
102
}
330
1E
100
AcDbEntity
  8
STEMPEL
100
AcDbLine
 10
373.3694886365714
 20
505.3412840202871
 30
0.0
 11
378.3694886365718
 21
505.341284020287
 31
0.0
  0
LINE
  5
F7B
102
{ACAD_REACTORS
330
F5F
330
10B3
102
}
330
1E
100
AcDbEntity
  8
STEMPEL
100
AcDbLine
 10
374.3694886365714
 20
502.3412840202874
 30
0.0
 11
374.3694886365716
 21
505.3412840202874
 31
0.0
  0
LINE
  5
F7C
102
{ACAD_REACTORS
330
F5F
330
10B3
102
}
330
1E
100
AcDbEntity
  8
STEMPEL
100
AcDbLine
 10
374.3694886365716
 20
502.3412840202874
 30
0.0
 11
373.8694886365717
 21
502.3412840202874
 31
0.0
  0
LINE
  5
F7D
102
{ACAD_REACTORS
330
F5F
330
10B3
102
}
330
1E
100
AcDbEntity
  8
STEMPEL
100
AcDbLine
 10
374.3694886365716
 20
499.3412840202874
 30
0.0
 11
373.8694886365717
 21
499.3412840202874
 31
0.0
  0
LINE
  5
F7E
102
{ACAD_REACTORS
330
F5F
330
10B3
102
}
330
1E
100
AcDbEntity
  8
STEMPEL
100
AcDbLine
 10
373.8694886365717
 20
499.3412840202874
 30
0.0
 11
373.8694886365717
 21
502.3412840202875
 31
0.0
  0
LINE
  5
F7F
330
1E
100
AcDbEntity
  8
STEMPEL
100
AcDbLine
 10
374.3694886365716
 20
506.341284020287
 30
0.0
 11
374.3694886365716
 21
505.341284020287
 31
0.0
  0
LINE
  5
F80
102
{ACAD_REACTORS
330
F5F
102
}
330
1E
100
AcDbEntity
  8
STEMPEL
100
AcDbLine
 10
372.7194886365717
 20
497.2912840202872
 30
0.0
 11
373.3694886365718
 21
497.9412840202873
 31
0.0
  0
LINE
  5
F81
330
1E
100
AcDbEntity
  8
HILF
100
AcDbLine
 10
372.7194886365712
 20
497.2912840202872
 30
0.0
 11
372.7194886365709
 21
506.341284020287
 31
0.0
  0
LINE
  5
F82
102
{ACAD_REACTORS
330
F5F
102
}
330
1E
100
AcDbEntity
  8
STEMPEL
100
AcDbLine
 10
373.3694886365714
 20
506.3412840202871
 30
0.0
 11
373.3694886365718
 21
497.9412840202873
 31
0.0
  0
LINE
  5
F83
102
{ACAD_REACTORS
330
10B3
102
}
330
1E
100
AcDbEntity
  8
STEMPEL
100
AcDbLine
 10
377.8694886365716
 20
505.3412840202871
 30
0.0
 11
378.0281073853632
 21
496.2540219881005
 31
0.0
  0
LINE
  5
F84
330
1E
100
AcDbEntity
  8
STEMPEL
100
AcDbLine
 10
378.3694886365716
 20
506.3412840202873
 30
0.0
 11
378.3694886365716
 21
505.341284020287
 31
0.0
  0
LINE
  5
F87
102
{ACAD_REACTORS
330
10B3
102
}
330
1E
100
AcDbEntity
  8
STEMPEL
100
AcDbLine
 10
383.027345861145
 20
491.341284020287
 30
0.0
 11
390.3694886365716
 21
491.341284020287
 31
0.0
  0
ARC
  5
F88
102
{ACAD_REACTORS
330
10B3
102
}
330
1E
100
AcDbEntity
  8
STEMPEL
100
AcDbCircle
 10
390.3694886365716
 20
488.341284020287
 30
0.0
 40
3.000000000000028
100
AcDbArc
 50
270.0
 51
90.0
  0
ARC
  5
F89
330
1E
100
AcDbEntity
  8
STEMPEL
100
AcDbCircle
 10
370.3694886365714
 20
503.7279097610873
 30
0.0
 40
8.281117593600001
100
AcDbArc
 50
70.52782738138933
 51
109.4721726186137
  0
LINE
  5
F8A
330
1E
100
AcDbEntity
  8
STEMPEL
100
AcDbLine
 10
364.3694886365714
 20
507.9412840202873
 30
0.0
 11
376.3694886365714
 21
507.9412840202872
 31
0.0
  0
LINE
  5
F8B
330
1E
100
AcDbEntity
  8
STEMPEL
100
AcDbLine
 10
366.2291390469456
 20
512.0090273546873
 30
0.0
 11
374.5098382256883
 21
512.0090273546873
 31
0.0
  0
ARC
  5
F8C
330
1E
100
AcDbEntity
  8
STEMPEL
100
AcDbCircle
 10
366.2287352545974
 20
509.7611290344082
 30
0.0
 40
2.247898356545996
100
AcDbArc
 50
52.11936428281976
 51
121.4691945163663
  0
LINE
  5
F8D
330
1E
100
AcDbEntity
  8
STEMPEL
100
AcDbLine
 10
364.8484841272729
 20
511.5590368094842
 30
0.0
 11
364.8484841272729
 21
507.9412840202873
 31
0.0
  0
LINE
  5
F8E
330
1E
100
AcDbEntity
  8
STEMPEL
100
AcDbLine
 10
364.8484841272729
 20
511.5590368094842
 30
0.0
 11
365.0552422590582
 21
511.6784086725276
 31
0.0
  0
LINE
  5
F8F
330
1E
100
AcDbEntity
  8
STEMPEL
100
AcDbLine
 10
367.6089863819222
 20
511.5353764373598
 30
0.0
 11
367.6089863819222
 21
507.9412840202873
 31
0.0
  0
ARC
  5
F90
330
1E
100
AcDbEntity
  8
STEMPEL
100
AcDbCircle
 10
374.5102420185455
 20
509.7611290344082
 30
0.0
 40
2.247898356545996
100
AcDbArc
 50
58.53080548383258
 51
127.8806357171802
  0
LINE
  5
F91
330
1E
100
AcDbEntity
  8
STEMPEL
100
AcDbLine
 10
373.1299908912209
 20
511.5353764373598
 30
0.0
 11
373.1299908912207
 21
507.9412840202873
 31
0.0
  0
LINE
  5
F92
330
1E
100
AcDbEntity
  8
STEMPEL
100
AcDbLine
 10
374.5062827931862
 20
512.0090273546873
 30
0.0
 11
374.5098382261823
 21
512.0090273546873
 31
0.0
  0
LINE
  5
F93
330
1E
100
AcDbEntity
  8
STEMPEL
100
AcDbLine
 10
375.8904931458702
 20
511.5590368094841
 30
0.0
 11
375.8904931458702
 21
507.9412840202873
 31
0.0
  0
LINE
  5
F94
330
1E
100
AcDbEntity
  8
STEMPEL
100
AcDbLine
 10
375.8904931458702
 20
511.5590368094842
 30
0.0
 11
375.6837350140778
 21
511.6784086725316
 31
0.0
  0
DIMENSION
  5
104A
330
1E
100
AcDbEntity
  8
BEM
100
AcDbDimension
  2
*D6
 10
398.3694886365717
 20
617.351185019999
 30
0.0
 11
248.3694886365717
 21
623.8511850199991
 31
0.0
 70
    32
  1
%%c<>
 71
     5
 42
300.0
  3
Standard
100
AcDbAlignedDimension
 13
98.36948863657163
 23
474.455497582661
 33
0.0
 14
398.3694886365717
 24
474.455497582661
 34
0.0
100
AcDbRotatedDimension
1001
ACAD
1000
DSTYLE
1002
{
1070
    40
1040
2.0
1070
    41
1040
3.5
1070
    42
1040
1.0
1070
    43
1040
7.0
1070
    44
1040
1.0
1070
    73
1070
     0
1070
    74
1070
     0
1070
    77
1070
     1
1070
    78
1070
     8
1070
    79
1070
     2
1070
   140
1040
3.5
1070
   141
1040
1.5
1070
   146
1040
0.5142857142857144
1070
   147
1040
1.5
1070
   172
1070
     1
1070
   178
1070
     1
1070
   179
1070
     2
1070
   271
1070
     2
1070
   272
1070
     2
1070
   284
1070
     8
1070
   285
1070
     8
1070
   286
1070
     8
1002
}
  0
HATCH
  5
10B3
330
1E
100
AcDbEntity
  8
SCHRAFF
100
AcDbHatch
 10
0.0
 20
0.0
 30
0.0
210
0.0
220
0.0
230
1.0
  2
_USER
 70
     0
 71
     1
 91
        5
 92
        7
 72
     1
 73
     1
 93
        4
 10
129.3694886365716
 20
485.3412840202869
 42
0.0
 10
129.3694886365716
 20
491.341284020287
 42
0.0
 10
106.3694886365716
 20
491.3412840202869
 42
1.0
 10
106.3694886365716
 20
485.3412840202869
 42
0.0
 97
        4
330
DE3
330
E0D
330
DF8
330
E0E
 92
        7
 72
     1
 73
     1
 93
        4
 10
166.3694886365717
 20
485.3412840202869
 42
1.0
 10
166.3694886365717
 20
491.341284020287
 42
0.0
 10
143.3694886365716
 20
491.3412840202869
 42
0.0
 10
143.3694886365716
 20
485.3412840202868
 42
0.0
 97
        4
330
DE3
330
E25
330
DE4
330
E01
 92
        7
 72
     1
 73
     1
 93
        4
 10
351.8439962778358
 20
485.3412840202868
 42
0.0
 10
351.8439962778359
 20
491.3412840202872
 42
0.0
 10
330.3694886365718
 20
491.3412840202872
 42
1.0
 10
330.3694886365718
 20
485.3412840202869
 42
0.0
 97
        4
330
DE3
330
EEF
330
DE4
330
EF6
 92
        7
 72
     1
 73
     1
 93
       15
 10
366.3694886365716
 20
485.3412840202869
 42
0.0
 10
366.3694886365716
 20
488.3412840202876
 42
0.0
 10
366.8694886365717
 20
488.3412840202876
 42
0.0
 10
366.8694886365717
 20
491.3412840202875
 42
0.0
 10
366.3694886365716
 20
491.3412840202874
 42
0.0
 10
366.3694886365714
 20
499.3412840202874
 42
0.0
 10
366.8694886365717
 20
499.3412840202874
 42
0.0
 10
366.8694886365717
 20
502.3412840202873
 42
0.0
 10
366.3694886365714
 20
502.3412840202873
 42
0.0
 10
366.3694886365716
 20
505.3412840202871
 42
0.0
 10
362.8694886365716
 20
505.3412840202873
 42
0.0
 10
362.7108698877803
 20
496.2540219881009
 42
-0.4091108014277137
 10
357.7116314119984
 20
491.3412840202871
 42
0.0
 10
351.8439962778358
 20
491.341284020287
 42
0.0
 10
351.8439962778358
 20
485.3412840202869
 42
0.0
 97
       15
330
F69
330
F6A
330
F67
330
F64
330
F6D
330
F6E
330
F6C
330
F6B
330
DDA
330
F1B
330
E9E
330
DE3
330
EF6
330
DE4
330
F68
 92
        7
 72
     1
 73
     1
 93
       15
 10
374.369488636571
 20
491.3412840202876
 42
0.0
 10
373.8694886365716
 20
491.3412840202875
 42
0.0
 10
373.8694886365717
 20
488.3412840202875
 42
0.0
 10
374.3694886365716
 20
488.3412840202876
 42
0.0
 10
374.3694886365716
 20
485.3412840202868
 42
0.0
 10
390.3694886365716
 20
485.3412840202869
 42
1.0
 10
390.3694886365716
 20
491.341284020287
 42
0.0
 10
383.027345861145
 20
491.341284020287
 42
-0.409110801427704
 10
378.0281073853632
 20
496.2540219881005
 42
0.0
 10
377.8694886365716
 20
505.3412840202869
 42
0.0
 10
374.3694886365715
 20
505.3412840202871
 42
0.0
 10
374.3694886365715
 20
502.3412840202874
 42
0.0
 10
373.8694886365717
 20
502.3412840202874
 42
0.0
 10
373.8694886365717
 20
499.3412840202874
 42
0.0
 10
374.3694886365714
 20
499.3412840202874
 42
0.0
 97
       15
330
F87
330
F5E
330
F83
330
F7A
330
F7B
330
F7C
330
F7E
330
F7D
330
F73
330
F76
330
F79
330
F78
330
F77
330
DE4
330
F88
 75
     0
 76
     0
 52
45.0
 41
5.0
 77
     0
 78
     1
 53
45.0
 43
0.0
 44
0.0
 45
-3.535533905932737
 46
3.535533905932737
 79
     0
 47
0.4350798893119141
 98
        5
 10
118.9803217693529
 20
486.6221766386818
 10
146.4052241821641
 20
486.6221766386818
 10
340.5561041067613
 20
487.0572564787368
 10
360.580634375061
 20
487.4923363187924
 10
376.6873222676136
 20
490.9729769963648
  0
HATCH
  5
10F7
330
1E
100
AcDbEntity
  8
SCHRAFF
100
AcDbHatch
 10
0.0
 20
0.0
 30
0.0
210
0.0
220
0.0
230
1.0
  2
_USER
 70
     0
 71
     1
 91
        2
 92
        7
 72
     1
 73
     1
 93
       10
 10
297.9694886365714
 20
217.3936771517772
 42
0.0
 10
297.2649955233121
 20
209.3412840202875
 42
0.0
 10
298.4695793283641
 20
209.3412840202874
 42
0.0
 10
299.1694886365715
 20
217.3412840202871
 42
0.0
 10
299.1694886365715
 20
454.1513345266279
 42
-0.198912367379669
 10
300.6339547306388
 20
457.6868684325609
 42
0.0
 10
307.5611625245012
 20
464.614076226423
 42
0.0
 10
306.7126343870774
 20
465.4626043638467
 42
0.0
 10
299.7854265932149
 20
458.5353965699848
 42
0.1989123673796574
 10
297.9694886365714
 20
454.1513345266282
 42
0.0
 97
       10
330
10FD
330
10FC
330
111A
330
111B
330
10FE
330
1105
330
1102
330
1128
330
1106
330
1108
 92
        7
 72
     1
 73
     1
 93
       10
 10
197.5694886365713
 20
217.3412840202882
 42
0.0
 10
198.2693979447788
 20
209.3412840202879
 42
0.0
 10
199.4739817498308
 20
209.3412840202879
 42
0.0
 10
198.7694886365714
 20
217.3936771517785
 42
0.0
 10
198.7694886365714
 20
454.1513345266279
 42
0.198912367379669
 10
196.9535506799278
 20
458.5353965699847
 42
0.0
 10
190.0263428860648
 20
465.4626043638472
 42
0.0
 10
189.1778147486409
 20
464.6140762264233
 42
0.0
 10
196.105022542504
 20
457.6868684325608
 42
-0.1989123673796631
 10
197.5694886365713
 20
454.151334526628
 42
0.0
 97
       10
330
10FF
330
1116
330
1117
330
1101
330
1100
330
1109
330
1107
330
1128
330
1103
330
1104
 75
     0
 76
     0
 52
135.0
 41
2.0
 77
     0
 78
     1
 53
135.0
 43
12.21728933276654
 44
36.10167985997214
 45
-1.414213562373095
 46
-1.414213562373094
 79
     0
 47
0.4814251419694602
 98
        2
 10
298.3531294736518
 20
386.1280232698734
 10
198.1623860775444
 20
392.3865503737652
  0
HATCH
  5
10F8
330
1E
100
AcDbEntity
  8
SCHRAFF
100
AcDbHatch
 10
0.0
 20
0.0
 30
0.0
210
0.0
220
0.0
230
1.0
  2
_USER
 70
     0
 71
     1
 91
        4
 92
        7
 72
     1
 73
     1
 93
        4
 10
306.2883703183654
 20
463.3412840202871
 42
0.0
 10
305.4398421809415
 20
462.4927558828633
 42
0.7207592200561592
 10
310.5310110054848
 20
465.0383402951347
 42
0.0
 10
308.8339547306369
 20
463.3412840202872
 42
0.0
 97
        4
330
111C
330
10FB
330
10FC
330
10FA
 92
       23
 72
     0
 73
     1
 93
        3
 10
307.5611625245013
 20
464.6140762264229
 10
306.2883703183654
 20
463.341284020287
 10
308.8339547306369
 20
463.3412840202871
 97
        3
330
10FC
330
10FB
330
111A
 92
       23
 72
     0
 73
     1
 93
        3
 10
189.1778147486409
 20
464.6140762264234
 10
187.9050225425053
 20
463.3412840202876
 10
190.4506069547768
 20
463.3412840202876
 97
        3
330
1117
330
110A
330
1101
 92
        7
 72
     1
 73
     1
 93
        4
 10
191.2991350922013
 20
462.4927558828632
 42
0.0
 10
190.4506069547768
 20
463.3412840202876
 42
0.0
 10
187.9050225425052
 20
463.3412840202876
 42
0.0
 10
186.207966267658
 20
465.0383402951345
 42
0.7207592200560974
 97
        4
330
1101
330
110A
330
1114
330
10F9
 75
     0
 76
     0
 52
0.0
 41
0.1
 77
     0
 78
     1
 53
0.0
 43
12.21728933276654
 44
36.10167985997214
 45
0.0
 46
0.1
 79
     0
 47
0.229449449055442
 98
        4
 10
307.5634869346427
 20
462.6044240558699
 10
307.7930608781094
 20
463.5222223360367
 10
189.56249816943
 20
463.7516715562144
 10
189.1033502824971
 20
462.1455256155145
  0
ARC
  5
10F9
102
{ACAD_REACTORS
330
10F8
102
}
330
1E
100
AcDbEntity
  8
SCHRAFF
100
AcDbCircle
 10
189.1778147486416
 20
464.6140762264228
 30
0.0
 40
3.0
100
AcDbArc
 50
171.8698976458433
 51
315.0000000000012
  0
ARC
  5
10FA
102
{ACAD_REACTORS
330
10F8
102
}
330
1E
100
AcDbEntity
  8
SCHRAFF
100
AcDbCircle
 10
307.5611625245012
 20
464.6140762264228
 30
0.0
 40
3.0
100
AcDbArc
 50
224.9999999999988
 51
8.130102354156669
  0
LINE
  5
10FB
102
{ACAD_REACTORS
330
10F8
102
}
330
1E
100
AcDbEntity
  8
STEMPEL
100
AcDbLine
 10
306.2883703183654
 20
463.3412840202871
 30
0.0
 11
308.8339547306369
 21
463.3412840202871
 31
0.0
  0
LINE
  5
10FC
102
{ACAD_REACTORS
330
10F8
330
10F7
102
}
330
1E
100
AcDbEntity
  8
STEMPEL
100
AcDbLine
 10
307.5611625245012
 20
464.6140762264229
 30
0.0
 11
300.6339547306388
 21
457.6868684325609
 31
0.0
  0
ARC
  5
10FD
102
{ACAD_REACTORS
330
10F7
102
}
330
1E
100
AcDbEntity
  8
STEMPEL
100
AcDbCircle
 10
304.1694886365715
 20
454.1513345266279
 30
0.0
 40
5.0
100
AcDbArc
 50
134.9999999999988
 51
180.0
  0
ARC
  5
10FE
102
{ACAD_REACTORS
330
10F7
102
}
330
1E
100
AcDbEntity
  8
STEMPEL
100
AcDbCircle
 10
304.1694886365715
 20
454.1513345266279
 30
0.0
 40
6.2
100
AcDbArc
 50
134.9999999999988
 51
180.0
  0
ARC
  5
10FF
102
{ACAD_REACTORS
330
10F7
102
}
330
1E
100
AcDbEntity
  8
STEMPEL
100
AcDbCircle
 10
192.5694886365713
 20
454.1513345266279
 30
0.0
 40
6.2
100
AcDbArc
 50
0.0
 51
45.00000000000115
  0
ARC
  5
1100
102
{ACAD_REACTORS
330
10F7
102
}
330
1E
100
AcDbEntity
  8
STEMPEL
100
AcDbCircle
 10
192.5694886365713
 20
454.1513345266279
 30
0.0
 40
5.0
100
AcDbArc
 50
0.0
 51
45.00000000000115
  0
LINE
  5
1101
102
{ACAD_REACTORS
330
10F8
330
10F7
102
}
330
1E
100
AcDbEntity
  8
STEMPEL
100
AcDbLine
 10
189.1132860237892
 20
464.6786049512751
 30
0.0
 11
196.105022542504
 21
457.6868684325608
 31
0.0
  0
LINE
  5
1102
102
{ACAD_REACTORS
330
10F7
102
}
330
1E
100
AcDbEntity
  8
STEMPEL
100
AcDbLine
 10
297.9694886365714
 20
217.3936771517777
 30
0.0
 11
297.264995523312
 21
209.3412840202875
 31
0.0
  0
LINE
  5
1103
102
{ACAD_REACTORS
330
10F7
102
}
330
1E
100
AcDbEntity
  8
STEMPEL
100
AcDbLine
 10
198.7694886365714
 20
217.3936771517783
 30
0.0
 11
199.4739817498308
 21
209.3412840202879
 31
0.0
  0
LINE
  5
1104
102
{ACAD_REACTORS
330
10F7
102
}
330
1E
100
AcDbEntity
  8
STEMPEL
100
AcDbLine
 10
198.7694886365714
 20
454.1513345266279
 30
0.0
 11
198.7694886365714
 21
217.3936771517783
 31
0.0
  0
LINE
  5
1105
102
{ACAD_REACTORS
330
10F7
102
}
330
1E
100
AcDbEntity
  8
STEMPEL
100
AcDbLine
 10
297.9694886365714
 20
454.1513345266279
 30
0.0
 11
297.9694886365714
 21
217.3936771517777
 31
0.0
  0
LINE
  5
1106
102
{ACAD_REACTORS
330
10F7
102
}
330
1E
100
AcDbEntity
  8
STEMPEL
100
AcDbLine
 10
299.1694886365715
 20
217.3412840202876
 30
0.0
 11
298.469579328364
 21
209.3412840202874
 31
0.0
  0
LINE
  5
1107
102
{ACAD_REACTORS
330
10F7
102
}
330
1E
100
AcDbEntity
  8
STEMPEL
100
AcDbLine
 10
197.5694886365713
 20
217.341284020288
 30
0.0
 11
198.2693979447788
 21
209.3412840202879
 31
0.0
  0
LINE
  5
1108
102
{ACAD_REACTORS
330
10F7
102
}
330
1E
100
AcDbEntity
  8
STEMPEL
100
AcDbLine
 10
299.1694886365715
 20
454.1513345266279
 30
0.0
 11
299.1694886365715
 21
217.3412840202876
 31
0.0
  0
LINE
  5
1109
102
{ACAD_REACTORS
330
10F7
102
}
330
1E
100
AcDbEntity
  8
STEMPEL
100
AcDbLine
 10
197.5694886365713
 20
454.1513345266279
 30
0.0
 11
197.5694886365713
 21
217.341284020288
 31
0.0
  0
LINE
  5
110A
102
{ACAD_REACTORS
330
10F8
102
}
330
1E
100
AcDbEntity
  8
STEMPEL
100
AcDbLine
 10
187.9050225425052
 20
463.3412840202876
 30
0.0
 11
190.4506069547769
 21
463.3412840202876
 31
0.0
  0
LINE
  5
110B
330
1E
100
AcDbEntity
  8
STEMPEL
100
AcDbLine
 10
306.7126343870773
 20
465.4626043638468
 30
0.0
 11
190.0263428860653
 21
465.4626043638468
 31
0.0
  0
LINE
  5
110C
102
{ACAD_REACTORS
330
1123
102
}
330
1E
100
AcDbEntity
  8
STEMPEL
100
AcDbLine
 10
104.4979157613176
 20
479.3412840202878
 30
0.0
 11
392.2410615118252
 21
479.3412840202869
 31
0.0
  0
LINE
  5
110D
330
1E
100
AcDbEntity
  8
STEMPEL
100
AcDbLine
 10
100.4979157613176
 20
472.3412840202879
 30
0.0
 11
153.7444886365709
 21
472.3412840202877
 31
0.0
  0
LINE
  5
110E
102
{ACAD_REACTORS
330
1123
102
}
330
1E
100
AcDbEntity
  8
STEMPEL
100
AcDbLine
 10
104.4979157613176
 20
476.3412840202879
 30
0.0
 11
174.0765954177583
 21
476.3412840202877
 31
0.0
  0
LINE
  5
110F
102
{ACAD_REACTORS
330
1123
102
}
330
1E
100
AcDbEntity
  8
STEMPEL
100
AcDbLine
 10
98.37659541775792
 20
474.4626043638478
 30
0.0
 11
102.3765954177579
 21
478.4626043638477
 31
0.0
  0
LINE
  5
1110
102
{ACAD_REACTORS
330
1123
102
}
330
1E
100
AcDbEntity
  8
STEMPEL
100
AcDbLine
 10
100.4979157613176
 20
472.3412840202879
 30
0.0
 11
104.4979157613176
 21
476.341284020288
 31
0.0
  0
LINE
  5
1111
102
{ACAD_REACTORS
330
1123
102
}
330
1E
100
AcDbEntity
  8
STEMPEL
100
AcDbLine
 10
98.37659541775805
 20
474.4626043638477
 30
0.0
 11
100.4979157613176
 21
472.3412840202879
 31
0.0
  0
ARC
  5
1112
102
{ACAD_REACTORS
330
1123
102
}
330
1E
100
AcDbEntity
  8
STEMPEL
100
AcDbCircle
 10
104.4979157613176
 20
476.341284020288
 30
0.0
 40
3.0
100
AcDbArc
 50
90.0
 51
135.0
  0
ARC
  5
1113
102
{ACAD_REACTORS
330
1123
102
}
330
1E
100
AcDbEntity
  8
STEMPEL
100
AcDbCircle
 10
174.0765954177583
 20
474.3412840202875
 30
0.0
 40
5.0
100
AcDbArc
 50
45.0
 51
90.0
  0
LINE
  5
1114
102
{ACAD_REACTORS
330
1123
330
10F8
102
}
330
1E
100
AcDbEntity
  8
STEMPEL
100
AcDbLine
 10
175.4908089801313
 20
475.7554975826606
 30
0.0
 11
187.9050225425052
 21
463.3412840202876
 31
0.0
  0
ARC
  5
1115
102
{ACAD_REACTORS
330
1123
102
}
330
1E
100
AcDbEntity
  8
STEMPEL
100
AcDbCircle
 10
174.0765954177583
 20
474.3412840202875
 30
0.0
 40
2.0
100
AcDbArc
 50
45.0
 51
90.0
  0
LINE
  5
1116
102
{ACAD_REACTORS
330
1123
330
10F7
102
}
330
1E
100
AcDbEntity
  8
STEMPEL
100
AcDbLine
 10
177.6121293236908
 20
477.8768179262204
 30
0.0
 11
196.9535506799278
 21
458.5353965699847
 31
0.0
  0
LINE
  5
1117
102
{ACAD_REACTORS
330
1123
330
10F8
330
10F7
102
}
330
1E
100
AcDbEntity
  8
STEMPEL
  6
STRICHPUNKT
100
AcDbLine
 10
190.0263428860647
 20
465.4626043638472
 30
0.0
 11
187.9050225425052
 21
463.3412840202876
 31
0.0
  0
LINE
  5
1118
330
1E
100
AcDbEntity
  8
STEMPEL
100
AcDbLine
 10
342.9944886365709
 20
472.341284020287
 30
0.0
 11
396.2410615118264
 21
472.3412840202868
 31
0.0
  0
LINE
  5
1119
330
1E
100
AcDbEntity
  8
STEMPEL
100
AcDbLine
 10
322.6623818553845
 20
476.3412840202873
 30
0.0
 11
392.2410615118262
 21
476.3412840202868
 31
0.0
  0
LINE
  5
111A
102
{ACAD_REACTORS
330
10F8
330
10F7
102
}
330
1E
100
AcDbEntity
  8
STEMPEL
  6
STRICHPUNKT
100
AcDbLine
 10
306.7126343870773
 20
465.4626043638468
 30
0.0
 11
308.8339547306369
 21
463.3412840202871
 31
0.0
  0
LINE
  5
111B
102
{ACAD_REACTORS
330
10F7
102
}
330
1E
100
AcDbEntity
  8
STEMPEL
100
AcDbLine
 10
319.126847949452
 20
477.8768179262204
 30
0.0
 11
299.7854265932149
 21
458.5353965699848
 31
0.0
  0
LINE
  5
111C
102
{ACAD_REACTORS
330
10F8
102
}
330
1E
100
AcDbEntity
  8
STEMPEL
100
AcDbLine
 10
321.2481682930115
 20
475.7554975826606
 30
0.0
 11
308.8339547306369
 21
463.3412840202871
 31
0.0
  0
ARC
  5
111D
330
1E
100
AcDbEntity
  8
STEMPEL
100
AcDbCircle
 10
322.6623818553845
 20
474.3412840202875
 30
0.0
 40
2.0
100
AcDbArc
 50
90.0
 51
135.0
  0
ARC
  5
111E
330
1E
100
AcDbEntity
  8
STEMPEL
100
AcDbCircle
 10
322.6623818553845
 20
474.3412840202875
 30
0.0
 40
5.0
100
AcDbArc
 50
90.0
 51
135.0
  0
LINE
  5
111F
330
1E
100
AcDbEntity
  8
STEMPEL
100
AcDbLine
 10
398.3754600616856
 20
474.4495261575469
 30
0.0
 11
394.3623818553848
 21
478.4626043638477
 31
0.0
  0
LINE
  5
1120
330
1E
100
AcDbEntity
  8
STEMPEL
100
AcDbLine
 10
398.3754600616856
 20
474.4495261575469
 30
0.0
 11
396.2541397181261
 21
472.3282058139871
 31
0.0
  0
LINE
  5
1121
330
1E
100
AcDbEntity
  8
STEMPEL
100
AcDbLine
 10
396.2410615118264
 20
472.3412840202868
 30
0.0
 11
392.2410615118252
 21
476.341284020288
 31
0.0
  0
ARC
  5
1122
330
1E
100
AcDbEntity
  8
STEMPEL
100
AcDbCircle
 10
392.2410615118252
 20
476.341284020288
 30
0.0
 40
3.0
100
AcDbArc
 50
45.0
 51
90.0
  0
HATCH
  5
1123
330
1E
100
AcDbEntity
  8
SCHRAFF
100
AcDbHatch
 10
0.0
 20
0.0
 30
0.0
210
0.0
220
0.0
230
1.0
  2
_USER
 70
     0
 71
     1
 91
        1
 92
        7
 72
     1
 73
     1
 93
       11
 10
104.4979157613176
 20
479.3412840202878
 42
0.1989123673796551
 10
102.3765954177579
 20
478.4626043638477
 42
0.0
 10
98.37659541775785
 20
474.4626043638478
 42
0.0
 10
100.4979157613175
 20
472.3412840202879
 42
0.0
 10
104.4979157613175
 20
476.3412840202879
 42
0.0
 10
174.0765954177583
 20
476.3412840202877
 42
-0.1989123673796173
 10
175.4908089801311
 20
475.7554975826608
 42
0.0
 10
187.9050225425052
 20
463.3412840202876
 42
0.0
 10
190.0263428860648
 20
465.4626043638473
 42
0.0
 10
177.6121293236908
 20
477.8768179262204
 42
0.198912367379648
 10
174.0765954177583
 20
479.3412840202877
 42
0.0
 97
       11
330
110C
330
1112
330
110F
330
1111
330
1110
330
110E
330
1115
330
1114
330
1117
330
1116
330
1113
 75
     0
 76
     0
 52
45.0
 41
2.0
 77
     0
 78
     1
 53
45.0
 43
-0.8241995965273645
 44
204.030441212304
 45
-1.414213562373094
 46
1.414213562373095
 79
     0
 47
0.4118729359136521
 98
        1
 10
163.6391615579549
 20
477.8969212402806
  0
HATCH
  5
1124
330
1E
100
AcDbEntity
  8
SCHRAFF
100
AcDbHatch
 10
0.0
 20
0.0
 30
0.0
210
0.0
220
0.0
230
1.0
  2
_USER
 70
     0
 71
     0
 91
        1
 92
        7
 72
     1
 73
     1
 93
       11
 10
322.6623818553845
 20
479.3412840202877
 42
0.0
 10
392.2410615118252
 20
479.3412840202878
 42
-0.1989123673796547
 10
394.3623818553849
 20
478.4626043638477
 42
0.0
 10
398.3623818553849
 20
474.4626043638478
 42
0.0
 10
396.2410615118253
 20
472.3412840202879
 42
0.0
 10
392.2410615118254
 20
476.3412840202878
 42
0.0
 10
322.6623818553845
 20
476.3412840202877
 42
0.1989123673796182
 10
321.2481682930118
 20
475.7554975826608
 42
0.0
 10
308.8339547306376
 20
463.3412840202876
 42
0.0
 10
306.7126343870781
 20
465.4626043638473
 42
0.0
 10
319.126847949452
 20
477.8768179262204
 42
-0.1989123673796434
 97
        0
 75
     0
 76
     0
 52
45.0
 41
2.0
 77
     0
 78
     1
 53
45.0
 43
-0.8241995965273645
 44
204.030441212304
 45
-1.414213562373094
 46
1.414213562373095
 79
     0
 47
0.4118729359136521
 98
        1
 10
333.0998157151879
 20
477.8969212402806
  0
LINE
  5
1127
330
1E
100
AcDbEntity
  8
HILF
100
AcDbLine
 10
199.9694886365714
 20
217.3412840202879
 30
0.0
 11
296.7694886365714
 21
217.3412840202876
 31
0.0
  0
LINE
  5
1128
102
{ACAD_REACTORS
330
10F7
102
}
330
1E
100
AcDbEntity
  8
STEMPEL
100
AcDbLine
 10
198.2693979447788
 20
209.3412840202879
 30
0.0
 11
298.469579328364
 21
209.3412840202874
 31
0.0
  0
LINE
  5
1129
330
1E
100
AcDbEntity
  8
HILF
100
AcDbLine
 10
199.5788104535809
 20
456.5239718072915
 30
0.0
 11
297.1601668195619
 21
456.5239718072915
 31
0.0
  0
ARC
  5
1179
330
1E
100
AcDbEntity
  8
STEMPEL
100
AcDbCircle
 10
136.3694886365716
 20
471.030394887832
 30
0.0
 40
30.31088913245485
100
AcDbArc
 50
81.78678929826221
 51
98.2132107017378
  0
ARC
  5
117A
330
1E
100
AcDbEntity
  8
STEMPEL
100
AcDbCircle
 10
129.8742981081883
 20
493.6469783125025
 30
0.0
 40
7.694305707784447
100
AcDbArc
 50
73.65710669401501
 51
106.342893305985
  0
ARC
  5
117B
330
1E
100
AcDbEntity
  8
STEMPEL
100
AcDbCircle
 10
142.8646791649549
 20
493.6469783125025
 30
0.0
 40
7.694305707784447
100
AcDbArc
 50
73.65710669401501
 51
106.342893305985
  0
ARC
  5
117C
330
1E
100
AcDbEntity
  8
HILF
100
AcDbCircle
 10
136.3694886365716
 20
471.4428229726256
 30
0.0
 40
22.41111549782308
100
AcDbArc
 50
78.85962783890615
 51
101.1403721610938
  0
ARC
  5
117D
330
1E
100
AcDbEntity
  8
HILF
100
AcDbCircle
 10
142.8646791649549
 20
488.0927978707573
 30
0.0
 40
5.761140599691502
100
AcDbArc
 50
67.92594526326206
 51
112.0740547367379
  0
ARC
  5
117E
330
1E
100
AcDbEntity
  8
HILF
100
AcDbCircle
 10
129.8742981081883
 20
488.0927978707573
 30
0.0
 40
5.761140599691502
100
AcDbArc
 50
67.92594526326206
 51
112.0740547367379
  0
POINT
  5
117F
330
1E
100
AcDbEntity
  8
0
100
AcDbPoint
 10
136.3694886365716
 20
491.3412840202869
 30
0.0
210
0.0000000000000001
220
1.0
230
0.0
  0
LINE
  5
1180
330
1E
100
AcDbEntity
  8
STEMPEL
100
AcDbLine
 10
128.8694886365717
 20
501.3412840202869
 30
0.0
 11
143.8694886365716
 21
501.3412840202869
 31
0.0
  0
LINE
  5
1181
330
1E
100
AcDbEntity
  8
STEMPEL
100
AcDbLine
 10
145.029742674416
 20
493.4316405364867
 30
0.0
 11
145.029742674416
 21
501.0303948878315
 31
0.0
  0
LINE
  5
1182
330
1E
100
AcDbEntity
  8
STEMPEL
100
AcDbLine
 10
140.6996156554938
 20
493.4316405364867
 30
0.0
 11
140.6996156554938
 21
501.0303948878315
 31
0.0
  0
LINE
  5
1183
330
1E
100
AcDbEntity
  8
STEMPEL
100
AcDbLine
 10
132.0393616176494
 20
493.4316405364867
 30
0.0
 11
132.0393616176494
 21
501.0303948878315
 31
0.0
  0
LINE
  5
1184
330
1E
100
AcDbEntity
  8
STEMPEL
100
AcDbLine
 10
146.7760037440659
 20
492.7960534858764
 30
0.0
 11
125.9629735290774
 21
492.7960534858764
 31
0.0
  0
LINE
  5
1185
330
1E
100
AcDbEntity
  8
STEMPEL
100
AcDbLine
 10
146.5194886365716
 20
491.3412840202869
 30
0.0
 11
126.2194886365716
 21
491.3412840202869
 31
0.0
  0
LINE
  5
1186
330
1E
100
AcDbEntity
  8
STEMPEL
100
AcDbLine
 10
127.7092345987272
 20
493.4316405364867
 30
0.0
 11
127.7092345987272
 21
501.0303948878315
 31
0.0
  0
LINE
  5
1187
330
1E
100
AcDbEntity
  8
STEMPEL
100
AcDbLine
 10
128.8694886365717
 20
501.3412840202869
 30
0.0
 11
127.7092345987272
 21
501.0303948878315
 31
0.0
  0
LINE
  5
1188
330
1E
100
AcDbEntity
  8
STEMPEL
100
AcDbLine
 10
145.029742674416
 20
501.0303948878315
 30
0.0
 11
143.8694886365716
 21
501.3412840202869
 31
0.0
  0
LINE
  5
1189
330
1E
100
AcDbEntity
  8
STEMPEL
100
AcDbLine
 10
146.7760037440659
 20
492.7960534858764
 30
0.0
 11
145.029742674416
 21
493.4316405364867
 31
0.0
  0
LINE
  5
118A
330
1E
100
AcDbEntity
  8
STEMPEL
100
AcDbLine
 10
127.7092345987272
 20
493.4316405364867
 30
0.0
 11
125.9629735290774
 21
492.7960534858764
 31
0.0
  0
ARC
  5
118B
330
1E
100
AcDbEntity
  8
STEMPEL
100
AcDbCircle
 10
126.2194886365716
 20
492.0912840202869
 30
0.0
 40
0.7500000000000013
100
AcDbArc
 50
109.9999999999995
 51
269.9999991462263
  0
ARC
  5
118C
330
1E
100
AcDbEntity
  8
STEMPEL
100
AcDbCircle
 10
146.5194886365716
 20
492.0912840202869
 30
0.0
 40
0.750000000000001
100
AcDbArc
 50
269.9999991462263
 51
70.00000000000047
  0
ARC
  5
11A6
330
1E
100
AcDbEntity
  8
STEMPEL
100
AcDbCircle
 10
192.3694886365717
 20
471.0303948878321
 30
0.0
 40
30.31088913245485
100
AcDbArc
 50
81.78678929826221
 51
98.2132107017378
  0
ARC
  5
11A7
330
1E
100
AcDbEntity
  8
STEMPEL
100
AcDbCircle
 10
185.8742981081885
 20
493.6469783125025
 30
0.0
 40
7.694305707784447
100
AcDbArc
 50
73.65710669401501
 51
106.342893305985
  0
ARC
  5
11A8
330
1E
100
AcDbEntity
  8
STEMPEL
100
AcDbCircle
 10
198.864679164955
 20
493.6469783125025
 30
0.0
 40
7.694305707784447
100
AcDbArc
 50
73.65710669401501
 51
106.342893305985
  0
ARC
  5
11A9
330
1E
100
AcDbEntity
  8
HILF
100
AcDbCircle
 10
192.3694886365717
 20
471.4428229726258
 30
0.0
 40
22.41111549782308
100
AcDbArc
 50
78.85962783890615
 51
101.1403721610938
  0
ARC
  5
11AA
330
1E
100
AcDbEntity
  8
HILF
100
AcDbCircle
 10
198.864679164955
 20
488.0927978707573
 30
0.0
 40
5.761140599691502
100
AcDbArc
 50
67.92594526326206
 51
112.0740547367379
  0
ARC
  5
11AB
330
1E
100
AcDbEntity
  8
HILF
100
AcDbCircle
 10
185.8742981081885
 20
488.0927978707573
 30
0.0
 40
5.761140599691502
100
AcDbArc
 50
67.92594526326206
 51
112.0740547367379
  0
POINT
  5
11AC
330
1E
100
AcDbEntity
  8
0
100
AcDbPoint
 10
192.3694886365717
 20
491.341284020287
 30
0.0
210
0.0000000000000001
220
1.0
230
0.0
  0
LINE
  5
11AD
330
1E
100
AcDbEntity
  8
STEMPEL
100
AcDbLine
 10
184.8694886365718
 20
501.3412840202869
 30
0.0
 11
199.8694886365717
 21
501.3412840202869
 31
0.0
  0
LINE
  5
11AE
330
1E
100
AcDbEntity
  8
STEMPEL
100
AcDbLine
 10
201.0297426744162
 20
493.4316405364868
 30
0.0
 11
201.0297426744162
 21
501.0303948878315
 31
0.0
  0
LINE
  5
11AF
330
1E
100
AcDbEntity
  8
STEMPEL
100
AcDbLine
 10
196.6996156554939
 20
493.4316405364868
 30
0.0
 11
196.6996156554939
 21
501.0303948878315
 31
0.0
  0
LINE
  5
11B0
330
1E
100
AcDbEntity
  8
STEMPEL
100
AcDbLine
 10
188.0393616176496
 20
493.4316405364868
 30
0.0
 11
188.0393616176496
 21
501.0303948878315
 31
0.0
  0
LINE
  5
11B1
330
1E
100
AcDbEntity
  8
STEMPEL
100
AcDbLine
 10
202.776003744066
 20
492.7960534858764
 30
0.0
 11
181.9629735290775
 21
492.7960534858764
 31
0.0
  0
LINE
  5
11B2
330
1E
100
AcDbEntity
  8
STEMPEL
100
AcDbLine
 10
202.5194886365718
 20
491.341284020287
 30
0.0
 11
182.2194886365717
 21
491.341284020287
 31
0.0
  0
LINE
  5
11B3
330
1E
100
AcDbEntity
  8
STEMPEL
100
AcDbLine
 10
183.7092345987273
 20
493.4316405364868
 30
0.0
 11
183.7092345987273
 21
501.0303948878315
 31
0.0
  0
LINE
  5
11B4
330
1E
100
AcDbEntity
  8
STEMPEL
100
AcDbLine
 10
184.8694886365718
 20
501.3412840202869
 30
0.0
 11
183.7092345987273
 21
501.0303948878315
 31
0.0
  0
LINE
  5
11B5
330
1E
100
AcDbEntity
  8
STEMPEL
100
AcDbLine
 10
201.0297426744162
 20
501.0303948878315
 30
0.0
 11
199.8694886365717
 21
501.3412840202869
 31
0.0
  0
LINE
  5
11B6
330
1E
100
AcDbEntity
  8
STEMPEL
100
AcDbLine
 10
202.776003744066
 20
492.7960534858764
 30
0.0
 11
201.0297426744161
 21
493.4316405364868
 31
0.0
  0
LINE
  5
11B7
330
1E
100
AcDbEntity
  8
STEMPEL
100
AcDbLine
 10
183.7092345987274
 20
493.4316405364868
 30
0.0
 11
181.9629735290775
 21
492.7960534858764
 31
0.0
  0
ARC
  5
11B8
330
1E
100
AcDbEntity
  8
STEMPEL
100
AcDbCircle
 10
182.2194886365717
 20
492.091284020287
 30
0.0
 40
0.7500000000000013
100
AcDbArc
 50
109.9999999999995
 51
269.9999991462263
  0
ARC
  5
11B9
330
1E
100
AcDbEntity
  8
STEMPEL
100
AcDbCircle
 10
202.5194886365718
 20
492.091284020287
 30
0.0
 40
0.750000000000001
100
AcDbArc
 50
269.9999991462263
 51
70.00000000000047
  0
ARC
  5
11D3
330
1E
100
AcDbEntity
  8
STEMPEL
100
AcDbCircle
 10
262.9884221652174
 20
471.0303948878322
 30
0.0
 40
30.31088913245485
100
AcDbArc
 50
81.78678929826059
 51
98.2132107017394
  0
ARC
  5
11D4
330
1E
100
AcDbEntity
  8
STEMPEL
100
AcDbCircle
 10
256.4932316368342
 20
493.6469783125025
 30
0.0
 40
7.694305707784447
100
AcDbArc
 50
73.65710669401345
 51
106.3428933059834
  0
ARC
  5
11D5
330
1E
100
AcDbEntity
  8
STEMPEL
100
AcDbCircle
 10
269.4836126936007
 20
493.6469783125025
 30
0.0
 40
7.694305707784447
100
AcDbArc
 50
73.65710669401345
 51
106.3428933059834
  0
ARC
  5
11D6
330
1E
100
AcDbEntity
  8
HILF
100
AcDbCircle
 10
262.9884221652174
 20
471.4428229726258
 30
0.0
 40
22.41111549782308
100
AcDbArc
 50
78.85962783890455
 51
101.1403721610954
  0
ARC
  5
11D7
330
1E
100
AcDbEntity
  8
HILF
100
AcDbCircle
 10
269.4836126936008
 20
488.0927978707574
 30
0.0
 40
5.761140599691502
100
AcDbArc
 50
67.92594526326054
 51
112.0740547367394
  0
ARC
  5
11D8
330
1E
100
AcDbEntity
  8
HILF
100
AcDbCircle
 10
256.4932316368341
 20
488.0927978707574
 30
0.0
 40
5.761140599691502
100
AcDbArc
 50
67.92594526326054
 51
112.0740547367394
  0
POINT
  5
11D9
330
1E
100
AcDbEntity
  8
0
100
AcDbPoint
 10
262.9884221652174
 20
491.341284020287
 30
0.0
210
0.0000000000000001
220
1.0
230
0.0
  0
LINE
  5
11DA
330
1E
100
AcDbEntity
  8
STEMPEL
100
AcDbLine
 10
255.4884221652175
 20
501.341284020287
 30
0.0
 11
270.4884221652175
 21
501.341284020287
 31
0.0
  0
LINE
  5
11DB
330
1E
100
AcDbEntity
  8
STEMPEL
100
AcDbLine
 10
271.6486762030618
 20
493.4316405364868
 30
0.0
 11
271.6486762030618
 21
501.0303948878316
 31
0.0
  0
LINE
  5
11DC
330
1E
100
AcDbEntity
  8
STEMPEL
100
AcDbLine
 10
267.3185491841397
 20
493.4316405364868
 30
0.0
 11
267.3185491841397
 21
501.0303948878316
 31
0.0
  0
LINE
  5
11DD
330
1E
100
AcDbEntity
  8
STEMPEL
100
AcDbLine
 10
258.6582951462952
 20
493.4316405364868
 30
0.0
 11
258.6582951462952
 21
501.0303948878316
 31
0.0
  0
LINE
  5
11DE
330
1E
100
AcDbEntity
  8
STEMPEL
100
AcDbLine
 10
273.3949372727117
 20
492.7960534858764
 30
0.0
 11
252.5819070577232
 21
492.7960534858764
 31
0.0
  0
LINE
  5
11DF
330
1E
100
AcDbEntity
  8
STEMPEL
100
AcDbLine
 10
273.1384221652174
 20
491.341284020287
 30
0.0
 11
252.8384221652174
 21
491.341284020287
 31
0.0
  0
LINE
  5
11E0
330
1E
100
AcDbEntity
  8
STEMPEL
100
AcDbLine
 10
254.3281681273731
 20
493.4316405364868
 30
0.0
 11
254.3281681273731
 21
501.0303948878316
 31
0.0
  0
LINE
  5
11E1
330
1E
100
AcDbEntity
  8
STEMPEL
100
AcDbLine
 10
255.4884221652175
 20
501.341284020287
 30
0.0
 11
254.3281681273731
 21
501.0303948878316
 31
0.0
  0
LINE
  5
11E2
330
1E
100
AcDbEntity
  8
STEMPEL
100
AcDbLine
 10
271.6486762030618
 20
501.0303948878316
 30
0.0
 11
270.4884221652175
 21
501.341284020287
 31
0.0
  0
LINE
  5
11E3
330
1E
100
AcDbEntity
  8
STEMPEL
100
AcDbLine
 10
273.3949372727117
 20
492.7960534858764
 30
0.0
 11
271.6486762030618
 21
493.4316405364868
 31
0.0
  0
LINE
  5
11E4
330
1E
100
AcDbEntity
  8
STEMPEL
100
AcDbLine
 10
254.3281681273731
 20
493.4316405364868
 30
0.0
 11
252.5819070577232
 21
492.7960534858764
 31
0.0
  0
ARC
  5
11E5
330
1E
100
AcDbEntity
  8
STEMPEL
100
AcDbCircle
 10
252.8384221652174
 20
492.091284020287
 30
0.0
 40
0.7500000000000013
100
AcDbArc
 50
109.9999999999995
 51
269.9999991462263
  0
ARC
  5
11E6
330
1E
100
AcDbEntity
  8
STEMPEL
100
AcDbCircle
 10
273.1384221652174
 20
492.091284020287
 30
0.0
 40
0.750000000000001
100
AcDbArc
 50
269.9999991462263
 51
70.00000000000047
  0
ARC
  5
1200
330
1E
100
AcDbEntity
  8
STEMPEL
100
AcDbCircle
 10
351.8439962778358
 20
471.0303948878323
 30
0.0
 40
30.31088913245485
100
AcDbArc
 50
81.78678929826059
 51
98.2132107017394
  0
ARC
  5
1201
330
1E
100
AcDbEntity
  8
STEMPEL
100
AcDbCircle
 10
345.3488057494525
 20
493.6469783125026
 30
0.0
 40
7.694305707784447
100
AcDbArc
 50
73.65710669401345
 51
106.3428933059834
  0
ARC
  5
1202
330
1E
100
AcDbEntity
  8
STEMPEL
100
AcDbCircle
 10
358.3391868062191
 20
493.6469783125026
 30
0.0
 40
7.694305707784447
100
AcDbArc
 50
73.65710669401345
 51
106.3428933059834
  0
ARC
  5
1203
330
1E
100
AcDbEntity
  8
HILF
100
AcDbCircle
 10
351.8439962778358
 20
471.4428229726259
 30
0.0
 40
22.41111549782308
100
AcDbArc
 50
78.85962783890455
 51
101.1403721610954
  0
ARC
  5
1204
330
1E
100
AcDbEntity
  8
HILF
100
AcDbCircle
 10
358.3391868062191
 20
488.0927978707575
 30
0.0
 40
5.761140599691502
100
AcDbArc
 50
67.92594526326054
 51
112.0740547367394
  0
ARC
  5
1205
330
1E
100
AcDbEntity
  8
HILF
100
AcDbCircle
 10
345.3488057494525
 20
488.0927978707575
 30
0.0
 40
5.761140599691502
100
AcDbArc
 50
67.92594526326054
 51
112.0740547367394
  0
POINT
  5
1206
330
1E
100
AcDbEntity
  8
0
100
AcDbPoint
 10
351.8439962778358
 20
491.3412840202871
 30
0.0
210
0.0000000000000001
220
1.0
230
0.0
  0
LINE
  5
1207
330
1E
100
AcDbEntity
  8
STEMPEL
100
AcDbLine
 10
344.3439962778358
 20
501.3412840202871
 30
0.0
 11
359.3439962778358
 21
501.3412840202871
 31
0.0
  0
LINE
  5
1208
330
1E
100
AcDbEntity
  8
STEMPEL
100
AcDbLine
 10
360.5042503156802
 20
493.431640536487
 30
0.0
 11
360.5042503156802
 21
501.0303948878317
 31
0.0
  0
LINE
  5
1209
330
1E
100
AcDbEntity
  8
STEMPEL
100
AcDbLine
 10
356.174123296758
 20
493.431640536487
 30
0.0
 11
356.174123296758
 21
501.0303948878317
 31
0.0
  0
LINE
  5
120A
330
1E
100
AcDbEntity
  8
STEMPEL
100
AcDbLine
 10
347.5138692589136
 20
493.431640536487
 30
0.0
 11
347.5138692589136
 21
501.0303948878317
 31
0.0
  0
LINE
  5
120B
330
1E
100
AcDbEntity
  8
STEMPEL
100
AcDbLine
 10
361.2374420220401
 20
492.7960534858765
 30
0.0
 11
341.4374811703415
 21
492.7960534858765
 31
0.0
  0
LINE
  5
120D
330
1E
100
AcDbEntity
  8
STEMPEL
100
AcDbLine
 10
343.1837422399914
 20
493.431640536487
 30
0.0
 11
343.1837422399914
 21
501.0303948878317
 31
0.0
  0
LINE
  5
120E
330
1E
100
AcDbEntity
  8
STEMPEL
100
AcDbLine
 10
344.3439962778358
 20
501.3412840202871
 30
0.0
 11
343.1837422399914
 21
501.0303948878317
 31
0.0
  0
LINE
  5
120F
330
1E
100
AcDbEntity
  8
STEMPEL
100
AcDbLine
 10
360.5042503156802
 20
501.0303948878317
 30
0.0
 11
359.3439962778358
 21
501.3412840202871
 31
0.0
  0
LINE
  5
1210
330
1E
100
AcDbEntity
  8
STEMPEL
100
AcDbLine
 10
361.4941562192445
 20
493.0713442528651
 30
0.0
 11
360.5042503156802
 21
493.431640536487
 31
0.0
  0
LINE
  5
1211
330
1E
100
AcDbEntity
  8
STEMPEL
100
AcDbLine
 10
343.1837422399914
 20
493.431640536487
 30
0.0
 11
341.4374811703415
 21
492.7960534858765
 31
0.0
  0
ARC
  5
1212
330
1E
100
AcDbEntity
  8
STEMPEL
100
AcDbCircle
 10
341.6939962778358
 20
492.0912840202872
 30
0.0
 40
0.7500000000000013
100
AcDbArc
 50
109.9999999999995
 51
269.9999991462263
  0
POLYLINE
  5
12D2
330
1E
100
AcDbEntity
  8
STEMPEL
100
AcDb2dPolyline
 66
     1
 10
0.0
 20
0.0
 30
0.0
 70
     4
 75
     6
  0
VERTEX
  5
12D3
330
12D2
100
AcDbEntity
  8
STEMPEL
100
AcDbVertex
100
AcDb2dVertex
 10
299.1694973144128
 20
316.3476398872543
 30
0.0
 70
    16
  0
VERTEX
  5
12D4
330
12D2
100
AcDbEntity
  8
STEMPEL
100
AcDbVertex
100
AcDb2dVertex
 10
299.1694973144128
 20
316.3476398872543
 30
0.0
 70
     8
  0
VERTEX
  5
12D5
330
12D2
100
AcDbEntity
  8
STEMPEL
100
AcDbVertex
100
AcDb2dVertex
 10
299.8241524180482
 20
309.4260177969196
 30
0.0
 70
     8
  0
VERTEX
  5
12D6
330
12D2
100
AcDbEntity
  8
STEMPEL
100
AcDbVertex
100
AcDb2dVertex
 10
300.3902208961322
 20
303.9756345922508
 30
0.0
 70
     8
  0
VERTEX
  5
12D7
330
12D2
100
AcDbEntity
  8
STEMPEL
100
AcDbVertex
100
AcDb2dVertex
 10
300.9616850889023
 20
299.5131395485646
 30
0.0
 70
     8
  0
VERTEX
  5
12D8
330
12D2
100
AcDbEntity
  8
STEMPEL
100
AcDbVertex
100
AcDb2dVertex
 10
301.6325273365962
 20
295.5551819411781
 30
0.0
 70
     8
  0
VERTEX
  5
12D9
330
12D2
100
AcDbEntity
  8
STEMPEL
100
AcDbVertex
100
AcDb2dVertex
 10
302.4967299794517
 20
291.6184110454083
 30
0.0
 70
     8
  0
VERTEX
  5
12DA
330
12D2
100
AcDbEntity
  8
STEMPEL
100
AcDbVertex
100
AcDb2dVertex
 10
303.6482753577067
 20
287.2194761365721
 30
0.0
 70
     8
  0
VERTEX
  5
12DB
330
12D2
100
AcDbEntity
  8
STEMPEL
100
AcDbVertex
100
AcDb2dVertex
 10
305.1811458115986
 20
281.8750264899866
 30
0.0
 70
     8
  0
VERTEX
  5
12DC
330
12D2
100
AcDbEntity
  8
STEMPEL
100
AcDbVertex
100
AcDb2dVertex
 10
307.1893236813654
 20
275.1017113809685
 30
0.0
 70
     8
  0
VERTEX
  5
12DD
330
12D2
100
AcDbEntity
  8
STEMPEL
100
AcDbVertex
100
AcDb2dVertex
 10
301.1168996161653
 20
295.4986840435337
 30
0.0
 70
    16
  0
VERTEX
  5
12DE
330
12D2
100
AcDbEntity
  8
STEMPEL
100
AcDbVertex
100
AcDb2dVertex
 10
307.1893236813655
 20
275.1017113809686
 30
0.0
 70
    16
  0
SEQEND
  5
12DF
330
12D2
100
AcDbEntity
  8
STEMPEL
  0
LINE
  5
12E0
330
1E
100
AcDbEntity
  8
TEXT
 62
     2
100
AcDbLine
 10
332.5547726903317
 20
278.1048763201298
 30
0.0
 11
312.0499278607121
 21
282.5048419796546
 31
0.0
  0
POLYLINE
  5
12E1
330
1E
100
AcDbEntity
  8
STEMPEL
100
AcDb2dPolyline
 66
     1
 10
0.0
 20
0.0
 30
0.0
  0
VERTEX
  5
12E2
330
12E1
100
AcDbEntity
  8
STEMPEL
100
AcDbVertex
100
AcDb2dVertex
 10
309.1694886365709
 20
316.341284020288
 30
0.0
  0
VERTEX
  5
12E3
330
12E1
100
AcDbEntity
  8
STEMPEL
100
AcDbVertex
100
AcDb2dVertex
 10
309.1640328452099
 20
309.474192977532
 30
0.0
  0
VERTEX
  5
12E4
330
12E1
100
AcDbEntity
  8
STEMPEL
100
AcDbVertex
100
AcDb2dVertex
 10
309.2314845197732
 20
304.2204468643103
 30
0.0
  0
VERTEX
  5
12E5
330
12E1
100
AcDbEntity
  8
STEMPEL
100
AcDbVertex
100
AcDb2dVertex
 10
309.4289082063849
 20
300.1416674644227
 30
0.0
  0
VERTEX
  5
12E6
330
12E1
100
AcDbEntity
  8
STEMPEL
100
AcDbVertex
100
AcDb2dVertex
 10
309.8038913952377
 20
296.7105558810606
 30
0.0
  0
VERTEX
  5
12E7
330
12E1
100
AcDbEntity
  8
STEMPEL
100
AcDbVertex
100
AcDb2dVertex
 10
310.4290672524015
 20
293.2906997870063
 30
0.0
  0
VERTEX
  5
12E8
330
12E1
100
AcDbEntity
  8
STEMPEL
100
AcDbVertex
100
AcDb2dVertex
 10
311.4171492667747
 20
289.2561689115972
 30
0.0
  0
VERTEX
  5
12E9
330
12E1
100
AcDbEntity
  8
STEMPEL
100
AcDbVertex
100
AcDb2dVertex
 10
312.8711341213335
 20
284.0946872933717
 30
0.0
  0
VERTEX
  5
12EA
330
12E1
100
AcDbEntity
  8
STEMPEL
100
AcDbVertex
100
AcDb2dVertex
 10
314.8605214433013
 20
277.3716728117582
 30
0.0
  0
SEQEND
  5
12EB
330
12E1
100
AcDbEntity
  8
STEMPEL
  0
LINE
  5
12EC
330
1E
100
AcDbEntity
  8
MITTEL
100
AcDbLine
 10
317.7372206040272
 20
278.2229083483044
 30
0.0
 11
304.3126245206398
 21
274.2504758444224
 31
0.0
  0
LINE
  5
12ED
330
1E
100
AcDbEntity
  8
TEXT
 62
     2
100
AcDbLine
 10
332.5547726903317
 20
278.1048763201298
 30
0.0
 11
426.0131166093738
 21
278.1048763201298
 31
0.0
  0
TEXT
  5
12EE
330
1E
100
AcDbEntity
  8
TEXT
 62
     1
100
AcDbText
 10
334.3538646847981
 20
282.2500269298415
 30
0.0
 40
7.0
  1
Heizbandkabel
 41
0.8
  7
GREEKS
100
AcDbText
  0
TEXT
  5
12EF
330
1E
100
AcDbEntity
  8
TEXT
 62
     1
100
AcDbText
 10
334.3538646847981
 20
267.2873211354751
 30
0.0
 40
7.0
  1
EDV-Art.Nr. 19853.000X
 41
0.7
  7
GREEKS
100
AcDbText
  0
HATCH
  5
12F0
330
1E
100
AcDbEntity
  8
SCHRAFF
100
AcDbHatch
 10
0.0
 20
0.0
 30
0.0
210
0.0
220
0.0
230
1.0
  2
HONEY
 70
     0
 71
     0
 91
        2
 92
        7
 72
     1
 73
     1
 93
       10
 10
310.8694886365709
 20
336.3412840202874
 42
0.0
 10
309.1694886365709
 20
334.3012840202875
 42
0.0
 10
309.169488636571
 20
316.3412840202874
 42
0.0
 10
325.6375838840731
 20
316.3412840202874
 42
0.3870924378343482
 10
328.624486562251
 20
319.0612618942087
 42
0.0
 10
343.3694886365708
 20
476.3412840202873
 42
0.0
 10
328.36948863657
 20
476.3412840202874
 42
0.0
 10
321.8694886365708
 20
471.341284020288
 42
0.0
 10
321.8694886365707
 20
426.3412840202877
 42
0.0
 10
310.869488636571
 20
406.3412840202868
 42
0.0
 97
        0
 92
        7
 72
     1
 73
     1
 93
       10
 10
185.8694886365709
 20
406.3412840202876
 42
0.0
 10
174.8694886365711
 20
426.3412840202878
 42
0.0
 10
174.8694886365709
 20
471.3412840202878
 42
0.0
 10
168.3694886365712
 20
476.3412840202876
 42
0.0
 10
153.3694886365709
 20
476.3412840202878
 42
0.0
 10
168.1144907108908
 20
319.0612618942087
 42
0.387092437834293
 10
171.1013933890687
 20
316.3412840202879
 42
0.0
 10
197.569488636571
 20
316.3412840202878
 42
0.0
 10
197.5694886365709
 20
322.3012840202875
 42
0.0
 10
185.8694886365709
 20
336.3412840202874
 42
0.0
 97
        0
 75
     0
 76
     1
 52
0.0
 41
35.0
 77
     0
 78
     3
 53
0.0
 43
26.22847701909709
 44
34.12321607693127
 45
6.5625
 46
3.788861124999999
 79
     2
 49
4.375
 49
-8.75
 53
120.0
 43
26.22847701909709
 44
34.12321607693127
 45
-6.562499985661285
 46
3.788861149835379
 79
     2
 49
4.374999999999998
 49
-8.749999999999996
 53
60.0
 43
26.22847701909709
 44
34.12321607693127
 45
0.000000014338714
 46
7.577722274835378
 79
     2
 49
-8.75
 49
4.375
 47
0.8060159530272883
 98
        2
 10
316.0521838399153
 20
369.8165293509229
 10
176.5678914261319
 20
393.1909919626388
  0
LINE
  5
12F1
330
1E
100
AcDbEntity
  8
STEMPEL
100
AcDbLine
 10
309.169488636571
 20
446.7041525371746
 30
0.0
 11
309.1694886365709
 21
316.341284020288
 31
0.0
  0
LINE
  5
12F2
330
1E
100
AcDbEntity
  8
TEXT
 62
     2
100
AcDbLine
 10
342.4283897785965
 20
336.0219886241944
 30
0.0
 11
327.4913688989232
 21
347.8545656771528
 31
0.0
  0
LINE
  5
12F3
330
1E
100
AcDbEntity
  8
TEXT
 62
     2
100
AcDbLine
 10
342.4283897785965
 20
336.0219886241944
 30
0.0
 11
434.0390028953013
 21
336.0219886241944
 31
0.0
  0
TEXT
  5
12F4
330
1E
100
AcDbEntity
  8
TEXT
 62
     1
100
AcDbText
 10
343.7982338969887
 20
326.2836278897762
 30
0.0
 40
7.0
  1
EDV-Art.Nr. 19842.100X
 41
0.7
  7
GREEKS
100
AcDbText
  0
TEXT
  5
12F5
330
1E
100
AcDbEntity
  8
TEXT
 62
     1
100
AcDbText
 10
343.7982338969887
 20
339.4018940410908
 30
0.0
 40
7.0
  1
Wärmedämmung
 41
0.8
  7
GREEKS
100
AcDbText
  0
DIMENSION
  5
12F6
330
1E
100
AcDbEntity
  8
BEM
100
AcDbDimension
  2
*D7
 10
328.3694886365708
 20
300.1660686135548
 30
0.0
 11
248.3694886365709
 21
306.6660686135548
 31
0.0
 70
    32
  1
%%c<>
 71
     5
 42
160.0
  3
Standard
100
AcDbAlignedDimension
 13
168.3694886365708
 23
317.341284020288
 33
0.0
 14
328.3694886365708
 24
317.3412840202874
 34
0.0
100
AcDbRotatedDimension
1001
ACAD
1000
DSTYLE
1002
{
1070
    40
1040
2.0
1070
    41
1040
3.5
1070
    42
1040
1.0
1070
    43
1040
7.0
1070
    44
1040
1.0
1070
    73
1070
     0
1070
    74
1070
     0
1070
    77
1070
     1
1070
    78
1070
     8
1070
    79
1070
     2
1070
   140
1040
3.5
1070
   141
1040
1.5
1070
   146
1040
0.5142857142857144
1070
   147
1040
1.5
1070
   172
1070
     1
1070
   178
1070
     1
1070
   179
1070
     2
1070
   271
1070
     2
1070
   272
1070
     2
1070
   284
1070
     8
1070
   285
1070
     8
1070
   286
1070
     8
1002
}
  0
LINE
  5
12F7
330
1E
100
AcDbEntity
  8
STEMPEL
100
AcDbLine
 10
309.1694886365709
 20
336.3412840202873
 30
0.0
 11
310.8694886365709
 21
336.3412840202873
 31
0.0
  0
LINE
  5
12F8
330
1E
100
AcDbEntity
  8
STEMPEL
100
AcDbLine
 10
309.1694886365709
 20
316.3412840202874
 30
0.0
 11
325.6375838840731
 21
316.3412840202874
 31
0.0
  0
LINE
  5
12F9
330
1E
100
AcDbEntity
  8
STEMPEL
100
AcDbLine
 10
309.1694886365709
 20
406.3412840202868
 30
0.0
 11
310.869488636571
 21
406.3412840202868
 31
0.0
  0
LINE
  5
12FA
330
1E
100
AcDbEntity
  8
STEMPEL
100
AcDbLine
 10
309.169488636571
 20
426.3412840202878
 30
0.0
 11
321.8694886365707
 21
426.3412840202877
 31
0.0
  0
ARC
  5
12FB
330
1E
100
AcDbEntity
  8
STEMPEL
100
AcDbCircle
 10
325.6375838840731
 20
319.3412840202879
 30
0.0
 40
3.0
100
AcDbArc
 50
270.0
 51
354.6441749571445
  0
LINE
  5
12FC
330
1E
100
AcDbEntity
  8
STEMPEL
100
AcDbLine
 10
321.8694886365707
 20
426.3412840202877
 30
0.0
 11
321.869488636571
 21
471.341284020288
 31
0.0
  0
LINE
  5
12FD
330
1E
100
AcDbEntity
  8
STEMPEL
100
AcDbLine
 10
343.369488636571
 20
476.3412840202879
 30
0.0
 11
328.624486562251
 21
319.0612618942087
 31
0.0
  0
LINE
  5
12FE
330
1E
100
AcDbEntity
  8
STEMPEL
100
AcDbLine
 10
310.869488636571
 20
406.3412840202868
 30
0.0
 11
310.8694886365709
 21
336.3412840202873
 31
0.0
  0
LINE
  5
12FF
330
1E
100
AcDbEntity
  8
STEMPEL
100
AcDbLine
 10
309.169488636571
 20
334.3012840202875
 30
0.0
 11
310.8694886365709
 21
336.3412840202873
 31
0.0
  0
LINE
  5
1300
330
1E
100
AcDbEntity
  8
STEMPEL
100
AcDbLine
 10
321.8694886365707
 20
426.3412840202877
 30
0.0
 11
310.869488636571
 21
406.3412840202868
 31
0.0
  0
ARC
  5
1301
330
1E
100
AcDbEntity
  8
STEMPEL
100
AcDbCircle
 10
171.1013933890687
 20
319.3412840202879
 30
0.0
 40
3.0
100
AcDbArc
 50
185.3558250428554
 51
270.0
  0
LINE
  5
1302
330
1E
100
AcDbEntity
  8
STEMPEL
100
AcDbLine
 10
171.1013933890687
 20
316.3412840202879
 30
0.0
 11
197.569488636571
 21
316.3412840202878
 31
0.0
  0
LINE
  5
1303
330
1E
100
AcDbEntity
  8
STEMPEL
100
AcDbLine
 10
185.8694886365709
 20
336.3412840202879
 30
0.0
 11
197.569488636571
 21
336.3412840202879
 31
0.0
  0
LINE
  5
1304
330
1E
100
AcDbEntity
  8
STEMPEL
100
AcDbLine
 10
197.569488636571
 20
322.3012840202876
 30
0.0
 11
185.869488636571
 21
336.3412840202873
 31
0.0
  0
DIMENSION
  5
1305
330
1E
100
AcDbEntity
  8
BEM
100
AcDbDimension
  2
*D8
 10
93.80707800866398
 20
316.341284020288
 30
0.0
 11
87.30707800866394
 21
396.341284020288
 31
0.0
 70
    32
 71
     5
 42
160.0
  3
Standard
100
AcDbAlignedDimension
 13
104.4979157613171
 23
476.341284020288
 33
0.0
 14
168.3694886365709
 24
316.3412840202879
 34
0.0
 50
90.0
100
AcDbRotatedDimension
1001
ACAD
1000
DSTYLE
1002
{
1070
    40
1040
2.0
1070
    41
1040
3.5
1070
    42
1040
1.0
1070
    43
1040
7.0
1070
    44
1040
1.0
1070
    73
1070
     0
1070
    74
1070
     0
1070
    77
1070
     1
1070
    78
1070
     8
1070
    79
1070
     2
1070
   140
1040
3.5
1070
   141
1040
1.5
1070
   146
1040
0.5142857142857144
1070
   147
1040
1.5
1070
   172
1070
     1
1070
   178
1070
     1
1070
   179
1070
     2
1070
   271
1070
     2
1070
   272
1070
     2
1070
   284
1070
     8
1070
   285
1070
     8
1070
   286
1070
     8
1002
}
  0
LINE
  5
1306
330
1E
100
AcDbEntity
  8
STEMPEL
100
AcDbLine
 10
174.8694886365711
 20
426.3412840202877
 30
0.0
 11
197.569488636571
 21
426.3412840202877
 31
0.0
  0
LINE
  5
1307
330
1E
100
AcDbEntity
  8
STEMPEL
100
AcDbLine
 10
174.8694886365711
 20
426.3412840202877
 30
0.0
 11
174.8694886365709
 21
471.341284020288
 31
0.0
  0
LINE
  5
1308
330
1E
100
AcDbEntity
  8
STEMPEL
100
AcDbLine
 10
153.3694886365709
 20
476.3412840202879
 30
0.0
 11
168.1144907108908
 21
319.0612618942087
 31
0.0
  0
LINE
  5
1309
330
1E
100
AcDbEntity
  8
STEMPEL
100
AcDbLine
 10
185.8694886365709
 20
406.3412840202876
 30
0.0
 11
185.8694886365709
 21
336.3412840202879
 31
0.0
  0
LINE
  5
130A
330
1E
100
AcDbEntity
  8
STEMPEL
100
AcDbLine
 10
185.8694886365709
 20
406.3412840202876
 30
0.0
 11
197.569488636571
 21
406.3412840202876
 31
0.0
  0
LINE
  5
130B
330
1E
100
AcDbEntity
  8
STEMPEL
100
AcDbLine
 10
174.8694886365711
 20
426.3412840202877
 30
0.0
 11
185.8694886365709
 21
406.3412840202876
 31
0.0
  0
LINE
  5
130C
330
1E
100
AcDbEntity
  8
STEMPEL
100
AcDbLine
 10
316.8339547306381
 20
471.341284020288
 30
0.0
 11
321.869488636571
 21
471.341284020288
 31
0.0
  0
LINE
  5
130D
330
1E
100
AcDbEntity
  8
STEMPEL
100
AcDbLine
 10
328.369488636571
 20
476.341284020288
 30
0.0
 11
321.869488636571
 21
471.341284020288
 31
0.0
  0
LINE
  5
130E
330
1E
100
AcDbEntity
  8
STEMPEL
100
AcDbLine
 10
174.8694886365709
 20
471.341284020288
 30
0.0
 11
179.9050225425038
 21
471.341284020288
 31
0.0
  0
LINE
  5
130F
330
1E
100
AcDbEntity
  8
STEMPEL
100
AcDbLine
 10
168.3694886365709
 20
476.341284020288
 30
0.0
 11
174.8694886365709
 21
471.341284020288
 31
0.0
  0
ARC
  5
1310
330
1E
100
AcDbEntity
  8
STEMPEL
100
AcDbCircle
 10
298.3556607651678
 20
446.1793437972429
 30
0.0
 40
10.82655519756146
100
AcDbArc
 50
357.2215433564766
 51
63.22048523125464
  0
ARC
  5
1311
102
{ACAD_REACTORS
330
131F
102
}
330
1E
100
AcDbEntity
  8
STEMPEL
100
AcDbCircle
 10
301.1694886365709
 20
448.1513345266278
 30
0.0
 40
1.0
100
AcDbArc
 50
180.0
 51
270.0
  0
ARC
  5
1312
102
{ACAD_REACTORS
330
131F
102
}
330
1E
100
AcDbEntity
  8
STEMPEL
100
AcDbCircle
 10
301.1694886365709
 20
454.1513345266279
 30
0.0
 40
1.0
100
AcDbArc
 50
90.0
 51
180.0
  0
ARC
  5
1313
330
1E
100
AcDbEntity
  8
STEMPEL
100
AcDbCircle
 10
301.1694886365709
 20
448.1513345266278
 30
0.0
 40
2.0
100
AcDbArc
 50
180.0
 51
270.0
  0
ARC
  5
1314
330
1E
100
AcDbEntity
  8
STEMPEL
100
AcDbCircle
 10
301.1694886365709
 20
454.1513345266279
 30
0.0
 40
2.0
100
AcDbArc
 50
90.0
 51
180.0
  0
HATCH
  5
1315
330
1E
100
AcDbEntity
  8
SCHRAFF
100
AcDbHatch
 10
0.0
 20
0.0
 30
0.0
210
0.0
220
0.0
230
1.0
  2
NET
 70
     0
 71
     0
 91
        2
 92
        7
 72
     1
 73
     1
 93
       10
 10
304.1694886365709
 20
454.1513345266278
 42
0.2539150913703598
 10
303.2590979356351
 20
455.8284605133662
 42
0.0005032130446828
 10
303.2336559516196
 20
455.8447180997093
 42
0.1411920676771369
 10
302.169488636571
 20
456.1513345266278
 42
0.0
 10
301.1694886365709
 20
456.151334526628
 42
0.4142135623730951
 10
299.1694886365709
 20
454.1513345266279
 42
0.0
 10
299.1694886365709
 20
448.1513345266278
 42
0.4142135623730951
 10
301.1694886365709
 20
446.1513345266278
 42
0.0
 10
302.1694886365709
 20
446.1513345266278
 42
0.4142135623730951
 10
304.1694886365709
 20
448.1513345266278
 42
0.0
 97
        0
 92
       22
 72
     1
 73
     1
 93
        8
 10
303.1694886365709
 20
448.1513345266278
 42
-0.4142135623730951
 10
302.1694886365709
 20
447.1513345266278
 42
0.0
 10
301.1694886365709
 20
447.1513345266278
 42
-0.4142135623730951
 10
300.1694886365709
 20
448.1513345266278
 42
0.0
 10
300.1694886365709
 20
454.1513345266279
 42
-0.4142135623731284
 10
301.169488636571
 20
455.1513345266279
 42
0.0
 10
302.1694886365709
 20
455.1513345266278
 42
-0.4142135623730951
 10
303.1694886365709
 20
454.1513345266278
 42
0.0
 97
        0
 75
     0
 76
     1
 52
45.0
 41
10.0
 77
     0
 78
     2
 53
45.0
 43
41.23956988472914
 44
71.74422055629174
 45
-0.8838834764831842
 46
0.8838834764831844
 79
     0
 53
135.0
 43
41.23956988472914
 44
71.74422055629174
 45
-0.8838834764831844
 46
-0.8838834764831842
 79
     0
 47
0.1212528115745328
 98
        2
 10
303.4964703527613
 20
452.6836883942687
 10
303.4964703527613
 20
452.6836883942687
  0
ARC
  5
1316
102
{ACAD_REACTORS
330
131F
102
}
330
1E
100
AcDbEntity
  8
STEMPEL
100
AcDbCircle
 10
302.1694886365709
 20
454.1513345266278
 30
0.0
 40
1.0
100
AcDbArc
 50
0.0
 51
90.0
  0
ARC
  5
1317
330
1E
100
AcDbEntity
  8
STEMPEL
100
AcDbCircle
 10
302.1694886365709
 20
454.1513345266278
 30
0.0
 40
2.0
100
AcDbArc
 50
0.0
 51
90.0
  0
ARC
  5
1318
330
1E
100
AcDbEntity
  8
STEMPEL
100
AcDbCircle
 10
302.1694886365709
 20
448.1513345266278
 30
0.0
 40
2.0
100
AcDbArc
 50
270.0
 51
0.0
  0
LINE
  5
1319
330
1E
100
AcDbEntity
  8
STEMPEL
100
AcDbLine
 10
301.1694886365709
 20
446.1513345266278
 30
0.0
 11
302.1694886365709
 21
446.1513345266278
 31
0.0
  0
ARC
  5
131A
102
{ACAD_REACTORS
330
131F
102
}
330
1E
100
AcDbEntity
  8
STEMPEL
100
AcDbCircle
 10
302.1694886365709
 20
448.1513345266278
 30
0.0
 40
1.0
100
AcDbArc
 50
270.0
 51
0.0
  0
LINE
  5
131B
102
{ACAD_REACTORS
330
131F
102
}
330
1E
100
AcDbEntity
  8
STEMPEL
100
AcDbLine
 10
301.1694886365709
 20
447.1513345266278
 30
0.0
 11
302.1694886365709
 21
447.1513345266278
 31
0.0
  0
LINE
  5
131C
102
{ACAD_REACTORS
330
131F
102
}
330
1E
100
AcDbEntity
  8
STEMPEL
100
AcDbLine
 10
301.1694886365709
 20
455.1513345266279
 30
0.0
 11
302.1694886365709
 21
455.1513345266278
 31
0.0
  0
LINE
  5
131D
102
{ACAD_REACTORS
330
131F
102
}
330
1E
100
AcDbEntity
  8
STEMPEL
  6
Continuous
100
AcDbLine
 10
303.1694886365709
 20
454.1513345266278
 30
0.0
 11
303.1694886365709
 21
448.1513345266278
 31
0.0
  0
LINE
  5
131E
102
{ACAD_REACTORS
330
131F
102
}
330
1E
100
AcDbEntity
  8
STEMPEL
  6
Continuous
100
AcDbLine
 10
300.1694886365709
 20
454.1513345266279
 30
0.0
 11
300.1694886365709
 21
448.1513345266278
 31
0.0
  0
HATCH
  5
131F
330
1E
100
AcDbEntity
  8
SCHRAFF
100
AcDbHatch
 10
0.0
 20
0.0
 30
0.0
210
0.0
220
0.0
230
1.0
  2
_USER
 70
     0
 71
     1
 91
        1
 92
        7
 72
     1
 73
     1
 93
        8
 10
303.1694886365709
 20
454.1513345266278
 42
0.4142135623730951
 10
302.1694886365709
 20
455.1513345266278
 42
0.0
 10
301.1694886365709
 20
455.1513345266279
 42
0.4142135623730951
 10
300.1694886365709
 20
454.1513345266279
 42
0.0
 10
300.1694886365709
 20
448.1513345266278
 42
0.4142135623730951
 10
301.1694886365709
 20
447.1513345266278
 42
0.0
 10
302.1694886365709
 20
447.1513345266278
 42
0.4142135623730951
 10
303.1694886365709
 20
448.1513345266278
 42
0.0
 97
        8
330
1316
330
131C
330
1312
330
131E
330
1311
330
131B
330
131A
330
131D
 75
     0
 76
     0
 52
135.0
 41
1.0
 77
     0
 78
     1
 53
135.0
 43
41.23956988472914
 44
71.74422055629174
 45
-0.7071067811865476
 46
-0.7071067811865475
 79
     0
 47
0.1071053300341939
 98
        1
 10
301.7346386483633
 20
450.9274099602045
  0
LINE
  5
1320
330
1E
100
AcDbEntity
  8
STEMPEL
  6
Continuous
100
AcDbLine
 10
304.1694886365709
 20
454.1513345266278
 30
0.0
 11
304.1694886365709
 21
448.1513345266278
 31
0.0
  0
LINE
  5
1321
330
1E
100
AcDbEntity
  8
STEMPEL
100
AcDbLine
 10
302.1694886365709
 20
456.1513345266278
 30
0.0
 11
301.1694886365709
 21
456.151334526628
 31
0.0
  0
LINE
  5
1322
330
1E
100
AcDbEntity
  8
STEMPEL
  6
Continuous
100
AcDbLine
 10
192.5694886365709
 20
454.1513345266278
 30
0.0
 11
192.5694886365709
 21
448.1513345266278
 31
0.0
  0
HATCH
  5
1323
330
1E
100
AcDbEntity
  8
SCHRAFF
100
AcDbHatch
 10
0.0
 20
0.0
 30
0.0
210
0.0
220
0.0
230
1.0
  2
_USER
 70
     0
 71
     1
 91
        1
 92
        7
 72
     1
 73
     1
 93
        8
 10
193.5694886365709
 20
448.1513345266278
 42
0.4142135623730951
 10
194.5694886365709
 20
447.1513345266278
 42
0.0
 10
195.5694886365709
 20
447.1513345266278
 42
0.4142135623730951
 10
196.5694886365709
 20
448.1513345266278
 42
0.0
 10
196.5694886365709
 20
454.1513345266279
 42
0.4142135623731283
 10
195.5694886365708
 20
455.1513345266279
 42
0.0
 10
194.5694886365709
 20
455.1513345266278
 42
0.4142135623730951
 10
193.5694886365709
 20
454.1513345266278
 42
0.0
 97
        8
330
132B
330
1326
330
132D
330
1324
330
132E
330
1327
330
1328
330
1325
 75
     0
 76
     0
 52
135.0
 41
1.0
 77
     0
 78
     1
 53
135.0
 43
18.2159188290943
 44
36.10167985997214
 45
-0.7071067811865476
 46
-0.7071067811865475
 79
     0
 47
0.1071053300341939
 98
        1
 10
195.0043386247785
 20
450.9274099602045
  0
LINE
  5
1324
102
{ACAD_REACTORS
330
1323
102
}
330
1E
100
AcDbEntity
  8
STEMPEL
  6
Continuous
100
AcDbLine
 10
196.5694886365709
 20
454.1513345266279
 30
0.0
 11
196.5694886365709
 21
448.1513345266278
 31
0.0
  0
LINE
  5
1325
102
{ACAD_REACTORS
330
1323
102
}
330
1E
100
AcDbEntity
  8
STEMPEL
  6
Continuous
100
AcDbLine
 10
193.5694886365709
 20
454.1513345266278
 30
0.0
 11
193.5694886365709
 21
448.1513345266278
 31
0.0
  0
LINE
  5
1326
102
{ACAD_REACTORS
330
1323
102
}
330
1E
100
AcDbEntity
  8
STEMPEL
100
AcDbLine
 10
195.5694886365709
 20
455.1513345266279
 30
0.0
 11
194.5694886365709
 21
455.1513345266278
 31
0.0
  0
LINE
  5
1327
102
{ACAD_REACTORS
330
1323
102
}
330
1E
100
AcDbEntity
  8
STEMPEL
100
AcDbLine
 10
195.5694886365709
 20
447.1513345266278
 30
0.0
 11
194.5694886365709
 21
447.1513345266278
 31
0.0
  0
ARC
  5
1328
102
{ACAD_REACTORS
330
1323
102
}
330
1E
100
AcDbEntity
  8
STEMPEL
100
AcDbCircle
 10
194.5694886365709
 20
448.1513345266278
 30
0.0
 40
1.0
100
AcDbArc
 50
180.0
 51
270.0
  0
LINE
  5
1329
330
1E
100
AcDbEntity
  8
STEMPEL
100
AcDbLine
 10
195.5694886365709
 20
446.1513345266278
 30
0.0
 11
194.5694886365709
 21
446.1513345266278
 31
0.0
  0
ARC
  5
132A
330
1E
100
AcDbEntity
  8
STEMPEL
100
AcDbCircle
 10
194.5694886365709
 20
448.1513345266278
 30
0.0
 40
2.0
100
AcDbArc
 50
180.0
 51
270.0
  0
ARC
  5
132B
102
{ACAD_REACTORS
330
1323
102
}
330
1E
100
AcDbEntity
  8
STEMPEL
100
AcDbCircle
 10
194.5694886365709
 20
454.1513345266278
 30
0.0
 40
1.0
100
AcDbArc
 50
90.0
 51
180.0
  0
ARC
  5
132C
330
1E
100
AcDbEntity
  8
STEMPEL
100
AcDbCircle
 10
195.5694886365709
 20
448.1513345266278
 30
0.0
 40
2.0
100
AcDbArc
 50
270.0
 51
0.0
  0
ARC
  5
132D
102
{ACAD_REACTORS
330
1323
102
}
330
1E
100
AcDbEntity
  8
STEMPEL
100
AcDbCircle
 10
195.5694886365709
 20
454.1513345266279
 30
0.0
 40
1.0
100
AcDbArc
 50
0.0
 51
90.0
  0
ARC
  5
132E
102
{ACAD_REACTORS
330
1323
102
}
330
1E
100
AcDbEntity
  8
STEMPEL
100
AcDbCircle
 10
195.5694886365709
 20
448.1513345266278
 30
0.0
 40
1.0
100
AcDbArc
 50
270.0
 51
0.0
  0
LINE
  5
132F
330
1E
100
AcDbEntity
  8
STEMPEL
100
AcDbLine
 10
194.5694886365709
 20
456.1513345266278
 30
0.0
 11
195.5694886365709
 21
456.151334526628
 31
0.0
  0
ARC
  5
1330
330
1E
100
AcDbEntity
  8
STEMPEL
100
AcDbCircle
 10
194.5694886365709
 20
454.1513345266278
 30
0.0
 40
2.0
100
AcDbArc
 50
90.0
 51
180.0
  0
ARC
  5
1331
330
1E
100
AcDbEntity
  8
STEMPEL
100
AcDbCircle
 10
195.5694886365709
 20
454.1513345266279
 30
0.0
 40
2.0
100
AcDbArc
 50
0.0
 51
90.0
  0
HATCH
  5
1332
330
1E
100
AcDbEntity
  8
SCHRAFF
100
AcDbHatch
 10
0.0
 20
0.0
 30
0.0
210
0.0
220
0.0
230
1.0
  2
NET
 70
     0
 71
     0
 91
        2
 92
        7
 72
     1
 73
     1
 93
       10
 10
197.5694886365709
 20
454.1513345266278
 42
0.2539150913703598
 10
196.659097935635
 20
455.8284605133662
 42
0.0005032130446828
 10
196.6336559516196
 20
455.8447180997093
 42
0.1411920676771369
 10
195.569488636571
 20
456.1513345266278
 42
0.0
 10
194.5694886365709
 20
456.151334526628
 42
0.4142135623730951
 10
192.5694886365709
 20
454.1513345266279
 42
0.0
 10
192.5694886365709
 20
448.1513345266278
 42
0.4142135623730951
 10
194.5694886365709
 20
446.1513345266278
 42
0.0
 10
195.5694886365709
 20
446.1513345266278
 42
0.4142135623730951
 10
197.5694886365709
 20
448.1513345266278
 42
0.0
 97
        0
 92
       22
 72
     1
 73
     1
 93
        8
 10
196.5694886365709
 20
448.1513345266278
 42
-0.4142135623730951
 10
195.5694886365709
 20
447.1513345266278
 42
0.0
 10
194.5694886365709
 20
447.1513345266278
 42
-0.4142135623730951
 10
193.5694886365709
 20
448.1513345266278
 42
0.0
 10
193.5694886365709
 20
454.1513345266279
 42
-0.4142135623731284
 10
194.569488636571
 20
455.1513345266279
 42
0.0
 10
195.5694886365709
 20
455.1513345266278
 42
-0.4142135623730951
 10
196.5694886365709
 20
454.1513345266278
 42
0.0
 97
        0
 75
     0
 76
     1
 52
45.0
 41
10.0
 77
     0
 78
     2
 53
45.0
 43
-65.36043011527087
 44
71.74422055629174
 45
-0.8838834764831842
 46
0.8838834764831844
 79
     0
 53
135.0
 43
-65.36043011527087
 44
71.74422055629174
 45
-0.8838834764831844
 46
-0.8838834764831842
 79
     0
 47
0.1212528115745328
 98
        2
 10
196.8964703527613
 20
452.6836883942687
 10
196.8964703527613
 20
452.6836883942687
  0
LINE
  5
135D
330
1E
100
AcDbEntity
  8
MITTEL
100
AcDbLine
 10
248.3694886365711
 20
296.9040080024622
 30
0.0
 11
248.369488636571
 21
204.3412840202878
 31
0.0
  0
DIMENSION
  5
135E
330
1E
100
AcDbEntity
  8
BEM
100
AcDbDimension
  2
*D9
 10
153.3694886365709
 20
436.4317686622371
 30
0.0
 11
248.369488636571
 21
442.9317686622371
 31
0.0
 70
    32
  1
%%c<>
 71
     5
 42
190.0
  3
Standard
100
AcDbAlignedDimension
 13
343.369488636571
 23
476.3412840202879
 33
0.0
 14
153.3694886365709
 24
476.3412840202879
 34
0.0
100
AcDbRotatedDimension
1001
ACAD
1000
DSTYLE
1002
{
1070
    40
1040
2.0
1070
    41
1040
3.5
1070
    42
1040
1.0
1070
    43
1040
7.0
1070
    44
1040
1.0
1070
    73
1070
     0
1070
    74
1070
     0
1070
    77
1070
     1
1070
    78
1070
     8
1070
    79
1070
     2
1070
   140
1040
3.5
1070
   141
1040
1.5
1070
   146
1040
0.5142857142857144
1070
   147
1040
1.5
1070
   172
1070
     1
1070
   178
1070
     1
1070
   179
1070
     2
1070
   271
1070
     2
1070
   272
1070
     2
1070
   284
1070
     8
1070
   285
1070
     8
1070
   286
1070
     8
1002
}
  0
LINE
  5
137D
330
1E
100
AcDbEntity
  8
MITTEL
100
AcDbLine
 10
248.3694886365714
 20
433.5332259337197
 30
0.0
 11
248.3694886365712
 21
311.8027827603164
 31
0.0
  0
TEXT
  5
137E
330
1E
100
AcDbEntity
  8
TEXT
100
AcDbText
 10
531.8997861689247
 20
654.3410940884991
 30
0.0
 40
5.0
  1
und Heizung, einteilig
 50
90.0
 41
0.8
  7
GREEKS
100
AcDbText
  0
LINE
  5
13AC
102
{ACAD_REACTORS
330
13FA
102
}
330
1E
100
AcDbEntity
  8
STEMPEL
100
AcDbLine
 10
141.3694886365717
 20
482.3412840202873
 30
0.0
 11
398.3694886365715
 21
482.3412840202873
 31
0.0
  0
LINE
  5
13B0
330
1E
100
AcDbEntity
  8
STEMPEL
100
AcDbLine
 10
398.3694886365715
 20
479.3412840202874
 30
0.0
 11
398.3694886365715
 21
482.3412840202873
 31
0.0
  0
LINE
  5
13B1
330
1E
100
AcDbEntity
  8
STEMPEL
100
AcDbLine
 10
98.36948863657148
 20
479.3412840202874
 30
0.0
 11
398.3694886365715
 21
479.3412840202874
 31
0.0
  0
LINE
  5
13B2
102
{ACAD_REACTORS
330
13FA
102
}
330
1E
100
AcDbEntity
  8
STEMPEL
100
AcDbLine
 10
398.3694886365717
 20
479.3412840202869
 30
0.0
 11
398.3694886365717
 21
482.3412840202873
 31
0.0
  0
LINE
  5
13B3
102
{ACAD_REACTORS
330
13FA
102
}
330
1E
100
AcDbEntity
  8
STEMPEL
100
AcDbLine
 10
98.36948863657159
 20
479.3412840202878
 30
0.0
 11
398.3694886365717
 21
479.3412840202869
 31
0.0
  0
LINE
  5
13B5
102
{ACAD_REACTORS
330
13FA
102
}
330
1E
100
AcDbEntity
  8
STEMPEL
100
AcDbLine
 10
328.3694886365716
 20
479.3412840202874
 30
0.0
 11
328.3694886365716
 21
482.3412840202873
 31
0.0
  0
LINE
  5
13B6
330
1E
100
AcDbEntity
  8
STEMPEL
100
AcDbLine
 10
356.8439962778358
 20
485.341284020287
 30
0.0
 11
356.8439962778358
 21
482.3412840202873
 31
0.0
  0
LINE
  5
13B7
330
1E
100
AcDbEntity
  8
HILF
100
AcDbLine
 10
355.8439962778359
 20
485.341284020287
 30
0.0
 11
355.8439962778358
 21
482.3412840202873
 31
0.0
  0
LINE
  5
13B8
330
1E
100
AcDbEntity
  8
STEMPEL
100
AcDbLine
 10
346.843996277836
 20
485.341284020287
 30
0.0
 11
346.8439962778357
 21
482.3412840202874
 31
0.0
  0
LINE
  5
13B9
330
1E
100
AcDbEntity
  8
HILF
100
AcDbLine
 10
347.8439962778358
 20
485.341284020287
 30
0.0
 11
347.8439962778357
 21
482.3412840202874
 31
0.0
  0
LINE
  5
13BA
330
1E
100
AcDbEntity
  8
HILF
100
AcDbLine
 10
266.9884221652174
 20
485.3412840202869
 30
0.0
 11
266.9884221652174
 21
482.3412840202873
 31
0.0
  0
LINE
  5
13BB
330
1E
100
AcDbEntity
  8
STEMPEL
100
AcDbLine
 10
267.9884221652174
 20
485.3412840202869
 30
0.0
 11
267.9884221652175
 21
482.3412840202873
 31
0.0
  0
LINE
  5
13BC
330
1E
100
AcDbEntity
  8
HILF
100
AcDbLine
 10
258.9884221652174
 20
485.3412840202869
 30
0.0
 11
258.9884221652174
 21
482.3412840202873
 31
0.0
  0
LINE
  5
13BD
330
1E
100
AcDbEntity
  8
STEMPEL
100
AcDbLine
 10
257.9884221652174
 20
485.3412840202869
 30
0.0
 11
257.9884221652175
 21
482.3412840202873
 31
0.0
  0
LINE
  5
13BF
102
{ACAD_REACTORS
330
13FA
102
}
330
1E
100
AcDbEntity
  8
STEMPEL
100
AcDbLine
 10
168.3694886365715
 20
479.3412840202874
 30
0.0
 11
168.3694886365715
 21
482.3412840202873
 31
0.0
  0
LINE
  5
13C0
330
1E
100
AcDbEntity
  8
STEMPEL
100
AcDbLine
 10
197.3694886365717
 20
485.3412840202868
 30
0.0
 11
197.3694886365718
 21
482.3412840202874
 31
0.0
  0
LINE
  5
13C1
330
1E
100
AcDbEntity
  8
HILF
100
AcDbLine
 10
196.3694886365717
 20
485.3412840202869
 30
0.0
 11
196.3694886365717
 21
482.3412840202873
 31
0.0
  0
LINE
  5
13C2
330
1E
100
AcDbEntity
  8
HILF
100
AcDbLine
 10
188.3694886365717
 20
485.3412840202868
 30
0.0
 11
188.3694886365718
 21
482.3412840202874
 31
0.0
  0
LINE
  5
13C3
330
1E
100
AcDbEntity
  8
STEMPEL
100
AcDbLine
 10
187.3694886365717
 20
485.3412840202868
 30
0.0
 11
187.3694886365717
 21
482.3412840202874
 31
0.0
  0
LINE
  5
13C5
330
1E
100
AcDbEntity
  8
STEMPEL
100
AcDbLine
 10
106.3694886365716
 20
485.3412840202869
 30
0.0
 11
131.3694886365716
 21
485.3412840202869
 31
0.0
  0
LINE
  5
13C7
330
1E
100
AcDbEntity
  8
STEMPEL
100
AcDbLine
 10
98.36948863657148
 20
479.3412840202874
 30
0.0
 11
98.36948863657148
 21
482.3412840202873
 31
0.0
  0
LINE
  5
13C8
102
{ACAD_REACTORS
330
13FA
102
}
330
1E
100
AcDbEntity
  8
STEMPEL
100
AcDbLine
 10
98.36948863657148
 20
482.3412840202873
 30
0.0
 11
131.3694886365716
 21
482.3412840202873
 31
0.0
  0
LINE
  5
13C9
102
{ACAD_REACTORS
330
13FA
102
}
330
1E
100
AcDbEntity
  8
STEMPEL
100
AcDbLine
 10
98.36948863657159
 20
479.3412840202869
 30
0.0
 11
98.36948863657159
 21
482.3412840202873
 31
0.0
  0
LINE
  5
13CB
102
{ACAD_REACTORS
330
13FA
102
}
330
1E
100
AcDbEntity
  8
STEMPEL
100
AcDbLine
 10
128.3694886365714
 20
479.3412840202872
 30
0.0
 11
128.3694886365714
 21
482.3412840202872
 31
0.0
  0
LINE
  5
13CC
102
{ACAD_REACTORS
330
13FA
102
}
330
1E
100
AcDbEntity
  8
STEMPEL
100
AcDbLine
 10
144.3694886365718
 20
479.3412840202872
 30
0.0
 11
144.3694886365718
 21
482.3412840202872
 31
0.0
  0
HATCH
  5
13FA
330
1E
100
AcDbEntity
  8
SCHRAFF
100
AcDbHatch
 10
0.0
 20
0.0
 30
0.0
210
0.0
220
0.0
230
1.0
  2
NET
 70
     0
 71
     1
 91
        5
 92
        7
 72
     0
 73
     1
 93
        4
 10
398.3694886365717
 20
479.3412840202869
 10
398.3694886365717
 20
482.3412840202873
 10
384.5746179787752
 20
482.3412840202873
 10
386.5815178925647
 20
479.3412840202869
 97
        4
330
13AC
330
B70
330
13B3
330
13B2
 92
        7
 72
     0
 73
     1
 93
        4
 10
386.5815178925649
 20
479.3412840202869
 10
384.5746179787754
 20
482.3412840202874
 10
351.8439962778358
 20
482.3412840202873
 10
351.8439962778359
 20
479.3412840202869
 97
        4
330
13AC
330
EF6
330
13B3
330
B70
 92
        7
 72
     0
 73
     1
 93
        4
 10
328.3694886365716
 20
482.3412840202874
 10
328.3694886365716
 20
479.341284020287
 10
351.8439962778357
 20
479.3412840202869
 10
351.8439962778357
 20
482.3412840202873
 97
        4
330
13AC
330
13B5
330
13B3
330
EF6
 92
        7
 72
     0
 73
     1
 93
        4
 10
168.3694886365715
 20
479.3412840202877
 10
168.3694886365714
 20
482.3412840202873
 10
144.3694886365718
 20
482.3412840202873
 10
144.3694886365718
 20
479.3412840202877
 97
        4
330
13AC
330
13CC
330
13B3
330
13BF
 92
        7
 72
     0
 73
     1
 93
        4
 10
98.36948863657159
 20
482.3412840202873
 10
98.36948863657157
 20
479.3412840202878
 10
128.3694886365714
 20
479.3412840202877
 10
128.3694886365714
 20
482.3412840202873
 97
        4
330
13C8
330
13C9
330
13B3
330
13CB
 75
     0
 76
     1
 52
45.0
 41
15.0
 77
     0
 78
     2
 53
45.0
 43
0.0
 44
0.0
 45
-1.325825214724776
 46
1.325825214724776
 79
     0
 53
135.0
 43
0.0
 44
0.0
 45
-1.325825214724776
 46
-1.325825214724776
 79
     0
 47
0.3213799373600161
 98
        5
 10
390.483265116387
 20
480.0125489539389
 10
379.2311489431427
 20
480.6553084544828
 10
345.1533185448757
 20
480.9766891906158
 10
159.3326831534846
 20
480.6553084544828
 10
121.0754960725976
 20
480.9766891906158
  0
ENDSEC
  0
SECTION
  2
OBJECTS
  0
DICTIONARY
  5
C
330
0
100
AcDbDictionary
281
     1
  3
ACAD_COLOR
350
11A
  3
ACAD_GROUP
350
D
  3
ACAD_LAYOUT
350
19
  3
ACAD_MATERIAL
350
119
  3
ACAD_MLINESTYLE
350
16
  3
ACAD_PLOTSETTINGS
350
18
  3
ACAD_PLOTSTYLENAME
350
E
  3
AcDbVariableDictionary
350
125
  0
DICTIONARY
  5
DB
330
1E
100
AcDbDictionary
280
     1
281
     1
  3
ACAD_LAYOUTSELFREF
360
10F
  0
DICTIONARY
  5
DD
330
1A
100
AcDbDictionary
280
     1
281
     1
  3
ACAD_LAYOUTSELFREF
360
10E
  0
DICTIONARY
  5
11A
102
{ACAD_REACTORS
330
C
102
}
330
C
100
AcDbDictionary
281
     1
  0
DICTIONARY
  5
D
102
{ACAD_REACTORS
330
C
102
}
330
C
100
AcDbDictionary
281
     1
  0
DICTIONARY
  5
19
102
{ACAD_REACTORS
330
C
102
}
330
C
100
AcDbDictionary
281
     1
  3
Layout1
350
1D
  3
Model
350
21
  0
DICTIONARY
  5
119
102
{ACAD_REACTORS
330
C
102
}
330
C
100
AcDbDictionary
281
     1
  0
DICTIONARY
  5
16
102
{ACAD_REACTORS
330
C
102
}
330
C
100
AcDbDictionary
281
     1
  3
Standard
350
17
  0
DICTIONARY
  5
18
102
{ACAD_REACTORS
330
C
102
}
330
C
100
AcDbDictionary
281
     1
  0
ACDBDICTIONARYWDFLT
  5
E
102
{ACAD_REACTORS
330
C
102
}
330
C
100
AcDbDictionary
281
     1
  3
Normal
350
F
100
AcDbDictionaryWithDefault
340
F
  0
DICTIONARY
  5
125
102
{ACAD_REACTORS
330
C
102
}
330
C
100
AcDbDictionary
281
     1
  3
DIMASSOC
350
126
  3
PROJECTNAME
350
127
  0
XRECORD
  5
10F
102
{ACAD_REACTORS
330
DB
102
}
330
DB
100
AcDbXrecord
280
     1
340
1E
  0
XRECORD
  5
10E
102
{ACAD_REACTORS
330
DD
102
}
330
DD
100
AcDbXrecord
280
     1
340
1A
  0
LAYOUT
  5
1D
102
{ACAD_REACTORS
330
19
102
}
330
19
100
AcDbPlotSettings
  1

  2
\\NT_WORK01\HP LaserJet 5000 PCL 6
  4

  6

 40
0.0
 41
0.0
 42
0.0
 43
0.0
 44
0.0
 45
0.0
 46
0.0
 47
0.0
 48
0.0
 49
0.0
140
0.0
141
0.0
142
1.0
143
1.0
 70
   688
 72
     0
 73
     0
 74
     5
  7

 75
    16
147
1.0
 76
     0
 77
     2
 78
   300
148
0.0
149
0.0
100
AcDbLayout
  1
Layout1
 70
     0
 71
     1
 10
0.0
 20
0.0
 11
12.0
 21
9.0
 12
0.0
 22
0.0
 32
0.0
 14
1.000000000000000E+20
 24
1.000000000000000E+20
 34
1.000000000000000E+20
 15
-1.000000000000000E+20
 25
-1.000000000000000E+20
 35
-1.000000000000000E+20
146
0.0
 13
0.0
 23
0.0
 33
0.0
 16
1.0
 26
0.0
 36
0.0
 17
0.0
 27
1.0
 37
0.0
 76
     0
330
1A
  0
LAYOUT
  5
21
102
{ACAD_REACTORS
330
19
102
}
330
19
100
AcDbPlotSettings
  1

  2
none_device
  4
Letter_(8.50_x_11.00_Inches)
  6

 40
6.349999904632568
 41
6.349999904632568
 42
6.350006103515625
 43
6.350006103515625
 44
215.8999938964844
 45
279.3999938964844
 46
0.0
 47
0.0
 48
0.0
 49
0.0
140
0.0
141
0.0
142
1.0
143
1.0
 70
 11952
 72
     0
 73
     1
 74
     0
  7

 75
     0
147
1.0
 76
     0
 77
     2
 78
   300
148
3124.2
149
0.0
100
AcDbLayout
  1
Model
 70
     1
 71
     0
 10
0.0
 20
0.0
 11
12.0
 21
9.0
 12
0.0
 22
0.0
 32
0.0
 14
0.0
 24
0.0
 34
0.0
 15
0.0
 25
0.0
 35
0.0
146
0.0
 13
0.0
 23
0.0
 33
0.0
 16
1.0
 26
0.0
 36
0.0
 17
0.0
 27
1.0
 37
0.0
 76
     0
330
1E
  0
MLINESTYLE
  5
17
102
{ACAD_REACTORS
330
16
102
}
330
16
100
AcDbMlineStyle
  2
STANDARD
 70
     0
  3

 62
   256
 51
90.0
 52
90.0
 71
     2
 49
0.5
 62
   256
  6
BYLAYER
 49
-0.5
 62
   256
  6
BYLAYER
  0
ACDBPLACEHOLDER
  5
F
102
{ACAD_REACTORS
330
E
102
}
330
E
  0
DICTIONARYVAR
  5
126
102
{ACAD_REACTORS
330
125
102
}
330
125
100
DictionaryVariables
280
     0
  1
1
  0
DICTIONARYVAR
  5
127
102
{ACAD_REACTORS
330
125
102
}
330
125
100
DictionaryVariables
280
     0
  1

  0
ENDSEC
  0
EOF
