  0
SECTION
  2
HEADER
  9
$ACADVER
  1
AC1018
  9
$ACADMAINTVER
 70
     2
  9
$DWGCODEPAGE
  3
ANSI_1252
  9
$INSBASE
 10
0.0
 20
0.0
 30
0.0
  9
$EXTMIN
 10
0.0
 20
-0.0000000000000568
 30
0.0
  9
$EXTMAX
 10
594.0
 20
840.0
 30
0.0
  9
$LIMMIN
 10
0.0
 20
0.0
  9
$LIMMAX
 10
594.0
 20
840.0
  9
$ORTHOMODE
 70
     1
  9
$REGENMODE
 70
     1
  9
$FILLMODE
 70
     1
  9
$QTEXTMODE
 70
     0
  9
$MIRRTEXT
 70
     1
  9
$LTSCALE
 40
20.0
  9
$ATTMODE
 70
     1
  9
$TEXTSIZE
 40
3.5
  9
$TRACEWID
 40
1.0
  9
$TEXTSTYLE
  7
STANDARD
  9
$CLAYER
  8
SCHRAFF
  9
$CELTYPE
  6
ByLayer
  9
$CECOLOR
 62
   256
  9
$CELTSCALE
 40
1.0
  9
$DISPSILH
 70
     0
  9
$DIMSCALE
 40
2.0
  9
$DIMASZ
 40
3.5
  9
$DIMEXO
 40
1.0
  9
$DIMDLI
 40
7.0
  9
$DIMRND
 40
0.0
  9
$DIMDLE
 40
0.0
  9
$DIMEXE
 40
1.0
  9
$DIMTP
 40
0.0
  9
$DIMTM
 40
0.0
  9
$DIMTXT
 40
3.5
  9
$DIMCEN
 40
1.5
  9
$DIMTSZ
 40
0.0
  9
$DIMTOL
 70
     0
  9
$DIMLIM
 70
     0
  9
$DIMTIH
 70
     0
  9
$DIMTOH
 70
     0
  9
$DIMSE1
 70
     0
  9
$DIMSE2
 70
     0
  9
$DIMTAD
 70
     1
  9
$DIMZIN
 70
     8
  9
$DIMBLK
  1

  9
$DIMASO
 70
     1
  9
$DIMSHO
 70
     0
  9
$DIMPOST
  1

  9
$DIMAPOST
  1

  9
$DIMALT
 70
     0
  9
$DIMALTD
 70
     2
  9
$DIMALTF
 40
25.4
  9
$DIMLFAC
 40
1.0
  9
$DIMTOFL
 70
     1
  9
$DIMTVP
 40
0.0
  9
$DIMTIX
 70
     0
  9
$DIMSOXD
 70
     0
  9
$DIMSAH
 70
     0
  9
$DIMBLK1
  1

  9
$DIMBLK2
  1

  9
$DIMSTYLE
  2
Standard
  9
$DIMCLRD
 70
     0
  9
$DIMCLRE
 70
     0
  9
$DIMCLRT
 70
     1
  9
$DIMTFAC
 40
0.5142857142857144
  9
$DIMGAP
 40
1.5
  9
$DIMJUST
 70
     0
  9
$DIMSD1
 70
     0
  9
$DIMSD2
 70
     0
  9
$DIMTOLJ
 70
     1
  9
$DIMTZIN
 70
     8
  9
$DIMALTZ
 70
     8
  9
$DIMALTTZ
 70
     8
  9
$DIMUPT
 70
     0
  9
$DIMDEC
 70
     2
  9
$DIMTDEC
 70
     2
  9
$DIMALTU
 70
     2
  9
$DIMALTTD
 70
     2
  9
$DIMTXSTY
  7
STANDARD
  9
$DIMAUNIT
 70
     0
  9
$DIMADEC
 70
     2
  9
$DIMALTRND
 40
0.0
  9
$DIMAZIN
 70
     2
  9
$DIMDSEP
 70
    46
  9
$DIMATFIT
 70
     3
  9
$DIMFRAC
 70
     0
  9
$DIMLDRBLK
  1

  9
$DIMLUNIT
 70
     2
  9
$DIMLWD
 70
    -2
  9
$DIMLWE
 70
    -2
  9
$DIMTMOVE
 70
     0
  9
$LUNITS
 70
     2
  9
$LUPREC
 70
     2
  9
$SKETCHINC
 40
1.0
  9
$FILLETRAD
 40
0.0
  9
$AUNITS
 70
     0
  9
$AUPREC
 70
     0
  9
$MENU
  1
ACAD
  9
$ELEVATION
 40
0.0
  9
$PELEVATION
 40
0.0
  9
$THICKNESS
 40
0.0
  9
$LIMCHECK
 70
     0
  9
$CHAMFERA
 40
0.0
  9
$CHAMFERB
 40
0.0
  9
$CHAMFERC
 40
0.0
  9
$CHAMFERD
 40
0.0
  9
$SKPOLY
 70
     0
  9
$TDCREATE
 40
2455397.825393172
  9
$TDUCREATE
 40
2455397.783726505
  9
$TDUPDATE
 40
2455593.605691655
  9
$TDUUPDATE
 40
2455593.564024989
  9
$TDINDWG
 40
0.0851386690
  9
$TDUSRTIMER
 40
0.0851386690
  9
$USRTIMER
 70
     1
  9
$ANGBASE
 50
0.0
  9
$ANGDIR
 70
     0
  9
$PDMODE
 70
     0
  9
$PDSIZE
 40
0.0
  9
$PLINEWID
 40
0.0
  9
$SPLFRAME
 70
     0
  9
$SPLINETYPE
 70
     6
  9
$SPLINESEGS
 70
     8
  9
$HANDSEED
  5
E83
  9
$SURFTAB1
 70
     6
  9
$SURFTAB2
 70
     6
  9
$SURFTYPE
 70
     6
  9
$SURFU
 70
     6
  9
$SURFV
 70
     6
  9
$UCSBASE
  2

  9
$UCSNAME
  2

  9
$UCSORG
 10
0.0
 20
0.0
 30
0.0
  9
$UCSXDIR
 10
1.0
 20
0.0
 30
0.0
  9
$UCSYDIR
 10
0.0
 20
1.0
 30
0.0
  9
$UCSORTHOREF
  2

  9
$UCSORTHOVIEW
 70
     0
  9
$UCSORGTOP
 10
0.0
 20
0.0
 30
0.0
  9
$UCSORGBOTTOM
 10
0.0
 20
0.0
 30
0.0
  9
$UCSORGLEFT
 10
0.0
 20
0.0
 30
0.0
  9
$UCSORGRIGHT
 10
0.0
 20
0.0
 30
0.0
  9
$UCSORGFRONT
 10
0.0
 20
0.0
 30
0.0
  9
$UCSORGBACK
 10
0.0
 20
0.0
 30
0.0
  9
$PUCSBASE
  2

  9
$PUCSNAME
  2

  9
$PUCSORG
 10
0.0
 20
0.0
 30
0.0
  9
$PUCSXDIR
 10
1.0
 20
0.0
 30
0.0
  9
$PUCSYDIR
 10
0.0
 20
1.0
 30
0.0
  9
$PUCSORTHOREF
  2

  9
$PUCSORTHOVIEW
 70
     0
  9
$PUCSORGTOP
 10
0.0
 20
0.0
 30
0.0
  9
$PUCSORGBOTTOM
 10
0.0
 20
0.0
 30
0.0
  9
$PUCSORGLEFT
 10
0.0
 20
0.0
 30
0.0
  9
$PUCSORGRIGHT
 10
0.0
 20
0.0
 30
0.0
  9
$PUCSORGFRONT
 10
0.0
 20
0.0
 30
0.0
  9
$PUCSORGBACK
 10
0.0
 20
0.0
 30
0.0
  9
$USERI1
 70
     0
  9
$USERI2
 70
     0
  9
$USERI3
 70
     0
  9
$USERI4
 70
     0
  9
$USERI5
 70
     0
  9
$USERR1
 40
0.0
  9
$USERR2
 40
0.0
  9
$USERR3
 40
0.0
  9
$USERR4
 40
0.0
  9
$USERR5
 40
0.0
  9
$WORLDVIEW
 70
     1
  9
$SHADEDGE
 70
     3
  9
$SHADEDIF
 70
    70
  9
$TILEMODE
 70
     1
  9
$MAXACTVP
 70
    16
  9
$PINSBASE
 10
0.0
 20
0.0
 30
0.0
  9
$PLIMCHECK
 70
     0
  9
$PEXTMIN
 10
1.000000000000000E+20
 20
1.000000000000000E+20
 30
1.000000000000000E+20
  9
$PEXTMAX
 10
-1.000000000000000E+20
 20
-1.000000000000000E+20
 30
-1.000000000000000E+20
  9
$PLIMMIN
 10
0.0
 20
0.0
  9
$PLIMMAX
 10
12.0
 20
9.0
  9
$UNITMODE
 70
     0
  9
$VISRETAIN
 70
     0
  9
$PLINEGEN
 70
     0
  9
$PSLTSCALE
 70
     0
  9
$TREEDEPTH
 70
  3020
  9
$CMLSTYLE
  2
Standard
  9
$CMLJUST
 70
     0
  9
$CMLSCALE
 40
1.0
  9
$PROXYGRAPHICS
 70
     1
  9
$MEASUREMENT
 70
     0
  9
$CELWEIGHT
370
    -1
  9
$ENDCAPS
280
     0
  9
$JOINSTYLE
280
     0
  9
$LWDISPLAY
290
     0
  9
$INSUNITS
 70
     0
  9
$HYPERLINKBASE
  1

  9
$STYLESHEET
  1
monochrome 1.ctb
  9
$XEDIT
290
     1
  9
$CEPSNTYPE
380
     0
  9
$PSTYLEMODE
290
     1
  9
$FINGERPRINTGUID
  2
{D68B0D0D-A558-11D7-B632-000102183313}
  9
$VERSIONGUID
  2
{1FA016C6-57B7-492A-93A2-93546B54AD71}
  9
$EXTNAMES
290
     1
  9
$PSVPSCALE
 40
0.0
  9
$OLESTARTUP
290
     0
  9
$SORTENTS
280
   127
  9
$INDEXCTL
280
     0
  9
$HIDETEXT
280
     0
  9
$XCLIPFRAME
290
     0
  9
$HALOGAP
280
     0
  9
$OBSCOLOR
 70
   257
  9
$OBSLTYPE
280
     0
  9
$INTERSECTIONDISPLAY
280
     0
  9
$INTERSECTIONCOLOR
 70
   257
  9
$DIMASSOC
280
     1
  9
$PROJECTNAME
  1

  0
ENDSEC
  0
SECTION
  2
CLASSES
  0
CLASS
  1
ACDBDICTIONARYWDFLT
  2
AcDbDictionaryWithDefault
  3
ObjectDBX Classes
 90
        0
 91
        1
280
     0
281
     0
  0
CLASS
  1
DICTIONARYVAR
  2
AcDbDictionaryVar
  3
ObjectDBX Classes
 90
        0
 91
        2
280
     0
281
     0
  0
ENDSEC
  0
SECTION
  2
TABLES
  0
TABLE
  2
VPORT
  5
8
330
0
100
AcDbSymbolTable
 70
     2
  0
VPORT
  5
E82
330
8
100
AcDbSymbolTableRecord
100
AcDbViewportTableRecord
  2
*Active
 70
     0
 10
0.0
 20
0.0
 11
1.0
 21
1.0
 12
296.9999999999999
 22
420.0
 13
0.0
 23
0.0
 14
1.0
 24
1.0
 15
10.0
 25
10.0
 16
0.0
 26
0.0
 36
1.0
 17
0.0
 27
0.0
 37
0.0
 40
840.1592458425573
 41
1.336927223719676
 42
50.0
 43
0.0
 44
0.0
 50
0.0
 51
0.0
 71
     0
 72
  1500
 73
     1
 74
     0
 75
     0
 76
     0
 77
     0
 78
     0
281
     0
 65
     1
110
0.0
120
0.0
130
0.0
111
1.0
121
0.0
131
0.0
112
0.0
122
1.0
132
0.0
 79
     0
146
0.0
  0
ENDTAB
  0
TABLE
  2
LTYPE
  5
5
330
0
100
AcDbSymbolTable
 70
     3
  0
LTYPE
  5
13
330
5
100
AcDbSymbolTableRecord
100
AcDbLinetypeTableRecord
  2
ByBlock
 70
     0
  3

 72
    65
 73
     0
 40
0.0
  0
LTYPE
  5
14
330
5
100
AcDbSymbolTableRecord
100
AcDbLinetypeTableRecord
  2
ByLayer
 70
     0
  3

 72
    65
 73
     0
 40
0.0
  0
LTYPE
  5
15
330
5
100
AcDbSymbolTableRecord
100
AcDbLinetypeTableRecord
  2
Continuous
 70
     0
  3
Solid line
 72
    65
 73
     0
 40
0.0
  0
LTYPE
  5
25
330
5
100
AcDbSymbolTableRecord
100
AcDbLinetypeTableRecord
  2
STRICHPUNKT
 70
     0
  3
__ . __ . __ . __ . __ . __ . __ . __ . __ . __
 72
    65
 73
     4
 40
1.0
 49
0.5
 74
     0
 49
-0.25
 74
     0
 49
0.0
 74
     0
 49
-0.25
 74
     0
  0
LTYPE
  5
34
330
5
100
AcDbSymbolTableRecord
100
AcDbLinetypeTableRecord
  2
AUSGEZOGEN
 70
     0
  3
Ausgezogene Linie
 72
    65
 73
     0
 40
0.0
  0
ENDTAB
  0
TABLE
  2
LAYER
  5
2
330
0
100
AcDbSymbolTable
 70
     9
  0
LAYER
  5
10
330
2
100
AcDbSymbolTableRecord
100
AcDbLayerTableRecord
  2
0
 70
     0
 62
     7
  6
Continuous
370
    -3
390
F
  0
LAYER
  5
2B
330
2
100
AcDbSymbolTableRecord
100
AcDbLayerTableRecord
  2
VOLL
 70
     0
 62
     1
  6
Continuous
370
    -3
390
F
  0
LAYER
  5
2C
330
2
100
AcDbSymbolTableRecord
100
AcDbLayerTableRecord
  2
HILF
 70
     0
 62
     2
  6
Continuous
370
    -3
390
F
  0
LAYER
  5
2D
330
2
100
AcDbSymbolTableRecord
100
AcDbLayerTableRecord
  2
MITTEL
 70
     0
 62
     2
  6
STRICHPUNKT
370
    -3
390
F
  0
LAYER
  5
2F
330
2
100
AcDbSymbolTableRecord
100
AcDbLayerTableRecord
  2
BEM
 70
     0
 62
     7
  6
Continuous
370
    -3
390
F
  0
LAYER
  5
30
330
2
100
AcDbSymbolTableRecord
100
AcDbLayerTableRecord
  2
STEMPEL
 70
     0
 62
     3
  6
Continuous
370
    -3
390
F
  0
LAYER
  5
33
330
2
100
AcDbSymbolTableRecord
100
AcDbLayerTableRecord
  2
TEXT
 70
     0
 62
     7
  6
Continuous
370
    -3
390
F
  0
LAYER
  5
1DD
330
2
100
AcDbSymbolTableRecord
100
AcDbLayerTableRecord
  2
DEFPOINTS
 70
     0
 62
     7
  6
AUSGEZOGEN
290
     0
370
    -3
390
F
  0
LAYER
  5
1DE
330
2
100
AcDbSymbolTableRecord
100
AcDbLayerTableRecord
  2
SCHRAFF
 70
     0
 62
     7
  6
AUSGEZOGEN
370
    -3
390
F
  0
ENDTAB
  0
TABLE
  2
STYLE
  5
3
330
0
100
AcDbSymbolTable
 70
     2
  0
STYLE
  5
11
330
3
100
AcDbSymbolTableRecord
100
AcDbTextStyleTableRecord
  2
STANDARD
 70
     0
 40
0.0
 41
0.8
 50
0.0
 71
     0
 42
3.5
  3
simplex.shx
  4

  0
STYLE
  5
24
330
3
100
AcDbSymbolTableRecord
100
AcDbTextStyleTableRecord
  2
GREEKS
 70
     0
 40
0.0
 41
0.8
 50
0.0
 71
     0
 42
2.5
  3
SIMPLEX.shx
  4

  0
ENDTAB
  0
TABLE
  2
VIEW
  5
6
330
0
100
AcDbSymbolTable
 70
     0
  0
ENDTAB
  0
TABLE
  2
UCS
  5
7
330
0
100
AcDbSymbolTable
 70
     0
  0
ENDTAB
  0
TABLE
  2
APPID
  5
9
330
0
100
AcDbSymbolTable
 70
     1
  0
APPID
  5
12
330
9
100
AcDbSymbolTableRecord
100
AcDbRegAppTableRecord
  2
ACAD
 70
     0
  0
ENDTAB
  0
TABLE
  2
DIMSTYLE
  5
A
330
0
100
AcDbSymbolTable
 70
     1
100
AcDbDimStyleTable
 71
     1
340
A2
  0
DIMSTYLE
105
A2
102
{ACAD_REACTORS
330
B14
330
981
330
982
330
989
330
AE2
330
CA5
330
CA7
330
CAC
102
}
330
A
100
AcDbSymbolTableRecord
100
AcDbDimStyleTableRecord
  2
Standard
 70
     0
340
11
  0
ENDTAB
  0
TABLE
  2
BLOCK_RECORD
  5
1
330
0
100
AcDbSymbolTable
 70
    11
  0
BLOCK_RECORD
  5
1E
102
{ACAD_XDICTIONARY
360
DB
102
}
330
1
100
AcDbSymbolTableRecord
100
AcDbBlockTableRecord
  2
*Model_Space
340
21
  0
BLOCK_RECORD
  5
1A
102
{ACAD_XDICTIONARY
360
DD
102
}
330
1
100
AcDbSymbolTableRecord
100
AcDbBlockTableRecord
  2
*Paper_Space
340
1D
  0
BLOCK_RECORD
  5
22
330
1
100
AcDbSymbolTableRecord
100
AcDbBlockTableRecord
  2
LOGO
340
0
102
{BLKREFS
331
56
102
}
  0
BLOCK_RECORD
  5
23
330
1
100
AcDbSymbolTableRecord
100
AcDbBlockTableRecord
  2
LORO
340
0
102
{BLKREFS
331
9B
102
}
  0
BLOCK_RECORD
  5
721
330
1
100
AcDbSymbolTableRecord
100
AcDbBlockTableRecord
  2
*X2
340
0
102
{BLKREFS
331
A86
102
}
  0
BLOCK_RECORD
  5
B2D
330
1
100
AcDbSymbolTableRecord
100
AcDbBlockTableRecord
  2
*D3
340
0
  0
BLOCK_RECORD
  5
B39
330
1
100
AcDbSymbolTableRecord
100
AcDbBlockTableRecord
  2
*D4
340
0
  0
BLOCK_RECORD
  5
B45
330
1
100
AcDbSymbolTableRecord
100
AcDbBlockTableRecord
  2
*D5
340
0
  0
BLOCK_RECORD
  5
B51
330
1
100
AcDbSymbolTableRecord
100
AcDbBlockTableRecord
  2
*D6
340
0
  0
BLOCK_RECORD
  5
B5D
330
1
100
AcDbSymbolTableRecord
100
AcDbBlockTableRecord
  2
*D7
340
0
  0
BLOCK_RECORD
  5
CB4
330
1
100
AcDbSymbolTableRecord
100
AcDbBlockTableRecord
  2
*D8
340
0
  0
BLOCK_RECORD
  5
CC0
330
1
100
AcDbSymbolTableRecord
100
AcDbBlockTableRecord
  2
*D9
340
0
  0
BLOCK_RECORD
  5
CCC
330
1
100
AcDbSymbolTableRecord
100
AcDbBlockTableRecord
  2
*D10
340
0
  0
ENDTAB
  0
ENDSEC
  0
SECTION
  2
BLOCKS
  0
BLOCK
  5
37
330
1E
100
AcDbEntity
  8
0
100
AcDbBlockBegin
  2
*Model_Space
 70
     0
 10
0.0
 20
0.0
 30
0.0
  3
*Model_Space
  1

  0
ENDBLK
  5
38
330
1E
100
AcDbEntity
  8
0
100
AcDbBlockEnd
  0
BLOCK
  5
35
330
1A
100
AcDbEntity
 67
     1
  8
0
100
AcDbBlockBegin
  2
*Paper_Space
 70
     0
 10
0.0
 20
0.0
 30
0.0
  3
*Paper_Space
  1

  0
ENDBLK
  5
36
330
1A
100
AcDbEntity
 67
     1
  8
0
100
AcDbBlockEnd
  0
BLOCK
  5
39
330
22
100
AcDbEntity
  8
0
100
AcDbBlockBegin
  2
LOGO
 70
     0
 10
0.0
 20
0.0
 30
0.0
  3
LOGO
  1

  0
ARC
  5
3A
330
22
100
AcDbEntity
  8
0
100
AcDbCircle
 10
11.59973089678112
 20
-9.271599258481501
 30
0.0
 40
4.5
100
AcDbArc
 50
270.0
 51
231.0575587310159
  0
LINE
  5
3B
330
22
100
AcDbEntity
  8
0
100
AcDbLine
 10
3.599730896781125
 20
-4.771599258481529
 30
0.0
 11
3.599730896781153
 21
-11.77159925848133
 31
0.0
  0
LINE
  5
3C
330
22
100
AcDbEntity
  8
0
100
AcDbLine
 10
2.599730896781125
 20
-4.771599258481529
 30
0.0
 11
2.599730896781153
 21
-11.77159925848133
 31
0.0
  0
CIRCLE
  5
3D
330
22
100
AcDbEntity
  8
0
100
AcDbCircle
 10
11.59973089678112
 20
-9.271599258481501
 30
0.0
 40
3.5
  0
ARC
  5
3E
330
22
100
AcDbEntity
  8
0
100
AcDbCircle
 10
31.59973089678115
 20
-9.271599258481472
 30
0.0
 40
4.5
100
AcDbArc
 50
270.0
 51
231.0575587310182
  0
LINE
  5
3F
330
22
100
AcDbEntity
  8
0
100
AcDbLine
 10
17.59973089678112
 20
-4.771599258481472
 30
0.0
 11
17.59973089678115
 21
-13.77159925848147
 31
0.0
  0
ARC
  5
40
330
22
100
AcDbEntity
  8
0
100
AcDbCircle
 10
22.59973089678116
 20
-7.271599258481472
 30
0.0
 40
2.5
100
AcDbArc
 50
293.1161887722295
 51
90.0
  0
CIRCLE
  5
41
330
22
100
AcDbEntity
  8
0
100
AcDbCircle
 10
31.59973089678115
 20
-9.271599258481472
 30
0.0
 40
3.5
  0
ARC
  5
42
330
22
100
AcDbEntity
  8
0
100
AcDbCircle
 10
4.599730896781153
 20
-11.77159925848133
 30
0.0
 40
1.0
100
AcDbArc
 50
180.0
 51
270.0
  0
ARC
  5
43
330
22
100
AcDbEntity
  8
0
100
AcDbCircle
 10
4.599730896781153
 20
-11.77159925848133
 30
0.0
 40
2.0
100
AcDbArc
 50
179.9999999999992
 51
270.0
  0
LINE
  5
44
330
22
100
AcDbEntity
  8
0
100
AcDbLine
 10
11.59973089678115
 20
-13.77159925848144
 30
0.0
 11
4.599730896781153
 21
-13.77159925848147
 31
0.0
  0
LINE
  5
45
330
22
100
AcDbEntity
  8
0
100
AcDbLine
 10
8.771303772034769
 20
-12.77159925848136
 30
0.0
 11
4.599730896781153
 21
-12.77159925848133
 31
0.0
  0
LINE
  5
46
330
22
100
AcDbEntity
  8
0
100
AcDbLine
 10
31.59973089678115
 20
-13.77159925848147
 30
0.0
 11
23.6715276665056
 21
-13.77159925848144
 31
0.0
  0
LINE
  5
47
330
22
100
AcDbEntity
  8
0
100
AcDbLine
 10
23.56565672307022
 20
-9.51278021337896
 30
0.0
 11
24.4388546544846
 21
-12.77159925848144
 31
0.0
  0
LINE
  5
48
330
22
100
AcDbEntity
  8
0
100
AcDbLine
 10
22.59973089678116
 20
-9.771599258481472
 30
0.0
 11
18.59973089678112
 21
-9.771599258481472
 31
0.0
  0
LINE
  5
49
330
22
100
AcDbEntity
  8
0
100
AcDbLine
 10
18.59973089678115
 20
-13.77159925848144
 30
0.0
 11
17.59973089678115
 21
-13.77159925848144
 31
0.0
  0
LINE
  5
4A
330
22
100
AcDbEntity
  8
0
100
AcDbLine
 10
18.59973089678115
 20
-9.771599258481472
 30
0.0
 11
18.59973089678115
 21
-13.77159925848144
 31
0.0
  0
LINE
  5
4B
330
22
100
AcDbEntity
  8
0
100
AcDbLine
 10
22.59973089678116
 20
-9.771599258481472
 30
0.0
 11
23.67152766650562
 21
-13.77159925848147
 31
0.0
  0
ARC
  5
4C
330
22
100
AcDbEntity
  8
0
100
AcDbCircle
 10
22.59973089678116
 20
-7.271599258481472
 30
0.0
 40
2.5
100
AcDbArc
 50
270.0
 51
270.0000000000007
  0
LINE
  5
4D
330
22
100
AcDbEntity
  8
0
100
AcDbLine
 10
28.77130377203494
 20
-12.77159925848147
 30
0.0
 11
24.43885465448463
 21
-12.77159925848144
 31
0.0
  0
LINE
  5
4E
330
22
100
AcDbEntity
  8
0
100
AcDbLine
 10
3.599730896781125
 20
-4.771599258481472
 30
0.0
 11
2.599730896781125
 21
-4.771599258481472
 31
0.0
  0
LINE
  5
4F
330
22
100
AcDbEntity
  8
0
100
AcDbLine
 10
22.59973089678116
 20
-8.771599258481472
 30
0.0
 11
18.59973089678115
 21
-8.771599258481472
 31
0.0
  0
LINE
  5
50
330
22
100
AcDbEntity
  8
0
100
AcDbLine
 10
22.59973089678116
 20
-5.771599258481472
 30
0.0
 11
18.59973089678115
 21
-5.771599258481472
 31
0.0
  0
LINE
  5
51
330
22
100
AcDbEntity
  8
0
100
AcDbLine
 10
22.59973089678116
 20
-4.771599258481472
 30
0.0
 11
17.59973089678115
 21
-4.771599258481472
 31
0.0
  0
LINE
  5
52
330
22
100
AcDbEntity
  8
0
100
AcDbLine
 10
18.59973089678115
 20
-5.771599258481472
 30
0.0
 11
18.59973089678115
 21
-8.771599258481472
 31
0.0
  0
ARC
  5
53
330
22
100
AcDbEntity
  8
0
100
AcDbCircle
 10
22.59973089678116
 20
-7.271599258481472
 30
0.0
 40
1.5
100
AcDbArc
 50
270.0
 51
90.0
  0
ENDBLK
  5
54
330
22
100
AcDbEntity
  8
0
100
AcDbBlockEnd
  0
BLOCK
  5
55
330
23
100
AcDbEntity
  8
0
100
AcDbBlockBegin
  2
LORO
 70
     0
 10
0.0
 20
0.0
 30
0.0
  3
LORO
  1

  0
INSERT
  5
56
330
23
100
AcDbEntity
  8
STEMPEL
100
AcDbBlockReference
  2
LOGO
 10
-1.748032802467321
 20
3.771489518552062
 30
0.0
  0
ENDBLK
  5
57
330
23
100
AcDbEntity
  8
0
100
AcDbBlockEnd
  0
BLOCK
  5
722
330
721
100
AcDbEntity
  8
0
100
AcDbBlockBegin
  2
*X2
 70
     1
 10
0.0
 20
0.0
 30
0.0
  3
*X2
  1

  0
LINE
  5
723
330
721
100
AcDbEntity
  8
SCHRAFF
 62
     0
100
AcDbLine
 10
361.3530656954375
 20
428.5282099081594
 30
0.0
 11
362.3530656954376
 21
429.5282099081595
 31
0.0
  0
LINE
  5
724
330
721
100
AcDbEntity
  8
SCHRAFF
 62
     0
100
AcDbLine
 10
350.7464639776393
 20
428.5282099081594
 30
0.0
 11
351.7464639776398
 21
429.52820990816
 31
0.0
  0
LINE
  5
725
330
721
100
AcDbEntity
  8
SCHRAFF
 62
     0
100
AcDbLine
 10
347.536101489645
 20
428.8533813260979
 30
0.0
 11
348.3429835939319
 21
429.6602634303847
 31
0.0
  0
LINE
  5
726
330
721
100
AcDbEntity
  8
SCHRAFF
 62
     0
100
AcDbLine
 10
345.3383891982183
 20
430.1912029406039
 30
0.0
 11
346.0457107741778
 21
430.8985245165633
 31
0.0
  0
LINE
  5
727
330
721
100
AcDbEntity
  8
SCHRAFF
 62
     0
100
AcDbLine
 10
343.9130455377835
 20
432.3013931861019
 30
0.0
 11
344.6971737132816
 21
433.0855213616
 31
0.0
  0
LINE
  5
728
330
721
100
AcDbEntity
  8
SCHRAFF
 62
     0
100
AcDbLine
 10
343.4845163746778
 20
435.4083979289289
 30
0.0
 11
344.4845163746779
 21
436.408397928929
 31
0.0
  0
LINE
  5
729
330
721
100
AcDbEntity
  8
SCHRAFF
 62
     0
100
AcDbLine
 10
343.4845163746778
 20
438.9439318348616
 30
0.0
 11
344.4845163746779
 21
439.9439318348616
 31
0.0
  0
LINE
  5
72A
330
721
100
AcDbEntity
  8
SCHRAFF
 62
     0
100
AcDbLine
 10
343.4845163746777
 20
442.4794657407942
 30
0.0
 11
344.4845163746779
 21
443.4794657407945
 31
0.0
  0
LINE
  5
72B
330
721
100
AcDbEntity
  8
SCHRAFF
 62
     0
100
AcDbLine
 10
343.4845163746778
 20
446.0149996467271
 30
0.0
 11
344.4845163746779
 21
447.0149996467272
 31
0.0
  0
LINE
  5
72C
330
721
100
AcDbEntity
  8
SCHRAFF
 62
     0
100
AcDbLine
 10
343.4845163746778
 20
449.5505335526598
 30
0.0
 11
344.4845163746779
 21
450.5505335526598
 31
0.0
  0
LINE
  5
72D
330
721
100
AcDbEntity
  8
SCHRAFF
 62
     0
100
AcDbLine
 10
343.4845163746778
 20
453.0860674585926
 30
0.0
 11
344.4845163746779
 21
454.0860674585927
 31
0.0
  0
LINE
  5
72E
330
721
100
AcDbEntity
  8
SCHRAFF
 62
     0
100
AcDbLine
 10
343.4845163746777
 20
456.6216013645252
 30
0.0
 11
344.4845163746779
 21
457.6216013645254
 31
0.0
  0
LINE
  5
72F
330
721
100
AcDbEntity
  8
SCHRAFF
 62
     0
100
AcDbLine
 10
343.4845163746777
 20
460.157135270458
 30
0.0
 11
344.4845163746779
 21
461.1571352704581
 31
0.0
  0
LINE
  5
730
330
721
100
AcDbEntity
  8
SCHRAFF
 62
     0
100
AcDbLine
 10
343.4845163746778
 20
463.6926691763907
 30
0.0
 11
344.4845163746779
 21
464.6926691763908
 31
0.0
  0
LINE
  5
731
330
721
100
AcDbEntity
  8
SCHRAFF
 62
     0
100
AcDbLine
 10
343.4845163746777
 20
467.2282030823234
 30
0.0
 11
344.4845163746779
 21
468.2282030823236
 31
0.0
  0
LINE
  5
732
330
721
100
AcDbEntity
  8
SCHRAFF
 62
     0
100
AcDbLine
 10
343.4845163746777
 20
470.7637369882561
 30
0.0
 11
344.4845163746779
 21
471.7637369882563
 31
0.0
  0
LINE
  5
733
330
721
100
AcDbEntity
  8
SCHRAFF
 62
     0
100
AcDbLine
 10
343.4845163746777
 20
474.299270894189
 30
0.0
 11
344.4845163746779
 21
475.2992708941891
 31
0.0
  0
LINE
  5
734
330
721
100
AcDbEntity
  8
SCHRAFF
 62
     0
100
AcDbLine
 10
343.4845163746778
 20
477.8348048001216
 30
0.0
 11
344.4845163746779
 21
478.8348048001218
 31
0.0
  0
LINE
  5
735
330
721
100
AcDbEntity
  8
SCHRAFF
 62
     0
100
AcDbLine
 10
343.4845163746778
 20
481.3703387060544
 30
0.0
 11
344.4845163746779
 21
482.3703387060545
 31
0.0
  0
LINE
  5
736
330
721
100
AcDbEntity
  8
SCHRAFF
 62
     0
100
AcDbLine
 10
343.4845163746777
 20
484.9058726119871
 30
0.0
 11
344.4845163746779
 21
485.9058726119873
 31
0.0
  0
LINE
  5
737
330
721
100
AcDbEntity
  8
SCHRAFF
 62
     0
100
AcDbLine
 10
343.4845163746778
 20
488.4414065179199
 30
0.0
 11
344.4845163746779
 21
489.44140651792
 31
0.0
  0
LINE
  5
738
330
721
100
AcDbEntity
  8
SCHRAFF
 62
     0
100
AcDbLine
 10
343.4845163746778
 20
491.9769404238526
 30
0.0
 11
344.4845163746779
 21
492.9769404238527
 31
0.0
  0
LINE
  5
739
330
721
100
AcDbEntity
  8
SCHRAFF
 62
     0
100
AcDbLine
 10
343.4845163746778
 20
495.5124743297854
 30
0.0
 11
344.4845163746779
 21
496.5124743297855
 31
0.0
  0
LINE
  5
73A
330
721
100
AcDbEntity
  8
SCHRAFF
 62
     0
100
AcDbLine
 10
343.4599269805499
 20
499.0234188415903
 30
0.0
 11
344.3276533245371
 21
499.8911451855775
 31
0.0
  0
LINE
  5
73B
330
721
100
AcDbEntity
  8
SCHRAFF
 62
     0
100
AcDbLine
 10
342.4606660313685
 20
501.5596917983416
 30
0.0
 11
343.1730907250824
 21
502.2721164920555
 31
0.0
  0
LINE
  5
73C
330
721
100
AcDbEntity
  8
SCHRAFF
 62
     0
100
AcDbLine
 10
340.5040494148713
 20
503.1386090877771
 30
0.0
 11
341.2352235009612
 21
503.869783173867
 31
0.0
  0
LINE
  5
73D
330
721
100
AcDbEntity
  8
SCHRAFF
 62
     0
100
AcDbLine
 10
338.2710799496559
 20
504.4411735284945
 30
0.0
 11
339.0022547182668
 21
505.1723482971054
 31
0.0
  0
LINE
  5
73E
330
721
100
AcDbEntity
  8
SCHRAFF
 62
     0
100
AcDbLine
 10
336.0381104844405
 20
505.7437379692118
 30
0.0
 11
336.7692859355724
 21
506.4749134203437
 31
0.0
  0
LINE
  5
73F
330
721
100
AcDbEntity
  8
SCHRAFF
 62
     0
100
AcDbLine
 10
333.8051410192252
 20
507.0463024099292
 30
0.0
 11
334.5363171528782
 21
507.7774785435821
 31
0.0
  0
LINE
  5
740
330
721
100
AcDbEntity
  8
SCHRAFF
 62
     0
100
AcDbLine
 10
331.5721715540097
 20
508.3488668506464
 30
0.0
 11
332.3033483701837
 21
509.0800436668205
 31
0.0
  0
LINE
  5
741
330
721
100
AcDbEntity
  8
SCHRAFF
 62
     0
100
AcDbLine
 10
329.3392020887944
 20
509.6514312913639
 30
0.0
 11
330.0703795874893
 21
510.3826087900587
 31
0.0
  0
LINE
  5
742
330
721
100
AcDbEntity
  8
SCHRAFF
 62
     0
100
AcDbLine
 10
327.106232623579
 20
510.9539957320812
 30
0.0
 11
327.8374108047949
 21
511.6851739132972
 31
0.0
  0
LINE
  5
743
330
721
100
AcDbEntity
  8
SCHRAFF
 62
     0
100
AcDbLine
 10
324.8732631583637
 20
512.2565601727987
 30
0.0
 11
325.6044420221004
 21
512.9877390365354
 31
0.0
  0
LINE
  5
744
330
721
100
AcDbEntity
  8
SCHRAFF
 62
     0
100
AcDbLine
 10
322.6402936931483
 20
513.559124613516
 30
0.0
 11
323.3714732394061
 21
514.2903041597738
 31
0.0
  0
LINE
  5
745
330
721
100
AcDbEntity
  8
SCHRAFF
 62
     0
100
AcDbLine
 10
320.4073242279329
 20
514.8616890542333
 30
0.0
 11
321.1385044567117
 21
515.5928692830122
 31
0.0
  0
LINE
  5
746
330
721
100
AcDbEntity
  8
SCHRAFF
 62
     0
100
AcDbLine
 10
318.1743547627175
 20
516.1642534949508
 30
0.0
 11
318.9055356740174
 21
516.8954344062505
 31
0.0
  0
LINE
  5
747
330
721
100
AcDbEntity
  8
SCHRAFF
 62
     0
100
AcDbLine
 10
315.820881490301
 20
517.3463141284669
 30
0.0
 11
316.6126742455683
 21
518.1381068837342
 31
0.0
  0
LINE
  5
748
330
721
100
AcDbEntity
  8
SCHRAFF
 62
     0
100
AcDbLine
 10
312.4672433640608
 20
517.5282099081595
 30
0.0
 11
313.4672433640607
 21
518.5282099081594
 31
0.0
  0
LINE
  5
749
330
721
100
AcDbEntity
  8
SCHRAFF
 62
     0
100
AcDbLine
 10
308.9317094581281
 20
517.5282099081595
 30
0.0
 11
309.931709458128
 21
518.5282099081594
 31
0.0
  0
LINE
  5
74A
330
721
100
AcDbEntity
  8
SCHRAFF
 62
     0
100
AcDbLine
 10
305.3961755521953
 20
517.5282099081595
 30
0.0
 11
306.3961755521952
 21
518.5282099081594
 31
0.0
  0
LINE
  5
74B
330
721
100
AcDbEntity
  8
SCHRAFF
 62
     0
100
AcDbLine
 10
301.8606416462625
 20
517.5282099081593
 30
0.0
 11
302.8606416462625
 21
518.5282099081594
 31
0.0
  0
LINE
  5
74C
330
721
100
AcDbEntity
  8
SCHRAFF
 62
     0
100
AcDbLine
 10
298.3251077403297
 20
517.5282099081593
 30
0.0
 11
299.3251077403297
 21
518.5282099081594
 31
0.0
  0
LINE
  5
74D
330
721
100
AcDbEntity
  8
SCHRAFF
 62
     0
100
AcDbLine
 10
294.789573834397
 20
517.5282099081593
 30
0.0
 11
295.789573834397
 21
518.5282099081594
 31
0.0
  0
LINE
  5
74E
330
721
100
AcDbEntity
  8
SCHRAFF
 62
     0
100
AcDbLine
 10
291.2540399284642
 20
517.5282099081593
 30
0.0
 11
292.2540399284642
 21
518.5282099081594
 31
0.0
  0
LINE
  5
74F
330
721
100
AcDbEntity
  8
SCHRAFF
 62
     0
100
AcDbLine
 10
287.7185060225315
 20
517.5282099081592
 30
0.0
 11
288.7185060225315
 21
518.5282099081594
 31
0.0
  0
LINE
  5
750
330
721
100
AcDbEntity
  8
SCHRAFF
 62
     0
100
AcDbLine
 10
284.1829721165987
 20
517.5282099081593
 30
0.0
 11
285.1829721165988
 21
518.5282099081594
 31
0.0
  0
LINE
  5
751
330
721
100
AcDbEntity
  8
SCHRAFF
 62
     0
100
AcDbLine
 10
280.647438210666
 20
517.5282099081593
 30
0.0
 11
281.647438210666
 21
518.5282099081594
 31
0.0
  0
LINE
  5
752
330
721
100
AcDbEntity
  8
SCHRAFF
 62
     0
100
AcDbLine
 10
277.1119043047332
 20
517.5282099081593
 30
0.0
 11
278.1119043047332
 21
518.5282099081594
 31
0.0
  0
LINE
  5
753
330
721
100
AcDbEntity
  8
SCHRAFF
 62
     0
100
AcDbLine
 10
273.5763703988006
 20
517.5282099081592
 30
0.0
 11
274.5763703988006
 21
518.5282099081594
 31
0.0
  0
LINE
  5
754
330
721
100
AcDbEntity
  8
SCHRAFF
 62
     0
100
AcDbLine
 10
270.0408364928677
 20
517.5282099081592
 30
0.0
 11
271.0408364928678
 21
518.5282099081592
 31
0.0
  0
LINE
  5
755
330
721
100
AcDbEntity
  8
SCHRAFF
 62
     0
100
AcDbLine
 10
266.5053025869349
 20
517.5282099081591
 30
0.0
 11
267.5053025869349
 21
518.5282099081591
 31
0.0
  0
LINE
  5
756
330
721
100
AcDbEntity
  8
SCHRAFF
 62
     0
100
AcDbLine
 10
262.9697686810021
 20
517.5282099081591
 30
0.0
 11
263.9697686810022
 21
518.5282099081591
 31
0.0
  0
LINE
  5
757
330
721
100
AcDbEntity
  8
SCHRAFF
 62
     0
100
AcDbLine
 10
259.4749079361372
 20
517.568883069227
 30
0.0
 11
260.4342347750694
 21
518.5282099081591
 31
0.0
  0
LINE
  5
758
330
721
100
AcDbEntity
  8
SCHRAFF
 62
     0
100
AcDbLine
 10
257.3940431461983
 20
519.0235521852208
 30
0.0
 11
258.1512520306926
 21
519.780761069715
 31
0.0
  0
LINE
  5
759
330
721
100
AcDbEntity
  8
SCHRAFF
 62
     0
100
AcDbLine
 10
252.3631669632039
 20
517.5282099081591
 30
0.0
 11
253.3631669632039
 21
518.5282099081591
 31
0.0
  0
LINE
  5
75A
330
721
100
AcDbEntity
  8
SCHRAFF
 62
     0
100
AcDbLine
 10
248.8276330572712
 20
517.5282099081591
 30
0.0
 11
249.8276330572711
 21
518.5282099081591
 31
0.0
  0
LINE
  5
75B
330
721
100
AcDbEntity
  8
SCHRAFF
 62
     0
100
AcDbLine
 10
246.1709275481826
 20
518.4070383050033
 30
0.0
 11
246.8818140855336
 21
519.1179248423543
 31
0.0
  0
LINE
  5
75C
330
721
100
AcDbEntity
  8
SCHRAFF
 62
     0
100
AcDbLine
 10
242.1443006842736
 20
517.9159453470271
 30
0.0
 11
242.8540700154741
 21
518.6257146782276
 31
0.0
  0
LINE
  5
75D
330
721
100
AcDbEntity
  8
SCHRAFF
 62
     0
100
AcDbLine
 10
239.7210313394731
 20
519.0282099081592
 30
0.0
 11
240.7210313394729
 21
520.0282099081591
 31
0.0
  0
LINE
  5
75E
330
721
100
AcDbEntity
  8
SCHRAFF
 62
     0
100
AcDbLine
 10
236.1854974335404
 20
519.0282099081592
 30
0.0
 11
237.1854974335402
 21
520.0282099081591
 31
0.0
  0
LINE
  5
75F
330
721
100
AcDbEntity
  8
SCHRAFF
 62
     0
100
AcDbLine
 10
232.6499635276076
 20
519.0282099081592
 30
0.0
 11
233.6499635276075
 21
520.0282099081591
 31
0.0
  0
LINE
  5
760
330
721
100
AcDbEntity
  8
SCHRAFF
 62
     0
100
AcDbLine
 10
227.6144296216747
 20
517.5282099081591
 30
0.0
 11
228.6170845409935
 21
518.5308648274778
 31
0.0
  0
LINE
  5
761
330
721
100
AcDbEntity
  8
SCHRAFF
 62
     0
100
AcDbLine
 10
224.078895715742
 20
517.5282099081591
 30
0.0
 11
225.078895715742
 21
518.5282099081591
 31
0.0
  0
LINE
  5
762
330
721
100
AcDbEntity
  8
SCHRAFF
 62
     0
100
AcDbLine
 10
220.8586671457231
 20
517.8435152440729
 30
0.0
 11
221.6152455799146
 21
518.6000936782646
 31
0.0
  0
LINE
  5
763
330
721
100
AcDbEntity
  8
SCHRAFF
 62
     0
100
AcDbLine
 10
217.0332086343661
 20
517.5535906386487
 30
0.0
 11
219.5074962454095
 21
520.0278782496921
 31
0.0
  0
LINE
  5
764
330
721
100
AcDbEntity
  8
SCHRAFF
 62
     0
100
AcDbLine
 10
213.662515278557
 20
517.7184311887723
 30
0.0
 11
214.4788578596354
 21
518.5347737698508
 31
0.0
  0
LINE
  5
765
330
721
100
AcDbEntity
  8
SCHRAFF
 62
     0
100
AcDbLine
 10
210.0931095030357
 20
517.6845593191838
 30
0.0
 11
212.3905210042391
 21
519.9819708203872
 31
0.0
  0
LINE
  5
766
330
721
100
AcDbEntity
  8
SCHRAFF
 62
     0
100
AcDbLine
 10
121.1818415716838
 20
428.7732913878319
 30
0.0
 11
125.2394348950052
 21
432.8308847111533
 31
0.0
  0
LINE
  5
767
330
721
100
AcDbEntity
  8
SCHRAFF
 62
     0
100
AcDbLine
 10
124.4845163746777
 20
435.6115000967585
 30
0.0
 11
125.4845163746778
 21
436.6115000967586
 31
0.0
  0
LINE
  5
768
330
721
100
AcDbEntity
  8
SCHRAFF
 62
     0
100
AcDbLine
 10
206.4012261860781
 20
517.5282099081589
 30
0.0
 11
207.4012261860782
 21
518.528209908159
 31
0.0
  0
LINE
  5
769
330
721
100
AcDbEntity
  8
SCHRAFF
 62
     0
100
AcDbLine
 10
117.4012261860785
 20
428.5282099081594
 30
0.0
 11
118.401226186079
 21
429.5282099081598
 31
0.0
  0
LINE
  5
76A
330
721
100
AcDbEntity
  8
SCHRAFF
 62
     0
100
AcDbLine
 10
124.4845163746777
 20
439.1470340026912
 30
0.0
 11
125.4845163746778
 21
440.1470340026913
 31
0.0
  0
LINE
  5
76B
330
721
100
AcDbEntity
  8
SCHRAFF
 62
     0
100
AcDbLine
 10
202.8656922801453
 20
517.5282099081589
 30
0.0
 11
203.8656922801454
 21
518.5282099081589
 31
0.0
  0
LINE
  5
76C
330
721
100
AcDbEntity
  8
SCHRAFF
 62
     0
100
AcDbLine
 10
113.8656922801458
 20
428.5282099081594
 30
0.0
 11
114.8656922801461
 21
429.5282099081597
 31
0.0
  0
LINE
  5
76D
330
721
100
AcDbEntity
  8
SCHRAFF
 62
     0
100
AcDbLine
 10
124.4845163746777
 20
442.682567908624
 30
0.0
 11
125.4845163746777
 21
443.682567908624
 31
0.0
  0
LINE
  5
76E
330
721
100
AcDbEntity
  8
SCHRAFF
 62
     0
100
AcDbLine
 10
199.3301583742126
 20
517.5282099081589
 30
0.0
 11
200.3301583742126
 21
518.5282099081589
 31
0.0
  0
LINE
  5
76F
330
721
100
AcDbEntity
  8
SCHRAFF
 62
     0
100
AcDbLine
 10
110.330158374213
 20
428.5282099081594
 30
0.0
 11
111.3301583742134
 21
429.5282099081597
 31
0.0
  0
LINE
  5
770
330
721
100
AcDbEntity
  8
SCHRAFF
 62
     0
100
AcDbLine
 10
124.4845163746776
 20
446.2181018145567
 30
0.0
 11
125.4845163746777
 21
447.2181018145568
 31
0.0
  0
LINE
  5
771
330
721
100
AcDbEntity
  8
SCHRAFF
 62
     0
100
AcDbLine
 10
195.7946244682799
 20
517.5282099081589
 30
0.0
 11
196.7946244682798
 21
518.5282099081589
 31
0.0
  0
LINE
  5
772
330
721
100
AcDbEntity
  8
SCHRAFF
 62
     0
100
AcDbLine
 10
106.7946244682803
 20
428.5282099081594
 30
0.0
 11
107.7946244682805
 21
429.5282099081595
 31
0.0
  0
LINE
  5
773
330
721
100
AcDbEntity
  8
SCHRAFF
 62
     0
100
AcDbLine
 10
192.2590905623471
 20
517.5282099081589
 30
0.0
 11
193.2590905623471
 21
518.5282099081589
 31
0.0
  0
LINE
  5
774
330
721
100
AcDbEntity
  8
SCHRAFF
 62
     0
100
AcDbLine
 10
124.4845163746776
 20
449.7536357204894
 30
0.0
 11
125.4845163746778
 21
450.7536357204895
 31
0.0
  0
LINE
  5
775
330
721
100
AcDbEntity
  8
SCHRAFF
 62
     0
100
AcDbLine
 10
188.7235566564143
 20
517.5282099081589
 30
0.0
 11
189.7235566564143
 21
518.5282099081589
 31
0.0
  0
LINE
  5
776
330
721
100
AcDbEntity
  8
SCHRAFF
 62
     0
100
AcDbLine
 10
124.4845163746777
 20
453.2891696264222
 30
0.0
 11
125.4845163746778
 21
454.2891696264223
 31
0.0
  0
LINE
  5
777
330
721
100
AcDbEntity
  8
SCHRAFF
 62
     0
100
AcDbLine
 10
185.1880227504816
 20
517.5282099081589
 30
0.0
 11
186.1880227504815
 21
518.5282099081587
 31
0.0
  0
LINE
  5
778
330
721
100
AcDbEntity
  8
SCHRAFF
 62
     0
100
AcDbLine
 10
124.4845163746776
 20
456.8247035323548
 30
0.0
 11
125.4845163746777
 21
457.8247035323549
 31
0.0
  0
LINE
  5
779
330
721
100
AcDbEntity
  8
SCHRAFF
 62
     0
100
AcDbLine
 10
181.6524888445489
 20
517.5282099081589
 30
0.0
 11
182.6524888445487
 21
518.5282099081587
 31
0.0
  0
LINE
  5
77A
330
721
100
AcDbEntity
  8
SCHRAFF
 62
     0
100
AcDbLine
 10
124.4845163746776
 20
460.3602374382877
 30
0.0
 11
125.4845163746777
 21
461.3602374382877
 31
0.0
  0
LINE
  5
77B
330
721
100
AcDbEntity
  8
SCHRAFF
 62
     0
100
AcDbLine
 10
178.1169549386161
 20
517.5282099081589
 30
0.0
 11
179.1169549386161
 21
518.5282099081589
 31
0.0
  0
LINE
  5
77C
330
721
100
AcDbEntity
  8
SCHRAFF
 62
     0
100
AcDbLine
 10
124.4845163746777
 20
463.8957713442204
 30
0.0
 11
125.4845163746778
 21
464.8957713442205
 31
0.0
  0
LINE
  5
77D
330
721
100
AcDbEntity
  8
SCHRAFF
 62
     0
100
AcDbLine
 10
174.5814210326834
 20
517.5282099081589
 30
0.0
 11
175.5814210326834
 21
518.5282099081589
 31
0.0
  0
LINE
  5
77E
330
721
100
AcDbEntity
  8
SCHRAFF
 62
     0
100
AcDbLine
 10
124.4845163746777
 20
467.4313052501531
 30
0.0
 11
125.4845163746778
 21
468.4313052501533
 31
0.0
  0
LINE
  5
77F
330
721
100
AcDbEntity
  8
SCHRAFF
 62
     0
100
AcDbLine
 10
171.0458871267506
 20
517.5282099081588
 30
0.0
 11
172.0458871267506
 21
518.5282099081588
 31
0.0
  0
LINE
  5
780
330
721
100
AcDbEntity
  8
SCHRAFF
 62
     0
100
AcDbLine
 10
124.4845163746776
 20
470.9668391560858
 30
0.0
 11
125.4845163746777
 21
471.9668391560859
 31
0.0
  0
LINE
  5
781
330
721
100
AcDbEntity
  8
SCHRAFF
 62
     0
100
AcDbLine
 10
167.5103532208179
 20
517.5282099081588
 30
0.0
 11
168.5103532208179
 21
518.5282099081588
 31
0.0
  0
LINE
  5
782
330
721
100
AcDbEntity
  8
SCHRAFF
 62
     0
100
AcDbLine
 10
124.4845163746776
 20
474.5023730620186
 30
0.0
 11
125.4845163746777
 21
475.5023730620187
 31
0.0
  0
LINE
  5
783
330
721
100
AcDbEntity
  8
SCHRAFF
 62
     0
100
AcDbLine
 10
163.9748193148851
 20
517.5282099081588
 30
0.0
 11
164.9748193148851
 21
518.5282099081587
 31
0.0
  0
LINE
  5
784
330
721
100
AcDbEntity
  8
SCHRAFF
 62
     0
100
AcDbLine
 10
124.4845163746777
 20
478.0379069679513
 30
0.0
 11
125.4845163746778
 21
479.0379069679515
 31
0.0
  0
LINE
  5
785
330
721
100
AcDbEntity
  8
SCHRAFF
 62
     0
100
AcDbLine
 10
160.4392854089524
 20
517.5282099081588
 30
0.0
 11
161.4392854089523
 21
518.5282099081587
 31
0.0
  0
LINE
  5
786
330
721
100
AcDbEntity
  8
SCHRAFF
 62
     0
100
AcDbLine
 10
124.4845163746777
 20
481.573440873884
 30
0.0
 11
125.4845163746778
 21
482.5734408738842
 31
0.0
  0
LINE
  5
787
330
721
100
AcDbEntity
  8
SCHRAFF
 62
     0
100
AcDbLine
 10
156.9037515030196
 20
517.5282099081588
 30
0.0
 11
157.9037515030196
 21
518.5282099081587
 31
0.0
  0
LINE
  5
788
330
721
100
AcDbEntity
  8
SCHRAFF
 62
     0
100
AcDbLine
 10
124.4845163746776
 20
485.1089747798168
 30
0.0
 11
125.4845163746777
 21
486.1089747798168
 31
0.0
  0
LINE
  5
789
330
721
100
AcDbEntity
  8
SCHRAFF
 62
     0
100
AcDbLine
 10
153.2005491399496
 20
517.3605414510214
 30
0.0
 11
154.3670679764303
 21
518.5270602875022
 31
0.0
  0
LINE
  5
78A
330
721
100
AcDbEntity
  8
SCHRAFF
 62
     0
100
AcDbLine
 10
124.4845163746776
 20
488.6445086857496
 30
0.0
 11
125.4845163746778
 21
489.6445086857497
 31
0.0
  0
LINE
  5
78B
330
721
100
AcDbEntity
  8
SCHRAFF
 62
     0
100
AcDbLine
 10
145.2124027695547
 20
512.9079289865594
 30
0.0
 11
147.990883748717
 21
515.6864099657216
 31
0.0
  0
LINE
  5
78C
330
721
100
AcDbEntity
  8
SCHRAFF
 62
     0
100
AcDbLine
 10
124.4845163746777
 20
492.1800425916822
 30
0.0
 11
125.4845163746778
 21
493.1800425916824
 31
0.0
  0
LINE
  5
78D
330
721
100
AcDbEntity
  8
SCHRAFF
 62
     0
100
AcDbLine
 10
136.7271312509051
 20
507.9581913738425
 30
0.0
 11
139.5056023744788
 21
510.7366624974162
 31
0.0
  0
LINE
  5
78E
330
721
100
AcDbEntity
  8
SCHRAFF
 62
     0
100
AcDbLine
 10
124.4845163746776
 20
495.715576497615
 30
0.0
 11
125.4845163746778
 21
496.7155764976151
 31
0.0
  0
LINE
  5
78F
330
721
100
AcDbEntity
  8
SCHRAFF
 62
     0
100
AcDbLine
 10
128.2418597322555
 20
503.0084537611257
 30
0.0
 11
131.0203210002406
 21
505.7869150291107
 31
0.0
  0
LINE
  5
790
330
721
100
AcDbEntity
  8
SCHRAFF
 62
     0
100
AcDbLine
 10
124.5345129736124
 20
499.3011070024826
 30
0.0
 11
126.027383285034
 21
500.7939773139042
 31
0.0
  0
ENDBLK
  5
791
330
721
100
AcDbEntity
  8
0
100
AcDbBlockEnd
  0
BLOCK
  5
B37
330
B2D
100
AcDbEntity
  8
0
100
AcDbBlockBegin
  2
*D3
 70
     1
 10
0.0
 20
0.0
 30
0.0
  3
*D3
  1

  0
LINE
  5
B69
330
B2D
100
AcDbEntity
  8
BEM
 62
     0
370
    -2
100
AcDbLine
 10
211.8694886365723
 20
220.7757926059223
 30
0.0
 11
211.8694886365723
 21
197.5963509162213
 31
0.0
  0
LINE
  5
B6A
330
B2D
100
AcDbEntity
  8
BEM
 62
     0
370
    -2
100
AcDbLine
 10
284.869488636572
 20
220.7757926059315
 30
0.0
 11
284.869488636572
 21
197.5963509162213
 31
0.0
  0
LINE
  5
B6B
330
B2D
100
AcDbEntity
  8
BEM
 62
     0
370
    -2
100
AcDbLine
 10
218.8694886365723
 20
199.5963509162213
 30
0.0
 11
277.8694886365721
 21
199.5963509162213
 31
0.0
  0
SOLID
  5
B6C
330
B2D
100
AcDbEntity
  8
BEM
 62
     0
100
AcDbTrace
 10
218.8694886365723
 20
200.763017582888
 30
0.0
 11
218.8694886365723
 21
198.4296842495547
 31
0.0
 12
211.8694886365723
 22
199.5963509162213
 32
0.0
 13
211.8694886365723
 23
199.5963509162213
 33
0.0
  0
SOLID
  5
B6D
330
B2D
100
AcDbEntity
  8
BEM
 62
     0
100
AcDbTrace
 10
277.8694886365721
 20
200.763017582888
 30
0.0
 11
277.8694886365721
 21
198.4296842495547
 31
0.0
 12
284.869488636572
 22
199.5963509162213
 32
0.0
 13
284.869488636572
 23
199.5963509162213
 33
0.0
  0
MTEXT
  5
B6E
330
B2D
100
AcDbEntity
  8
BEM
 62
     1
100
AcDbMText
 10
248.3694886365721
 20
205.0963509162214
 30
0.0
 40
7.0
 41
0.0
 71
     5
 72
     1
  1
\A1;%%c73
 73
     1
 44
1.0
  0
POINT
  5
B6F
330
B2D
100
AcDbEntity
  8
DEFPOINTS
 62
     0
100
AcDbPoint
 10
211.8694886365723
 20
222.7757926059223
 30
0.0
  0
POINT
  5
B70
330
B2D
100
AcDbEntity
  8
DEFPOINTS
 62
     0
100
AcDbPoint
 10
284.869488636572
 20
222.7757926059315
 30
0.0
  0
POINT
  5
B71
330
B2D
100
AcDbEntity
  8
DEFPOINTS
 62
     0
100
AcDbPoint
 10
284.869488636572
 20
199.5963509162213
 30
0.0
  0
ENDBLK
  5
B38
330
B2D
100
AcDbEntity
  8
0
100
AcDbBlockEnd
  0
BLOCK
  5
B43
330
B39
100
AcDbEntity
  8
0
100
AcDbBlockBegin
  2
*D4
 70
     1
 10
0.0
 20
0.0
 30
0.0
  3
*D4
  1

  0
LINE
  5
B72
330
B39
100
AcDbEntity
  8
BEM
 62
     0
370
    -2
100
AcDbLine
 10
118.3694886365719
 20
506.841284020286
 30
0.0
 11
118.3694886365719
 21
618.1488383313267
 31
0.0
  0
LINE
  5
B73
330
B39
100
AcDbEntity
  8
BEM
 62
     0
370
    -2
100
AcDbLine
 10
378.3694886365718
 20
506.8412840202862
 30
0.0
 11
378.3694886365718
 21
618.1488383313267
 31
0.0
  0
LINE
  5
B74
330
B39
100
AcDbEntity
  8
BEM
 62
     0
370
    -2
100
AcDbLine
 10
125.3694886365719
 20
616.1488383313267
 30
0.0
 11
371.3694886365718
 21
616.1488383313267
 31
0.0
  0
SOLID
  5
B75
330
B39
100
AcDbEntity
  8
BEM
 62
     0
100
AcDbTrace
 10
125.3694886365719
 20
617.3155049979933
 30
0.0
 11
125.3694886365719
 21
614.98217166466
 31
0.0
 12
118.3694886365719
 22
616.1488383313267
 32
0.0
 13
118.3694886365719
 23
616.1488383313267
 33
0.0
  0
SOLID
  5
B76
330
B39
100
AcDbEntity
  8
BEM
 62
     0
100
AcDbTrace
 10
371.3694886365718
 20
617.3155049979933
 30
0.0
 11
371.3694886365718
 21
614.98217166466
 31
0.0
 12
378.3694886365718
 22
616.1488383313267
 32
0.0
 13
378.3694886365718
 23
616.1488383313267
 33
0.0
  0
MTEXT
  5
B77
330
B39
100
AcDbEntity
  8
BEM
 62
     1
100
AcDbMText
 10
248.3694886365719
 20
622.6488383313267
 30
0.0
 40
7.0
 41
0.0
 71
     5
 72
     1
  1
\A1;%%c260
 73
     1
 44
1.0
  0
POINT
  5
B78
330
B39
100
AcDbEntity
  8
DEFPOINTS
 62
     0
100
AcDbPoint
 10
118.3694886365719
 20
504.841284020286
 30
0.0
  0
POINT
  5
B79
330
B39
100
AcDbEntity
  8
DEFPOINTS
 62
     0
100
AcDbPoint
 10
378.3694886365718
 20
504.8412840202862
 30
0.0
  0
POINT
  5
B7A
330
B39
100
AcDbEntity
  8
DEFPOINTS
 62
     0
100
AcDbPoint
 10
378.3694886365718
 20
616.1488383313267
 30
0.0
  0
ENDBLK
  5
B44
330
B39
100
AcDbEntity
  8
0
100
AcDbBlockEnd
  0
BLOCK
  5
B4F
330
B45
100
AcDbEntity
  8
0
100
AcDbBlockBegin
  2
*D5
 70
     1
 10
0.0
 20
0.0
 30
0.0
  3
*D5
  1

  0
LINE
  5
B7B
330
B45
100
AcDbEntity
  8
BEM
 62
     0
370
    -2
100
AcDbLine
 10
138.3694886365719
 20
575.8412260529704
 30
0.0
 11
138.3694886365719
 21
604.6536370170192
 31
0.0
  0
LINE
  5
B7C
330
B45
100
AcDbEntity
  8
BEM
 62
     0
370
    -2
100
AcDbLine
 10
358.3694886365722
 20
575.8412260529704
 30
0.0
 11
358.3694886365722
 21
604.6536370170192
 31
0.0
  0
LINE
  5
B7D
330
B45
100
AcDbEntity
  8
BEM
 62
     0
370
    -2
100
AcDbLine
 10
145.3694886365719
 20
602.6536370170192
 30
0.0
 11
351.3694886365722
 21
602.6536370170192
 31
0.0
  0
SOLID
  5
B7E
330
B45
100
AcDbEntity
  8
BEM
 62
     0
100
AcDbTrace
 10
145.3694886365719
 20
603.8203036836859
 30
0.0
 11
145.3694886365719
 21
601.4869703503526
 31
0.0
 12
138.3694886365719
 22
602.6536370170192
 32
0.0
 13
138.3694886365719
 23
602.6536370170192
 33
0.0
  0
SOLID
  5
B7F
330
B45
100
AcDbEntity
  8
BEM
 62
     0
100
AcDbTrace
 10
351.3694886365722
 20
603.8203036836859
 30
0.0
 11
351.3694886365722
 21
601.4869703503526
 31
0.0
 12
358.3694886365722
 22
602.6536370170192
 32
0.0
 13
358.3694886365722
 23
602.6536370170192
 33
0.0
  0
MTEXT
  5
B80
330
B45
100
AcDbEntity
  8
BEM
 62
     1
100
AcDbMText
 10
248.3694886365721
 20
609.1536370170192
 30
0.0
 40
7.0
 41
0.0
 71
     5
 72
     1
  1
\A1;%%c220
 73
     1
 44
1.0
  0
POINT
  5
B81
330
B45
100
AcDbEntity
  8
DEFPOINTS
 62
     0
100
AcDbPoint
 10
138.3694886365719
 20
573.8412260529704
 30
0.0
  0
POINT
  5
B82
330
B45
100
AcDbEntity
  8
DEFPOINTS
 62
     0
100
AcDbPoint
 10
358.3694886365722
 20
573.8412260529704
 30
0.0
  0
POINT
  5
B83
330
B45
100
AcDbEntity
  8
DEFPOINTS
 62
     0
100
AcDbPoint
 10
358.3694886365722
 20
602.6536370170192
 30
0.0
  0
ENDBLK
  5
B50
330
B45
100
AcDbEntity
  8
0
100
AcDbBlockEnd
  0
BLOCK
  5
B5B
330
B51
100
AcDbEntity
  8
0
100
AcDbBlockBegin
  2
*D6
 70
     1
 10
0.0
 20
0.0
 30
0.0
  3
*D6
  1

  0
LINE
  5
E4B
330
B51
100
AcDbEntity
  8
BEM
 62
     0
370
    -2
100
AcDbLine
 10
166.3694886365719
 20
593.8412840202853
 30
0.0
 11
83.88483391986195
 21
593.8412840202853
 31
0.0
  0
LINE
  5
E4C
330
B51
100
AcDbEntity
  8
BEM
 62
     0
370
    -2
100
AcDbLine
 10
134.3694886365717
 20
483.8412840202853
 30
0.0
 11
83.88483391986193
 21
483.8412840202853
 31
0.0
  0
LINE
  5
E4D
330
B51
100
AcDbEntity
  8
BEM
 62
     0
370
    -2
100
AcDbLine
 10
85.88483391986194
 20
586.8412840202853
 30
0.0
 11
85.88483391986192
 21
490.8412840202854
 31
0.0
  0
SOLID
  5
E4E
330
B51
100
AcDbEntity
  8
BEM
 62
     0
100
AcDbTrace
 10
84.71816725319527
 20
586.8412840202853
 30
0.0
 11
87.05150058652861
 21
586.8412840202853
 31
0.0
 12
85.88483391986194
 22
593.8412840202853
 32
0.0
 13
85.88483391986194
 23
593.8412840202853
 33
0.0
  0
SOLID
  5
E4F
330
B51
100
AcDbEntity
  8
BEM
 62
     0
100
AcDbTrace
 10
84.71816725319525
 20
490.8412840202854
 30
0.0
 11
87.0515005865286
 21
490.8412840202854
 31
0.0
 12
85.88483391986192
 22
483.8412840202853
 32
0.0
 13
85.88483391986192
 23
483.8412840202853
 33
0.0
  0
MTEXT
  5
E50
330
B51
100
AcDbEntity
  8
BEM
 62
     1
100
AcDbMText
 10
79.38483391986185
 20
538.8412840202853
 30
0.0
 40
7.0
 41
0.0
 71
     5
 72
     1
  1
\A1;110
 11
0.0000000000000001
 21
1.0
 31
0.0
 73
     1
 44
1.0
  0
POINT
  5
E51
330
B51
100
AcDbEntity
  8
DEFPOINTS
 62
     0
100
AcDbPoint
 10
168.3694886365719
 20
593.8412840202853
 30
0.0
  0
POINT
  5
E52
330
B51
100
AcDbEntity
  8
DEFPOINTS
 62
     0
100
AcDbPoint
 10
136.3694886365717
 20
483.8412840202853
 30
0.0
  0
POINT
  5
E53
330
B51
100
AcDbEntity
  8
DEFPOINTS
 62
     0
100
AcDbPoint
 10
85.88483391986192
 20
483.8412840202853
 30
0.0
  0
ENDBLK
  5
B5C
330
B51
100
AcDbEntity
  8
0
100
AcDbBlockEnd
  0
BLOCK
  5
B67
330
B5D
100
AcDbEntity
  8
0
100
AcDbBlockBegin
  2
*D7
 70
     1
 10
0.0
 20
0.0
 30
0.0
  3
*D7
  1

  0
LINE
  5
E54
330
B5D
100
AcDbEntity
  8
BEM
 62
     0
370
    -2
100
AcDbLine
 10
210.394389837001
 20
217.8399894665572
 30
0.0
 11
83.88483391986186
 21
217.8399894665572
 31
0.0
  0
LINE
  5
E55
330
B5D
100
AcDbEntity
  8
BEM
 62
     0
370
    -2
100
AcDbLine
 10
123.8694886365718
 20
477.8412840202846
 30
0.0
 11
83.88483391986193
 21
477.8412840202846
 31
0.0
  0
LINE
  5
E56
330
B5D
100
AcDbEntity
  8
BEM
 62
     0
370
    -2
100
AcDbLine
 10
85.88483391986189
 20
224.8399894665572
 30
0.0
 11
85.88483391986192
 21
470.8412840202846
 31
0.0
  0
SOLID
  5
E57
330
B5D
100
AcDbEntity
  8
BEM
 62
     0
100
AcDbTrace
 10
84.71816725319522
 20
224.8399894665572
 30
0.0
 11
87.05150058652856
 21
224.8399894665572
 31
0.0
 12
85.88483391986187
 22
217.8399894665572
 32
0.0
 13
85.88483391986187
 23
217.8399894665572
 33
0.0
  0
SOLID
  5
E58
330
B5D
100
AcDbEntity
  8
BEM
 62
     0
100
AcDbTrace
 10
84.71816725319525
 20
470.8412840202846
 30
0.0
 11
87.0515005865286
 21
470.8412840202846
 31
0.0
 12
85.88483391986192
 22
477.8412840202846
 32
0.0
 13
85.88483391986192
 23
477.8412840202846
 33
0.0
  0
MTEXT
  5
E59
330
B5D
100
AcDbEntity
  8
BEM
 62
     1
100
AcDbMText
 10
79.38483391986185
 20
347.8406367434209
 30
0.0
 40
7.0
 41
0.0
 71
     5
 72
     1
  1
\A1;260
 11
0.0000000000000001
 21
1.0
 31
0.0
 73
     1
 44
1.0
  0
POINT
  5
E5A
330
B5D
100
AcDbEntity
  8
DEFPOINTS
 62
     0
100
AcDbPoint
 10
212.394389837001
 20
217.8399894665572
 30
0.0
  0
POINT
  5
E5B
330
B5D
100
AcDbEntity
  8
DEFPOINTS
 62
     0
100
AcDbPoint
 10
125.8694886365718
 20
477.8412840202846
 30
0.0
  0
POINT
  5
E5C
330
B5D
100
AcDbEntity
  8
DEFPOINTS
 62
     0
100
AcDbPoint
 10
85.88483391986192
 20
477.8412840202846
 30
0.0
  0
ENDBLK
  5
B68
330
B5D
100
AcDbEntity
  8
0
100
AcDbBlockEnd
  0
BLOCK
  5
CBE
330
CB4
100
AcDbEntity
  8
0
100
AcDbBlockBegin
  2
*D8
 70
     1
 10
0.0
 20
0.0
 30
0.0
  3
*D8
  1

  0
LINE
  5
CD8
330
CB4
100
AcDbEntity
  8
BEM
 62
     0
370
    -2
100
AcDbLine
 10
173.369488636572
 20
473.8412840202842
 30
0.0
 11
173.369488636572
 21
436.3774204060978
 31
0.0
  0
LINE
  5
CD9
330
CB4
100
AcDbEntity
  8
BEM
 62
     0
370
    -2
100
AcDbLine
 10
323.3694886365723
 20
473.8412840202846
 30
0.0
 11
323.3694886365723
 21
436.3774204060978
 31
0.0
  0
LINE
  5
CDA
330
CB4
100
AcDbEntity
  8
BEM
 62
     0
370
    -2
100
AcDbLine
 10
180.369488636572
 20
438.3774204060977
 30
0.0
 11
316.3694886365723
 21
438.3774204060977
 31
0.0
  0
SOLID
  5
CDB
330
CB4
100
AcDbEntity
  8
BEM
 62
     0
100
AcDbTrace
 10
180.369488636572
 20
439.5440870727644
 30
0.0
 11
180.369488636572
 21
437.2107537394311
 31
0.0
 12
173.369488636572
 22
438.3774204060977
 32
0.0
 13
173.369488636572
 23
438.3774204060977
 33
0.0
  0
SOLID
  5
CDC
330
CB4
100
AcDbEntity
  8
BEM
 62
     0
100
AcDbTrace
 10
316.3694886365723
 20
439.5440870727644
 30
0.0
 11
316.3694886365723
 21
437.2107537394311
 31
0.0
 12
323.3694886365723
 22
438.3774204060977
 32
0.0
 13
323.3694886365723
 23
438.3774204060977
 33
0.0
  0
MTEXT
  5
CDD
330
CB4
100
AcDbEntity
  8
BEM
 62
     1
100
AcDbMText
 10
248.3694886365721
 20
444.8774204060978
 30
0.0
 40
7.0
 41
0.0
 71
     5
 72
     1
  1
\A1;%%c150
  7
GREEKS
 73
     1
 44
1.0
  0
POINT
  5
CDE
330
CB4
100
AcDbEntity
  8
DEFPOINTS
 62
     0
100
AcDbPoint
 10
173.369488636572
 20
475.8412840202843
 30
0.0
  0
POINT
  5
CDF
330
CB4
100
AcDbEntity
  8
DEFPOINTS
 62
     0
100
AcDbPoint
 10
323.3694886365723
 20
475.8412840202845
 30
0.0
  0
POINT
  5
CE0
330
CB4
100
AcDbEntity
  8
DEFPOINTS
 62
     0
100
AcDbPoint
 10
323.3694886365723
 20
438.3774204060977
 30
0.0
  0
ENDBLK
  5
CBF
330
CB4
100
AcDbEntity
  8
0
100
AcDbBlockEnd
  0
BLOCK
  5
CCA
330
CC0
100
AcDbEntity
  8
0
100
AcDbBlockBegin
  2
*D9
 70
     1
 10
0.0
 20
0.0
 30
0.0
  3
*D9
  1

  0
LINE
  5
D11
330
CC0
100
AcDbEntity
  8
BEM
 62
     0
370
    -2
100
AcDbLine
 10
183.3719440020502
 20
313.8412840202843
 30
0.0
 11
183.3719440020502
 21
295.8960626349003
 31
0.0
  0
LINE
  5
D12
330
CC0
100
AcDbEntity
  8
BEM
 62
     0
370
    -2
100
AcDbLine
 10
313.3670332710936
 20
313.8412840202826
 30
0.0
 11
313.3670332710936
 21
295.8960626349003
 31
0.0
  0
LINE
  5
D13
330
CC0
100
AcDbEntity
  8
BEM
 62
     0
370
    -2
100
AcDbLine
 10
190.3719440020502
 20
297.8960626349003
 30
0.0
 11
306.3670332710936
 21
297.8960626349003
 31
0.0
  0
SOLID
  5
D14
330
CC0
100
AcDbEntity
  8
BEM
 62
     0
100
AcDbTrace
 10
190.3719440020502
 20
299.062729301567
 30
0.0
 11
190.3719440020502
 21
296.7293959682336
 31
0.0
 12
183.3719440020502
 22
297.8960626349003
 32
0.0
 13
183.3719440020502
 23
297.8960626349003
 33
0.0
  0
SOLID
  5
D15
330
CC0
100
AcDbEntity
  8
BEM
 62
     0
100
AcDbTrace
 10
306.3670332710936
 20
299.062729301567
 30
0.0
 11
306.3670332710936
 21
296.7293959682336
 31
0.0
 12
313.3670332710936
 22
297.8960626349003
 32
0.0
 13
313.3670332710936
 23
297.8960626349003
 33
0.0
  0
MTEXT
  5
D16
330
CC0
100
AcDbEntity
  8
BEM
 62
     1
100
AcDbMText
 10
248.3694886365719
 20
304.3960626349003
 30
0.0
 40
7.0
 41
0.0
 71
     5
 72
     1
  1
\A1;%%c130
  7
GREEKS
 73
     1
 44
1.0
  0
POINT
  5
D17
330
CC0
100
AcDbEntity
  8
DEFPOINTS
 62
     0
100
AcDbPoint
 10
183.3719440020502
 20
315.8412840202843
 30
0.0
  0
POINT
  5
D18
330
CC0
100
AcDbEntity
  8
DEFPOINTS
 62
     0
100
AcDbPoint
 10
313.3670332710936
 20
315.8412840202826
 30
0.0
  0
POINT
  5
D19
330
CC0
100
AcDbEntity
  8
DEFPOINTS
 62
     0
100
AcDbPoint
 10
313.3670332710936
 20
297.8960626349003
 30
0.0
  0
ENDBLK
  5
CCB
330
CC0
100
AcDbEntity
  8
0
100
AcDbBlockEnd
  0
BLOCK
  5
CD6
330
CCC
100
AcDbEntity
  8
0
100
AcDbBlockBegin
  2
*D10
 70
     1
 10
0.0
 20
0.0
 30
0.0
  3
*D10
  1

  0
LINE
  5
D06
330
CCC
100
AcDbEntity
  8
BEM
 62
     0
370
    -2
100
AcDbLine
 10
130.0870030578438
 20
475.8412840202849
 30
0.0
 11
101.0403983064198
 21
475.841284020285
 31
0.0
  0
LINE
  5
D07
330
CCC
100
AcDbEntity
  8
BEM
 62
     0
370
    -2
100
AcDbLine
 10
181.3719440020502
 20
315.8412840202843
 30
0.0
 11
101.0403983064198
 21
315.8412840202843
 31
0.0
  0
LINE
  5
D08
330
CCC
100
AcDbEntity
  8
BEM
 62
     0
370
    -2
100
AcDbLine
 10
103.0403983064198
 20
468.8412840202849
 30
0.0
 11
103.0403983064198
 21
322.8412840202843
 31
0.0
  0
SOLID
  5
D09
330
CCC
100
AcDbEntity
  8
BEM
 62
     0
100
AcDbTrace
 10
101.8737316397532
 20
468.8412840202849
 30
0.0
 11
104.2070649730865
 21
468.8412840202849
 31
0.0
 12
103.0403983064198
 22
475.841284020285
 32
0.0
 13
103.0403983064198
 23
475.841284020285
 33
0.0
  0
SOLID
  5
D0A
330
CCC
100
AcDbEntity
  8
BEM
 62
     0
100
AcDbTrace
 10
101.8737316397531
 20
322.8412840202843
 30
0.0
 11
104.2070649730865
 21
322.8412840202843
 31
0.0
 12
103.0403983064198
 22
315.8412840202843
 32
0.0
 13
103.0403983064198
 23
315.8412840202843
 33
0.0
  0
MTEXT
  5
D0B
330
CCC
100
AcDbEntity
  8
BEM
 62
     1
100
AcDbMText
 10
96.54039830641979
 20
395.8412840202847
 30
0.0
 40
7.0
 41
0.0
 71
     5
 72
     1
  1
\A1;160
  7
GREEKS
 11
0.0000000000000001
 21
1.0
 31
0.0
 73
     1
 44
1.0
  0
POINT
  5
D0C
330
CCC
100
AcDbEntity
  8
DEFPOINTS
 62
     0
100
AcDbPoint
 10
132.0870030578438
 20
475.8412840202849
 30
0.0
  0
POINT
  5
D0D
330
CCC
100
AcDbEntity
  8
DEFPOINTS
 62
     0
100
AcDbPoint
 10
183.3719440020502
 20
315.8412840202843
 30
0.0
  0
POINT
  5
D0E
330
CCC
100
AcDbEntity
  8
DEFPOINTS
 62
     0
100
AcDbPoint
 10
103.0403983064198
 20
315.8412840202843
 30
0.0
  0
ENDBLK
  5
CD7
330
CCC
100
AcDbEntity
  8
0
100
AcDbBlockEnd
  0
ENDSEC
  0
SECTION
  2
ENTITIES
  0
LINE
  5
58
330
1E
100
AcDbEntity
  8
STEMPEL
100
AcDbLine
 10
484.0
 20
830.0000000000002
 30
0.0
 11
484.0
 21
470.0000000000001
 31
0.0
  0
LINE
  5
59
330
1E
100
AcDbEntity
  8
STEMPEL
100
AcDbLine
 10
484.0
 20
470.0000000000001
 30
0.0
 11
584.0
 21
470.0000000000001
 31
0.0
  0
LINE
  5
5A
330
1E
100
AcDbEntity
  8
STEMPEL
100
AcDbLine
 10
484.0000000000001
 20
566.0000000000002
 30
0.0
 11
584.0000000000001
 21
566.0
 31
0.0
  0
LINE
  5
5B
330
1E
100
AcDbEntity
  8
STEMPEL
100
AcDbLine
 10
484.0
 20
650.0
 30
0.0
 11
584.0
 21
650.0
 31
0.0
  0
LINE
  5
5C
330
1E
100
AcDbEntity
  8
STEMPEL
100
AcDbLine
 10
484.0000000000003
 20
752.0000000000002
 30
0.0
 11
554.0
 21
752.0000000000002
 31
0.0
  0
LINE
  5
5D
330
1E
100
AcDbEntity
  8
STEMPEL
100
AcDbLine
 10
564.0
 20
566.0
 30
0.0
 11
564.0
 21
470.0000000000001
 31
0.0
  0
LINE
  5
5E
330
1E
100
AcDbEntity
  8
STEMPEL
100
AcDbLine
 10
554.0
 20
830.0000000000002
 30
0.0
 11
554.0
 21
566.0
 31
0.0
  0
LINE
  5
5F
330
1E
100
AcDbEntity
  8
STEMPEL
100
AcDbLine
 10
514.0
 20
830.0000000000002
 30
0.0
 11
514.0
 21
566.0000000000002
 31
0.0
  0
LINE
  5
60
330
1E
100
AcDbEntity
  8
VOLL
100
AcDbLine
 10
484.0
 20
484.0000000000001
 30
0.0
 11
584.0
 21
484.0
 31
0.0
  0
LINE
  5
61
330
1E
100
AcDbEntity
  8
VOLL
100
AcDbLine
 10
484.0000000000001
 20
524.0000000000001
 30
0.0
 11
584.0000000000001
 21
524.0
 31
0.0
  0
LINE
  5
62
330
1E
100
AcDbEntity
  8
VOLL
100
AcDbLine
 10
484.0000000000001
 20
544.0000000000002
 30
0.0
 11
584.0000000000001
 21
544.0
 31
0.0
  0
LINE
  5
63
330
1E
100
AcDbEntity
  8
VOLL
100
AcDbLine
 10
514.0
 20
584.0000000000002
 30
0.0
 11
554.0
 21
584.0000000000002
 31
0.0
  0
LINE
  5
64
330
1E
100
AcDbEntity
  8
VOLL
100
AcDbLine
 10
484.0000000000002
 20
610.0000000000002
 30
0.0
 11
554.0
 21
610.0
 31
0.0
  0
LINE
  5
65
330
1E
100
AcDbEntity
  8
HILF
100
AcDbLine
 10
494.0
 20
470.0000000000001
 30
0.0
 11
494.0
 21
566.0000000000002
 31
0.0
  0
LINE
  5
66
330
1E
100
AcDbEntity
  8
HILF
100
AcDbLine
 10
504.0
 20
470.0000000000001
 30
0.0
 11
504.0
 21
566.0000000000002
 31
0.0
  0
LINE
  5
67
330
1E
100
AcDbEntity
  8
HILF
100
AcDbLine
 10
514.0
 20
470.0000000000001
 30
0.0
 11
514.0
 21
566.0000000000002
 31
0.0
  0
LINE
  5
68
330
1E
100
AcDbEntity
  8
HILF
100
AcDbLine
 10
524.0
 20
470.0000000000001
 30
0.0
 11
524.0
 21
566.0000000000002
 31
0.0
  0
LINE
  5
69
330
1E
100
AcDbEntity
  8
HILF
100
AcDbLine
 10
534.0
 20
470.0000000000001
 30
0.0
 11
534.0
 21
566.0000000000002
 31
0.0
  0
LINE
  5
6A
330
1E
100
AcDbEntity
  8
HILF
100
AcDbLine
 10
544.0
 20
470.0000000000001
 30
0.0
 11
544.0
 21
566.0000000000002
 31
0.0
  0
LINE
  5
6B
330
1E
100
AcDbEntity
  8
HILF
100
AcDbLine
 10
554.0
 20
470.0000000000001
 30
0.0
 11
554.0
 21
566.0000000000002
 31
0.0
  0
LINE
  5
6C
330
1E
100
AcDbEntity
  8
HILF
100
AcDbLine
 10
524.0
 20
566.0000000000002
 30
0.0
 11
524.0
 21
650.0
 31
0.0
  0
LINE
  5
6D
330
1E
100
AcDbEntity
  8
HILF
100
AcDbLine
 10
534.0
 20
566.0000000000002
 30
0.0
 11
534.0
 21
650.0
 31
0.0
  0
LINE
  5
6E
330
1E
100
AcDbEntity
  8
HILF
100
AcDbLine
 10
544.0
 20
566.0000000000002
 30
0.0
 11
544.0
 21
650.0
 31
0.0
  0
LINE
  5
6F
330
1E
100
AcDbEntity
  8
HILF
100
AcDbLine
 10
509.9624175243587
 20
654.7736801096948
 30
0.0
 11
509.9624175243587
 21
746.6297842514811
 31
0.0
  0
LINE
  5
70
330
1E
100
AcDbEntity
  8
HILF
100
AcDbLine
 10
524.0
 20
654.7736801096948
 30
0.0
 11
524.0
 21
746.6297842514811
 31
0.0
  0
LINE
  5
71
330
1E
100
AcDbEntity
  8
HILF
100
AcDbLine
 10
534.0
 20
654.7736801096948
 30
0.0
 11
534.0
 21
746.6297842514811
 31
0.0
  0
LINE
  5
72
330
1E
100
AcDbEntity
  8
HILF
100
AcDbLine
 10
544.0
 20
654.7736801096948
 30
0.0
 11
544.0
 21
746.6297842514811
 31
0.0
  0
LINE
  5
73
330
1E
100
AcDbEntity
  8
VOLL
100
AcDbLine
 10
534.0
 20
752.0000000000002
 30
0.0
 11
534.0
 21
830.0000000000002
 31
0.0
  0
LINE
  5
74
330
1E
100
AcDbEntity
  8
HILF
100
AcDbLine
 10
510.2201636304418
 20
756.7238616296995
 30
0.0
 11
510.2201636304418
 21
824.858883932673
 31
0.0
  0
LINE
  5
75
330
1E
100
AcDbEntity
  8
HILF
100
AcDbLine
 10
579.1060174197169
 20
654.7736801096948
 30
0.0
 11
579.1060174197169
 21
824.858883932673
 31
0.0
  0
TEXT
  5
76
330
1E
100
AcDbEntity
  8
TEXT
100
AcDbText
 10
575.3261810501587
 20
492.3998239263297
 30
0.0
 40
4.0
  1
Änderung
 50
90.0
 41
0.8
  7
GREEKS
 72
     1
 11
575.3261810501587
 21
503.1426810691868
 31
0.0
100
AcDbText
  0
TEXT
  5
78
330
1E
100
AcDbEntity
  8
TEXT
100
AcDbText
 10
491.5379104912911
 20
573.5163572150376
 30
0.0
 40
5.0
  1
Maßstab
 50
90.0
 41
0.8
  7
GREEKS
100
AcDbText
  0
TEXT
  5
79
330
1E
100
AcDbEntity
  8
TEXT
100
AcDbText
 10
491.4510671988221
 20
654.8779403809009
 30
0.0
 40
5.0
  1
Benennung
 50
90.0
 41
0.8
  7
GREEKS
100
AcDbText
  0
TEXT
  5
7A
330
1E
100
AcDbEntity
  8
TEXT
100
AcDbText
 10
491.6867965462863
 20
756.1787549576343
 30
0.0
 40
5.0
  1
Zeichnungs Nr.
 50
90.0
 41
0.8
  7
GREEKS
100
AcDbText
  0
TEXT
  5
7B
330
1E
100
AcDbEntity
  8
TEXT
100
AcDbText
 10
563.1543942980694
 20
654.7422383911359
 30
0.0
 40
5.0
  1
Bauvorhaben
 50
90.0
 41
0.8
  7
GREEKS
100
AcDbText
  0
TEXT
  5
7C
330
1E
100
AcDbEntity
  8
TEXT
100
AcDbText
 10
520.8188176290003
 20
756.7238616296995
 30
0.0
 40
5.0
  1
Ersatz für:
 50
90.0
 41
0.8
  7
GREEKS
100
AcDbText
  0
TEXT
  5
7D
330
1E
100
AcDbEntity
  8
TEXT
100
AcDbText
 10
580.3453415397281
 20
478.2664110704577
 30
0.0
 40
4.0
  1
Index
 50
180.0
 41
0.8
  7
GREEKS
100
AcDbText
  0
TEXT
  5
7E
330
1E
100
AcDbEntity
  8
TEXT
100
AcDbText
 10
575.3284373066019
 20
529.8990113186978
 30
0.0
 40
4.0
  1
Tag
 50
90.0
 41
0.8
  7
GREEKS
 72
     1
 11
575.3284373066019
 21
533.6323446520311
 31
0.0
100
AcDbText
  0
TEXT
  5
7F
330
1E
100
AcDbEntity
  8
TEXT
100
AcDbText
 10
575.4067578303359
 20
548.9795678138292
 30
0.0
 40
4.0
  1
Name
 50
90.0
 41
0.8
  7
GREEKS
 72
     1
 11
575.4067578303359
 21
555.3033773376387
 31
0.0
100
AcDbText
  0
TEXT
  5
80
330
1E
100
AcDbEntity
  8
TEXT
100
AcDbText
 10
520.6811949877008
 20
592.3311673153651
 30
0.0
 40
4.0
  1
Tag
 50
90.0
 41
0.8
  7
GREEKS
100
AcDbText
  0
TEXT
  5
81
330
1E
100
AcDbEntity
  8
TEXT
100
AcDbText
 10
520.6903890808478
 20
622.4626584226296
 30
0.0
 40
4.0
  1
Name
 50
90.0
 41
0.8
  7
GREEKS
100
AcDbText
  0
TEXT
  5
82
330
1E
100
AcDbEntity
  8
TEXT
100
AcDbText
 10
530.3700963038204
 20
567.5836127167615
 30
0.0
 40
4.0
  1
Gez.
 50
90.0
 41
0.8
  7
GREEKS
100
AcDbText
  0
TEXT
  5
83
330
1E
100
AcDbEntity
  8
TEXT
100
AcDbText
 10
540.3107370857163
 20
567.5515086571672
 30
0.0
 40
4.0
  1
Gepr.
 50
90.0
 41
0.8
  7
GREEKS
100
AcDbText
  0
TEXT
  5
84
330
1E
100
AcDbEntity
  8
TEXT
100
AcDbText
 10
550.470536103502
 20
567.6006777387303
 30
0.0
 40
4.0
  1
Norm.
 50
90.0
 41
0.8
  7
GREEKS
100
AcDbText
  0
TEXT
  5
85
330
1E
100
AcDbEntity
  8
TEXT
100
AcDbText
 10
541.925838221214
 20
757.2400861497007
 30
0.0
 40
5.0
  1
ersetzt durch:
 50
90.0
 41
0.8
  7
GREEKS
100
AcDbText
  0
TEXT
  5
86
330
1E
100
AcDbEntity
  8
TEXT
100
AcDbText
 10
521.0331740347627
 20
568.8693027807324
 30
0.0
 40
4.0
  1
2011
 50
90.0
 41
0.8
  7
GREEKS
100
AcDbText
  0
LINE
  5
87
330
1E
100
AcDbEntity
  8
HILF
100
AcDbLine
 10
594.0
 20
-0.0000000000000568
 30
0.0
 11
594.0
 21
840.0
 31
0.0
  0
LINE
  5
88
330
1E
100
AcDbEntity
  8
HILF
100
AcDbLine
 10
594.0
 20
840.0
 30
0.0
 11
0.0
 21
840.0
 31
0.0
  0
LINE
  5
89
330
1E
100
AcDbEntity
  8
HILF
100
AcDbLine
 10
0.0
 20
840.0
 30
0.0
 11
0.0
 21
0.0
 31
0.0
  0
LINE
  5
8B
330
1E
100
AcDbEntity
  8
STEMPEL
100
AcDbLine
 10
10.0
 20
830.0
 30
0.0
 11
10.0
 21
39.99999999999995
 31
0.0
  0
LINE
  5
8D
330
1E
100
AcDbEntity
  8
STEMPEL
100
AcDbLine
 10
584.0
 20
39.99999999999995
 30
0.0
 11
584.0
 21
830.0
 31
0.0
  0
LINE
  5
8E
330
1E
100
AcDbEntity
  8
STEMPEL
100
AcDbLine
 10
584.0
 20
830.0
 30
0.0
 11
10.0
 21
830.0
 31
0.0
  0
TEXT
  5
8F
330
1E
100
AcDbEntity
  8
TEXT
 62
     1
100
AcDbText
 10
506.6265692434746
 20
655.0390572473189
 30
0.0
 40
7.0
  1
Drainjet Kompletteinheit 
 50
90.0
 41
0.7
  7
GREEKS
100
AcDbText
  0
TEXT
  5
90
330
1E
100
AcDbEntity
  8
TEXT
 62
     1
100
AcDbText
 10
506.6265692434746
 20
767.7294755517469
 30
0.0
 40
7.0
  1
21113070W
 50
90.0
 41
0.8
  7
GREEKS
 72
     1
 11
506.6265692434746
 21
790.1294755517469
 31
0.0
100
AcDbText
  0
TEXT
  5
91
330
1E
100
AcDbEntity
  8
TEXT
100
AcDbText
 10
491.16010388621
 20
618.5090226415829
 30
0.0
 40
5.0
  1
Zul.Abw.
 50
90.0
 41
0.8
  7
GREEKS
100
AcDbText
  0
TEXT
  5
93
330
1E
100
AcDbEntity
  8
TEXT
100
AcDbText
 10
530.8491412387978
 20
590.7660475607107
 30
0.0
 40
4.0
  1
31.01.
 50
90.0
 41
0.8
  7
GREEKS
 72
     1
 11
530.8491412387978
 21
597.1660475607107
 31
0.0
100
AcDbText
  0
TEXT
  5
94
330
1E
100
AcDbEntity
  8
TEXT
100
AcDbText
 10
531.0570234483452
 20
624.0231753226609
 30
0.0
 40
4.0
  1
Koeh
 50
90.0
 41
0.8
  7
GREEKS
 72
     1
 11
531.0570234483452
 21
629.2803181798038
 31
0.0
100
AcDbText
  0
TEXT
  5
95
330
1E
100
AcDbEntity
  8
TEXT
100
AcDbText
 10
521.8997861689246
 20
654.3410940884991
 30
0.0
 40
5.0
  1
DN70 mit Wärmedämmung
 50
90.0
 41
0.8
  7
GREEKS
100
AcDbText
  0
TEXT
  5
96
330
1E
100
AcDbEntity
  8
TEXT
100
AcDbText
 10
531.6544091479096
 20
654.3410940884991
 30
0.0
 40
5.0
  1

 50
90.0
 41
0.8
  7
GREEKS
100
AcDbText
  0
TEXT
  5
97
330
1E
100
AcDbEntity
  8
TEXT
100
AcDbText
 10
541.4090266215394
 20
654.3410940884991
 30
0.0
 40
5.0
  1
EDV-Art.Nr. 21113.070X
 50
90.0
 41
0.8
  7
GREEKS
100
AcDbText
  0
TEXT
  5
98
330
1E
100
AcDbEntity
  8
TEXT
100
AcDbText
 10
550.6887237520849
 20
654.1676050109347
 30
0.0
 40
4.0
  1
21113070W.DWG
 50
90.0
 41
0.8
  7
GREEKS
100
AcDbText
  0
TEXT
  5
99
330
1E
100
AcDbEntity
  8
TEXT
 62
     1
100
AcDbText
 10
506.5292291158502
 20
582.703491203422
 30
0.0
 40
7.0
  1
1:2
 50
90.0
 41
0.8
  7
GREEKS
100
AcDbText
  0
TEXT
  5
9A
330
1E
100
AcDbEntity
  8
TEXT
100
AcDbText
 10
479.8856414948956
 20
470.0441139350127
 30
0.0
 40
5.0
  1
Erstellt mit AUTOCAD 2004
 50
90.0
 41
0.8
  7
GREEKS
100
AcDbText
  0
INSERT
  5
9B
330
1E
100
AcDbEntity
  8
HILF
100
AcDbBlockReference
  2
LORO
 10
557.0194069970104
 20
573.0624985962354
 30
0.0
 41
2.0
 42
2.0
 43
2.0
 50
90.0
  0
LINE
  5
9C
330
1E
100
AcDbEntity
  8
BEM
100
AcDbLine
 10
594.0
 20
455.9999999999999
 30
0.0
 11
584.0
 21
455.9999999999999
 31
0.0
  0
LINE
  5
13E
330
1E
100
AcDbEntity
  8
HILF
100
AcDbLine
 10
594.0
 20
-0.0000000000000568
 30
0.0
 11
0.0
 21
0.0
 31
0.0
  0
LINE
  5
13F
330
1E
100
AcDbEntity
  8
STEMPEL
100
AcDbLine
 10
584.0
 20
39.99999999999995
 30
0.0
 11
10.0
 21
39.99999999999995
 31
0.0
  0
LINE
  5
14A
330
1E
100
AcDbEntity
  8
HILF
100
AcDbLine
 10
297.0
 20
-0.0000000000000568
 30
0.0
 11
297.0
 21
39.99999999999995
 31
0.0
  0
TEXT
  5
15B
330
1E
100
AcDbEntity
  8
BEM
100
AcDbText
 10
583.8320989200114
 20
837.3022923857165
 30
0.0
 40
4.0
  1
Diese Zeichnung ist urheberrechtlich geschützt und bleibt unser Eigentum. Sie darf weder ganz noch teilweise verfielfältigt und nicht an Dritte weitergegeben werden.
 50
180.0
 41
0.8
  7
GREEKS
100
AcDbText
  0
LINE
  5
19C
330
1E
100
AcDbEntity
  8
BEM
100
AcDbLine
 10
0.0
 20
455.9999999999999
 30
0.0
 11
10.0
 21
455.9999999999999
 31
0.0
  0
TEXT
  5
3B6
330
1E
100
AcDbEntity
  8
TEXT
 62
     1
100
AcDbText
 10
366.4681936438894
 20
235.530483427805
 30
0.0
 40
7.0
  1
EDV-Art.Nr. 21981.070X
 41
0.8
  7
GREEKS
100
AcDbText
  0
LINE
  5
3B7
330
1E
100
AcDbEntity
  8
TEXT
 62
     2
100
AcDbLine
 10
471.6919571468823
 20
244.9654873025906
 30
0.0
 11
365.5680625392045
 21
244.9654873025904
 31
0.0
  0
LINE
  5
3B9
330
1E
100
AcDbEntity
  8
TEXT
 62
     2
100
AcDbLine
 10
365.5680625392045
 20
244.9654873025904
 30
0.0
 11
284.8694886365733
 21
267.465194582008
 31
0.0
  0
TEXT
  5
3BA
330
1E
100
AcDbEntity
  8
TEXT
 62
     1
100
AcDbText
 10
366.6487489380415
 20
248.5782555747842
 30
0.0
 40
7.0
  1
Ablaufkörper DN70
 41
0.8
  7
GREEKS
100
AcDbText
  0
TEXT
  5
533
330
1E
100
AcDbEntity
  8
TEXT
 62
     1
100
AcDbText
 10
244.6611984380556
 20
374.3577634103377
 30
0.0
 40
7.0
  1
DN70
 50
90.0
 41
0.8
  7
GREEKS
100
AcDbText
  0
TEXT
  5
663
330
1E
100
AcDbEntity
  8
TEXT
100
AcDbText
 10
504.5307583482736
 20
612.2898419893275
 30
0.0
 40
4.0
  1
DIN EN1124-3
 50
90.0
 41
0.8
  7
GREEKS
 72
     1
 11
504.5307583482736
 21
629.2803181798038
 31
0.0
100
AcDbText
  0
LINE
  5
675
330
1E
100
AcDbEntity
  8
TEXT
 62
     2
100
AcDbLine
 10
365.5680625392045
 20
415.2488704279701
 30
0.0
 11
313.1392983236926
 21
479.5773060757881
 31
0.0
  0
TEXT
  5
676
330
1E
100
AcDbEntity
  8
TEXT
 62
     1
100
AcDbText
 10
368.248915793014
 20
418.7327045888805
 30
0.0
 40
7.0
  1
Kompressionsdichtung
 41
0.8
100
AcDbText
  0
LINE
  5
677
330
1E
100
AcDbEntity
  8
TEXT
 62
     2
100
AcDbLine
 10
471.5066271143375
 20
415.2488704279701
 30
0.0
 11
365.5680625392045
 21
415.2488704279701
 31
0.0
  0
TEXT
  5
678
330
1E
100
AcDbEntity
  8
TEXT
 62
     1
100
AcDbText
 10
368.248915793014
 20
405.956373620171
 30
0.0
 40
7.0
  1
EDV-Art.Nr. 21920.070X
 41
0.8
100
AcDbText
  0
LINE
  5
679
102
{ACAD_REACTORS
330
E78
102
}
330
1E
100
AcDbEntity
  8
TEXT
 62
     2
100
AcDbLine
 10
365.5680625392045
 20
451.1250524146681
 30
0.0
 11
341.8395357707789
 21
486.5954711516299
 31
0.0
  0
TEXT
  5
67A
330
1E
100
AcDbEntity
  8
TEXT
 62
     1
100
AcDbText
 10
366.1634184179588
 20
454.6088865755784
 30
0.0
 40
7.0
  1
Losflansch DN70
 41
0.8
100
AcDbText
  0
LINE
  5
67B
330
1E
100
AcDbEntity
  8
TEXT
 62
     2
100
AcDbLine
 10
471.5066271143375
 20
451.1250524146681
 30
0.0
 11
365.5680625392045
 21
451.1250524146681
 31
0.0
  0
TEXT
  5
67C
330
1E
100
AcDbEntity
  8
TEXT
 62
     1
100
AcDbText
 10
366.1634184179588
 20
441.8325556068689
 30
0.0
 40
7.0
  1
EDV-Art.Nr. 21905.070X
 41
0.8
100
AcDbText
  0
LINE
  5
68E
330
1E
100
AcDbEntity
  8
TEXT
 62
     2
100
AcDbLine
 10
308.4102904106762
 20
618.6000535079633
 30
0.0
 11
322.7956423469247
 21
671.9422053173373
 31
0.0
  0
TEXT
  5
68F
330
1E
100
AcDbEntity
  8
TEXT
 62
     1
100
AcDbText
 10
324.1470114951009
 20
675.1048669479688
 30
0.0
 40
7.0
  1
Drainjethaube
 41
0.8
  7
GREEKS
100
AcDbText
  0
LINE
  5
690
330
1E
100
AcDbEntity
  8
TEXT
 62
     2
100
AcDbLine
 10
322.7956423469247
 20
671.9422053173373
 30
0.0
 11
431.0992470714364
 21
671.9422053173373
 31
0.0
  0
TEXT
  5
691
330
1E
100
AcDbEntity
  8
TEXT
 62
     1
100
AcDbText
 10
324.1470114951009
 20
661.4285264302333
 30
0.0
 40
7.0
  1
EDV-Art.Nr. 21000.000X
 41
0.8
  7
GREEKS
100
AcDbText
  0
LINE
  5
692
330
1E
100
AcDbEntity
  8
TEXT
 62
     2
100
AcDbLine
 10
304.8363881934786
 20
605.3477093549337
 30
0.0
 11
307.1273760084026
 21
613.8428939259254
 31
0.0
  0
LINE
  5
693
330
1E
100
AcDbEntity
  8
TEXT
 62
     2
100
AcDbLine
 10
301.4961625511603
 20
592.96185852002
 30
0.0
 11
303.4453336784849
 21
600.1895567116926
 31
0.0
  0
LINE
  5
980
330
1E
100
AcDbEntity
  8
MITTEL
100
AcDbLine
 10
248.3694886365718
 20
600.3412840202856
 30
0.0
 11
248.3694886365718
 21
450.5701967279453
 31
0.0
  0
DIMENSION
  5
981
330
1E
100
AcDbEntity
  8
BEM
100
AcDbDimension
  2
*D4
 10
378.3694886365718
 20
616.1488383313267
 30
0.0
 11
248.3694886365719
 21
622.6488383313267
 31
0.0
 70
    32
  1
%%c<>
 71
     5
 42
259.9999999999999
  3
Standard
100
AcDbAlignedDimension
 13
118.3694886365719
 23
504.841284020286
 33
0.0
 14
378.3694886365718
 24
504.8412840202862
 34
0.0
100
AcDbRotatedDimension
1001
ACAD
1000
DSTYLE
1002
{
1070
    40
1040
2.0
1070
    41
1040
3.5
1070
    42
1040
1.0
1070
    43
1040
7.0
1070
    44
1040
1.0
1070
    73
1070
     0
1070
    74
1070
     0
1070
    77
1070
     1
1070
    78
1070
     8
1070
    79
1070
     2
1070
   140
1040
3.5
1070
   141
1040
1.5
1070
   146
1040
0.5142857142857144
1070
   147
1040
1.5
1070
   172
1070
     1
1070
   178
1070
     1
1070
   179
1070
     2
1070
   271
1070
     2
1070
   272
1070
     2
1070
   284
1070
     8
1070
   285
1070
     8
1070
   286
1070
     8
1002
}
  0
DIMENSION
  5
982
330
1E
100
AcDbEntity
  8
BEM
100
AcDbDimension
  2
*D5
 10
358.3694886365722
 20
602.6536370170192
 30
0.0
 11
248.3694886365721
 21
609.1536370170192
 31
0.0
 70
    32
  1
%%c<>
 71
     5
 42
220.0000000000002
  3
Standard
100
AcDbAlignedDimension
 13
138.3694886365719
 23
573.8412260529704
 33
0.0
 14
358.3694886365722
 24
573.8412260529704
 34
0.0
100
AcDbRotatedDimension
1001
ACAD
1000
DSTYLE
1002
{
1070
    40
1040
2.0
1070
    41
1040
3.5
1070
    42
1040
1.0
1070
    43
1040
7.0
1070
    44
1040
1.0
1070
    73
1070
     0
1070
    74
1070
     0
1070
    77
1070
     1
1070
    78
1070
     8
1070
    79
1070
     2
1070
   140
1040
3.5
1070
   141
1040
1.5
1070
   146
1040
0.5142857142857144
1070
   147
1040
1.5
1070
   172
1070
     1
1070
   178
1070
     1
1070
   179
1070
     2
1070
   271
1070
     2
1070
   272
1070
     2
1070
   284
1070
     8
1070
   285
1070
     8
1070
   286
1070
     8
1002
}
  0
LWPOLYLINE
  5
983
330
1E
100
AcDbEntity
  8
STEMPEL
100
AcDbPolyline
 90
       10
 70
   128
 43
0.0
 10
-161.3037035242457
 20
523.8412840202873
 10
-162.0965308701054
 20
523.7273421678789
 10
-162.8652685582511
 20
523.3889786761815
 10
-163.5865588830286
 20
522.8364745486705
 10
-164.2384858029101
 20
522.0866173436793
 10
-164.8012408483258
 20
521.1621910929359
 10
-165.2577249919887
 20
520.0912840202866
 10
-165.5940681941854
 20
518.9064350952288
 10
-165.8000508369155
 20
517.643645352788
 10
-165.8694142418116
 20
516.3412840202858
210
0.0
220
0.0
230
-1.0
  0
LINE
  5
984
102
{ACAD_REACTORS
330
E78
102
}
330
1E
100
AcDbEntity
  8
STEMPEL
100
AcDbLine
 10
125.8694886365718
 20
477.8412840202846
 30
0.0
 11
370.8694886365719
 21
477.8412840202845
 31
0.0
  0
LINE
  5
985
330
1E
100
AcDbEntity
  8
HILF
100
AcDbLine
 10
350.6958216941026
 20
576.8412840202887
 30
0.0
 11
145.5431555790412
 21
576.8412840202885
 31
0.0
  0
LWPOLYLINE
  5
986
330
1E
100
AcDbEntity
  8
STEMPEL
100
AcDbPolyline
 90
       18
 70
   128
 43
0.0
 10
-157.5332136935007
 20
516.3412840202842
 10
-157.6109535947608
 20
517.7194054039087
 10
-157.8415259594426
 20
519.0505965166884
 10
-158.2170789222078
 20
520.2895252418652
 10
-158.7248234773355
 20
521.3940013476344
 10
-159.3474689929734
 20
522.3264132248873
 10
-160.0638120228675
 20
523.0550087054486
 10
-160.8494583642934
 20
523.5549763440818
 10
-161.6776537733728
 20
523.8092903424985
 10
-162.5201950487605
 20
523.8092903424985
 10
-163.3483904578399
 20
523.5549763440818
 10
-164.1340367992658
 20
523.0550087054486
 10
-164.8503798291598
 20
522.3264132248873
 10
-165.4730253447978
 20
521.3940013476344
 10
-165.9807698999255
 20
520.2895252418652
 10
-166.3563228626906
 20
519.0505965166884
 10
-166.5868952273725
 20
517.7194054039087
 10
-166.6646351286326
 20
516.3412840202842
210
0.0
220
0.0
230
-1.0
  0
LINE
  5
987
330
1E
100
AcDbEntity
  8
STEMPEL
100
AcDbLine
 10
141.3367940148641
 20
579.0183645803294
 30
0.0
 11
165.323096890331
 21
593.0103745910179
 31
0.0
  0
LINE
  5
988
330
1E
100
AcDbEntity
  8
STEMPEL
100
AcDbLine
 10
141.8501350684449
 20
578.1601214671667
 30
0.0
 11
165.8289889613961
 21
592.1477746333522
 31
0.0
  0
DIMENSION
  5
989
330
1E
100
AcDbEntity
  8
BEM
100
AcDbDimension
  2
*D6
 10
85.88483391986192
 20
483.8412840202853
 30
0.0
 11
79.38483391986185
 21
538.8412840202853
 31
0.0
 70
    32
 71
     5
 42
109.9999999999999
  3
Standard
100
AcDbAlignedDimension
 13
168.3694886365719
 23
593.8412840202853
 33
0.0
 14
136.3694886365717
 24
483.8412840202853
 34
0.0
 50
90.0
100
AcDbRotatedDimension
1001
ACAD
1000
DSTYLE
1002
{
1070
    40
1040
2.0
1070
    41
1040
3.5
1070
    42
1040
1.0
1070
    43
1040
7.0
1070
    44
1040
1.0
1070
    73
1070
     0
1070
    74
1070
     0
1070
    77
1070
     1
1070
    78
1070
     8
1070
    79
1070
     2
1070
   140
1040
3.5
1070
   141
1040
1.5
1070
   146
1040
0.5142857142857144
1070
   147
1040
1.5
1070
   172
1070
     1
1070
   178
1070
     1
1070
   179
1070
     2
1070
   271
1070
     2
1070
   272
1070
     2
1070
   284
1070
     8
1070
   285
1070
     8
1070
   286
1070
     8
1002
}
  0
LINE
  5
98A
330
1E
100
AcDbEntity
  8
STEMPEL
100
AcDbLine
 10
138.3694886365719
 20
573.8412260529704
 30
0.0
 11
138.3694886365719
 21
509.8412840202864
 31
0.0
  0
LINE
  5
98B
330
1E
100
AcDbEntity
  8
STEMPEL
100
AcDbLine
 10
139.369488636572
 20
573.8412260529704
 30
0.0
 11
139.369488636572
 21
509.8412840202864
 31
0.0
  0
LINE
  5
98C
330
1E
100
AcDbEntity
  8
STEMPEL
100
AcDbLine
 10
150.7754145098188
 20
516.3412840202842
 30
0.0
 11
150.7754145098188
 21
509.8412840202875
 31
0.0
  0
LINE
  5
98D
330
1E
100
AcDbEntity
  8
STEMPEL
100
AcDbLine
 10
149.8493601733116
 20
516.3412840202842
 30
0.0
 11
149.8493601733116
 21
509.8412840202875
 31
0.0
  0
LINE
  5
98E
330
1E
100
AcDbEntity
  8
STEMPEL
100
AcDbLine
 10
157.5332136935006
 20
516.3412840202842
 30
0.0
 11
157.5332136935006
 21
509.8412840202875
 31
0.0
  0
LINE
  5
98F
330
1E
100
AcDbEntity
  8
STEMPEL
100
AcDbLine
 10
145.0351630243411
 20
516.3412840202842
 30
0.0
 11
145.0351630243411
 21
509.8412840202875
 31
0.0
  0
LINE
  5
990
330
1E
100
AcDbEntity
  8
STEMPEL
100
AcDbLine
 10
139.5791758776072
 20
516.3412840202842
 30
0.0
 11
139.5791758776072
 21
509.8412840202865
 31
0.0
  0
LINE
  5
991
330
1E
100
AcDbEntity
  8
STEMPEL
100
AcDbLine
 10
140.5432900473699
 20
516.3412840202842
 30
0.0
 11
140.5432900473699
 21
509.8412840202865
 31
0.0
  0
LINE
  5
992
330
1E
100
AcDbEntity
  8
STEMPEL
100
AcDbLine
 10
141.5370687609077
 20
516.3412840202842
 30
0.0
 11
141.5370687609077
 21
509.8412840202853
 31
0.0
  0
LINE
  5
993
330
1E
100
AcDbEntity
  8
STEMPEL
100
AcDbLine
 10
118.3694886365719
 20
504.841284020286
 30
0.0
 11
133.3694886365721
 21
504.8412840202864
 31
0.0
  0
LINE
  5
994
330
1E
100
AcDbEntity
  8
STEMPEL
100
AcDbLine
 10
118.3694886365718
 20
504.8412840202862
 30
0.0
 11
118.3694886365717
 21
503.841284020286
 31
0.0
  0
ARC
  5
995
330
1E
100
AcDbEntity
  8
STEMPEL
100
AcDbCircle
 10
136.3694886365716
 20
486.8412840202853
 30
0.0
 40
2.999999999999943
100
AcDbArc
 50
89.99999999999836
 51
270.0000000000017
  0
LINE
  5
996
330
1E
100
AcDbEntity
  8
MITTEL
100
AcDbLine
 10
151.5803811210416
 20
516.4412840202863
 30
0.0
 11
151.5803811210416
 21
487.8412840202853
 31
0.0
  0
LINE
  5
997
330
1E
100
AcDbEntity
  8
STEMPEL
100
AcDbLine
 10
136.3694886365716
 20
483.8412840202847
 30
0.0
 11
153.3694886365719
 21
483.8412840202847
 31
0.0
  0
LINE
  5
998
102
{ACAD_REACTORS
330
E78
102
}
330
1E
100
AcDbEntity
  8
STEMPEL
100
AcDbLine
 10
125.8694886365718
 20
480.8412840202847
 30
0.0
 11
153.3694886365719
 21
480.8412840202847
 31
0.0
  0
LINE
  5
99B
102
{ACAD_REACTORS
330
E78
102
}
330
1E
100
AcDbEntity
  8
STEMPEL
100
AcDbLine
 10
125.8694886365718
 20
480.8412840202847
 30
0.0
 11
125.8694886365718
 21
477.8412840202846
 31
0.0
  0
POINT
  5
99C
330
1E
100
AcDbEntity
  8
BEM
100
AcDbPoint
 10
133.3694886365717
 20
486.8412840202853
 30
0.0
  0
LINE
  5
99D
102
{ACAD_REACTORS
330
E78
102
}
330
1E
100
AcDbEntity
  8
STEMPEL
100
AcDbLine
 10
151.8694886365718
 20
480.8412840202847
 30
0.0
 11
151.8694886365718
 21
477.8412840202846
 31
0.0
  0
LWPOLYLINE
  5
99E
330
1E
100
AcDbEntity
  8
STEMPEL
100
AcDbPolyline
 90
       10
 70
   128
 43
0.0
 10
145.9600499832449
 20
503.841284020286
 10
146.7962292580865
 20
503.9324375022127
 10
147.6070016487891
 20
504.2031282955705
 10
148.3677322465319
 20
504.6451315975794
 10
149.0553066370507
 20
505.2450173615723
 10
149.6488332204191
 20
505.984558362167
 10
150.1302779917403
 20
506.8412840202862
 10
150.4850124952607
 20
507.7891631603322
 10
150.7022583025949
 20
508.7993949542847
 10
150.7754145098188
 20
509.8412840202865
  0
LINE
  5
99F
330
1E
100
AcDbEntity
  8
STEMPEL
100
AcDbLine
 10
140.5589351807043
 20
503.8412840202865
 30
0.0
 11
152.3694886365718
 21
503.8412840202856
 31
0.0
  0
LINE
  5
9A0
330
1E
100
AcDbEntity
  8
STEMPEL
100
AcDbLine
 10
142.8815913916725
 20
504.841284020286
 30
0.0
 11
147.6957885406439
 21
504.841284020286
 31
0.0
  0
LINE
  5
9A1
330
1E
100
AcDbEntity
  8
STEMPEL
100
AcDbLine
 10
140.5589351807043
 20
503.8412840202865
 30
0.0
 11
140.400316431913
 21
494.7540219881005
 31
0.0
  0
LWPOLYLINE
  5
9A2
330
1E
100
AcDbEntity
  8
STEMPEL
100
AcDbPolyline
 90
       10
 70
   128
 43
0.0
 10
138.7657463132436
 20
489.8412840202852
 10
139.0495864356193
 20
489.9159195488786
 10
139.3248022195068
 20
490.1375583718897
 10
139.5830313725784
 20
490.499466105836
 10
139.8164277326881
 20
490.9906463673557
 10
140.0178996695387
 20
491.5961748927517
 10
140.1813255602782
 20
492.2976530041922
 10
140.3017397919145
 20
493.0737666442261
 10
140.3754836389514
 20
493.9009339926331
 10
140.400316431913
 20
494.7540219880991
  0
LWPOLYLINE
  5
9A3
330
1E
100
AcDbEntity
  8
STEMPEL
100
AcDbPolyline
 90
       10
 70
   128
 43
0.0
 10
136.0310800298769
 20
503.841284020286
 10
136.8891530261497
 20
503.9074112348586
 10
137.7419652257719
 20
504.1599649845888
 10
138.5627235326889
 20
504.5910107009064
 10
139.3256418990879
 20
505.1870060713463
 10
140.0067514545871
 20
505.929226503067
 10
140.5846535445328
 20
506.7943533998644
 10
141.041192018939
 20
507.7552067705805
 10
141.3620236505366
 20
508.7815991522926
 10
141.5370687609077
 20
509.8412840202853
  0
LWPOLYLINE
  5
9A4
330
1E
100
AcDbEntity
  8
STEMPEL
100
AcDbPolyline
 90
       10
 70
   128
 43
0.0
 10
134.0731871465764
 20
503.8412840202871
 10
134.9312601428492
 20
503.9074112348598
 10
135.7840723424714
 20
504.15996498459
 10
136.6048306493885
 20
504.5910107009076
 10
137.3677490157874
 20
505.1870060713475
 10
138.0488585712866
 20
505.9292265030681
 10
138.6267606612323
 20
506.7943533998656
 10
139.0832991356386
 20
507.7552067705816
 10
139.4041307672361
 20
508.7815991522938
 10
139.5791758776072
 20
509.8412840202865
  0
ARC
  5
9A5
330
1E
100
AcDbEntity
  8
STEMPEL
100
AcDbCircle
 10
133.369488636572
 20
509.8412840202865
 30
0.0
 40
5.0
100
AcDbArc
 50
270.0000000000017
 51
0.0
  0
ARC
  5
9A6
330
1E
100
AcDbEntity
  8
STEMPEL
100
AcDbCircle
 10
133.369488636572
 20
509.8412840202865
 30
0.0
 40
6.0
100
AcDbArc
 50
270.0000000000017
 51
0.0
  0
LWPOLYLINE
  5
9A7
330
1E
100
AcDbEntity
  8
STEMPEL
100
AcDbPolyline
 90
        7
 70
   128
 43
0.0
 10
137.922830863699
 20
504.8412840202864
 10
138.5995327387765
 20
505.4508847481455
 10
139.1990821624104
 20
506.1784438320571
 10
139.7053708355601
 20
507.0044136937373
 10
140.1047961276056
 20
507.9066027189404
 10
140.3866265428685
 20
508.8607714871342
 10
140.54329004737
 20
509.8412840202865
  0
LINE
  5
9A8
330
1E
100
AcDbEntity
  8
STEMPEL
100
AcDbLine
 10
136.9587166939366
 20
504.841284020286
 30
0.0
 11
137.9228308636993
 21
504.841284020286
 31
0.0
  0
LWPOLYLINE
  5
9A9
330
1E
100
AcDbEntity
  8
STEMPEL
100
AcDbPolyline
 90
       10
 70
   128
 43
0.0
 10
140.2197984977671
 20
503.841284020286
 10
141.0559777726087
 20
503.9324375022127
 10
141.8667501633113
 20
504.2031282955705
 10
142.6274807610542
 20
504.6451315975794
 10
143.3150551515729
 20
505.2450173615723
 10
143.9085817349414
 20
505.984558362167
 10
144.3900265062626
 20
506.8412840202862
 10
144.7447610097829
 20
507.7891631603322
 10
144.9620068171171
 20
508.7993949542847
 10
145.0351630243411
 20
509.8412840202865
  0
LWPOLYLINE
  5
9AA
330
1E
100
AcDbEntity
  8
STEMPEL
100
AcDbPolyline
 90
        7
 70
   128
 43
0.0
 10
147.6957885406429
 20
504.841284020286
 10
148.3158790637073
 20
505.4506219221268
 10
148.8476992104907
 20
506.1780521954161
 10
149.2769450102219
 20
507.0040096893598
 10
149.5920713580192
 20
507.9062792398221
 10
149.7846025349851
 20
508.8605931740652
 10
149.8493601733114
 20
509.8412840202865
  0
LWPOLYLINE
  5
9AB
330
1E
100
AcDbEntity
  8
STEMPEL
100
AcDbPolyline
 90
       18
 70
   128
 43
0.0
 10
-145.0351630243411
 20
516.3412840202842
 10
-145.0840323692574
 20
517.7194054039087
 10
-145.2289762170774
 20
519.0505965166884
 10
-145.4650586789046
 20
520.2895252418652
 10
-145.7842402496514
 20
521.3940013476344
 10
-146.1756515837417
 20
522.3264132248873
 10
-146.6259636376397
 20
523.0550087054486
 10
-147.1198415744391
 20
523.5549763440818
 10
-147.640466973344
 20
523.8092903424985
 10
-148.1701105608158
 20
523.8092903424985
 10
-148.6907359597208
 20
523.5549763440818
 10
-149.1846138965202
 20
523.0550087054486
 10
-149.6349259504182
 20
522.3264132248873
 10
-150.0263372845085
 20
521.3940013476344
 10
-150.3455188552553
 20
520.2895252418652
 10
-150.5816013170825
 20
519.0505965166884
 10
-150.7265451649026
 20
517.7194054039087
 10
-150.7754145098188
 20
516.3412840202842
210
0.0
220
0.0
230
-1.0
  0
LWPOLYLINE
  5
9AC
330
1E
100
AcDbEntity
  8
STEMPEL
100
AcDbPolyline
 90
       18
 70
   128
 43
0.0
 10
-139.5791758776072
 20
516.3412840202842
 10
-139.595844301084
 20
517.7194054039087
 10
-139.6452819483444
 20
519.0505965166884
 10
-139.7258052796049
 20
520.2895252418652
 10
-139.8346721693966
 20
521.3940013476344
 10
-139.9681752863588
 20
522.3264132248873
 10
-140.121768341963
 20
523.0550087054486
 10
-140.290220908915
 20
523.5549763440818
 10
-140.467796537084
 20
523.8092903424985
 10
-140.648448101431
 20
523.8092903424985
 10
-140.8260237296
 20
523.5549763440818
 10
-140.994476296552
 20
523.0550087054486
 10
-141.1480693521561
 20
522.3264132248873
 10
-141.2815724691184
 20
521.3940013476344
 10
-141.3904393589101
 20
520.2895252418652
 10
-141.4709626901705
 20
519.0505965166884
 10
-141.520400337431
 20
517.7194054039087
 10
-141.5370687609077
 20
516.3412840202842
210
0.0
220
0.0
230
-1.0
  0
LWPOLYLINE
  5
9AD
330
1E
100
AcDbEntity
  8
STEMPEL
100
AcDbPolyline
 90
        7
 70
   128
 43
0.0
 10
-140.0612329624884
 20
522.8033380761239
 10
-140.1990619720587
 20
522.0512318391854
 10
-140.3179262490249
 20
521.1285182284707
 10
-140.4142742509261
 20
520.0627669785665
 10
-140.4852271984643
 20
518.8858216417453
 10
-140.5286650904722
 20
517.6328481353435
 10
-140.5432900473698
 20
516.3412840202842
210
0.0
220
0.0
230
-1.0
  0
LWPOLYLINE
  5
9AE
330
1E
100
AcDbEntity
  8
STEMPEL
100
AcDbPolyline
 90
        9
 70
   128
 43
0.0
 10
-147.442261598828
 20
523.7430422649492
 10
-147.9313221420967
 20
523.4166093671919
 10
-148.3909351099976
 20
522.8713403539346
 10
-148.8068849136219
 20
522.1241001108067
 10
-149.1663064429135
 20
521.1980003880292
 10
-149.458082977801
 20
520.1216849660588
 10
-149.6731900225391
 20
518.928443718428
 10
-149.8049744286466
 20
517.655182973352
 10
-149.8493601733114
 20
516.3412840202858
210
0.0
220
0.0
230
-1.0
  0
ARC
  5
9AF
330
1E
100
AcDbEntity
  8
STEMPEL
100
AcDbCircle
 10
144.369488636572
 20
573.8412260529704
 30
0.0
 40
6.0
100
AcDbArc
 50
120.2564164748189
 51
180.0
  0
ARC
  5
9B0
330
1E
100
AcDbEntity
  8
STEMPEL
100
AcDbCircle
 10
144.369488636572
 20
573.8412260529704
 30
0.0
 40
5.0
100
AcDbArc
 50
120.2564164748189
 51
180.0
  0
ARC
  5
9B1
330
1E
100
AcDbEntity
  8
STEMPEL
100
AcDbCircle
 10
138.8583450322604
 20
583.3611210027478
 30
0.0
 40
5.0
100
AcDbArc
 50
300.0670458384858
 51
300.2564371635302
  0
LINE
  5
9B2
330
1E
100
AcDbEntity
  8
STEMPEL
100
AcDbLine
 10
357.369488636572
 20
573.8412260529704
 30
0.0
 11
357.369488636572
 21
509.8412840202865
 31
0.0
  0
LINE
  5
9B3
330
1E
100
AcDbEntity
  8
STEMPEL
100
AcDbLine
 10
358.3694886365722
 20
573.8412260529704
 30
0.0
 11
358.3694886365722
 21
509.8412840202865
 31
0.0
  0
LINE
  5
9B4
102
{ACAD_REACTORS
330
B2C
102
}
330
1E
100
AcDbEntity
  8
STEMPEL
100
AcDbLine
 10
163.3694886365719
 20
483.8412840202847
 30
0.0
 11
373.6305529702751
 21
483.8412840202845
 31
0.0
  0
LINE
  5
9B6
102
{ACAD_REACTORS
330
E78
102
}
330
1E
100
AcDbEntity
  8
STEMPEL
100
AcDbLine
 10
163.3694886365719
 20
480.8412840202847
 30
0.0
 11
370.8694886365719
 21
480.8412840202846
 31
0.0
  0
LWPOLYLINE
  5
9B7
330
1E
100
AcDbEntity
  8
STEMPEL
100
AcDbPolyline
 90
       10
 70
   128
 43
0.0
 10
-285.7763695888479
 20
503.841284020286
 10
-285.3036396310943
 20
503.9324375022127
 10
-284.8452733338941
 20
504.2031282955705
 10
-284.4151979252434
 20
504.6451315975794
 10
-284.0264810288051
 20
505.2450173615723
 10
-283.6909336107774
 20
505.984558362167
 10
-283.4187511096619
 20
506.8412840202862
 10
-283.2182036530237
 20
507.7891631603322
 10
-283.0953847738513
 20
508.7993949542847
 10
-283.0540262616389
 20
509.8412840202865
210
0.0
220
0.0
230
-1.0
  0
LWPOLYLINE
  5
9B8
330
1E
100
AcDbEntity
  8
STEMPEL
100
AcDbPolyline
 90
        9
 70
   128
 43
0.0
 10
290.1749148882862
 20
523.8384104433244
 10
288.8507054379564
 20
523.6595775362765
 10
287.5827260407703
 20
523.2093016189524
 10
286.4180073526847
 20
522.5042838868132
 10
285.399749984078
 20
521.5706741704297
 10
284.5657221448158
 20
520.4431010114535
 10
283.9468587826218
 20
519.1633872545017
 10
283.5661141741477
 20
517.7789987949664
 10
283.4376105273158
 20
516.3412840202858
  0
LWPOLYLINE
  5
9B9
330
1E
100
AcDbEntity
  8
STEMPEL
100
AcDbPolyline
 90
       18
 70
   128
 43
0.0
 10
296.9122192493098
 20
516.3412840202842
 10
296.7942382140287
 20
517.7194054039087
 10
296.444312810839
 20
519.0505965166884
 10
295.8743593296572
 20
520.2895252418652
 10
295.1037868527011
 20
521.3940013476344
 10
294.1588363014736
 20
522.3264132248873
 10
293.0716868336536
 20
523.0550087054486
 10
291.8793600204753
 20
523.5549763440818
 10
290.6224591215235
 20
523.8092903424985
 10
289.3437863894251
 20
523.8092903424985
 10
288.0868854904733
 20
523.5549763440818
 10
286.894558677295
 20
523.0550087054486
 10
285.807409209475
 20
522.3264132248873
 10
284.8624586582475
 20
521.3940013476344
 10
284.0918861812914
 20
520.2895252418652
 10
283.5219327001096
 20
519.0505965166884
 10
283.17200729692
 20
517.7194054039087
 10
283.0540262616389
 20
516.3412840202842
  0
LWPOLYLINE
  5
9BA
330
1E
100
AcDbEntity
  8
STEMPEL
100
AcDbPolyline
 90
        7
 70
   128
 43
0.0
 10
-284.6551219600449
 20
504.841284020286
 10
-284.3045567456329
 20
505.4506219221268
 10
-284.0038947666942
 20
506.1780521954161
 10
-283.7612227047596
 20
507.0040096893598
 10
-283.5830675297112
 20
507.9062792398221
 10
-283.4742209487306
 20
508.8605931740652
 10
-283.4376105273158
 20
509.8412840202865
210
0.0
220
0.0
230
-1.0
  0
LINE
  5
9BB
102
{ACAD_REACTORS
330
B2C
102
}
330
1E
100
AcDbEntity
  8
STEMPEL
100
AcDbLine
 10
118.3694886365717
 20
503.8412840202859
 30
0.0
 11
367.3694886365717
 21
503.8412840202861
 31
0.0
  0
LINE
  5
9BC
330
1E
100
AcDbEntity
  8
STEMPEL
100
AcDbLine
 10
213.6849510115052
 20
516.3412840202826
 30
0.0
 11
213.6849510115052
 21
509.8412840202875
 31
0.0
  0
LINE
  5
9BD
330
1E
100
AcDbEntity
  8
STEMPEL
100
AcDbLine
 10
213.3013667458282
 20
516.3412840202842
 30
0.0
 11
213.3013667458282
 21
509.8412840202875
 31
0.0
  0
LINE
  5
9BE
330
1E
100
AcDbEntity
  8
STEMPEL
100
AcDbLine
 10
199.8267580238343
 20
516.3412840202842
 30
0.0
 11
199.8267580238343
 21
509.8412840202875
 31
0.0
  0
LINE
  5
9BF
330
1E
100
AcDbEntity
  8
STEMPEL
100
AcDbLine
 10
188.1219064903531
 20
516.3412840202842
 30
0.0
 11
188.1219064903531
 21
509.8412840202875
 31
0.0
  0
LINE
  5
9C0
330
1E
100
AcDbEntity
  8
STEMPEL
100
AcDbLine
 10
187.5117120424907
 20
516.3412840202842
 30
0.0
 11
187.5117120424907
 21
509.8412840202875
 31
0.0
  0
LINE
  5
9C1
330
1E
100
AcDbEntity
  8
STEMPEL
100
AcDbLine
 10
166.6646351286324
 20
516.3412840202842
 30
0.0
 11
166.6646351286324
 21
509.8412840202875
 31
0.0
  0
LINE
  5
9C2
330
1E
100
AcDbEntity
  8
STEMPEL
100
AcDbLine
 10
165.8694142418117
 20
516.3412840202842
 30
0.0
 11
165.8694142418117
 21
509.8412840202875
 31
0.0
  0
LINE
  5
9C3
330
1E
100
AcDbEntity
  8
STEMPEL
100
AcDbLine
 10
176.2216063859842
 20
516.3412840202842
 30
0.0
 11
176.2216063859842
 21
509.8412840202875
 31
0.0
  0
ARC
  5
9C4
330
1E
100
AcDbEntity
  8
STEMPEL
100
AcDbCircle
 10
182.8694886365715
 20
486.8412840202851
 30
0.0
 40
3.000000000000397
100
AcDbArc
 50
270.0000000000081
 51
89.99999999999186
  0
LINE
  5
9C5
102
{ACAD_REACTORS
330
E78
102
}
330
1E
100
AcDbEntity
  8
STEMPEL
100
AcDbLine
 10
164.8694886365718
 20
480.8412840202847
 30
0.0
 11
164.8694886365718
 21
477.8412840202846
 31
0.0
  0
LINE
  5
9C7
102
{ACAD_REACTORS
330
E78
102
}
330
1E
100
AcDbEntity
  8
STEMPEL
100
AcDbLine
 10
185.8694886365718
 20
480.8412840202847
 30
0.0
 11
185.8694886365718
 21
477.8412840202846
 31
0.0
  0
LINE
  5
9C8
330
1E
100
AcDbEntity
  8
STEMPEL
100
AcDbLine
 10
174.5835833098788
 20
504.841284020286
 30
0.0
 11
185.8736889663859
 21
504.841284020286
 31
0.0
  0
LWPOLYLINE
  5
9C9
330
1E
100
AcDbEntity
  8
STEMPEL
100
AcDbPolyline
 90
        7
 70
   128
 43
0.0
 10
163.9178374132934
 20
504.841284020286
 10
164.4797663865575
 20
505.4506219221268
 10
164.9617043261447
 20
506.1780521954161
 10
165.3506889058945
 20
507.0040096893598
 10
165.636257897001
 20
507.9062792398221
 10
165.8107305627969
 20
508.8605931740653
 10
165.8694142418118
 20
509.8412840202865
  0
LWPOLYLINE
  5
9CA
330
1E
100
AcDbEntity
  8
STEMPEL
100
AcDbPolyline
 90
        8
 70
   128
 43
0.0
 10
163.2290480257666
 20
503.8412840202859
 10
164.4827820413294
 20
504.6451315975794
 10
165.1058652153758
 20
505.2450173615723
 10
165.6437218204873
 20
505.984558362167
 10
166.0800093558862
 20
506.8412840202862
 10
166.4014714455815
 20
507.7891631603322
 10
166.5983406266455
 20
508.7993949542847
 10
166.6646351286323
 20
509.8412840202865
  0
LWPOLYLINE
  5
9CB
330
1E
100
AcDbEntity
  8
STEMPEL
100
AcDbPolyline
 90
       10
 70
   128
 43
0.0
 10
172.5590032504601
 20
503.841284020286
 10
173.195007610461
 20
503.9324375022127
 10
173.8116872998171
 20
504.2031282955705
 10
174.3903048182222
 20
504.6451315975794
 10
174.913279165174
 20
505.2450173615723
 10
175.3647200297785
 20
505.984558362167
 10
175.7309106098045
 20
506.8412840202862
 10
176.0007243897794
 20
507.7891631603322
 10
176.1659632145311
 20
508.7993949542847
 10
176.2216063859842
 20
509.8412840202865
  0
LWPOLYLINE
  5
9CC
330
1E
100
AcDbEntity
  8
STEMPEL
100
AcDbPolyline
 90
        7
 70
   128
 43
0.0
 10
185.8736889663854
 20
504.841284020286
 10
186.3453345669522
 20
505.4506219221269
 10
186.749841043335
 20
506.1780521954161
 10
187.0763286858241
 20
507.0040096893598
 10
187.3160161992322
 20
507.9062792398221
 10
187.4624568868583
 20
508.8605931740653
 10
187.5117120424907
 20
509.8412840202865
  0
LWPOLYLINE
  5
9CD
330
1E
100
AcDbEntity
  8
STEMPEL
100
AcDbPolyline
 90
       10
 70
   128
 43
0.0
 10
184.4593033548289
 20
503.841284020286
 10
185.0953077148298
 20
503.9324375022127
 10
185.711987404186
 20
504.2031282955705
 10
186.290604922591
 20
504.6451315975794
 10
186.8135792695429
 20
505.2450173615723
 10
187.2650201341474
 20
505.984558362167
 10
187.6312107141734
 20
506.8412840202862
 10
187.9010244941483
 20
507.7891631603322
 10
188.0662633189
 20
508.7993949542847
 10
188.1219064903531
 20
509.8412840202865
  0
LINE
  5
9CE
330
1E
100
AcDbEntity
  8
STEMPEL
100
AcDbLine
 10
198.5926901615861
 20
504.8412840202863
 30
0.0
 11
212.0838553130996
 21
504.841284020286
 31
0.0
  0
LWPOLYLINE
  5
9CF
330
1E
100
AcDbEntity
  8
STEMPEL
100
AcDbPolyline
 90
       10
 70
   128
 43
0.0
 10
210.9626076842962
 20
503.841284020286
 10
211.4353376420498
 20
503.9324375022127
 10
211.89370393925
 20
504.2031282955705
 10
212.3237793479007
 20
504.6451315975794
 10
212.712496244339
 20
505.2450173615723
 10
213.0480436623666
 20
505.984558362167
 10
213.3202261634822
 20
506.8412840202862
 10
213.5207736201203
 20
507.7891631603322
 10
213.6435924992928
 20
508.7993949542847
 10
213.6849510115052
 20
509.8412840202865
  0
LWPOLYLINE
  5
9D0
330
1E
100
AcDbEntity
  8
STEMPEL
100
AcDbPolyline
 90
        7
 70
   128
 43
0.0
 10
212.0838553130992
 20
504.841284020286
 10
212.4344205275111
 20
505.4506219221268
 10
212.7350825064498
 20
506.1780521954161
 10
212.9777545683845
 20
507.0040096893598
 10
213.1559097434329
 20
507.9062792398221
 10
213.2647563244134
 20
508.8605931740652
 10
213.3013667458282
 20
509.8412840202865
  0
LWPOLYLINE
  5
9D1
330
1E
100
AcDbEntity
  8
STEMPEL
100
AcDbPolyline
 90
       18
 70
   128
 43
0.0
 10
-176.2216063859841
 20
516.3412840202842
 10
-176.3229189977884
 20
517.7194054039087
 10
-176.6234067537177
 20
519.0505965166884
 10
-177.1128369036389
 20
520.2895252418652
 10
-177.7745424908033
 20
521.3940013476344
 10
-178.5859899250684
 20
522.3264132248873
 10
-179.5195463372841
 20
523.0550087054486
 10
-180.5434205835102
 20
523.5549763440818
 10
-181.622745854293
 20
523.8092903424985
 10
-182.720767022044
 20
523.8092903424985
 10
-183.8000922928268
 20
523.5549763440818
 10
-184.8239665390529
 20
523.0550087054486
 10
-185.7575229512686
 20
522.3264132248873
 10
-186.5689703855337
 20
521.3940013476344
 10
-187.2306759726981
 20
520.2895252418652
 10
-187.7201061226194
 20
519.0505965166884
 10
-188.0205938785486
 20
517.7194054039087
 10
-188.1219064903529
 20
516.3412840202842
210
0.0
220
0.0
230
-1.0
  0
LWPOLYLINE
  5
9D2
330
1E
100
AcDbEntity
  8
STEMPEL
100
AcDbPolyline
 90
        9
 70
   128
 43
0.0
 10
-181.866659214249
 20
523.8314180981078
 10
-182.9830669356202
 20
523.6241109617008
 10
-184.0483461873624
 20
523.154856234247
 10
-185.0241811704008
 20
522.4405319970784
 10
-185.8754732032587
 20
521.506830953682
 10
-186.5716031459952
 20
520.3873363185216
 10
-187.0875327046865
 20
519.1223139011829
 10
-187.4047050049025
 20
517.7572638319737
 10
-187.5117120424906
 20
516.3412840202858
210
0.0
220
0.0
230
-1.0
  0
LWPOLYLINE
  5
9D3
330
1E
100
AcDbEntity
  8
STEMPEL
100
AcDbPolyline
 90
        9
 70
   128
 43
0.0
 10
-206.5640623848579
 20
523.8384104433244
 10
-207.8882718351877
 20
523.6595775362765
 10
-209.1562512323738
 20
523.2093016189524
 10
-210.3209699204594
 20
522.5042838868132
 10
-211.339227289066
 20
521.5706741704297
 10
-212.1732551283283
 20
520.4431010114535
 10
-212.7921184905222
 20
519.1633872545017
 10
-213.1728630989964
 20
517.7789987949664
 10
-213.3013667458282
 20
516.3412840202858
210
0.0
220
0.0
230
-1.0
  0
LWPOLYLINE
  5
9D4
330
1E
100
AcDbEntity
  8
STEMPEL
100
AcDbPolyline
 90
       18
 70
   128
 43
0.0
 10
-199.8267580238343
 20
516.3412840202842
 10
-199.9447390591154
 20
517.7194054039087
 10
-200.2946644623051
 20
519.0505965166884
 10
-200.8646179434868
 20
520.2895252418652
 10
-201.6351904204429
 20
521.3940013476344
 10
-202.5801409716704
 20
522.3264132248873
 10
-203.6672904394906
 20
523.0550087054486
 10
-204.8596172526688
 20
523.5549763440818
 10
-206.1165181516206
 20
523.8092903424985
 10
-207.395190883719
 20
523.8092903424985
 10
-208.6520917826708
 20
523.5549763440818
 10
-209.8444185958489
 20
523.0550087054486
 10
-210.9315680636691
 20
522.3264132248873
 10
-211.8765186148966
 20
521.3940013476344
 10
-212.6470910918527
 20
520.2895252418652
 10
-213.2170445730344
 20
519.0505965166884
 10
-213.5669699762241
 20
517.7194054039087
 10
-213.6849510115052
 20
516.3412840202842
210
0.0
220
0.0
230
-1.0
  0
LINE
  5
9D5
330
1E
100
AcDbEntity
  8
STEMPEL
100
AcDbLine
 10
269.9989607408592
 20
516.3412840202858
 30
0.0
 11
269.9989607408592
 21
509.8412840202875
 31
0.0
  0
LINE
  5
9D6
330
1E
100
AcDbEntity
  8
STEMPEL
100
AcDbLine
 10
283.4376105273158
 20
516.3412840202842
 30
0.0
 11
283.4376105273158
 21
509.8412840202875
 31
0.0
  0
LINE
  5
9D7
330
1E
100
AcDbEntity
  8
STEMPEL
100
AcDbLine
 10
283.0540262616389
 20
516.3412840202826
 30
0.0
 11
283.0540262616389
 21
509.8412840202875
 31
0.0
  0
LINE
  5
9D8
330
1E
100
AcDbEntity
  8
STEMPEL
100
AcDbLine
 10
255.258121269938
 20
516.3412840202842
 30
0.0
 11
255.258121269938
 21
509.8412840202875
 31
0.0
  0
LINE
  5
9D9
330
1E
100
AcDbEntity
  8
STEMPEL
100
AcDbLine
 10
255.1272878202515
 20
516.3412840202826
 30
0.0
 11
255.1272878202515
 21
509.8412840202875
 31
0.0
  0
LINE
  5
9DA
330
1E
100
AcDbEntity
  8
STEMPEL
100
AcDbLine
 10
241.6116894528926
 20
516.3412840202826
 30
0.0
 11
241.6116894528926
 21
509.8412840202875
 31
0.0
  0
LINE
  5
9DB
330
1E
100
AcDbEntity
  8
STEMPEL
100
AcDbLine
 10
241.4808560032061
 20
516.3412840202842
 30
0.0
 11
241.4808560032061
 21
509.8412840202875
 31
0.0
  0
LINE
  5
9DC
330
1E
100
AcDbEntity
  8
STEMPEL
100
AcDbLine
 10
226.7400165322849
 20
516.3412840202858
 30
0.0
 11
226.7400165322849
 21
509.8412840202875
 31
0.0
  0
LINE
  5
9DD
330
1E
100
AcDbEntity
  8
STEMPEL
100
AcDbLine
 10
226.153442010028
 20
504.841284020286
 30
0.0
 11
240.8942814809494
 21
504.841284020286
 31
0.0
  0
LWPOLYLINE
  5
9DE
330
1E
100
AcDbEntity
  8
STEMPEL
100
AcDbPolyline
 90
       10
 70
   128
 43
0.0
 10
225.4284417957771
 20
503.841284020286
 10
225.6561943586457
 20
503.9324375022127
 10
225.8770267751399
 20
504.2031282955705
 10
226.0842291640311
 20
504.6451315975794
 10
226.2715057855823
 20
505.2450173615723
 10
226.4331663344143
 20
505.984558362167
 10
226.5642988365549
 20
506.8412840202862
 10
226.6609188972828
 20
507.7891631603322
 10
226.7200907649451
 20
508.7993949542847
 10
226.740016532285
 20
509.8412840202865
  0
LWPOLYLINE
  5
9DF
330
1E
100
AcDbEntity
  8
STEMPEL
100
AcDbPolyline
 90
       10
 70
   128
 43
0.0
 10
240.3001147163847
 20
503.841284020286
 10
240.5278672792533
 20
503.9324375022127
 10
240.7486996957475
 20
504.2031282955705
 10
240.9559020846387
 20
504.6451315975794
 10
241.1431787061899
 20
505.2450173615723
 10
241.3048392550218
 20
505.984558362167
 10
241.4359717571624
 20
506.8412840202862
 10
241.5325918178904
 20
507.7891631603322
 10
241.5917636855526
 20
508.7993949542847
 10
241.6116894528926
 20
509.8412840202865
  0
LWPOLYLINE
  5
9E0
330
1E
100
AcDbEntity
  8
STEMPEL
100
AcDbPolyline
 90
        7
 70
   128
 43
0.0
 10
240.894281480949
 20
504.841284020286
 10
241.0631773267175
 20
505.4506219221268
 10
241.2080307152901
 20
506.1780521954161
 10
241.3249456328572
 20
507.0040096893598
 10
241.4107775058749
 20
507.9062792398221
 10
241.4632177783206
 20
508.8605931740653
 10
241.4808560032059
 20
509.8412840202865
  0
LINE
  5
9E1
330
1E
100
AcDbEntity
  8
STEMPEL
100
AcDbLine
 10
270.5855352631161
 20
504.841284020286
 30
0.0
 11
255.8446957921947
 21
504.841284020286
 31
0.0
  0
LWPOLYLINE
  5
9E2
330
1E
100
AcDbEntity
  8
STEMPEL
100
AcDbPolyline
 90
       10
 70
   128
 43
0.0
 10
-256.4388625567594
 20
503.841284020286
 10
-256.2111099938908
 20
503.9324375022127
 10
-255.9902775773966
 20
504.2031282955705
 10
-255.7830751885054
 20
504.6451315975794
 10
-255.5957985669542
 20
505.2450173615723
 10
-255.4341380181223
 20
505.984558362167
 10
-255.3030055159816
 20
506.8412840202862
 10
-255.2063854552537
 20
507.7891631603322
 10
-255.1472135875915
 20
508.7993949542847
 10
-255.1272878202515
 20
509.8412840202865
210
0.0
220
0.0
230
-1.0
  0
LWPOLYLINE
  5
9E3
330
1E
100
AcDbEntity
  8
STEMPEL
100
AcDbPolyline
 90
        7
 70
   128
 43
0.0
 10
-255.8446957921951
 20
504.841284020286
 10
-255.6757999464266
 20
505.4506219221268
 10
-255.5309465578539
 20
506.1780521954161
 10
-255.4140316402869
 20
507.0040096893598
 10
-255.3281997672692
 20
507.9062792398221
 10
-255.2757594948235
 20
508.8605931740653
 10
-255.2581212699382
 20
509.8412840202865
210
0.0
220
0.0
230
-1.0
  0
LWPOLYLINE
  5
9E4
330
1E
100
AcDbEntity
  8
STEMPEL
100
AcDbPolyline
 90
       10
 70
   128
 43
0.0
 10
-271.310535477367
 20
503.841284020286
 10
-271.0827829144984
 20
503.9324375022127
 10
-270.8619504980042
 20
504.2031282955705
 10
-270.654748109113
 20
504.6451315975794
 10
-270.4674714875618
 20
505.2450173615723
 10
-270.3058109387299
 20
505.984558362167
 10
-270.1746784365892
 20
506.8412840202862
 10
-270.0780583758613
 20
507.7891631603322
 10
-270.0188865081992
 20
508.7993949542847
 10
-269.9989607408591
 20
509.8412840202865
210
0.0
220
0.0
230
-1.0
  0
LWPOLYLINE
  5
9E5
330
1E
100
AcDbEntity
  8
STEMPEL
100
AcDbPolyline
 90
        9
 70
   128
 43
0.0
 10
-234.1104362678454
 20
523.8409937800589
 10
-235.5517762517232
 20
523.6856923861353
 10
-236.9358571551728
 20
523.251292139121
 10
-238.2100817677047
 20
522.5543009188457
 10
-239.3260275874346
 20
521.6212054674
 10
-240.2412869508876
 20
520.4874648520565
 10
-240.9210785896627
 20
519.1961629659872
 10
-241.3395693723122
 20
517.7963712738276
 10
-241.4808560032061
 20
516.3412840202858
210
0.0
220
0.0
230
-1.0
  0
LWPOLYLINE
  5
9E6
330
1E
100
AcDbEntity
  8
STEMPEL
100
AcDbPolyline
 90
       18
 70
   128
 43
0.0
 10
-226.7400165322851
 20
516.3412840202842
 10
-226.8666257784615
 20
517.7194054039087
 10
-227.2421419909631
 20
519.0505965166884
 10
-227.8537774155555
 20
520.2895252418652
 10
-228.6807035414299
 20
521.3940013476344
 10
-229.6947603911581
 20
522.3264132248873
 10
-230.8614154749498
 20
523.0550087054486
 10
-232.1409397531752
 20
523.5549763440818
 10
-233.4897605611593
 20
523.8092903424985
 10
-234.8619454240185
 20
523.8092903424985
 10
-236.2107662320026
 20
523.5549763440818
 10
-237.4902905102279
 20
523.0550087054486
 10
-238.6569455940196
 20
522.3264132248873
 10
-239.6710024437479
 20
521.3940013476344
 10
-240.4979285696223
 20
520.2895252418652
 10
-241.1095639942146
 20
519.0505965166884
 10
-241.4850802067163
 20
517.7194054039087
 10
-241.6116894528927
 20
516.3412840202842
210
0.0
220
0.0
230
-1.0
  0
LWPOLYLINE
  5
9E7
330
1E
100
AcDbEntity
  8
STEMPEL
100
AcDbPolyline
 90
       18
 70
   128
 43
0.0
 10
269.998960740859
 20
516.3412840202842
 10
269.8723514946826
 20
517.7194054039087
 10
269.4968352821809
 20
519.0505965166884
 10
268.8851998575886
 20
520.2895252418652
 10
268.0582737317142
 20
521.3940013476344
 10
267.044216881986
 20
522.3264132248873
 10
265.8775617981942
 20
523.0550087054486
 10
264.598037519969
 20
523.5549763440818
 10
263.2492167119849
 20
523.8092903424985
 10
261.8770318491256
 20
523.8092903424985
 10
260.5282110411414
 20
523.5549763440818
 10
259.2486867629162
 20
523.0550087054486
 10
258.0820316791244
 20
522.3264132248873
 10
257.0679748293962
 20
521.3940013476344
 10
256.2410487035218
 20
520.2895252418652
 10
255.6294132789294
 20
519.0505965166884
 10
255.2538970664278
 20
517.7194054039087
 10
255.1272878202514
 20
516.3412840202842
  0
LWPOLYLINE
  5
9E8
330
1E
100
AcDbEntity
  8
STEMPEL
100
AcDbPolyline
 90
        9
 70
   128
 43
0.0
 10
262.6285410052987
 20
523.8409937800589
 10
261.1872010214209
 20
523.6856923861353
 10
259.8031201179713
 20
523.251292139121
 10
258.5288955054394
 20
522.5543009188457
 10
257.4129496857095
 20
521.6212054674
 10
256.4976903222564
 20
520.4874648520565
 10
255.8178986834814
 20
519.1961629659872
 10
255.3994079008319
 20
517.7963712738276
 10
255.258121269938
 20
516.3412840202858
  0
LINE
  5
9E9
330
1E
100
AcDbEntity
  8
STEMPEL
100
AcDbLine
 10
330.8695630313323
 20
516.3412840202842
 30
0.0
 11
330.8695630313323
 21
509.8412840202875
 31
0.0
  0
LINE
  5
9EA
330
1E
100
AcDbEntity
  8
STEMPEL
100
AcDbLine
 10
339.2057635796435
 20
516.3412840202842
 30
0.0
 11
339.2057635796435
 21
509.8412840202875
 31
0.0
  0
LINE
  5
9EB
330
1E
100
AcDbEntity
  8
STEMPEL
100
AcDbLine
 10
320.5173708871599
 20
516.3412840202842
 30
0.0
 11
320.5173708871599
 21
509.8412840202875
 31
0.0
  0
LINE
  5
9EC
330
1E
100
AcDbEntity
  8
STEMPEL
100
AcDbLine
 10
330.0743421445116
 20
516.3412840202842
 30
0.0
 11
330.0743421445116
 21
509.8412840202875
 31
0.0
  0
LINE
  5
9ED
330
1E
100
AcDbEntity
  8
STEMPEL
100
AcDbLine
 10
309.2272652306534
 20
516.3412840202842
 30
0.0
 11
309.2272652306534
 21
509.8412840202875
 31
0.0
  0
LINE
  5
9EE
330
1E
100
AcDbEntity
  8
STEMPEL
100
AcDbLine
 10
308.617070782791
 20
516.3412840202842
 30
0.0
 11
308.617070782791
 21
509.8412840202875
 31
0.0
  0
LINE
  5
9EF
330
1E
100
AcDbEntity
  8
STEMPEL
100
AcDbLine
 10
296.9122192493098
 20
516.3412840202842
 30
0.0
 11
296.9122192493098
 21
509.8412840202875
 31
0.0
  0
LINE
  5
9F0
102
{ACAD_REACTORS
330
E78
102
}
330
1E
100
AcDbEntity
  8
MITTEL
100
AcDbLine
 10
319.7694886365717
 20
507.8412840202844
 30
0.0
 11
319.7694886365718
 21
472.8412840202842
 31
0.0
  0
ARC
  5
9F1
330
1E
100
AcDbEntity
  8
STEMPEL
100
AcDbCircle
 10
313.869488636572
 20
486.8412840202853
 30
0.0
 40
3.0
100
AcDbArc
 50
90.0
 51
270.0
  0
LINE
  5
9F3
102
{ACAD_REACTORS
330
E78
102
}
330
1E
100
AcDbEntity
  8
STEMPEL
100
AcDbLine
 10
310.8694886365718
 20
480.8412840202846
 30
0.0
 11
310.8694886365718
 21
477.8412840202845
 31
0.0
  0
LINE
  5
9F4
330
1E
100
AcDbEntity
  8
STEMPEL
100
AcDbLine
 10
298.1297306820389
 20
504.841284020286
 30
0.0
 11
284.6551219600445
 21
504.841284020286
 31
0.0
  0
LWPOLYLINE
  5
9F5
330
1E
100
AcDbEntity
  8
STEMPEL
100
AcDbPolyline
 90
       10
 70
   128
 43
0.0
 10
-299.6345625765188
 20
503.841284020286
 10
-299.1618326187652
 20
503.9324375022127
 10
-298.703466321565
 20
504.2031282955705
 10
-298.2733909129143
 20
504.6451315975794
 10
-297.884674016476
 20
505.2450173615723
 10
-297.5491265984484
 20
505.984558362167
 10
-297.2769440973328
 20
506.8412840202862
 10
-297.0763966406947
 20
507.7891631603322
 10
-296.9535777615222
 20
508.7993949542847
 10
-296.9122192493098
 20
509.8412840202865
210
0.0
220
0.0
230
-1.0
  0
LINE
  5
9F6
330
1E
100
AcDbEntity
  8
STEMPEL
100
AcDbLine
 10
322.1776687550099
 20
504.8412840202858
 30
0.0
 11
310.8652883067581
 21
504.841284020286
 31
0.0
  0
LWPOLYLINE
  5
9F7
330
1E
100
AcDbEntity
  8
STEMPEL
100
AcDbPolyline
 90
        7
 70
   128
 43
0.0
 10
-310.8652883067587
 20
504.841284020286
 10
-310.3936427061919
 20
505.4506219221269
 10
-309.9891362298091
 20
506.1780521954161
 10
-309.66264858732
 20
507.0040096893598
 10
-309.4229610739117
 20
507.9062792398221
 10
-309.2765203862858
 20
508.8605931740653
 10
-309.2272652306534
 20
509.8412840202865
210
0.0
220
0.0
230
-1.0
  0
LWPOLYLINE
  5
9F8
330
1E
100
AcDbEntity
  8
STEMPEL
100
AcDbPolyline
 90
       10
 70
   128
 43
0.0
 10
-312.2796739183152
 20
503.841284020286
 10
-311.6436695583142
 20
503.9324375022127
 10
-311.0269898689581
 20
504.2031282955705
 10
-310.448372350553
 20
504.6451315975794
 10
-309.9253980036012
 20
505.2450173615723
 10
-309.4739571389967
 20
505.984558362167
 10
-309.1077665589707
 20
506.8412840202862
 10
-308.8379527789958
 20
507.7891631603322
 10
-308.6727139542441
 20
508.7993949542847
 10
-308.617070782791
 20
509.8412840202865
210
0.0
220
0.0
230
-1.0
  0
LWPOLYLINE
  5
9F9
330
1E
100
AcDbEntity
  8
STEMPEL
100
AcDbPolyline
 90
       10
 70
   128
 43
0.0
 10
-334.4380483191175
 20
503.841284020286
 10
-333.6802986940233
 20
503.9324375022127
 10
-332.9455729078477
 20
504.2031282955705
 10
-332.2561952318146
 20
504.6451315975794
 10
-331.6331120577682
 20
505.2450173615723
 10
-331.0952554526568
 20
505.984558362167
 10
-330.6589679172578
 20
506.8412840202862
 10
-330.3375058275626
 20
507.7891631603322
 10
-330.1406366464985
 20
508.7993949542847
 10
-330.0743421445117
 20
509.8412840202865
210
0.0
220
0.0
230
-1.0
  0
LINE
  5
9FA
330
1E
100
AcDbEntity
  8
STEMPEL
100
AcDbLine
 10
341.1573404081619
 20
504.841284020286
 30
0.0
 11
332.82113985985
 21
504.841284020286
 31
0.0
  0
LWPOLYLINE
  5
9FB
330
1E
100
AcDbEntity
  8
STEMPEL
100
AcDbPolyline
 90
        7
 70
   128
 43
0.0
 10
-332.8211398598507
 20
504.841284020286
 10
-332.2592108865866
 20
505.4506219221268
 10
-331.7772729469994
 20
506.1780521954161
 10
-331.3882883672496
 20
507.0040096893598
 10
-331.1027193761432
 20
507.9062792398221
 10
-330.9282467103472
 20
508.8605931740653
 10
-330.8695630313323
 20
509.8412840202865
210
0.0
220
0.0
230
-1.0
  0
LWPOLYLINE
  5
9FC
330
1E
100
AcDbEntity
  8
STEMPEL
100
AcDbPolyline
 90
       10
 70
   128
 43
0.0
 10
-343.5694697542494
 20
503.841284020286
 10
-342.8117201291552
 20
503.9324375022127
 10
-342.0769943429796
 20
504.2031282955705
 10
-341.3876166669465
 20
504.6451315975794
 10
-340.7645334929001
 20
505.2450173615723
 10
-340.2266768877887
 20
505.984558362167
 10
-339.7903893523897
 20
506.8412840202862
 10
-339.4689272626944
 20
507.7891631603322
 10
-339.2720580816304
 20
508.7993949542847
 10
-339.2057635796436
 20
509.8412840202865
210
0.0
220
0.0
230
-1.0
  0
LWPOLYLINE
  5
9FD
330
1E
100
AcDbEntity
  8
STEMPEL
100
AcDbPolyline
 90
       18
 70
   128
 43
0.0
 10
320.51737088716
 20
516.3412840202842
 10
320.4160582753556
 20
517.7194054039087
 10
320.1155705194264
 20
519.0505965166884
 10
319.6261403695052
 20
520.2895252418652
 10
318.9644347823408
 20
521.3940013476344
 10
318.1529873480757
 20
522.3264132248873
 10
317.21943093586
 20
523.0550087054486
 10
316.1955566896339
 20
523.5549763440818
 10
315.1162314188511
 20
523.8092903424985
 10
314.0182102511
 20
523.8092903424985
 10
312.9388849803173
 20
523.5549763440818
 10
311.9150107340912
 20
523.0550087054486
 10
310.9814543218754
 20
522.3264132248873
 10
310.1700068876103
 20
521.3940013476344
 10
309.5083013004459
 20
520.2895252418652
 10
309.0188711505247
 20
519.0505965166884
 10
308.7183833945955
 20
517.7194054039087
 10
308.6170707827911
 20
516.3412840202842
  0
LWPOLYLINE
  5
9FE
330
1E
100
AcDbEntity
  8
STEMPEL
100
AcDbPolyline
 90
        9
 70
   128
 43
0.0
 10
314.872318058895
 20
523.8314180981078
 10
313.7559103375239
 20
523.6241109617008
 10
312.6906310857816
 20
523.154856234247
 10
311.7147961027433
 20
522.4405319970784
 10
310.8635040698853
 20
521.506830953682
 10
310.1673741271489
 20
520.3873363185216
 10
309.6514445684575
 20
519.1223139011829
 10
309.3342722682417
 20
517.7572638319737
 10
309.2272652306535
 20
516.3412840202858
  0
LWPOLYLINE
  5
9FF
330
1E
100
AcDbEntity
  8
STEMPEL
100
AcDbPolyline
 90
       18
 70
   128
 43
0.0
 10
339.2057635796434
 20
516.3412840202842
 10
339.1280236783833
 20
517.7194054039087
 10
338.8974513137014
 20
519.0505965166884
 10
338.5218983509363
 20
520.2895252418652
 10
338.0141537958086
 20
521.3940013476344
 10
337.3915082801706
 20
522.3264132248873
 10
336.6751652502765
 20
523.0550087054486
 10
335.8895189088507
 20
523.5549763440818
 10
335.0613234997713
 20
523.8092903424985
 10
334.2187822243836
 20
523.8092903424985
 10
333.3905868153042
 20
523.5549763440818
 10
332.6049404738784
 20
523.0550087054486
 10
331.8885974439842
 20
522.3264132248873
 10
331.2659519283463
 20
521.3940013476344
 10
330.7582073732186
 20
520.2895252418652
 10
330.3826544104534
 20
519.0505965166884
 10
330.1520820457716
 20
517.7194054039087
 10
330.0743421445115
 20
516.3412840202842
  0
LWPOLYLINE
  5
A00
330
1E
100
AcDbEntity
  8
STEMPEL
100
AcDbPolyline
 90
       10
 70
   128
 43
0.0
 10
335.4352737488984
 20
523.8412840202873
 10
334.6424464030387
 20
523.7273421678789
 10
333.873708714893
 20
523.3889786761815
 10
333.1524183901154
 20
522.8364745486705
 10
332.5004914702339
 20
522.0866173436793
 10
331.9377364248183
 20
521.1621910929359
 10
331.4812522811554
 20
520.0912840202866
 10
331.1449090789586
 20
518.9064350952288
 10
330.9389264362285
 20
517.643645352788
 10
330.8695630313325
 20
516.3412840202858
  0
LINE
  5
A01
330
1E
100
AcDbEntity
  8
STEMPEL
100
AcDbLine
 10
346.8896170998325
 20
516.3412840202842
 30
0.0
 11
346.8896170998325
 21
509.8412840202875
 31
0.0
  0
LINE
  5
A02
330
1E
100
AcDbEntity
  8
STEMPEL
100
AcDbLine
 10
345.9635627633252
 20
516.3412840202842
 30
0.0
 11
345.9635627633252
 21
509.8412840202875
 31
0.0
  0
LINE
  5
A03
330
1E
100
AcDbEntity
  8
STEMPEL
100
AcDbLine
 10
357.1598013955368
 20
516.3412840202842
 30
0.0
 11
357.1598013955368
 21
509.8412840202865
 31
0.0
  0
LINE
  5
A04
330
1E
100
AcDbEntity
  8
STEMPEL
100
AcDbLine
 10
351.703814248803
 20
516.3412840202842
 30
0.0
 11
351.703814248803
 21
509.8412840202875
 31
0.0
  0
LINE
  5
A05
330
1E
100
AcDbEntity
  8
STEMPEL
100
AcDbLine
 10
355.2019085122363
 20
516.3412840202842
 30
0.0
 11
355.2019085122363
 21
509.8412840202853
 31
0.0
  0
LINE
  5
A06
330
1E
100
AcDbEntity
  8
STEMPEL
100
AcDbLine
 10
356.1956872257742
 20
516.3412840202842
 30
0.0
 11
356.1956872257742
 21
509.8412840202865
 31
0.0
  0
LINE
  5
A07
330
1E
100
AcDbEntity
  8
MITTEL
100
AcDbLine
 10
370.3694886365718
 20
516.4412840202863
 30
0.0
 11
370.3694886365718
 21
483.8412840202846
 31
0.0
  0
LINE
  5
A08
330
1E
100
AcDbEntity
  8
STEMPEL
100
AcDbLine
 10
378.3694886365717
 20
504.841284020286
 30
0.0
 11
363.3694886365718
 21
504.8412840202864
 31
0.0
  0
LINE
  5
A09
102
{ACAD_REACTORS
330
B2C
102
}
330
1E
100
AcDbEntity
  8
STEMPEL
100
AcDbLine
 10
373.3694886365718
 20
503.841284020286
 30
0.0
 11
378.369488636572
 21
503.841284020286
 31
0.0
  0
ARC
  5
A0A
102
{ACAD_REACTORS
330
B2C
102
}
330
1E
100
AcDbEntity
  8
STEMPEL
100
AcDbCircle
 10
373.6305529702751
 20
488.8412840202855
 30
0.0
 40
5.0
100
AcDbArc
 50
270.0
 51
1.000000000001761
  0
LINE
  5
A0C
102
{ACAD_REACTORS
330
E78
102
}
330
1E
100
AcDbEntity
  8
STEMPEL
100
AcDbLine
 10
370.8694886365719
 20
480.8412840202845
 30
0.0
 11
370.8694886365719
 21
477.8412840202845
 31
0.0
  0
ARC
  5
A0D
330
1E
100
AcDbEntity
  8
STEMPEL
100
AcDbCircle
 10
363.3694886365721
 20
509.8412840202865
 30
0.0
 40
5.0
100
AcDbArc
 50
180.0
 51
269.9999999999984
  0
LWPOLYLINE
  5
A0E
330
1E
100
AcDbEntity
  8
STEMPEL
100
AcDbPolyline
 90
       10
 70
   128
 43
0.0
 10
-362.6657901265676
 20
503.8412840202871
 10
-361.8077171302949
 20
503.9074112348598
 10
-360.9549049306726
 20
504.15996498459
 10
-360.1341466237556
 20
504.5910107009076
 10
-359.3712282573566
 20
505.1870060713475
 10
-358.6901187018574
 20
505.9292265030681
 10
-358.1122166119117
 20
506.7943533998656
 10
-357.6556781375055
 20
507.7552067705816
 10
-357.3348465059079
 20
508.7815991522938
 10
-357.1598013955368
 20
509.8412840202865
210
0.0
220
0.0
230
-1.0
  0
ARC
  5
A0F
330
1E
100
AcDbEntity
  8
STEMPEL
100
AcDbCircle
 10
363.3694886365721
 20
509.8412840202865
 30
0.0
 40
6.0
100
AcDbArc
 50
180.0
 51
269.9999999999984
  0
ARC
  5
A10
330
1E
100
AcDbEntity
  8
STEMPEL
100
AcDbCircle
 10
357.2116314119984
 20
494.8412840202855
 30
0.0
 40
5.0
100
AcDbArc
 50
270.0
 51
358.9999999999982
  0
ARC
  5
A11
330
1E
100
AcDbEntity
  8
STEMPEL
100
AcDbCircle
 10
356.7721879446362
 20
494.8412840202866
 30
0.0
 40
5.0
100
AcDbArc
 50
270.0
 51
358.9999999999982
  0
LINE
  5
A12
330
1E
100
AcDbEntity
  8
STEMPEL
100
AcDbLine
 10
353.8573858814715
 20
504.841284020286
 30
0.0
 11
349.0431887325001
 21
504.841284020286
 31
0.0
  0
LWPOLYLINE
  5
A13
330
1E
100
AcDbEntity
  8
STEMPEL
100
AcDbPolyline
 90
       10
 70
   128
 43
0.0
 10
-356.5191787753769
 20
503.841284020286
 10
-355.6829995005354
 20
503.9324375022127
 10
-354.8722271098327
 20
504.2031282955705
 10
-354.1114965120899
 20
504.6451315975794
 10
-353.4239221215711
 20
505.2450173615723
 10
-352.8303955382027
 20
505.984558362167
 10
-352.3489507668815
 20
506.8412840202862
 10
-351.9942162633611
 20
507.7891631603322
 10
-351.776970456027
 20
508.7993949542847
 10
-351.703814248803
 20
509.8412840202865
210
0.0
220
0.0
230
-1.0
  0
LWPOLYLINE
  5
A14
330
1E
100
AcDbEntity
  8
STEMPEL
100
AcDbPolyline
 90
        7
 70
   128
 43
0.0
 10
-349.0431887325012
 20
504.841284020286
 10
-348.4230982094369
 20
505.4506219221268
 10
-347.8912780626534
 20
506.1780521954161
 10
-347.4620322629221
 20
507.0040096893598
 10
-347.1469059151248
 20
507.9062792398221
 10
-346.9543747381589
 20
508.8605931740652
 10
-346.8896170998326
 20
509.8412840202865
210
0.0
220
0.0
230
-1.0
  0
LWPOLYLINE
  5
A15
330
1E
100
AcDbEntity
  8
STEMPEL
100
AcDbPolyline
 90
       10
 70
   128
 43
0.0
 10
-350.7789272898992
 20
503.841284020286
 10
-349.9427480150576
 20
503.9324375022127
 10
-349.131975624355
 20
504.2031282955705
 10
-348.3712450266121
 20
504.6451315975794
 10
-347.6836706360934
 20
505.2450173615723
 10
-347.090144052725
 20
505.984558362167
 10
-346.6086992814037
 20
506.8412840202862
 10
-346.2539647778834
 20
507.7891631603322
 10
-346.0367189705492
 20
508.7993949542847
 10
-345.9635627633252
 20
509.8412840202865
210
0.0
220
0.0
230
-1.0
  0
LINE
  5
A16
330
1E
100
AcDbEntity
  8
STEMPEL
100
AcDbLine
 10
359.7802605792074
 20
504.841284020286
 30
0.0
 11
358.8161464094448
 21
504.841284020286
 31
0.0
  0
LWPOLYLINE
  5
A17
330
1E
100
AcDbEntity
  8
STEMPEL
100
AcDbPolyline
 90
       10
 70
   128
 43
0.0
 10
-360.7078972432672
 20
503.841284020286
 10
-359.8498242469944
 20
503.9074112348586
 10
-358.9970120473722
 20
504.1599649845888
 10
-358.1762537404551
 20
504.5910107009064
 10
-357.4133353740561
 20
505.1870060713463
 10
-356.732225818557
 20
505.929226503067
 10
-356.1543237286112
 20
506.7943533998644
 10
-355.6977852542051
 20
507.7552067705805
 10
-355.3769536226075
 20
508.7815991522926
 10
-355.2019085122363
 20
509.8412840202853
210
0.0
220
0.0
230
-1.0
  0
LWPOLYLINE
  5
A18
330
1E
100
AcDbEntity
  8
STEMPEL
100
AcDbPolyline
 90
        7
 70
   128
 43
0.0
 10
-358.816146409445
 20
504.8412840202864
 10
-358.1394445343677
 20
505.4508847481455
 10
-357.5398951107337
 20
506.1784438320571
 10
-357.0336064375841
 20
507.0044136937373
 10
-356.6341811455384
 20
507.9066027189404
 10
-356.3523507302755
 20
508.8607714871342
 10
-356.1956872257741
 20
509.8412840202865
210
0.0
220
0.0
230
-1.0
  0
LINE
  5
A19
330
1E
100
AcDbEntity
  8
STEMPEL
100
AcDbLine
 10
362.3694886365717
 20
503.8412840202853
 30
0.0
 11
362.2108698877805
 21
494.7540219880992
 31
0.0
  0
LINE
  5
A1A
330
1E
100
AcDbEntity
  8
STEMPEL
100
AcDbLine
 10
361.9300451692094
 20
503.8412840202864
 30
0.0
 11
361.7714264204182
 21
494.7540219881003
 31
0.0
  0
LINE
  5
A1B
330
1E
100
AcDbEntity
  8
HILF
100
AcDbLine
 10
368.0194886365719
 20
490.4412840202864
 30
0.0
 11
368.0194886365719
 21
504.8412840202862
 31
0.0
  0
LINE
  5
A1C
102
{ACAD_REACTORS
330
B2C
102
}
330
1E
100
AcDbEntity
  8
STEMPEL
100
AcDbLine
 10
367.3694886365718
 20
504.8412840202862
 30
0.0
 11
367.3694886365718
 21
491.0912840202862
 31
0.0
  0
LINE
  5
A1D
330
1E
100
AcDbEntity
  8
HILF
100
AcDbLine
 10
372.7194886365719
 20
490.4412840202864
 30
0.0
 11
372.7194886365719
 21
504.8412840202862
 31
0.0
  0
LINE
  5
A1E
102
{ACAD_REACTORS
330
B2C
102
}
330
1E
100
AcDbEntity
  8
STEMPEL
100
AcDbLine
 10
373.3694886365718
 20
504.8412840202862
 30
0.0
 11
373.3694886365718
 21
491.0912840202862
 31
0.0
  0
LINE
  5
A1F
102
{ACAD_REACTORS
330
B2C
102
}
330
1E
100
AcDbEntity
  8
STEMPEL
100
AcDbLine
 10
368.0194886365719
 20
490.4412840202864
 30
0.0
 11
372.7194886365719
 21
490.4412840202864
 31
0.0
  0
LINE
  5
A20
330
1E
100
AcDbEntity
  8
STEMPEL
100
AcDbLine
 10
367.3694886365718
 20
491.0912840202862
 30
0.0
 11
373.3694886365718
 21
491.0912840202862
 31
0.0
  0
LINE
  5
A21
102
{ACAD_REACTORS
330
B2C
102
}
330
1E
100
AcDbEntity
  8
STEMPEL
100
AcDbLine
 10
367.3694886365718
 20
491.0912840202862
 30
0.0
 11
368.0194886365719
 21
490.4412840202864
 31
0.0
  0
LINE
  5
A22
102
{ACAD_REACTORS
330
B2C
102
}
330
1E
100
AcDbEntity
  8
STEMPEL
100
AcDbLine
 10
372.7194886365719
 20
490.4412840202864
 30
0.0
 11
373.3694886365718
 21
491.0912840202862
 31
0.0
  0
LINE
  5
A27
330
1E
100
AcDbEntity
  8
STEMPEL
100
AcDbLine
 10
366.3694886365719
 20
504.8412840202864
 30
0.0
 11
366.3694886365719
 21
503.841284020286
 31
0.0
  0
LINE
  5
A2D
330
1E
100
AcDbEntity
  8
STEMPEL
100
AcDbLine
 10
374.369488636572
 20
504.841284020286
 30
0.0
 11
374.369488636572
 21
503.841284020286
 31
0.0
  0
LINE
  5
A34
330
1E
100
AcDbEntity
  8
STEMPEL
100
AcDbLine
 10
378.3694886365717
 20
503.8412840202853
 30
0.0
 11
378.6297914460569
 21
488.9285460524718
 31
0.0
  0
LINE
  5
A35
330
1E
100
AcDbEntity
  8
STEMPEL
100
AcDbLine
 10
378.3694886365718
 20
504.8412840202862
 30
0.0
 11
378.3694886365719
 21
503.841284020286
 31
0.0
  0
LWPOLYLINE
  5
A36
330
1E
100
AcDbEntity
  8
STEMPEL
100
AcDbPolyline
 90
       18
 70
   128
 43
0.0
 10
351.703814248803
 20
516.3412840202842
 10
351.6549449038867
 20
517.7194054039087
 10
351.5100010560666
 20
519.0505965166884
 10
351.2739185942394
 20
520.2895252418652
 10
350.9547370234928
 20
521.3940013476344
 10
350.5633256894023
 20
522.3264132248873
 10
350.1130136355044
 20
523.0550087054486
 10
349.619135698705
 20
523.5549763440818
 10
349.0985102998
 20
523.8092903424985
 10
348.5688667123282
 20
523.8092903424985
 10
348.0482413134233
 20
523.5549763440818
 10
347.5543633766238
 20
523.0550087054486
 10
347.1040513227259
 20
522.3264132248873
 10
346.7126399886354
 20
521.3940013476344
 10
346.3934584178888
 20
520.2895252418652
 10
346.1573759560616
 20
519.0505965166884
 10
346.0124321082415
 20
517.7194054039087
 10
345.9635627633252
 20
516.3412840202842
  0
LWPOLYLINE
  5
A37
330
1E
100
AcDbEntity
  8
STEMPEL
100
AcDbPolyline
 90
        9
 70
   128
 43
0.0
 10
349.2967156743162
 20
523.7430422649492
 10
348.8076551310474
 20
523.4166093671919
 10
348.3480421631464
 20
522.8713403539346
 10
347.9320923595222
 20
522.1241001108067
 10
347.5726708302306
 20
521.1980003880292
 10
347.2808942953431
 20
520.1216849660588
 10
347.065787250605
 20
518.928443718428
 10
346.9340028444975
 20
517.655182973352
 10
346.8896170998326
 20
516.3412840202858
  0
LWPOLYLINE
  5
A38
330
1E
100
AcDbEntity
  8
STEMPEL
100
AcDbPolyline
 90
       18
 70
   128
 43
0.0
 10
357.1598013955368
 20
516.3412840202842
 10
357.14313297206
 20
517.7194054039087
 10
357.0936953247996
 20
519.0505965166884
 10
357.0131719935392
 20
520.2895252418652
 10
356.9043051037475
 20
521.3940013476344
 10
356.7708019867852
 20
522.3264132248873
 10
356.6172089311811
 20
523.0550087054486
 10
356.448756364229
 20
523.5549763440818
 10
356.2711807360601
 20
523.8092903424985
 10
356.090529171713
 20
523.8092903424985
 10
355.9129535435441
 20
523.5549763440818
 10
355.7445009765921
 20
523.0550087054486
 10
355.5909079209879
 20
522.3264132248873
 10
355.4574048040257
 20
521.3940013476344
 10
355.348537914234
 20
520.2895252418652
 10
355.2680145829735
 20
519.0505965166884
 10
355.2185769357132
 20
517.7194054039087
 10
355.2019085122363
 20
516.3412840202842
  0
LWPOLYLINE
  5
A39
330
1E
100
AcDbEntity
  8
STEMPEL
100
AcDbPolyline
 90
        7
 70
   128
 43
0.0
 10
356.6777443106557
 20
522.8033380761239
 10
356.5399153010854
 20
522.0512318391854
 10
356.4210510241192
 20
521.1285182284707
 10
356.324703022218
 20
520.0627669785665
 10
356.2537500746799
 20
518.8858216417453
 10
356.2103121826719
 20
517.6328481353435
 10
356.1956872257743
 20
516.3412840202842
  0
LINE
  5
A3A
330
1E
100
AcDbEntity
  8
STEMPEL
100
AcDbLine
 10
168.3694886365719
 20
592.8412840202853
 30
0.0
 11
328.3694886365722
 21
592.8412840202859
 31
0.0
  0
LINE
  5
A3B
330
1E
100
AcDbEntity
  8
STEMPEL
100
AcDbLine
 10
273.8090032316288
 20
593.8412840202857
 30
0.0
 11
328.3694886365722
 21
593.841284020286
 31
0.0
  0
LINE
  5
A3C
330
1E
100
AcDbEntity
  8
STEMPEL
100
AcDbLine
 10
168.3694886365719
 20
593.8412840202853
 30
0.0
 11
223.1078508089213
 21
593.8412840202856
 31
0.0
  0
ARC
  5
A3D
330
1E
100
AcDbEntity
  8
STEMPEL
100
AcDbCircle
 10
168.3694886365719
 20
587.8412840202855
 30
0.0
 40
5.0
100
AcDbArc
 50
90.0
 51
120.5373500483005
  0
ARC
  5
A3E
330
1E
100
AcDbEntity
  8
STEMPEL
100
AcDbCircle
 10
168.3694886365719
 20
587.8412840202855
 30
0.0
 40
6.0
100
AcDbArc
 50
90.0
 51
120.5128743276211
  0
ARC
  5
A3F
330
1E
100
AcDbEntity
  8
STEMPEL
100
AcDbCircle
 10
168.3694886365719
 20
587.8412840202855
 30
0.0
 40
6.0
100
AcDbArc
 50
90.0
 51
90.0
  0
LINE
  5
A40
330
1E
100
AcDbEntity
  8
STEMPEL
100
AcDbLine
 10
245.0109270202747
 20
594.3412840202857
 30
0.0
 11
255.0991944814683
 21
594.3412840202857
 31
0.0
  0
LINE
  5
A41
330
1E
100
AcDbEntity
  8
STEMPEL
100
AcDbLine
 10
225.7059270202748
 20
595.3412840202856
 30
0.0
 11
271.2109270202747
 21
595.3412840202856
 31
0.0
  0
LINE
  5
A42
330
1E
100
AcDbEntity
  8
STEMPEL
100
AcDbLine
 10
235.9590032316277
 20
593.8412840202857
 30
0.0
 11
242.412850808922
 21
593.8412840202857
 31
0.0
  0
LINE
  5
A43
330
1E
100
AcDbEntity
  8
STEMPEL
100
AcDbLine
 10
235.9590032316277
 20
593.8412840202857
 30
0.0
 11
242.412850808922
 21
593.8412840202857
 31
0.0
  0
ARC
  5
A44
330
1E
100
AcDbEntity
  8
STEMPEL
100
AcDbCircle
 10
230.562850808921
 20
595.3412840202856
 30
0.0
 40
2.5
100
AcDbArc
 50
270.0
 51
330.0000000000076
  0
ARC
  5
A45
330
1E
100
AcDbEntity
  8
STEMPEL
100
AcDbCircle
 10
235.9590032316277
 20
595.3412840202856
 30
0.0
 40
2.5
100
AcDbArc
 50
209.9999999999997
 51
270.0
  0
ARC
  5
A46
330
1E
100
AcDbEntity
  8
STEMPEL
100
AcDbCircle
 10
223.1078508089213
 20
595.3412840202856
 30
0.0
 40
2.5
100
AcDbArc
 50
270.0
 51
330.0000000000003
  0
ARC
  5
A47
330
1E
100
AcDbEntity
  8
STEMPEL
100
AcDbCircle
 10
228.5040032316287
 20
595.3412840202856
 30
0.0
 40
2.5
100
AcDbArc
 50
209.9999999999925
 51
270.0
  0
LINE
  5
A48
330
1E
100
AcDbEntity
  8
STEMPEL
100
AcDbLine
 10
228.5040032316287
 20
593.8412840202856
 30
0.0
 11
230.562850808921
 21
593.8412840202856
 31
0.0
  0
LINE
  5
A49
330
1E
100
AcDbEntity
  8
STEMPEL
100
AcDbLine
 10
228.5040032316287
 20
593.8412840202857
 30
0.0
 11
230.562850808921
 21
593.8412840202857
 31
0.0
  0
ARC
  5
A4A
330
1E
100
AcDbEntity
  8
STEMPEL
100
AcDbCircle
 10
228.5040032316287
 20
595.3412840202856
 30
0.0
 40
1.5
100
AcDbArc
 50
209.9999999999925
 51
270.0
  0
ARC
  5
A4B
330
1E
100
AcDbEntity
  8
STEMPEL
100
AcDbCircle
 10
223.1078508089213
 20
595.3412840202856
 30
0.0
 40
1.5
100
AcDbArc
 50
270.0
 51
330.0000000000003
  0
ARC
  5
A4C
330
1E
100
AcDbEntity
  8
STEMPEL
100
AcDbCircle
 10
225.7059270202748
 20
593.8412840202857
 30
0.0
 40
0.5
100
AcDbArc
 50
90.0
 51
150.0000000000002
  0
LINE
  5
A4D
330
1E
100
AcDbEntity
  8
STEMPEL
100
AcDbLine
 10
225.7059270202748
 20
594.3412840202856
 30
0.0
 11
225.9059270202749
 21
594.3412840202856
 31
0.0
  0
ARC
  5
A4E
330
1E
100
AcDbEntity
  8
STEMPEL
100
AcDbCircle
 10
225.9059270202749
 20
593.8412840202857
 30
0.0
 40
0.5
100
AcDbArc
 50
29.99999999999973
 51
90.0
  0
ARC
  5
A4F
330
1E
100
AcDbEntity
  8
STEMPEL
100
AcDbCircle
 10
225.9059270202749
 20
593.8412840202857
 30
0.0
 40
1.5
100
AcDbArc
 50
29.99999999999246
 51
90.0
  0
ARC
  5
A50
330
1E
100
AcDbEntity
  8
STEMPEL
100
AcDbCircle
 10
225.7059270202748
 20
593.8412840202857
 30
0.0
 40
1.5
100
AcDbArc
 50
90.0
 51
150.0000000000002
  0
ARC
  5
A51
330
1E
100
AcDbEntity
  8
STEMPEL
100
AcDbCircle
 10
233.1609270202747
 20
593.8412840202857
 30
0.0
 40
1.5
100
AcDbArc
 50
90.0
 51
150.0000000000075
  0
ARC
  5
A52
330
1E
100
AcDbEntity
  8
STEMPEL
100
AcDbCircle
 10
230.562850808921
 20
595.3412840202856
 30
0.0
 40
1.5
100
AcDbArc
 50
270.0
 51
330.0000000000076
  0
ARC
  5
A53
330
1E
100
AcDbEntity
  8
STEMPEL
100
AcDbCircle
 10
235.9590032316277
 20
595.3412840202856
 30
0.0
 40
1.5
100
AcDbArc
 50
209.9999999999997
 51
270.0
  0
ARC
  5
A54
330
1E
100
AcDbEntity
  8
STEMPEL
100
AcDbCircle
 10
233.1609270202747
 20
593.8412840202857
 30
0.0
 40
0.5
100
AcDbArc
 50
90.0
 51
150.0000000000075
  0
LINE
  5
A55
330
1E
100
AcDbEntity
  8
STEMPEL
100
AcDbLine
 10
233.1609270202747
 20
594.3412840202857
 30
0.0
 11
233.3609270202748
 21
594.3412840202857
 31
0.0
  0
ARC
  5
A56
330
1E
100
AcDbEntity
  8
STEMPEL
100
AcDbCircle
 10
233.3609270202748
 20
593.8412840202857
 30
0.0
 40
0.5
100
AcDbArc
 50
29.99999999999973
 51
90.0
  0
ARC
  5
A57
330
1E
100
AcDbEntity
  8
STEMPEL
100
AcDbCircle
 10
233.3609270202748
 20
593.8412840202857
 30
0.0
 40
1.5
100
AcDbArc
 50
29.99999999999973
 51
90.0
  0
ARC
  5
A58
330
1E
100
AcDbEntity
  8
STEMPEL
100
AcDbCircle
 10
242.412850808922
 20
595.3412840202856
 30
0.0
 40
2.5
100
AcDbArc
 50
270.0
 51
329.9999999999922
  0
ARC
  5
A59
330
1E
100
AcDbEntity
  8
STEMPEL
100
AcDbCircle
 10
245.0109270202747
 20
593.8412840202857
 30
0.0
 40
1.5
100
AcDbArc
 50
90.0
 51
149.9999999999922
  0
ARC
  5
A5A
330
1E
100
AcDbEntity
  8
STEMPEL
100
AcDbCircle
 10
242.412850808922
 20
595.3412840202856
 30
0.0
 40
1.5
100
AcDbArc
 50
270.0
 51
329.9999999999922
  0
ARC
  5
A5B
330
1E
100
AcDbEntity
  8
STEMPEL
100
AcDbCircle
 10
245.0109270202747
 20
593.8412840202857
 30
0.0
 40
0.5
100
AcDbArc
 50
90.0
 51
149.9999999999922
  0
ARC
  5
A5C
330
1E
100
AcDbEntity
  8
STEMPEL
100
AcDbCircle
 10
268.4128508089223
 20
595.3412840202856
 30
0.0
 40
1.5
100
AcDbArc
 50
270.0
 51
329.9999999999922
  0
ARC
  5
A5D
330
1E
100
AcDbEntity
  8
STEMPEL
100
AcDbCircle
 10
268.4128508089223
 20
595.3412840202856
 30
0.0
 40
2.5
100
AcDbArc
 50
270.0
 51
329.9999999999922
  0
ARC
  5
A5E
330
1E
100
AcDbEntity
  8
STEMPEL
100
AcDbCircle
 10
257.0356861545716
 20
594.3412840202856
 30
0.0
 40
1.5
100
AcDbArc
 50
194.4775121859299
 51
270.0
  0
ARC
  5
A5F
330
1E
100
AcDbEntity
  8
STEMPEL
100
AcDbCircle
 10
257.2244353471707
 20
594.3412840202856
 30
0.0
 40
1.5
100
AcDbArc
 50
270.0
 51
345.5224878140701
  0
ARC
  5
A60
330
1E
100
AcDbEntity
  8
STEMPEL
100
AcDbCircle
 10
261.9590032316283
 20
595.3412840202856
 30
0.0
 40
2.5
100
AcDbArc
 50
209.9999999999997
 51
270.0
  0
ARC
  5
A61
330
1E
100
AcDbEntity
  8
STEMPEL
100
AcDbCircle
 10
261.9590032316283
 20
595.3412840202856
 30
0.0
 40
1.5
100
AcDbArc
 50
209.9999999999997
 51
270.0
  0
ARC
  5
A62
330
1E
100
AcDbEntity
  8
STEMPEL
100
AcDbCircle
 10
257.0356861545716
 20
594.3412840202856
 30
0.0
 40
0.5
100
AcDbArc
 50
194.4775121859299
 51
270.0
  0
ARC
  5
A63
330
1E
100
AcDbEntity
  8
STEMPEL
100
AcDbCircle
 10
255.0991944814683
 20
593.8412840202857
 30
0.0
 40
0.5
100
AcDbArc
 50
14.47751218592986
 51
90.0
  0
ARC
  5
A64
330
1E
100
AcDbEntity
  8
STEMPEL
100
AcDbCircle
 10
255.0991944814683
 20
593.8412840202857
 30
0.0
 40
1.5
100
AcDbArc
 50
14.47751218592986
 51
90.0
  0
ARC
  5
A65
330
1E
100
AcDbEntity
  8
STEMPEL
100
AcDbCircle
 10
259.3609270202748
 20
593.8412840202857
 30
0.0
 40
1.5
100
AcDbArc
 50
29.99999999999973
 51
90.0
  0
ARC
  5
A66
330
1E
100
AcDbEntity
  8
STEMPEL
100
AcDbCircle
 10
259.1609270202748
 20
593.8412840202857
 30
0.0
 40
1.5
100
AcDbArc
 50
90.0
 51
165.5224878140701
  0
ARC
  5
A67
330
1E
100
AcDbEntity
  8
STEMPEL
100
AcDbCircle
 10
257.2244353471707
 20
594.3412840202856
 30
0.0
 40
0.5
100
AcDbArc
 50
270.0
 51
345.5224878140701
  0
LINE
  5
A68
330
1E
100
AcDbEntity
  8
STEMPEL
100
AcDbLine
 10
257.0356861545716
 20
593.8412840202857
 30
0.0
 11
257.2244353471707
 21
593.8412840202857
 31
0.0
  0
ARC
  5
A69
330
1E
100
AcDbEntity
  8
STEMPEL
100
AcDbCircle
 10
259.1609270202748
 20
593.8412840202857
 30
0.0
 40
0.5
100
AcDbArc
 50
90.0
 51
165.5224878140701
  0
LINE
  5
A6A
330
1E
100
AcDbEntity
  8
STEMPEL
100
AcDbLine
 10
259.1609270202748
 20
594.3412840202857
 30
0.0
 11
259.3609270202748
 21
594.3412840202857
 31
0.0
  0
ARC
  5
A6B
330
1E
100
AcDbEntity
  8
STEMPEL
100
AcDbCircle
 10
259.3609270202748
 20
593.8412840202857
 30
0.0
 40
0.5
100
AcDbArc
 50
29.99999999999973
 51
90.0
  0
LINE
  5
A6C
330
1E
100
AcDbEntity
  8
STEMPEL
100
AcDbLine
 10
261.9590032316283
 20
593.8412840202857
 30
0.0
 11
268.4128508089223
 21
593.8412840202857
 31
0.0
  0
LINE
  5
A6D
330
1E
100
AcDbEntity
  8
STEMPEL
100
AcDbLine
 10
261.9590032316283
 20
593.8412840202857
 30
0.0
 11
268.4128508089223
 21
593.8412840202857
 31
0.0
  0
ARC
  5
A6E
330
1E
100
AcDbEntity
  8
STEMPEL
100
AcDbCircle
 10
273.8090032316288
 20
595.3412840202856
 30
0.0
 40
2.5
100
AcDbArc
 50
209.9999999999925
 51
270.0
  0
ARC
  5
A6F
330
1E
100
AcDbEntity
  8
STEMPEL
100
AcDbCircle
 10
273.8090032316288
 20
595.3412840202856
 30
0.0
 40
1.5
100
AcDbArc
 50
209.9999999999925
 51
270.0
  0
ARC
  5
A70
330
1E
100
AcDbEntity
  8
STEMPEL
100
AcDbCircle
 10
271.0109270202746
 20
593.8412840202857
 30
0.0
 40
1.5
100
AcDbArc
 50
90.0
 51
149.9999999999922
  0
ARC
  5
A71
330
1E
100
AcDbEntity
  8
STEMPEL
100
AcDbCircle
 10
271.0109270202746
 20
593.8412840202857
 30
0.0
 40
0.5
100
AcDbArc
 50
90.0
 51
149.9999999999922
  0
LINE
  5
A72
330
1E
100
AcDbEntity
  8
STEMPEL
100
AcDbLine
 10
271.0109270202746
 20
594.3412840202856
 30
0.0
 11
271.2109270202747
 21
594.3412840202856
 31
0.0
  0
ARC
  5
A73
330
1E
100
AcDbEntity
  8
STEMPEL
100
AcDbCircle
 10
271.2109270202747
 20
593.8412840202857
 30
0.0
 40
0.5
100
AcDbArc
 50
29.99999999999246
 51
90.0
  0
ARC
  5
A74
330
1E
100
AcDbEntity
  8
STEMPEL
100
AcDbCircle
 10
271.2109270202747
 20
593.8412840202857
 30
0.0
 40
1.5
100
AcDbArc
 50
29.99999999999246
 51
90.0
  0
LINE
  5
A75
330
1E
100
AcDbEntity
  8
STEMPEL
100
AcDbLine
 10
354.8888422046992
 20
578.1601214671667
 30
0.0
 11
330.909988311748
 21
592.1477746333522
 31
0.0
  0
LINE
  5
A76
330
1E
100
AcDbEntity
  8
STEMPEL
100
AcDbLine
 10
355.40218325828
 20
579.0183645803294
 30
0.0
 11
331.4158803828131
 21
593.0103745910179
 31
0.0
  0
ARC
  5
A77
330
1E
100
AcDbEntity
  8
STEMPEL
100
AcDbCircle
 10
328.3694886365722
 20
587.8412840202855
 30
0.0
 40
6.0
100
AcDbArc
 50
59.48712567237889
 51
90.0
  0
ARC
  5
A78
330
1E
100
AcDbEntity
  8
STEMPEL
100
AcDbCircle
 10
328.3694886365722
 20
587.8412840202855
 30
0.0
 40
5.0
100
AcDbArc
 50
59.46264995169952
 51
90.0
  0
ARC
  5
A79
330
1E
100
AcDbEntity
  8
STEMPEL
100
AcDbCircle
 10
328.3694886365722
 20
587.8412840202855
 30
0.0
 40
6.0
100
AcDbArc
 50
90.0
 51
90.0
  0
ARC
  5
A7A
330
1E
100
AcDbEntity
  8
STEMPEL
100
AcDbCircle
 10
352.3694886365721
 20
573.8412260529704
 30
0.0
 40
5.0
100
AcDbArc
 50
0.0
 51
59.74358352518112
  0
ARC
  5
A7B
330
1E
100
AcDbEntity
  8
STEMPEL
100
AcDbCircle
 10
357.8806322408837
 20
583.3611210027478
 30
0.0
 40
5.0
100
AcDbArc
 50
239.7435628364684
 51
239.9329541615142
  0
ARC
  5
A7C
330
1E
100
AcDbEntity
  8
STEMPEL
100
AcDbCircle
 10
352.3694886365721
 20
573.8412260529704
 30
0.0
 40
6.0
100
AcDbArc
 50
0.0
 51
59.74358352518112
  0
LINE
  5
A7E
330
1E
100
AcDbEntity
  8
STEMPEL
100
AcDbLine
 10
147.6957885406433
 20
504.8412840202864
 30
0.0
 11
145.5803811210416
 21
504.8412840202864
 31
0.0
  0
INSERT
  5
A86
330
1E
100
AcDbEntity
  8
SCHRAFF
  6
Continuous
100
AcDbBlockReference
  2
*X2
 10
13.88497226189429
 20
75.31307411212651
 30
0.0
1001
ACAD
1000
HATCH
1002
{
1070
    19
1000
ANSI31
1040
20.0
1040
0.0
1000
R14_HATCH_DATA
1000
B81
1011
14.88497226189429
1021
75.31307411212651
1031
0.0
1011
13.88497226189429
1021
76.31307411212651
1031
0.0
1011
13.88497226189429
1021
75.31307411212651
1031
1.0
1040
0.0
1010
0.0
1020
0.0
1030
1.0
1000
ANSI31
1070
     0
1070
     0
1071
        4
1071
        7
1070
     1
1070
     1
1071
       16
1040
125.4845163746777
1040
498.5281519408439
1040
-0.2667503951500901
1040
127.9651628065506
1040
502.8470473550401
1040
0.0
1040
151.9440166994974
1040
516.8347005212232
1040
-0.1340385084115534
1040
154.4845163746775
1040
517.5282099081588
1040
0.0
1040
181.3903590825795
1040
517.5282099081589
1040
0.0
1040
181.1206783245243
1040
518.5282099081589
1040
0.0
1040
154.4845163746775
1040
518.5282099081588
1040
0.1316524975839352
1040
151.4845163747482
1040
517.7243623309065
1040
0.0
1040
127.4518217529799
1040
503.7052904682087
1040
0.2662608607108822
1040
124.4845163746776
1040
498.5281519408439
1040
0.0
1040
124.4845163746776
1040
434.5282099081599
1040
-0.4142135623730909
1040
119.4845163746777
1040
429.5282099081599
1040
0.0
1040
104.4845163746775
1040
429.5282099081595
1040
0.0
1040
104.4845163746774
1040
428.5282099081594
1040
0.0
1040
119.4845163746777
1040
428.5282099081594
1040
0.4142135623730952
1040
125.4845163746777
1040
434.5282099081594
1040
0.0
1071
        0
1071
        7
1070
     1
1070
     1
1071
       32
1040
211.3879420564882
1040
518.7782099081592
1040
-0.2679491924311204
1040
211.8209547583804
1040
519.0282099081591
1040
0.0
1040
212.0209547583806
1040
519.0282099081591
1040
-0.2679491924312903
1040
212.4539674602732
1040
518.7782099081593
1040
0.2679491924311428
1040
214.6190309697343
1040
517.5282099081591
1040
0.0
1040
216.6778785470267
1040
517.5282099081591
1040
0.2679491924311518
1040
218.8429420564879
1040
518.7782099081593
1040
-0.2679491924310846
1040
219.2759547583801
1040
519.0282099081592
1040
0.0
1040
219.4759547583805
1040
519.0282099081592
1040
-0.2679491924309635
1040
219.9089674602724
1040
518.7782099081592
1040
0.267949192431125
1040
222.0740309697335
1040
517.5282099081591
1040
0.0
1040
228.5278785470276
1040
517.5282099081591
1040
0.2679491924310967
1040
230.6929420564886
1040
518.778209908159
1040
-0.2679491924312205
1040
231.1259547583809
1040
519.0282099081592
1040
0.0
1040
234.4845163746775
1040
519.0282099081592
1040
0.0
1040
234.4845163746775
1040
520.0282099081591
1040
0.0
1040
231.1259547583804
1040
520.0282099081591
1040
0.2679491924310706
1040
229.826916652704
1040
519.2782099081592
1040
-0.2679491924311248
1040
228.5278785470274
1040
518.5282099081591
1040
0.0
1040
222.0740309697335
1040
518.5282099081591
1040
-0.2679491924310946
1040
220.774992864057
1040
519.2782099081592
1040
0.2859076546238937
1040
219.3759547583801
1040
520.0248728628687
1040
0.2859076546238273
1040
217.9769166527036
1040
519.2782099081592
1040
-0.2679491924311237
1040
216.677878547027
1040
518.5282099081591
1040
0.0
1040
214.6190309697344
1040
518.5282099081591
1040
-0.2679491924311664
1040
213.3199928640575
1040
519.2782099081592
1040
0.2859076546239339
1040
211.9209547583805
1040
520.0248728628687
1040
0.2859076546238759
1040
210.5219166527038
1040
519.2782099081592
1040
-0.2679491924311312
1040
209.2228785470271
1040
518.528209908159
1040
0.0
1040
181.1206783245243
1040
518.5282099081588
1040
0.0
1040
181.3903590825796
1040
517.5282099081589
1040
0.0
1040
209.222878547027
1040
517.5282099081591
1040
0.267949192431136
1071
        0
1071
        7
1070
     1
1070
     1
1071
       44
1040
314.484516374678
1040
518.5282099081595
1040
0.0
1040
259.9240309697345
1040
518.5282099081592
1040
-0.2679491924312094
1040
258.6249928640574
1040
519.2782099081592
1040
0.285907654623908
1040
257.2259547583804
1040
520.0248728628687
1040
0.2859076546237761
1040
255.8269166527042
1040
519.2782099081592
1040
-0.2679491924311255
1040
254.5278785470276
1040
518.5282099081591
1040
0.0
1040
248.0740309697341
1040
518.5282099081591
1040
-0.2679491924311383
1040
246.7749928640573
1040
519.2782099081592
1040
0.2859076546238221
1040
245.3759547583809
1040
520.0248728628687
1040
0.3607372083888694
1040
243.8235860035526
1040
518.9032099081591
1040
-0.3419987131196436
1040
243.3394630852767
1040
518.5282099081591
1040
0.0
1040
243.1507138926773
1040
518.5282099081591
1040
-0.3419987131194885
1040
242.6665909744016
1040
518.9032099081591
1040
0.3419987131196458
1040
241.2142222195738
1040
520.0282099081591
1040
0.0
1040
234.4845163746775
1040
520.0282099081591
1040
0.0
1040
234.4845163746775
1040
519.0282099081592
1040
0.0
1040
241.214222219574
1040
519.0282099081592
1040
-0.3419987131195311
1040
241.6983451378496
1040
518.6532099081591
1040
0.3596757619904443
1040
243.2450884889767
1040
517.5311817068304
1040
0.359675761990552
1040
244.7918318401043
1040
518.6532099081591
1040
-0.3419987131196961
1040
245.2759547583802
1040
519.0282099081592
1040
0.0
1040
245.4759547583805
1040
519.0282099081592
1040
-0.267949192431149
1040
245.9089674602728
1040
518.7782099081593
1040
0.2679491924311277
1040
248.0740309697339
1040
517.5282099081592
1040
0.0
1040
254.5278785470281
1040
517.5282099081592
1040
0.2679491924310553
1040
256.6929420564888
1040
518.7782099081588
1040
-0.2679491924313444
1040
257.1259547583812
1040
519.0282099081591
1040
0.0
1040
257.3259547583804
1040
519.0282099081591
1040
-0.2679491924313275
1040
257.7589674602732
1040
518.7782099081593
1040
0.2679491924311476
1040
259.9240309697344
1040
517.5282099081592
1040
0.0
1040
314.4845163746779
1040
517.5282099081595
1040
-0.1340385084117589
1040
317.0250160498613
1040
516.8347005212212
1040
0.0
1040
341.0038699428049
1040
502.8470473550401
1040
-0.2667503951500871
1040
343.4845163746778
1040
498.528151940844
1040
0.0
1040
343.4845163746778
1040
434.5282099081599
1040
0.4142135623731166
1040
349.4845163746778
1040
428.5282099081594
1040
0.0
1040
352.4845163746777
1040
428.5282099081594
1040
0.0
1040
352.4845163746777
1040
429.5282099081599
1040
0.0
1040
350.4845163746775
1040
429.52820990816
1040
0.0
1040
349.484516374678
1040
429.5282099081599
1040
-0.4142135623731052
1040
344.4845163746779
1040
434.5282099081599
1040
0.0
1040
344.4845163746779
1040
498.5281519408439
1040
0.2662608607095104
1040
341.5172109964022
1040
503.7052904681933
1040
0.0
1040
317.4845163746013
1040
517.7243623309099
1040
0.1316524975836475
1071
        0
1071
        7
1070
     0
1070
     1
1071
        4
1040
364.4845163746775
1040
429.5282099081595
1040
360.4845163746777
1040
429.5282099081595
1040
360.4845163746776
1040
428.5282099081594
1040
364.4845163746776
1040
428.5282099081594
1071
        0
1070
     0
1070
     1
1040
0.0
1040
20.0
1070
     0
1070
     1
1040
0.7853981633974483
1040
0.0
1040
0.0
1040
-1.767766952966368
1040
1.767766952966368
1070
     0
1040
0.4109460669167521
1071
        4
1040
125.1226099263463
1040
464.822119640487
1040
0.0
1040
195.8618845685205
1040
517.8341632954173
1040
0.0
1040
271.5364586384376
1040
517.8341632954173
1040
0.0
1040
362.0169260900188
1040
429.0698116436324
1040
0.0
1002
}
  0
LINE
  5
A87
330
1E
100
AcDbEntity
  8
MITTEL
100
AcDbLine
 10
203.3694886365717
 20
507.8412840202845
 30
0.0
 11
203.3694886365717
 21
472.8412840202842
 31
0.0
  0
LINE
  5
A88
330
1E
100
AcDbEntity
  8
STEMPEL
100
AcDbLine
 10
163.3694886365719
 20
501.8412840202845
 30
0.0
 11
163.3694886365719
 21
499.8412840202852
 31
0.0
  0
LINE
  5
A89
330
1E
100
AcDbEntity
  8
HILF
100
AcDbLine
 10
162.3694886365719
 20
502.8412840202846
 30
0.0
 11
162.3694886365719
 21
499.8412840202852
 31
0.0
  0
LINE
  5
A8A
330
1E
100
AcDbEntity
  8
STEMPEL
100
AcDbLine
 10
153.3694886365719
 20
501.8412840202846
 30
0.0
 11
153.3694886365719
 21
499.8412840202852
 31
0.0
  0
LINE
  5
A8B
330
1E
100
AcDbEntity
  8
HILF
100
AcDbLine
 10
154.3694886365719
 20
502.8412840202846
 30
0.0
 11
154.3694886365719
 21
499.8412840202852
 31
0.0
  0
LINE
  5
A8C
330
1E
100
AcDbEntity
  8
MITTEL
100
AcDbLine
 10
158.3694886365719
 20
507.8412840202846
 30
0.0
 11
158.3694886365719
 21
472.8412840202842
 31
0.0
  0
LINE
  5
A8D
330
1E
100
AcDbEntity
  8
STEMPEL
100
AcDbLine
 10
153.3694886365719
 20
501.8412840202846
 30
0.0
 11
163.3694886365717
 21
501.8412840202846
 31
0.0
  0
LINE
  5
A8E
330
1E
100
AcDbEntity
  8
STEMPEL
100
AcDbLine
 10
162.3694886365719
 20
502.8412840202846
 30
0.0
 11
154.3694886365719
 21
502.8412840202846
 31
0.0
  0
LINE
  5
A8F
330
1E
100
AcDbEntity
  8
STEMPEL
100
AcDbLine
 10
154.3694886365719
 20
502.8412840202846
 30
0.0
 11
153.3694886365719
 21
501.8412840202846
 31
0.0
  0
LINE
  5
A90
330
1E
100
AcDbEntity
  8
STEMPEL
100
AcDbLine
 10
163.3694886365719
 20
501.8412840202846
 30
0.0
 11
162.3694886365719
 21
502.8412840202846
 31
0.0
  0
LINE
  5
A91
330
1E
100
AcDbEntity
  8
STEMPEL
100
AcDbLine
 10
198.3694886365719
 20
483.8412840202845
 30
0.0
 11
198.3694886365719
 21
480.8412840202847
 31
0.0
  0
LINE
  5
A92
330
1E
100
AcDbEntity
  8
HILF
100
AcDbLine
 10
199.369488636572
 20
483.8412840202847
 30
0.0
 11
199.3694886365719
 21
480.8412840202846
 31
0.0
  0
LINE
  5
A93
330
1E
100
AcDbEntity
  8
STEMPEL
100
AcDbLine
 10
208.3694886365718
 20
483.8412840202845
 30
0.0
 11
208.3694886365719
 21
480.8412840202847
 31
0.0
  0
LINE
  5
A94
330
1E
100
AcDbEntity
  8
HILF
100
AcDbLine
 10
207.3694886365719
 20
483.8412840202845
 30
0.0
 11
207.3694886365719
 21
480.8412840202847
 31
0.0
  0
LINE
  5
A95
330
1E
100
AcDbEntity
  8
STEMPEL
100
AcDbLine
 10
151.8694886365718
 20
489.8412840202853
 30
0.0
 11
151.8694886365718
 21
483.8412840202848
 31
0.0
  0
LINE
  5
A96
330
1E
100
AcDbEntity
  8
STEMPEL
100
AcDbLine
 10
164.8694886365718
 20
489.8412840202854
 30
0.0
 11
164.8694886365718
 21
483.8412840202847
 31
0.0
  0
LINE
  5
A97
330
1E
100
AcDbEntity
  8
STEMPEL
100
AcDbLine
 10
136.3694886365717
 20
489.8412840202852
 30
0.0
 11
357.2116314119984
 21
489.8412840202855
 31
0.0
  0
LINE
  5
A9B
330
1E
100
AcDbEntity
  8
HILF
100
AcDbLine
 10
154.3694886365719
 20
489.8412840202852
 30
0.0
 11
154.3694886365719
 21
477.8412840202846
 31
0.0
  0
LINE
  5
A9C
330
1E
100
AcDbEntity
  8
STEMPEL
100
AcDbLine
 10
153.3694886365719
 20
489.8412840202852
 30
0.0
 11
153.3694886365719
 21
477.8412840202846
 31
0.0
  0
LINE
  5
A9D
330
1E
100
AcDbEntity
  8
HILF
100
AcDbLine
 10
162.3694886365719
 20
489.8412840202853
 30
0.0
 11
162.3694886365719
 21
477.8412840202846
 31
0.0
  0
LINE
  5
A9E
330
1E
100
AcDbEntity
  8
STEMPEL
100
AcDbLine
 10
163.3694886365719
 20
489.8412840202852
 30
0.0
 11
163.3694886365719
 21
477.8412840202846
 31
0.0
  0
LINE
  5
AAE
330
1E
100
AcDbEntity
  8
STEMPEL
100
AcDbLine
 10
207.3694886365717
 20
502.8412840202846
 30
0.0
 11
199.3694886365717
 21
502.8412840202846
 31
0.0
  0
LINE
  5
AAF
330
1E
100
AcDbEntity
  8
STEMPEL
100
AcDbLine
 10
198.3694886365717
 20
501.8412840202846
 30
0.0
 11
208.3694886365715
 21
501.8412840202846
 31
0.0
  0
LINE
  5
AB4
330
1E
100
AcDbEntity
  8
STEMPEL
100
AcDbLine
 10
198.3694886365717
 20
501.8412840202846
 30
0.0
 11
198.3694886365717
 21
499.8412840202853
 31
0.0
  0
LINE
  5
AB5
330
1E
100
AcDbEntity
  8
HILF
100
AcDbLine
 10
199.3694886365717
 20
502.8412840202846
 30
0.0
 11
199.3694886365717
 21
499.8412840202853
 31
0.0
  0
LINE
  5
AB7
330
1E
100
AcDbEntity
  8
STEMPEL
100
AcDbLine
 10
199.3694886365717
 20
502.8412840202846
 30
0.0
 11
198.3694886365717
 21
501.8412840202846
 31
0.0
  0
LINE
  5
ABA
330
1E
100
AcDbEntity
  8
HILF
100
AcDbLine
 10
207.3694886365717
 20
502.8412840202846
 30
0.0
 11
207.3694886365717
 21
499.8412840202853
 31
0.0
  0
LINE
  5
ABB
330
1E
100
AcDbEntity
  8
STEMPEL
100
AcDbLine
 10
208.3694886365717
 20
501.8412840202845
 30
0.0
 11
208.3694886365717
 21
499.8412840202853
 31
0.0
  0
LINE
  5
ABD
330
1E
100
AcDbEntity
  8
STEMPEL
100
AcDbLine
 10
208.3694886365717
 20
501.8412840202846
 30
0.0
 11
207.3694886365717
 21
502.8412840202846
 31
0.0
  0
LINE
  5
AC0
330
1E
100
AcDbEntity
  8
STEMPEL
100
AcDbLine
 10
155.5550981867059
 20
504.841284020286
 30
0.0
 11
163.9178374132934
 21
504.841284020286
 31
0.0
  0
LWPOLYLINE
  5
AC1
330
1E
100
AcDbEntity
  8
STEMPEL
100
AcDbPolyline
 90
        8
 70
   128
 43
0.0
 10
154.0976265906347
 20
503.8412840202853
 10
155.3513606061976
 20
504.6451315975787
 10
155.9744437802439
 20
505.2450173615716
 10
156.5123003853554
 20
505.9845583621664
 10
156.9485879207544
 20
506.8412840202856
 10
157.2700500104496
 20
507.7891631603316
 10
157.4669191915137
 20
508.7993949542841
 10
157.5332136935005
 20
509.8412840202859
  0
LWPOLYLINE
  5
AC2
330
1E
100
AcDbEntity
  8
STEMPEL
100
AcDbPolyline
 90
       10
 70
   128
 43
0.0
 10
197.1044146966253
 20
503.8412840202871
 10
197.5771446543788
 20
503.9324375022139
 10
198.035510951579
 20
504.2031282955717
 10
198.4655863602298
 20
504.6451315975805
 10
198.854303256668
 20
505.2450173615733
 10
199.1898506746957
 20
505.984558362168
 10
199.4620331758113
 20
506.8412840202873
 10
199.6625806324494
 20
507.7891631603334
 10
199.7853995116218
 20
508.7993949542859
 10
199.8267580238343
 20
509.8412840202875
  0
LWPOLYLINE
  5
AC3
330
1E
100
AcDbEntity
  8
STEMPEL
100
AcDbPolyline
 90
       10
 70
   128
 43
0.0
 10
-324.179974022684
 20
503.8412840202871
 10
-323.5439696626831
 20
503.9324375022139
 10
-322.927289973327
 20
504.2031282955717
 10
-322.3486724549219
 20
504.6451315975805
 10
-321.82569810797
 20
505.2450173615733
 10
-321.3742572433655
 20
505.984558362168
 10
-321.0080666633396
 20
506.8412840202873
 10
-320.7382528833646
 20
507.7891631603334
 10
-320.573014058613
 20
508.7993949542859
 10
-320.5173708871599
 20
509.8412840202875
210
0.0
220
0.0
230
-1.0
  0
LINE
  5
AC4
330
1E
100
AcDbEntity
  8
STEMPEL
100
AcDbLine
 10
314.769488636572
 20
483.8412840202845
 30
0.0
 11
314.769488636572
 21
480.841284020285
 31
0.0
  0
LINE
  5
AC5
330
1E
100
AcDbEntity
  8
HILF
100
AcDbLine
 10
315.7694886365721
 20
483.8412840202847
 30
0.0
 11
315.769488636572
 21
480.841284020285
 31
0.0
  0
LINE
  5
AC6
330
1E
100
AcDbEntity
  8
HILF
100
AcDbLine
 10
323.769488636572
 20
483.8412840202845
 30
0.0
 11
323.769488636572
 21
480.841284020285
 31
0.0
  0
LINE
  5
AC7
330
1E
100
AcDbEntity
  8
STEMPEL
100
AcDbLine
 10
324.7694886365719
 20
483.8412840202845
 30
0.0
 11
324.769488636572
 21
480.841284020285
 31
0.0
  0
LINE
  5
AC8
330
1E
100
AcDbEntity
  8
STEMPEL
100
AcDbLine
 10
324.7694886365718
 20
501.841284020285
 30
0.0
 11
323.7694886365718
 21
502.841284020285
 31
0.0
  0
LINE
  5
AC9
330
1E
100
AcDbEntity
  8
STEMPEL
100
AcDbLine
 10
314.7694886365718
 20
501.841284020285
 30
0.0
 11
324.7694886365716
 21
501.841284020285
 31
0.0
  0
LINE
  5
ACE
330
1E
100
AcDbEntity
  8
STEMPEL
100
AcDbLine
 10
315.7694886365718
 20
502.841284020285
 30
0.0
 11
314.7694886365718
 21
501.841284020285
 31
0.0
  0
LINE
  5
ACF
330
1E
100
AcDbEntity
  8
STEMPEL
100
AcDbLine
 10
314.7694886365718
 20
501.841284020285
 30
0.0
 11
314.7694886365718
 21
499.8412840202854
 31
0.0
  0
LINE
  5
AD5
330
1E
100
AcDbEntity
  8
HILF
100
AcDbLine
 10
323.7694886365718
 20
502.841284020285
 30
0.0
 11
323.7694886365718
 21
499.8412840202854
 31
0.0
  0
LINE
  5
AD6
330
1E
100
AcDbEntity
  8
HILF
100
AcDbLine
 10
315.7694886365718
 20
502.8412840202849
 30
0.0
 11
315.7694886365718
 21
499.8412840202854
 31
0.0
  0
LINE
  5
AD7
330
1E
100
AcDbEntity
  8
STEMPEL
100
AcDbLine
 10
323.7694886365718
 20
502.841284020285
 30
0.0
 11
315.7694886365718
 21
502.841284020285
 31
0.0
  0
LINE
  5
AD8
330
1E
100
AcDbEntity
  8
STEMPEL
100
AcDbLine
 10
324.7694886365718
 20
501.8412840202849
 30
0.0
 11
324.7694886365718
 21
499.8412840202854
 31
0.0
  0
LINE
  5
ADF
330
1E
100
AcDbEntity
  8
STEMPEL
100
AcDbLine
 10
153.4031004371579
 20
503.8412840202851
 30
0.0
 11
153.4031004371579
 21
501.8748958208702
 31
0.0
  0
LINE
  5
AE0
330
1E
100
AcDbEntity
  8
STEMPEL
100
AcDbLine
 10
162.789679112611
 20
503.8412840202842
 30
0.0
 11
162.814909019239
 21
502.395863637617
 31
0.0
  0
LINE
  5
AE1
330
1E
100
AcDbEntity
  8
STEMPEL
100
AcDbLine
 10
132.0870030578441
 20
477.8412840202847
 30
0.0
 11
364.6519742152997
 21
477.8412840202845
 31
0.0
  0
DIMENSION
  5
AE2
330
1E
100
AcDbEntity
  8
BEM
100
AcDbDimension
  2
*D7
 10
85.88483391986192
 20
477.8412840202846
 30
0.0
 11
79.38483391986185
 21
347.8406367434209
 31
0.0
 70
    32
 71
     5
 42
260.0012945537275
  3
Standard
100
AcDbAlignedDimension
 13
212.394389837001
 23
217.8399894665572
 33
0.0
 14
125.8694886365718
 24
477.8412840202846
 34
0.0
 50
90.0
100
AcDbRotatedDimension
1001
ACAD
1000
DSTYLE
1002
{
1070
    40
1040
2.0
1070
    41
1040
3.5
1070
    42
1040
1.0
1070
    43
1040
7.0
1070
    44
1040
1.0
1070
    73
1070
     0
1070
    74
1070
     0
1070
    77
1070
     1
1070
    78
1070
     8
1070
    79
1070
     2
1070
   140
1040
3.5
1070
   141
1040
1.5
1070
   146
1040
0.5142857142857144
1070
   147
1040
1.5
1070
   172
1070
     1
1070
   178
1070
     1
1070
   179
1070
     2
1070
   271
1070
     2
1070
   272
1070
     2
1070
   284
1070
     8
1070
   285
1070
     8
1070
   286
1070
     8
1002
}
  0
LINE
  5
AE3
102
{ACAD_REACTORS
330
E78
102
}
330
1E
100
AcDbEntity
  8
STEMPEL
100
AcDbLine
 10
132.0870030578442
 20
477.8412840202847
 30
0.0
 11
364.6519742152999
 21
477.8412840202845
 31
0.0
  0
LINE
  5
AE4
330
1E
100
AcDbEntity
  8
STEMPEL
100
AcDbLine
 10
173.5790857234841
 20
472.4877306296906
 30
0.0
 11
127.2837021989447
 21
472.4877306296907
 31
0.0
  0
LINE
  5
AE5
330
1E
100
AcDbEntity
  8
STEMPEL
100
AcDbLine
 10
125.8694886365716
 20
473.901944192064
 30
0.0
 11
128.1979157613176
 21
476.2303713168102
 31
0.0
  0
LINE
  5
AE6
330
1E
100
AcDbEntity
  8
STEMPEL
100
AcDbLine
 10
125.8694886365716
 20
473.901944192064
 30
0.0
 11
127.2837021989444
 21
472.4877306296907
 31
0.0
  0
ARC
  5
AE7
330
1E
100
AcDbEntity
  8
STEMPEL
100
AcDbCircle
 10
132.0870030578438
 20
472.3412840202843
 30
0.0
 40
3.499999999999851
100
AcDbArc
 50
90.0
 51
135.0
  0
ARC
  5
AE8
330
1E
100
AcDbEntity
  8
STEMPEL
100
AcDbCircle
 10
132.0870030578438
 20
472.3412840202843
 30
0.0
 40
5.499999999999851
100
AcDbArc
 50
90.0
 51
135.0
  0
LINE
  5
AE9
330
1E
100
AcDbEntity
  8
STEMPEL
100
AcDbLine
 10
127.2837021989447
 20
472.4877306296909
 30
0.0
 11
129.6121293236907
 21
474.8161577544371
 31
0.0
  0
LINE
  5
AEA
330
1E
100
AcDbEntity
  8
STEMPEL
100
AcDbLine
 10
194.2984208247063
 20
474.083924707404
 30
0.0
 11
204.4430087889949
 21
463.9393367431166
 31
0.0
  0
LINE
  5
AEB
102
{ACAD_REACTORS
330
B13
102
}
330
1E
100
AcDbEntity
  8
STEMPEL
100
AcDbLine
 10
195.7126343870794
 20
475.4981382697771
 30
0.0
 11
211.4656827142862
 21
459.7450899425725
 31
0.0
  0
LINE
  5
AEC
330
1E
100
AcDbEntity
  8
STEMPEL
100
AcDbLine
 10
323.15989154966
 20
472.4877306296907
 30
0.0
 11
369.4552750741989
 21
472.4877306296907
 31
0.0
  0
ARC
  5
AED
330
1E
100
AcDbEntity
  8
STEMPEL
100
AcDbCircle
 10
364.6519742152999
 20
472.3412840202843
 30
0.0
 40
5.499999999999851
100
AcDbArc
 50
45.0
 51
90.0
  0
LINE
  5
AEE
330
1E
100
AcDbEntity
  8
STEMPEL
100
AcDbLine
 10
369.4552750741989
 20
472.4877306296909
 30
0.0
 11
367.1268479494529
 21
474.8161577544371
 31
0.0
  0
ARC
  5
AEF
330
1E
100
AcDbEntity
  8
STEMPEL
100
AcDbCircle
 10
364.6519742152999
 20
472.3412840202843
 30
0.0
 40
3.499999999999851
100
AcDbArc
 50
45.0
 51
90.0
  0
LINE
  5
AF0
330
1E
100
AcDbEntity
  8
STEMPEL
100
AcDbLine
 10
370.869488636572
 20
473.901944192064
 30
0.0
 11
368.5410615118261
 21
476.2303713168102
 31
0.0
  0
LINE
  5
AF1
330
1E
100
AcDbEntity
  8
STEMPEL
100
AcDbLine
 10
370.869488636572
 20
473.901944192064
 30
0.0
 11
369.4552750741991
 21
472.4877306296907
 31
0.0
  0
LINE
  5
AF2
330
1E
100
AcDbEntity
  8
STEMPEL
100
AcDbLine
 10
132.0870030578438
 20
475.8412840202849
 30
0.0
 11
190.0557801375872
 21
475.8412840202844
 31
0.0
  0
LINE
  5
AF3
330
1E
100
AcDbEntity
  8
STEMPEL
100
AcDbLine
 10
364.6519742152999
 20
475.8412840202849
 30
0.0
 11
306.6831971355564
 21
475.8412840202844
 31
0.0
  0
ARC
  5
AF4
330
1E
100
AcDbEntity
  8
STEMPEL
100
AcDbCircle
 10
190.0557801375872
 20
469.8412840202845
 30
0.0
 40
6.0
100
AcDbArc
 50
45.00000000000115
 51
90.0
  0
ARC
  5
AF5
330
1E
100
AcDbEntity
  8
STEMPEL
100
AcDbCircle
 10
190.0557801375872
 20
469.8412840202845
 30
0.0
 40
8.0
100
AcDbArc
 50
45.00000000000115
 51
90.0
  0
LINE
  5
AF6
102
{ACAD_REACTORS
330
B13
102
}
330
1E
100
AcDbEntity
  8
STEMPEL
100
AcDbLine
 10
301.0263428860645
 20
475.4981382697771
 30
0.0
 11
285.2732945588577
 21
459.7450899425722
 31
0.0
  0
ARC
  5
AF7
330
1E
100
AcDbEntity
  8
STEMPEL
100
AcDbCircle
 10
306.6831971355564
 20
469.8412840202845
 30
0.0
 40
8.0
100
AcDbArc
 50
90.0
 51
134.9999999999988
  0
ARC
  5
AF8
330
1E
100
AcDbEntity
  8
STEMPEL
100
AcDbCircle
 10
306.6831971355564
 20
469.8412840202845
 30
0.0
 40
6.0
100
AcDbArc
 50
90.0
 51
134.9999999999988
  0
LINE
  5
AF9
330
1E
100
AcDbEntity
  8
STEMPEL
100
AcDbLine
 10
302.4405564484376
 20
474.083924707404
 30
0.0
 11
292.2837021989448
 21
463.9270704579125
 31
0.0
  0
LINE
  5
AFA
102
{ACAD_REACTORS
330
B13
102
}
330
1E
100
AcDbEntity
  8
STEMPEL
  6
Continuous
100
AcDbLine
 10
213.369488636574
 20
455.1488958648596
 30
0.0
 11
213.3694886365721
 21
222.8412840202847
 31
0.0
  0
LINE
  5
AFB
102
{ACAD_REACTORS
330
B13
102
}
330
1E
100
AcDbEntity
  8
STEMPEL
  6
Continuous
100
AcDbLine
 10
211.8694886365739
 20
455.1488958648596
 30
0.0
 11
211.8694886365723
 21
222.7757926059223
 31
0.0
  0
LINE
  5
AFC
102
{ACAD_REACTORS
330
B13
102
}
330
1E
100
AcDbEntity
  8
STEMPEL
  6
Continuous
100
AcDbLine
 10
283.3694886365744
 20
455.1488958648596
 30
0.0
 11
283.369488636572
 21
222.8412840202909
 31
0.0
  0
LINE
  5
AFD
102
{ACAD_REACTORS
330
B13
102
}
330
1E
100
AcDbEntity
  8
STEMPEL
  6
Continuous
100
AcDbLine
 10
284.8694886365743
 20
455.1488958648598
 30
0.0
 11
284.869488636572
 21
222.7757926059315
 31
0.0
  0
LINE
  5
AFE
102
{ACAD_REACTORS
330
B13
102
}
330
1E
100
AcDbEntity
  8
STEMPEL
100
AcDbLine
 10
284.4377750752567
 20
217.8412840202847
 30
0.0
 11
212.3012021978869
 21
217.8412840202847
 31
0.0
  0
LINE
  5
AFF
330
1E
100
AcDbEntity
  8
STEMPEL
100
AcDbLine
 10
284.3445874361426
 20
217.8399894665572
 30
0.0
 11
212.394389837001
 21
217.8399894665572
 31
0.0
  0
LINE
  5
B00
330
1E
100
AcDbEntity
  8
HILF
100
AcDbLine
 10
281.8637588802565
 20
222.8412840202847
 30
0.0
 11
214.8752183928871
 21
222.8412840202847
 31
0.0
  0
LINE
  5
B01
102
{ACAD_REACTORS
330
B13
102
}
330
1E
100
AcDbEntity
  8
STEMPEL
100
AcDbLine
 10
213.3694886365721
 20
222.8412840202847
 30
0.0
 11
213.8069319542017
 21
217.8412840202847
 31
0.0
  0
LINE
  5
B02
102
{ACAD_REACTORS
330
B13
102
}
330
1E
100
AcDbEntity
  8
STEMPEL
100
AcDbLine
 10
211.8694886365723
 20
222.7757926059223
 30
0.0
 11
212.3012021978869
 21
217.8412840202847
 31
0.0
  0
LINE
  5
B03
102
{ACAD_REACTORS
330
B13
102
}
330
1E
100
AcDbEntity
  8
STEMPEL
100
AcDbLine
 10
284.869488636572
 20
222.7757926059315
 30
0.0
 11
284.4377750752567
 21
217.8412840202847
 31
0.0
  0
LINE
  5
B04
102
{ACAD_REACTORS
330
B13
102
}
330
1E
100
AcDbEntity
  8
STEMPEL
100
AcDbLine
 10
283.369488636572
 20
222.8412840202909
 30
0.0
 11
282.9320453189417
 21
217.8412840202847
 31
0.0
  0
LINE
  5
B05
330
1E
100
AcDbEntity
  8
STEMPEL
100
AcDbLine
 10
206.3694886365719
 20
464.8412840202858
 30
0.0
 11
290.3694886365718
 21
464.8412840202858
 31
0.0
  0
LINE
  5
B06
102
{ACAD_REACTORS
330
B13
102
}
330
1E
100
AcDbEntity
  8
STEMPEL
100
AcDbLine
 10
290.8694886365718
 20
465.3412840202858
 30
0.0
 11
292.2837021989449
 21
463.9270704579125
 31
0.0
  0
LINE
  5
B07
102
{ACAD_REACTORS
330
B13
102
}
330
1E
100
AcDbEntity
  8
STEMPEL
100
AcDbLine
 10
205.8572223513678
 20
465.3535503054897
 30
0.0
 11
204.4430087889947
 21
463.9393367431166
 31
0.0
  0
LINE
  5
B08
102
{ACAD_REACTORS
330
B13
102
}
330
1E
100
AcDbEntity
  8
STEMPEL
100
AcDbLine
 10
204.7965621795882
 20
464.2928901337101
 30
0.0
 11
210.4050225425064
 21
458.6844297707927
 31
0.0
  0
ARC
  5
B09
102
{ACAD_REACTORS
330
B13
102
}
330
1E
100
AcDbEntity
  8
STEMPEL
100
AcDbCircle
 10
206.8694886365739
 20
455.1488958648596
 30
0.0
 40
5.0
100
AcDbArc
 50
0.0
 51
45.00000000000115
  0
ARC
  5
B0A
102
{ACAD_REACTORS
330
B13
102
}
330
1E
100
AcDbEntity
  8
STEMPEL
100
AcDbCircle
 10
206.869488636574
 20
455.1488958648596
 30
0.0
 40
6.5
100
AcDbArc
 50
0.0
 51
45.00000000000115
  0
LINE
  5
B0B
330
1E
100
AcDbEntity
  8
HILF
100
AcDbLine
 10
214.4729503976776
 20
457.6363381752328
 30
0.0
 11
282.2660268754662
 21
457.6363381752328
 31
0.0
  0
LINE
  5
B0C
102
{ACAD_REACTORS
330
B13
102
}
330
1E
100
AcDbEntity
  8
STEMPEL
100
AcDbLine
 10
291.9301488083513
 20
464.2806238485061
 30
0.0
 11
286.3339547306373
 21
458.6844297707927
 31
0.0
  0
ARC
  5
B0D
102
{ACAD_REACTORS
330
B13
102
}
330
1E
100
AcDbEntity
  8
STEMPEL
100
AcDbCircle
 10
289.8694886365698
 20
455.1488958648596
 30
0.0
 40
5.0
100
AcDbArc
 50
134.9999999999988
 51
180.0
  0
ARC
  5
B0E
102
{ACAD_REACTORS
330
B13
102
}
330
1E
100
AcDbEntity
  8
STEMPEL
100
AcDbCircle
 10
289.8694886365698
 20
455.1488958648596
 30
0.0
 40
6.5
100
AcDbArc
 50
134.9999999999988
 51
180.0
  0
ARC
  5
B0F
330
1E
100
AcDbEntity
  8
SCHRAFF
100
AcDbCircle
 10
290.3694886365719
 20
464.8412840202858
 30
0.0
 40
3.5
100
AcDbArc
 50
250.3769335251435
 51
10.15009542095131
  0
ARC
  5
B10
330
1E
100
AcDbEntity
  8
SCHRAFF
100
AcDbCircle
 10
206.3694886365722
 20
464.8412840202858
 30
0.0
 40
3.5
100
AcDbArc
 50
169.8499045790553
 51
289.623066474855
  0
HATCH
  5
B11
330
1E
100
AcDbEntity
  8
SCHRAFF
100
AcDbHatch
 10
0.0
 20
0.0
 30
0.0
210
0.0
220
0.0
230
1.0
  2
_U
 70
     0
 71
     0
 91
        2
 92
        7
 72
     1
 73
     1
 93
        4
 10
204.7965621795882
 20
464.29289013371
 42
0.0
 10
204.4430087889947
 20
463.9393367431166
 42
0.0
 10
202.92426547304
 20
465.4580800590712
 42
0.5760313318603869
 10
207.5448964422924
 20
461.5445558710063
 42
0.0
 97
        0
 92
        7
 72
     1
 73
     1
 93
        4
 10
293.8147118001041
 20
465.4580800590714
 42
0.0
 10
292.2837021989447
 20
463.9270704579124
 42
0.0
 10
291.9301488083513
 20
464.2806238485058
 42
0.0
 10
289.1940808308514
 20
461.5445558710065
 42
0.5760313318604339
 97
        0
 75
     0
 76
     0
 52
0.0
 41
0.1
 77
     0
 78
     1
 53
0.0
 43
25.43073770465714
 44
21.71223967511401
 45
0.0
 46
0.1
 79
     0
 47
0.1173469678841337
 98
        2
 10
204.9468317064227
 20
462.6424599913445
 10
291.7356277038369
 20
462.5251129288303
  0
HATCH
  5
B12
330
1E
100
AcDbEntity
  8
SCHRAFF
100
AcDbHatch
 10
0.0
 20
0.0
 30
0.0
210
0.0
220
0.0
230
1.0
  2
_USER
 70
     0
 71
     0
 91
        5
 92
        7
 72
     1
 73
     1
 93
        8
 10
338.3694886365721
 20
477.8412840202845
 42
0.0
 10
306.6831971355564
 20
477.8412840202845
 42
0.1989123673796403
 10
301.0263428860645
 20
475.4981382697772
 42
0.0
 10
290.8694886365718
 20
465.3412840202858
 42
0.0
 10
292.2837021989449
 20
463.9270704579125
 42
0.0
 10
302.4405564484376
 20
474.083924707404
 42
-0.1989123673796358
 10
306.6831971355564
 20
475.8412840202844
 42
0.0
 10
338.3694886365721
 20
475.8412840202847
 42
0.0
 97
        0
 92
        7
 72
     0
 73
     1
 93
        4
 10
352.9488536699617
 20
477.8412840202844
 10
338.3694886365721
 20
477.8412840202844
 10
338.3694886365721
 20
475.8412840202847
 10
352.1655743252828
 20
475.8412840202848
 97
        0
 92
        7
 72
     1
 73
     1
 93
        8
 10
364.6519742152999
 20
477.8412840202845
 42
0.0
 10
352.9488536699616
 20
477.8412840202843
 42
0.0
 10
352.1655743252828
 20
475.8412840202849
 42
0.0
 10
364.6519742152999
 20
475.8412840202849
 42
-0.1989123673797046
 10
367.1268479494529
 20
474.8161577544371
 42
0.0
 10
369.4552750741991
 20
472.4877306296907
 42
0.0
 10
370.869488636572
 20
473.9019441920641
 42
0.0
 10
368.5410615118261
 20
476.2303713168102
 42
0.1989123673796779
 97
        0
 92
        7
 72
     1
 73
     1
 93
        8
 10
190.0557801375872
 20
477.8412840202846
 42
0.0
 10
158.3694886365719
 20
477.8412840202847
 42
0.0
 10
158.3694886365719
 20
475.8412840202847
 42
0.0
 10
190.0557801375872
 20
475.8412840202844
 42
-0.1989123673796432
 10
194.2984208247063
 20
474.083924707404
 42
0.0
 10
204.4430087889949
 20
463.9393367431166
 42
0.0
 10
205.8572223513681
 20
465.3535503054899
 42
0.0
 10
195.7126343870794
 20
475.4981382697771
 42
0.1989123673796519
 97
        0
 92
        7
 72
     1
 73
     1
 93
        8
 10
158.3694886365719
 20
477.8412840202847
 42
0.0
 10
132.0870030578442
 20
477.8412840202847
 42
0.1989123673797045
 10
128.1979157613176
 20
476.2303713168102
 42
0.0
 10
125.8694886365716
 20
473.9019441920639
 42
0.0
 10
127.2837021989444
 20
472.4877306296907
 42
0.0
 10
129.6121293236907
 20
474.8161577544371
 42
-0.198912367379677
 10
132.0870030578434
 20
475.8412840202849
 42
0.0
 10
158.3694886365719
 20
475.8412840202846
 42
0.0
 97
        0
 75
     0
 76
     0
 52
45.0
 41
2.0
 77
     0
 78
     1
 53
45.0
 43
25.43073770465714
 44
21.71223967511401
 45
-1.414213562373094
 46
1.414213562373095
 79
     0
 47
0.3473152716033439
 98
        5
 10
311.533383584711
 20
477.1944640581825
 10
341.771943740394
 20
476.4998340439637
 10
356.369869050468
 20
476.4998340439637
 10
180.4996192712384
 20
477.1944640581825
 10
149.5659185154878
 20
476.4998340439637
  0
HATCH
  5
B13
330
1E
100
AcDbEntity
  8
SCHRAFF
100
AcDbHatch
 10
0.0
 20
0.0
 30
0.0
210
0.0
220
0.0
230
1.0
  2
_USER
 70
     0
 71
     1
 91
        2
 92
        7
 72
     1
 73
     1
 93
       10
 10
284.8694886365743
 20
455.1488958648598
 42
-0.1989123673795732
 10
286.3339547306373
 20
458.6844297707927
 42
0.0
 10
291.9301488083513
 20
464.2806238485061
 42
0.0
 10
290.8694886365719
 20
465.3412840202858
 42
0.0
 10
285.2732945588577
 20
459.7450899425722
 42
0.1989123673796068
 10
283.3694886365744
 20
455.1488958648593
 42
0.0
 10
283.369488636572
 20
222.8412840202908
 42
0.0
 10
282.9320453189417
 20
217.8412840202847
 42
0.0
 10
284.4377750752567
 20
217.8412840202847
 42
0.0
 10
284.8694886365721
 20
222.7757926059309
 42
0.0
 97
       10
330
B0D
330
B0C
330
B06
330
AF6
330
B0E
330
AFC
330
B04
330
AFE
330
B03
330
AFD
 92
        7
 72
     1
 73
     1
 93
       10
 10
213.369488636574
 20
455.1488958648596
 42
0.1989123673796773
 10
211.4656827142862
 20
459.7450899425725
 42
0.0
 10
205.857222351368
 20
465.3535503054898
 42
0.0
 10
204.7965621795882
 20
464.2928901337101
 42
0.0
 10
210.4050225425064
 20
458.6844297707927
 42
-0.1989123673796746
 10
211.8694886365739
 20
455.1488958648597
 42
0.0
 10
211.8694886365722
 20
222.7757926059226
 42
0.0
 10
212.3012021978869
 20
217.8412840202848
 42
0.0
 10
213.8069319542017
 20
217.8412840202848
 42
0.0
 10
213.369488636572
 20
222.8412840202848
 42
0.0
 97
       10
330
B0A
330
AEB
330
B07
330
B08
330
B09
330
AFB
330
B02
330
AFE
330
B01
330
AFA
 75
     0
 76
     0
 52
135.0
 41
2.0
 77
     0
 78
     1
 53
135.0
 43
25.43073770465714
 44
21.71223967511401
 45
-1.414213562373095
 46
-1.414213562373094
 79
     0
 47
0.5486474276378085
 98
        2
 10
284.4489061055629
 20
371.1629347312304
 10
213.0724983015585
 20
384.8791215551893
  0
DIMENSION
  5
B14
330
1E
100
AcDbEntity
  8
BEM
100
AcDbDimension
  2
*D3
 10
284.869488636572
 20
199.5963509162213
 30
0.0
 11
248.3694886365721
 21
205.0963509162214
 31
0.0
 70
    32
  1
%%c<>
 71
     5
 42
72.99999999999977
  3
Standard
100
AcDbAlignedDimension
 13
211.8694886365723
 23
222.7757926059223
 33
0.0
 14
284.869488636572
 24
222.7757926059315
 34
0.0
100
AcDbRotatedDimension
1001
ACAD
1000
DSTYLE
1002
{
1070
    40
1040
2.0
1070
    41
1040
3.5
1070
    42
1040
1.0
1070
    43
1040
7.0
1070
    44
1040
1.0
1070
    47
1040
0.7
1070
    48
1040
0.7
1070
    73
1070
     0
1070
    74
1070
     0
1070
    77
1070
     1
1070
    78
1070
     8
1070
   140
1040
3.5
1070
   141
1040
1.5
1070
   146
1040
0.5142857142857144
1070
   147
1040
1.0
1070
   172
1070
     1
1070
   178
1070
     1
1002
}
  0
HATCH
  5
B15
330
1E
100
AcDbEntity
  8
SCHRAFF
100
AcDbHatch
 10
0.0
 20
0.0
 30
0.0
210
0.0
220
0.0
230
1.0
  2
_USER
 70
     0
 71
     0
 91
        5
 92
        7
 72
     1
 73
     1
 93
       12
 10
378.3694886365716
 20
503.8412840202854
 42
0.0
 10
374.3694886365718
 20
503.8412840202857
 42
0.0
 10
374.3694886365716
 20
500.8412840202866
 42
0.0
 10
373.8694886365718
 20
500.8412840202865
 42
0.0
 10
373.8694886365719
 20
497.8412840202865
 42
0.0
 10
374.3694886365716
 20
497.8412840202866
 42
0.0
 10
374.3694886365719
 20
489.8412840202867
 42
0.0
 10
373.8694886365719
 20
489.8412840202866
 42
0.0
 10
373.8694886365719
 20
486.8412840202866
 42
0.0
 10
374.369488636572
 20
486.8412840202866
 42
0.0
 10
374.3694886365719
 20
483.8961880575085
 42
0.3763797779543461
 10
378.6297914460569
 20
488.9285460524719
 42
0.0
 97
        0
 92
        7
 72
     1
 73
     1
 93
       11
 10
366.3694886365716
 20
497.3382975194984
 42
0.0
 10
362.3175930173723
 20
500.8681859875493
 42
0.0
 10
362.2108698877804
 20
494.7540219880994
 42
-0.4091108014277268
 10
357.2116314119984
 20
489.8412840202856
 42
0.0
 10
313.8694886365718
 20
489.8412840202856
 42
1.0
 10
313.8694886365718
 20
483.8412840202852
 42
0.0
 10
366.3694886365719
 20
483.8412840202855
 42
0.0
 10
366.3694886365719
 20
486.8412840202866
 42
0.0
 10
366.8694886365719
 20
486.8412840202865
 42
0.0
 10
366.8694886365719
 20
489.8412840202865
 42
0.0
 10
366.3694886365719
 20
489.8412840202865
 42
0.0
 97
        0
 92
        7
 72
     0
 73
     1
 93
        8
 10
366.3694886365718
 20
497.3382975194986
 10
366.3694886365716
 20
497.8412840202864
 10
366.8694886365719
 20
497.8412840202865
 10
366.8694886365719
 20
500.8412840202864
 10
366.3694886365716
 20
500.8412840202864
 10
366.3694886365718
 20
503.8412840202865
 10
362.3694886365716
 20
503.8412840202869
 10
362.3175930173724
 20
500.868185987549
 97
        0
 92
        7
 72
     1
 73
     1
 93
        4
 10
164.8694886365713
 20
489.8412840202856
 42
0.0
 10
164.8694886365713
 20
483.8412840202842
 42
0.0
 10
182.8694886365718
 20
483.8412840202843
 42
1.0
 10
182.8694886365717
 20
489.8412840202854
 42
0.0
 97
        0
 92
        7
 72
     1
 73
     1
 93
        4
 10
136.3694886365716
 20
489.8412840202854
 42
1.0
 10
136.3694886365716
 20
483.841284020284
 42
0.0
 10
151.8694886365713
 20
483.8412840202841
 42
0.0
 10
151.8694886365715
 20
489.8412840202854
 42
0.0
 97
        0
 75
     0
 76
     0
 52
45.0
 41
5.0
 77
     0
 78
     1
 53
45.0
 43
46.94109896834385
 44
-25.84798722428877
 45
-3.535533905932737
 46
3.535533905932737
 79
     0
 47
0.4273487917069632
 98
        5
 10
376.8715252326229
 20
492.0362209551599
 10
364.4693325929011
 20
490.7541748575686
 10
364.0416728442211
 20
501.4378937357796
 10
174.5874889149568
 20
486.9080351665117
 10
145.0788246080329
 20
487.7627325649059
  0
LINE
  5
B16
102
{ACAD_REACTORS
330
B2C
102
}
330
1E
100
AcDbEntity
  8
STEMPEL
100
AcDbLine
 10
374.3694886365716
 20
500.8412840202865
 30
0.0
 11
374.3694886365718
 21
503.8412840202865
 31
0.0
  0
LINE
  5
B17
102
{ACAD_REACTORS
330
B2C
102
}
330
1E
100
AcDbEntity
  8
STEMPEL
100
AcDbLine
 10
374.3694886365718
 20
500.8412840202865
 30
0.0
 11
373.8694886365719
 21
500.8412840202865
 31
0.0
  0
LINE
  5
B18
102
{ACAD_REACTORS
330
B2C
102
}
330
1E
100
AcDbEntity
  8
STEMPEL
100
AcDbLine
 10
374.3694886365719
 20
489.8412840202866
 30
0.0
 11
374.3694886365716
 21
497.8412840202865
 31
0.0
  0
LINE
  5
B19
102
{ACAD_REACTORS
330
B2C
102
}
330
1E
100
AcDbEntity
  8
STEMPEL
100
AcDbLine
 10
374.3694886365719
 20
489.8412840202867
 30
0.0
 11
373.8694886365719
 21
489.8412840202866
 31
0.0
  0
LINE
  5
B1A
102
{ACAD_REACTORS
330
B2C
102
}
330
1E
100
AcDbEntity
  8
STEMPEL
100
AcDbLine
 10
374.3694886365718
 20
497.8412840202865
 30
0.0
 11
373.8694886365719
 21
497.8412840202865
 31
0.0
  0
LINE
  5
B1B
102
{ACAD_REACTORS
330
B2C
102
}
330
1E
100
AcDbEntity
  8
STEMPEL
100
AcDbLine
 10
374.3694886365719
 20
483.8412840202866
 30
0.0
 11
374.3694886365719
 21
486.8412840202866
 31
0.0
  0
LINE
  5
B1C
102
{ACAD_REACTORS
330
B2C
102
}
330
1E
100
AcDbEntity
  8
STEMPEL
100
AcDbLine
 10
374.3694886365719
 20
486.8412840202866
 30
0.0
 11
373.8694886365717
 21
486.8412840202866
 31
0.0
  0
LINE
  5
B1D
102
{ACAD_REACTORS
330
B2C
102
}
330
1E
100
AcDbEntity
  8
STEMPEL
100
AcDbLine
 10
373.8694886365719
 20
486.8412840202866
 30
0.0
 11
373.8694886365719
 21
489.8412840202867
 31
0.0
  0
LINE
  5
B1E
102
{ACAD_REACTORS
330
B2C
102
}
330
1E
100
AcDbEntity
  8
STEMPEL
100
AcDbLine
 10
372.3694886365718
 20
483.8412840202864
 30
0.0
 11
372.3694886365718
 21
490.4412840202863
 31
0.0
  0
LINE
  5
B1F
102
{ACAD_REACTORS
330
B2C
102
}
330
1E
100
AcDbEntity
  8
HILF
100
AcDbLine
 10
373.3694886365718
 20
483.8412840202864
 30
0.0
 11
373.3694886365718
 21
491.0912840202863
 31
0.0
  0
LINE
  5
B20
102
{ACAD_REACTORS
330
B2C
102
}
330
1E
100
AcDbEntity
  8
STEMPEL
100
AcDbLine
 10
373.8694886365719
 20
497.8412840202865
 30
0.0
 11
373.8694886365719
 21
500.8412840202866
 31
0.0
  0
LINE
  5
B21
102
{ACAD_REACTORS
330
B2C
102
}
330
1E
100
AcDbEntity
  8
STEMPEL
100
AcDbLine
 10
366.3694886365716
 20
500.8412840202864
 30
0.0
 11
366.3694886365718
 21
503.8412840202865
 31
0.0
  0
LINE
  5
B22
102
{ACAD_REACTORS
330
B2C
102
}
330
1E
100
AcDbEntity
  8
STEMPEL
100
AcDbLine
 10
366.8694886365719
 20
500.8412840202865
 30
0.0
 11
366.3694886365718
 21
500.8412840202865
 31
0.0
  0
LINE
  5
B23
102
{ACAD_REACTORS
330
B2C
102
}
330
1E
100
AcDbEntity
  8
STEMPEL
100
AcDbLine
 10
366.3694886365719
 20
489.8412840202864
 30
0.0
 11
366.3694886365716
 21
497.8412840202865
 31
0.0
  0
LINE
  5
B24
102
{ACAD_REACTORS
330
B2C
102
}
330
1E
100
AcDbEntity
  8
STEMPEL
100
AcDbLine
 10
366.8694886365719
 20
489.8412840202865
 30
0.0
 11
366.3694886365719
 21
489.8412840202865
 31
0.0
  0
LINE
  5
B25
102
{ACAD_REACTORS
330
B2C
102
}
330
1E
100
AcDbEntity
  8
STEMPEL
100
AcDbLine
 10
366.8694886365719
 20
497.8412840202865
 30
0.0
 11
366.3694886365718
 21
497.8412840202865
 31
0.0
  0
LINE
  5
B26
102
{ACAD_REACTORS
330
B2C
102
}
330
1E
100
AcDbEntity
  8
STEMPEL
100
AcDbLine
 10
366.3694886365719
 20
483.8412840202866
 30
0.0
 11
366.3694886365719
 21
486.8412840202866
 31
0.0
  0
LINE
  5
B27
102
{ACAD_REACTORS
330
B2C
102
}
330
1E
100
AcDbEntity
  8
STEMPEL
100
AcDbLine
 10
366.8694886365719
 20
486.8412840202866
 30
0.0
 11
366.3694886365719
 21
486.8412840202866
 31
0.0
  0
LINE
  5
B28
102
{ACAD_REACTORS
330
B2C
102
}
330
1E
100
AcDbEntity
  8
STEMPEL
100
AcDbLine
 10
366.8694886365719
 20
486.8412840202865
 30
0.0
 11
366.8694886365719
 21
489.8412840202865
 31
0.0
  0
LINE
  5
B29
102
{ACAD_REACTORS
330
B2C
102
}
330
1E
100
AcDbEntity
  8
STEMPEL
100
AcDbLine
 10
368.3694886365718
 20
483.8412840202864
 30
0.0
 11
368.3694886365718
 21
490.4412840202863
 31
0.0
  0
LINE
  5
B2A
102
{ACAD_REACTORS
330
B2C
102
}
330
1E
100
AcDbEntity
  8
HILF
100
AcDbLine
 10
367.3694886365717
 20
483.8412840202864
 30
0.0
 11
367.3694886365717
 21
491.0912840202863
 31
0.0
  0
LINE
  5
B2B
102
{ACAD_REACTORS
330
B2C
102
}
330
1E
100
AcDbEntity
  8
STEMPEL
100
AcDbLine
 10
366.8694886365719
 20
497.8412840202865
 30
0.0
 11
366.8694886365719
 21
500.8412840202866
 31
0.0
  0
HATCH
  5
B2C
330
1E
100
AcDbEntity
  8
BEM
100
AcDbHatch
 10
0.0
 20
0.0
 30
0.0
210
0.0
220
0.0
230
1.0
  2
_USER
 70
     0
 71
     1
 91
        4
 92
        7
 72
     1
 73
     1
 93
       14
 10
374.3694886365716
 20
497.8412840202866
 42
0.0
 10
373.8694886365718
 20
497.8412840202865
 42
0.0
 10
373.8694886365718
 20
500.8412840202866
 42
0.0
 10
374.3694886365716
 20
500.8412840202865
 42
0.0
 10
374.3694886365718
 20
503.8412840202861
 42
0.0
 10
373.3694886365718
 20
503.841284020286
 42
0.0
 10
373.3694886365718
 20
491.0912840202862
 42
0.0
 10
373.3694886365717
 20
483.8412840202845
 42
0.0
 10
373.6305529702751
 20
483.8412840202845
 42
0.0370996223327176
 10
374.3694886365719
 20
483.8961880575075
 42
0.0
 10
374.3694886365719
 20
486.8412840202866
 42
0.0
 10
373.8694886365718
 20
486.8412840202865
 42
0.0
 10
373.8694886365719
 20
489.8412840202866
 42
0.0
 10
374.3694886365719
 20
489.8412840202867
 42
0.0
 97
       14
330
B1A
330
B20
330
B17
330
B16
330
A09
330
A1E
330
B1F
330
9B4
330
A0A
330
B1B
330
B1C
330
B1D
330
B19
330
B18
 92
        7
 72
     0
 73
     1
 93
       13
 10
367.3694886365719
 20
503.8412840202861
 10
366.3694886365717
 20
503.8412840202861
 10
366.3694886365716
 20
500.8412840202865
 10
366.8694886365719
 20
500.8412840202865
 10
366.8694886365718
 20
497.8412840202865
 10
366.3694886365716
 20
497.8412840202865
 10
366.3694886365719
 20
489.8412840202865
 10
366.8694886365718
 20
489.8412840202865
 10
366.8694886365719
 20
486.8412840202866
 10
366.3694886365719
 20
486.8412840202866
 10
366.3694886365719
 20
483.8412840202845
 10
367.3694886365717
 20
483.8412840202845
 10
367.3694886365717
 20
491.0912840202863
 97
       13
330
9BB
330
B21
330
B22
330
B2B
330
B25
330
B23
330
B24
330
B28
330
B27
330
B26
330
9B4
330
B2A
330
A1C
 92
        7
 72
     0
 73
     1
 93
        5
 10
368.3694886365718
 20
490.4412840202864
 10
368.0194886365719
 20
490.4412840202864
 10
367.3694886365717
 20
491.0912840202862
 10
367.3694886365717
 20
483.8412840202845
 10
368.3694886365718
 20
483.8412840202845
 97
        5
330
A1F
330
A21
330
B2A
330
9B4
330
B29
 92
        7
 72
     0
 73
     1
 93
        5
 10
373.3694886365717
 20
491.0912840202862
 10
372.7194886365719
 20
490.4412840202863
 10
372.3694886365718
 20
490.4412840202863
 10
372.3694886365718
 20
483.8412840202846
 10
373.3694886365718
 20
483.8412840202845
 97
        5
330
A22
330
A1F
330
B1E
330
9B4
330
B1F
 75
     0
 76
     0
 52
135.0
 41
2.0
 77
     0
 78
     1
 53
135.0
 43
13.88497226189429
 44
75.31307411212651
 45
-1.414213562373095
 46
-1.414213562373094
 79
     0
 47
0.0558583262238273
 98
        4
 10
374.0275372265801
 20
496.6315562937377
 10
366.7606362090605
 20
495.9053975198864
 10
367.8786222404046
 20
489.20239819445
 10
373.077251282929
 20
488.7555322264213
  0
ARC
  5
BB4
330
1E
100
AcDbEntity
  8
STEMPEL
100
AcDbCircle
 10
319.7694886365718
 20
469.5303948878305
 30
0.0
 40
30.31088913245485
100
AcDbArc
 50
81.78678929826059
 51
98.2132107017394
  0
ARC
  5
BB5
330
1E
100
AcDbEntity
  8
STEMPEL
100
AcDbCircle
 10
313.2742981081885
 20
492.146978312501
 30
0.0
 40
7.694305707784447
100
AcDbArc
 50
73.65710669401345
 51
106.3428933059834
  0
ARC
  5
BB6
330
1E
100
AcDbEntity
  8
STEMPEL
100
AcDbCircle
 10
326.264679164955
 20
492.146978312501
 30
0.0
 40
7.694305707784447
100
AcDbArc
 50
73.65710669401345
 51
106.3428933059834
  0
ARC
  5
BB7
330
1E
100
AcDbEntity
  8
HILF
100
AcDbCircle
 10
319.7694886365718
 20
469.9428229726241
 30
0.0
 40
22.41111549782308
100
AcDbArc
 50
78.85962783890455
 51
101.1403721610954
  0
ARC
  5
BB8
330
1E
100
AcDbEntity
  8
HILF
100
AcDbCircle
 10
326.264679164955
 20
486.5927978707558
 30
0.0
 40
5.761140599691502
100
AcDbArc
 50
67.92594526326054
 51
112.0740547367394
  0
ARC
  5
BB9
330
1E
100
AcDbEntity
  8
HILF
100
AcDbCircle
 10
313.2742981081885
 20
486.5927978707558
 30
0.0
 40
5.761140599691502
100
AcDbArc
 50
67.92594526326054
 51
112.0740547367394
  0
POINT
  5
BBA
330
1E
100
AcDbEntity
  8
0
100
AcDbPoint
 10
319.7694886365718
 20
489.8412840202854
 30
0.0
210
0.0000000000000001
220
1.0
230
0.0
  0
LINE
  5
BBB
330
1E
100
AcDbEntity
  8
STEMPEL
100
AcDbLine
 10
312.2694886365718
 20
499.8412840202854
 30
0.0
 11
327.2694886365718
 21
499.8412840202854
 31
0.0
  0
LINE
  5
BBC
330
1E
100
AcDbEntity
  8
STEMPEL
100
AcDbLine
 10
328.4297426744162
 20
491.9316405364853
 30
0.0
 11
328.4297426744162
 21
499.5303948878301
 31
0.0
  0
LINE
  5
BBD
330
1E
100
AcDbEntity
  8
STEMPEL
100
AcDbLine
 10
324.099615655494
 20
491.9316405364853
 30
0.0
 11
324.099615655494
 21
499.5303948878301
 31
0.0
  0
LINE
  5
BBE
330
1E
100
AcDbEntity
  8
STEMPEL
100
AcDbLine
 10
315.4393616176496
 20
491.9316405364853
 30
0.0
 11
315.4393616176496
 21
499.5303948878301
 31
0.0
  0
LINE
  5
BBF
330
1E
100
AcDbEntity
  8
STEMPEL
100
AcDbLine
 10
330.1760037440661
 20
491.2960534858749
 30
0.0
 11
309.3629735290775
 21
491.2960534858749
 31
0.0
  0
LINE
  5
BC0
330
1E
100
AcDbEntity
  8
STEMPEL
100
AcDbLine
 10
329.9194886365718
 20
489.8412840202854
 30
0.0
 11
309.6194886365718
 21
489.8412840202854
 31
0.0
  0
LINE
  5
BC1
330
1E
100
AcDbEntity
  8
STEMPEL
100
AcDbLine
 10
311.1092345987274
 20
491.9316405364853
 30
0.0
 11
311.1092345987274
 21
499.5303948878301
 31
0.0
  0
LINE
  5
BC2
330
1E
100
AcDbEntity
  8
STEMPEL
100
AcDbLine
 10
312.2694886365718
 20
499.8412840202854
 30
0.0
 11
311.1092345987274
 21
499.5303948878301
 31
0.0
  0
LINE
  5
BC3
330
1E
100
AcDbEntity
  8
STEMPEL
100
AcDbLine
 10
328.4297426744162
 20
499.5303948878301
 30
0.0
 11
327.2694886365718
 21
499.8412840202854
 31
0.0
  0
LINE
  5
BC4
330
1E
100
AcDbEntity
  8
STEMPEL
100
AcDbLine
 10
330.1760037440661
 20
491.2960534858749
 30
0.0
 11
328.4297426744162
 21
491.9316405364853
 31
0.0
  0
LINE
  5
BC5
330
1E
100
AcDbEntity
  8
STEMPEL
100
AcDbLine
 10
311.1092345987274
 20
491.9316405364853
 30
0.0
 11
309.3629735290775
 21
491.2960534858749
 31
0.0
  0
ARC
  5
BC6
330
1E
100
AcDbEntity
  8
STEMPEL
100
AcDbCircle
 10
309.6194886365718
 20
490.5912840202854
 30
0.0
 40
0.7500000000000013
100
AcDbArc
 50
109.9999999999995
 51
269.9999991462263
  0
ARC
  5
BC7
330
1E
100
AcDbEntity
  8
STEMPEL
100
AcDbCircle
 10
329.9194886365718
 20
490.5912840202854
 30
0.0
 40
0.750000000000001
100
AcDbArc
 50
269.9999991462263
 51
70.00000000000047
  0
ARC
  5
BE1
330
1E
100
AcDbEntity
  8
STEMPEL
100
AcDbCircle
 10
203.3694886365717
 20
469.5303948878304
 30
0.0
 40
30.31088913245485
100
AcDbArc
 50
81.78678929826221
 51
98.2132107017378
  0
ARC
  5
BE2
330
1E
100
AcDbEntity
  8
STEMPEL
100
AcDbCircle
 10
196.8742981081884
 20
492.1469783125009
 30
0.0
 40
7.694305707784447
100
AcDbArc
 50
73.65710669401501
 51
106.342893305985
  0
ARC
  5
BE3
330
1E
100
AcDbEntity
  8
STEMPEL
100
AcDbCircle
 10
209.864679164955
 20
492.1469783125009
 30
0.0
 40
7.694305707784447
100
AcDbArc
 50
73.65710669401501
 51
106.342893305985
  0
ARC
  5
BE4
330
1E
100
AcDbEntity
  8
HILF
100
AcDbCircle
 10
203.3694886365717
 20
469.942822972624
 30
0.0
 40
22.41111549782308
100
AcDbArc
 50
78.85962783890615
 51
101.1403721610938
  0
ARC
  5
BE5
330
1E
100
AcDbEntity
  8
HILF
100
AcDbCircle
 10
209.864679164955
 20
486.5927978707556
 30
0.0
 40
5.761140599691502
100
AcDbArc
 50
67.92594526326206
 51
112.0740547367379
  0
ARC
  5
BE6
330
1E
100
AcDbEntity
  8
HILF
100
AcDbCircle
 10
196.8742981081884
 20
486.5927978707556
 30
0.0
 40
5.761140599691502
100
AcDbArc
 50
67.92594526326206
 51
112.0740547367379
  0
POINT
  5
BE7
330
1E
100
AcDbEntity
  8
0
100
AcDbPoint
 10
203.3694886365717
 20
489.8412840202853
 30
0.0
210
0.0000000000000001
220
1.0
230
0.0
  0
LINE
  5
BE8
330
1E
100
AcDbEntity
  8
STEMPEL
100
AcDbLine
 10
195.8694886365717
 20
499.8412840202853
 30
0.0
 11
210.8694886365717
 21
499.8412840202853
 31
0.0
  0
LINE
  5
BE9
330
1E
100
AcDbEntity
  8
STEMPEL
100
AcDbLine
 10
212.0297426744161
 20
491.9316405364852
 30
0.0
 11
212.0297426744161
 21
499.53039488783
 31
0.0
  0
LINE
  5
BEA
330
1E
100
AcDbEntity
  8
STEMPEL
100
AcDbLine
 10
207.6996156554939
 20
491.9316405364852
 30
0.0
 11
207.6996156554939
 21
499.53039488783
 31
0.0
  0
LINE
  5
BEB
330
1E
100
AcDbEntity
  8
STEMPEL
100
AcDbLine
 10
199.0393616176495
 20
491.9316405364852
 30
0.0
 11
199.0393616176495
 21
499.53039488783
 31
0.0
  0
LINE
  5
BEC
330
1E
100
AcDbEntity
  8
STEMPEL
100
AcDbLine
 10
213.776003744066
 20
491.2960534858747
 30
0.0
 11
192.9629735290774
 21
491.2960534858747
 31
0.0
  0
LINE
  5
BED
330
1E
100
AcDbEntity
  8
STEMPEL
100
AcDbLine
 10
213.5194886365717
 20
489.8412840202853
 30
0.0
 11
193.2194886365717
 21
489.8412840202853
 31
0.0
  0
LINE
  5
BEE
330
1E
100
AcDbEntity
  8
STEMPEL
100
AcDbLine
 10
194.7092345987273
 20
491.9316405364852
 30
0.0
 11
194.7092345987273
 21
499.53039488783
 31
0.0
  0
LINE
  5
BEF
330
1E
100
AcDbEntity
  8
STEMPEL
100
AcDbLine
 10
195.8694886365717
 20
499.8412840202853
 30
0.0
 11
194.7092345987273
 21
499.53039488783
 31
0.0
  0
LINE
  5
BF0
330
1E
100
AcDbEntity
  8
STEMPEL
100
AcDbLine
 10
212.0297426744161
 20
499.53039488783
 30
0.0
 11
210.8694886365717
 21
499.8412840202853
 31
0.0
  0
LINE
  5
BF1
330
1E
100
AcDbEntity
  8
STEMPEL
100
AcDbLine
 10
213.776003744066
 20
491.2960534858747
 30
0.0
 11
212.0297426744161
 21
491.9316405364852
 31
0.0
  0
LINE
  5
BF2
330
1E
100
AcDbEntity
  8
STEMPEL
100
AcDbLine
 10
194.7092345987273
 20
491.9316405364852
 30
0.0
 11
192.9629735290774
 21
491.2960534858747
 31
0.0
  0
ARC
  5
BF3
330
1E
100
AcDbEntity
  8
STEMPEL
100
AcDbCircle
 10
193.2194886365717
 20
490.5912840202853
 30
0.0
 40
0.7500000000000013
100
AcDbArc
 50
109.9999999999995
 51
269.9999991462263
  0
ARC
  5
BF4
330
1E
100
AcDbEntity
  8
STEMPEL
100
AcDbCircle
 10
213.5194886365717
 20
490.5912840202853
 30
0.0
 40
0.750000000000001
100
AcDbArc
 50
269.9999991462263
 51
70.00000000000047
  0
ARC
  5
C0E
330
1E
100
AcDbEntity
  8
STEMPEL
100
AcDbCircle
 10
158.3694886365719
 20
469.5303948878303
 30
0.0
 40
30.31088913245485
100
AcDbArc
 50
81.78678929826221
 51
98.2132107017378
  0
ARC
  5
C0F
330
1E
100
AcDbEntity
  8
STEMPEL
100
AcDbCircle
 10
151.8742981081886
 20
492.1469783125007
 30
0.0
 40
7.694305707784447
100
AcDbArc
 50
73.65710669401501
 51
106.342893305985
  0
ARC
  5
C10
330
1E
100
AcDbEntity
  8
STEMPEL
100
AcDbCircle
 10
164.8646791649552
 20
492.1469783125007
 30
0.0
 40
7.694305707784447
100
AcDbArc
 50
73.65710669401501
 51
106.342893305985
  0
ARC
  5
C11
330
1E
100
AcDbEntity
  8
HILF
100
AcDbCircle
 10
158.3694886365719
 20
469.9428229726239
 30
0.0
 40
22.41111549782308
100
AcDbArc
 50
78.85962783890615
 51
101.1403721610938
  0
ARC
  5
C12
330
1E
100
AcDbEntity
  8
HILF
100
AcDbCircle
 10
164.8646791649552
 20
486.5927978707556
 30
0.0
 40
5.761140599691502
100
AcDbArc
 50
67.92594526326206
 51
112.0740547367379
  0
ARC
  5
C13
330
1E
100
AcDbEntity
  8
HILF
100
AcDbCircle
 10
151.8742981081886
 20
486.5927978707556
 30
0.0
 40
5.761140599691502
100
AcDbArc
 50
67.92594526326206
 51
112.0740547367379
  0
POINT
  5
C14
330
1E
100
AcDbEntity
  8
0
100
AcDbPoint
 10
158.3694886365719
 20
489.8412840202852
 30
0.0
210
0.0000000000000001
220
1.0
230
0.0
  0
LINE
  5
C15
330
1E
100
AcDbEntity
  8
STEMPEL
100
AcDbLine
 10
150.8694886365719
 20
499.8412840202852
 30
0.0
 11
165.8694886365719
 21
499.8412840202852
 31
0.0
  0
LINE
  5
C16
330
1E
100
AcDbEntity
  8
STEMPEL
100
AcDbLine
 10
167.0297426744163
 20
491.9316405364851
 30
0.0
 11
167.0297426744163
 21
499.5303948878298
 31
0.0
  0
LINE
  5
C17
330
1E
100
AcDbEntity
  8
STEMPEL
100
AcDbLine
 10
162.6996156554941
 20
491.9316405364851
 30
0.0
 11
162.6996156554941
 21
499.5303948878298
 31
0.0
  0
LINE
  5
C18
330
1E
100
AcDbEntity
  8
STEMPEL
100
AcDbLine
 10
154.0393616176497
 20
491.9316405364851
 30
0.0
 11
154.0393616176497
 21
499.5303948878298
 31
0.0
  0
LINE
  5
C19
330
1E
100
AcDbEntity
  8
STEMPEL
100
AcDbLine
 10
168.7760037440662
 20
491.2960534858746
 30
0.0
 11
147.9629735290776
 21
491.2960534858746
 31
0.0
  0
LINE
  5
C1A
330
1E
100
AcDbEntity
  8
STEMPEL
100
AcDbLine
 10
168.5194886365719
 20
489.8412840202852
 30
0.0
 11
148.2194886365719
 21
489.8412840202852
 31
0.0
  0
LINE
  5
C1B
330
1E
100
AcDbEntity
  8
STEMPEL
100
AcDbLine
 10
149.7092345987275
 20
491.9316405364851
 30
0.0
 11
149.7092345987275
 21
499.5303948878298
 31
0.0
  0
LINE
  5
C1C
330
1E
100
AcDbEntity
  8
STEMPEL
100
AcDbLine
 10
150.8694886365719
 20
499.8412840202852
 30
0.0
 11
149.7092345987275
 21
499.5303948878298
 31
0.0
  0
LINE
  5
C1D
330
1E
100
AcDbEntity
  8
STEMPEL
100
AcDbLine
 10
167.0297426744163
 20
499.5303948878298
 30
0.0
 11
165.8694886365719
 21
499.8412840202852
 31
0.0
  0
LINE
  5
C1E
330
1E
100
AcDbEntity
  8
STEMPEL
100
AcDbLine
 10
168.7760037440662
 20
491.2960534858746
 30
0.0
 11
167.0297426744163
 21
491.9316405364851
 31
0.0
  0
LINE
  5
C1F
330
1E
100
AcDbEntity
  8
STEMPEL
100
AcDbLine
 10
149.7092345987275
 20
491.9316405364851
 30
0.0
 11
147.9629735290776
 21
491.2960534858746
 31
0.0
  0
ARC
  5
C20
330
1E
100
AcDbEntity
  8
STEMPEL
100
AcDbCircle
 10
148.2194886365719
 20
490.5912840202852
 30
0.0
 40
0.7500000000000013
100
AcDbArc
 50
109.9999999999995
 51
269.9999991462263
  0
ARC
  5
C21
330
1E
100
AcDbEntity
  8
STEMPEL
100
AcDbCircle
 10
168.5194886365719
 20
490.5912840202852
 30
0.0
 40
0.750000000000001
100
AcDbArc
 50
269.9999991462263
 51
70.00000000000047
  0
ARC
  5
C98
330
1E
100
AcDbEntity
  8
STEMPEL
100
AcDbCircle
 10
186.1878423006748
 20
318.8412840202843
 30
0.0
 40
3.0
100
AcDbArc
 50
183.5763343749981
 51
270.0
  0
ARC
  5
C99
330
1E
100
AcDbEntity
  8
STEMPEL
100
AcDbCircle
 10
310.5511349724692
 20
318.8412840202826
 30
0.0
 40
3.0
100
AcDbArc
 50
270.0
 51
356.4236656250018
  0
LINE
  5
C9B
330
1E
100
AcDbEntity
  8
STEMPEL
100
AcDbLine
 10
205.8694886365723
 20
317.841284020284
 30
0.0
 11
205.8694886365723
 21
315.841284020284
 31
0.0
  0
LINE
  5
C9D
330
1E
100
AcDbEntity
  8
STEMPEL
100
AcDbLine
 10
200.8694886365717
 20
405.8412840202842
 30
0.0
 11
194.869488636572
 21
411.841284020284
 31
0.0
  0
LINE
  5
C9E
330
1E
100
AcDbEntity
  8
STEMPEL
100
AcDbLine
 10
200.8694886365717
 20
405.8412840202842
 30
0.0
 11
200.8694886365723
 21
339.8412840202824
 31
0.0
  0
LINE
  5
C9F
330
1E
100
AcDbEntity
  8
STEMPEL
100
AcDbLine
 10
211.869488636573
 20
324.881284020283
 30
0.0
 11
200.8694886365723
 21
339.8412840202824
 31
0.0
  0
LINE
  5
CA0
330
1E
100
AcDbEntity
  8
STEMPEL
100
AcDbLine
 10
295.869488636572
 20
405.8412840202845
 30
0.0
 11
301.8694886365718
 21
411.8412840202843
 31
0.0
  0
LINE
  5
CA1
330
1E
100
AcDbEntity
  8
STEMPEL
100
AcDbLine
 10
295.8694886365721
 20
405.8412840202845
 30
0.0
 11
294.8694886365721
 21
405.8412840202845
 31
0.0
  0
LINE
  5
CA2
330
1E
100
AcDbEntity
  8
STEMPEL
100
AcDbLine
 10
295.869488636572
 20
339.8412840202826
 30
0.0
 11
294.8694886365721
 21
339.8412840202826
 31
0.0
  0
LINE
  5
CA3
330
1E
100
AcDbEntity
  8
STEMPEL
100
AcDbLine
 10
294.8694886365721
 20
338.4812840202828
 30
0.0
 11
295.8694886365721
 21
339.8412840202827
 31
0.0
  0
LINE
  5
CA4
330
1E
100
AcDbEntity
  8
STEMPEL
100
AcDbLine
 10
295.869488636572
 20
405.8412840202845
 30
0.0
 11
295.8694886365721
 21
339.8412840202827
 31
0.0
  0
DIMENSION
  5
CA5
330
1E
100
AcDbEntity
  8
BEM
100
AcDbDimension
  2
*D8
 10
323.3694886365723
 20
438.3774204060977
 30
0.0
 11
248.3694886365721
 21
438.3774204060977
 31
0.0
 70
   160
  1
%%c<>
 71
     5
 42
150.0000000000002
  3
Standard
100
AcDbAlignedDimension
 13
173.369488636572
 23
475.8412840202843
 33
0.0
 14
323.3694886365723
 24
475.8412840202845
 34
0.0
100
AcDbRotatedDimension
1001
ACAD
1000
DSTYLE
1002
{
1070
    40
1040
2.0
1070
    41
1040
3.5
1070
    42
1040
1.0
1070
    43
1040
7.0
1070
    44
1040
1.0
1070
    73
1070
     0
1070
    74
1070
     0
1070
    77
1070
     1
1070
    78
1070
     8
1070
    79
1070
     2
1070
   140
1040
3.5
1070
   141
1040
1.5
1070
   146
1040
0.5
1070
   147
1040
1.5
1070
   172
1070
     1
1070
   178
1070
     1
1070
   179
1070
     2
1070
   271
1070
     2
1070
   272
1070
     2
1070
   284
1070
     8
1070
   285
1070
     8
1070
   286
1070
     8
1070
   340
1005
24
1002
}
  0
LINE
  5
CA6
330
1E
100
AcDbEntity
  8
STEMPEL
100
AcDbLine
 10
310.5511349724691
 20
315.8412840202826
 30
0.0
 11
294.8694886365721
 21
315.8412840202828
 31
0.0
  0
DIMENSION
  5
CA7
330
1E
100
AcDbEntity
  8
BEM
100
AcDbDimension
  2
*D9
 10
313.3670332710936
 20
297.8960626349003
 30
0.0
 11
248.3694886365719
 21
304.3960626349003
 31
0.0
 70
    32
  1
%%c<>
 71
     5
 42
129.9950892690433
  3
Standard
100
AcDbAlignedDimension
 13
183.3719440020502
 23
315.8412840202843
 33
0.0
 14
313.3670332710936
 24
315.8412840202826
 34
0.0
100
AcDbRotatedDimension
1001
ACAD
1000
DSTYLE
1002
{
1070
    40
1040
2.0
1070
    41
1040
3.5
1070
    42
1040
1.0
1070
    43
1040
7.0
1070
    44
1040
1.0
1070
    73
1070
     0
1070
    74
1070
     0
1070
    77
1070
     1
1070
    78
1070
     8
1070
    79
1070
     2
1070
   140
1040
3.5
1070
   141
1040
1.5
1070
   146
1040
0.5
1070
   147
1040
1.5
1070
   172
1070
     1
1070
   178
1070
     1
1070
   179
1070
     2
1070
   271
1070
     2
1070
   272
1070
     2
1070
   284
1070
     8
1070
   285
1070
     8
1070
   286
1070
     8
1070
   340
1005
24
1002
}
  0
LINE
  5
CA8
330
1E
100
AcDbEntity
  8
STEMPEL
100
AcDbLine
 10
301.8694886365723
 20
465.8412840202845
 30
0.0
 11
294.197915761317
 21
465.8412840202845
 31
0.0
  0
LINE
  5
CA9
330
1E
100
AcDbEntity
  8
STEMPEL
100
AcDbLine
 10
301.8694886365716
 20
411.8412840202843
 30
0.0
 11
294.8882583378999
 21
411.8412840202843
 31
0.0
  0
LINE
  5
CAB
330
1E
100
AcDbEntity
  8
STEMPEL
100
AcDbLine
 10
173.369488636572
 20
475.8412840202843
 30
0.0
 11
183.1936845652261
 21
318.6541491618188
 31
0.0
  0
DIMENSION
  5
CAC
330
1E
100
AcDbEntity
  8
BEM
100
AcDbDimension
  2
*D10
 10
103.0403983064198
 20
315.8412840202843
 30
0.0
 11
96.54039830641979
 21
395.8412840202847
 31
0.0
 70
    32
 71
     5
 42
160.0000000000006
  3
Standard
100
AcDbAlignedDimension
 13
132.0870030578438
 23
475.8412840202849
 33
0.0
 14
183.3719440020502
 24
315.8412840202843
 34
0.0
 50
90.0
100
AcDbRotatedDimension
1001
ACAD
1000
DSTYLE
1002
{
1070
    40
1040
2.0
1070
    41
1040
3.5
1070
    42
1040
1.0
1070
    43
1040
7.0
1070
    44
1040
1.0
1070
    73
1070
     0
1070
    74
1070
     0
1070
    77
1070
     1
1070
    78
1070
     8
1070
    79
1070
     2
1070
   140
1040
3.5
1070
   141
1040
1.5
1070
   146
1040
0.5
1070
   147
1040
1.5
1070
   172
1070
     1
1070
   178
1070
     1
1070
   179
1070
     2
1070
   271
1070
     2
1070
   272
1070
     2
1070
   284
1070
     8
1070
   285
1070
     8
1070
   286
1070
     8
1070
   340
1005
24
1002
}
  0
LINE
  5
CAE
330
1E
100
AcDbEntity
  8
STEMPEL
100
AcDbLine
 10
194.8694886365722
 20
411.8412840202841
 30
0.0
 11
194.869488636572
 21
465.8412840202843
 31
0.0
  0
LINE
  5
CAF
330
1E
100
AcDbEntity
  8
STEMPEL
100
AcDbLine
 10
183.369488636572
 20
475.8412840202844
 30
0.0
 11
194.869488636572
 21
465.8412840202843
 31
0.0
  0
LINE
  5
CB0
330
1E
100
AcDbEntity
  8
STEMPEL
100
AcDbLine
 10
323.3694886365721
 20
475.8412840202843
 30
0.0
 11
313.5452927079179
 21
318.6541491618171
 31
0.0
  0
LINE
  5
CB2
330
1E
100
AcDbEntity
  8
STEMPEL
100
AcDbLine
 10
313.3694886365721
 20
475.8412840202844
 30
0.0
 11
301.869488636572
 21
465.8412840202843
 31
0.0
  0
LINE
  5
CB3
330
1E
100
AcDbEntity
  8
STEMPEL
100
AcDbLine
 10
301.8694886365718
 20
411.8412840202841
 30
0.0
 11
301.869488636572
 21
465.8412840202843
 31
0.0
  0
TEXT
  5
CFC
330
1E
100
AcDbEntity
  8
TEXT
 62
     1
100
AcDbText
 10
364.9834947260294
 20
341.8764112932351
 30
0.0
 40
7.0
  1
EDV-Art.Nr. 19842.070X
 41
0.8
  7
GREEKS
100
AcDbText
  0
LINE
  5
CFD
330
1E
100
AcDbEntity
  8
TEXT
 62
     2
100
AcDbLine
 10
470.2072582290223
 20
351.3114151680209
 30
0.0
 11
364.0833636213445
 21
351.3114151680206
 31
0.0
  0
LINE
  5
CFE
330
1E
100
AcDbEntity
  8
TEXT
 62
     2
100
AcDbLine
 10
364.0833636213445
 20
351.3114151680206
 30
0.0
 11
302.1909602775362
 21
377.2735469227303
 31
0.0
  0
TEXT
  5
CFF
330
1E
100
AcDbEntity
  8
TEXT
 62
     1
100
AcDbText
 10
365.1640500201815
 20
354.9241834402144
 30
0.0
 40
7.0
  1
Wärmedämmung
 41
0.8
  7
GREEKS
100
AcDbText
  0
LINE
  5
D00
330
1E
100
AcDbEntity
  8
STEMPEL
100
AcDbLine
 10
202.5410615118269
 20
465.8412840202843
 30
0.0
 11
194.869488636572
 21
465.8412840202843
 31
0.0
  0
LINE
  5
D01
330
1E
100
AcDbEntity
  8
STEMPEL
100
AcDbLine
 10
211.8694886365735
 20
411.8412840202841
 30
0.0
 11
194.8694886365722
 21
411.8412840202841
 31
0.0
  0
LINE
  5
D02
330
1E
100
AcDbEntity
  8
STEMPEL
100
AcDbLine
 10
211.8694886365735
 20
405.8412840202843
 30
0.0
 11
200.8694886365717
 21
405.8412840202844
 31
0.0
  0
LINE
  5
D03
330
1E
100
AcDbEntity
  8
STEMPEL
100
AcDbLine
 10
211.8694886365729
 20
317.8412840202839
 30
0.0
 11
205.8694886365723
 21
317.841284020284
 31
0.0
  0
LINE
  5
D04
330
1E
100
AcDbEntity
  8
STEMPEL
100
AcDbLine
 10
211.8694886365729
 20
315.8412840202839
 30
0.0
 11
186.1878423006747
 21
315.8412840202843
 31
0.0
  0
LINE
  5
D05
330
1E
100
AcDbEntity
  8
STEMPEL
100
AcDbLine
 10
211.8694886365731
 20
339.841284020284
 30
0.0
 11
200.8694886365723
 21
339.8412840202841
 31
0.0
  0
TEXT
  5
D0F
330
1E
100
AcDbEntity
  8
TEXT
100
AcDbText
 10
531.8997861689247
 20
654.3410940884991
 30
0.0
 40
5.0
  1
und Heizung, einteilig
 50
90.0
 41
0.8
  7
GREEKS
100
AcDbText
  0
LINE
  5
D10
330
1E
100
AcDbEntity
  8
MITTEL
100
AcDbLine
 10
248.3694886365718
 20
436.6718665038222
 30
0.0
 11
248.3694886365718
 21
311.0749981552556
 31
0.0
  0
LINE
  5
D1A
330
1E
100
AcDbEntity
  8
MITTEL
100
AcDbLine
 10
248.3694886365718
 20
296.6322455567111
 30
0.0
 11
248.3694886365719
 21
212.8412840202847
 31
0.0
  0
HATCH
  5
D86
330
1E
100
AcDbEntity
  8
SCHRAFF
100
AcDbHatch
 10
0.0
 20
0.0
 30
0.0
210
0.0
220
0.0
230
1.0
  2
_USER
 70
     0
 71
     1
 91
        2
 92
        7
 72
     1
 73
     1
 93
        8
 10
210.8697046698142
 20
445.4182059661187
 42
0.4142135623730951
 10
209.8697046698142
 20
446.4182059661187
 42
0.0
 10
208.8697046698142
 20
446.4182059661188
 42
0.4142135623730951
 10
207.8697046698142
 20
445.4182059661188
 42
0.0
 10
207.8697046698142
 20
439.4182059661186
 42
0.4142135623730951
 10
208.8697046698142
 20
438.4182059661187
 42
0.0
 10
209.8697046698142
 20
438.4182059661187
 42
0.4142135623730951
 10
210.8697046698142
 20
439.4182059661186
 42
0.0
 97
        8
330
D8F
330
D8C
330
D8E
330
D8D
330
D89
330
D8A
330
D8B
330
D90
 92
        7
 72
     1
 73
     1
 93
        8
 10
210.8697046698142
 20
455.4182059661187
 42
0.4142135623730951
 10
209.8697046698142
 20
456.4182059661186
 42
0.0
 10
208.8697046698142
 20
456.4182059661188
 42
0.4142135623730951
 10
207.8697046698142
 20
455.4182059661187
 42
0.0
 10
207.8697046698142
 20
449.4182059661187
 42
0.4142135623730951
 10
208.8697046698142
 20
448.4182059661186
 42
0.0
 10
209.8697046698142
 20
448.4182059661186
 42
0.4142135623730951
 10
210.8697046698142
 20
449.4182059661187
 42
0.0
 97
        8
330
DA0
330
DA3
330
DA1
330
DA2
330
DA6
330
DA5
330
DA4
330
D9F
 75
     0
 76
     0
 52
45.0
 41
1.0
 77
     0
 78
     1
 53
45.0
 43
36.79694290073019
 44
10.13779585935771
 45
-0.7071067811865475
 46
0.7071067811865476
 79
     0
 47
0.1758758460342324
 98
        2
 10
209.7681407592144
 20
443.112018636848
 10
209.7681407592145
 20
452.2575616737997
  0
HATCH
  5
D87
330
1E
100
AcDbEntity
  8
SCHRAFF
100
AcDbHatch
 10
0.0
 20
0.0
 30
0.0
210
0.0
220
0.0
230
1.0
  2
NET
 70
     0
 71
     0
 91
        4
 92
        7
 72
     1
 73
     1
 93
        8
 10
206.8697046698142
 20
455.4182059661188
 42
-0.4142135623731284
 10
208.8697046698145
 20
457.4182059661188
 42
0.0
 10
209.8697046698142
 20
457.4182059661187
 42
-0.4142135623730951
 10
211.8697046698142
 20
455.4182059661187
 42
0.0
 10
211.8697046698142
 20
449.4182059661187
 42
-0.4142135623730951
 10
209.8697046698142
 20
447.4182059661186
 42
0.0
 10
208.8697046698142
 20
447.4182059661186
 42
-0.4142135623730951
 10
206.8697046698142
 20
449.4182059661187
 42
0.0
 97
        0
 92
       22
 72
     1
 73
     1
 93
        8
 10
207.8697046698142
 20
449.4182059661187
 42
0.4142135623730951
 10
208.8697046698142
 20
448.4182059661186
 42
0.0
 10
209.8697046698142
 20
448.4182059661186
 42
0.4142135623730951
 10
210.8697046698142
 20
449.4182059661187
 42
0.0
 10
210.8697046698142
 20
455.4182059661187
 42
0.4142135623730951
 10
209.8697046698142
 20
456.4182059661186
 42
0.0
 10
208.8697046698142
 20
456.4182059661188
 42
0.4142135623730951
 10
207.8697046698142
 20
455.4182059661187
 42
0.0
 97
        0
 92
        7
 72
     1
 73
     1
 93
        8
 10
206.8697046698142
 20
445.4182059661189
 42
-0.4142135623730784
 10
208.8697046698142
 20
447.4182059661186
 42
0.0
 10
209.8697046698142
 20
447.4182059661186
 42
-0.4142135623730951
 10
211.8697046698142
 20
445.4182059661187
 42
0.0
 10
211.8697046698142
 20
439.4182059661186
 42
-0.4142135623730951
 10
209.8697046698142
 20
437.4182059661187
 42
0.0
 10
208.8697046698142
 20
437.4182059661187
 42
-0.4142135623730951
 10
206.8697046698142
 20
439.4182059661187
 42
0.0
 97
        0
 92
       22
 72
     1
 73
     1
 93
        8
 10
207.8697046698142
 20
439.4182059661186
 42
0.4142135623730951
 10
208.8697046698142
 20
438.4182059661187
 42
0.0
 10
209.8697046698142
 20
438.4182059661187
 42
0.4142135623730951
 10
210.8697046698142
 20
439.4182059661186
 42
0.0
 10
210.8697046698142
 20
445.4182059661187
 42
0.4142135623730951
 10
209.8697046698142
 20
446.4182059661187
 42
0.0
 10
208.8697046698142
 20
446.4182059661188
 42
0.4142135623730951
 10
207.8697046698142
 20
445.4182059661188
 42
0.0
 97
        0
 75
     0
 76
     1
 52
45.0
 41
10.0
 77
     0
 78
     2
 53
134.9999999999998
 43
459.7953080331167
 44
-9.913553300275907
 45
0.8838834764831865
 46
0.8838834764831819
 79
     0
 53
44.99999999999984
 43
459.7953080331167
 44
-9.913553300275907
 45
0.8838834764831817
 46
-0.8838834764831867
 79
     0
 47
0.1245679072124101
 98
        4
 10
207.2411360868707
 20
452.8136559372647
 10
207.2411360868707
 20
452.8136559372647
 10
207.116530067426
 20
444.4676057686959
 10
207.116530067426
 20
444.4676057686959
  0
LINE
  5
D88
330
1E
100
AcDbEntity
  8
STEMPEL
  6
Continuous
100
AcDbLine
 10
211.8697046698142
 20
445.4182059661187
 30
0.0
 11
211.8697046698142
 21
439.4182059661186
 31
0.0
  0
ARC
  5
D89
102
{ACAD_REACTORS
330
D86
102
}
330
1E
100
AcDbEntity
  8
STEMPEL
100
AcDbCircle
 10
209.8697046698142
 20
439.4182059661186
 30
0.0
 40
1.0
100
AcDbArc
 50
270.0
 51
0.0
  0
LINE
  5
D8A
102
{ACAD_REACTORS
330
D86
102
}
330
1E
100
AcDbEntity
  8
STEMPEL
100
AcDbLine
 10
208.8697046698142
 20
438.4182059661187
 30
0.0
 11
209.8697046698142
 21
438.4182059661187
 31
0.0
  0
ARC
  5
D8B
102
{ACAD_REACTORS
330
D86
102
}
330
1E
100
AcDbEntity
  8
STEMPEL
100
AcDbCircle
 10
208.8697046698142
 20
439.4182059661186
 30
0.0
 40
1.0
100
AcDbArc
 50
180.0
 51
270.0
  0
LINE
  5
D8C
102
{ACAD_REACTORS
330
D86
102
}
330
1E
100
AcDbEntity
  8
STEMPEL
100
AcDbLine
 10
208.8697046698142
 20
446.4182059661188
 30
0.0
 11
209.8697046698142
 21
446.4182059661187
 31
0.0
  0
LINE
  5
D8D
102
{ACAD_REACTORS
330
D86
102
}
330
1E
100
AcDbEntity
  8
STEMPEL
  6
Continuous
100
AcDbLine
 10
210.8697046698142
 20
445.4182059661187
 30
0.0
 11
210.8697046698142
 21
439.4182059661186
 31
0.0
  0
ARC
  5
D8E
102
{ACAD_REACTORS
330
D86
102
}
330
1E
100
AcDbEntity
  8
STEMPEL
100
AcDbCircle
 10
209.8697046698142
 20
445.4182059661187
 30
0.0
 40
1.0
100
AcDbArc
 50
0.0
 51
90.0
  0
ARC
  5
D8F
102
{ACAD_REACTORS
330
D86
102
}
330
1E
100
AcDbEntity
  8
STEMPEL
100
AcDbCircle
 10
208.8697046698142
 20
445.4182059661188
 30
0.0
 40
1.0
100
AcDbArc
 50
90.0
 51
180.0
  0
LINE
  5
D90
102
{ACAD_REACTORS
330
D86
102
}
330
1E
100
AcDbEntity
  8
STEMPEL
  6
Continuous
100
AcDbLine
 10
207.8697046698142
 20
445.4182059661188
 30
0.0
 11
207.8697046698142
 21
439.4182059661186
 31
0.0
  0
ARC
  5
D91
330
1E
100
AcDbEntity
  8
STEMPEL
100
AcDbCircle
 10
209.8697046698142
 20
439.4182059661186
 30
0.0
 40
2.0
100
AcDbArc
 50
270.0
 51
0.0
  0
ARC
  5
D92
330
1E
100
AcDbEntity
  8
STEMPEL
100
AcDbCircle
 10
209.8697046698142
 20
445.4182059661187
 30
0.0
 40
2.0
100
AcDbArc
 50
0.0
 51
90.0
  0
ARC
  5
D93
330
1E
100
AcDbEntity
  8
STEMPEL
100
AcDbCircle
 10
208.8697046698142
 20
439.4182059661186
 30
0.0
 40
2.0
100
AcDbArc
 50
180.0
 51
270.0
  0
ARC
  5
D94
330
1E
100
AcDbEntity
  8
STEMPEL
100
AcDbCircle
 10
208.8697046698142
 20
445.4182059661188
 30
0.0
 40
2.0
100
AcDbArc
 50
90.0
 51
180.0
  0
LINE
  5
D95
330
1E
100
AcDbEntity
  8
STEMPEL
100
AcDbLine
 10
208.8697046698142
 20
437.4182059661187
 30
0.0
 11
209.8697046698142
 21
437.4182059661187
 31
0.0
  0
LINE
  5
D96
330
1E
100
AcDbEntity
  8
STEMPEL
  6
Continuous
100
AcDbLine
 10
206.8697046698142
 20
445.4182059661189
 30
0.0
 11
206.8697046698142
 21
439.4182059661187
 31
0.0
  0
LINE
  5
D97
330
1E
100
AcDbEntity
  8
STEMPEL
  6
Continuous
100
AcDbLine
 10
206.8697046698142
 20
455.4182059661188
 30
0.0
 11
206.8697046698142
 21
449.4182059661187
 31
0.0
  0
LINE
  5
D98
330
1E
100
AcDbEntity
  8
STEMPEL
100
AcDbLine
 10
208.8697046698142
 20
447.4182059661186
 30
0.0
 11
209.8697046698142
 21
447.4182059661186
 31
0.0
  0
LINE
  5
D99
330
1E
100
AcDbEntity
  8
STEMPEL
100
AcDbLine
 10
208.8697046698142
 20
457.4182059661188
 30
0.0
 11
209.8697046698142
 21
457.4182059661187
 31
0.0
  0
ARC
  5
D9A
330
1E
100
AcDbEntity
  8
STEMPEL
100
AcDbCircle
 10
208.8697046698142
 20
455.4182059661187
 30
0.0
 40
2.0
100
AcDbArc
 50
90.0
 51
180.0
  0
ARC
  5
D9B
330
1E
100
AcDbEntity
  8
STEMPEL
100
AcDbCircle
 10
208.8697046698142
 20
449.4182059661187
 30
0.0
 40
2.0
100
AcDbArc
 50
180.0
 51
270.0
  0
LINE
  5
D9C
330
1E
100
AcDbEntity
  8
STEMPEL
  6
Continuous
100
AcDbLine
 10
211.8697046698142
 20
455.4182059661187
 30
0.0
 11
211.8697046698142
 21
449.4182059661187
 31
0.0
  0
ARC
  5
D9D
330
1E
100
AcDbEntity
  8
STEMPEL
100
AcDbCircle
 10
209.8697046698142
 20
455.4182059661187
 30
0.0
 40
2.0
100
AcDbArc
 50
0.0
 51
90.0
  0
ARC
  5
D9E
330
1E
100
AcDbEntity
  8
STEMPEL
100
AcDbCircle
 10
209.8697046698142
 20
449.4182059661187
 30
0.0
 40
2.0
100
AcDbArc
 50
270.0
 51
0.0
  0
LINE
  5
D9F
102
{ACAD_REACTORS
330
D86
102
}
330
1E
100
AcDbEntity
  8
STEMPEL
  6
Continuous
100
AcDbLine
 10
207.8697046698142
 20
455.4182059661187
 30
0.0
 11
207.8697046698142
 21
449.4182059661187
 31
0.0
  0
ARC
  5
DA0
102
{ACAD_REACTORS
330
D86
102
}
330
1E
100
AcDbEntity
  8
STEMPEL
100
AcDbCircle
 10
208.8697046698142
 20
455.4182059661187
 30
0.0
 40
1.0
100
AcDbArc
 50
90.0
 51
180.0
  0
ARC
  5
DA1
102
{ACAD_REACTORS
330
D86
102
}
330
1E
100
AcDbEntity
  8
STEMPEL
100
AcDbCircle
 10
209.8697046698142
 20
455.4182059661187
 30
0.0
 40
1.0
100
AcDbArc
 50
0.0
 51
90.0
  0
LINE
  5
DA2
102
{ACAD_REACTORS
330
D86
102
}
330
1E
100
AcDbEntity
  8
STEMPEL
  6
Continuous
100
AcDbLine
 10
210.8697046698142
 20
455.4182059661187
 30
0.0
 11
210.8697046698142
 21
449.4182059661187
 31
0.0
  0
LINE
  5
DA3
102
{ACAD_REACTORS
330
D86
102
}
330
1E
100
AcDbEntity
  8
STEMPEL
100
AcDbLine
 10
208.8697046698142
 20
456.4182059661188
 30
0.0
 11
209.8697046698142
 21
456.4182059661186
 31
0.0
  0
ARC
  5
DA4
102
{ACAD_REACTORS
330
D86
102
}
330
1E
100
AcDbEntity
  8
STEMPEL
100
AcDbCircle
 10
208.8697046698142
 20
449.4182059661187
 30
0.0
 40
1.0
100
AcDbArc
 50
180.0
 51
270.0
  0
LINE
  5
DA5
102
{ACAD_REACTORS
330
D86
102
}
330
1E
100
AcDbEntity
  8
STEMPEL
100
AcDbLine
 10
208.8697046698142
 20
448.4182059661186
 30
0.0
 11
209.8697046698142
 21
448.4182059661186
 31
0.0
  0
ARC
  5
DA6
102
{ACAD_REACTORS
330
D86
102
}
330
1E
100
AcDbEntity
  8
STEMPEL
100
AcDbCircle
 10
209.8697046698142
 20
449.4182059661187
 30
0.0
 40
1.0
100
AcDbArc
 50
270.0
 51
0.0
  0
ARC
  5
DA7
102
{ACAD_REACTORS
330
DC7
330
DC8
102
}
330
1E
100
AcDbEntity
  8
STEMPEL
100
AcDbCircle
 10
286.8692726033297
 20
449.4182059661185
 30
0.0
 40
1.0
100
AcDbArc
 50
180.0
 51
270.0
  0
LINE
  5
DA8
102
{ACAD_REACTORS
330
DC7
330
DC8
102
}
330
1E
100
AcDbEntity
  8
STEMPEL
100
AcDbLine
 10
287.8692726033297
 20
448.4182059661185
 30
0.0
 11
286.8692726033297
 21
448.4182059661185
 31
0.0
  0
ARC
  5
DA9
102
{ACAD_REACTORS
330
DC7
330
DC8
102
}
330
1E
100
AcDbEntity
  8
STEMPEL
100
AcDbCircle
 10
287.8692726033297
 20
449.4182059661185
 30
0.0
 40
1.0
100
AcDbArc
 50
270.0
 51
0.0
  0
LINE
  5
DAA
102
{ACAD_REACTORS
330
DC7
330
DC8
102
}
330
1E
100
AcDbEntity
  8
STEMPEL
100
AcDbLine
 10
287.8692726033297
 20
456.4182059661186
 30
0.0
 11
286.8692726033297
 21
456.4182059661185
 31
0.0
  0
LINE
  5
DAB
102
{ACAD_REACTORS
330
DC7
330
DC8
102
}
330
1E
100
AcDbEntity
  8
STEMPEL
  6
Continuous
100
AcDbLine
 10
285.8692726033297
 20
455.4182059661186
 30
0.0
 11
285.8692726033297
 21
449.4182059661185
 31
0.0
  0
ARC
  5
DAC
102
{ACAD_REACTORS
330
DC7
330
DC8
102
}
330
1E
100
AcDbEntity
  8
STEMPEL
100
AcDbCircle
 10
286.8692726033297
 20
455.4182059661186
 30
0.0
 40
1.0
100
AcDbArc
 50
90.0
 51
180.0
  0
ARC
  5
DAD
102
{ACAD_REACTORS
330
DC7
330
DC8
102
}
330
1E
100
AcDbEntity
  8
STEMPEL
100
AcDbCircle
 10
287.8692726033297
 20
455.4182059661187
 30
0.0
 40
1.0
100
AcDbArc
 50
0.0
 51
90.0
  0
LINE
  5
DAE
102
{ACAD_REACTORS
330
DC7
330
DC8
102
}
330
1E
100
AcDbEntity
  8
STEMPEL
  6
Continuous
100
AcDbLine
 10
288.8692726033297
 20
455.4182059661187
 30
0.0
 11
288.8692726033297
 21
449.4182059661185
 31
0.0
  0
ARC
  5
DAF
102
{ACAD_REACTORS
330
DC7
102
}
330
1E
100
AcDbEntity
  8
STEMPEL
100
AcDbCircle
 10
286.8692726033297
 20
449.4182059661185
 30
0.0
 40
2.0
100
AcDbArc
 50
180.0
 51
270.0
  0
ARC
  5
DB0
102
{ACAD_REACTORS
330
DC7
102
}
330
1E
100
AcDbEntity
  8
STEMPEL
100
AcDbCircle
 10
286.8692726033297
 20
455.4182059661186
 30
0.0
 40
2.0
100
AcDbArc
 50
90.0
 51
180.0
  0
LINE
  5
DB1
102
{ACAD_REACTORS
330
DC7
102
}
330
1E
100
AcDbEntity
  8
STEMPEL
  6
Continuous
100
AcDbLine
 10
284.8692726033297
 20
455.4182059661186
 30
0.0
 11
284.8692726033297
 21
449.4182059661185
 31
0.0
  0
ARC
  5
DB2
102
{ACAD_REACTORS
330
DC7
102
}
330
1E
100
AcDbEntity
  8
STEMPEL
100
AcDbCircle
 10
287.8692726033297
 20
449.4182059661185
 30
0.0
 40
2.0
100
AcDbArc
 50
270.0
 51
0.0
  0
ARC
  5
DB3
102
{ACAD_REACTORS
330
DC7
102
}
330
1E
100
AcDbEntity
  8
STEMPEL
100
AcDbCircle
 10
287.8692726033297
 20
455.4182059661187
 30
0.0
 40
2.0
100
AcDbArc
 50
0.0
 51
90.0
  0
LINE
  5
DB4
102
{ACAD_REACTORS
330
DC7
102
}
330
1E
100
AcDbEntity
  8
STEMPEL
100
AcDbLine
 10
287.8692726033297
 20
457.4182059661187
 30
0.0
 11
286.8692726033297
 21
457.4182059661185
 31
0.0
  0
LINE
  5
DB5
102
{ACAD_REACTORS
330
DC7
102
}
330
1E
100
AcDbEntity
  8
STEMPEL
100
AcDbLine
 10
287.8692726033297
 20
447.4182059661186
 30
0.0
 11
286.8692726033297
 21
447.4182059661186
 31
0.0
  0
LINE
  5
DB6
102
{ACAD_REACTORS
330
DC7
102
}
330
1E
100
AcDbEntity
  8
STEMPEL
  6
Continuous
100
AcDbLine
 10
289.8692726033297
 20
455.4182059661187
 30
0.0
 11
289.8692726033297
 21
449.4182059661185
 31
0.0
  0
LINE
  5
DB7
102
{ACAD_REACTORS
330
DC7
102
}
330
1E
100
AcDbEntity
  8
STEMPEL
  6
Continuous
100
AcDbLine
 10
289.8692726033297
 20
445.4182059661187
 30
0.0
 11
289.8692726033297
 21
439.4182059661186
 31
0.0
  0
LINE
  5
DB8
330
1E
100
AcDbEntity
  8
STEMPEL
100
AcDbLine
 10
287.8692726033297
 20
437.4182059661186
 30
0.0
 11
286.8692726033297
 21
437.4182059661186
 31
0.0
  0
ARC
  5
DB9
102
{ACAD_REACTORS
330
DC7
102
}
330
1E
100
AcDbEntity
  8
STEMPEL
100
AcDbCircle
 10
287.8692726033297
 20
445.4182059661187
 30
0.0
 40
2.0
100
AcDbArc
 50
0.0
 51
90.0
  0
ARC
  5
DBA
102
{ACAD_REACTORS
330
DC7
102
}
330
1E
100
AcDbEntity
  8
STEMPEL
100
AcDbCircle
 10
287.8692726033297
 20
439.4182059661186
 30
0.0
 40
2.0
100
AcDbArc
 50
270.0
 51
0.0
  0
ARC
  5
DBB
102
{ACAD_REACTORS
330
DC7
102
}
330
1E
100
AcDbEntity
  8
STEMPEL
100
AcDbCircle
 10
286.8692726033297
 20
445.4182059661185
 30
0.0
 40
2.0
100
AcDbArc
 50
90.0
 51
180.0
  0
ARC
  5
DBC
102
{ACAD_REACTORS
330
DC7
102
}
330
1E
100
AcDbEntity
  8
STEMPEL
100
AcDbCircle
 10
286.8692726033297
 20
439.4182059661186
 30
0.0
 40
2.0
100
AcDbArc
 50
180.0
 51
270.0
  0
LINE
  5
DBD
102
{ACAD_REACTORS
330
DC7
330
DC8
102
}
330
1E
100
AcDbEntity
  8
STEMPEL
  6
Continuous
100
AcDbLine
 10
288.8692726033297
 20
445.4182059661187
 30
0.0
 11
288.8692726033297
 21
439.4182059661186
 31
0.0
  0
ARC
  5
DBE
102
{ACAD_REACTORS
330
DC7
330
DC8
102
}
330
1E
100
AcDbEntity
  8
STEMPEL
100
AcDbCircle
 10
287.8692726033297
 20
445.4182059661187
 30
0.0
 40
1.0
100
AcDbArc
 50
0.0
 51
90.0
  0
ARC
  5
DBF
102
{ACAD_REACTORS
330
DC7
330
DC8
102
}
330
1E
100
AcDbEntity
  8
STEMPEL
100
AcDbCircle
 10
286.8692726033297
 20
445.4182059661185
 30
0.0
 40
1.0
100
AcDbArc
 50
90.0
 51
180.0
  0
LINE
  5
DC0
102
{ACAD_REACTORS
330
DC7
330
DC8
102
}
330
1E
100
AcDbEntity
  8
STEMPEL
  6
Continuous
100
AcDbLine
 10
285.8692726033297
 20
445.4182059661185
 30
0.0
 11
285.8692726033297
 21
439.4182059661186
 31
0.0
  0
LINE
  5
DC1
102
{ACAD_REACTORS
330
DC7
330
DC8
102
}
330
1E
100
AcDbEntity
  8
STEMPEL
100
AcDbLine
 10
287.8692726033297
 20
446.4182059661187
 30
0.0
 11
286.8692726033297
 21
446.4182059661186
 31
0.0
  0
ARC
  5
DC2
102
{ACAD_REACTORS
330
DC7
330
DC8
102
}
330
1E
100
AcDbEntity
  8
STEMPEL
100
AcDbCircle
 10
287.8692726033297
 20
439.4182059661186
 30
0.0
 40
1.0
100
AcDbArc
 50
270.0
 51
0.0
  0
LINE
  5
DC3
102
{ACAD_REACTORS
330
DC7
330
DC8
102
}
330
1E
100
AcDbEntity
  8
STEMPEL
100
AcDbLine
 10
287.8692726033297
 20
438.4182059661186
 30
0.0
 11
286.8692726033297
 21
438.4182059661186
 31
0.0
  0
ARC
  5
DC4
102
{ACAD_REACTORS
330
DC7
330
DC8
102
}
330
1E
100
AcDbEntity
  8
STEMPEL
100
AcDbCircle
 10
286.8692726033297
 20
439.4182059661186
 30
0.0
 40
1.0
100
AcDbArc
 50
180.0
 51
270.0
  0
LINE
  5
DC5
102
{ACAD_REACTORS
330
DC7
102
}
330
1E
100
AcDbEntity
  8
STEMPEL
  6
Continuous
100
AcDbLine
 10
284.8692726033297
 20
445.4182059661185
 30
0.0
 11
284.8692726033297
 21
439.4182059661186
 31
0.0
  0
LINE
  5
DC6
102
{ACAD_REACTORS
330
DC7
102
}
330
1E
100
AcDbEntity
  8
STEMPEL
100
AcDbLine
 10
287.8692726033297
 20
437.4182059661186
 30
0.0
 11
284.812175245243
 21
437.4182059661186
 31
0.0
  0
HATCH
  5
DC7
330
1E
100
AcDbEntity
  8
SCHRAFF
100
AcDbHatch
 10
0.0
 20
0.0
 30
0.0
210
0.0
220
0.0
230
1.0
  2
NET
 70
     0
 71
     1
 91
        4
 92
        7
 72
     1
 73
     1
 93
        8
 10
289.8692726033297
 20
455.4182059661187
 42
0.4142135623731284
 10
287.8692726033295
 20
457.4182059661187
 42
0.0
 10
286.8692726033297
 20
457.4182059661185
 42
0.4142135623730951
 10
284.8692726033297
 20
455.4182059661186
 42
0.0
 10
284.8692726033297
 20
449.4182059661185
 42
0.4142135623730951
 10
286.8692726033297
 20
447.4182059661186
 42
0.0
 10
287.8692726033297
 20
447.4182059661186
 42
0.4142135623730951
 10
289.8692726033297
 20
449.4182059661185
 42
0.0
 97
        8
330
DB3
330
DB4
330
DB0
330
DB1
330
DAF
330
DB5
330
DB2
330
DB6
 92
       22
 72
     1
 73
     1
 93
        8
 10
288.8692726033297
 20
449.4182059661185
 42
-0.4142135623730951
 10
287.8692726033297
 20
448.4182059661185
 42
0.0
 10
286.8692726033297
 20
448.4182059661185
 42
-0.4142135623730951
 10
285.8692726033297
 20
449.4182059661185
 42
0.0
 10
285.8692726033297
 20
455.4182059661186
 42
-0.4142135623730951
 10
286.8692726033297
 20
456.4182059661185
 42
0.0
 10
287.8692726033297
 20
456.4182059661186
 42
-0.4142135623730951
 10
288.8692726033297
 20
455.4182059661187
 42
0.0
 97
        8
330
DA9
330
DA8
330
DA7
330
DAB
330
DAC
330
DAA
330
DAD
330
DAE
 92
        7
 72
     1
 73
     1
 93
        8
 10
289.8692726033297
 20
445.4182059661187
 42
0.4142135623730784
 10
287.8692726033297
 20
447.4182059661186
 42
0.0
 10
286.8692726033297
 20
447.4182059661186
 42
0.4142135623730951
 10
284.8692726033297
 20
445.4182059661185
 42
0.0
 10
284.8692726033297
 20
439.4182059661186
 42
0.4142135623730951
 10
286.8692726033297
 20
437.4182059661186
 42
0.0
 10
287.8692726033297
 20
437.4182059661186
 42
0.4142135623730951
 10
289.8692726033297
 20
439.4182059661186
 42
0.0
 97
        8
330
DB9
330
DB5
330
DBB
330
DC5
330
DBC
330
DC6
330
DBA
330
DB7
 92
       22
 72
     1
 73
     1
 93
        8
 10
288.8692726033297
 20
439.4182059661186
 42
-0.4142135623730951
 10
287.8692726033297
 20
438.4182059661186
 42
0.0
 10
286.8692726033297
 20
438.4182059661186
 42
-0.4142135623730951
 10
285.8692726033297
 20
439.4182059661186
 42
0.0
 10
285.8692726033297
 20
445.4182059661185
 42
-0.4142135623730951
 10
286.8692726033297
 20
446.4182059661186
 42
0.0
 10
287.8692726033297
 20
446.4182059661187
 42
-0.4142135623730951
 10
288.8692726033297
 20
445.4182059661187
 42
0.0
 97
        8
330
DC2
330
DC3
330
DC4
330
DC0
330
DBF
330
DC1
330
DBE
330
DBD
 75
     0
 76
     1
 52
45.0
 41
10.0
 77
     0
 78
     2
 53
45.0
 43
36.94366924002586
 44
-9.913553300275339
 45
-0.8838834764831842
 46
0.8838834764831844
 79
     0
 53
135.0
 43
36.94366924002586
 44
-9.913553300275339
 45
-0.8838834764831844
 46
-0.8838834764831842
 79
     0
 47
0.1245679072124101
 98
        4
 10
289.4978411862733
 20
452.8136559372645
 10
289.4978411862733
 20
452.8136559372645
 10
289.6224472057179
 20
444.4676057686957
 10
289.6224472057179
 20
444.4676057686957
  0
HATCH
  5
DC8
330
1E
100
AcDbEntity
  8
SCHRAFF
100
AcDbHatch
 10
0.0
 20
0.0
 30
0.0
210
0.0
220
0.0
230
1.0
  2
_USER
 70
     0
 71
     1
 91
        2
 92
        7
 72
     1
 73
     1
 93
        8
 10
285.8692726033297
 20
439.4182059661186
 42
0.4142135623730951
 10
286.8692726033297
 20
438.4182059661186
 42
0.0
 10
287.8692726033297
 20
438.4182059661186
 42
0.4142135623730951
 10
288.8692726033297
 20
439.4182059661186
 42
0.0
 10
288.8692726033297
 20
445.4182059661187
 42
0.4142135623731284
 10
287.8692726033296
 20
446.4182059661187
 42
0.0
 10
286.8692726033297
 20
446.4182059661186
 42
0.4142135623730951
 10
285.8692726033297
 20
445.4182059661185
 42
0.0
 97
        8
330
DBE
330
DC1
330
DBF
330
DC0
330
DC4
330
DC3
330
DC2
330
DBD
 92
        7
 72
     1
 73
     1
 93
        8
 10
285.8692726033297
 20
449.4182059661185
 42
0.4142135623730951
 10
286.8692726033297
 20
448.4182059661185
 42
0.0
 10
287.8692726033297
 20
448.4182059661185
 42
0.4142135623730951
 10
288.8692726033297
 20
449.4182059661185
 42
0.0
 10
288.8692726033297
 20
455.4182059661187
 42
0.4142135623731284
 10
287.8692726033296
 20
456.4182059661186
 42
0.0
 10
286.8692726033297
 20
456.4182059661185
 42
0.4142135623730951
 10
285.8692726033297
 20
455.4182059661186
 42
0.0
 97
        8
330
DAD
330
DAA
330
DAC
330
DAB
330
DA7
330
DA8
330
DA9
330
DAE
 75
     0
 76
     0
 52
45.0
 41
1.0
 77
     0
 78
     1
 53
45.0
 43
36.94366924002586
 44
-9.913553300275339
 45
-0.7071067811865475
 46
0.7071067811865476
 79
     0
 47
0.1758758460342324
 98
        2
 10
286.9708365139295
 20
443.1120186368478
 10
286.9708365139295
 20
452.2575616737996
  0
ARC
  5
DC9
330
1E
100
AcDbEntity
  8
STEMPEL
100
AcDbCircle
 10
229.2282934858553
 20
410.5938488711942
 30
0.0
 40
65.67181342724521
100
AcDbArc
 50
358.2503331188794
 51
22.79436308027049
  0
ARC
  5
DCA
330
1E
100
AcDbEntity
  8
STEMPEL
100
AcDbCircle
 10
287.8692726033297
 20
435.4182059661186
 30
0.0
 40
2.0
100
AcDbArc
 50
18.01518071558137
 51
90.0
  0
LINE
  5
DCB
330
1E
100
AcDbEntity
  8
STEMPEL
100
AcDbLine
 10
294.8694886365721
 20
408.5887109686018
 30
0.0
 11
294.8694886365722
 21
308.5409203017748
 31
0.0
  0
LINE
  5
DCC
330
1E
100
AcDbEntity
  8
TEXT
 62
     2
100
AcDbLine
 10
367.5050367926786
 20
300.1676010322607
 30
0.0
 11
474.788245865504
 21
300.1676010322607
 31
0.0
  0
TEXT
  5
DCD
330
1E
100
AcDbEntity
  8
TEXT
 62
     1
100
AcDbText
 10
369.304128787145
 20
304.3127516419724
 30
0.0
 40
7.0
  1
Heizbandkabel
 41
0.8
  7
GREEKS
100
AcDbText
  0
TEXT
  5
DCE
330
1E
100
AcDbEntity
  8
TEXT
 62
     1
100
AcDbText
 10
369.304128787145
 20
289.350045847606
 30
0.0
 40
7.0
  1
EDV-Art.Nr. 19853.000X
 41
0.8
  7
GREEKS
100
AcDbText
  0
LINE
  5
DCF
330
1E
100
AcDbEntity
  8
TEXT
 62
     2
100
AcDbLine
 10
367.5050367926786
 20
300.1676010322607
 30
0.0
 11
297.7499191828716
 21
281.997191558956
 31
0.0
  0
POLYLINE
  5
DD0
330
1E
100
AcDbEntity
  8
STEMPEL
100
AcDb2dPolyline
 66
     1
 10
0.0
 20
0.0
 30
0.0
 70
     4
 75
     6
  0
VERTEX
  5
DD1
330
DD0
100
AcDbEntity
  8
STEMPEL
100
AcDbVertex
100
AcDb2dVertex
 10
284.8694886365722
 20
315.8399894665556
 30
0.0
 70
    16
  0
VERTEX
  5
DD2
330
DD0
100
AcDbEntity
  8
STEMPEL
100
AcDbVertex
100
AcDb2dVertex
 10
284.8694886365722
 20
315.8399894665556
 30
0.0
 70
     8
  0
VERTEX
  5
DD3
330
DD0
100
AcDbEntity
  8
STEMPEL
100
AcDbVertex
100
AcDb2dVertex
 10
285.5241437402077
 20
308.9183673762209
 30
0.0
 70
     8
  0
VERTEX
  5
DD4
330
DD0
100
AcDbEntity
  8
STEMPEL
100
AcDbVertex
100
AcDb2dVertex
 10
286.0902122182916
 20
303.467984171552
 30
0.0
 70
     8
  0
VERTEX
  5
DD5
330
DD0
100
AcDbEntity
  8
STEMPEL
100
AcDbVertex
100
AcDb2dVertex
 10
286.6616764110617
 20
299.0054891278658
 30
0.0
 70
     8
  0
VERTEX
  5
DD6
330
DD0
100
AcDbEntity
  8
STEMPEL
100
AcDbVertex
100
AcDb2dVertex
 10
287.3325186587556
 20
295.0475315204794
 30
0.0
 70
     8
  0
VERTEX
  5
DD7
330
DD0
100
AcDbEntity
  8
STEMPEL
100
AcDbVertex
100
AcDb2dVertex
 10
288.1967213016112
 20
291.1107606247096
 30
0.0
 70
     8
  0
VERTEX
  5
DD8
330
DD0
100
AcDbEntity
  8
STEMPEL
100
AcDbVertex
100
AcDb2dVertex
 10
289.3482666798661
 20
286.7118257158734
 30
0.0
 70
     8
  0
VERTEX
  5
DD9
330
DD0
100
AcDbEntity
  8
STEMPEL
100
AcDbVertex
100
AcDb2dVertex
 10
290.8811371337581
 20
281.3673760692879
 30
0.0
 70
     8
  0
VERTEX
  5
DDA
330
DD0
100
AcDbEntity
  8
STEMPEL
100
AcDbVertex
100
AcDb2dVertex
 10
292.8893150035248
 20
274.5940609602698
 30
0.0
 70
     8
  0
VERTEX
  5
DDB
330
DD0
100
AcDbEntity
  8
STEMPEL
100
AcDbVertex
100
AcDb2dVertex
 10
286.8168909383247
 20
294.991033622835
 30
0.0
 70
    16
  0
VERTEX
  5
DDC
330
DD0
100
AcDbEntity
  8
STEMPEL
100
AcDbVertex
100
AcDb2dVertex
 10
292.889315003525
 20
274.5940609602699
 30
0.0
 70
    16
  0
SEQEND
  5
DDD
330
DD0
100
AcDbEntity
  8
STEMPEL
  0
POLYLINE
  5
DDE
330
1E
100
AcDbEntity
  8
STEMPEL
100
AcDb2dPolyline
 66
     1
 10
0.0
 20
0.0
 30
0.0
  0
VERTEX
  5
DDF
330
DDE
100
AcDbEntity
  8
STEMPEL
100
AcDbVertex
100
AcDb2dVertex
 10
294.8694799587304
 20
315.8336335995892
 30
0.0
  0
VERTEX
  5
DE0
330
DDE
100
AcDbEntity
  8
STEMPEL
100
AcDbVertex
100
AcDb2dVertex
 10
294.8640241673693
 20
308.9665425568333
 30
0.0
  0
VERTEX
  5
DE1
330
DDE
100
AcDbEntity
  8
STEMPEL
100
AcDbVertex
100
AcDb2dVertex
 10
294.9314758419326
 20
303.7127964436116
 30
0.0
  0
VERTEX
  5
DE2
330
DDE
100
AcDbEntity
  8
STEMPEL
100
AcDbVertex
100
AcDb2dVertex
 10
295.1288995285442
 20
299.6340170437239
 30
0.0
  0
VERTEX
  5
DE3
330
DDE
100
AcDbEntity
  8
STEMPEL
100
AcDbVertex
100
AcDb2dVertex
 10
295.503882717397
 20
296.2029054603619
 30
0.0
  0
VERTEX
  5
DE4
330
DDE
100
AcDbEntity
  8
STEMPEL
100
AcDbVertex
100
AcDb2dVertex
 10
296.1290585745609
 20
292.7830493663076
 30
0.0
  0
VERTEX
  5
DE5
330
DDE
100
AcDbEntity
  8
STEMPEL
100
AcDbVertex
100
AcDb2dVertex
 10
297.1171405889341
 20
288.7485184908984
 30
0.0
  0
VERTEX
  5
DE6
330
DDE
100
AcDbEntity
  8
STEMPEL
100
AcDbVertex
100
AcDb2dVertex
 10
298.5711254434929
 20
283.5870368726729
 30
0.0
  0
VERTEX
  5
DE7
330
DDE
100
AcDbEntity
  8
STEMPEL
100
AcDbVertex
100
AcDb2dVertex
 10
300.5605127654607
 20
276.8640223910595
 30
0.0
  0
SEQEND
  5
DE8
330
DDE
100
AcDbEntity
  8
STEMPEL
  0
LINE
  5
DE9
330
1E
100
AcDbEntity
  8
MITTEL
100
AcDbLine
 10
303.4372119261866
 20
277.7152579276056
 30
0.0
 11
290.0126158427992
 21
273.7428254237237
 31
0.0
  0
HATCH
  5
DEA
330
1E
100
AcDbEntity
  8
SCHRAFF
100
AcDbHatch
 10
0.0
 20
0.0
 30
0.0
210
0.0
220
0.0
230
1.0
  2
HONEY
 70
     0
 71
     0
 91
        2
 92
        7
 72
     1
 73
     1
 93
       10
 10
323.3694886365723
 20
475.8399894665573
 42
0.0
 10
313.3694886365725
 20
475.8399894665572
 42
0.0
 10
301.8694886365722
 20
465.839989466557
 42
0.0
 10
301.869488636572
 20
411.839989466557
 42
0.0
 10
295.8694886365723
 20
405.8399894665572
 42
0.0
 10
295.8694886365722
 20
339.8399894665553
 42
0.0
 10
294.8694886365721
 20
338.4799894665555
 42
0.0
 10
294.8694886365722
 20
315.8399894665554
 42
0.0
 10
310.5511349724693
 20
315.8399894665553
 42
0.3960474615044482
 10
313.5452927079179
 20
318.6528546080897
 42
0.0
 97
        0
 92
        7
 72
     1
 73
     1
 93
       12
 10
200.8694886365719
 20
405.8399894665568
 42
0.0
 10
194.8694886365723
 20
411.8399894665565
 42
0.0
 10
194.8694886365721
 20
465.8399894665571
 42
0.0
 10
183.369488636572
 20
475.8399894665571
 42
0.0
 10
173.3694886365721
 20
475.8399894665571
 42
0.0
 10
183.1936845652263
 20
318.6528546080914
 42
0.3960474615044457
 10
186.1878423006749
 20
315.8399894665569
 42
0.0
 10
205.8694886365724
 20
315.8399894665567
 42
0.0
 10
205.8694886365724
 20
317.8399894665566
 42
0.0
 10
211.8694886365732
 20
317.8399894665565
 42
0.0
 10
211.8694886365733
 20
324.8799894665554
 42
0.0
 10
200.8694886365724
 20
339.839989466555
 42
0.0
 97
        0
 75
     0
 76
     1
 52
0.0
 41
30.0
 77
     0
 78
     3
 53
0.0
 43
36.79694290073019
 44
10.13779585935771
 45
5.625
 46
3.247595249999999
 79
     2
 49
3.75
 49
-7.5
 53
120.0
 43
36.79694290073019
 44
10.13779585935771
 45
-5.624999987709673
 46
3.247595271287468
 79
     2
 49
3.749999999999999
 49
-7.499999999999998
 53
60.0
 43
36.79694290073019
 44
10.13779585935771
 45
0.0000000122903263
 46
6.495190521287468
 79
     2
 49
-7.5
 49
3.75
 47
0.4996917994368088
 98
        2
 10
308.3834735122131
 20
418.633659473628
 10
190.9192414237276
 20
405.6416734049286
  0
TEXT
  5
E15
330
1E
100
AcDbEntity
  8
VOLL
100
AcDbText
 10
428.049950450509
 20
423.7918378523753
 30
0.0
 40
1.8
  1

 50
270.0
  7
GREEKS
100
AcDbText
  0
ARC
  5
E1A
330
1E
100
AcDbEntity
  8
STEMPEL
100
AcDbCircle
 10
363.8194886365718
 20
505.3912840202862
 30
0.0
 40
0.5500000000000003
100
AcDbArc
 50
109.9999999999995
 51
270.0
  0
ARC
  5
E1B
330
1E
100
AcDbEntity
  8
STEMPEL
100
AcDbCircle
 10
376.9194886365718
 20
505.3912840202862
 30
0.0
 40
0.5500000000000009
100
AcDbArc
 50
270.0
 51
70.00000000000047
  0
LINE
  5
E1C
330
1E
100
AcDbEntity
  8
STEMPEL
100
AcDbLine
 10
377.1075997154009
 20
505.9081149617185
 30
0.0
 11
376.142991328468
 21
506.2592037022856
 31
0.0
  0
LINE
  5
E1D
330
1E
100
AcDbEntity
  8
STEMPEL
100
AcDbLine
 10
364.5959859446755
 20
506.2592037022856
 30
0.0
 11
363.6313775577427
 21
505.9081149617185
 31
0.0
  0
LINE
  5
E20
330
1E
100
AcDbEntity
  8
STEMPEL
100
AcDbLine
 10
375.3694886365718
 20
511.4412840202862
 30
0.0
 11
365.3694886365718
 21
511.4412840202862
 31
0.0
  0
LINE
  5
E21
330
1E
100
AcDbEntity
  8
STEMPEL
100
AcDbLine
 10
376.1429913284681
 20
511.2340245986493
 30
0.0
 11
376.1429913284681
 21
506.2592037022856
 31
0.0
  0
LINE
  5
E22
330
1E
100
AcDbEntity
  8
STEMPEL
100
AcDbLine
 10
373.25623998252
 20
511.2340245986493
 30
0.0
 11
373.25623998252
 21
506.2592037022856
 31
0.0
  0
LINE
  5
E23
330
1E
100
AcDbEntity
  8
STEMPEL
100
AcDbLine
 10
367.4827372906237
 20
511.2340245986493
 30
0.0
 11
367.4827372906237
 21
506.2592037022856
 31
0.0
  0
LINE
  5
E24
330
1E
100
AcDbEntity
  8
STEMPEL
100
AcDbLine
 10
364.5959859446755
 20
511.2340245986493
 30
0.0
 11
364.5959859446755
 21
506.2592037022856
 31
0.0
  0
LINE
  5
E25
330
1E
100
AcDbEntity
  8
STEMPEL
100
AcDbLine
 10
376.9194886365718
 20
504.8412840202862
 30
0.0
 11
363.8194886365718
 21
504.8412840202862
 31
0.0
  0
LINE
  5
E26
330
1E
100
AcDbEntity
  8
STEMPEL
100
AcDbLine
 10
377.1075997154009
 20
505.9081149617185
 30
0.0
 11
363.6313775577427
 21
505.9081149617185
 31
0.0
  0
ARC
  5
E2E
330
1E
100
AcDbEntity
  8
STEMPEL
100
AcDbCircle
 10
374.699615655494
 20
506.3117468817631
 30
0.0
 40
5.129537138523076
100
AcDbArc
 50
73.65710669401657
 51
106.3428933059834
  0
LINE
  5
E2F
330
1E
100
AcDbEntity
  8
STEMPEL
100
AcDbLine
 10
375.3694886365718
 20
511.4412840202862
 30
0.0
 11
376.1429913284681
 21
511.2340245986493
 31
0.0
  0
LINE
  5
E30
330
1E
100
AcDbEntity
  8
STEMPEL
100
AcDbLine
 10
365.3694886365718
 20
511.4412840202862
 30
0.0
 11
364.5959859446755
 21
511.2340245986493
 31
0.0
  0
ARC
  5
E31
330
1E
100
AcDbEntity
  8
STEMPEL
100
AcDbCircle
 10
366.0393616176496
 20
506.3117468817631
 30
0.0
 40
5.129537138523076
100
AcDbArc
 50
73.65710669401657
 51
106.3428933059834
  0
ARC
  5
E32
330
1E
100
AcDbEntity
  8
STEMPEL
100
AcDbCircle
 10
370.3694886365718
 20
491.2340245986493
 30
0.0
 40
20.20725942163691
100
AcDbArc
 50
81.78678929826059
 51
98.2132107017394
  0
ARC
  5
E33
330
1E
100
AcDbEntity
  8
HILF
100
AcDbCircle
 10
374.699615655494
 20
502.6988106965815
 30
0.0
 40
3.841839622940954
100
AcDbArc
 50
67.93247218100944
 51
112.0675278189905
  0
ARC
  5
E34
330
1E
100
AcDbEntity
  8
HILF
100
AcDbCircle
 10
366.0393616176496
 20
502.6999752584698
 30
0.0
 40
3.840760399790701
100
AcDbArc
 50
67.92594526323878
 51
112.0740547367612
  0
ARC
  5
E35
330
1E
100
AcDbEntity
  8
HILF
100
AcDbCircle
 10
370.3694886365718
 20
491.5999919930601
 30
0.0
 40
14.94074366520046
100
AcDbArc
 50
78.85962783889434
 51
101.1403721611056
  0
ARC
  5
E37
330
1E
100
AcDbEntity
  8
HILF
100
AcDbCircle
 10
151.5803811210416
 20
491.5999919930601
 30
0.0
 40
14.94074366520046
100
AcDbArc
 50
100.2909006776784
 51
101.1403721611056
  0
ARC
  5
E38
330
1E
100
AcDbEntity
  8
HILF
100
AcDbCircle
 10
147.2502541021194
 20
502.6999752584698
 30
0.0
 40
3.840760399790701
100
AcDbArc
 50
67.92594526323878
 51
112.0740547367612
  0
ARC
  5
E39
330
1E
100
AcDbEntity
  8
HILF
100
AcDbCircle
 10
155.9105081399638
 20
502.6988106965815
 30
0.0
 40
3.841839622940954
100
AcDbArc
 50
67.93247218100944
 51
77.40284130776806
  0
ARC
  5
E3A
330
1E
100
AcDbEntity
  8
STEMPEL
100
AcDbCircle
 10
151.5803811210416
 20
491.2340245986493
 30
0.0
 40
20.20725942163691
100
AcDbArc
 50
94.91416948520935
 51
98.2132107017394
  0
ARC
  5
E3B
330
1E
100
AcDbEntity
  8
STEMPEL
100
AcDbCircle
 10
147.2502541021194
 20
506.3117468817631
 30
0.0
 40
5.129537138523076
100
AcDbArc
 50
73.65710669401657
 51
106.3428933059834
  0
LINE
  5
E3C
330
1E
100
AcDbEntity
  8
STEMPEL
100
AcDbLine
 10
146.5803811210416
 20
511.4412840202862
 30
0.0
 11
145.8068784291453
 21
511.2340245986493
 31
0.0
  0
LINE
  5
E3F
330
1E
100
AcDbEntity
  8
STEMPEL
100
AcDbLine
 10
158.3184921998707
 20
505.9081149617185
 30
0.0
 11
156.4567042955984
 21
505.9081149617185
 31
0.0
  0
LINE
  5
E41
330
1E
100
AcDbEntity
  8
STEMPEL
100
AcDbLine
 10
145.8068784291453
 20
511.2340245986493
 30
0.0
 11
145.8068784291453
 21
506.2592037022856
 31
0.0
  0
LINE
  5
E42
330
1E
100
AcDbEntity
  8
STEMPEL
100
AcDbLine
 10
148.6936297750935
 20
511.2340245986493
 30
0.0
 11
148.6936297750935
 21
506.2592037022856
 31
0.0
  0
LINE
  5
E44
330
1E
100
AcDbEntity
  8
STEMPEL
100
AcDbLine
 10
157.3538838129379
 20
508.2193552921008
 30
0.0
 11
157.3538838129379
 21
506.2592037022856
 31
0.0
  0
LINE
  5
E45
330
1E
100
AcDbEntity
  8
STEMPEL
100
AcDbLine
 10
149.8493601733116
 20
511.4412840202863
 30
0.0
 11
146.5803811210416
 21
511.4412840202862
 31
0.0
  0
LINE
  5
E46
330
1E
100
AcDbEntity
  8
STEMPEL
100
AcDbLine
 10
145.8068784291453
 20
506.2592037022856
 30
0.0
 11
144.8422700422125
 21
505.9081149617185
 31
0.0
  0
LINE
  5
E47
330
1E
100
AcDbEntity
  8
STEMPEL
100
AcDbLine
 10
158.3184921998707
 20
505.9081149617185
 30
0.0
 11
157.3538838129379
 21
506.2592037022856
 31
0.0
  0
ARC
  5
E48
330
1E
100
AcDbEntity
  8
STEMPEL
100
AcDbCircle
 10
158.1303811210417
 20
505.3912840202862
 30
0.0
 40
0.5500000000000009
100
AcDbArc
 50
270.0
 51
70.00000000000047
  0
ARC
  5
E49
330
1E
100
AcDbEntity
  8
STEMPEL
100
AcDbCircle
 10
145.0303811210416
 20
505.3912840202862
 30
0.0
 40
0.5500000000000003
100
AcDbArc
 50
109.9999999999995
 51
270.0
  0
LINE
  5
E4A
330
1E
100
AcDbEntity
  8
STEMPEL
100
AcDbLine
 10
148.6503496300309
 20
505.9081149617185
 30
0.0
 11
144.8422700422125
 21
505.9081149617185
 31
0.0
  0
HATCH
  5
E78
330
1E
100
AcDbEntity
  8
SCHRAFF
100
AcDbHatch
 10
0.0
 20
0.0
 30
0.0
210
0.0
220
0.0
230
1.0
  2
NET
 70
     0
 71
     1
 91
        5
 92
        7
 72
     0
 73
     1
 93
        5
 10
370.8694886365719
 20
480.8412840202845
 10
345.6888949900536
 20
480.8412840202844
 10
347.6957949038427
 20
477.8412840202845
 10
364.6519742152999
 20
477.8412840202845
 10
370.8694886365718
 20
477.8412840202845
 97
        5
330
9B6
330
679
330
AE3
330
984
330
A0C
 92
        7
 72
     0
 73
     1
 93
        4
 10
345.6888949900535
 20
480.8412840202845
 10
319.7694886365718
 20
480.8412840202846
 10
319.7694886365718
 20
477.8412840202846
 10
347.6957949038428
 20
477.8412840202845
 97
        4
330
9B6
330
9F0
330
AE3
330
679
 92
        7
 72
     0
 73
     1
 93
        4
 10
319.7694886365719
 20
480.8412840202846
 10
310.8694886365718
 20
480.8412840202845
 10
310.8694886365719
 20
477.8412840202845
 10
319.7694886365718
 20
477.8412840202845
 97
        4
330
9B6
330
9F3
330
AE3
330
9F0
 92
        7
 72
     0
 73
     1
 93
        4
 10
185.8694886365718
 20
480.8412840202846
 10
164.8694886365718
 20
480.8412840202847
 10
164.8694886365718
 20
477.8412840202847
 10
185.8694886365718
 20
477.8412840202848
 97
        4
330
9B6
330
9C5
330
AE3
330
9C7
 92
        7
 72
     0
 73
     1
 93
        4
 10
151.8694886365718
 20
480.8412840202847
 10
125.8694886365717
 20
480.8412840202846
 10
125.8694886365718
 20
477.8412840202845
 10
151.8694886365717
 20
477.8412840202845
 97
        4
330
998
330
99B
330
984
330
99D
 75
     0
 76
     1
 52
45.0
 41
15.0
 77
     0
 78
     2
 53
45.0
 43
0.0
 44
0.0
 45
-1.325825214724776
 46
1.325825214724776
 79
     0
 53
135.0
 43
0.0
 44
0.0
 45
-1.325825214724776
 46
-1.325825214724776
 79
     0
 47
0.2766205255491156
 98
        5
 10
358.232841797395
 20
479.8390912022625
 10
334.4354041071374
 20
479.8390912022625
 10
318.3859698723072
 20
479.8390912022625
 10
180.5822053363699
 20
478.4559874504346
 10
146.5463360028525
 20
478.7326085919914
  0
ENDSEC
  0
SECTION
  2
OBJECTS
  0
DICTIONARY
  5
C
330
0
100
AcDbDictionary
281
     1
  3
ACAD_COLOR
350
11A
  3
ACAD_GROUP
350
D
  3
ACAD_LAYOUT
350
19
  3
ACAD_MATERIAL
350
119
  3
ACAD_MLINESTYLE
350
16
  3
ACAD_PLOTSETTINGS
350
18
  3
ACAD_PLOTSTYLENAME
350
E
  3
AcDbVariableDictionary
350
125
  0
DICTIONARY
  5
DB
330
1E
100
AcDbDictionary
280
     1
281
     1
  3
ACAD_LAYOUTSELFREF
360
10F
  0
DICTIONARY
  5
DD
330
1A
100
AcDbDictionary
280
     1
281
     1
  3
ACAD_LAYOUTSELFREF
360
10E
  0
DICTIONARY
  5
11A
102
{ACAD_REACTORS
330
C
102
}
330
C
100
AcDbDictionary
281
     1
  0
DICTIONARY
  5
D
102
{ACAD_REACTORS
330
C
102
}
330
C
100
AcDbDictionary
281
     1
  0
DICTIONARY
  5
19
102
{ACAD_REACTORS
330
C
102
}
330
C
100
AcDbDictionary
281
     1
  3
Layout1
350
1D
  3
Model
350
21
  0
DICTIONARY
  5
119
102
{ACAD_REACTORS
330
C
102
}
330
C
100
AcDbDictionary
281
     1
  0
DICTIONARY
  5
16
102
{ACAD_REACTORS
330
C
102
}
330
C
100
AcDbDictionary
281
     1
  3
Standard
350
17
  0
DICTIONARY
  5
18
102
{ACAD_REACTORS
330
C
102
}
330
C
100
AcDbDictionary
281
     1
  0
ACDBDICTIONARYWDFLT
  5
E
102
{ACAD_REACTORS
330
C
102
}
330
C
100
AcDbDictionary
281
     1
  3
Normal
350
F
100
AcDbDictionaryWithDefault
340
F
  0
DICTIONARY
  5
125
102
{ACAD_REACTORS
330
C
102
}
330
C
100
AcDbDictionary
281
     1
  3
DIMASSOC
350
126
  3
PROJECTNAME
350
127
  0
XRECORD
  5
10F
102
{ACAD_REACTORS
330
DB
102
}
330
DB
100
AcDbXrecord
280
     1
340
1E
  0
XRECORD
  5
10E
102
{ACAD_REACTORS
330
DD
102
}
330
DD
100
AcDbXrecord
280
     1
340
1A
  0
LAYOUT
  5
1D
102
{ACAD_REACTORS
330
19
102
}
330
19
100
AcDbPlotSettings
  1

  2
\\NT_WORK01\HP LaserJet 5000 PCL 6
  4

  6

 40
0.0
 41
0.0
 42
0.0
 43
0.0
 44
0.0
 45
0.0
 46
0.0
 47
0.0
 48
0.0
 49
0.0
140
0.0
141
0.0
142
1.0
143
1.0
 70
   688
 72
     0
 73
     0
 74
     5
  7

 75
    16
147
1.0
 76
     0
 77
     2
 78
   300
148
0.0
149
0.0
100
AcDbLayout
  1
Layout1
 70
     0
 71
     1
 10
0.0
 20
0.0
 11
12.0
 21
9.0
 12
0.0
 22
0.0
 32
0.0
 14
1.000000000000000E+20
 24
1.000000000000000E+20
 34
1.000000000000000E+20
 15
-1.000000000000000E+20
 25
-1.000000000000000E+20
 35
-1.000000000000000E+20
146
0.0
 13
0.0
 23
0.0
 33
0.0
 16
1.0
 26
0.0
 36
0.0
 17
0.0
 27
1.0
 37
0.0
 76
     0
330
1A
  0
LAYOUT
  5
21
102
{ACAD_REACTORS
330
19
102
}
330
19
100
AcDbPlotSettings
  1

  2
none_device
  4
Letter_(8.50_x_11.00_Inches)
  6

 40
6.349999904632568
 41
6.349999904632568
 42
6.350006103515625
 43
6.350006103515625
 44
215.8999938964844
 45
279.3999938964844
 46
0.0
 47
0.0
 48
0.0
 49
0.0
140
0.0
141
0.0
142
1.0
143
1.0
 70
 11952
 72
     0
 73
     1
 74
     0
  7

 75
     0
147
1.0
 76
     0
 77
     2
 78
   300
148
3124.2
149
0.0
100
AcDbLayout
  1
Model
 70
     1
 71
     0
 10
0.0
 20
0.0
 11
12.0
 21
9.0
 12
0.0
 22
0.0
 32
0.0
 14
0.0
 24
0.0
 34
0.0
 15
0.0
 25
0.0
 35
0.0
146
0.0
 13
0.0
 23
0.0
 33
0.0
 16
1.0
 26
0.0
 36
0.0
 17
0.0
 27
1.0
 37
0.0
 76
     0
330
1E
  0
MLINESTYLE
  5
17
102
{ACAD_REACTORS
330
16
102
}
330
16
100
AcDbMlineStyle
  2
STANDARD
 70
     0
  3

 62
   256
 51
90.0
 52
90.0
 71
     2
 49
0.5
 62
   256
  6
BYLAYER
 49
-0.5
 62
   256
  6
BYLAYER
  0
ACDBPLACEHOLDER
  5
F
102
{ACAD_REACTORS
330
E
102
}
330
E
  0
DICTIONARYVAR
  5
126
102
{ACAD_REACTORS
330
125
102
}
330
125
100
DictionaryVariables
280
     0
  1
1
  0
DICTIONARYVAR
  5
127
102
{ACAD_REACTORS
330
125
102
}
330
125
100
DictionaryVariables
280
     0
  1

  0
ENDSEC
  0
EOF
