  0
SECTION
  2
HEADER
  9
$ACADVER
  1
AC1018
  9
$ACADMAINTVER
 70
     2
  9
$DWGCODEPAGE
  3
ANSI_1252
  9
$INSBASE
 10
0.0
 20
0.0
 30
0.0
  9
$EXTMIN
 10
-0.0768864487167775
 20
-0.0543697030209387
 30
-0.0000000000000053
  9
$EXTMAX
 10
1050.003214859028
 20
742.5022733645992
 30
0.0000000000000099
  9
$LIMMIN
 10
0.0
 20
0.0
  9
$LIMMAX
 10
1050.0
 20
742.4999999999999
  9
$ORTHOMODE
 70
     1
  9
$REGENMODE
 70
     1
  9
$FILLMODE
 70
     1
  9
$QTEXTMODE
 70
     0
  9
$MIRRTEXT
 70
     1
  9
$LTSCALE
 40
25.0
  9
$ATTMODE
 70
     1
  9
$TEXTSIZE
 40
3.5
  9
$TRACEWID
 40
1.0
  9
$TEXTSTYLE
  7
STANDARD
  9
$CLAYER
  8
BEM
  9
$CELTYPE
  6
ByLayer
  9
$CECOLOR
 62
   256
  9
$CELTSCALE
 40
1.0
  9
$DISPSILH
 70
     0
  9
$DIMSCALE
 40
2.5
  9
$DIMASZ
 40
3.5
  9
$DIMEXO
 40
1.0
  9
$DIMDLI
 40
7.0
  9
$DIMRND
 40
0.0
  9
$DIMDLE
 40
0.0
  9
$DIMEXE
 40
1.0
  9
$DIMTP
 40
0.0
  9
$DIMTM
 40
0.0
  9
$DIMTXT
 40
3.5
  9
$DIMCEN
 40
1.5
  9
$DIMTSZ
 40
0.0
  9
$DIMTOL
 70
     0
  9
$DIMLIM
 70
     0
  9
$DIMTIH
 70
     0
  9
$DIMTOH
 70
     0
  9
$DIMSE1
 70
     0
  9
$DIMSE2
 70
     0
  9
$DIMTAD
 70
     1
  9
$DIMZIN
 70
     8
  9
$DIMBLK
  1

  9
$DIMASO
 70
     1
  9
$DIMSHO
 70
     0
  9
$DIMPOST
  1

  9
$DIMAPOST
  1

  9
$DIMALT
 70
     0
  9
$DIMALTD
 70
     2
  9
$DIMALTF
 40
25.4
  9
$DIMLFAC
 40
1.0
  9
$DIMTOFL
 70
     1
  9
$DIMTVP
 40
0.0
  9
$DIMTIX
 70
     0
  9
$DIMSOXD
 70
     0
  9
$DIMSAH
 70
     0
  9
$DIMBLK1
  1

  9
$DIMBLK2
  1

  9
$DIMSTYLE
  2
Standard
  9
$DIMCLRD
 70
     0
  9
$DIMCLRE
 70
     0
  9
$DIMCLRT
 70
     1
  9
$DIMTFAC
 40
0.5142857142857144
  9
$DIMGAP
 40
1.5
  9
$DIMJUST
 70
     0
  9
$DIMSD1
 70
     0
  9
$DIMSD2
 70
     0
  9
$DIMTOLJ
 70
     1
  9
$DIMTZIN
 70
     8
  9
$DIMALTZ
 70
     8
  9
$DIMALTTZ
 70
     8
  9
$DIMUPT
 70
     0
  9
$DIMDEC
 70
     2
  9
$DIMTDEC
 70
     2
  9
$DIMALTU
 70
     2
  9
$DIMALTTD
 70
     2
  9
$DIMTXSTY
  7
STANDARD
  9
$DIMAUNIT
 70
     0
  9
$DIMADEC
 70
     2
  9
$DIMALTRND
 40
0.0
  9
$DIMAZIN
 70
     2
  9
$DIMDSEP
 70
    46
  9
$DIMATFIT
 70
     3
  9
$DIMFRAC
 70
     0
  9
$DIMLDRBLK
  1

  9
$DIMLUNIT
 70
     2
  9
$DIMLWD
 70
    -2
  9
$DIMLWE
 70
    -2
  9
$DIMTMOVE
 70
     0
  9
$LUNITS
 70
     2
  9
$LUPREC
 70
     2
  9
$SKETCHINC
 40
1.0
  9
$FILLETRAD
 40
0.0
  9
$AUNITS
 70
     0
  9
$AUPREC
 70
     0
  9
$MENU
  1
ACAD
  9
$ELEVATION
 40
0.0
  9
$PELEVATION
 40
0.0
  9
$THICKNESS
 40
0.0
  9
$LIMCHECK
 70
     0
  9
$CHAMFERA
 40
0.0
  9
$CHAMFERB
 40
0.0
  9
$CHAMFERC
 40
0.0
  9
$CHAMFERD
 40
0.0
  9
$SKPOLY
 70
     0
  9
$TDCREATE
 40
2455397.825393172
  9
$TDUCREATE
 40
2455397.783726505
  9
$TDUPDATE
 40
2455502.370319248
  9
$TDUUPDATE
 40
2455502.328652581
  9
$TDINDWG
 40
0.0951235880
  9
$TDUSRTIMER
 40
0.0951235880
  9
$USRTIMER
 70
     1
  9
$ANGBASE
 50
0.0
  9
$ANGDIR
 70
     0
  9
$PDMODE
 70
     0
  9
$PDSIZE
 40
0.0
  9
$PLINEWID
 40
0.0
  9
$SPLFRAME
 70
     0
  9
$SPLINETYPE
 70
     6
  9
$SPLINESEGS
 70
     8
  9
$HANDSEED
  5
A30
  9
$SURFTAB1
 70
     6
  9
$SURFTAB2
 70
     6
  9
$SURFTYPE
 70
     6
  9
$SURFU
 70
     6
  9
$SURFV
 70
     6
  9
$UCSBASE
  2

  9
$UCSNAME
  2

  9
$UCSORG
 10
0.0
 20
0.0
 30
0.0
  9
$UCSXDIR
 10
1.0
 20
0.0
 30
0.0
  9
$UCSYDIR
 10
0.0
 20
1.0
 30
0.0
  9
$UCSORTHOREF
  2

  9
$UCSORTHOVIEW
 70
     0
  9
$UCSORGTOP
 10
0.0
 20
0.0
 30
0.0
  9
$UCSORGBOTTOM
 10
0.0
 20
0.0
 30
0.0
  9
$UCSORGLEFT
 10
0.0
 20
0.0
 30
0.0
  9
$UCSORGRIGHT
 10
0.0
 20
0.0
 30
0.0
  9
$UCSORGFRONT
 10
0.0
 20
0.0
 30
0.0
  9
$UCSORGBACK
 10
0.0
 20
0.0
 30
0.0
  9
$PUCSBASE
  2

  9
$PUCSNAME
  2

  9
$PUCSORG
 10
0.0
 20
0.0
 30
0.0
  9
$PUCSXDIR
 10
1.0
 20
0.0
 30
0.0
  9
$PUCSYDIR
 10
0.0
 20
1.0
 30
0.0
  9
$PUCSORTHOREF
  2

  9
$PUCSORTHOVIEW
 70
     0
  9
$PUCSORGTOP
 10
0.0
 20
0.0
 30
0.0
  9
$PUCSORGBOTTOM
 10
0.0
 20
0.0
 30
0.0
  9
$PUCSORGLEFT
 10
0.0
 20
0.0
 30
0.0
  9
$PUCSORGRIGHT
 10
0.0
 20
0.0
 30
0.0
  9
$PUCSORGFRONT
 10
0.0
 20
0.0
 30
0.0
  9
$PUCSORGBACK
 10
0.0
 20
0.0
 30
0.0
  9
$USERI1
 70
     0
  9
$USERI2
 70
     0
  9
$USERI3
 70
     0
  9
$USERI4
 70
     0
  9
$USERI5
 70
     0
  9
$USERR1
 40
0.0
  9
$USERR2
 40
0.0
  9
$USERR3
 40
0.0
  9
$USERR4
 40
0.0
  9
$USERR5
 40
0.0
  9
$WORLDVIEW
 70
     1
  9
$SHADEDGE
 70
     3
  9
$SHADEDIF
 70
    70
  9
$TILEMODE
 70
     1
  9
$MAXACTVP
 70
    16
  9
$PINSBASE
 10
0.0
 20
0.0
 30
0.0
  9
$PLIMCHECK
 70
     0
  9
$PEXTMIN
 10
1.000000000000000E+20
 20
1.000000000000000E+20
 30
1.000000000000000E+20
  9
$PEXTMAX
 10
-1.000000000000000E+20
 20
-1.000000000000000E+20
 30
-1.000000000000000E+20
  9
$PLIMMIN
 10
0.0
 20
0.0
  9
$PLIMMAX
 10
12.0
 20
9.0
  9
$UNITMODE
 70
     0
  9
$VISRETAIN
 70
     0
  9
$PLINEGEN
 70
     0
  9
$PSLTSCALE
 70
     0
  9
$TREEDEPTH
 70
  3020
  9
$CMLSTYLE
  2
Standard
  9
$CMLJUST
 70
     0
  9
$CMLSCALE
 40
1.0
  9
$PROXYGRAPHICS
 70
     1
  9
$MEASUREMENT
 70
     0
  9
$CELWEIGHT
370
    -1
  9
$ENDCAPS
280
     0
  9
$JOINSTYLE
280
     0
  9
$LWDISPLAY
290
     0
  9
$INSUNITS
 70
     0
  9
$HYPERLINKBASE
  1

  9
$STYLESHEET
  1
monochrome 1.ctb
  9
$XEDIT
290
     1
  9
$CEPSNTYPE
380
     0
  9
$PSTYLEMODE
290
     1
  9
$FINGERPRINTGUID
  2
{D68B0D0D-A558-11D7-B632-000102183313}
  9
$VERSIONGUID
  2
{97AA75C3-F495-402F-B1DB-E3D2B4E74D15}
  9
$EXTNAMES
290
     1
  9
$PSVPSCALE
 40
0.0
  9
$OLESTARTUP
290
     0
  9
$SORTENTS
280
   127
  9
$INDEXCTL
280
     0
  9
$HIDETEXT
280
     0
  9
$XCLIPFRAME
290
     0
  9
$HALOGAP
280
     0
  9
$OBSCOLOR
 70
   257
  9
$OBSLTYPE
280
     0
  9
$INTERSECTIONDISPLAY
280
     0
  9
$INTERSECTIONCOLOR
 70
   257
  9
$DIMASSOC
280
     1
  9
$PROJECTNAME
  1

  0
ENDSEC
  0
SECTION
  2
CLASSES
  0
CLASS
  1
ACDBDICTIONARYWDFLT
  2
AcDbDictionaryWithDefault
  3
ObjectDBX Classes
 90
        0
 91
        1
280
     0
281
     0
  0
CLASS
  1
DICTIONARYVAR
  2
AcDbDictionaryVar
  3
ObjectDBX Classes
 90
        0
 91
        2
280
     0
281
     0
  0
ENDSEC
  0
SECTION
  2
TABLES
  0
TABLE
  2
VPORT
  5
8
330
0
100
AcDbSymbolTable
 70
     2
  0
VPORT
  5
A2F
330
8
100
AcDbSymbolTableRecord
100
AcDbViewportTableRecord
  2
*Active
 70
     0
 10
0.0
 20
0.0
 11
1.0
 21
1.0
 12
524.9631642051556
 22
371.2239518307891
 13
0.0
 23
0.0
 14
1.0
 24
1.0
 15
10.0
 25
10.0
 16
0.0
 26
0.0
 36
1.0
 17
0.0
 27
0.0
 37
0.0
 40
790.1872482878994
 41
1.336927223719676
 42
50.0
 43
0.0
 44
0.0
 50
0.0
 51
0.0
 71
     0
 72
  1500
 73
     1
 74
     0
 75
     0
 76
     0
 77
     0
 78
     0
281
     0
 65
     1
110
0.0
120
0.0
130
0.0
111
1.0
121
0.0
131
0.0
112
0.0
122
1.0
132
0.0
 79
     0
146
0.0
  0
ENDTAB
  0
TABLE
  2
LTYPE
  5
5
330
0
100
AcDbSymbolTable
 70
     3
  0
LTYPE
  5
13
330
5
100
AcDbSymbolTableRecord
100
AcDbLinetypeTableRecord
  2
ByBlock
 70
     0
  3

 72
    65
 73
     0
 40
0.0
  0
LTYPE
  5
14
330
5
100
AcDbSymbolTableRecord
100
AcDbLinetypeTableRecord
  2
ByLayer
 70
     0
  3

 72
    65
 73
     0
 40
0.0
  0
LTYPE
  5
15
330
5
100
AcDbSymbolTableRecord
100
AcDbLinetypeTableRecord
  2
Continuous
 70
     0
  3
Solid line
 72
    65
 73
     0
 40
0.0
  0
LTYPE
  5
25
330
5
100
AcDbSymbolTableRecord
100
AcDbLinetypeTableRecord
  2
STRICHPUNKT
 70
     0
  3
__ . __ . __ . __ . __ . __ . __ . __ . __ . __
 72
    65
 73
     4
 40
1.0
 49
0.5
 74
     0
 49
-0.25
 74
     0
 49
0.0
 74
     0
 49
-0.25
 74
     0
  0
LTYPE
  5
34
330
5
100
AcDbSymbolTableRecord
100
AcDbLinetypeTableRecord
  2
AUSGEZOGEN
 70
     0
  3
Ausgezogene Linie
 72
    65
 73
     0
 40
0.0
  0
ENDTAB
  0
TABLE
  2
LAYER
  5
2
330
0
100
AcDbSymbolTable
 70
     9
  0
LAYER
  5
10
330
2
100
AcDbSymbolTableRecord
100
AcDbLayerTableRecord
  2
0
 70
     0
 62
     7
  6
Continuous
370
    -3
390
F
  0
LAYER
  5
2B
330
2
100
AcDbSymbolTableRecord
100
AcDbLayerTableRecord
  2
VOLL
 70
     0
 62
     1
  6
Continuous
370
    -3
390
F
  0
LAYER
  5
2C
330
2
100
AcDbSymbolTableRecord
100
AcDbLayerTableRecord
  2
HILF
 70
     0
 62
     2
  6
Continuous
370
    -3
390
F
  0
LAYER
  5
2D
330
2
100
AcDbSymbolTableRecord
100
AcDbLayerTableRecord
  2
MITTEL
 70
     0
 62
     2
  6
STRICHPUNKT
370
    -3
390
F
  0
LAYER
  5
2F
330
2
100
AcDbSymbolTableRecord
100
AcDbLayerTableRecord
  2
BEM
 70
     0
 62
     7
  6
Continuous
370
    -3
390
F
  0
LAYER
  5
30
330
2
100
AcDbSymbolTableRecord
100
AcDbLayerTableRecord
  2
STEMPEL
 70
     0
 62
     3
  6
Continuous
370
    -3
390
F
  0
LAYER
  5
33
330
2
100
AcDbSymbolTableRecord
100
AcDbLayerTableRecord
  2
TEXT
 70
     0
 62
     7
  6
Continuous
370
    -3
390
F
  0
LAYER
  5
18D
330
2
100
AcDbSymbolTableRecord
100
AcDbLayerTableRecord
  2
SCHRAFF
 70
     0
 62
     7
  6
AUSGEZOGEN
370
    -3
390
F
  0
LAYER
  5
24A
330
2
100
AcDbSymbolTableRecord
100
AcDbLayerTableRecord
  2
Defpoints
 70
     0
 62
     7
  6
Continuous
290
     0
370
    -3
390
F
  0
ENDTAB
  0
TABLE
  2
STYLE
  5
3
330
0
100
AcDbSymbolTable
 70
     2
  0
STYLE
  5
11
330
3
100
AcDbSymbolTableRecord
100
AcDbTextStyleTableRecord
  2
STANDARD
 70
     0
 40
0.0
 41
0.8
 50
0.0
 71
     0
 42
3.5
  3
simplex.shx
  4

  0
STYLE
  5
24
330
3
100
AcDbSymbolTableRecord
100
AcDbTextStyleTableRecord
  2
GREEKS
 70
     0
 40
0.0
 41
0.8
 50
0.0
 71
     0
 42
2.5
  3
SIMPLEX.shx
  4

  0
ENDTAB
  0
TABLE
  2
VIEW
  5
6
330
0
100
AcDbSymbolTable
 70
     0
  0
ENDTAB
  0
TABLE
  2
UCS
  5
7
330
0
100
AcDbSymbolTable
 70
     0
  0
ENDTAB
  0
TABLE
  2
APPID
  5
9
330
0
100
AcDbSymbolTable
 70
     1
  0
APPID
  5
12
330
9
100
AcDbSymbolTableRecord
100
AcDbRegAppTableRecord
  2
ACAD
 70
     0
  0
ENDTAB
  0
TABLE
  2
DIMSTYLE
  5
A
330
0
100
AcDbSymbolTable
 70
     1
100
AcDbDimStyleTable
 71
     1
340
A2
  0
DIMSTYLE
105
A2
102
{ACAD_REACTORS
330
7DE
330
7F4
330
801
330
80E
330
844
330
85C
330
869
102
}
330
A
100
AcDbSymbolTableRecord
100
AcDbDimStyleTableRecord
  2
Standard
 70
     0
340
11
  0
ENDTAB
  0
TABLE
  2
BLOCK_RECORD
  5
1
330
0
100
AcDbSymbolTable
 70
     9
  0
BLOCK_RECORD
  5
1E
102
{ACAD_XDICTIONARY
360
DB
102
}
330
1
100
AcDbSymbolTableRecord
100
AcDbBlockTableRecord
  2
*Model_Space
340
21
  0
BLOCK_RECORD
  5
1A
102
{ACAD_XDICTIONARY
360
DD
102
}
330
1
100
AcDbSymbolTableRecord
100
AcDbBlockTableRecord
  2
*Paper_Space
340
1D
  0
BLOCK_RECORD
  5
22
330
1
100
AcDbSymbolTableRecord
100
AcDbBlockTableRecord
  2
LOGO
340
0
102
{BLKREFS
331
56
102
}
  0
BLOCK_RECORD
  5
23
330
1
100
AcDbSymbolTableRecord
100
AcDbBlockTableRecord
  2
LORO
340
0
102
{BLKREFS
331
9B
102
}
  0
BLOCK_RECORD
  5
7DF
330
1
100
AcDbSymbolTableRecord
100
AcDbBlockTableRecord
  2
*D2
340
0
  0
BLOCK_RECORD
  5
7F5
330
1
100
AcDbSymbolTableRecord
100
AcDbBlockTableRecord
  2
*D3
340
0
  0
BLOCK_RECORD
  5
802
330
1
100
AcDbSymbolTableRecord
100
AcDbBlockTableRecord
  2
*D4
340
0
  0
BLOCK_RECORD
  5
80F
330
1
100
AcDbSymbolTableRecord
100
AcDbBlockTableRecord
  2
*D5
340
0
  0
BLOCK_RECORD
  5
845
330
1
100
AcDbSymbolTableRecord
100
AcDbBlockTableRecord
  2
*D6
340
0
  0
BLOCK_RECORD
  5
85D
330
1
100
AcDbSymbolTableRecord
100
AcDbBlockTableRecord
  2
*D7
340
0
  0
BLOCK_RECORD
  5
86A
330
1
100
AcDbSymbolTableRecord
100
AcDbBlockTableRecord
  2
*D8
340
0
  0
ENDTAB
  0
ENDSEC
  0
SECTION
  2
BLOCKS
  0
BLOCK
  5
37
330
1E
100
AcDbEntity
  8
0
100
AcDbBlockBegin
  2
*Model_Space
 70
     0
 10
0.0
 20
0.0
 30
0.0
  3
*Model_Space
  1

  0
ENDBLK
  5
38
330
1E
100
AcDbEntity
  8
0
100
AcDbBlockEnd
  0
BLOCK
  5
35
330
1A
100
AcDbEntity
 67
     1
  8
0
100
AcDbBlockBegin
  2
*Paper_Space
 70
     0
 10
0.0
 20
0.0
 30
0.0
  3
*Paper_Space
  1

  0
ENDBLK
  5
36
330
1A
100
AcDbEntity
 67
     1
  8
0
100
AcDbBlockEnd
  0
BLOCK
  5
39
330
22
100
AcDbEntity
  8
0
100
AcDbBlockBegin
  2
LOGO
 70
     0
 10
0.0
 20
0.0
 30
0.0
  3
LOGO
  1

  0
ARC
  5
3A
330
22
100
AcDbEntity
  8
0
100
AcDbCircle
 10
11.59973089678112
 20
-9.271599258481501
 30
0.0
 40
4.5
100
AcDbArc
 50
270.0
 51
231.0575587310159
  0
LINE
  5
3B
330
22
100
AcDbEntity
  8
0
100
AcDbLine
 10
3.599730896781125
 20
-4.771599258481529
 30
0.0
 11
3.599730896781153
 21
-11.77159925848133
 31
0.0
  0
LINE
  5
3C
330
22
100
AcDbEntity
  8
0
100
AcDbLine
 10
2.599730896781125
 20
-4.771599258481529
 30
0.0
 11
2.599730896781153
 21
-11.77159925848133
 31
0.0
  0
CIRCLE
  5
3D
330
22
100
AcDbEntity
  8
0
100
AcDbCircle
 10
11.59973089678112
 20
-9.271599258481501
 30
0.0
 40
3.5
  0
ARC
  5
3E
330
22
100
AcDbEntity
  8
0
100
AcDbCircle
 10
31.59973089678115
 20
-9.271599258481472
 30
0.0
 40
4.5
100
AcDbArc
 50
270.0
 51
231.0575587310182
  0
LINE
  5
3F
330
22
100
AcDbEntity
  8
0
100
AcDbLine
 10
17.59973089678112
 20
-4.771599258481472
 30
0.0
 11
17.59973089678115
 21
-13.77159925848147
 31
0.0
  0
ARC
  5
40
330
22
100
AcDbEntity
  8
0
100
AcDbCircle
 10
22.59973089678116
 20
-7.271599258481472
 30
0.0
 40
2.5
100
AcDbArc
 50
293.1161887722295
 51
90.0
  0
CIRCLE
  5
41
330
22
100
AcDbEntity
  8
0
100
AcDbCircle
 10
31.59973089678115
 20
-9.271599258481472
 30
0.0
 40
3.5
  0
ARC
  5
42
330
22
100
AcDbEntity
  8
0
100
AcDbCircle
 10
4.599730896781153
 20
-11.77159925848133
 30
0.0
 40
1.0
100
AcDbArc
 50
180.0
 51
270.0
  0
ARC
  5
43
330
22
100
AcDbEntity
  8
0
100
AcDbCircle
 10
4.599730896781153
 20
-11.77159925848133
 30
0.0
 40
2.0
100
AcDbArc
 50
179.9999999999992
 51
270.0
  0
LINE
  5
44
330
22
100
AcDbEntity
  8
0
100
AcDbLine
 10
11.59973089678115
 20
-13.77159925848144
 30
0.0
 11
4.599730896781153
 21
-13.77159925848147
 31
0.0
  0
LINE
  5
45
330
22
100
AcDbEntity
  8
0
100
AcDbLine
 10
8.771303772034769
 20
-12.77159925848136
 30
0.0
 11
4.599730896781153
 21
-12.77159925848133
 31
0.0
  0
LINE
  5
46
330
22
100
AcDbEntity
  8
0
100
AcDbLine
 10
31.59973089678115
 20
-13.77159925848147
 30
0.0
 11
23.6715276665056
 21
-13.77159925848144
 31
0.0
  0
LINE
  5
47
330
22
100
AcDbEntity
  8
0
100
AcDbLine
 10
23.56565672307022
 20
-9.51278021337896
 30
0.0
 11
24.4388546544846
 21
-12.77159925848144
 31
0.0
  0
LINE
  5
48
330
22
100
AcDbEntity
  8
0
100
AcDbLine
 10
22.59973089678116
 20
-9.771599258481472
 30
0.0
 11
18.59973089678112
 21
-9.771599258481472
 31
0.0
  0
LINE
  5
49
330
22
100
AcDbEntity
  8
0
100
AcDbLine
 10
18.59973089678115
 20
-13.77159925848144
 30
0.0
 11
17.59973089678115
 21
-13.77159925848144
 31
0.0
  0
LINE
  5
4A
330
22
100
AcDbEntity
  8
0
100
AcDbLine
 10
18.59973089678115
 20
-9.771599258481472
 30
0.0
 11
18.59973089678115
 21
-13.77159925848144
 31
0.0
  0
LINE
  5
4B
330
22
100
AcDbEntity
  8
0
100
AcDbLine
 10
22.59973089678116
 20
-9.771599258481472
 30
0.0
 11
23.67152766650562
 21
-13.77159925848147
 31
0.0
  0
ARC
  5
4C
330
22
100
AcDbEntity
  8
0
100
AcDbCircle
 10
22.59973089678116
 20
-7.271599258481472
 30
0.0
 40
2.5
100
AcDbArc
 50
270.0
 51
270.0000000000007
  0
LINE
  5
4D
330
22
100
AcDbEntity
  8
0
100
AcDbLine
 10
28.77130377203494
 20
-12.77159925848147
 30
0.0
 11
24.43885465448463
 21
-12.77159925848144
 31
0.0
  0
LINE
  5
4E
330
22
100
AcDbEntity
  8
0
100
AcDbLine
 10
3.599730896781125
 20
-4.771599258481472
 30
0.0
 11
2.599730896781125
 21
-4.771599258481472
 31
0.0
  0
LINE
  5
4F
330
22
100
AcDbEntity
  8
0
100
AcDbLine
 10
22.59973089678116
 20
-8.771599258481472
 30
0.0
 11
18.59973089678115
 21
-8.771599258481472
 31
0.0
  0
LINE
  5
50
330
22
100
AcDbEntity
  8
0
100
AcDbLine
 10
22.59973089678116
 20
-5.771599258481472
 30
0.0
 11
18.59973089678115
 21
-5.771599258481472
 31
0.0
  0
LINE
  5
51
330
22
100
AcDbEntity
  8
0
100
AcDbLine
 10
22.59973089678116
 20
-4.771599258481472
 30
0.0
 11
17.59973089678115
 21
-4.771599258481472
 31
0.0
  0
LINE
  5
52
330
22
100
AcDbEntity
  8
0
100
AcDbLine
 10
18.59973089678115
 20
-5.771599258481472
 30
0.0
 11
18.59973089678115
 21
-8.771599258481472
 31
0.0
  0
ARC
  5
53
330
22
100
AcDbEntity
  8
0
100
AcDbCircle
 10
22.59973089678116
 20
-7.271599258481472
 30
0.0
 40
1.5
100
AcDbArc
 50
270.0
 51
90.0
  0
ENDBLK
  5
54
330
22
100
AcDbEntity
  8
0
100
AcDbBlockEnd
  0
BLOCK
  5
55
330
23
100
AcDbEntity
  8
0
100
AcDbBlockBegin
  2
LORO
 70
     0
 10
0.0
 20
0.0
 30
0.0
  3
LORO
  1

  0
INSERT
  5
56
330
23
100
AcDbEntity
  8
STEMPEL
100
AcDbBlockReference
  2
LOGO
 10
-1.748032802467321
 20
3.771489518552062
 30
0.0
  0
ENDBLK
  5
57
330
23
100
AcDbEntity
  8
0
100
AcDbBlockEnd
  0
BLOCK
  5
7E9
330
7DF
100
AcDbEntity
  8
0
100
AcDbBlockBegin
  2
*D2
 70
     1
 10
0.0
 20
0.0
 30
0.0
  3
*D2
  1

  0
LINE
  5
89F
330
7DF
100
AcDbEntity
  8
BEM
 62
     0
370
    -2
100
AcDbLine
 10
601.3075842276175
 20
216.1307212052596
 30
0.0
 11
601.3075842276175
 21
180.9421198261941
 31
0.0
  0
LINE
  5
8A0
330
7DF
100
AcDbEntity
  8
BEM
 62
     0
370
    -2
100
AcDbLine
 10
468.3075842276176
 20
216.1307212052475
 30
0.0
 11
468.3075842276176
 21
180.9421198261941
 31
0.0
  0
LINE
  5
8A1
330
7DF
100
AcDbEntity
  8
BEM
 62
     0
370
    -2
100
AcDbLine
 10
592.5575842276175
 20
183.4421198261941
 30
0.0
 11
477.0575842276176
 21
183.4421198261941
 31
0.0
  0
SOLID
  5
8A2
330
7DF
100
AcDbEntity
  8
BEM
 62
     0
100
AcDbTrace
 10
592.5575842276175
 20
184.9004531595275
 30
0.0
 11
592.5575842276175
 21
181.9837864928608
 31
0.0
 12
601.3075842276175
 22
183.4421198261941
 32
0.0
 13
601.3075842276175
 23
183.4421198261941
 33
0.0
  0
SOLID
  5
8A3
330
7DF
100
AcDbEntity
  8
BEM
 62
     0
100
AcDbTrace
 10
477.0575842276176
 20
184.9004531595275
 30
0.0
 11
477.0575842276176
 21
181.9837864928608
 31
0.0
 12
468.3075842276176
 22
183.4421198261941
 32
0.0
 13
468.3075842276176
 23
183.4421198261941
 33
0.0
  0
MTEXT
  5
8A4
330
7DF
100
AcDbEntity
  8
BEM
 62
     1
100
AcDbMText
 10
534.8075842276175
 20
191.5671198261941
 30
0.0
 40
8.75
 41
0.0
 71
     5
 72
     1
  1
\A1;%%c133
 73
     1
 44
1.0
  0
POINT
  5
8A5
330
7DF
100
AcDbEntity
  8
Defpoints
 62
     0
100
AcDbPoint
 10
601.3075842276175
 20
218.6307212052596
 30
0.0
  0
POINT
  5
8A6
330
7DF
100
AcDbEntity
  8
Defpoints
 62
     0
100
AcDbPoint
 10
468.3075842276176
 20
218.6307212052474
 30
0.0
  0
POINT
  5
8A7
330
7DF
100
AcDbEntity
  8
Defpoints
 62
     0
100
AcDbPoint
 10
468.3075842276176
 20
183.4421198261941
 30
0.0
  0
ENDBLK
  5
7EA
330
7DF
100
AcDbEntity
  8
0
100
AcDbBlockEnd
  0
BLOCK
  5
7FF
330
7F5
100
AcDbEntity
  8
0
100
AcDbBlockBegin
  2
*D3
 70
     1
 10
0.0
 20
0.0
 30
0.0
  3
*D3
  1

  0
LINE
  5
896
330
7F5
100
AcDbEntity
  8
BEM
 62
     0
370
    -2
100
AcDbLine
 10
602.320276947676
 20
206.6307212052471
 30
0.0
 11
722.8121950343465
 21
206.6307212052471
 31
0.0
  0
LINE
  5
897
330
7F5
100
AcDbEntity
  8
BEM
 62
     0
370
    -2
100
AcDbLine
 10
702.3075842276178
 20
486.6307212052464
 30
0.0
 11
722.8121950343465
 21
486.6307212052464
 31
0.0
  0
LINE
  5
898
330
7F5
100
AcDbEntity
  8
BEM
 62
     0
370
    -2
100
AcDbLine
 10
720.3121950343464
 20
215.3807212052471
 30
0.0
 11
720.3121950343465
 21
477.8807212052464
 31
0.0
  0
SOLID
  5
899
330
7F5
100
AcDbEntity
  8
BEM
 62
     0
100
AcDbTrace
 10
718.8538617010131
 20
215.3807212052471
 30
0.0
 11
721.7705283676798
 21
215.3807212052471
 31
0.0
 12
720.3121950343464
 22
206.6307212052471
 32
0.0
 13
720.3121950343464
 23
206.6307212052471
 33
0.0
  0
SOLID
  5
89A
330
7F5
100
AcDbEntity
  8
BEM
 62
     0
100
AcDbTrace
 10
718.8538617010132
 20
477.8807212052464
 30
0.0
 11
721.7705283676799
 21
477.8807212052464
 31
0.0
 12
720.3121950343465
 22
486.6307212052464
 32
0.0
 13
720.3121950343465
 23
486.6307212052464
 33
0.0
  0
MTEXT
  5
89B
330
7F5
100
AcDbEntity
  8
BEM
 62
     1
100
AcDbMText
 10
712.1871950343464
 20
346.6307212052468
 30
0.0
 40
8.75
 41
0.0
 71
     5
 72
     1
  1
\A1;280
 11
0.0000000000000001
 21
1.0
 31
0.0
 73
     1
 44
1.0
  0
POINT
  5
89C
330
7F5
100
AcDbEntity
  8
Defpoints
 62
     0
100
AcDbPoint
 10
599.8202769476761
 20
206.6307212052471
 30
0.0
  0
POINT
  5
89D
330
7F5
100
AcDbEntity
  8
Defpoints
 62
     0
100
AcDbPoint
 10
699.8075842276177
 20
486.6307212052464
 30
0.0
  0
POINT
  5
89E
330
7F5
100
AcDbEntity
  8
Defpoints
 62
     0
100
AcDbPoint
 10
720.3121950343465
 20
486.6307212052464
 30
0.0
  0
ENDBLK
  5
800
330
7F5
100
AcDbEntity
  8
0
100
AcDbBlockEnd
  0
BLOCK
  5
80C
330
802
100
AcDbEntity
  8
0
100
AcDbBlockBegin
  2
*D4
 70
     1
 10
0.0
 20
0.0
 30
0.0
  3
*D4
  1

  0
LINE
  5
803
330
802
100
AcDbEntity
  8
BEM
 62
     0
370
    -2
100
AcDbLine
 10
376.5751695897742
 20
614.6307212052465
 30
0.0
 11
248.1917357592766
 21
614.6307212052467
 31
0.0
  0
LINE
  5
804
330
802
100
AcDbEntity
  8
BEM
 62
     0
370
    -2
100
AcDbLine
 10
265.8075842276172
 20
506.6307212052467
 30
0.0
 11
248.1917357592765
 21
506.6307212052467
 31
0.0
  0
LINE
  5
805
330
802
100
AcDbEntity
  8
BEM
 62
     0
370
    -2
100
AcDbLine
 10
250.6917357592766
 20
605.8807212052466
 30
0.0
 11
250.6917357592765
 21
515.3807212052468
 31
0.0
  0
SOLID
  5
806
330
802
100
AcDbEntity
  8
BEM
 62
     0
100
AcDbTrace
 10
249.2334024259432
 20
605.8807212052466
 30
0.0
 11
252.1500690926099
 21
605.8807212052466
 31
0.0
 12
250.6917357592766
 22
614.6307212052467
 32
0.0
 13
250.6917357592766
 23
614.6307212052467
 33
0.0
  0
SOLID
  5
807
330
802
100
AcDbEntity
  8
BEM
 62
     0
100
AcDbTrace
 10
249.2334024259432
 20
515.3807212052468
 30
0.0
 11
252.1500690926099
 21
515.3807212052468
 31
0.0
 12
250.6917357592765
 22
506.6307212052467
 32
0.0
 13
250.6917357592765
 23
506.6307212052467
 33
0.0
  0
MTEXT
  5
808
330
802
100
AcDbEntity
  8
BEM
 62
     1
100
AcDbMText
 10
242.5667357592764
 20
560.6307212052468
 30
0.0
 40
8.75
 41
0.0
 71
     5
 72
     1
  1
\A1;108
 11
0.0000000000000001
 21
1.0
 31
0.0
 73
     1
 44
1.0
  0
POINT
  5
809
330
802
100
AcDbEntity
  8
Defpoints
 62
     0
100
AcDbPoint
 10
379.0751695897742
 20
614.6307212052465
 30
0.0
  0
POINT
  5
80A
330
802
100
AcDbEntity
  8
Defpoints
 62
     0
100
AcDbPoint
 10
268.3075842276172
 20
506.6307212052467
 30
0.0
  0
POINT
  5
80B
330
802
100
AcDbEntity
  8
Defpoints
 62
     0
100
AcDbPoint
 10
250.6917357592765
 20
506.6307212052467
 30
0.0
  0
ENDBLK
  5
80D
330
802
100
AcDbEntity
  8
0
100
AcDbBlockEnd
  0
BLOCK
  5
81E
330
80F
100
AcDbEntity
  8
0
100
AcDbBlockBegin
  2
*D5
 70
     1
 10
0.0
 20
0.0
 30
0.0
  3
*D5
  1

  0
LINE
  5
820
330
80F
100
AcDbEntity
  8
BEM
 62
     0
370
    -2
100
AcDbLine
 10
265.8075842276172
 20
506.6307212052467
 30
0.0
 11
248.1917357592765
 21
506.6307212052467
 31
0.0
  0
LINE
  5
821
330
80F
100
AcDbEntity
  8
BEM
 62
     0
370
    -2
100
AcDbLine
 10
265.8075842276173
 20
491.6307212052467
 30
0.0
 11
248.1917357592765
 21
491.6307212052467
 31
0.0
  0
LINE
  5
822
330
80F
100
AcDbEntity
  8
BEM
 62
     0
370
    -2
100
AcDbLine
 10
250.6917357592765
 20
515.3807212052468
 30
0.0
 11
250.6917357592765
 21
524.1307212052467
 31
0.0
  0
LINE
  5
823
330
80F
100
AcDbEntity
  8
BEM
 62
     0
370
    -2
100
AcDbLine
 10
250.6917357592765
 20
482.8807212052467
 30
0.0
 11
250.6917357592765
 21
456.6307212052467
 31
0.0
  0
LINE
  5
824
330
80F
100
AcDbEntity
  8
BEM
 62
     0
370
    -2
100
AcDbLine
 10
250.6917357592765
 20
506.6307212052467
 30
0.0
 11
250.6917357592765
 21
491.6307212052467
 31
0.0
  0
SOLID
  5
825
330
80F
100
AcDbEntity
  8
BEM
 62
     0
100
AcDbTrace
 10
249.2334024259432
 20
515.3807212052468
 30
0.0
 11
252.1500690926099
 21
515.3807212052468
 31
0.0
 12
250.6917357592765
 22
506.6307212052467
 32
0.0
 13
250.6917357592765
 23
506.6307212052467
 33
0.0
  0
SOLID
  5
826
330
80F
100
AcDbEntity
  8
BEM
 62
     0
100
AcDbTrace
 10
249.2334024259432
 20
482.8807212052467
 30
0.0
 11
252.1500690926099
 21
482.8807212052467
 31
0.0
 12
250.6917357592765
 22
491.6307212052467
 32
0.0
 13
250.6917357592765
 23
491.6307212052467
 33
0.0
  0
MTEXT
  5
827
330
80F
100
AcDbEntity
  8
BEM
 62
     1
100
AcDbMText
 10
242.5667357592764
 20
465.3807212052468
 30
0.0
 40
8.75
 41
0.0
 71
     5
 72
     1
  1
\A1;15
 11
0.0000000000000001
 21
1.0
 31
0.0
 73
     1
 44
1.0
  0
POINT
  5
828
330
80F
100
AcDbEntity
  8
Defpoints
 62
     0
100
AcDbPoint
 10
268.3075842276172
 20
506.6307212052467
 30
0.0
  0
POINT
  5
829
330
80F
100
AcDbEntity
  8
Defpoints
 62
     0
100
AcDbPoint
 10
268.3075842276173
 20
491.6307212052467
 30
0.0
  0
POINT
  5
82A
330
80F
100
AcDbEntity
  8
Defpoints
 62
     0
100
AcDbPoint
 10
250.6917357592765
 20
491.6307212052467
 30
0.0
  0
ENDBLK
  5
81F
330
80F
100
AcDbEntity
  8
0
100
AcDbBlockEnd
  0
BLOCK
  5
84F
330
845
100
AcDbEntity
  8
0
100
AcDbBlockBegin
  2
*D6
 70
     1
 10
0.0
 20
0.0
 30
0.0
  3
*D6
  1

  0
LINE
  5
88D
330
845
100
AcDbEntity
  8
BEM
 62
     0
370
    -2
100
AcDbLine
 10
699.8075842276171
 20
480.252041548807
 30
0.0
 11
699.8075842276171
 21
430.978437441558
 31
0.0
  0
LINE
  5
88E
330
845
100
AcDbEntity
  8
BEM
 62
     0
370
    -2
100
AcDbLine
 10
369.8075842276173
 20
480.252041548807
 30
0.0
 11
369.8075842276173
 21
430.978437441558
 31
0.0
  0
LINE
  5
88F
330
845
100
AcDbEntity
  8
BEM
 62
     0
370
    -2
100
AcDbLine
 10
691.0575842276171
 20
433.4784374415581
 30
0.0
 11
378.5575842276173
 21
433.4784374415581
 31
0.0
  0
SOLID
  5
890
330
845
100
AcDbEntity
  8
BEM
 62
     0
100
AcDbTrace
 10
691.0575842276171
 20
434.9367707748913
 30
0.0
 11
691.0575842276171
 21
432.0201041082247
 31
0.0
 12
699.8075842276171
 22
433.4784374415581
 32
0.0
 13
699.8075842276171
 23
433.4784374415581
 33
0.0
  0
SOLID
  5
891
330
845
100
AcDbEntity
  8
BEM
 62
     0
100
AcDbTrace
 10
378.5575842276173
 20
434.9367707748913
 30
0.0
 11
378.5575842276173
 21
432.0201041082247
 31
0.0
 12
369.8075842276173
 22
433.4784374415581
 32
0.0
 13
369.8075842276173
 23
433.4784374415581
 33
0.0
  0
MTEXT
  5
892
330
845
100
AcDbEntity
  8
BEM
 62
     1
100
AcDbMText
 10
534.8075842276172
 20
441.603437441558
 30
0.0
 40
8.75
 41
0.0
 71
     5
 72
     1
  1
\A1;%%c330
 73
     1
 44
1.0
  0
POINT
  5
893
330
845
100
AcDbEntity
  8
Defpoints
 62
     0
100
AcDbPoint
 10
699.8075842276171
 20
482.752041548807
 30
0.0
  0
POINT
  5
894
330
845
100
AcDbEntity
  8
Defpoints
 62
     0
100
AcDbPoint
 10
369.8075842276173
 20
482.752041548807
 30
0.0
  0
POINT
  5
895
330
845
100
AcDbEntity
  8
Defpoints
 62
     0
100
AcDbPoint
 10
369.8075842276173
 20
433.4784374415581
 30
0.0
  0
ENDBLK
  5
850
330
845
100
AcDbEntity
  8
0
100
AcDbBlockEnd
  0
BLOCK
  5
867
330
85D
100
AcDbEntity
  8
0
100
AcDbBlockBegin
  2
*D7
 70
     1
 10
0.0
 20
0.0
 30
0.0
  3
*D7
  1

  0
LINE
  5
876
330
85D
100
AcDbEntity
  8
BEM
 62
     0
370
    -2
100
AcDbLine
 10
775.5399988654605
 20
532.1307212052456
 30
0.0
 11
775.5399988654605
 21
635.9590610798232
 31
0.0
  0
LINE
  5
877
330
85D
100
AcDbEntity
  8
BEM
 62
     0
370
    -2
100
AcDbLine
 10
294.0751695897742
 20
532.1307212052466
 30
0.0
 11
294.0751695897742
 21
635.9590610798232
 31
0.0
  0
LINE
  5
878
330
85D
100
AcDbEntity
  8
BEM
 62
     0
370
    -2
100
AcDbLine
 10
766.7899988654604
 20
633.4590610798231
 30
0.0
 11
302.8251695897742
 21
633.4590610798231
 31
0.0
  0
SOLID
  5
879
330
85D
100
AcDbEntity
  8
BEM
 62
     0
100
AcDbTrace
 10
766.7899988654604
 20
634.9173944131565
 30
0.0
 11
766.7899988654604
 21
632.0007277464898
 31
0.0
 12
775.5399988654605
 22
633.4590610798231
 32
0.0
 13
775.5399988654605
 23
633.4590610798231
 33
0.0
  0
SOLID
  5
87A
330
85D
100
AcDbEntity
  8
BEM
 62
     0
100
AcDbTrace
 10
302.8251695897742
 20
634.9173944131565
 30
0.0
 11
302.8251695897742
 21
632.0007277464898
 31
0.0
 12
294.0751695897742
 22
633.4590610798231
 32
0.0
 13
294.0751695897742
 23
633.4590610798231
 33
0.0
  0
MTEXT
  5
87B
330
85D
100
AcDbEntity
  8
BEM
 62
     1
100
AcDbMText
 10
534.8075842276172
 20
641.5840610798231
 30
0.0
 40
8.75
 41
0.0
 71
     5
 72
     1
  1
\A1;%%c482
 73
     1
 44
1.0
  0
POINT
  5
87C
330
85D
100
AcDbEntity
  8
Defpoints
 62
     0
100
AcDbPoint
 10
775.5399988654605
 20
529.6307212052457
 30
0.0
  0
POINT
  5
87D
330
85D
100
AcDbEntity
  8
Defpoints
 62
     0
100
AcDbPoint
 10
294.0751695897742
 20
529.6307212052465
 30
0.0
  0
POINT
  5
87E
330
85D
100
AcDbEntity
  8
Defpoints
 62
     0
100
AcDbPoint
 10
294.0751695897742
 20
633.4590610798231
 30
0.0
  0
ENDBLK
  5
868
330
85D
100
AcDbEntity
  8
0
100
AcDbBlockEnd
  0
BLOCK
  5
874
330
86A
100
AcDbEntity
  8
0
100
AcDbBlockBegin
  2
*D8
 70
     1
 10
0.0
 20
0.0
 30
0.0
  3
*D8
  1

  0
LINE
  5
87F
330
86A
100
AcDbEntity
  8
BEM
 62
     0
370
    -2
100
AcDbLine
 10
801.3075842276172
 20
510.6307212052467
 30
0.0
 11
801.3075842276172
 21
657.4997144872991
 31
0.0
  0
LINE
  5
880
330
86A
100
AcDbEntity
  8
BEM
 62
     0
370
    -2
100
AcDbLine
 10
268.3075842276172
 20
510.6307212052467
 30
0.0
 11
268.3075842276172
 21
657.4997144872991
 31
0.0
  0
LINE
  5
881
330
86A
100
AcDbEntity
  8
BEM
 62
     0
370
    -2
100
AcDbLine
 10
792.5575842276173
 20
654.9997144872991
 30
0.0
 11
277.0575842276172
 21
654.9997144872991
 31
0.0
  0
SOLID
  5
882
330
86A
100
AcDbEntity
  8
BEM
 62
     0
100
AcDbTrace
 10
792.5575842276173
 20
656.4580478206324
 30
0.0
 11
792.5575842276173
 21
653.5413811539657
 31
0.0
 12
801.3075842276172
 22
654.9997144872991
 32
0.0
 13
801.3075842276172
 23
654.9997144872991
 33
0.0
  0
SOLID
  5
883
330
86A
100
AcDbEntity
  8
BEM
 62
     0
100
AcDbTrace
 10
277.0575842276172
 20
656.4580478206324
 30
0.0
 11
277.0575842276172
 21
653.5413811539657
 31
0.0
 12
268.3075842276172
 22
654.9997144872991
 32
0.0
 13
268.3075842276172
 23
654.9997144872991
 33
0.0
  0
MTEXT
  5
884
330
86A
100
AcDbEntity
  8
BEM
 62
     1
100
AcDbMText
 10
534.8075842276172
 20
663.1247144872991
 30
0.0
 40
8.75
 41
0.0
 71
     5
 72
     1
  1
\A1;%%c533
 73
     1
 44
1.0
  0
POINT
  5
885
330
86A
100
AcDbEntity
  8
Defpoints
 62
     0
100
AcDbPoint
 10
801.3075842276172
 20
508.1307212052467
 30
0.0
  0
POINT
  5
886
330
86A
100
AcDbEntity
  8
Defpoints
 62
     0
100
AcDbPoint
 10
268.3075842276172
 20
508.1307212052467
 30
0.0
  0
POINT
  5
887
330
86A
100
AcDbEntity
  8
Defpoints
 62
     0
100
AcDbPoint
 10
268.3075842276172
 20
654.9997144872991
 30
0.0
  0
ENDBLK
  5
875
330
86A
100
AcDbEntity
  8
0
100
AcDbBlockEnd
  0
ENDSEC
  0
SECTION
  2
ENTITIES
  0
LINE
  5
58
330
1E
100
AcDbEntity
  8
STEMPEL
100
AcDbLine
 10
1037.5
 20
137.5
 30
0.0
 11
587.5000000000002
 21
137.5
 31
0.0
  0
LINE
  5
59
330
1E
100
AcDbEntity
  8
STEMPEL
100
AcDbLine
 10
587.5000000000002
 20
137.5
 30
0.0
 11
587.5
 21
12.5
 31
0.0
  0
LINE
  5
5A
330
1E
100
AcDbEntity
  8
STEMPEL
100
AcDbLine
 10
707.5000000000002
 20
137.4999999999998
 30
0.0
 11
707.5000000000001
 21
12.49999999999986
 31
0.0
  0
LINE
  5
5B
330
1E
100
AcDbEntity
  8
STEMPEL
100
AcDbLine
 10
812.5000000000001
 20
137.5
 30
0.0
 11
812.5000000000001
 21
12.5
 31
0.0
  0
LINE
  5
5C
330
1E
100
AcDbEntity
  8
STEMPEL
100
AcDbLine
 10
940.0000000000002
 20
137.4999999999996
 30
0.0
 11
940.0000000000002
 21
50.0
 31
0.0
  0
LINE
  5
5D
330
1E
100
AcDbEntity
  8
STEMPEL
100
AcDbLine
 10
707.5
 20
37.5
 30
0.0
 11
587.5
 21
37.5
 31
0.0
  0
LINE
  5
5E
330
1E
100
AcDbEntity
  8
STEMPEL
100
AcDbLine
 10
1037.5
 20
50.0
 30
0.0
 11
707.5000000000001
 21
50.0
 31
0.0
  0
LINE
  5
5F
330
1E
100
AcDbEntity
  8
STEMPEL
100
AcDbLine
 10
1037.5
 20
100.0
 30
0.0
 11
707.5000000000002
 21
100.0
 31
0.0
  0
LINE
  5
60
330
1E
100
AcDbEntity
  8
VOLL
100
AcDbLine
 10
605.0000000000002
 20
137.5
 30
0.0
 11
605.0000000000001
 21
12.49999999999998
 31
0.0
  0
LINE
  5
61
330
1E
100
AcDbEntity
  8
VOLL
100
AcDbLine
 10
655.0000000000002
 20
137.4999999999999
 30
0.0
 11
655.0000000000001
 21
12.49999999999993
 31
0.0
  0
LINE
  5
62
330
1E
100
AcDbEntity
  8
VOLL
100
AcDbLine
 10
680.0000000000002
 20
137.4999999999999
 30
0.0
 11
680.0000000000001
 21
12.49999999999989
 31
0.0
  0
LINE
  5
63
330
1E
100
AcDbEntity
  8
VOLL
100
AcDbLine
 10
730.0000000000002
 20
100.0
 30
0.0
 11
730.0000000000002
 21
50.0
 31
0.0
  0
LINE
  5
64
330
1E
100
AcDbEntity
  8
VOLL
100
AcDbLine
 10
762.5000000000002
 20
137.4999999999998
 30
0.0
 11
762.5
 21
50.0
 31
0.0
  0
LINE
  5
65
330
1E
100
AcDbEntity
  8
HILF
100
AcDbLine
 10
587.5000000000002
 20
125.0
 30
0.0
 11
707.5000000000002
 21
125.0
 31
0.0
  0
LINE
  5
66
330
1E
100
AcDbEntity
  8
HILF
100
AcDbLine
 10
587.5000000000002
 20
112.5
 30
0.0
 11
707.5000000000002
 21
112.5
 31
0.0
  0
LINE
  5
67
330
1E
100
AcDbEntity
  8
HILF
100
AcDbLine
 10
587.5000000000002
 20
100.0
 30
0.0
 11
707.5000000000002
 21
100.0
 31
0.0
  0
LINE
  5
68
330
1E
100
AcDbEntity
  8
HILF
100
AcDbLine
 10
587.5000000000002
 20
87.5
 30
0.0
 11
707.5000000000002
 21
87.5
 31
0.0
  0
LINE
  5
69
330
1E
100
AcDbEntity
  8
HILF
100
AcDbLine
 10
587.5000000000002
 20
75.0
 30
0.0
 11
707.5000000000002
 21
75.0
 31
0.0
  0
LINE
  5
6A
330
1E
100
AcDbEntity
  8
HILF
100
AcDbLine
 10
587.5000000000002
 20
62.5
 30
0.0
 11
707.5000000000002
 21
62.5
 31
0.0
  0
LINE
  5
6B
330
1E
100
AcDbEntity
  8
HILF
100
AcDbLine
 10
587.5000000000002
 20
50.0
 30
0.0
 11
707.5000000000002
 21
50.0
 31
0.0
  0
LINE
  5
6C
330
1E
100
AcDbEntity
  8
HILF
100
AcDbLine
 10
707.5000000000002
 20
87.5
 30
0.0
 11
812.5000000000001
 21
87.5
 31
0.0
  0
LINE
  5
6D
330
1E
100
AcDbEntity
  8
HILF
100
AcDbLine
 10
707.5000000000002
 20
75.0
 30
0.0
 11
812.5000000000001
 21
75.0
 31
0.0
  0
LINE
  5
6E
330
1E
100
AcDbEntity
  8
HILF
100
AcDbLine
 10
707.5000000000002
 20
62.5
 30
0.0
 11
812.5000000000001
 21
62.5
 31
0.0
  0
LINE
  5
6F
330
1E
100
AcDbEntity
  8
HILF
100
AcDbLine
 10
818.4671001371185
 20
105.0469780945517
 30
0.0
 11
933.2872303143515
 21
105.0469780945517
 31
0.0
  0
LINE
  5
70
330
1E
100
AcDbEntity
  8
HILF
100
AcDbLine
 10
818.4671001371185
 20
87.5
 30
0.0
 11
933.2872303143515
 21
87.5
 31
0.0
  0
LINE
  5
71
330
1E
100
AcDbEntity
  8
HILF
100
AcDbLine
 10
818.4671001371185
 20
75.0
 30
0.0
 11
933.2872303143515
 21
75.0
 31
0.0
  0
LINE
  5
72
330
1E
100
AcDbEntity
  8
HILF
100
AcDbLine
 10
818.4671001371185
 20
62.5
 30
0.0
 11
933.2872303143515
 21
62.5
 31
0.0
  0
LINE
  5
73
330
1E
100
AcDbEntity
  8
VOLL
100
AcDbLine
 10
940.0000000000002
 20
75.0
 30
0.0
 11
1037.5
 21
75.0
 31
0.0
  0
LINE
  5
74
330
1E
100
AcDbEntity
  8
HILF
100
AcDbLine
 10
945.9048270371244
 20
104.7247954619477
 30
0.0
 11
1031.073604915841
 21
104.7247954619477
 31
0.0
  0
LINE
  5
75
330
1E
100
AcDbEntity
  8
HILF
100
AcDbLine
 10
818.4671001371185
 20
18.61747822535381
 30
0.0
 11
1031.073604915841
 21
18.61747822535381
 31
0.0
  0
TEXT
  5
76
330
1E
100
AcDbEntity
  8
TEXT
100
AcDbText
 10
615.4997799079121
 20
23.34227368730161
 30
0.0
 40
5.0
  1
Änderung
 41
0.8
  7
GREEKS
 72
     1
 11
628.9283513364836
 21
23.34227368730161
 31
0.0
100
AcDbText
  0
TEXT
  5
78
330
1E
100
AcDbEntity
  8
TEXT
100
AcDbText
 10
716.8954465187972
 20
128.077611885886
 30
0.0
 40
6.25
  1
Maßstab
 41
0.8
  7
GREEKS
100
AcDbText
  0
TEXT
  5
79
330
1E
100
AcDbEntity
  8
TEXT
100
AcDbText
 10
818.5974254761264
 20
128.1861660014724
 30
0.0
 40
6.25
  1
Benennung
 41
0.8
  7
GREEKS
100
AcDbText
  0
TEXT
  5
7A
330
1E
100
AcDbEntity
  8
TEXT
100
AcDbText
 10
945.2234436970428
 20
127.891504317142
 30
0.0
 40
6.25
  1
Zeichnungs Nr.
 41
0.8
  7
GREEKS
100
AcDbText
  0
TEXT
  5
7B
330
1E
100
AcDbEntity
  8
TEXT
100
AcDbText
 10
818.42779798892
 20
38.55700712741319
 30
0.0
 40
6.25
  1
Bauvorhaben
 41
0.8
  7
GREEKS
100
AcDbText
  0
TEXT
  5
7C
330
1E
100
AcDbEntity
  8
TEXT
100
AcDbText
 10
945.9048270371244
 20
91.47647796374956
 30
0.0
 40
6.25
  1
Ersatz für:
 41
0.8
  7
GREEKS
100
AcDbText
  0
TEXT
  5
7D
330
1E
100
AcDbEntity
  8
TEXT
100
AcDbText
 10
597.8330138380721
 20
17.06832307533984
 30
0.0
 40
5.0
  1
Index
 50
90.0
 41
0.8
  7
GREEKS
100
AcDbText
  0
TEXT
  5
7E
330
1E
100
AcDbEntity
  8
TEXT
100
AcDbText
 10
662.3737641483725
 20
23.3394533667476
 30
0.0
 40
5.0
  1
Tag
 41
0.8
  7
GREEKS
 72
     1
 11
667.0404308150391
 21
23.3394533667476
 31
0.0
100
AcDbText
  0
TEXT
  5
7F
330
1E
100
AcDbEntity
  8
TEXT
100
AcDbText
 10
686.2244597672866
 20
23.24155271208006
 30
0.0
 40
5.0
  1
Name
 41
0.8
  7
GREEKS
 72
     1
 11
694.1292216720484
 21
23.24155271208006
 31
0.0
100
AcDbText
  0
TEXT
  5
80
330
1E
100
AcDbEntity
  8
TEXT
100
AcDbText
 10
740.4139591442064
 20
91.64850626537399
 30
0.0
 40
5.0
  1
Tag
 41
0.8
  7
GREEKS
100
AcDbText
  0
TEXT
  5
81
330
1E
100
AcDbEntity
  8
TEXT
100
AcDbText
 10
778.078323028287
 20
91.63701364894025
 30
0.0
 40
5.0
  1
Name
 41
0.8
  7
GREEKS
100
AcDbText
  0
TEXT
  5
82
330
1E
100
AcDbEntity
  8
TEXT
100
AcDbText
 10
709.479515895952
 20
79.53737962022451
 30
0.0
 40
5.0
  1
Gez.
 41
0.8
  7
GREEKS
100
AcDbText
  0
TEXT
  5
83
330
1E
100
AcDbEntity
  8
TEXT
100
AcDbText
 10
709.4393858214592
 20
67.11157864285467
 30
0.0
 40
5.0
  1
Gepr.
 41
0.8
  7
GREEKS
100
AcDbText
  0
TEXT
  5
84
330
1E
100
AcDbEntity
  8
TEXT
100
AcDbText
 10
709.5008471734131
 20
54.41182987062255
 30
0.0
 40
5.0
  1
Norm.
 41
0.8
  7
GREEKS
100
AcDbText
  0
TEXT
  5
85
330
1E
100
AcDbEntity
  8
TEXT
100
AcDbText
 10
946.5501076871261
 20
65.09270222348246
 30
0.0
 40
6.25
  1
ersetzt durch:
 41
0.8
  7
GREEKS
100
AcDbText
  0
TEXT
  5
86
330
1E
100
AcDbEntity
  8
TEXT
100
AcDbText
 10
711.0866284759154
 20
91.20853245654656
 30
0.0
 40
5.0
  1
2009
 41
0.8
  7
GREEKS
100
AcDbText
  0
LINE
  5
87
330
1E
100
AcDbEntity
  8
HILF
100
AcDbLine
 10
0.0
 20
0.0
 30
0.0
 11
1050.0
 21
0.0
 31
0.0
  0
LINE
  5
88
330
1E
100
AcDbEntity
  8
HILF
100
AcDbLine
 10
1050.0
 20
0.0
 30
0.0
 11
1050.0
 21
742.4999999999999
 31
0.0
  0
LINE
  5
89
330
1E
100
AcDbEntity
  8
HILF
100
AcDbLine
 10
1050.0
 20
742.4999999999999
 30
0.0
 11
0.0
 21
742.4999999999999
 31
0.0
  0
LINE
  5
8B
330
1E
100
AcDbEntity
  8
STEMPEL
100
AcDbLine
 10
1037.5
 20
730.0
 30
0.0
 11
50.0
 21
730.0
 31
0.0
  0
LINE
  5
8D
330
1E
100
AcDbEntity
  8
STEMPEL
100
AcDbLine
 10
50.0
 20
12.5
 30
0.0
 11
1037.5
 21
12.5
 31
0.0
  0
LINE
  5
8E
330
1E
100
AcDbEntity
  8
STEMPEL
100
AcDbLine
 10
1037.5
 20
12.5
 30
0.0
 11
1037.5
 21
730.0
 31
0.0
  0
TEXT
  5
8F
330
1E
100
AcDbEntity
  8
TEXT
 62
     1
100
AcDbText
 10
818.7988215591486
 20
109.2167884456568
 30
0.0
 40
8.75
  1
Drainjet Kompletteinheit
 41
0.7
  7
GREEKS
100
AcDbText
  0
TEXT
  5
90
330
1E
100
AcDbEntity
  8
TEXT
 62
     1
100
AcDbText
 10
960.995177773017
 20
109.2167884456568
 30
0.0
 40
8.75
  1
21111125W
 41
0.8
  7
GREEKS
 72
     1
 11
987.6618444396838
 21
109.2167884456568
 31
0.0
100
AcDbText
  0
TEXT
  5
91
330
1E
100
AcDbEntity
  8
TEXT
100
AcDbText
 10
773.1362783019789
 20
128.5498701422375
 30
0.0
 40
6.25
  1
Zul.Abw.
 41
0.8
  7
GREEKS
100
AcDbText
  0
TEXT
  5
93
330
1E
100
AcDbEntity
  8
TEXT
100
AcDbText
 10
738.0766070699358
 20
78.93857345150275
 30
0.0
 40
5.0
  1
29.10.
 41
0.8
  7
GREEKS
 72
     1
 11
746.4575594508882
 21
78.93857345150275
 31
0.0
100
AcDbText
  0
TEXT
  5
94
330
1E
100
AcDbEntity
  8
TEXT
100
AcDbText
 10
780.0289691533263
 20
78.67872068956835
 30
0.0
 40
5.0
  1
Koeh
 41
0.8
  7
GREEKS
 72
     1
 11
786.6003977247548
 21
78.67872068956835
 31
0.0
100
AcDbText
  0
TEXT
  5
95
330
1E
100
AcDbEntity
  8
TEXT
100
AcDbText
 10
817.9263676106241
 20
90.12526728884408
 30
0.0
 40
6.25
  1
DN125, einteilig
 41
0.8
  7
GREEKS
100
AcDbText
  0
TEXT
  5
96
330
1E
100
AcDbEntity
  8
TEXT
100
AcDbText
 10
817.9263676106241
 20
77.93198856511295
 30
0.0
 40
6.25
  1

 41
0.8
  7
GREEKS
100
AcDbText
  0
TEXT
  5
97
330
1E
100
AcDbEntity
  8
TEXT
100
AcDbText
 10
817.9263676106241
 20
65.73871672307572
 30
0.0
 40
6.25
  1
EDV-Art.Nr. 21111.125X
 41
0.8
  7
GREEKS
100
AcDbText
  0
TEXT
  5
98
330
1E
100
AcDbEntity
  8
TEXT
100
AcDbText
 10
817.7095062636686
 20
54.13909530989386
 30
0.0
 40
5.0
  1
21111125W.DWG
 41
0.8
  7
GREEKS
100
AcDbText
  0
TEXT
  5
99
330
1E
100
AcDbEntity
  8
TEXT
 62
     1
100
AcDbText
 10
728.3793640042778
 20
109.3384636051872
 30
0.0
 40
8.75
  1
1:2
 41
0.8
  7
GREEKS
100
AcDbText
  0
TEXT
  5
9A
330
1E
100
AcDbEntity
  8
TEXT
100
AcDbText
 10
587.5551424187659
 20
142.6429481313803
 30
0.0
 40
6.25
  1
Erstellt mit AUTOCAD 2004
 41
0.8
  7
GREEKS
100
AcDbText
  0
INSERT
  5
9B
330
1E
100
AcDbEntity
  8
HILF
100
AcDbBlockReference
  2
LORO
 10
716.3281232452942
 20
46.22574125373699
 30
0.0
 41
2.5
 42
2.5
 43
2.5
  0
LINE
  5
9C
330
1E
100
AcDbEntity
  8
BEM
100
AcDbLine
 10
570.0
 20
0.0
 30
0.0
 11
570.0
 21
12.5
 31
0.0
  0
LINE
  5
13E
330
1E
100
AcDbEntity
  8
HILF
100
AcDbLine
 10
0.0
 20
0.0
 30
0.0
 11
0.0
 21
742.4999999999999
 31
0.0
  0
LINE
  5
13F
330
1E
100
AcDbEntity
  8
STEMPEL
100
AcDbLine
 10
50.0
 20
12.5
 30
0.0
 11
50.0
 21
730.0
 31
0.0
  0
LINE
  5
14A
330
1E
100
AcDbEntity
  8
HILF
100
AcDbLine
 10
0.0
 20
371.25
 30
0.0
 11
50.0
 21
371.25
 31
0.0
  0
TEXT
  5
15B
330
1E
100
AcDbEntity
  8
BEM
100
AcDbText
 10
1046.627865482146
 20
12.70987634998576
 30
0.0
 40
5.0
  1
Diese Zeichnung ist urheberrechtlich geschützt und bleibt unser Eigentum. Sie darf weder ganz noch teilweise verfielfältigt und nicht an Dritte weitergegeben werden.
 50
90.0
 41
0.8
  7
GREEKS
100
AcDbText
  0
LINE
  5
188
330
1E
100
AcDbEntity
  8
BEM
100
AcDbLine
 10
570.0
 20
742.4999999999999
 30
0.0
 11
570.0
 21
730.0
 31
0.0
  0
HATCH
  5
1ED
330
1E
100
AcDbEntity
  8
SCHRAFF
100
AcDbHatch
 10
0.0
 20
0.0
 30
0.0
210
0.0
220
0.0
230
1.0
  2
_USER
 70
     0
 71
     1
 91
        2
 92
        7
 72
     1
 73
     1
 93
        4
 10
614.0178402568176
 20
469.6214908123032
 42
0.0
 10
613.0821165734531
 20
468.1639513828568
 42
0.0
 10
611.8198504005351
 20
468.9743118635733
 42
0.0
 10
610.7736795184552
 20
467.3447332415092
 42
0.8729513670662212
 97
        4
330
214
330
212
330
1F3
330
213
 92
        7
 72
     1
 73
     1
 93
        4
 10
458.8414889367792
 20
467.3447332415092
 42
0.0
 10
457.7953180546994
 20
468.9743118635733
 42
0.0
 10
456.5330518817813
 20
468.1639513828569
 42
0.0
 10
455.5973281984168
 20
469.6214908123031
 42
0.8729513670663081
 97
        4
330
22A
330
22C
330
22B
330
1F0
 75
     0
 76
     0
 52
0.0
 41
0.1
 77
     0
 78
     1
 53
0.0
 43
301.1581171154996
 44
26.50867619239079
 45
0.0
 46
0.1
 79
     0
 47
0.2742157745736938
 98
        2
 10
612.1568001577473
 20
467.422248584855
 10
456.5921221403307
 20
467.422248584855
  0
HATCH
  5
1EE
330
1E
100
AcDbEntity
  8
SCHRAFF
100
AcDbHatch
 10
0.0
 20
0.0
 30
0.0
210
0.0
220
0.0
230
1.0
  2
_USER
 70
     0
 71
     1
 91
        2
 92
        7
 72
     1
 73
     1
 93
       10
 10
599.8075842276176
 20
218.6962126196225
 42
0.0
 10
598.7519905089905
 20
206.6307212052474
 42
0.0
 10
600.2577202653054
 20
206.6307212052474
 42
0.0
 10
601.3075842276175
 20
218.6307212052596
 42
0.0
 10
601.3075842276176
 20
451.5729865014296
 42
-0.1436568363649714
 10
601.862296490809
 20
453.4638276231014
 42
0.0
 10
611.819850400535
 20
468.9743118635731
 42
0.0
 10
610.5575842276172
 20
469.7846723442897
 42
0.0
 10
600.6000303178909
 20
454.2741881038178
 42
0.1436568363649692
 10
599.8075842276175
 20
451.5729865014296
 42
0.0
 97
       10
330
1F2
330
1F3
330
212
330
217
330
1F4
330
1F8
330
1FD
330
1F9
330
1FE
330
1F7
 92
        7
 72
     1
 73
     1
 93
       10
 10
469.8075842276174
 20
451.5729865014289
 42
0.1436568363649767
 10
469.0151381373438
 20
454.2741881038172
 42
0.0
 10
459.0575842276172
 20
469.7846723442896
 42
0.0
 10
457.7953180546993
 20
468.9743118635733
 42
0.0
 10
467.7528719644259
 20
453.4638276231008
 42
-0.1436568363649751
 10
468.3075842276174
 20
451.5729865014289
 42
0.0
 10
468.3075842276176
 20
218.6307212052475
 42
0.0
 10
469.3574481899288
 20
206.6307212052474
 42
0.0
 10
470.8631779462438
 20
206.6307212052474
 42
0.0
 10
469.8075842276177
 20
218.6962126196108
 42
0.0
 97
       10
330
1F1
330
22D
330
22A
330
1F0
330
1EF
330
1F5
330
1FB
330
1F9
330
1FC
330
1F6
 75
     0
 76
     0
 52
135.0
 41
2.0
 77
     0
 78
     1
 53
135.0
 43
301.1581171154996
 44
26.50867619239079
 45
-1.414213562373095
 46
-1.414213562373094
 79
     0
 47
0.4493232848184605
 98
        2
 10
600.3507276826073
 20
373.6970542684076
 10
469.0771640278788
 20
363.3626195243191
  0
ARC
  5
1EF
102
{ACAD_REACTORS
330
1EE
102
}
330
1E
100
AcDbEntity
  8
STEMPEL
100
AcDbCircle
 10
464.8075842276173
 20
451.5729865014289
 30
0.0
 40
3.5
100
AcDbArc
 50
0.0
 51
32.70000000000014
  0
LINE
  5
1F0
102
{ACAD_REACTORS
330
1EE
330
1ED
102
}
330
1E
100
AcDbEntity
  8
STEMPEL
100
AcDbLine
 10
457.7953180546993
 20
468.9743118635733
 30
0.0
 11
467.7528719644259
 21
453.4638276231008
 31
0.0
  0
ARC
  5
1F1
102
{ACAD_REACTORS
330
1EE
102
}
330
1E
100
AcDbEntity
  8
STEMPEL
100
AcDbCircle
 10
464.8075842276173
 20
451.5729865014289
 30
0.0
 40
5.0
100
AcDbArc
 50
0.0
 51
32.70000000000014
  0
ARC
  5
1F2
102
{ACAD_REACTORS
330
1EE
102
}
330
1E
100
AcDbEntity
  8
STEMPEL
100
AcDbCircle
 10
604.8075842276175
 20
451.5729865014296
 30
0.0
 40
3.5
100
AcDbArc
 50
147.2999999999998
 51
180.0
  0
LINE
  5
1F3
102
{ACAD_REACTORS
330
1EE
330
1ED
102
}
330
1E
100
AcDbEntity
  8
STEMPEL
100
AcDbLine
 10
611.8198504005351
 20
468.9743118635732
 30
0.0
 11
601.862296490809
 21
453.4638276231014
 31
0.0
  0
ARC
  5
1F4
102
{ACAD_REACTORS
330
1EE
102
}
330
1E
100
AcDbEntity
  8
STEMPEL
100
AcDbCircle
 10
604.8075842276175
 20
451.5729865014296
 30
0.0
 40
5.0
100
AcDbArc
 50
147.2999999999998
 51
180.0
  0
LINE
  5
1F5
102
{ACAD_REACTORS
330
1EE
102
}
330
1E
100
AcDbEntity
  8
STEMPEL
  6
Continuous
100
AcDbLine
 10
468.3075842276174
 20
451.5729865014289
 30
0.0
 11
468.3075842276176
 21
218.6307212052474
 31
0.0
  0
LINE
  5
1F6
102
{ACAD_REACTORS
330
1EE
102
}
330
1E
100
AcDbEntity
  8
STEMPEL
  6
Continuous
100
AcDbLine
 10
469.8075842276174
 20
451.5729865014289
 30
0.0
 11
469.8075842276177
 21
218.69621261961
 31
0.0
  0
LINE
  5
1F7
102
{ACAD_REACTORS
330
1EE
102
}
330
1E
100
AcDbEntity
  8
STEMPEL
  6
Continuous
100
AcDbLine
 10
601.3075842276176
 20
451.5729865014296
 30
0.0
 11
601.3075842276175
 21
218.6307212052596
 31
0.0
  0
LINE
  5
1F8
102
{ACAD_REACTORS
330
1EE
102
}
330
1E
100
AcDbEntity
  8
STEMPEL
  6
Continuous
100
AcDbLine
 10
599.8075842276175
 20
451.5729865014296
 30
0.0
 11
599.8075842276176
 21
218.6962126196221
 31
0.0
  0
LINE
  5
1F9
102
{ACAD_REACTORS
330
1EE
102
}
330
1E
100
AcDbEntity
  8
STEMPEL
100
AcDbLine
 10
469.3574481899288
 20
206.6307212052474
 30
0.0
 11
600.2577202653054
 21
206.6307212052474
 31
0.0
  0
LINE
  5
1FA
330
1E
100
AcDbEntity
  8
HILF
100
AcDbLine
 10
471.3190437402476
 20
218.6307212052474
 30
0.0
 11
598.2961247149865
 21
218.6307212052475
 31
0.0
  0
LINE
  5
1FB
102
{ACAD_REACTORS
330
1EE
102
}
330
1E
100
AcDbEntity
  8
STEMPEL
100
AcDbLine
 10
468.3075842276176
 20
218.6307212052474
 30
0.0
 11
469.3574481899288
 21
206.6307212052474
 31
0.0
  0
LINE
  5
1FC
102
{ACAD_REACTORS
330
1EE
102
}
330
1E
100
AcDbEntity
  8
STEMPEL
100
AcDbLine
 10
469.8075842276177
 20
218.69621261961
 30
0.0
 11
470.8631779462438
 21
206.6307212052474
 31
0.0
  0
LINE
  5
1FD
102
{ACAD_REACTORS
330
1EE
102
}
330
1E
100
AcDbEntity
  8
STEMPEL
100
AcDbLine
 10
599.8075842276176
 20
218.6962126196221
 30
0.0
 11
598.7519905089905
 21
206.6307212052474
 31
0.0
  0
LINE
  5
1FE
102
{ACAD_REACTORS
330
1EE
102
}
330
1E
100
AcDbEntity
  8
STEMPEL
100
AcDbLine
 10
601.3075842276175
 20
218.6307212052596
 30
0.0
 11
600.2577202653054
 21
206.6307212052474
 31
0.0
  0
LINE
  5
203
330
1E
100
AcDbEntity
  8
STEMPEL
100
AcDbLine
 10
699.8075842276171
 20
482.752041548807
 30
0.0
 11
697.6862638840575
 21
480.6307212052472
 31
0.0
  0
LINE
  5
204
330
1E
100
AcDbEntity
  8
STEMPEL
100
AcDbLine
 10
699.8075842276171
 20
482.752041548807
 30
0.0
 11
697.6862638840575
 21
484.8733618923668
 31
0.0
  0
ARC
  5
205
330
1E
100
AcDbEntity
  8
STEMPEL
100
AcDbCircle
 10
693.443623196938
 20
480.6307212052473
 30
0.0
 40
3.0
100
AcDbArc
 50
45.0
 51
90.0
  0
LINE
  5
206
330
1E
100
AcDbEntity
  8
STEMPEL
100
AcDbLine
 10
697.6862638840575
 20
480.6307212052473
 30
0.0
 11
695.5649435404975
 21
482.752041548807
 31
0.0
  0
ARC
  5
207
330
1E
100
AcDbEntity
  8
STEMPEL
100
AcDbCircle
 10
693.443623196938
 20
480.6307212052473
 30
0.0
 40
6.0
100
AcDbArc
 50
45.0
 51
90.0
  0
ARC
  5
211
330
1E
100
AcDbEntity
  8
STEMPEL
100
AcDbCircle
 10
624.6506572660216
 20
480.6307212052473
 30
0.0
 40
3.0
100
AcDbArc
 50
90.0
 51
147.2999999999998
  0
LINE
  5
212
102
{ACAD_REACTORS
330
1EE
330
1ED
102
}
330
1E
100
AcDbEntity
  8
STEMPEL
100
AcDbLine
 10
610.5575842276172
 20
469.7846723442897
 30
0.0
 11
613.0821165734531
 21
468.1639513828569
 31
0.0
  0
ARC
  5
213
102
{ACAD_REACTORS
330
1ED
102
}
330
1E
100
AcDbEntity
  8
SCHRAFF
100
AcDbCircle
 10
612.2406057915077
 20
468.7041917033345
 30
0.0
 40
2.0
100
AcDbArc
 50
222.8224878140749
 51
27.29999999999825
  0
LINE
  5
214
102
{ACAD_REACTORS
330
1ED
102
}
330
1E
100
AcDbEntity
  8
STEMPEL
100
AcDbLine
 10
622.1261249201858
 20
482.2514421666803
 30
0.0
 11
613.0821165734531
 21
468.1639513828569
 31
0.0
  0
LINE
  5
215
330
1E
100
AcDbEntity
  8
STEMPEL
100
AcDbLine
 10
619.6015925743499
 20
483.8721631281132
 30
0.0
 11
610.5575842276173
 21
469.7846723442897
 31
0.0
  0
ARC
  5
216
330
1E
100
AcDbEntity
  8
STEMPEL
100
AcDbCircle
 10
624.6506572660216
 20
480.6307212052473
 30
0.0
 40
6.0
100
AcDbArc
 50
90.0
 51
147.2999999999998
  0
LINE
  5
217
102
{ACAD_REACTORS
330
1EE
102
}
330
1E
100
AcDbEntity
  8
STEMPEL
100
AcDbLine
 10
619.6015925743498
 20
483.8721631281132
 30
0.0
 11
600.6000303178909
 21
454.2741881038178
 31
0.0
  0
LINE
  5
218
330
1E
100
AcDbEntity
  8
MITTEL
100
AcDbLine
 10
534.8075842276178
 20
619.6307212052467
 30
0.0
 11
534.8075842276172
 21
449.3094293564906
 31
0.0
  0
LINE
  5
21E
330
1E
100
AcDbEntity
  8
STEMPEL
100
AcDbLine
 10
693.443623196938
 20
483.6307212052473
 30
0.0
 11
624.6506572660216
 21
483.6307212052473
 31
0.0
  0
LINE
  5
21F
330
1E
100
AcDbEntity
  8
STEMPEL
100
AcDbLine
 10
697.6862638840578
 20
480.630721205247
 30
0.0
 11
621.2908091131493
 21
480.630721205247
 31
0.0
  0
LINE
  5
220
330
1E
100
AcDbEntity
  8
STEMPEL
100
AcDbLine
 10
621.085640555166
 20
480.6307212052468
 30
0.0
 11
697.6862638840572
 21
480.6307212052465
 31
0.0
  0
LINE
  5
221
330
1E
100
AcDbEntity
  8
MITTEL
100
AcDbLine
 10
534.8075842276172
 20
430.2586996636138
 30
0.0
 11
534.8075842276171
 21
201.6307212052474
 31
0.0
  0
LINE
  5
22A
102
{ACAD_REACTORS
330
1EE
330
1ED
102
}
330
1E
100
AcDbEntity
  8
STEMPEL
100
AcDbLine
 10
459.0575842276173
 20
469.7846723442897
 30
0.0
 11
456.5330518817813
 21
468.1639513828569
 31
0.0
  0
ARC
  5
22B
102
{ACAD_REACTORS
330
1ED
102
}
330
1E
100
AcDbEntity
  8
SCHRAFF
100
AcDbCircle
 10
457.3745626637268
 20
468.7041917033345
 30
0.0
 40
2.0
100
AcDbArc
 50
152.7000000000017
 51
317.1775121859263
  0
LINE
  5
22C
102
{ACAD_REACTORS
330
1ED
102
}
330
1E
100
AcDbEntity
  8
STEMPEL
100
AcDbLine
 10
447.4890435350487
 20
482.2514421666803
 30
0.0
 11
456.5330518817813
 21
468.1639513828569
 31
0.0
  0
LINE
  5
22D
102
{ACAD_REACTORS
330
1EE
102
}
330
1E
100
AcDbEntity
  8
STEMPEL
100
AcDbLine
 10
450.0135758808847
 20
483.8721631281132
 30
0.0
 11
469.0151381373438
 21
454.2741881038172
 31
0.0
  0
ARC
  5
22E
330
1E
100
AcDbEntity
  8
STEMPEL
100
AcDbCircle
 10
444.9645111892127
 20
480.6307212052473
 30
0.0
 40
6.0
100
AcDbArc
 50
32.70000000000014
 51
90.0
  0
ARC
  5
22F
330
1E
100
AcDbEntity
  8
STEMPEL
100
AcDbCircle
 10
444.9645111892127
 20
480.6307212052473
 30
0.0
 40
3.0
100
AcDbArc
 50
32.70000000000014
 51
90.0
  0
LINE
  5
23A
330
1E
100
AcDbEntity
  8
STEMPEL
100
AcDbLine
 10
371.9289045711769
 20
480.6307212052473
 30
0.0
 11
374.0502249147369
 21
482.752041548807
 31
0.0
  0
ARC
  5
23B
330
1E
100
AcDbEntity
  8
STEMPEL
100
AcDbCircle
 10
376.1715452582964
 20
480.6307212052473
 30
0.0
 40
3.0
100
AcDbArc
 50
90.0
 51
135.0
  0
LINE
  5
23C
330
1E
100
AcDbEntity
  8
STEMPEL
100
AcDbLine
 10
369.8075842276173
 20
482.752041548807
 30
0.0
 11
371.9289045711769
 21
480.6307212052472
 31
0.0
  0
LINE
  5
23D
330
1E
100
AcDbEntity
  8
STEMPEL
100
AcDbLine
 10
369.8075842276173
 20
482.752041548807
 30
0.0
 11
371.9289045711769
 21
484.8733618923668
 31
0.0
  0
ARC
  5
23E
330
1E
100
AcDbEntity
  8
STEMPEL
100
AcDbCircle
 10
376.1715452582964
 20
480.6307212052473
 30
0.0
 40
6.0
100
AcDbArc
 50
90.0
 51
135.0
  0
LINE
  5
23F
330
1E
100
AcDbEntity
  8
STEMPEL
100
AcDbLine
 10
371.9289045711767
 20
480.630721205247
 30
0.0
 11
448.5295279000685
 21
480.630721205247
 31
0.0
  0
LINE
  5
240
330
1E
100
AcDbEntity
  8
STEMPEL
100
AcDbLine
 10
371.9289045711767
 20
480.6307212052473
 30
0.0
 11
448.5295279000683
 21
480.6307212052471
 31
0.0
  0
LINE
  5
241
330
1E
100
AcDbEntity
  8
STEMPEL
100
AcDbLine
 10
376.1715452582964
 20
483.6307212052473
 30
0.0
 11
444.9645111892127
 21
483.6307212052473
 31
0.0
  0
LINE
  5
243
330
1E
100
AcDbEntity
  8
STEMPEL
100
AcDbLine
 10
469.794891507558
 20
206.6307212052474
 30
0.0
 11
599.8202769476758
 21
206.6307212052475
 31
0.0
  0
LINE
  5
244
330
1E
100
AcDbEntity
  8
STEMPEL
100
AcDbLine
 10
459.0575842276173
 20
469.7846723442897
 30
0.0
 11
610.5575842276173
 21
469.7846723442897
 31
0.0
  0
LINE
  5
245
330
1E
100
AcDbEntity
  8
HILF
100
AcDbLine
 10
472.1646160034161
 20
452.2016774107359
 30
0.0
 11
597.4505524518183
 21
452.2016774107358
 31
0.0
  0
HATCH
  5
246
330
1E
100
AcDbEntity
  8
SCHRAFF
100
AcDbHatch
 10
0.0
 20
0.0
 30
0.0
210
0.0
220
0.0
230
1.0
  2
_USER
 70
     0
 71
     0
 91
        2
 92
        7
 72
     1
 73
     1
 93
       12
 10
444.9645111892127
 20
483.6307212052473
 42
-0.2553615373329011
 10
447.4890435350487
 20
482.2514421666803
 42
0.0
 10
456.5330518817813
 20
468.1639513828569
 42
0.0
 10
459.0575842276173
 20
469.7846723442897
 42
0.0
 10
450.0135758808847
 20
483.8721631281132
 42
0.2553615373328971
 10
444.9645111892128
 20
486.6307212052472
 42
0.0
 10
376.1715452582964
 20
486.6307212052474
 42
0.198912367379666
 10
371.9289045711769
 20
484.8733618923668
 42
0.0
 10
369.8075842276174
 20
482.7520415488069
 42
0.0
 10
371.9289045711768
 20
480.6307212052473
 42
0.0
 10
374.0502249147369
 20
482.752041548807
 42
-0.1989123673796555
 10
376.1715452582965
 20
483.6307212052473
 42
0.0
 97
        0
 92
        7
 72
     1
 73
     1
 93
       12
 10
693.443623196938
 20
483.6307212052473
 42
-0.1989123673796481
 10
695.5649435404975
 20
482.752041548807
 42
0.0
 10
697.6862638840575
 20
480.6307212052473
 42
0.0
 10
699.8075842276171
 20
482.752041548807
 42
0.0
 10
697.6862638840575
 20
484.8733618923668
 42
0.1989123673796531
 10
693.443623196938
 20
486.6307212052466
 42
0.0
 10
624.6506572660216
 20
486.6307212052467
 42
0.2553615373329152
 10
619.6015925743495
 20
483.8721631281126
 42
0.0
 10
610.5575842276171
 20
469.7846723442897
 42
0.0
 10
613.0821165734531
 20
468.1639513828569
 42
0.0
 10
622.1261249201858
 20
482.2514421666803
 42
-0.2553615373328881
 10
624.6506572660216
 20
483.6307212052473
 42
0.0
 97
        0
 75
     0
 76
     0
 52
45.0
 41
2.0
 77
     0
 78
     1
 53
45.0
 43
301.1581171154996
 44
26.50867619239079
 45
-1.414213562373094
 46
1.414213562373095
 79
     0
 47
0.3980341147123784
 98
        2
 10
413.2367410908994
 20
485.1021904566023
 10
654.2282918140856
 20
485.1021904566023
  0
TEXT
  5
247
330
1E
100
AcDbEntity
  8
TEXT
 62
     1
100
AcDbText
 10
525.0949380911398
 20
313.1120936632768
 30
0.0
 40
8.75
  1
DN125
 50
90.0
 41
0.8
  7
GREEKS
100
AcDbText
  0
LINE
  5
311
102
{ACAD_REACTORS
330
8E8
102
}
330
1E
100
AcDbEntity
  8
STEMPEL
100
AcDbLine
 10
369.8075842276173
 20
486.6307212052469
 30
0.0
 11
369.8075842276173
 21
489.6307212052469
 31
0.0
  0
LINE
  5
312
102
{ACAD_REACTORS
330
8E8
102
}
330
1E
100
AcDbEntity
  8
STEMPEL
100
AcDbLine
 10
439.8075842276173
 20
486.6307212052469
 30
0.0
 11
439.8075842276173
 21
489.6307212052469
 31
0.0
  0
LINE
  5
313
102
{ACAD_REACTORS
330
8E8
102
}
330
1E
100
AcDbEntity
  8
STEMPEL
100
AcDbLine
 10
629.8075842276173
 20
486.6307212052469
 30
0.0
 11
629.8075842276173
 21
489.6307212052469
 31
0.0
  0
LINE
  5
314
102
{ACAD_REACTORS
330
8E8
102
}
330
1E
100
AcDbEntity
  8
STEMPEL
100
AcDbLine
 10
699.8075842276173
 20
486.6307212052469
 30
0.0
 11
699.8075842276173
 21
489.6307212052469
 31
0.0
  0
LINE
  5
315
102
{ACAD_REACTORS
330
8E8
102
}
330
1E
100
AcDbEntity
  8
STEMPEL
100
AcDbLine
 10
369.8075842276173
 20
486.6307212052469
 30
0.0
 11
699.8075842276173
 21
486.6307212052469
 31
0.0
  0
LINE
  5
316
102
{ACAD_REACTORS
330
8E8
102
}
330
1E
100
AcDbEntity
  8
STEMPEL
100
AcDbLine
 10
669.8075842276173
 20
486.6307212052468
 30
0.0
 11
669.8075842276173
 21
489.6307212052469
 31
0.0
  0
LINE
  5
317
102
{ACAD_REACTORS
330
8E8
102
}
330
1E
100
AcDbEntity
  8
STEMPEL
100
AcDbLine
 10
653.8075842276173
 20
486.6307212052468
 30
0.0
 11
653.8075842276173
 21
489.6307212052469
 31
0.0
  0
LINE
  5
318
102
{ACAD_REACTORS
330
8E8
102
}
330
1E
100
AcDbEntity
  8
STEMPEL
100
AcDbLine
 10
415.8075842276173
 20
486.6307212052468
 30
0.0
 11
415.8075842276173
 21
489.6307212052469
 31
0.0
  0
LINE
  5
319
102
{ACAD_REACTORS
330
8E8
102
}
330
1E
100
AcDbEntity
  8
STEMPEL
100
AcDbLine
 10
399.8075842276173
 20
486.6307212052468
 30
0.0
 11
399.8075842276173
 21
489.6307212052469
 31
0.0
  0
LINE
  5
34E
330
1E
100
AcDbEntity
  8
STEMPEL
100
AcDbLine
 10
283.3075842276172
 20
506.6307212052467
 30
0.0
 11
281.3075842276168
 21
506.6307212052467
 31
0.0
  0
LINE
  5
34F
102
{ACAD_REACTORS
330
7A8
102
}
330
1E
100
AcDbEntity
  8
STEMPEL
100
AcDbLine
 10
273.3075842276172
 20
491.6307212052467
 30
0.0
 11
273.3075842276172
 21
506.6307212052467
 31
0.0
  0
LINE
  5
350
102
{ACAD_REACTORS
330
7A8
102
}
330
1E
100
AcDbEntity
  8
STEMPEL
100
AcDbLine
 10
283.3075842276172
 20
491.6307212052467
 30
0.0
 11
283.3075842276172
 21
506.6307212052467
 31
0.0
  0
LINE
  5
351
102
{ACAD_REACTORS
330
7A8
102
}
330
1E
100
AcDbEntity
  8
HILF
100
AcDbLine
 10
275.3075842276172
 20
497.6307212052467
 30
0.0
 11
275.3075842276172
 21
500.7307212052469
 31
0.0
  0
LINE
  5
352
102
{ACAD_REACTORS
330
7A8
102
}
330
1E
100
AcDbEntity
  8
HILF
100
AcDbLine
 10
281.3075842276172
 20
497.6307212052467
 30
0.0
 11
281.3075842276173
 21
500.7307212052466
 31
0.0
  0
LINE
  5
353
102
{ACAD_REACTORS
330
7A8
102
}
330
1E
100
AcDbEntity
  8
STEMPEL
100
AcDbLine
 10
281.3075842276172
 20
497.6307212052465
 30
0.0
 11
275.3075842276172
 21
497.6307212052467
 31
0.0
  0
LINE
  5
354
102
{ACAD_REACTORS
330
7A8
102
}
330
1E
100
AcDbEntity
  8
STEMPEL
100
AcDbLine
 10
280.3075842276172
 20
495.6307212052463
 30
0.0
 11
280.3075842276172
 21
499.7307212052469
 31
0.0
  0
LINE
  5
355
102
{ACAD_REACTORS
330
7A8
102
}
330
1E
100
AcDbEntity
  8
STEMPEL
100
AcDbLine
 10
276.3075842276172
 20
495.6307212052465
 30
0.0
 11
276.3075842276172
 21
499.7307212052469
 31
0.0
  0
LINE
  5
356
330
1E
100
AcDbEntity
  8
STEMPEL
100
AcDbLine
 10
280.3075842276172
 20
495.6307212052467
 30
0.0
 11
276.3075842276172
 21
495.6307212052467
 31
0.0
  0
LINE
  5
357
102
{ACAD_REACTORS
330
7A8
102
}
330
1E
100
AcDbEntity
  8
STEMPEL
100
AcDbLine
 10
276.3075842276172
 20
495.6307212052467
 30
0.0
 11
278.3075842276172
 21
495.0948228203844
 31
0.0
  0
LINE
  5
358
102
{ACAD_REACTORS
330
7A8
102
}
330
1E
100
AcDbEntity
  8
STEMPEL
100
AcDbLine
 10
280.3075842276172
 20
495.6307212052467
 30
0.0
 11
278.3075842276172
 21
495.0948228203844
 31
0.0
  0
LINE
  5
35B
102
{ACAD_REACTORS
330
383
102
}
330
1E
100
AcDbEntity
  8
STEMPEL
100
AcDbLine
 10
669.8075842276174
 20
489.6307212052471
 30
0.0
 11
669.8075842276173
 21
491.6307212052469
 31
0.0
  0
LINE
  5
35C
102
{ACAD_REACTORS
330
383
102
}
330
1E
100
AcDbEntity
  8
STEMPEL
100
AcDbLine
 10
653.8075842276174
 20
489.6307212052472
 30
0.0
 11
653.8075842276173
 21
491.630721205247
 31
0.0
  0
LINE
  5
35D
102
{ACAD_REACTORS
330
383
102
}
330
1E
100
AcDbEntity
  8
STEMPEL
100
AcDbLine
 10
415.8075842276172
 20
489.6307212052469
 30
0.0
 11
415.8075842276173
 21
491.6307212052467
 31
0.0
  0
LINE
  5
35E
102
{ACAD_REACTORS
330
383
102
}
330
1E
100
AcDbEntity
  8
STEMPEL
100
AcDbLine
 10
399.8075842276173
 20
489.6307212052469
 30
0.0
 11
399.8075842276173
 21
491.6307212052467
 31
0.0
  0
LINE
  5
360
102
{ACAD_REACTORS
330
383
102
}
330
1E
100
AcDbEntity
  8
STEMPEL
100
AcDbLine
 10
629.8075842276173
 20
491.6307212052469
 30
0.0
 11
629.8075842276172
 21
489.6307212052469
 31
0.0
  0
LINE
  5
361
102
{ACAD_REACTORS
330
383
102
}
330
1E
100
AcDbEntity
  8
STEMPEL
100
AcDbLine
 10
439.8075842276173
 20
491.6307212052467
 30
0.0
 11
439.8075842276173
 21
489.6307212052469
 31
0.0
  0
LINE
  5
363
102
{ACAD_REACTORS
330
7A8
330
383
102
}
330
1E
100
AcDbEntity
  8
MITTEL
100
AcDbLine
 10
278.3075842276172
 20
484.630721205247
 30
0.0
 11
278.3075842276172
 21
511.6307212052467
 31
0.0
  0
LINE
  5
364
102
{ACAD_REACTORS
330
383
102
}
330
1E
100
AcDbEntity
  8
STEMPEL
100
AcDbLine
 10
801.3075842276174
 20
489.6307212052469
 30
0.0
 11
801.3075842276172
 21
491.6307212052467
 31
0.0
  0
LINE
  5
365
102
{ACAD_REACTORS
330
383
102
}
330
1E
100
AcDbEntity
  8
STEMPEL
100
AcDbLine
 10
268.3075842276173
 20
489.6307212052469
 30
0.0
 11
268.3075842276173
 21
491.6307212052465
 31
0.0
  0
LINE
  5
366
102
{ACAD_REACTORS
330
383
102
}
330
1E
100
AcDbEntity
  8
STEMPEL
100
AcDbLine
 10
801.3075842276172
 20
491.6307212052469
 30
0.0
 11
666.8075842276173
 21
491.6307212052469
 31
0.0
  0
LINE
  5
367
102
{ACAD_REACTORS
330
8E8
330
383
102
}
330
1E
100
AcDbEntity
  8
STEMPEL
100
AcDbLine
 10
801.3075842276172
 20
489.6307212052469
 30
0.0
 11
666.8075842276173
 21
489.6307212052469
 31
0.0
  0
LINE
  5
36B
102
{ACAD_REACTORS
330
8E8
330
383
102
}
330
1E
100
AcDbEntity
  8
STEMPEL
100
AcDbLine
 10
656.8075842276174
 20
489.6307212052469
 30
0.0
 11
412.8075842276173
 21
489.6307212052469
 31
0.0
  0
LINE
  5
36C
102
{ACAD_REACTORS
330
383
102
}
330
1E
100
AcDbEntity
  8
STEMPEL
100
AcDbLine
 10
656.8075842276174
 20
491.630721205247
 30
0.0
 11
412.8075842276173
 21
491.6307212052467
 31
0.0
  0
LINE
  5
36D
102
{ACAD_REACTORS
330
8E8
330
383
102
}
330
1E
100
AcDbEntity
  8
STEMPEL
100
AcDbLine
 10
402.8075842276172
 20
489.630721205247
 30
0.0
 11
268.3075842276173
 21
489.6307212052469
 31
0.0
  0
LINE
  5
36E
102
{ACAD_REACTORS
330
7A8
330
383
102
}
330
1E
100
AcDbEntity
  8
STEMPEL
100
AcDbLine
 10
402.8075842276172
 20
491.6307212052469
 30
0.0
 11
268.3075842276173
 21
491.6307212052467
 31
0.0
  0
HATCH
  5
383
330
1E
100
AcDbEntity
  8
SCHRAFF
100
AcDbHatch
 10
0.0
 20
0.0
 30
0.0
210
0.0
220
0.0
230
1.0
  2
_USER
 70
     0
 71
     1
 91
        5
 92
        7
 72
     0
 73
     1
 93
        4
 10
669.8075842276173
 20
491.6307212052469
 10
669.8075842276175
 20
489.6307212052469
 10
801.3075842276174
 20
489.6307212052469
 10
801.3075842276174
 20
491.6307212052469
 97
        4
330
366
330
35B
330
367
330
364
 92
        7
 72
     0
 73
     1
 93
        4
 10
653.8075842276173
 20
489.6307212052469
 10
653.8075842276172
 20
491.6307212052469
 10
629.8075842276172
 20
491.6307212052469
 10
629.8075842276172
 20
489.6307212052469
 97
        4
330
36C
330
360
330
36B
330
35C
 92
        7
 72
     0
 73
     1
 93
        4
 10
415.8075842276172
 20
491.6307212052469
 10
415.8075842276172
 20
489.6307212052469
 10
439.8075842276171
 20
489.6307212052469
 10
439.8075842276174
 20
491.6307212052468
 97
        4
330
36C
330
35D
330
36B
330
361
 92
        7
 72
     0
 73
     1
 93
        4
 10
399.8075842276173
 20
489.6307212052469
 10
399.8075842276173
 20
491.6307212052469
 10
278.3075842276172
 20
491.6307212052467
 10
278.3075842276171
 20
489.6307212052469
 97
        4
330
36E
330
363
330
36D
330
35E
 92
        7
 72
     0
 73
     1
 93
        4
 10
278.3075842276172
 20
489.6307212052469
 10
278.3075842276172
 20
491.6307212052467
 10
268.3075842276173
 20
491.6307212052467
 10
268.3075842276173
 20
489.6307212052469
 97
        4
330
36E
330
365
330
36D
330
363
 75
     0
 76
     0
 52
135.0
 41
2.0
 77
     0
 78
     1
 53
135.0
 43
0.0
 44
0.0
 45
-1.414213562373095
 46
-1.414213562373094
 79
     0
 47
0.647934204438338
 98
        5
 10
726.41499027908
 20
490.7761106988673
 10
644.7281475979789
 20
490.1281750593905
 10
431.4347289896564
 20
490.7761106988673
 10
315.38755091638
 20
490.1281750593905
 10
273.8958224285497
 20
490.1281750593905
  0
HATCH
  5
69D
330
1E
100
AcDbEntity
  8
SCHRAFF
100
AcDbHatch
 10
0.0
 20
0.0
 30
0.0
210
0.0
220
0.0
230
1.0
  2
_USER
 70
     0
 71
     0
 91
        3
 92
        7
 72
     1
 73
     1
 93
       12
 10
690.5399988654602
 20
614.6307212052468
 42
0.0
 10
534.8075842276172
 20
614.6307212052465
 42
0.0
 10
534.8075842276172
 20
613.1307212052468
 42
0.0
 10
690.5399988654602
 20
613.1307212052468
 42
-0.4142135623731006
 10
774.0399988654604
 20
529.6307212052457
 42
0.0
 10
774.0399988654603
 20
513.1307212052468
 42
0.4142135623730992
 10
780.5399988654603
 20
506.6307212052467
 42
0.0
 10
801.3075842276172
 20
506.6307212052466
 42
0.0
 10
801.3075842276172
 20
508.1307212052466
 42
0.0
 10
780.5399988654603
 20
508.1307212052467
 42
-0.4142135623730926
 10
775.5399988654603
 20
513.1307212052468
 42
0.0
 10
775.5399988654605
 20
529.6307212052457
 42
0.4142135623731005
 97
        0
 92
        7
 72
     1
 73
     1
 93
       12
 10
534.8075842276172
 20
614.6307212052468
 42
0.0
 10
379.0751695897741
 20
614.6307212052465
 42
0.4142135623730948
 10
294.0751695897742
 20
529.6307212052465
 42
0.0
 10
294.0751695897742
 20
513.1307212052468
 42
-0.4142135623730959
 10
289.0751695897742
 20
508.1307212052467
 42
0.0
 10
281.8075842276172
 20
508.1307212052467
 42
0.0
 10
281.8075842276173
 20
506.6307212052467
 42
0.0
 10
289.0751695897742
 20
506.6307212052467
 42
0.4142135623730951
 10
295.5751695897742
 20
513.1307212052468
 42
0.0
 10
295.5751695897742
 20
529.6307212052465
 42
-0.4142135623730948
 10
379.0751695897741
 20
613.1307212052465
 42
0.0
 10
534.8075842276172
 20
613.1307212052465
 42
0.0
 97
        0
 92
        7
 72
     0
 73
     1
 93
        4
 10
274.8075842276173
 20
508.1307212052467
 10
268.3075842276172
 20
508.1307212052467
 10
268.3075842276172
 20
506.6307212052466
 10
274.8075842276173
 20
506.6307212052466
 97
        0
 75
     0
 76
     0
 52
135.0
 41
2.0
 77
     0
 78
     1
 53
135.0
 43
0.0
 44
0.0
 45
-1.414213562373095
 46
-1.414213562373094
 79
     0
 47
0.5960970483037999
 98
        3
 10
626.3235352606199
 20
614.0351060973337
 10
504.6466686815084
 20
613.4390091290249
 10
271.4326686381829
 20
507.3337339521323
  0
ARC
  5
69E
330
1E
100
AcDbEntity
  8
STEMPEL
100
AcDbCircle
 10
289.0751695897742
 20
513.1307212052468
 30
0.0
 40
6.5
100
AcDbArc
 50
270.0
 51
0.0
  0
LINE
  5
69F
330
1E
100
AcDbEntity
  8
STEMPEL
100
AcDbLine
 10
295.5751695897742
 20
513.1307212052468
 30
0.0
 11
295.5751695897742
 21
529.6307212052465
 31
0.0
  0
ARC
  5
6A0
330
1E
100
AcDbEntity
  8
STEMPEL
100
AcDbCircle
 10
289.0751695897742
 20
513.1307212052468
 30
0.0
 40
5.0
100
AcDbArc
 50
270.0
 51
0.0
  0
ARC
  5
6A1
330
1E
100
AcDbEntity
  8
STEMPEL
100
AcDbCircle
 10
379.0751695897742
 20
529.6307212052465
 30
0.0
 40
83.49999999999999
100
AcDbArc
 50
90.0
 51
180.0
  0
LINE
  5
6A2
330
1E
100
AcDbEntity
  8
STEMPEL
100
AcDbLine
 10
379.0751695897741
 20
613.1307212052465
 30
0.0
 11
690.5399988654602
 21
613.1307212052468
 31
0.0
  0
ARC
  5
6A3
330
1E
100
AcDbEntity
  8
STEMPEL
100
AcDbCircle
 10
690.5399988654603
 20
529.6307212052463
 30
0.0
 40
83.49999999999999
100
AcDbArc
 50
0.0
 51
90.0
  0
LINE
  5
6A4
330
1E
100
AcDbEntity
  8
STEMPEL
100
AcDbLine
 10
774.0399988654603
 20
513.1307212052468
 30
0.0
 11
774.0399988654604
 21
529.6307212052457
 31
0.0
  0
ARC
  5
6A5
330
1E
100
AcDbEntity
  8
STEMPEL
100
AcDbCircle
 10
780.5399988654603
 20
513.1307212052468
 30
0.0
 40
6.5
100
AcDbArc
 50
180.0
 51
270.0
  0
ARC
  5
6A6
330
1E
100
AcDbEntity
  8
STEMPEL
100
AcDbCircle
 10
780.5399988654603
 20
513.1307212052468
 30
0.0
 40
5.0
100
AcDbArc
 50
180.0
 51
270.0
  0
LINE
  5
6A7
330
1E
100
AcDbEntity
  8
STEMPEL
100
AcDbLine
 10
733.94731592408
 20
508.1307212052468
 30
0.0
 11
740.2952349955498
 21
508.1307212052468
 31
0.0
  0
LINE
  5
6A8
330
1E
100
AcDbEntity
  8
STEMPEL
100
AcDbLine
 10
749.3297032299275
 20
508.1307212052468
 30
0.0
 11
753.9058522385825
 21
508.1307212052467
 31
0.0
  0
LINE
  5
6A9
330
1E
100
AcDbEntity
  8
STEMPEL
100
AcDbLine
 10
761.3289485698056
 20
508.1307212052467
 30
0.0
 11
764.0611589121212
 21
508.1307212052467
 31
0.0
  0
LINE
  5
6AA
330
1E
100
AcDbEntity
  8
STEMPEL
100
AcDbLine
 10
769.7558166767037
 20
508.1307212052468
 30
0.0
 11
770.6009997634379
 21
508.1307212052467
 31
0.0
  0
LINE
  5
6AB
330
1E
100
AcDbEntity
  8
STEMPEL
100
AcDbLine
 10
780.5399988654603
 20
508.1307212052467
 30
0.0
 11
801.3075842276172
 21
508.1307212052467
 31
0.0
  0
LINE
  5
6AC
330
1E
100
AcDbEntity
  8
STEMPEL
100
AcDbLine
 10
655.078676954866
 20
508.1307212052467
 30
0.0
 11
656.333332928558
 21
508.1307212052466
 31
0.0
  0
LINE
  5
6AD
330
1E
100
AcDbEntity
  8
STEMPEL
100
AcDbLine
 10
694.0530015511638
 20
508.1307212052465
 30
0.0
 11
703.6177662505137
 21
508.1307212052467
 31
0.0
  0
LINE
  5
6AE
330
1E
100
AcDbEntity
  8
STEMPEL
100
AcDbLine
 10
715.4243760890702
 20
508.1307212052467
 30
0.0
 11
723.4439547475341
 21
508.1307212052468
 31
0.0
  0
LINE
  5
6B0
330
1E
100
AcDbEntity
  8
STEMPEL
100
AcDbLine
 10
616.4107542510979
 20
508.1307212052464
 30
0.0
 11
629.6207918634614
 21
508.1307212052465
 31
0.0
  0
LINE
  5
6B1
330
1E
100
AcDbEntity
  8
STEMPEL
100
AcDbLine
 10
587.3818658194223
 20
508.1307212052464
 30
0.0
 11
593.3075842276173
 21
508.1307212052464
 31
0.0
  0
LINE
  5
6B2
330
1E
100
AcDbEntity
  8
STEMPEL
100
AcDbLine
 10
557.5238495606908
 20
508.1307212052463
 30
0.0
 11
572.1523427456048
 21
508.1307212052463
 31
0.0
  0
LINE
  5
6B3
330
1E
100
AcDbEntity
  8
STEMPEL
100
AcDbLine
 10
527.3100515071587
 20
508.1307212052461
 30
0.0
 11
542.3051169480744
 21
508.1307212052463
 31
0.0
  0
LINE
  5
6B4
330
1E
100
AcDbEntity
  8
STEMPEL
100
AcDbLine
 10
497.4628257096295
 20
508.130721205246
 30
0.0
 11
512.0913188945437
 21
508.130721205246
 31
0.0
  0
LINE
  5
6B5
330
1E
100
AcDbEntity
  8
STEMPEL
100
AcDbLine
 10
445.5795694393342
 20
508.1307212052463
 30
0.0
 11
453.2044142041365
 21
508.1307212052464
 31
0.0
  0
LINE
  5
6B6
330
1E
100
AcDbEntity
  8
STEMPEL
100
AcDbLine
 10
476.3075842276176
 20
508.1307212052463
 30
0.0
 11
482.2333026358121
 21
508.1307212052463
 31
0.0
  0
LINE
  5
6B7
330
1E
100
AcDbEntity
  8
STEMPEL
100
AcDbLine
 10
413.2818355266762
 20
508.1307212052462
 30
0.0
 11
425.4624565111022
 21
508.1307212052464
 31
0.0
  0
LINE
  5
6B8
330
1E
100
AcDbEntity
  8
STEMPEL
100
AcDbLine
 10
365.9974022047209
 20
508.1307212052465
 30
0.0
 11
375.5621669040705
 21
508.1307212052464
 31
0.0
  0
LINE
  5
6B9
330
1E
100
AcDbEntity
  8
STEMPEL
100
AcDbLine
 10
388.485828114557
 20
508.1307212052465
 30
0.0
 11
399.4449368017705
 21
508.1307212052464
 31
0.0
  0
LINE
  5
6BA
330
1E
100
AcDbEntity
  8
STEMPEL
100
AcDbLine
 10
329.3199334596848
 20
508.1307212052464
 30
0.0
 11
335.6678525311543
 21
508.1307212052465
 31
0.0
  0
LINE
  5
6BB
330
1E
100
AcDbEntity
  8
STEMPEL
100
AcDbLine
 10
346.1712137077005
 20
508.1307212052465
 30
0.0
 11
354.1907923661643
 21
508.1307212052464
 31
0.0
  0
LINE
  5
6BC
330
1E
100
AcDbEntity
  8
STEMPEL
100
AcDbLine
 10
299.0141686917965
 20
508.1307212052466
 30
0.0
 11
299.8593517785307
 21
508.1307212052467
 31
0.0
  0
LINE
  5
6BD
330
1E
100
AcDbEntity
  8
STEMPEL
100
AcDbLine
 10
305.5540095431132
 20
508.1307212052468
 30
0.0
 11
308.2862198854289
 21
508.1307212052467
 31
0.0
  0
LINE
  5
6BE
330
1E
100
AcDbEntity
  8
STEMPEL
100
AcDbLine
 10
315.7093162166519
 20
508.1307212052466
 30
0.0
 11
320.2854652253071
 21
508.1307212052464
 31
0.0
  0
LINE
  5
6BF
330
1E
100
AcDbEntity
  8
STEMPEL
100
AcDbLine
 10
268.3075842276172
 20
508.1307212052467
 30
0.0
 11
289.0751695897742
 21
508.1307212052467
 31
0.0
  0
LINE
  5
6C0
330
1E
100
AcDbEntity
  8
STEMPEL
100
AcDbLine
 10
557.2755178744997
 20
506.6307212052467
 30
0.0
 11
557.2755178744997
 21
519.1307212052465
 31
0.0
  0
LINE
  5
6C1
330
1E
100
AcDbEntity
  8
STEMPEL
100
AcDbLine
 10
572.1523427456048
 20
506.6307212052466
 30
0.0
 11
572.1523427456048
 21
519.1307212052465
 31
0.0
  0
ELLIPSE
  5
6C2
330
1E
100
AcDbEntity
  8
STEMPEL
100
AcDbEllipse
 10
564.7139303100524
 20
519.1307212052465
 30
0.0
 11
0.0000000000000075
 21
7.5
 31
0.0
210
0.0
220
0.0
230
-1.0
 40
0.9917883247403398
 41
4.712388980384689
 42
6.283185307179586
  0
ELLIPSE
  5
6C3
330
1E
100
AcDbEntity
  8
STEMPEL
100
AcDbEllipse
 10
564.7139303100524
 20
519.1307212052465
 30
0.0
 11
0.0000000000000075
 21
7.5
 31
0.0
210
0.0
220
0.0
230
-1.0
 40
0.9917883247403398
 41
0.0
 42
1.570796326794896
  0
LINE
  5
6C4
330
1E
100
AcDbEntity
  8
STEMPEL
100
AcDbLine
 10
557.5238495606908
 20
506.6307212052467
 30
0.0
 11
557.5238495606908
 21
519.1307212052468
 31
0.0
  0
ELLIPSE
  5
6C5
330
1E
100
AcDbEntity
  8
STEMPEL
100
AcDbEllipse
 10
564.9647098205494
 20
519.1307212052465
 30
0.0
 11
0.0000000000000075
 21
7.499999999999886
 31
0.0
210
0.0
220
0.0
230
-1.0
 40
0.992114701314502
 41
4.712388980384689
 42
6.266330223589886
  0
LINE
  5
6C6
330
1E
100
AcDbEntity
  8
STEMPEL
100
AcDbLine
 10
586.8842424583529
 20
506.6307212052466
 30
0.0
 11
586.8842424583529
 21
519.1307212052465
 31
0.0
  0
LINE
  5
6C7
330
1E
100
AcDbEntity
  8
STEMPEL
100
AcDbLine
 10
601.4129898752825
 20
511.6307212052484
 30
0.0
 11
601.4129898752823
 21
519.1307212052465
 31
0.0
  0
ELLIPSE
  5
6C8
330
1E
100
AcDbEntity
  8
STEMPEL
100
AcDbEllipse
 10
594.1486161668177
 20
519.1307212052465
 30
0.0
 11
0.0000000000000075
 21
7.5
 31
0.0
210
0.0
220
0.0
230
-1.0
 40
0.9685831611286403
 41
4.712388980384689
 42
6.283185307179586
  0
ELLIPSE
  5
6C9
330
1E
100
AcDbEntity
  8
STEMPEL
100
AcDbEllipse
 10
594.1486161668177
 20
519.1307212052465
 30
0.0
 11
0.0000000000000075
 21
7.5
 31
0.0
210
0.0
220
0.0
230
-1.0
 40
0.9685831611286252
 41
0.0
 42
1.570796326794896
  0
LINE
  5
6CA
330
1E
100
AcDbEntity
  8
STEMPEL
100
AcDbLine
 10
587.3818658194223
 20
506.6307212052466
 30
0.0
 11
587.3818658194223
 21
519.1307212052465
 31
0.0
  0
ELLIPSE
  5
6CB
330
1E
100
AcDbEntity
  8
STEMPEL
100
AcDbEllipse
 10
594.6462395278872
 20
519.1307212052465
 30
0.0
 11
0.0000000000000075
 21
7.500000000000113
 31
0.0
210
0.0
220
0.0
230
-1.0
 40
0.9685831611286255
 41
4.712388980384689
 42
6.248927659625682
  0
LINE
  5
6CC
330
1E
100
AcDbEntity
  8
STEMPEL
100
AcDbLine
 10
615.6741445751374
 20
506.6307212052466
 30
0.0
 11
615.6741445751375
 21
519.1307212052468
 31
0.0
  0
LINE
  5
6CD
330
1E
100
AcDbEntity
  8
STEMPEL
100
AcDbLine
 10
629.6207918634612
 20
506.6307212052466
 30
0.0
 11
629.6207918634612
 21
519.1307212052465
 31
0.0
  0
ELLIPSE
  5
6CE
330
1E
100
AcDbEntity
  8
STEMPEL
100
AcDbEllipse
 10
622.6474682192994
 20
519.1307212052465
 30
0.0
 11
0.0000000000000075
 21
7.5
 31
0.0
210
0.0
220
0.0
230
-1.0
 40
0.9297764858882487
 41
4.712388980384689
 42
7.853981633974482
  0
LINE
  5
6CF
330
1E
100
AcDbEntity
  8
STEMPEL
100
AcDbLine
 10
616.4107542510979
 20
506.6307212052466
 30
0.0
 11
616.4107542510979
 21
519.1307212052465
 31
0.0
  0
ELLIPSE
  5
6D0
330
1E
100
AcDbEntity
  8
STEMPEL
100
AcDbEllipse
 10
623.3840778952598
 20
519.1307212052465
 30
0.0
 11
0.0000000000000075
 21
7.5
 31
0.0
210
0.0
220
0.0
230
-1.0
 40
0.9297764858882564
 41
4.712388980384689
 42
6.230344465905976
  0
LINE
  5
6D1
330
1E
100
AcDbEntity
  8
STEMPEL
100
AcDbLine
 10
643.1887327279001
 20
511.6307212052465
 30
0.0
 11
643.1887327279
 21
519.1307212052465
 31
0.0
  0
LINE
  5
6D2
330
1E
100
AcDbEntity
  8
STEMPEL
100
AcDbLine
 10
656.3333329285578
 20
507.630721205247
 30
0.0
 11
656.333332928558
 21
519.1307212052465
 31
0.0
  0
ELLIPSE
  5
6D3
330
1E
100
AcDbEntity
  8
STEMPEL
100
AcDbEllipse
 10
649.7610328282291
 20
519.1307212052465
 30
0.0
 11
0.0000000000000075
 21
7.5
 31
0.0
210
0.0
220
0.0
230
-1.0
 40
0.876306680043865
 41
4.712388980384689
 42
7.853981633974482
  0
LINE
  5
6D4
330
1E
100
AcDbEntity
  8
STEMPEL
100
AcDbLine
 10
644.152711944132
 20
511.6307212052465
 30
0.0
 11
644.1527119441322
 21
519.1307212052465
 31
0.0
  0
ELLIPSE
  5
6D5
330
1E
100
AcDbEntity
  8
STEMPEL
100
AcDbEllipse
 10
650.7250120444612
 20
519.1307212052465
 30
0.0
 11
0.0000000000000075
 21
7.5
 31
0.0
210
0.0
220
0.0
230
-1.0
 40
0.876306680043865
 41
4.712388980384689
 42
6.209782892077458
  0
LINE
  5
6D6
330
1E
100
AcDbEntity
  8
STEMPEL
100
AcDbLine
 10
668.9940854250529
 20
507.630721205247
 30
0.0
 11
668.9940854250531
 21
519.1307212052465
 31
0.0
  0
LINE
  5
6D7
330
1E
100
AcDbEntity
  8
STEMPEL
100
AcDbLine
 10
681.1293403406774
 20
506.6307212052463
 30
0.0
 11
681.1293403406774
 21
519.1307212052465
 31
0.0
  0
ELLIPSE
  5
6D8
330
1E
100
AcDbEntity
  8
STEMPEL
100
AcDbEllipse
 10
675.0617128828653
 20
519.1307212052465
 30
0.0
 11
0.0000000000000075
 21
7.5
 31
0.0
210
0.0
220
0.0
230
-1.0
 40
0.8090169943749629
 41
4.712388980384689
 42
7.853981633974482
  0
ELLIPSE
  5
6D9
330
1E
100
AcDbEntity
  8
STEMPEL
100
AcDbEllipse
 10
676.2378591112762
 20
519.1307212052465
 30
0.0
 11
0.0000000000000075
 21
7.5
 31
0.0
210
0.0
220
0.0
230
-1.0
 40
0.8090169943749629
 41
4.712388980384689
 42
6.186113147778332
  0
LINE
  5
6DA
330
1E
100
AcDbEntity
  8
STEMPEL
100
AcDbLine
 10
670.1702316534638
 20
507.3995755241386
 30
0.0
 11
670.1702316534639
 21
519.1307212052465
 31
0.0
  0
LINE
  5
6DB
330
1E
100
AcDbEntity
  8
STEMPEL
100
AcDbLine
 10
692.6832368391923
 20
506.6307212052465
 30
0.0
 11
692.6832368391924
 21
519.1307212052463
 31
0.0
  0
LINE
  5
6DC
330
1E
100
AcDbEntity
  8
STEMPEL
100
AcDbLine
 10
703.6177662505137
 20
506.6307212052465
 30
0.0
 11
703.6177662505137
 21
519.1307212052465
 31
0.0
  0
ELLIPSE
  5
6DD
330
1E
100
AcDbEntity
  8
STEMPEL
100
AcDbEllipse
 10
698.1505015448529
 20
519.1307212052465
 30
0.0
 11
0.0000000000000075
 21
7.5
 31
0.0
210
0.0
220
0.0
230
-1.0
 40
0.7289686274214167
 41
4.712388980384689
 42
7.853981633974482
  0
LINE
  5
6DE
330
1E
100
AcDbEntity
  8
STEMPEL
100
AcDbLine
 10
694.0530015511638
 20
506.6307212052463
 30
0.0
 11
694.0530015511638
 21
519.1307212052463
 31
0.0
  0
ELLIPSE
  5
6DF
330
1E
100
AcDbEntity
  8
STEMPEL
100
AcDbEllipse
 10
699.5202662568246
 20
519.1307212052463
 30
0.0
 11
0.0000000000000075
 21
7.5
 31
0.0
210
0.0
220
0.0
230
-1.0
 40
0.7289686274214167
 41
4.712388980384689
 42
6.15758568604169
  0
LINE
  5
6E0
330
1E
100
AcDbEntity
  8
STEMPEL
100
AcDbLine
 10
713.8825949013035
 20
506.6307212052465
 30
0.0
 11
713.8825949013035
 21
519.1307212052463
 31
0.0
  0
LINE
  5
6E1
330
1E
100
AcDbEntity
  8
STEMPEL
100
AcDbLine
 10
723.4439547475339
 20
506.6307212052465
 30
0.0
 11
723.4439547475339
 21
519.1307212052465
 31
0.0
  0
ELLIPSE
  5
6E2
330
1E
100
AcDbEntity
  8
STEMPEL
100
AcDbEllipse
 10
718.6632748244188
 20
519.1307212052465
 30
0.0
 11
0.0000000000000075
 21
7.5
 31
0.0
210
0.0
220
0.0
230
-1.0
 40
0.637423989748703
 41
4.712388980384689
 42
7.853981633974482
  0
ELLIPSE
  5
6E3
330
1E
100
AcDbEntity
  8
STEMPEL
100
AcDbEllipse
 10
720.2050560121855
 20
518.7299858172361
 30
0.0
 11
0.0000000000000075
 21
7.5
 31
0.0
210
0.0
220
0.0
230
-1.0
 40
0.637423989748703
 41
4.712388980384689
 42
6.283185307179586
  0
LINE
  5
6E4
330
1E
100
AcDbEntity
  8
STEMPEL
100
AcDbLine
 10
715.4243760890702
 20
506.6307212052467
 30
0.0
 11
715.4243760890702
 21
518.7299858172359
 31
0.0
  0
LINE
  5
6E5
330
1E
100
AcDbEntity
  8
STEMPEL
100
AcDbLine
 10
732.2578330708646
 20
506.6307212052466
 30
0.0
 11
732.2578330708648
 21
519.1307212052465
 31
0.0
  0
ELLIPSE
  5
6E6
330
1E
100
AcDbEntity
  8
STEMPEL
100
AcDbEllipse
 10
736.2765340332072
 20
519.1307212052465
 30
0.0
 11
0.0000000000000075
 21
7.5
 31
0.0
210
0.0
220
0.0
230
-1.0
 40
0.5358267949789991
 41
4.712388980384689
 42
7.853981633974482
  0
LINE
  5
6E7
330
1E
100
AcDbEntity
  8
STEMPEL
100
AcDbLine
 10
740.2952349955496
 20
506.6307212052463
 30
0.0
 11
740.2952349955496
 21
519.1307212052463
 31
0.0
  0
ELLIPSE
  5
6E8
330
1E
100
AcDbEntity
  8
STEMPEL
100
AcDbEllipse
 10
737.9660168864226
 20
519.1307212052465
 30
0.0
 11
0.0000000000000075
 21
7.5
 31
0.0
210
0.0
220
0.0
230
-1.0
 40
0.5358267949789991
 41
4.712388980384689
 42
6.071403112986319
  0
LINE
  5
6E9
330
1E
100
AcDbEntity
  8
STEMPEL
100
AcDbLine
 10
733.9473159240801
 20
506.6307212052466
 30
0.0
 11
733.9473159240801
 21
519.1307212052465
 31
0.0
  0
LINE
  5
6EA
330
1E
100
AcDbEntity
  8
STEMPEL
100
AcDbLine
 10
747.5191628651065
 20
506.6307212052465
 30
0.0
 11
747.5191628651065
 21
519.1307212052465
 31
0.0
  0
LINE
  5
6EB
330
1E
100
AcDbEntity
  8
STEMPEL
100
AcDbLine
 10
753.9058522385825
 20
506.6307212052463
 30
0.0
 11
753.9058522385825
 21
519.1307212052463
 31
0.0
  0
ELLIPSE
  5
6EC
330
1E
100
AcDbEntity
  8
STEMPEL
100
AcDbEllipse
 10
750.7125075518445
 20
519.1307212052465
 30
0.0
 11
0.0000000000000075
 21
7.5
 31
0.0
210
0.0
220
0.0
230
-1.0
 40
0.4257792915650669
 41
4.712388980384689
 42
7.853981633974482
  0
ELLIPSE
  5
6ED
330
1E
100
AcDbEntity
  8
STEMPEL
100
AcDbEllipse
 10
752.5230479166654
 20
519.1307212052465
 30
0.0
 11
0.0000000000000075
 21
7.5
 31
0.0
210
0.0
220
0.0
230
-1.0
 40
0.4257792915650669
 41
4.712388980384689
 42
5.995757469465124
  0
LINE
  5
6EE
330
1E
100
AcDbEntity
  8
STEMPEL
100
AcDbLine
 10
749.3297032299274
 20
506.6307212052465
 30
0.0
 11
749.3297032299274
 21
519.1307212052465
 31
0.0
  0
LINE
  5
6EF
330
1E
100
AcDbEntity
  8
STEMPEL
100
AcDbLine
 10
759.425903996497
 20
506.6307212052465
 30
0.0
 11
759.425903996497
 21
519.1307212052463
 31
0.0
  0
LINE
  5
6F0
330
1E
100
AcDbEntity
  8
STEMPEL
100
AcDbLine
 10
764.0611589121212
 20
506.6307212052463
 30
0.0
 11
764.0611589121212
 21
519.1307212052465
 31
0.0
  0
ELLIPSE
  5
6F1
330
1E
100
AcDbEntity
  8
STEMPEL
100
AcDbEllipse
 10
761.7435314543091
 20
519.1307212052465
 30
0.0
 11
0.0000000000000075
 21
7.5
 31
0.0
210
0.0
220
0.0
230
-1.0
 40
0.3090169943749496
 41
4.712388980384689
 42
7.853981633974482
  0
ELLIPSE
  5
6F2
330
1E
100
AcDbEntity
  8
STEMPEL
100
AcDbEllipse
 10
763.6465760276178
 20
519.1307212052465
 30
0.0
 11
0.0000000000000075
 21
7.5
 31
0.0
210
0.0
220
0.0
230
-1.0
 40
0.3090169943749496
 41
4.712388980384689
 42
5.860118527714176
  0
LINE
  5
6F3
330
1E
100
AcDbEntity
  8
STEMPEL
100
AcDbLine
 10
761.3289485698056
 20
506.6307212052465
 30
0.0
 11
761.3289485698056
 21
519.1307212052463
 31
0.0
  0
LINE
  5
6F4
330
1E
100
AcDbEntity
  8
STEMPEL
100
AcDbLine
 10
767.7902800446521
 20
506.6307212052465
 30
0.0
 11
767.7902800446522
 21
519.1307212052463
 31
0.0
  0
LINE
  5
6F5
330
1E
100
AcDbEntity
  8
STEMPEL
100
AcDbLine
 10
770.600999763438
 20
506.6307212052463
 30
0.0
 11
770.600999763438
 21
519.1307212052463
 31
0.0
  0
ELLIPSE
  5
6F6
330
1E
100
AcDbEntity
  8
STEMPEL
100
AcDbEllipse
 10
769.1956399040451
 20
519.1307212052465
 30
0.0
 11
0.0000000000000075
 21
7.5
 31
0.0
210
0.0
220
0.0
230
-1.0
 40
0.1873813145857222
 41
4.712388980384689
 42
7.853981633974482
  0
ELLIPSE
  5
6F7
330
1E
100
AcDbEntity
  8
STEMPEL
100
AcDbEllipse
 10
771.1611765360966
 20
519.1307212052465
 30
0.0
 11
0.0000000000000075
 21
7.5
 31
0.0
210
0.0
220
0.0
230
-1.0
 40
0.1873813145857222
 41
4.712388980384689
 42
5.508767370765571
  0
LINE
  5
6F8
330
1E
100
AcDbEntity
  8
STEMPEL
100
AcDbLine
 10
769.7558166767037
 20
506.6307212052465
 30
0.0
 11
769.7558166767037
 21
519.1307212052463
 31
0.0
  0
LINE
  5
6F9
330
1E
100
AcDbEntity
  8
STEMPEL
100
AcDbLine
 10
772.4803798026563
 20
506.6307212052465
 30
0.0
 11
772.4803798026563
 21
519.1307212052465
 31
0.0
  0
LINE
  5
6FA
330
1E
100
AcDbEntity
  8
STEMPEL
100
AcDbLine
 10
773.4222375955961
 20
506.6307212052465
 30
0.0
 11
773.4222375955961
 21
519.1307212052465
 31
0.0
  0
ELLIPSE
  5
6FB
330
1E
100
AcDbEntity
  8
STEMPEL
100
AcDbEllipse
 10
772.9513086991262
 20
519.1307212052465
 30
0.0
 11
0.0000000000000075
 21
7.5
 31
0.0
210
0.0
220
0.0
230
-1.0
 40
0.06279051952932
 41
4.712388980384689
 42
7.853981633974482
  0
ELLIPSE
  5
6FC
330
1E
100
AcDbEntity
  8
STEMPEL
100
AcDbEllipse
 10
296.6638597561082
 20
519.1307212052468
 30
0.0
 11
0.0
 21
7.5
 31
0.0
210
0.0
220
0.0
230
1.0
 40
0.06279051952932
 41
4.712388980384689
 42
7.853981633974482
  0
LINE
  5
6FD
330
1E
100
AcDbEntity
  8
STEMPEL
100
AcDbLine
 10
296.1929308596384
 20
506.6307212052467
 30
0.0
 11
296.1929308596384
 21
519.1307212052468
 31
0.0
  0
LINE
  5
6FE
330
1E
100
AcDbEntity
  8
STEMPEL
100
AcDbLine
 10
297.1347886525781
 20
506.6307212052467
 30
0.0
 11
297.1347886525781
 21
519.1307212052468
 31
0.0
  0
LINE
  5
6FF
330
1E
100
AcDbEntity
  8
STEMPEL
100
AcDbLine
 10
299.8593517785307
 20
506.6307212052467
 30
0.0
 11
299.8593517785307
 21
519.1307212052465
 31
0.0
  0
ELLIPSE
  5
700
330
1E
100
AcDbEntity
  8
STEMPEL
100
AcDbEllipse
 10
298.4539919191378
 20
519.1307212052468
 30
0.0
 11
0.0
 21
7.5
 31
0.0
210
0.0
220
0.0
230
1.0
 40
0.1873813145857222
 41
4.712388980384689
 42
5.508767370765571
  0
ELLIPSE
  5
701
330
1E
100
AcDbEntity
  8
STEMPEL
100
AcDbEllipse
 10
300.4195285511894
 20
519.1307212052468
 30
0.0
 11
0.0
 21
7.5
 31
0.0
210
0.0
220
0.0
230
1.0
 40
0.1873813145857222
 41
4.712388980384689
 42
7.853981633974482
  0
LINE
  5
702
330
1E
100
AcDbEntity
  8
STEMPEL
100
AcDbLine
 10
299.0141686917965
 20
506.6307212052466
 30
0.0
 11
299.0141686917965
 21
519.1307212052465
 31
0.0
  0
LINE
  5
703
330
1E
100
AcDbEntity
  8
STEMPEL
100
AcDbLine
 10
301.8248884105823
 20
506.6307212052467
 30
0.0
 11
301.8248884105823
 21
519.1307212052465
 31
0.0
  0
LINE
  5
704
330
1E
100
AcDbEntity
  8
STEMPEL
100
AcDbLine
 10
308.2862198854289
 20
506.6307212052467
 30
0.0
 11
308.2862198854289
 21
519.1307212052465
 31
0.0
  0
ELLIPSE
  5
705
330
1E
100
AcDbEntity
  8
STEMPEL
100
AcDbEllipse
 10
305.9685924276167
 20
519.1307212052468
 30
0.0
 11
0.0
 21
7.5
 31
0.0
210
0.0
220
0.0
230
1.0
 40
0.3090169943749496
 41
4.712388980384689
 42
5.860118527714176
  0
ELLIPSE
  5
706
330
1E
100
AcDbEntity
  8
STEMPEL
100
AcDbEllipse
 10
307.8716370009253
 20
519.1307212052468
 30
0.0
 11
0.0
 21
7.5
 31
0.0
210
0.0
220
0.0
230
1.0
 40
0.3090169943749496
 41
4.712388980384689
 42
7.853981633974482
  0
LINE
  5
707
330
1E
100
AcDbEntity
  8
STEMPEL
100
AcDbLine
 10
305.5540095431132
 20
506.6307212052466
 30
0.0
 11
305.5540095431132
 21
519.1307212052468
 31
0.0
  0
LINE
  5
708
330
1E
100
AcDbEntity
  8
STEMPEL
100
AcDbLine
 10
310.1892644587374
 20
506.6307212052467
 30
0.0
 11
310.1892644587374
 21
519.1307212052465
 31
0.0
  0
LINE
  5
709
330
1E
100
AcDbEntity
  8
STEMPEL
100
AcDbLine
 10
320.2854652253071
 20
506.6307212052467
 30
0.0
 11
320.2854652253071
 21
519.1307212052468
 31
0.0
  0
ELLIPSE
  5
70A
330
1E
100
AcDbEntity
  8
STEMPEL
100
AcDbEllipse
 10
317.0921205385691
 20
519.1307212052468
 30
0.0
 11
0.0
 21
7.5
 31
0.0
210
0.0
220
0.0
230
1.0
 40
0.4257792915650669
 41
4.712388980384689
 42
5.995757469465124
  0
ELLIPSE
  5
70B
330
1E
100
AcDbEntity
  8
STEMPEL
100
AcDbEllipse
 10
318.90266090339
 20
519.1307212052468
 30
0.0
 11
0.0
 21
7.5
 31
0.0
210
0.0
220
0.0
230
1.0
 40
0.4257792915650669
 41
4.712388980384689
 42
7.853981633974482
  0
LINE
  5
70C
330
1E
100
AcDbEntity
  8
STEMPEL
100
AcDbLine
 10
315.7093162166519
 20
506.6307212052466
 30
0.0
 11
315.7093162166519
 21
519.1307212052465
 31
0.0
  0
LINE
  5
70D
330
1E
100
AcDbEntity
  8
STEMPEL
100
AcDbLine
 10
322.096005590128
 20
506.6307212052467
 30
0.0
 11
322.096005590128
 21
519.1307212052468
 31
0.0
  0
LINE
  5
70E
330
1E
100
AcDbEntity
  8
STEMPEL
100
AcDbLine
 10
335.6678525311543
 20
506.6307212052469
 30
0.0
 11
335.6678525311543
 21
519.1307212052468
 31
0.0
  0
ELLIPSE
  5
70F
330
1E
100
AcDbEntity
  8
STEMPEL
100
AcDbEllipse
 10
331.6491515688118
 20
519.1307212052468
 30
0.0
 11
0.0
 21
7.5
 31
0.0
210
0.0
220
0.0
230
1.0
 40
0.5358267949789991
 41
4.712388980384689
 42
6.071403112986319
  0
LINE
  5
710
330
1E
100
AcDbEntity
  8
STEMPEL
100
AcDbLine
 10
329.3199334596848
 20
506.6307212052466
 30
0.0
 11
329.3199334596848
 21
519.1307212052465
 31
0.0
  0
ELLIPSE
  5
711
330
1E
100
AcDbEntity
  8
STEMPEL
100
AcDbEllipse
 10
333.3386344220273
 20
519.1307212052468
 30
0.0
 11
0.0
 21
7.5
 31
0.0
210
0.0
220
0.0
230
1.0
 40
0.5358267949789991
 41
4.712388980384689
 42
7.853981633974482
  0
LINE
  5
712
330
1E
100
AcDbEntity
  8
STEMPEL
100
AcDbLine
 10
337.3573353843698
 20
506.6307212052469
 30
0.0
 11
337.3573353843698
 21
519.1307212052468
 31
0.0
  0
LINE
  5
713
330
1E
100
AcDbEntity
  8
STEMPEL
100
AcDbLine
 10
354.1907923661643
 20
506.6307212052467
 30
0.0
 11
354.1907923661643
 21
518.7299858172361
 31
0.0
  0
ELLIPSE
  5
714
330
1E
100
AcDbEntity
  8
STEMPEL
100
AcDbEllipse
 10
349.410112443049
 20
518.7299858172364
 30
0.0
 11
0.0
 21
7.5
 31
0.0
210
0.0
220
0.0
230
1.0
 40
0.637423989748703
 41
4.712388980384689
 42
6.283185307179586
  0
ELLIPSE
  5
715
330
1E
100
AcDbEntity
  8
STEMPEL
100
AcDbEllipse
 10
350.9518936308157
 20
519.1307212052468
 30
0.0
 11
0.0
 21
7.5
 31
0.0
210
0.0
220
0.0
230
1.0
 40
0.637423989748703
 41
4.712388980384689
 42
7.853981633974482
  0
LINE
  5
716
330
1E
100
AcDbEntity
  8
STEMPEL
100
AcDbLine
 10
346.1712137077005
 20
506.6307212052467
 30
0.0
 11
346.1712137077005
 21
519.1307212052468
 31
0.0
  0
LINE
  5
717
330
1E
100
AcDbEntity
  8
STEMPEL
100
AcDbLine
 10
355.7325735539309
 20
506.6307212052467
 30
0.0
 11
355.7325735539309
 21
519.1307212052465
 31
0.0
  0
ELLIPSE
  5
718
330
1E
100
AcDbEntity
  8
STEMPEL
100
AcDbEllipse
 10
370.0949021984099
 20
519.1307212052465
 30
0.0
 11
0.0
 21
7.5
 31
0.0
210
0.0
220
0.0
230
1.0
 40
0.7289686274214167
 41
4.712388980384689
 42
6.15758568604169
  0
LINE
  5
719
330
1E
100
AcDbEntity
  8
STEMPEL
100
AcDbLine
 10
375.5621669040705
 20
506.6307212052466
 30
0.0
 11
375.5621669040705
 21
519.1307212052465
 31
0.0
  0
ELLIPSE
  5
71A
330
1E
100
AcDbEntity
  8
STEMPEL
100
AcDbEllipse
 10
371.4646669103815
 20
519.1307212052468
 30
0.0
 11
0.0
 21
7.5
 31
0.0
210
0.0
220
0.0
230
1.0
 40
0.7289686274214167
 41
4.712388980384689
 42
7.853981633974482
  0
LINE
  5
71B
330
1E
100
AcDbEntity
  8
STEMPEL
100
AcDbLine
 10
365.9974022047209
 20
506.6307212052467
 30
0.0
 11
365.9974022047209
 21
519.1307212052468
 31
0.0
  0
LINE
  5
71C
330
1E
100
AcDbEntity
  8
STEMPEL
100
AcDbLine
 10
376.9319316160421
 20
506.6307212052467
 30
0.0
 11
376.9319316160421
 21
519.1307212052465
 31
0.0
  0
LINE
  5
71D
330
1E
100
AcDbEntity
  8
STEMPEL
100
AcDbLine
 10
399.4449368017705
 20
507.3995755241379
 30
0.0
 11
399.4449368017706
 21
519.1307212052468
 31
0.0
  0
ELLIPSE
  5
71E
330
1E
100
AcDbEntity
  8
STEMPEL
100
AcDbEllipse
 10
393.3773093439583
 20
519.1307212052468
 30
0.0
 11
0.0
 21
7.5
 31
0.0
210
0.0
220
0.0
230
1.0
 40
0.8090169943749629
 41
4.712388980384689
 42
6.186113147778332
  0
ELLIPSE
  5
71F
330
1E
100
AcDbEntity
  8
STEMPEL
100
AcDbEllipse
 10
394.5534555723692
 20
519.1307212052468
 30
0.0
 11
0.0
 21
7.5
 31
0.0
210
0.0
220
0.0
230
1.0
 40
0.8090169943749629
 41
4.712388980384689
 42
7.853981633974482
  0
LINE
  5
720
330
1E
100
AcDbEntity
  8
STEMPEL
100
AcDbLine
 10
388.485828114557
 20
506.6307212052466
 30
0.0
 11
388.485828114557
 21
519.1307212052468
 31
0.0
  0
LINE
  5
721
330
1E
100
AcDbEntity
  8
STEMPEL
100
AcDbLine
 10
400.6210830301812
 20
507.6307212052465
 30
0.0
 11
400.6210830301813
 21
519.1307212052468
 31
0.0
  0
ELLIPSE
  5
722
330
1E
100
AcDbEntity
  8
STEMPEL
100
AcDbEllipse
 10
418.8901564107732
 20
519.1307212052468
 30
0.0
 11
0.0
 21
7.5
 31
0.0
210
0.0
220
0.0
230
1.0
 40
0.876306680043865
 41
4.712388980384689
 42
6.209782892077458
  0
LINE
  5
723
330
1E
100
AcDbEntity
  8
STEMPEL
100
AcDbLine
 10
425.4624565111022
 20
506.6307212052467
 30
0.0
 11
425.4624565111022
 21
519.1307212052465
 31
0.0
  0
ELLIPSE
  5
724
330
1E
100
AcDbEntity
  8
STEMPEL
100
AcDbEllipse
 10
419.8541356270054
 20
519.1307212052468
 30
0.0
 11
0.0
 21
7.5
 31
0.0
210
0.0
220
0.0
230
1.0
 40
0.876306680043865
 41
4.712388980384689
 42
7.853981633974482
  0
LINE
  5
725
330
1E
100
AcDbEntity
  8
STEMPEL
100
AcDbLine
 10
413.2818355266762
 20
507.6307212052464
 30
0.0
 11
413.2818355266764
 21
519.1307212052465
 31
0.0
  0
LINE
  5
726
330
1E
100
AcDbEntity
  8
STEMPEL
100
AcDbLine
 10
426.4264357273344
 20
506.6307212052466
 30
0.0
 11
426.4264357273344
 21
519.1307212052468
 31
0.0
  0
ELLIPSE
  5
727
330
1E
100
AcDbEntity
  8
STEMPEL
100
AcDbEllipse
 10
446.2310905599746
 20
519.1307212052468
 30
0.0
 11
0.0
 21
7.5
 31
0.0
210
0.0
220
0.0
230
1.0
 40
0.9297764858882564
 41
4.712388980384689
 42
6.230344465905976
  0
LINE
  5
728
330
1E
100
AcDbEntity
  8
STEMPEL
100
AcDbLine
 10
453.2044142041366
 20
506.6307212052467
 30
0.0
 11
453.2044142041366
 21
519.1307212052468
 31
0.0
  0
ELLIPSE
  5
729
330
1E
100
AcDbEntity
  8
STEMPEL
100
AcDbEllipse
 10
446.9677002359351
 20
519.1307212052468
 30
0.0
 11
0.0
 21
7.5
 31
0.0
210
0.0
220
0.0
230
1.0
 40
0.9297764858882487
 41
4.712388980384689
 42
7.853981633974482
  0
LINE
  5
72A
330
1E
100
AcDbEntity
  8
STEMPEL
100
AcDbLine
 10
439.994376591773
 20
511.6307212052462
 30
0.0
 11
439.9943765917732
 21
519.1307212052465
 31
0.0
  0
LINE
  5
72B
330
1E
100
AcDbEntity
  8
STEMPEL
100
AcDbLine
 10
453.9410238800971
 20
506.6307212052467
 30
0.0
 11
453.9410238800969
 21
519.1307212052468
 31
0.0
  0
ELLIPSE
  5
72C
330
1E
100
AcDbEntity
  8
STEMPEL
100
AcDbEllipse
 10
474.9689289273472
 20
519.1307212052468
 30
0.0
 11
0.0
 21
7.500000000000113
 31
0.0
210
0.0
220
0.0
230
1.0
 40
0.9685831611286255
 41
4.712388980384689
 42
6.248927659625682
  0
LINE
  5
72D
330
1E
100
AcDbEntity
  8
STEMPEL
100
AcDbLine
 10
482.2333026358121
 20
506.6307212052467
 30
0.0
 11
482.2333026358121
 21
519.1307212052465
 31
0.0
  0
ELLIPSE
  5
72E
330
1E
100
AcDbEntity
  8
STEMPEL
100
AcDbEllipse
 10
475.4665522884168
 20
519.1307212052468
 30
0.0
 11
0.0
 21
7.5
 31
0.0
210
0.0
220
0.0
230
1.0
 40
0.9685831611286252
 41
0.0
 42
1.570796326794896
  0
ELLIPSE
  5
72F
330
1E
100
AcDbEntity
  8
STEMPEL
100
AcDbEllipse
 10
475.4665522884168
 20
519.1307212052468
 30
0.0
 11
0.0
 21
7.5
 31
0.0
210
0.0
220
0.0
230
1.0
 40
0.9685831611286403
 41
4.712388980384689
 42
6.283185307179586
  0
LINE
  5
730
330
1E
100
AcDbEntity
  8
STEMPEL
100
AcDbLine
 10
468.202178579952
 20
511.6307212052521
 30
0.0
 11
468.2021785799521
 21
519.1307212052465
 31
0.0
  0
LINE
  5
731
330
1E
100
AcDbEntity
  8
STEMPEL
100
AcDbLine
 10
482.7309259968815
 20
506.6307212052467
 30
0.0
 11
482.7309259968815
 21
519.1307212052468
 31
0.0
  0
ELLIPSE
  5
732
330
1E
100
AcDbEntity
  8
STEMPEL
100
AcDbEllipse
 10
504.650458634685
 20
519.1307212052468
 30
0.0
 11
0.0
 21
7.499999999999886
 31
0.0
210
0.0
220
0.0
230
1.0
 40
0.992114701314502
 41
4.712388980384689
 42
6.266330223589886
  0
LINE
  5
733
330
1E
100
AcDbEntity
  8
STEMPEL
100
AcDbLine
 10
512.0913188945437
 20
506.6307212052467
 30
0.0
 11
512.0913188945437
 21
519.1307212052468
 31
0.0
  0
ELLIPSE
  5
734
330
1E
100
AcDbEntity
  8
STEMPEL
100
AcDbEllipse
 10
504.9012381451821
 20
519.1307212052468
 30
0.0
 11
0.0
 21
7.5
 31
0.0
210
0.0
220
0.0
230
1.0
 40
0.9917883247403398
 41
0.0
 42
1.570796326794896
  0
ELLIPSE
  5
735
330
1E
100
AcDbEntity
  8
STEMPEL
100
AcDbEllipse
 10
504.9012381451821
 20
519.1307212052468
 30
0.0
 11
0.0
 21
7.5
 31
0.0
210
0.0
220
0.0
230
1.0
 40
0.9917883247403398
 41
4.712388980384689
 42
6.283185307179586
  0
LINE
  5
736
330
1E
100
AcDbEntity
  8
STEMPEL
100
AcDbLine
 10
497.4628257096295
 20
506.6307212052467
 30
0.0
 11
497.4628257096295
 21
519.1307212052468
 31
0.0
  0
LINE
  5
737
330
1E
100
AcDbEntity
  8
STEMPEL
100
AcDbLine
 10
512.3396505807346
 20
506.6307212052467
 30
0.0
 11
512.3396505807346
 21
519.1307212052465
 31
0.0
  0
ELLIPSE
  5
738
330
1E
100
AcDbEntity
  8
STEMPEL
100
AcDbEllipse
 10
534.8075842276165
 20
519.1307212052468
 30
0.0
 11
0.0
 21
-7.5
 31
0.0
210
0.0
220
0.0
230
1.0
 40
0.9996710293943806
 41
1.570796326794896
 42
4.712388980384689
  0
LINE
  5
739
330
1E
100
AcDbEntity
  8
STEMPEL
100
AcDbLine
 10
527.3100515071586
 20
506.6307212052466
 30
0.0
 11
527.3100515071586
 21
519.1307212052468
 31
0.0
  0
LINE
  5
73A
330
1E
100
AcDbEntity
  8
STEMPEL
100
AcDbLine
 10
542.3051169480744
 20
506.6307212052467
 30
0.0
 11
542.3051169480744
 21
519.1307212052468
 31
0.0
  0
LINE
  5
73B
330
1E
100
AcDbEntity
  8
STEMPEL
100
AcDbLine
 10
281.8075842276172
 20
506.6307212052469
 30
0.0
 11
281.8075842276172
 21
508.1307212052467
 31
0.0
  0
LINE
  5
73C
330
1E
100
AcDbEntity
  8
STEMPEL
100
AcDbLine
 10
274.8075842276173
 20
506.6307212052469
 30
0.0
 11
274.8075842276173
 21
508.1307212052467
 31
0.0
  0
LINE
  5
73E
330
1E
100
AcDbEntity
  8
STEMPEL
100
AcDbLine
 10
801.3075842276172
 20
506.6307212052463
 30
0.0
 11
801.3075842276172
 21
508.1307212052467
 31
0.0
  0
LINE
  5
73F
330
1E
100
AcDbEntity
  8
STEMPEL
100
AcDbLine
 10
775.5399988654603
 20
513.1307212052468
 30
0.0
 11
775.5399988654605
 21
529.6307212052457
 31
0.0
  0
ARC
  5
740
330
1E
100
AcDbEntity
  8
STEMPEL
100
AcDbCircle
 10
690.5399988654603
 20
529.6307212052463
 30
0.0
 40
85.0
100
AcDbArc
 50
0.0
 51
90.0
  0
ARC
  5
741
330
1E
100
AcDbEntity
  8
STEMPEL
100
AcDbCircle
 10
379.0751695897742
 20
529.6307212052465
 30
0.0
 40
85.0
100
AcDbArc
 50
90.0
 51
180.0
  0
LINE
  5
742
330
1E
100
AcDbEntity
  8
STEMPEL
100
AcDbLine
 10
294.0751695897742
 20
513.1307212052468
 30
0.0
 11
294.0751695897742
 21
529.6307212052465
 31
0.0
  0
LINE
  5
743
330
1E
100
AcDbEntity
  8
STEMPEL
100
AcDbLine
 10
379.0751695897741
 20
614.6307212052465
 30
0.0
 11
690.5399988654602
 21
614.6307212052468
 31
0.0
  0
LINE
  5
744
330
1E
100
AcDbEntity
  8
STEMPEL
100
AcDbLine
 10
268.3075842276172
 20
506.6307212052467
 30
0.0
 11
268.3075842276172
 21
508.1307212052466
 31
0.0
  0
LINE
  5
745
330
1E
100
AcDbEntity
  8
STEMPEL
100
AcDbLine
 10
268.3075842276172
 20
506.6307212052467
 30
0.0
 11
275.3075842276157
 21
506.6307212052466
 31
0.0
  0
LINE
  5
74D
330
1E
100
AcDbEntity
  8
STEMPEL
100
AcDbLine
 10
606.9678382654616
 20
506.6307212052466
 30
0.0
 11
639.9303089029761
 21
506.6307212052465
 31
0.0
  0
LINE
  5
74E
330
1E
100
AcDbEntity
  8
STEMPEL
100
AcDbLine
 10
479.9678382654618
 20
506.6307212052467
 30
0.0
 11
589.6473301897727
 21
506.6307212052467
 31
0.0
  0
LINE
  5
74F
330
1E
100
AcDbEntity
  8
STEMPEL
100
AcDbLine
 10
416.4678382654618
 20
506.6307212052466
 30
0.0
 11
430.4312013874445
 21
506.6307212052466
 31
0.0
  0
LINE
  5
76E
330
1E
100
AcDbEntity
  8
STEMPEL
100
AcDbLine
 10
281.0680864822654
 20
513.3248136223194
 30
0.0
 11
281.0680864822651
 21
509.7307212052468
 31
0.0
  0
LINE
  5
76F
330
1E
100
AcDbEntity
  8
STEMPEL
100
AcDbLine
 10
283.8285887369146
 20
513.3484739944435
 30
0.0
 11
283.8285887369146
 21
509.7307212052468
 31
0.0
  0
LINE
  5
770
330
1E
100
AcDbEntity
  8
STEMPEL
100
AcDbLine
 10
284.3075842276158
 20
509.7307212052466
 30
0.0
 11
284.3075842276158
 21
508.1307212052467
 31
0.0
  0
LINE
  5
771
330
1E
100
AcDbEntity
  8
STEMPEL
100
AcDbLine
 10
283.8285887369146
 20
513.3484739944438
 30
0.0
 11
283.6218306051222
 21
513.467845857491
 31
0.0
  0
ARC
  5
772
330
1E
100
AcDbEntity
  8
STEMPEL
100
AcDbCircle
 10
282.4483376095899
 20
511.5505662193676
 30
0.0
 40
2.247898356545996
100
AcDbArc
 50
58.53080548383119
 51
127.8806357171815
  0
LINE
  5
773
330
1E
100
AcDbEntity
  8
STEMPEL
100
AcDbLine
 10
282.4443783842306
 20
513.7984645396468
 30
0.0
 11
282.4479338172267
 21
513.7984645396468
 31
0.0
  0
LINE
  5
774
330
1E
100
AcDbEntity
  8
STEMPEL
100
AcDbLine
 10
272.7865797183173
 20
513.3484739944438
 30
0.0
 11
272.7865797183173
 21
509.7307212052468
 31
0.0
  0
LINE
  5
775
330
1E
100
AcDbEntity
  8
STEMPEL
100
AcDbLine
 10
275.5470819729666
 20
513.3248136223194
 30
0.0
 11
275.5470819729666
 21
509.7307212052468
 31
0.0
  0
LINE
  5
776
330
1E
100
AcDbEntity
  8
STEMPEL
100
AcDbLine
 10
272.3075842276159
 20
509.7307212052468
 30
0.0
 11
272.3075842276159
 21
508.1307212052467
 31
0.0
  0
ARC
  5
777
330
1E
100
AcDbEntity
  8
STEMPEL
100
AcDbCircle
 10
274.1668308456418
 20
511.5505662193676
 30
0.0
 40
2.247898356545996
100
AcDbArc
 50
52.11936428281847
 51
121.4691945163676
  0
LINE
  5
778
330
1E
100
AcDbEntity
  8
STEMPEL
100
AcDbLine
 10
272.7865797183173
 20
513.3484739944438
 30
0.0
 11
272.9933378501026
 21
513.4678458574872
 31
0.0
  0
LINE
  5
779
330
1E
100
AcDbEntity
  8
STEMPEL
100
AcDbLine
 10
284.307584227616
 20
508.1307212052465
 30
0.0
 11
272.3075842276159
 21
508.1307212052469
 31
0.0
  0
LINE
  5
77A
330
1E
100
AcDbEntity
  8
STEMPEL
100
AcDbLine
 10
272.3075842276159
 20
509.7307212052468
 30
0.0
 11
284.3075842276158
 21
509.7307212052466
 31
0.0
  0
LINE
  5
77B
330
1E
100
AcDbEntity
  8
STEMPEL
100
AcDbLine
 10
274.16723463799
 20
513.7984645396468
 30
0.0
 11
282.4479338167328
 21
513.7984645396468
 31
0.0
  0
ARC
  5
77C
330
1E
100
AcDbEntity
  8
STEMPEL
100
AcDbCircle
 10
278.3075842276158
 20
505.5173469460468
 30
0.0
 40
8.281117593600001
100
AcDbArc
 50
70.52782738138624
 51
109.4721726186137
  0
LINE
  5
77D
102
{ACAD_REACTORS
330
7A8
102
}
330
1E
100
AcDbEntity
  8
STEMPEL
100
AcDbLine
 10
281.3075842276163
 20
508.1307212052467
 30
0.0
 11
281.3075842276181
 21
500.7307212052466
 31
0.0
  0
LINE
  5
77E
330
1E
100
AcDbEntity
  8
HILF
100
AcDbLine
 10
280.3075842276172
 20
499.7307212052469
 30
0.0
 11
280.3075842276172
 21
508.1307212052467
 31
0.0
  0
LINE
  5
77F
330
1E
100
AcDbEntity
  8
HILF
100
AcDbLine
 10
276.3075842276172
 20
499.730721205247
 30
0.0
 11
276.3075842276172
 21
508.1307212052469
 31
0.0
  0
LINE
  5
780
102
{ACAD_REACTORS
330
7A8
102
}
330
1E
100
AcDbEntity
  8
STEMPEL
100
AcDbLine
 10
275.3075842276154
 20
508.1307212052469
 30
0.0
 11
275.3075842276173
 21
500.7307212052469
 31
0.0
  0
LINE
  5
781
102
{ACAD_REACTORS
330
7A8
102
}
330
1E
100
AcDbEntity
  8
STEMPEL
100
AcDbLine
 10
280.3075842276165
 20
499.7307212052469
 30
0.0
 11
281.3075842276173
 21
500.7307212052476
 31
0.0
  0
LINE
  5
782
102
{ACAD_REACTORS
330
7A8
102
}
330
1E
100
AcDbEntity
  8
STEMPEL
100
AcDbLine
 10
275.3075842276173
 20
500.7307212052476
 30
0.0
 11
276.3075842276174
 21
499.7307212052469
 31
0.0
  0
LINE
  5
783
330
1E
100
AcDbEntity
  8
STEMPEL
100
AcDbLine
 10
276.3075842276172
 20
499.7307212052469
 30
0.0
 11
280.3075842276172
 21
499.7307212052469
 31
0.0
  0
LINE
  5
784
330
1E
100
AcDbEntity
  8
STEMPEL
100
AcDbLine
 10
275.3075842276172
 20
500.7307212052469
 30
0.0
 11
281.3075842276173
 21
500.7307212052466
 31
0.0
  0
LINE
  5
785
102
{ACAD_REACTORS
330
7A8
102
}
330
1E
100
AcDbEntity
  8
STEMPEL
100
AcDbLine
 10
281.3075842276167
 20
506.6307212052467
 30
0.0
 11
399.1473301897731
 21
506.6307212052467
 31
0.0
  0
LINE
  5
786
102
{ACAD_REACTORS
330
7A8
102
}
330
1E
100
AcDbEntity
  8
STEMPEL
100
AcDbLine
 10
275.3075842276158
 20
506.6307212052468
 30
0.0
 11
273.3075842276172
 21
506.6307212052467
 31
0.0
  0
HATCH
  5
7A8
330
1E
100
AcDbEntity
  8
SCHRAFF
100
AcDbHatch
 10
0.0
 20
0.0
 30
0.0
210
0.0
220
0.0
230
1.0
  2
_USER
 70
     0
 71
     1
 91
        4
 92
        7
 72
     0
 73
     1
 93
        9
 10
283.3075842276172
 20
506.6307212052466
 10
281.3075842276168
 20
506.6307212052467
 10
281.3075842276181
 20
500.7307212052466
 10
281.3075842276172
 20
497.6307212052464
 10
280.3075842276172
 20
497.6307212052463
 10
280.3075842276172
 20
495.6307212052467
 10
278.3075842276172
 20
495.0948228203843
 10
278.3075842276172
 20
491.6307212052467
 10
283.3075842276171
 20
491.6307212052466
 97
        9
330
785
330
77D
330
352
330
353
330
354
330
358
330
363
330
36E
330
350
 92
       23
 72
     0
 73
     1
 93
        4
 10
280.3075842276172
 20
497.6307212052465
 10
281.3075842276172
 20
497.6307212052465
 10
281.3075842276173
 20
500.7307212052475
 10
280.3075842276172
 20
499.7307212052476
 97
        4
330
781
330
354
330
353
330
352
 92
       23
 72
     0
 73
     1
 93
        4
 10
276.3075842276172
 20
499.730721205247
 10
275.3075842276172
 20
500.7307212052477
 10
275.3075842276172
 20
497.6307212052467
 10
276.3075842276172
 20
497.6307212052466
 97
        4
330
782
330
351
330
353
330
355
 92
        7
 72
     0
 73
     1
 93
        9
 10
275.3075842276172
 20
500.7307212052469
 10
275.3075842276158
 20
506.6307212052467
 10
273.3075842276171
 20
506.6307212052467
 10
273.3075842276172
 20
491.6307212052467
 10
278.3075842276172
 20
491.6307212052466
 10
278.3075842276172
 20
495.0948228203846
 10
276.3075842276172
 20
495.6307212052466
 10
276.3075842276172
 20
497.6307212052466
 10
275.3075842276172
 20
497.6307212052467
 97
        9
330
780
330
786
330
34F
330
36E
330
363
330
357
330
355
330
353
330
351
 75
     0
 76
     0
 52
45.0
 41
2.0
 77
     0
 78
     1
 53
45.0
 43
0.0
 44
0.0
 45
-1.414213562373094
 46
1.414213562373095
 79
     0
 47
0.0752764616116185
 98
        4
 10
282.7853104948527
 20
504.0382406159921
 10
280.6763529763816
 20
498.5430591311649
 10
275.8558779041073
 20
498.5430591311649
 10
274.424799122789
 20
500.1238645743208
  0
LINE
  5
7C5
330
1E
100
AcDbEntity
  8
TEXT
 62
     2
100
AcDbLine
 10
828.5314530782624
 20
433.1425181584704
 30
0.0
 11
764.3698463601422
 21
490.4212852859388
 31
0.0
  0
TEXT
  5
7C6
330
1E
100
AcDbEntity
  8
TEXT
 62
     1
100
AcDbText
 10
828.8631745002927
 20
437.3123285095756
 30
0.0
 40
8.75
  1
Halterung für Attika-Haube
 41
0.8
  7
GREEKS
100
AcDbText
  0
LINE
  5
7C7
330
1E
100
AcDbEntity
  8
TEXT
 62
     2
100
AcDbLine
 10
828.5314530782624
 20
433.1425181584704
 30
0.0
 11
979.1398210758469
 21
433.1425181584704
 31
0.0
  0
TEXT
  5
7C8
330
1E
100
AcDbEntity
  8
TEXT
 62
     1
100
AcDbText
 10
828.8631745002927
 20
420.8792766735276
 30
0.0
 40
8.75
  1
EDV-Art.Nr. 60070.150X
 41
0.8
  7
GREEKS
100
AcDbText
  0
TEXT
  5
7C9
330
1E
100
AcDbEntity
  8
TEXT
 62
     1
100
AcDbText
 10
828.8631745002927
 20
493.8661960727877
 30
0.0
 40
8.75
  1
EDV-Art.Nr. 21905.125X
 41
0.8
  7
GREEKS
100
AcDbText
  0
LINE
  5
7CA
330
1E
100
AcDbEntity
  8
TEXT
 62
     2
100
AcDbLine
 10
828.5314530782624
 20
506.1294375577307
 30
0.0
 11
962.2293463178491
 21
506.1294375577305
 31
0.0
  0
TEXT
  5
7CB
330
1E
100
AcDbEntity
  8
TEXT
 62
     1
100
AcDbText
 10
828.8631745002927
 20
510.2992479088357
 30
0.0
 40
8.75
  1
Losflansch DN125
 41
0.8
  7
GREEKS
100
AcDbText
  0
LINE
  5
7CC
330
1E
100
AcDbEntity
  8
TEXT
 62
     2
100
AcDbLine
 10
828.5314530782624
 20
506.1294375577307
 30
0.0
 11
690.4966947859088
 21
495.1601835215135
 31
0.0
  0
LINE
  5
7CD
330
1E
100
AcDbEntity
  8
TEXT
 62
     2
100
AcDbLine
 10
828.5314530782624
 20
591.3948030609388
 30
0.0
 11
762.6806947217678
 21
573.2084131034305
 31
0.0
  0
TEXT
  5
7CE
330
1E
100
AcDbEntity
  8
TEXT
 62
     1
100
AcDbText
 10
828.8631745002927
 20
595.5646134120438
 30
0.0
 40
8.75
  1
Saughaube
 41
0.8
  7
GREEKS
100
AcDbText
  0
LINE
  5
7CF
330
1E
100
AcDbEntity
  8
TEXT
 62
     2
100
AcDbLine
 10
828.5314530782624
 20
591.3948030609388
 30
0.0
 11
962.2293463178491
 21
591.3948030609388
 31
0.0
  0
TEXT
  5
7D0
330
1E
100
AcDbEntity
  8
TEXT
 62
     1
100
AcDbText
 10
828.8631745002927
 20
579.1315615759958
 30
0.0
 40
8.75
  1
EDV-Art.Nr. 60000.000X
 41
0.8
  7
GREEKS
100
AcDbText
  0
LINE
  5
7DA
330
1E
100
AcDbEntity
  8
TEXT
 62
     2
100
AcDbLine
 10
377.1768101837325
 20
234.6596984047859
 30
0.0
 11
468.2770868967104
 21
272.2521864285783
 31
0.0
  0
TEXT
  5
7DB
330
1E
100
AcDbEntity
  8
TEXT
 62
     1
100
AcDbText
 10
243.810638366176
 20
238.8295087558911
 30
0.0
 40
8.75
  1
Ablaufkörper DN125
 41
0.8
  7
GREEKS
100
AcDbText
  0
LINE
  5
7DC
330
1E
100
AcDbEntity
  8
TEXT
 62
     2
100
AcDbLine
 10
243.4789169441459
 20
234.6596984047861
 30
0.0
 11
377.1768101837325
 21
234.6596984047859
 31
0.0
  0
TEXT
  5
7DD
330
1E
100
AcDbEntity
  8
TEXT
 62
     1
100
AcDbText
 10
243.810638366176
 20
222.3964569198431
 30
0.0
 40
8.75
  1
EDV-Art.Nr. 21981.125X
 41
0.8
  7
GREEKS
100
AcDbText
  0
DIMENSION
  5
7DE
330
1E
100
AcDbEntity
  8
BEM
100
AcDbDimension
  2
*D2
 10
468.3075842276176
 20
183.4421198261941
 30
0.0
 11
534.8075842276175
 21
191.5671198261941
 31
0.0
 70
    32
  1
%%c<>
 71
     5
 42
132.9999999999999
  3
Standard
100
AcDbAlignedDimension
 13
601.3075842276175
 23
218.6307212052596
 33
0.0
 14
468.3075842276176
 24
218.6307212052474
 34
0.0
100
AcDbRotatedDimension
1001
ACAD
1000
DSTYLE
1002
{
1070
    40
1040
2.5
1070
    41
1040
3.5
1070
    42
1040
1.0
1070
    43
1040
7.0
1070
    44
1040
1.0
1070
    73
1070
     0
1070
    74
1070
     0
1070
    77
1070
     1
1070
    78
1070
     8
1070
    79
1070
     2
1070
   140
1040
3.5
1070
   141
1040
1.5
1070
   146
1040
0.5142857142857144
1070
   147
1040
1.5
1070
   172
1070
     1
1070
   178
1070
     1
1070
   179
1070
     2
1070
   271
1070
     2
1070
   272
1070
     2
1070
   284
1070
     8
1070
   285
1070
     8
1070
   286
1070
     8
1002
}
  0
DIMENSION
  5
7F4
330
1E
100
AcDbEntity
  8
BEM
100
AcDbDimension
  2
*D3
 10
720.3121950343465
 20
486.6307212052464
 30
0.0
 11
712.1871950343464
 21
346.6307212052468
 31
0.0
 70
    32
 71
     5
 42
279.9999999999993
  3
Standard
100
AcDbAlignedDimension
 13
599.8202769476761
 23
206.6307212052471
 33
0.0
 14
699.8075842276177
 24
486.6307212052464
 34
0.0
 50
90.0
100
AcDbRotatedDimension
1001
ACAD
1000
DSTYLE
1002
{
1070
    40
1040
2.5
1070
    41
1040
3.5
1070
    42
1040
1.0
1070
    43
1040
7.0
1070
    44
1040
1.0
1070
    73
1070
     0
1070
    74
1070
     0
1070
    77
1070
     1
1070
    78
1070
     8
1070
    79
1070
     2
1070
   140
1040
3.5
1070
   141
1040
1.5
1070
   146
1040
0.5142857142857144
1070
   147
1040
1.5
1070
   172
1070
     1
1070
   178
1070
     1
1070
   179
1070
     2
1070
   271
1070
     2
1070
   272
1070
     2
1070
   284
1070
     8
1070
   285
1070
     8
1070
   286
1070
     8
1002
}
  0
DIMENSION
  5
801
330
1E
100
AcDbEntity
  8
BEM
100
AcDbDimension
  2
*D4
 10
250.6917357592765
 20
506.6307212052467
 30
0.0
 11
242.5667357592764
 21
560.6307212052468
 31
0.0
 70
    32
 71
     5
 42
107.9999999999999
  3
Standard
100
AcDbAlignedDimension
 13
379.0751695897742
 23
614.6307212052465
 33
0.0
 14
268.3075842276172
 24
506.6307212052467
 34
0.0
 50
90.0
100
AcDbRotatedDimension
1001
ACAD
1000
DSTYLE
1002
{
1070
    40
1040
2.5
1070
    41
1040
3.5
1070
    42
1040
1.0
1070
    43
1040
7.0
1070
    44
1040
1.0
1070
    73
1070
     0
1070
    74
1070
     0
1070
    77
1070
     1
1070
    78
1070
     8
1070
    79
1070
     2
1070
   140
1040
3.5
1070
   141
1040
1.5
1070
   146
1040
0.5142857142857144
1070
   147
1040
1.5
1070
   172
1070
     1
1070
   178
1070
     1
1070
   179
1070
     2
1070
   271
1070
     2
1070
   272
1070
     2
1070
   284
1070
     8
1070
   285
1070
     8
1070
   286
1070
     8
1002
}
  0
DIMENSION
  5
80E
330
1E
100
AcDbEntity
  8
BEM
100
AcDbDimension
  2
*D5
 10
250.6917357592765
 20
491.6307212052467
 30
0.0
 11
242.5667357592764
 21
465.3807212052468
 31
0.0
 70
    32
 71
     5
 42
15.0
  3
Standard
100
AcDbAlignedDimension
 13
268.3075842276172
 23
506.6307212052467
 33
0.0
 14
268.3075842276173
 24
491.6307212052467
 34
0.0
 50
90.0
100
AcDbRotatedDimension
1001
ACAD
1000
DSTYLE
1002
{
1070
    40
1040
2.5
1070
    41
1040
3.5
1070
    42
1040
1.0
1070
    43
1040
7.0
1070
    44
1040
1.0
1070
    73
1070
     0
1070
    74
1070
     0
1070
    77
1070
     1
1070
    78
1070
     8
1070
    79
1070
     2
1070
   140
1040
3.5
1070
   141
1040
1.5
1070
   146
1040
0.5142857142857144
1070
   147
1040
1.5
1070
   172
1070
     1
1070
   178
1070
     1
1070
   179
1070
     2
1070
   271
1070
     2
1070
   272
1070
     2
1070
   284
1070
     8
1070
   285
1070
     8
1070
   286
1070
     8
1002
}
  0
LINE
  5
835
330
1E
100
AcDbEntity
  8
TEXT
 62
     2
100
AcDbLine
 10
309.0259068720648
 20
395.4002334258287
 30
0.0
 11
377.6336298759209
 21
487.279127177939
 31
0.0
  0
TEXT
  5
837
330
1E
100
AcDbEntity
  8
TEXT
 62
     1
100
AcDbText
 10
175.6597350545083
 20
383.1369919408859
 30
0.0
 40
8.75
  1
EDV-Art.Nr. 21810.150X
 41
0.8
  7
GREEKS
100
AcDbText
  0
LINE
  5
838
330
1E
100
AcDbEntity
  8
TEXT
 62
     2
100
AcDbLine
 10
175.3280136324782
 20
395.4002334258288
 30
0.0
 11
309.0259068720648
 21
395.4002334258287
 31
0.0
  0
TEXT
  5
839
330
1E
100
AcDbEntity
  8
TEXT
 62
     1
100
AcDbText
 10
175.6597350545083
 20
399.5700437769339
 30
0.0
 40
8.75
  1
Kompressionsdichtung
 41
0.8
  7
GREEKS
100
AcDbText
  0
TEXT
  5
843
330
1E
100
AcDbEntity
  8
TEXT
100
AcDbText
 10
766.6081263288124
 20
112.1037014932704
 30
0.0
 40
5.0
  1
DIN EN1124-3
 41
0.8
  7
GREEKS
 72
     1
 11
787.8462215669076
 21
112.1037014932704
 31
0.0
100
AcDbText
  0
DIMENSION
  5
844
330
1E
100
AcDbEntity
  8
BEM
100
AcDbDimension
  2
*D6
 10
369.8075842276173
 20
433.4784374415581
 30
0.0
 11
534.8075842276172
 21
441.603437441558
 31
0.0
 70
    32
  1
%%c<>
 71
     5
 42
329.9999999999998
  3
Standard
100
AcDbAlignedDimension
 13
699.8075842276171
 23
482.752041548807
 33
0.0
 14
369.8075842276173
 24
482.752041548807
 34
0.0
100
AcDbRotatedDimension
1001
ACAD
1000
DSTYLE
1002
{
1070
    40
1040
2.5
1070
    41
1040
3.5
1070
    42
1040
1.0
1070
    43
1040
7.0
1070
    44
1040
1.0
1070
    73
1070
     0
1070
    74
1070
     0
1070
    77
1070
     1
1070
    78
1070
     8
1070
    79
1070
     2
1070
   140
1040
3.5
1070
   141
1040
1.5
1070
   146
1040
0.5142857142857144
1070
   147
1040
1.5
1070
   172
1070
     1
1070
   178
1070
     1
1070
   179
1070
     2
1070
   271
1070
     2
1070
   272
1070
     2
1070
   284
1070
     8
1070
   285
1070
     8
1070
   286
1070
     8
1002
}
  0
DIMENSION
  5
85C
330
1E
100
AcDbEntity
  8
BEM
100
AcDbDimension
  2
*D7
 10
294.0751695897742
 20
633.4590610798231
 30
0.0
 11
534.8075842276172
 21
641.5840610798231
 31
0.0
 70
    32
  1
%%c482
 71
     5
 42
481.4648292756863
  3
Standard
100
AcDbAlignedDimension
 13
775.5399988654605
 23
529.6307212052457
 33
0.0
 14
294.0751695897742
 24
529.6307212052465
 34
0.0
100
AcDbRotatedDimension
1001
ACAD
1000
DSTYLE
1002
{
1070
    40
1040
2.5
1070
    41
1040
3.5
1070
    42
1040
1.0
1070
    43
1040
7.0
1070
    44
1040
1.0
1070
    73
1070
     0
1070
    74
1070
     0
1070
    77
1070
     1
1070
    78
1070
     8
1070
    79
1070
     2
1070
   140
1040
3.5
1070
   141
1040
1.5
1070
   146
1040
0.5142857142857144
1070
   147
1040
1.5
1070
   172
1070
     1
1070
   178
1070
     1
1070
   179
1070
     2
1070
   271
1070
     2
1070
   272
1070
     2
1070
   284
1070
     8
1070
   285
1070
     8
1070
   286
1070
     8
1002
}
  0
DIMENSION
  5
869
330
1E
100
AcDbEntity
  8
BEM
100
AcDbDimension
  2
*D8
 10
268.3075842276172
 20
654.9997144872991
 30
0.0
 11
534.8075842276172
 21
663.1247144872991
 31
0.0
 70
    32
  1
%%c<>
 71
     5
 42
533.0
  3
Standard
100
AcDbAlignedDimension
 13
801.3075842276172
 23
508.1307212052467
 33
0.0
 14
268.3075842276172
 24
508.1307212052467
 34
0.0
100
AcDbRotatedDimension
1001
ACAD
1000
DSTYLE
1002
{
1070
    40
1040
2.5
1070
    41
1040
3.5
1070
    42
1040
1.0
1070
    43
1040
7.0
1070
    44
1040
1.0
1070
    73
1070
     0
1070
    74
1070
     0
1070
    77
1070
     1
1070
    78
1070
     8
1070
    79
1070
     2
1070
   140
1040
3.5
1070
   141
1040
1.5
1070
   146
1040
0.5142857142857144
1070
   147
1040
1.5
1070
   172
1070
     1
1070
   178
1070
     1
1070
   179
1070
     2
1070
   271
1070
     2
1070
   272
1070
     2
1070
   284
1070
     8
1070
   285
1070
     8
1070
   286
1070
     8
1002
}
  0
HATCH
  5
8E8
330
1E
100
AcDbEntity
  8
SCHRAFF
100
AcDbHatch
 10
0.0
 20
0.0
 30
0.0
210
0.0
220
0.0
230
1.0
  2
NET
 70
     0
 71
     1
 91
        4
 92
        7
 72
     0
 73
     1
 93
        4
 10
669.8075842276173
 20
489.6307212052469
 10
669.8075842276172
 20
486.6307212052468
 10
699.8075842276172
 20
486.6307212052469
 10
699.8075842276174
 20
489.6307212052469
 97
        4
330
367
330
316
330
315
330
314
 92
        7
 72
     0
 73
     1
 93
        4
 10
629.8075842276172
 20
489.6307212052469
 10
629.8075842276173
 20
486.630721205247
 10
653.8075842276173
 20
486.6307212052471
 10
653.8075842276174
 20
489.630721205247
 97
        4
330
36B
330
313
330
315
330
317
 92
        7
 72
     0
 73
     1
 93
        4
 10
415.8075842276172
 20
489.6307212052469
 10
415.8075842276172
 20
486.6307212052469
 10
439.8075842276172
 20
486.6307212052469
 10
439.8075842276173
 20
489.6307212052469
 97
        4
330
318
330
315
330
312
330
36B
 92
        7
 72
     0
 73
     1
 93
        4
 10
399.8075842276173
 20
486.630721205247
 10
399.8075842276173
 20
489.630721205247
 10
369.8075842276172
 20
489.6307212052469
 10
369.8075842276173
 20
486.6307212052469
 97
        4
330
36D
330
311
330
315
330
319
 75
     0
 76
     1
 52
45.0
 41
15.0
 77
     0
 78
     2
 53
45.0
 43
0.0
 44
0.0
 45
-1.325825214724776
 46
1.325825214724776
 79
     0
 53
135.0
 43
0.0
 44
0.0
 45
-1.325825214724776
 46
-1.325825214724776
 79
     0
 47
0.3600790798648858
 98
        4
 10
674.7415520899921
 20
488.4847661550163
 10
651.688670826048
 20
488.8448438553678
 10
428.7240905321295
 20
488.4847661550163
 10
394.1447715682352
 20
488.1246867252848
  0
LINE
  5
8ED
330
1E
100
AcDbEntity
  8
STEMPEL
100
AcDbLine
 10
670.1702316534639
 20
508.1307212052466
 30
0.0
 11
681.1293403406774
 21
508.1307212052466
 31
0.0
  0
ARC
  5
988
330
1E
100
AcDbEntity
  8
STEMPEL
100
AcDbCircle
 10
407.8075842276175
 20
477.3198320727916
 30
0.0
 40
30.31088913245485
100
AcDbArc
 50
81.7867892982638
 51
98.21321070173619
  0
LINE
  5
989
330
1E
100
AcDbEntity
  8
STEMPEL
100
AcDbLine
 10
402.8075842276176
 20
510.6307212052538
 30
0.0
 11
402.8075842276175
 21
507.6307212052463
 31
0.0
  0
LINE
  5
98A
330
1E
100
AcDbEntity
  8
HILF
100
AcDbLine
 10
403.8075842276175
 20
511.6307212052539
 30
0.0
 11
403.8075842276175
 21
507.6307212052463
 31
0.0
  0
LINE
  5
98B
330
1E
100
AcDbEntity
  8
STEMPEL
100
AcDbLine
 10
403.8075842276175
 20
511.6307212052539
 30
0.0
 11
402.8075842276176
 21
510.6307212052538
 31
0.0
  0
LINE
  5
98C
330
1E
100
AcDbEntity
  8
STEMPEL
100
AcDbLine
 10
412.8075842276175
 20
510.6307212052538
 30
0.0
 11
412.8075842276175
 21
507.6307212052463
 31
0.0
  0
LINE
  5
98D
330
1E
100
AcDbEntity
  8
HILF
100
AcDbLine
 10
411.8075842276176
 20
511.6307212052539
 30
0.0
 11
411.8075842276176
 21
507.6307212052463
 31
0.0
  0
LINE
  5
98E
330
1E
100
AcDbEntity
  8
STEMPEL
100
AcDbLine
 10
412.8075842276175
 20
510.6307212052538
 30
0.0
 11
402.8075842276176
 21
510.6307212052538
 31
0.0
  0
LINE
  5
98F
330
1E
100
AcDbEntity
  8
STEMPEL
100
AcDbLine
 10
412.8075842276175
 20
510.6307212052538
 30
0.0
 11
411.8075842276176
 21
511.6307212052539
 31
0.0
  0
LINE
  5
990
330
1E
100
AcDbEntity
  8
STEMPEL
100
AcDbLine
 10
411.8075842276176
 20
511.6307212052539
 30
0.0
 11
403.8075842276175
 21
511.6307212052539
 31
0.0
  0
ARC
  5
991
330
1E
100
AcDbEntity
  8
STEMPEL
100
AcDbCircle
 10
417.9575842276174
 20
498.3807212052465
 30
0.0
 40
0.750000000000001
100
AcDbArc
 50
269.9999991462263
 51
70.00000000000354
  0
ARC
  5
992
330
1E
100
AcDbEntity
  8
STEMPEL
100
AcDbCircle
 10
397.6575842276175
 20
498.3807212052465
 30
0.0
 40
0.7500000000000013
100
AcDbArc
 50
109.9999999999964
 51
269.9999991462263
  0
LINE
  5
993
330
1E
100
AcDbEntity
  8
STEMPEL
100
AcDbLine
 10
399.1473301897731
 20
499.7210777214462
 30
0.0
 11
397.4010691201233
 21
499.0854906708358
 31
0.0
  0
LINE
  5
994
330
1E
100
AcDbEntity
  8
STEMPEL
100
AcDbLine
 10
418.2140993351117
 20
499.0854906708358
 30
0.0
 11
416.4678382654618
 21
499.7210777214462
 31
0.0
  0
LINE
  5
995
330
1E
100
AcDbEntity
  8
STEMPEL
100
AcDbLine
 10
416.4678382654618
 20
507.319832072791
 30
0.0
 11
415.3075842276175
 21
507.6307212052464
 31
0.0
  0
LINE
  5
996
330
1E
100
AcDbEntity
  8
STEMPEL
100
AcDbLine
 10
400.3075842276174
 20
507.6307212052464
 30
0.0
 11
399.1473301897731
 21
507.319832072791
 31
0.0
  0
LINE
  5
997
330
1E
100
AcDbEntity
  8
STEMPEL
100
AcDbLine
 10
399.1473301897731
 20
499.7210777214462
 30
0.0
 11
399.1473301897731
 21
507.319832072791
 31
0.0
  0
LINE
  5
998
330
1E
100
AcDbEntity
  8
STEMPEL
100
AcDbLine
 10
417.9575842276174
 20
497.6307212052464
 30
0.0
 11
397.6575842276175
 21
497.6307212052464
 31
0.0
  0
LINE
  5
999
330
1E
100
AcDbEntity
  8
STEMPEL
100
AcDbLine
 10
418.2140993351117
 20
499.0854906708358
 30
0.0
 11
397.4010691201232
 21
499.0854906708358
 31
0.0
  0
LINE
  5
99A
330
1E
100
AcDbEntity
  8
STEMPEL
100
AcDbLine
 10
403.4774572086952
 20
499.7210777214462
 30
0.0
 11
403.4774572086952
 21
507.319832072791
 31
0.0
  0
LINE
  5
99B
330
1E
100
AcDbEntity
  8
STEMPEL
100
AcDbLine
 10
412.1377112465396
 20
499.7210777214462
 30
0.0
 11
412.1377112465396
 21
507.319832072791
 31
0.0
  0
LINE
  5
99C
330
1E
100
AcDbEntity
  8
STEMPEL
100
AcDbLine
 10
416.4678382654618
 20
499.7210777214462
 30
0.0
 11
416.4678382654618
 21
507.319832072791
 31
0.0
  0
LINE
  5
99D
330
1E
100
AcDbEntity
  8
STEMPEL
100
AcDbLine
 10
400.3075842276174
 20
507.6307212052464
 30
0.0
 11
415.3075842276175
 21
507.6307212052464
 31
0.0
  0
POINT
  5
99E
330
1E
100
AcDbEntity
  8
0
100
AcDbPoint
 10
407.8075842276175
 20
497.6307212052464
 30
0.0
210
0.0000000000000001
220
1.0
230
0.0
  0
ARC
  5
99F
330
1E
100
AcDbEntity
  8
HILF
100
AcDbCircle
 10
401.3123936992342
 20
494.3822350557168
 30
0.0
 40
5.761140599691502
100
AcDbArc
 50
67.92594526325932
 51
112.0740547367407
  0
ARC
  5
9A0
330
1E
100
AcDbEntity
  8
HILF
100
AcDbCircle
 10
414.3027747560008
 20
494.3822350557168
 30
0.0
 40
5.761140599691502
100
AcDbArc
 50
67.92594526325932
 51
112.0740547367407
  0
ARC
  5
9A1
330
1E
100
AcDbEntity
  8
HILF
100
AcDbCircle
 10
407.8075842276175
 20
477.7322601575852
 30
0.0
 40
22.41111549782308
100
AcDbArc
 50
78.85962783890775
 51
101.1403721610922
  0
ARC
  5
9A2
330
1E
100
AcDbEntity
  8
STEMPEL
100
AcDbCircle
 10
414.3027747560008
 20
499.936415497462
 30
0.0
 40
7.694305707784447
100
AcDbArc
 50
73.65710669401345
 51
106.3428933059865
  0
ARC
  5
9A3
330
1E
100
AcDbEntity
  8
STEMPEL
100
AcDbCircle
 10
401.3123936992342
 20
499.936415497462
 30
0.0
 40
7.694305707784447
100
AcDbArc
 50
73.65710669401345
 51
106.3428933059865
  0
LINE
  5
9A4
330
1E
100
AcDbEntity
  8
HILF
100
AcDbLine
 10
411.8075842276176
 20
497.6307212052464
 30
0.0
 11
411.8075842276176
 21
486.630721205254
 31
0.0
  0
LINE
  5
9A5
330
1E
100
AcDbEntity
  8
STEMPEL
100
AcDbLine
 10
412.8075842276175
 20
497.6307212052464
 30
0.0
 11
412.8075842276175
 21
486.6307212052539
 31
0.0
  0
LINE
  5
9A6
330
1E
100
AcDbEntity
  8
MITTEL
100
AcDbLine
 10
407.8075842276175
 20
516.6307212052537
 30
0.0
 11
407.8075842276175
 21
486.630721205247
 31
0.0
  0
LINE
  5
9A7
330
1E
100
AcDbEntity
  8
STEMPEL
100
AcDbLine
 10
402.8075842276176
 20
497.6307212052464
 30
0.0
 11
402.8075842276176
 21
486.6307212052539
 31
0.0
  0
LINE
  5
9A8
330
1E
100
AcDbEntity
  8
HILF
100
AcDbLine
 10
403.8075842276175
 20
497.6307212052464
 30
0.0
 11
403.8075842276175
 21
486.630721205254
 31
0.0
  0
LINE
  5
9A9
330
1E
100
AcDbEntity
  8
STEMPEL
100
AcDbLine
 10
430.359857963294
 20
502.5434591730596
 30
0.0
 11
430.5184767120855
 21
511.6307212052462
 31
0.0
  0
LINE
  5
9AA
330
1E
100
AcDbEntity
  8
STEMPEL
100
AcDbLine
 10
445.5184767120855
 20
511.6307212052462
 30
0.0
 11
430.5184767120855
 21
511.6307212052462
 31
0.0
  0
LINE
  5
9AB
330
1E
100
AcDbEntity
  8
MITTEL
100
AcDbLine
 10
438.0184767120855
 20
516.6307212052462
 30
0.0
 11
438.0184767120855
 21
486.6307212052467
 31
0.0
  0
LINE
  5
9AC
330
1E
100
AcDbEntity
  8
STEMPEL
100
AcDbLine
 10
445.6850765247419
 20
502.0862243304731
 30
0.0
 11
445.5184767120855
 21
511.6307212052462
 31
0.0
  0
ARC
  5
9AD
330
1E
100
AcDbEntity
  8
STEMPEL
100
AcDbCircle
 10
425.360619487512
 20
502.630721205246
 30
0.0
 40
5.0
100
AcDbArc
 50
270.0
 51
358.9999999999982
  0
ARC
  5
9AE
330
1E
100
AcDbEntity
  8
STEMPEL
100
AcDbCircle
 10
450.676333936659
 20
502.6307212052462
 30
0.0
 40
5.0
100
AcDbArc
 50
181.0000000000017
 51
270.0
  0
HATCH
  5
9AF
330
1E
100
AcDbEntity
  8
SCHRAFF
100
AcDbHatch
 10
0.0
 20
0.0
 30
0.0
210
0.0
220
0.0
230
1.0
  2
_USER
 70
     0
 71
     0
 91
        6
 92
        7
 72
     1
 73
     1
 93
        4
 10
668.8075842276171
 20
497.6307212052469
 42
0.0
 10
668.8075842276171
 20
491.6307212052471
 42
0.0
 10
691.8075842276173
 20
491.6307212052471
 42
1.0
 10
691.8075842276173
 20
497.630721205247
 42
0.0
 97
        0
 92
        7
 72
     0
 73
     1
 93
        4
 10
654.8075842276172
 20
491.6307212052471
 10
654.8075842276172
 20
497.630721205247
 10
647.5175842276172
 20
497.6307212052469
 10
647.5175842276172
 20
491.6307212052469
 97
        0
 92
        7
 72
     1
 73
     1
 93
        4
 10
647.5175842276172
 20
491.6307212052471
 42
0.0
 10
647.5175842276172
 20
497.6307212052469
 42
0.0
 10
631.8075842276173
 20
497.6307212052469
 42
1.0
 10
631.8075842276173
 20
491.630721205247
 42
0.0
 97
        0
 92
        7
 72
     1
 73
     1
 93
        2
 10
438.0184767120855
 20
491.6381429924014
 42
0.9320082274074453
 10
438.0184767120855
 20
497.6232994180916
 42
0.0
 97
        0
 92
        7
 72
     1
 73
     1
 93
        6
 10
414.8075842276174
 20
497.6307212052464
 42
0.0
 10
414.8075842276174
 20
491.6307212052466
 42
0.0
 10
437.8075842276174
 20
491.6307212052466
 42
0.0175906946879016
 10
438.0184767120855
 20
491.6381429924016
 42
0.0
 10
438.0184767120855
 20
497.6232994180916
 42
0.017590694687906
 10
437.8075842276174
 20
497.6307212052465
 42
0.0
 97
        0
 92
        7
 72
     1
 73
     1
 93
        4
 10
400.8075842276174
 20
491.6307212052466
 42
0.0
 10
400.8075842276174
 20
497.6307212052465
 42
0.0
 10
377.8075842276173
 20
497.6307212052464
 42
1.0
 10
377.8075842276173
 20
491.6307212052466
 42
0.0
 97
        0
 75
     0
 76
     0
 52
45.0
 41
5.0
 77
     0
 78
     1
 53
45.0
 43
309.3123019070207
 44
-29.01603775782553
 45
-3.535533905932737
 46
3.535533905932737
 79
     0
 47
0.4992078678260896
 98
        6
 10
676.1095151941198
 20
494.8606101257088
 10
651.6400309406389
 20
494.3614021033669
 10
638.1568448717342
 20
494.3614021033669
 10
439.4046976159155
 20
494.8606101257088
 10
432.4134174573397
 20
494.8606101257088
 10
390.9651052064333
 20
494.3614021033669
  0
ARC
  5
9B0
330
1E
100
AcDbEntity
  8
STEMPEL
100
AcDbCircle
 10
437.8075842276174
 20
494.6307212052466
 30
0.0
 40
3.0
100
AcDbArc
 50
270.0
 51
90.0
  0
ARC
  5
9B1
330
1E
100
AcDbEntity
  8
STEMPEL
100
AcDbCircle
 10
377.8075842276173
 20
494.6307212052468
 30
0.0
 40
3.0
100
AcDbArc
 50
90.0
 51
270.0
  0
LINE
  5
9B2
330
1E
100
AcDbEntity
  8
STEMPEL
100
AcDbLine
 10
414.8075842276174
 20
497.6307212052469
 30
0.0
 11
414.8075842276174
 21
491.6307212052466
 31
0.0
  0
LINE
  5
9B3
330
1E
100
AcDbEntity
  8
STEMPEL
100
AcDbLine
 10
400.8075842276174
 20
497.6307212052469
 30
0.0
 11
400.8075842276174
 21
491.6307212052467
 31
0.0
  0
LINE
  5
9B4
330
1E
100
AcDbEntity
  8
STEMPEL
100
AcDbLine
 10
375.307584227617
 20
491.6307212052467
 30
0.0
 11
401.8075842276174
 21
491.6307212052467
 31
0.0
  0
ARC
  5
9B5
330
1E
100
AcDbEntity
  8
STEMPEL
100
AcDbCircle
 10
461.1575842276175
 20
498.3807212052465
 30
0.0
 40
0.7500000000000013
100
AcDbArc
 50
109.9999999999964
 51
269.9999991462263
  0
LINE
  5
9B6
330
1E
100
AcDbEntity
  8
STEMPEL
100
AcDbLine
 10
462.6473301897731
 20
499.7210777214465
 30
0.0
 11
460.9010691201232
 21
499.085490670836
 31
0.0
  0
LINE
  5
9B7
330
1E
100
AcDbEntity
  8
STEMPEL
100
AcDbLine
 10
479.9678382654618
 20
507.3198320727912
 30
0.0
 11
478.8075842276175
 21
507.6307212052466
 31
0.0
  0
LINE
  5
9B8
330
1E
100
AcDbEntity
  8
STEMPEL
100
AcDbLine
 10
463.8075842276174
 20
507.6307212052466
 30
0.0
 11
462.6473301897731
 21
507.3198320727912
 31
0.0
  0
LINE
  5
9B9
330
1E
100
AcDbEntity
  8
STEMPEL
100
AcDbLine
 10
462.6473301897731
 20
499.7210777214465
 30
0.0
 11
462.6473301897731
 21
507.3198320727912
 31
0.0
  0
LINE
  5
9BA
330
1E
100
AcDbEntity
  8
STEMPEL
100
AcDbLine
 10
466.9774572086953
 20
499.7210777214465
 30
0.0
 11
466.9774572086953
 21
507.3198320727912
 31
0.0
  0
LINE
  5
9BB
330
1E
100
AcDbEntity
  8
STEMPEL
100
AcDbLine
 10
475.6377112465397
 20
499.7210777214465
 30
0.0
 11
475.6377112465397
 21
507.3198320727912
 31
0.0
  0
LINE
  5
9BC
330
1E
100
AcDbEntity
  8
STEMPEL
100
AcDbLine
 10
479.9678382654618
 20
499.7210777214465
 30
0.0
 11
479.9678382654618
 21
507.3198320727912
 31
0.0
  0
LINE
  5
9BD
330
1E
100
AcDbEntity
  8
STEMPEL
100
AcDbLine
 10
463.8075842276174
 20
507.6307212052466
 30
0.0
 11
478.8075842276175
 21
507.6307212052466
 31
0.0
  0
POINT
  5
9BE
330
1E
100
AcDbEntity
  8
0
100
AcDbPoint
 10
471.3075842276174
 20
497.6307212052465
 30
0.0
210
0.0000000000000001
220
1.0
230
0.0
  0
ARC
  5
9BF
330
1E
100
AcDbEntity
  8
HILF
100
AcDbCircle
 10
464.8123936992342
 20
494.3822350557169
 30
0.0
 40
5.761140599691502
100
AcDbArc
 50
67.92594526325932
 51
112.0740547367407
  0
ARC
  5
9C0
330
1E
100
AcDbEntity
  8
HILF
100
AcDbCircle
 10
477.8027747560008
 20
494.3822350557169
 30
0.0
 40
5.761140599691502
100
AcDbArc
 50
67.92594526325932
 51
112.0740547367407
  0
ARC
  5
9C1
330
1E
100
AcDbEntity
  8
HILF
100
AcDbCircle
 10
471.3075842276174
 20
477.7322601575853
 30
0.0
 40
22.41111549782308
100
AcDbArc
 50
78.85962783890775
 51
101.1403721610922
  0
ARC
  5
9C2
330
1E
100
AcDbEntity
  8
STEMPEL
100
AcDbCircle
 10
477.8027747560008
 20
499.9364154974621
 30
0.0
 40
7.694305707784447
100
AcDbArc
 50
73.65710669401345
 51
106.3428933059865
  0
ARC
  5
9C3
330
1E
100
AcDbEntity
  8
STEMPEL
100
AcDbCircle
 10
464.8123936992342
 20
499.9364154974621
 30
0.0
 40
7.694305707784447
100
AcDbArc
 50
73.65710669401345
 51
106.3428933059865
  0
ARC
  5
9C4
330
1E
100
AcDbEntity
  8
STEMPEL
100
AcDbCircle
 10
471.3075842276174
 20
477.3198320727916
 30
0.0
 40
30.31088913245485
100
AcDbArc
 50
81.7867892982638
 51
98.21321070173619
  0
LINE
  5
9C5
330
1E
100
AcDbEntity
  8
STEMPEL
100
AcDbLine
 10
475.3075842276175
 20
511.630721205252
 30
0.0
 11
467.3075842276175
 21
511.630721205252
 31
0.0
  0
LINE
  5
9C6
330
1E
100
AcDbEntity
  8
STEMPEL
100
AcDbLine
 10
476.3075842276175
 20
510.630721205252
 30
0.0
 11
475.3075842276175
 21
511.630721205252
 31
0.0
  0
LINE
  5
9C7
330
1E
100
AcDbEntity
  8
STEMPEL
100
AcDbLine
 10
476.3075842276175
 20
510.630721205252
 30
0.0
 11
466.3075842276175
 21
510.630721205252
 31
0.0
  0
LINE
  5
9C8
330
1E
100
AcDbEntity
  8
HILF
100
AcDbLine
 10
475.3075842276175
 20
511.630721205252
 30
0.0
 11
475.3075842276175
 21
507.6307212052466
 31
0.0
  0
LINE
  5
9C9
330
1E
100
AcDbEntity
  8
STEMPEL
100
AcDbLine
 10
476.3075842276175
 20
510.630721205252
 30
0.0
 11
476.3075842276176
 21
507.6307212052466
 31
0.0
  0
LINE
  5
9CA
330
1E
100
AcDbEntity
  8
STEMPEL
100
AcDbLine
 10
467.3075842276175
 20
511.630721205252
 30
0.0
 11
466.3075842276175
 21
510.630721205252
 31
0.0
  0
LINE
  5
9CB
330
1E
100
AcDbEntity
  8
HILF
100
AcDbLine
 10
467.3075842276175
 20
511.630721205252
 30
0.0
 11
467.3075842276175
 21
507.6307212052466
 31
0.0
  0
LINE
  5
9CC
330
1E
100
AcDbEntity
  8
STEMPEL
100
AcDbLine
 10
466.3075842276175
 20
510.630721205252
 30
0.0
 11
466.3075842276175
 21
507.6307212052466
 31
0.0
  0
ARC
  5
9CD
330
1E
100
AcDbEntity
  8
STEMPEL
100
AcDbCircle
 10
481.4575842276174
 20
498.3807212052465
 30
0.0
 40
0.750000000000001
100
AcDbArc
 50
269.9999991462263
 51
70.00000000000354
  0
LINE
  5
9CE
330
1E
100
AcDbEntity
  8
STEMPEL
100
AcDbLine
 10
481.7140993351118
 20
499.085490670836
 30
0.0
 11
479.9678382654618
 21
499.7210777214465
 31
0.0
  0
LINE
  5
9CF
330
1E
100
AcDbEntity
  8
STEMPEL
100
AcDbLine
 10
481.4575842276174
 20
497.6307212052465
 30
0.0
 11
461.1575842276175
 21
497.6307212052465
 31
0.0
  0
LINE
  5
9D0
330
1E
100
AcDbEntity
  8
STEMPEL
100
AcDbLine
 10
481.7140993351118
 20
499.085490670836
 30
0.0
 11
460.9010691201232
 21
499.085490670836
 31
0.0
  0
LINE
  5
9D1
330
1E
100
AcDbEntity
  8
MITTEL
100
AcDbLine
 10
471.3075842276174
 20
516.6307212052519
 30
0.0
 11
471.3075842276174
 21
486.630721205247
 31
0.0
  0
LINE
  5
9D2
330
1E
100
AcDbEntity
  8
STEMPEL
100
AcDbLine
 10
606.9678382654616
 20
507.3198320727915
 30
0.0
 11
605.8075842276172
 21
507.6307212052468
 31
0.0
  0
LINE
  5
9D3
330
1E
100
AcDbEntity
  8
STEMPEL
100
AcDbLine
 10
590.8075842276172
 20
507.6307212052468
 30
0.0
 11
605.8075842276172
 21
507.6307212052468
 31
0.0
  0
ARC
  5
9D4
330
1E
100
AcDbEntity
  8
STEMPEL
100
AcDbCircle
 10
604.8027747560005
 20
499.9364154974625
 30
0.0
 40
7.694305707784447
100
AcDbArc
 50
73.65710669401345
 51
106.3428933059865
  0
ARC
  5
9D5
330
1E
100
AcDbEntity
  8
STEMPEL
100
AcDbCircle
 10
598.3075842276171
 20
477.319832072792
 30
0.0
 40
30.31088913245485
100
AcDbArc
 50
81.7867892982638
 51
98.21321070173619
  0
LINE
  5
9D6
330
1E
100
AcDbEntity
  8
STEMPEL
100
AcDbLine
 10
593.3075842276173
 20
510.6307212052484
 30
0.0
 11
593.3075842276173
 21
507.6307212052468
 31
0.0
  0
LINE
  5
9D7
330
1E
100
AcDbEntity
  8
HILF
100
AcDbLine
 10
594.3075842276173
 20
511.6307212052483
 30
0.0
 11
594.3075842276173
 21
507.6307212052468
 31
0.0
  0
LINE
  5
9D8
330
1E
100
AcDbEntity
  8
STEMPEL
100
AcDbLine
 10
594.3075842276173
 20
511.6307212052483
 30
0.0
 11
593.3075842276173
 21
510.6307212052484
 31
0.0
  0
LINE
  5
9D9
330
1E
100
AcDbEntity
  8
STEMPEL
100
AcDbLine
 10
603.3075842276173
 20
510.6307212052484
 30
0.0
 11
603.3075842276173
 21
507.630721205247
 31
0.0
  0
LINE
  5
9DA
330
1E
100
AcDbEntity
  8
HILF
100
AcDbLine
 10
602.3075842276173
 20
511.6307212052483
 30
0.0
 11
602.3075842276171
 21
507.6307212052468
 31
0.0
  0
LINE
  5
9DB
330
1E
100
AcDbEntity
  8
STEMPEL
100
AcDbLine
 10
603.3075842276173
 20
510.6307212052484
 30
0.0
 11
593.3075842276173
 21
510.6307212052484
 31
0.0
  0
LINE
  5
9DC
330
1E
100
AcDbEntity
  8
STEMPEL
100
AcDbLine
 10
603.3075842276173
 20
510.6307212052484
 30
0.0
 11
602.3075842276173
 21
511.6307212052483
 31
0.0
  0
LINE
  5
9DD
330
1E
100
AcDbEntity
  8
STEMPEL
100
AcDbLine
 10
602.3075842276173
 20
511.6307212052483
 30
0.0
 11
594.3075842276173
 21
511.6307212052483
 31
0.0
  0
LINE
  5
9DE
330
1E
100
AcDbEntity
  8
STEMPEL
100
AcDbLine
 10
608.7140993351114
 20
499.0854906708363
 30
0.0
 11
606.9678382654616
 21
499.7210777214466
 31
0.0
  0
LINE
  5
9DF
330
1E
100
AcDbEntity
  8
STEMPEL
100
AcDbLine
 10
590.8075842276172
 20
507.6307212052468
 30
0.0
 11
589.6473301897727
 21
507.3198320727915
 31
0.0
  0
LINE
  5
9E0
330
1E
100
AcDbEntity
  8
STEMPEL
100
AcDbLine
 10
589.6473301897727
 20
499.7210777214466
 30
0.0
 11
589.6473301897727
 21
507.3198320727915
 31
0.0
  0
LINE
  5
9E1
330
1E
100
AcDbEntity
  8
STEMPEL
100
AcDbLine
 10
593.977457208695
 20
499.7210777214466
 30
0.0
 11
593.977457208695
 21
507.3198320727915
 31
0.0
  0
LINE
  5
9E2
330
1E
100
AcDbEntity
  8
STEMPEL
100
AcDbLine
 10
602.6377112465394
 20
499.7210777214466
 30
0.0
 11
602.6377112465394
 21
507.3198320727915
 31
0.0
  0
LINE
  5
9E3
330
1E
100
AcDbEntity
  8
STEMPEL
100
AcDbLine
 10
606.9678382654616
 20
499.7210777214466
 30
0.0
 11
606.9678382654616
 21
507.3198320727915
 31
0.0
  0
ARC
  5
9E4
330
1E
100
AcDbEntity
  8
HILF
100
AcDbCircle
 10
591.8123936992339
 20
494.3822350557172
 30
0.0
 40
5.761140599691502
100
AcDbArc
 50
67.92594526325932
 51
112.0740547367407
  0
ARC
  5
9E5
330
1E
100
AcDbEntity
  8
HILF
100
AcDbCircle
 10
604.8027747560005
 20
494.3822350557172
 30
0.0
 40
5.761140599691502
100
AcDbArc
 50
67.92594526325932
 51
112.0740547367407
  0
ARC
  5
9E6
330
1E
100
AcDbEntity
  8
HILF
100
AcDbCircle
 10
598.3075842276171
 20
477.7322601575857
 30
0.0
 40
22.41111549782308
100
AcDbArc
 50
78.85962783890775
 51
101.1403721610922
  0
ARC
  5
9E7
330
1E
100
AcDbEntity
  8
STEMPEL
100
AcDbCircle
 10
591.8123936992339
 20
499.9364154974625
 30
0.0
 40
7.694305707784447
100
AcDbArc
 50
73.65710669401345
 51
106.3428933059865
  0
ARC
  5
9E8
330
1E
100
AcDbEntity
  8
STEMPEL
100
AcDbCircle
 10
608.4575842276172
 20
498.3807212052469
 30
0.0
 40
0.750000000000001
100
AcDbArc
 50
269.9999991462263
 51
70.00000000000354
  0
ARC
  5
9E9
330
1E
100
AcDbEntity
  8
STEMPEL
100
AcDbCircle
 10
588.1575842276172
 20
498.3807212052469
 30
0.0
 40
0.7500000000000013
100
AcDbArc
 50
109.9999999999964
 51
269.9999991462263
  0
LINE
  5
9EA
330
1E
100
AcDbEntity
  8
STEMPEL
100
AcDbLine
 10
589.6473301897727
 20
499.7210777214466
 30
0.0
 11
587.9010691201229
 21
499.0854906708363
 31
0.0
  0
LINE
  5
9EB
330
1E
100
AcDbEntity
  8
STEMPEL
100
AcDbLine
 10
608.4575842276172
 20
497.6307212052469
 30
0.0
 11
588.1575842276172
 21
497.6307212052469
 31
0.0
  0
LINE
  5
9EC
330
1E
100
AcDbEntity
  8
STEMPEL
100
AcDbLine
 10
608.7140993351114
 20
499.0854906708363
 30
0.0
 11
587.9010691201229
 21
499.0854906708363
 31
0.0
  0
POINT
  5
9ED
330
1E
100
AcDbEntity
  8
0
100
AcDbPoint
 10
598.3075842276171
 20
497.6307212052469
 30
0.0
210
0.0000000000000001
220
1.0
230
0.0
  0
LINE
  5
9EE
330
1E
100
AcDbEntity
  8
MITTEL
100
AcDbLine
 10
598.3075842276171
 20
516.6307212052482
 30
0.0
 11
598.3075842276171
 21
486.630721205247
 31
0.0
  0
ARC
  5
9EF
330
1E
100
AcDbEntity
  8
STEMPEL
100
AcDbCircle
 10
671.9575842276173
 20
498.380721205247
 30
0.0
 40
0.750000000000001
100
AcDbArc
 50
269.9999991462263
 51
70.00000000000354
  0
ARC
  5
9F0
330
1E
100
AcDbEntity
  8
STEMPEL
100
AcDbCircle
 10
651.6575842276174
 20
498.380721205247
 30
0.0
 40
0.7500000000000013
100
AcDbArc
 50
109.9999999999964
 51
269.9999991462263
  0
LINE
  5
9F1
330
1E
100
AcDbEntity
  8
STEMPEL
100
AcDbLine
 10
653.147330189773
 20
499.7210777214469
 30
0.0
 11
651.4010691201232
 21
499.0854906708364
 31
0.0
  0
LINE
  5
9F2
330
1E
100
AcDbEntity
  8
STEMPEL
100
AcDbLine
 10
672.2140993351116
 20
499.0854906708364
 30
0.0
 11
670.4678382654618
 21
499.7210777214469
 31
0.0
  0
LINE
  5
9F3
330
1E
100
AcDbEntity
  8
STEMPEL
100
AcDbLine
 10
671.9575842276173
 20
497.630721205247
 30
0.0
 11
651.6575842276174
 21
497.630721205247
 31
0.0
  0
LINE
  5
9F4
330
1E
100
AcDbEntity
  8
STEMPEL
100
AcDbLine
 10
672.2140993351116
 20
499.0854906708364
 30
0.0
 11
651.4010691201232
 21
499.0854906708364
 31
0.0
  0
POINT
  5
9F5
330
1E
100
AcDbEntity
  8
0
100
AcDbPoint
 10
661.8075842276174
 20
497.630721205247
 30
0.0
210
0.0000000000000001
220
1.0
230
0.0
  0
ARC
  5
9F6
330
1E
100
AcDbEntity
  8
HILF
100
AcDbCircle
 10
655.3123936992341
 20
494.3822350557174
 30
0.0
 40
5.761140599691502
100
AcDbArc
 50
67.92594526325932
 51
112.0740547367407
  0
ARC
  5
9F7
330
1E
100
AcDbEntity
  8
HILF
100
AcDbCircle
 10
668.3027747560007
 20
494.3822350557174
 30
0.0
 40
5.761140599691502
100
AcDbArc
 50
67.92594526325932
 51
112.0740547367407
  0
ARC
  5
9F8
330
1E
100
AcDbEntity
  8
HILF
100
AcDbCircle
 10
661.8075842276174
 20
477.7322601575858
 30
0.0
 40
22.41111549782308
100
AcDbArc
 50
78.85962783890775
 51
101.1403721610922
  0
LINE
  5
9F9
330
1E
100
AcDbEntity
  8
STEMPEL
100
AcDbLine
 10
668.8075842276171
 20
497.6307212052469
 30
0.0
 11
668.8075842276171
 21
491.6307212052467
 31
0.0
  0
LINE
  5
9FA
330
1E
100
AcDbEntity
  8
STEMPEL
100
AcDbLine
 10
654.8075842276172
 20
497.6307212052469
 30
0.0
 11
654.8075842276172
 21
491.6307212052466
 31
0.0
  0
ARC
  5
9FB
330
1E
100
AcDbEntity
  8
STEMPEL
100
AcDbCircle
 10
631.8075842276173
 20
494.6307212052468
 30
0.0
 40
3.0
100
AcDbArc
 50
90.0
 51
270.0
  0
ARC
  5
9FC
330
1E
100
AcDbEntity
  8
STEMPEL
100
AcDbCircle
 10
691.8075842276173
 20
494.6307212052468
 30
0.0
 40
3.0
100
AcDbArc
 50
270.0
 51
90.0
  0
LINE
  5
9FD
330
1E
100
AcDbEntity
  8
STEMPEL
100
AcDbLine
 10
666.8075842276172
 20
491.6307212052469
 30
0.0
 11
694.3075842276177
 21
491.6307212052469
 31
0.0
  0
LINE
  5
9FE
330
1E
100
AcDbEntity
  8
STEMPEL
100
AcDbLine
 10
666.8075842276174
 20
497.630721205247
 30
0.0
 11
666.8075842276174
 21
486.6307212052467
 31
0.0
  0
LINE
  5
9FF
330
1E
100
AcDbEntity
  8
HILF
100
AcDbLine
 10
665.8075842276174
 20
497.6307212052471
 30
0.0
 11
665.8075842276174
 21
486.6307212052467
 31
0.0
  0
LINE
  5
A00
330
1E
100
AcDbEntity
  8
STEMPEL
100
AcDbLine
 10
656.8075842276175
 20
497.630721205247
 30
0.0
 11
656.8075842276175
 21
486.6307212052467
 31
0.0
  0
LINE
  5
A01
330
1E
100
AcDbEntity
  8
HILF
100
AcDbLine
 10
657.8075842276176
 20
497.6307212052471
 30
0.0
 11
657.8075842276174
 21
486.6307212052467
 31
0.0
  0
LINE
  5
A02
330
1E
100
AcDbEntity
  8
STEMPEL
100
AcDbLine
 10
657.4774572086952
 20
499.7210777214469
 30
0.0
 11
657.4774572086952
 21
507.3198320727916
 31
0.0
  0
LINE
  5
A03
330
1E
100
AcDbEntity
  8
STEMPEL
100
AcDbLine
 10
666.1377112465396
 20
499.7210777214469
 30
0.0
 11
666.1377112465396
 21
507.3198320727916
 31
0.0
  0
LINE
  5
A04
330
1E
100
AcDbEntity
  8
STEMPEL
100
AcDbLine
 10
377.8075842276173
 20
497.6307212052464
 30
0.0
 11
691.8075842276173
 21
497.630721205247
 31
0.0
  0
LINE
  5
A05
330
1E
100
AcDbEntity
  8
MITTEL
100
AcDbLine
 10
661.8075842276173
 20
516.6307212052465
 30
0.0
 11
661.8075842276174
 21
486.6307212052467
 31
0.0
  0
LINE
  5
A06
330
1E
100
AcDbEntity
  8
STEMPEL
100
AcDbLine
 10
670.4678382654618
 20
507.3198320727916
 30
0.0
 11
669.3075842276174
 21
507.630721205247
 31
0.0
  0
LINE
  5
A07
330
1E
100
AcDbEntity
  8
STEMPEL
100
AcDbLine
 10
654.3075842276174
 20
507.630721205247
 30
0.0
 11
653.147330189773
 21
507.3198320727916
 31
0.0
  0
LINE
  5
A08
330
1E
100
AcDbEntity
  8
STEMPEL
100
AcDbLine
 10
653.147330189773
 20
499.7210777214469
 30
0.0
 11
653.147330189773
 21
507.3198320727916
 31
0.0
  0
LINE
  5
A09
330
1E
100
AcDbEntity
  8
STEMPEL
100
AcDbLine
 10
670.4678382654618
 20
499.7210777214469
 30
0.0
 11
670.4678382654618
 21
507.3198320727916
 31
0.0
  0
LINE
  5
A0A
330
1E
100
AcDbEntity
  8
STEMPEL
100
AcDbLine
 10
654.3075842276174
 20
507.630721205247
 30
0.0
 11
669.3075842276174
 21
507.630721205247
 31
0.0
  0
ARC
  5
A0B
330
1E
100
AcDbEntity
  8
STEMPEL
100
AcDbCircle
 10
668.3027747560007
 20
499.9364154974625
 30
0.0
 40
7.694305707784447
100
AcDbArc
 50
73.65710669401345
 51
106.3428933059865
  0
ARC
  5
A0C
330
1E
100
AcDbEntity
  8
STEMPEL
100
AcDbCircle
 10
655.3123936992341
 20
499.9364154974625
 30
0.0
 40
7.694305707784447
100
AcDbArc
 50
73.65710669401345
 51
106.3428933059865
  0
ARC
  5
A0D
330
1E
100
AcDbEntity
  8
STEMPEL
100
AcDbCircle
 10
661.8075842276174
 20
477.3198320727921
 30
0.0
 40
30.31088913245485
100
AcDbArc
 50
81.7867892982638
 51
98.21321070173619
  0
LINE
  5
A0E
330
1E
100
AcDbEntity
  8
STEMPEL
100
AcDbLine
 10
655.0786769548659
 20
508.1307212052466
 30
0.0
 11
656.3333329285593
 21
508.1307212052466
 31
0.0
  0
LINE
  5
A0F
330
1E
100
AcDbEntity
  8
STEMPEL
100
AcDbLine
 10
657.8075842276174
 20
511.6307212052466
 30
0.0
 11
656.8075842276174
 21
510.6307212052465
 31
0.0
  0
LINE
  5
A10
330
1E
100
AcDbEntity
  8
STEMPEL
100
AcDbLine
 10
665.8075842276174
 20
511.6307212052466
 30
0.0
 11
657.8075842276174
 21
511.6307212052466
 31
0.0
  0
LINE
  5
A11
330
1E
100
AcDbEntity
  8
STEMPEL
100
AcDbLine
 10
666.8075842276174
 20
510.6307212052465
 30
0.0
 11
665.8075842276174
 21
511.6307212052466
 31
0.0
  0
LINE
  5
A12
330
1E
100
AcDbEntity
  8
STEMPEL
100
AcDbLine
 10
666.8075842276174
 20
510.6307212052465
 30
0.0
 11
656.8075842276174
 21
510.6307212052465
 31
0.0
  0
LINE
  5
A13
330
1E
100
AcDbEntity
  8
HILF
100
AcDbLine
 10
665.8075842276174
 20
511.6307212052466
 30
0.0
 11
665.8075842276174
 21
507.630721205247
 31
0.0
  0
LINE
  5
A14
330
1E
100
AcDbEntity
  8
STEMPEL
100
AcDbLine
 10
656.8075842276174
 20
510.6307212052465
 30
0.0
 11
656.8075842276174
 21
507.630721205247
 31
0.0
  0
LINE
  5
A15
330
1E
100
AcDbEntity
  8
HILF
100
AcDbLine
 10
657.8075842276174
 20
511.6307212052466
 30
0.0
 11
657.8075842276174
 21
507.630721205247
 31
0.0
  0
LINE
  5
A16
330
1E
100
AcDbEntity
  8
STEMPEL
100
AcDbLine
 10
666.8075842276174
 20
510.6307212052465
 30
0.0
 11
666.8075842276174
 21
507.630721205247
 31
0.0
  0
LINE
  5
A17
330
1E
100
AcDbEntity
  8
STEMPEL
100
AcDbLine
 10
655.08740448733
 20
507.630721205247
 30
0.0
 11
655.0175842276173
 21
511.6307212052466
 31
0.0
  0
LINE
  5
A18
330
1E
100
AcDbEntity
  8
STEMPEL
100
AcDbLine
 10
655.0175842276172
 20
511.6307212052466
 30
0.0
 11
640.0175842276172
 21
511.6307212052466
 31
0.0
  0
LINE
  5
A19
330
1E
100
AcDbEntity
  8
STEMPEL
100
AcDbLine
 10
639.8589654788257
 20
502.54345917306
 30
0.0
 11
640.0175842276172
 21
511.6307212052466
 31
0.0
  0
ARC
  5
A1A
330
1E
100
AcDbEntity
  8
STEMPEL
100
AcDbCircle
 10
634.8597270030437
 20
502.6307212052463
 30
0.0
 40
5.0
100
AcDbArc
 50
270.0
 51
358.9999999999982
  0
LINE
  5
A1B
330
1E
100
AcDbEntity
  8
MITTEL
100
AcDbLine
 10
647.5175842276172
 20
516.6307212052466
 30
0.0
 11
647.5175842276172
 21
486.630721205247
 31
0.0
  0
LINE
  5
A1C
330
1E
100
AcDbEntity
  8
STEMPEL
100
AcDbLine
 10
445.6057520367266
 20
506.6307212052467
 30
0.0
 11
462.6473301897731
 21
506.6307212052468
 31
0.0
  0
LINE
  5
A1D
330
1E
100
AcDbEntity
  8
STEMPEL
100
AcDbLine
 10
670.4678382654618
 20
506.6307212052463
 30
0.0
 11
801.3075842276172
 21
506.6307212052467
 31
0.0
  0
ENDSEC
  0
SECTION
  2
OBJECTS
  0
DICTIONARY
  5
C
330
0
100
AcDbDictionary
281
     1
  3
ACAD_COLOR
350
11A
  3
ACAD_GROUP
350
D
  3
ACAD_LAYOUT
350
19
  3
ACAD_MATERIAL
350
119
  3
ACAD_MLINESTYLE
350
16
  3
ACAD_PLOTSETTINGS
350
18
  3
ACAD_PLOTSTYLENAME
350
E
  3
AcDbVariableDictionary
350
125
  0
DICTIONARY
  5
DB
330
1E
100
AcDbDictionary
280
     1
281
     1
  3
ACAD_LAYOUTSELFREF
360
10F
  0
DICTIONARY
  5
DD
330
1A
100
AcDbDictionary
280
     1
281
     1
  3
ACAD_LAYOUTSELFREF
360
10E
  0
DICTIONARY
  5
11A
102
{ACAD_REACTORS
330
C
102
}
330
C
100
AcDbDictionary
281
     1
  0
DICTIONARY
  5
D
102
{ACAD_REACTORS
330
C
102
}
330
C
100
AcDbDictionary
281
     1
  0
DICTIONARY
  5
19
102
{ACAD_REACTORS
330
C
102
}
330
C
100
AcDbDictionary
281
     1
  3
Layout1
350
1D
  3
Model
350
21
  0
DICTIONARY
  5
119
102
{ACAD_REACTORS
330
C
102
}
330
C
100
AcDbDictionary
281
     1
  0
DICTIONARY
  5
16
102
{ACAD_REACTORS
330
C
102
}
330
C
100
AcDbDictionary
281
     1
  3
Standard
350
17
  0
DICTIONARY
  5
18
102
{ACAD_REACTORS
330
C
102
}
330
C
100
AcDbDictionary
281
     1
  0
ACDBDICTIONARYWDFLT
  5
E
102
{ACAD_REACTORS
330
C
102
}
330
C
100
AcDbDictionary
281
     1
  3
Normal
350
F
100
AcDbDictionaryWithDefault
340
F
  0
DICTIONARY
  5
125
102
{ACAD_REACTORS
330
C
102
}
330
C
100
AcDbDictionary
281
     1
  3
DIMASSOC
350
126
  3
PROJECTNAME
350
127
  0
XRECORD
  5
10F
102
{ACAD_REACTORS
330
DB
102
}
330
DB
100
AcDbXrecord
280
     1
340
1E
  0
XRECORD
  5
10E
102
{ACAD_REACTORS
330
DD
102
}
330
DD
100
AcDbXrecord
280
     1
340
1A
  0
LAYOUT
  5
1D
102
{ACAD_REACTORS
330
19
102
}
330
19
100
AcDbPlotSettings
  1

  2
\\NT_WORK01\HP LaserJet 5000 PCL 6
  4

  6

 40
0.0
 41
0.0
 42
0.0
 43
0.0
 44
0.0
 45
0.0
 46
0.0
 47
0.0
 48
0.0
 49
0.0
140
0.0
141
0.0
142
1.0
143
1.0
 70
   688
 72
     0
 73
     0
 74
     5
  7

 75
    16
147
1.0
 76
     0
 77
     2
 78
   300
148
0.0
149
0.0
100
AcDbLayout
  1
Layout1
 70
     0
 71
     1
 10
0.0
 20
0.0
 11
12.0
 21
9.0
 12
0.0
 22
0.0
 32
0.0
 14
1.000000000000000E+20
 24
1.000000000000000E+20
 34
1.000000000000000E+20
 15
-1.000000000000000E+20
 25
-1.000000000000000E+20
 35
-1.000000000000000E+20
146
0.0
 13
0.0
 23
0.0
 33
0.0
 16
1.0
 26
0.0
 36
0.0
 17
0.0
 27
1.0
 37
0.0
 76
     0
330
1A
  0
LAYOUT
  5
21
102
{ACAD_REACTORS
330
19
102
}
330
19
100
AcDbPlotSettings
  1

  2
none_device
  4
Letter_(8.50_x_11.00_Inches)
  6

 40
6.349999904632568
 41
6.349999904632568
 42
6.350006103515625
 43
6.350006103515625
 44
215.8999938964844
 45
279.3999938964844
 46
0.0
 47
0.0
 48
0.0
 49
0.0
140
0.0
141
0.0
142
1.0
143
1.0
 70
 11952
 72
     0
 73
     1
 74
     0
  7

 75
     0
147
1.0
 76
     0
 77
     2
 78
   300
148
-3807.70295594273
149
97.57093982615252
100
AcDbLayout
  1
Model
 70
     1
 71
     0
 10
0.0
 20
0.0
 11
12.0
 21
9.0
 12
0.0
 22
0.0
 32
0.0
 14
0.0
 24
0.0
 34
0.0
 15
0.0
 25
0.0
 35
0.0
146
0.0
 13
0.0
 23
0.0
 33
0.0
 16
1.0
 26
0.0
 36
0.0
 17
0.0
 27
1.0
 37
0.0
 76
     0
330
1E
  0
MLINESTYLE
  5
17
102
{ACAD_REACTORS
330
16
102
}
330
16
100
AcDbMlineStyle
  2
STANDARD
 70
     0
  3

 62
   256
 51
90.0
 52
90.0
 71
     2
 49
0.5
 62
   256
  6
BYLAYER
 49
-0.5
 62
   256
  6
BYLAYER
  0
ACDBPLACEHOLDER
  5
F
102
{ACAD_REACTORS
330
E
102
}
330
E
  0
DICTIONARYVAR
  5
126
102
{ACAD_REACTORS
330
125
102
}
330
125
100
DictionaryVariables
280
     0
  1
1
  0
DICTIONARYVAR
  5
127
102
{ACAD_REACTORS
330
125
102
}
330
125
100
DictionaryVariables
280
     0
  1

  0
ENDSEC
  0
EOF
