  0
SECTION
  2
HEADER
  9
$ACADVER
  1
AC1018
  9
$ACADMAINTVER
 70
     2
  9
$DWGCODEPAGE
  3
ANSI_1252
  9
$INSBASE
 10
0.0
 20
0.0
 30
0.0
  9
$EXTMIN
 10
-0.0320410123476904
 20
-0.0453151460337722
 30
-0.0015258207003583
  9
$EXTMAX
 10
1050.03204590179
 20
1485.045322061104
 30
0.0000000349246037
  9
$LIMMIN
 10
0.0
 20
0.0
  9
$LIMMAX
 10
1049.999999999999
 20
1485.0
  9
$ORTHOMODE
 70
     1
  9
$REGENMODE
 70
     1
  9
$FILLMODE
 70
     1
  9
$QTEXTMODE
 70
     0
  9
$MIRRTEXT
 70
     1
  9
$LTSCALE
 40
50.0
  9
$ATTMODE
 70
     1
  9
$TEXTSIZE
 40
10.0
  9
$TRACEWID
 40
0.5
  9
$TEXTSTYLE
  7
GREEKS
  9
$CLAYER
  8
BEM
  9
$CELTYPE
  6
ByLayer
  9
$CECOLOR
 62
   256
  9
$CELTSCALE
 40
1.0
  9
$DISPSILH
 70
     0
  9
$DIMSCALE
 40
5.0
  9
$DIMASZ
 40
3.5
  9
$DIMEXO
 40
1.0
  9
$DIMDLI
 40
7.0
  9
$DIMRND
 40
0.0
  9
$DIMDLE
 40
0.0
  9
$DIMEXE
 40
1.0
  9
$DIMTP
 40
0.0
  9
$DIMTM
 40
0.0
  9
$DIMTXT
 40
3.5
  9
$DIMCEN
 40
1.5
  9
$DIMTSZ
 40
0.0
  9
$DIMTOL
 70
     0
  9
$DIMLIM
 70
     0
  9
$DIMTIH
 70
     0
  9
$DIMTOH
 70
     0
  9
$DIMSE1
 70
     0
  9
$DIMSE2
 70
     0
  9
$DIMTAD
 70
     1
  9
$DIMZIN
 70
     8
  9
$DIMBLK
  1

  9
$DIMASO
 70
     1
  9
$DIMSHO
 70
     0
  9
$DIMPOST
  1

  9
$DIMAPOST
  1

  9
$DIMALT
 70
     0
  9
$DIMALTD
 70
     2
  9
$DIMALTF
 40
25.4
  9
$DIMLFAC
 40
1.0
  9
$DIMTOFL
 70
     1
  9
$DIMTVP
 40
0.0
  9
$DIMTIX
 70
     0
  9
$DIMSOXD
 70
     0
  9
$DIMSAH
 70
     0
  9
$DIMBLK1
  1

  9
$DIMBLK2
  1

  9
$DIMSTYLE
  2
Standard
  9
$DIMCLRD
 70
     0
  9
$DIMCLRE
 70
     0
  9
$DIMCLRT
 70
     1
  9
$DIMTFAC
 40
0.5142857142857144
  9
$DIMGAP
 40
1.199999999999999
  9
$DIMJUST
 70
     0
  9
$DIMSD1
 70
     0
  9
$DIMSD2
 70
     0
  9
$DIMTOLJ
 70
     1
  9
$DIMTZIN
 70
     8
  9
$DIMALTZ
 70
     8
  9
$DIMALTTZ
 70
     8
  9
$DIMUPT
 70
     0
  9
$DIMDEC
 70
     0
  9
$DIMTDEC
 70
     0
  9
$DIMALTU
 70
     2
  9
$DIMALTTD
 70
     2
  9
$DIMTXSTY
  7
GREEKS
  9
$DIMAUNIT
 70
     0
  9
$DIMADEC
 70
     0
  9
$DIMALTRND
 40
0.0
  9
$DIMAZIN
 70
     2
  9
$DIMDSEP
 70
    46
  9
$DIMATFIT
 70
     3
  9
$DIMFRAC
 70
     0
  9
$DIMLDRBLK
  1

  9
$DIMLUNIT
 70
     2
  9
$DIMLWD
 70
    -2
  9
$DIMLWE
 70
    -2
  9
$DIMTMOVE
 70
     0
  9
$LUNITS
 70
     2
  9
$LUPREC
 70
     2
  9
$SKETCHINC
 40
1.0
  9
$FILLETRAD
 40
2.5
  9
$AUNITS
 70
     0
  9
$AUPREC
 70
     0
  9
$MENU
  1
ACAD
  9
$ELEVATION
 40
0.0
  9
$PELEVATION
 40
0.0
  9
$THICKNESS
 40
0.0
  9
$LIMCHECK
 70
     0
  9
$CHAMFERA
 40
20.0
  9
$CHAMFERB
 40
20.0
  9
$CHAMFERC
 40
0.0
  9
$CHAMFERD
 40
0.0
  9
$SKPOLY
 70
     0
  9
$TDCREATE
 40
2451556.341416551
  9
$TDUCREATE
 40
2451556.258083218
  9
$TDUPDATE
 40
2455497.555919375
  9
$TDUUPDATE
 40
2455497.472586042
  9
$TDINDWG
 40
0.6986740741
  9
$TDUSRTIMER
 40
0.6986740741
  9
$USRTIMER
 70
     1
  9
$ANGBASE
 50
0.0
  9
$ANGDIR
 70
     0
  9
$PDMODE
 70
     0
  9
$PDSIZE
 40
0.0
  9
$PLINEWID
 40
0.0
  9
$SPLFRAME
 70
     0
  9
$SPLINETYPE
 70
     6
  9
$SPLINESEGS
 70
     8
  9
$HANDSEED
  5
FEA
  9
$SURFTAB1
 70
     6
  9
$SURFTAB2
 70
     6
  9
$SURFTYPE
 70
     6
  9
$SURFU
 70
     6
  9
$SURFV
 70
     6
  9
$UCSBASE
  2

  9
$UCSNAME
  2

  9
$UCSORG
 10
0.0
 20
0.0
 30
0.0
  9
$UCSXDIR
 10
1.0
 20
0.0
 30
0.0
  9
$UCSYDIR
 10
0.0
 20
1.0
 30
0.0
  9
$UCSORTHOREF
  2

  9
$UCSORTHOVIEW
 70
     0
  9
$UCSORGTOP
 10
0.0
 20
0.0
 30
0.0
  9
$UCSORGBOTTOM
 10
0.0
 20
0.0
 30
0.0
  9
$UCSORGLEFT
 10
0.0
 20
0.0
 30
0.0
  9
$UCSORGRIGHT
 10
0.0
 20
0.0
 30
0.0
  9
$UCSORGFRONT
 10
0.0
 20
0.0
 30
0.0
  9
$UCSORGBACK
 10
0.0
 20
0.0
 30
0.0
  9
$PUCSBASE
  2

  9
$PUCSNAME
  2

  9
$PUCSORG
 10
0.0
 20
0.0
 30
0.0
  9
$PUCSXDIR
 10
1.0
 20
0.0
 30
0.0
  9
$PUCSYDIR
 10
0.0
 20
1.0
 30
0.0
  9
$PUCSORTHOREF
  2

  9
$PUCSORTHOVIEW
 70
     0
  9
$PUCSORGTOP
 10
0.0
 20
0.0
 30
0.0
  9
$PUCSORGBOTTOM
 10
0.0
 20
0.0
 30
0.0
  9
$PUCSORGLEFT
 10
0.0
 20
0.0
 30
0.0
  9
$PUCSORGRIGHT
 10
0.0
 20
0.0
 30
0.0
  9
$PUCSORGFRONT
 10
0.0
 20
0.0
 30
0.0
  9
$PUCSORGBACK
 10
0.0
 20
0.0
 30
0.0
  9
$USERI1
 70
     0
  9
$USERI2
 70
     0
  9
$USERI3
 70
     0
  9
$USERI4
 70
     0
  9
$USERI5
 70
     0
  9
$USERR1
 40
0.0
  9
$USERR2
 40
0.0
  9
$USERR3
 40
0.0
  9
$USERR4
 40
0.0
  9
$USERR5
 40
0.0
  9
$WORLDVIEW
 70
     1
  9
$SHADEDGE
 70
     3
  9
$SHADEDIF
 70
    70
  9
$TILEMODE
 70
     1
  9
$MAXACTVP
 70
    16
  9
$PINSBASE
 10
0.0
 20
0.0
 30
0.0
  9
$PLIMCHECK
 70
     0
  9
$PEXTMIN
 10
1.000000000000000E+20
 20
1.000000000000000E+20
 30
1.000000000000000E+20
  9
$PEXTMAX
 10
-1.000000000000000E+20
 20
-1.000000000000000E+20
 30
-1.000000000000000E+20
  9
$PLIMMIN
 10
0.0
 20
0.0
  9
$PLIMMAX
 10
12.0
 20
9.0
  9
$UNITMODE
 70
     0
  9
$VISRETAIN
 70
     0
  9
$PLINEGEN
 70
     0
  9
$PSLTSCALE
 70
     0
  9
$TREEDEPTH
 70
  3020
  9
$CMLSTYLE
  2
Standard
  9
$CMLJUST
 70
     0
  9
$CMLSCALE
 40
1.0
  9
$PROXYGRAPHICS
 70
     1
  9
$MEASUREMENT
 70
     0
  9
$CELWEIGHT
370
    -1
  9
$ENDCAPS
280
     0
  9
$JOINSTYLE
280
     0
  9
$LWDISPLAY
290
     0
  9
$INSUNITS
 70
     0
  9
$HYPERLINKBASE
  1

  9
$STYLESHEET
  1
monochrome 1.ctb
  9
$XEDIT
290
     1
  9
$CEPSNTYPE
380
     0
  9
$PSTYLEMODE
290
     1
  9
$FINGERPRINTGUID
  2
{19769042-C738-11D7-B650-000102183313}
  9
$VERSIONGUID
  2
{B702B87F-8F6A-4EF7-BF40-9B20787096D2}
  9
$EXTNAMES
290
     1
  9
$PSVPSCALE
 40
0.0
  9
$OLESTARTUP
290
     0
  9
$SORTENTS
280
    96
  9
$INDEXCTL
280
     0
  9
$HIDETEXT
280
     0
  9
$XCLIPFRAME
290
     0
  9
$HALOGAP
280
     0
  9
$OBSCOLOR
 70
   257
  9
$OBSLTYPE
280
     0
  9
$INTERSECTIONDISPLAY
280
     0
  9
$INTERSECTIONCOLOR
 70
   257
  9
$DIMASSOC
280
     1
  9
$PROJECTNAME
  1

  0
ENDSEC
  0
SECTION
  2
CLASSES
  0
CLASS
  1
ACDBDICTIONARYWDFLT
  2
AcDbDictionaryWithDefault
  3
ObjectDBX Classes
 90
        0
 91
        1
280
     0
281
     0
  0
CLASS
  1
DICTIONARYVAR
  2
AcDbDictionaryVar
  3
ObjectDBX Classes
 90
        0
 91
        3
280
     0
281
     0
  0
ENDSEC
  0
SECTION
  2
TABLES
  0
TABLE
  2
VPORT
  5
8
330
0
100
AcDbSymbolTable
 70
     2
  0
VPORT
  5
FE9
330
8
100
AcDbSymbolTableRecord
100
AcDbViewportTableRecord
  2
*Active
 70
     0
 10
0.0
 20
0.0
 11
1.0
 21
1.0
 12
524.9999999999998
 22
742.4999999999998
 13
0.0
 23
0.0
 14
1.0
 24
1.0
 15
50.0
 25
50.0
 16
0.0
 26
0.0
 36
1.0
 17
0.0
 27
0.0
 37
0.0
 40
1485.148593676656
 41
1.336927223719676
 42
50.0
 43
0.0
 44
0.0
 50
0.0
 51
0.0
 71
     0
 72
  1500
 73
     1
 74
     0
 75
     0
 76
     0
 77
     0
 78
     0
281
     0
 65
     1
110
0.0
120
0.0
130
0.0
111
1.0
121
0.0
131
0.0
112
0.0
122
1.0
132
0.0
 79
     0
146
0.0
  0
ENDTAB
  0
TABLE
  2
LTYPE
  5
5
330
0
100
AcDbSymbolTable
 70
     2
  0
LTYPE
  5
13
330
5
100
AcDbSymbolTableRecord
100
AcDbLinetypeTableRecord
  2
ByBlock
 70
     0
  3

 72
    65
 73
     0
 40
0.0
  0
LTYPE
  5
14
330
5
100
AcDbSymbolTableRecord
100
AcDbLinetypeTableRecord
  2
ByLayer
 70
     0
  3

 72
    65
 73
     0
 40
0.0
  0
LTYPE
  5
15
330
5
100
AcDbSymbolTableRecord
100
AcDbLinetypeTableRecord
  2
Continuous
 70
     0
  3
Solid line
 72
    65
 73
     0
 40
0.0
  0
LTYPE
  5
35
330
5
100
AcDbSymbolTableRecord
100
AcDbLinetypeTableRecord
  2
STRICHPUNKT
 70
     0
  3
__ . __ . __ . __ . __ . __ . __ . __ . __ . __
 72
    65
 73
     4
 40
1.0
 49
0.5
 74
     0
 49
-0.25
 74
     0
 49
0.0
 74
     0
 49
-0.25
 74
     0
  0
ENDTAB
  0
TABLE
  2
LAYER
  5
2
330
0
100
AcDbSymbolTable
 70
     8
  0
LAYER
  5
10
330
2
100
AcDbSymbolTableRecord
100
AcDbLayerTableRecord
  2
0
 70
     0
 62
     7
  6
Continuous
370
    -3
390
F
  0
LAYER
  5
38
330
2
100
AcDbSymbolTableRecord
100
AcDbLayerTableRecord
  2
VOLL
 70
     0
 62
     1
  6
Continuous
370
    -3
390
F
  0
LAYER
  5
39
330
2
100
AcDbSymbolTableRecord
100
AcDbLayerTableRecord
  2
HILF
 70
     0
 62
     2
  6
Continuous
370
    -3
390
F
  0
LAYER
  5
3A
330
2
100
AcDbSymbolTableRecord
100
AcDbLayerTableRecord
  2
MITTEL
 70
     0
 62
     2
  6
STRICHPUNKT
370
    -3
390
F
  0
LAYER
  5
3B
330
2
100
AcDbSymbolTableRecord
100
AcDbLayerTableRecord
  2
BEM
 70
     0
 62
     7
  6
Continuous
370
    -3
390
F
  0
LAYER
  5
3C
330
2
100
AcDbSymbolTableRecord
100
AcDbLayerTableRecord
  2
STEMPEL
 70
     0
 62
     3
  6
Continuous
370
    -3
390
F
  0
LAYER
  5
3D
330
2
100
AcDbSymbolTableRecord
100
AcDbLayerTableRecord
  2
TEXT
 70
     0
 62
     7
  6
Continuous
370
    -3
390
F
  0
LAYER
  5
3E
330
2
100
AcDbSymbolTableRecord
100
AcDbLayerTableRecord
  2
DEFPOINTS
 70
     0
 62
     7
  6
Continuous
290
     0
370
    -3
390
F
  0
ENDTAB
  0
TABLE
  2
STYLE
  5
3
330
0
100
AcDbSymbolTable
 70
     2
  0
STYLE
  5
11
330
3
100
AcDbSymbolTableRecord
100
AcDbTextStyleTableRecord
  2
STANDARD
 70
     0
 40
0.0
 41
1.0
 50
0.0
 71
     0
 42
3.5
  3
txt
  4

  0
STYLE
  5
34
330
3
100
AcDbSymbolTableRecord
100
AcDbTextStyleTableRecord
  2
GREEKS
 70
     0
 40
0.0
 41
0.8
 50
0.0
 71
     0
 42
10.0
  3
SIMPLEX.shx
  4

  0
ENDTAB
  0
TABLE
  2
VIEW
  5
6
330
0
100
AcDbSymbolTable
 70
     0
  0
ENDTAB
  0
TABLE
  2
UCS
  5
7
330
0
100
AcDbSymbolTable
 70
     0
  0
ENDTAB
  0
TABLE
  2
APPID
  5
9
330
0
100
AcDbSymbolTable
 70
     1
  0
APPID
  5
12
330
9
100
AcDbSymbolTableRecord
100
AcDbRegAppTableRecord
  2
ACAD
 70
     0
  0
ENDTAB
  0
TABLE
  2
DIMSTYLE
  5
A
330
0
100
AcDbSymbolTable
 70
     1
100
AcDbDimStyleTable
 71
     1
340
264
  0
DIMSTYLE
105
264
102
{ACAD_REACTORS
330
A5F
330
A60
330
A72
330
AB9
330
F75
102
}
330
A
100
AcDbSymbolTableRecord
100
AcDbDimStyleTableRecord
  2
Standard
 70
     0
340
11
  0
ENDTAB
  0
TABLE
  2
BLOCK_RECORD
  5
1
330
0
100
AcDbSymbolTable
 70
     6
  0
BLOCK_RECORD
  5
1E
330
1
100
AcDbSymbolTableRecord
100
AcDbBlockTableRecord
  2
*Model_Space
340
21
  0
BLOCK_RECORD
  5
1A
330
1
100
AcDbSymbolTableRecord
100
AcDbBlockTableRecord
  2
*Paper_Space
340
1D
  0
BLOCK_RECORD
  5
22
330
1
100
AcDbSymbolTableRecord
100
AcDbBlockTableRecord
  2
LOGO
340
0
102
{BLKREFS
331
A6F
102
}
  0
BLOCK_RECORD
  5
AFB
330
1
100
AcDbSymbolTableRecord
100
AcDbBlockTableRecord
  2
*D1
340
0
  0
BLOCK_RECORD
  5
B08
330
1
100
AcDbSymbolTableRecord
100
AcDbBlockTableRecord
  2
*D2
340
0
  0
BLOCK_RECORD
  5
B15
330
1
100
AcDbSymbolTableRecord
100
AcDbBlockTableRecord
  2
*D3
340
0
  0
BLOCK_RECORD
  5
B56
330
1
100
AcDbSymbolTableRecord
100
AcDbBlockTableRecord
  2
*D4
340
0
  0
BLOCK_RECORD
  5
F76
330
1
100
AcDbSymbolTableRecord
100
AcDbBlockTableRecord
  2
*D5
340
0
  0
ENDTAB
  0
ENDSEC
  0
SECTION
  2
BLOCKS
  0
BLOCK
  5
43
330
1E
100
AcDbEntity
  8
0
100
AcDbBlockBegin
  2
*Model_Space
 70
     0
 10
0.0
 20
0.0
 30
0.0
  3
*Model_Space
  1

  0
ENDBLK
  5
44
330
1E
100
AcDbEntity
  8
0
100
AcDbBlockEnd
  0
BLOCK
  5
41
330
1A
100
AcDbEntity
 67
     1
  8
0
100
AcDbBlockBegin
  2
*Paper_Space
 70
     0
 10
0.0
 20
0.0
 30
0.0
  3
*Paper_Space
  1

  0
ENDBLK
  5
42
330
1A
100
AcDbEntity
 67
     1
  8
0
100
AcDbBlockEnd
  0
BLOCK
  5
45
330
22
100
AcDbEntity
  8
0
100
AcDbBlockBegin
  2
LOGO
 70
     0
 10
0.0
 20
0.0
 30
0.0
  3
LOGO
  1

  0
ARC
  5
46
330
22
100
AcDbEntity
  8
0
100
AcDbCircle
 10
11.59973089678112
 20
-9.271599258481501
 30
0.0
 40
4.5
100
AcDbArc
 50
270.0
 51
231.0575587310159
  0
LINE
  5
47
330
22
100
AcDbEntity
  8
0
100
AcDbLine
 10
3.599730896781125
 20
-4.771599258481529
 30
0.0
 11
3.599730896781153
 21
-11.77159925848133
 31
0.0
  0
LINE
  5
48
330
22
100
AcDbEntity
  8
0
100
AcDbLine
 10
2.599730896781125
 20
-4.771599258481529
 30
0.0
 11
2.599730896781153
 21
-11.77159925848133
 31
0.0
  0
CIRCLE
  5
49
330
22
100
AcDbEntity
  8
0
100
AcDbCircle
 10
11.59973089678112
 20
-9.271599258481501
 30
0.0
 40
3.5
  0
ARC
  5
4A
330
22
100
AcDbEntity
  8
0
100
AcDbCircle
 10
31.59973089678115
 20
-9.271599258481472
 30
0.0
 40
4.5
100
AcDbArc
 50
270.0
 51
231.0575587310182
  0
LINE
  5
4B
330
22
100
AcDbEntity
  8
0
100
AcDbLine
 10
17.59973089678112
 20
-4.771599258481472
 30
0.0
 11
17.59973089678115
 21
-13.77159925848147
 31
0.0
  0
ARC
  5
4C
330
22
100
AcDbEntity
  8
0
100
AcDbCircle
 10
22.59973089678116
 20
-7.271599258481472
 30
0.0
 40
2.5
100
AcDbArc
 50
293.1161887722295
 51
90.0
  0
CIRCLE
  5
4D
330
22
100
AcDbEntity
  8
0
100
AcDbCircle
 10
31.59973089678115
 20
-9.271599258481472
 30
0.0
 40
3.5
  0
ARC
  5
4E
330
22
100
AcDbEntity
  8
0
100
AcDbCircle
 10
4.599730896781153
 20
-11.77159925848133
 30
0.0
 40
1.0
100
AcDbArc
 50
180.0
 51
270.0
  0
ARC
  5
4F
330
22
100
AcDbEntity
  8
0
100
AcDbCircle
 10
4.599730896781153
 20
-11.77159925848133
 30
0.0
 40
2.0
100
AcDbArc
 50
179.9999999999992
 51
270.0
  0
LINE
  5
50
330
22
100
AcDbEntity
  8
0
100
AcDbLine
 10
11.59973089678115
 20
-13.77159925848144
 30
0.0
 11
4.599730896781153
 21
-13.77159925848147
 31
0.0
  0
LINE
  5
51
330
22
100
AcDbEntity
  8
0
100
AcDbLine
 10
8.771303772034769
 20
-12.77159925848136
 30
0.0
 11
4.599730896781153
 21
-12.77159925848133
 31
0.0
  0
LINE
  5
52
330
22
100
AcDbEntity
  8
0
100
AcDbLine
 10
31.59973089678115
 20
-13.77159925848147
 30
0.0
 11
23.6715276665056
 21
-13.77159925848144
 31
0.0
  0
LINE
  5
53
330
22
100
AcDbEntity
  8
0
100
AcDbLine
 10
23.56565672307022
 20
-9.51278021337896
 30
0.0
 11
24.4388546544846
 21
-12.77159925848144
 31
0.0
  0
LINE
  5
54
330
22
100
AcDbEntity
  8
0
100
AcDbLine
 10
22.59973089678116
 20
-9.771599258481472
 30
0.0
 11
18.59973089678112
 21
-9.771599258481472
 31
0.0
  0
LINE
  5
55
330
22
100
AcDbEntity
  8
0
100
AcDbLine
 10
18.59973089678115
 20
-13.77159925848144
 30
0.0
 11
17.59973089678115
 21
-13.77159925848144
 31
0.0
  0
LINE
  5
56
330
22
100
AcDbEntity
  8
0
100
AcDbLine
 10
18.59973089678115
 20
-9.771599258481472
 30
0.0
 11
18.59973089678115
 21
-13.77159925848144
 31
0.0
  0
LINE
  5
57
330
22
100
AcDbEntity
  8
0
100
AcDbLine
 10
22.59973089678116
 20
-9.771599258481472
 30
0.0
 11
23.67152766650562
 21
-13.77159925848147
 31
0.0
  0
ARC
  5
58
330
22
100
AcDbEntity
  8
0
100
AcDbCircle
 10
22.59973089678116
 20
-7.271599258481472
 30
0.0
 40
2.5
100
AcDbArc
 50
270.0
 51
270.0000000000007
  0
LINE
  5
59
330
22
100
AcDbEntity
  8
0
100
AcDbLine
 10
28.77130377203494
 20
-12.77159925848147
 30
0.0
 11
24.43885465448463
 21
-12.77159925848144
 31
0.0
  0
LINE
  5
5A
330
22
100
AcDbEntity
  8
0
100
AcDbLine
 10
3.599730896781125
 20
-4.771599258481472
 30
0.0
 11
2.599730896781125
 21
-4.771599258481472
 31
0.0
  0
LINE
  5
5B
330
22
100
AcDbEntity
  8
0
100
AcDbLine
 10
22.59973089678116
 20
-8.771599258481472
 30
0.0
 11
18.59973089678115
 21
-8.771599258481472
 31
0.0
  0
LINE
  5
5C
330
22
100
AcDbEntity
  8
0
100
AcDbLine
 10
22.59973089678116
 20
-5.771599258481472
 30
0.0
 11
18.59973089678115
 21
-5.771599258481472
 31
0.0
  0
LINE
  5
5D
330
22
100
AcDbEntity
  8
0
100
AcDbLine
 10
22.59973089678116
 20
-4.771599258481472
 30
0.0
 11
17.59973089678115
 21
-4.771599258481472
 31
0.0
  0
LINE
  5
5E
330
22
100
AcDbEntity
  8
0
100
AcDbLine
 10
18.59973089678115
 20
-5.771599258481472
 30
0.0
 11
18.59973089678115
 21
-8.771599258481472
 31
0.0
  0
ARC
  5
5F
330
22
100
AcDbEntity
  8
0
100
AcDbCircle
 10
22.59973089678116
 20
-7.271599258481472
 30
0.0
 40
1.5
100
AcDbArc
 50
270.0
 51
90.0
  0
ENDBLK
  5
60
330
22
100
AcDbEntity
  8
0
100
AcDbBlockEnd
  0
BLOCK
  5
B06
330
AFB
100
AcDbEntity
  8
0
100
AcDbBlockBegin
  2
*D1
 70
     1
 10
0.0
 20
0.0
 30
0.0
  3
*D1
  1

  0
LINE
  5
F01
330
AFB
100
AcDbEntity
  8
BEM
 62
     0
370
    -2
100
AcDbLine
 10
666.8896194760074
 20
1097.135327627958
 30
0.0
 11
683.7315500107849
 21
1126.306407011737
 31
0.0
  0
ARC
  5
F02
330
AFB
100
AcDbEntity
  8
BEM
 62
     0
370
    -2
100
AcDbCircle
 10
573.6146194760022
 20
935.5782885519714
 30
0.0
 40
215.2338610695564
100
AcDbArc
 50
64.65982689623692
 51
175.3401731037616
  0
SOLID
  5
F03
330
AFB
100
AcDbEntity
  8
BEM
 62
     0
100
AcDbTrace
 10
667.0873574985801
 20
1132.686030812612
 30
0.0
 11
664.3784757468734
 21
1127.519819683259
 31
0.0
 12
681.2315500107849
 22
1121.976279992815
 32
0.0
 13
681.2315500107849
 23
1121.976279992815
 33
0.0
  0
SOLID
  5
F04
330
AFB
100
AcDbEntity
  8
BEM
 62
     0
100
AcDbTrace
 10
362.0064493395902
 20
952.9452488416067
 30
0.0
 11
356.1779383844033
 21
953.182393993457
 31
0.0
 12
358.3807584064457
 22
935.5782885519717
 32
0.0
 13
358.3807584064457
 23
935.5782885519717
 33
0.0
  0
MTEXT
  5
F05
330
AFB
100
AcDbEntity
  8
BEM
 62
     1
100
AcDbMText
 10
458.6226889412266
 20
1134.750154698639
 30
0.0
 40
17.5
 41
0.0
 71
     5
 72
     1
  1
\A1;120°
  7
GREEKS
 11
0.8660254037844465
 21
0.4999999999999862
 31
0.0
 73
     1
 44
1.0
  0
POINT
  5
F06
330
AFB
100
AcDbEntity
  8
DEFPOINTS
 62
     0
100
AcDbPoint
 10
536.2396517290599
 20
1147.542263644023
 30
0.0
  0
POINT
  5
F07
330
AFB
100
AcDbEntity
  8
DEFPOINTS
 62
     0
100
AcDbPoint
 10
268.6146194760071
 20
935.5782885519715
 30
0.0
  0
POINT
  5
F08
330
AFB
100
AcDbEntity
  8
DEFPOINTS
 62
     0
100
AcDbPoint
 10
664.3896194760072
 20
1092.805200609036
 30
0.0
  0
POINT
  5
F09
330
AFB
100
AcDbEntity
  8
DEFPOINTS
 62
     0
100
AcDbPoint
 10
660.3396194760071
 20
1085.790394838382
 30
0.0
  0
POINT
  5
F0A
330
AFB
100
AcDbEntity
  8
DEFPOINTS
 62
     0
100
AcDbPoint
 10
388.1806998684625
 20
935.5782885519715
 30
0.0
  0
ENDBLK
  5
B07
330
AFB
100
AcDbEntity
  8
0
100
AcDbBlockEnd
  0
BLOCK
  5
B13
330
B08
100
AcDbEntity
  8
0
100
AcDbBlockBegin
  2
*D2
 70
     1
 10
0.0
 20
0.0
 30
0.0
  3
*D2
  1

  0
LINE
  5
ECA
330
B08
100
AcDbEntity
  8
BEM
 62
     0
370
    -2
100
AcDbLine
 10
666.8896194760074
 20
774.0212494759845
 30
0.0
 11
683.7315500107838
 21
744.8501700922077
 31
0.0
  0
ARC
  5
ECB
330
B08
100
AcDbEntity
  8
BEM
 62
     0
370
    -2
100
AcDbCircle
 10
573.6146194760023
 20
935.5782885519717
 30
0.0
 40
215.2338610695539
100
AcDbArc
 50
184.6598268962383
 51
295.340173103763
  0
SOLID
  5
ECC
330
B08
100
AcDbEntity
  8
BEM
 62
     0
100
AcDbTrace
 10
356.177938384406
 20
917.9741831104861
 30
0.0
 11
362.0064493395927
 21
918.2113282623365
 31
0.0
 12
358.3807584064484
 22
935.5782885519715
 32
0.0
 13
358.3807584064484
 23
935.5782885519715
 33
0.0
  0
SOLID
  5
ECD
330
B08
100
AcDbEntity
  8
BEM
 62
     0
100
AcDbTrace
 10
664.3784757468722
 20
743.6367574206858
 30
0.0
 11
667.0873574985789
 21
738.4705462913331
 31
0.0
 12
681.2315500107837
 22
749.1802971111298
 32
0.0
 13
681.2315500107837
 23
749.1802971111298
 33
0.0
  0
MTEXT
  5
ECE
330
B08
100
AcDbEntity
  8
BEM
 62
     1
100
AcDbMText
 10
473.3726889412274
 20
761.9541718169466
 30
0.0
 40
17.5
 41
0.0
 71
     5
 72
     1
  1
\A1;120°
  7
GREEKS
 11
0.8660254037844465
 21
-0.4999999999999864
 31
0.0
 73
     1
 44
1.0
  0
POINT
  5
ECF
330
B08
100
AcDbEntity
  8
DEFPOINTS
 62
     0
100
AcDbPoint
 10
408.7359162326296
 20
797.2286294714671
 30
0.0
  0
POINT
  5
ED0
330
B08
100
AcDbEntity
  8
DEFPOINTS
 62
     0
100
AcDbPoint
 10
268.6146194760072
 20
935.5782885519715
 30
0.0
  0
POINT
  5
ED1
330
B08
100
AcDbEntity
  8
DEFPOINTS
 62
     0
100
AcDbPoint
 10
664.3896194760072
 20
778.3513764949067
 30
0.0
  0
POINT
  5
ED2
330
B08
100
AcDbEntity
  8
DEFPOINTS
 62
     0
100
AcDbPoint
 10
660.3396194760071
 20
785.3661822655606
 30
0.0
  0
POINT
  5
ED3
330
B08
100
AcDbEntity
  8
DEFPOINTS
 62
     0
100
AcDbPoint
 10
388.1806998684627
 20
935.5782885519715
 30
0.0
  0
ENDBLK
  5
B14
330
B08
100
AcDbEntity
  8
0
100
AcDbBlockEnd
  0
BLOCK
  5
B1F
330
B15
100
AcDbEntity
  8
0
100
AcDbBlockBegin
  2
*D3
 70
     1
 10
0.0
 20
0.0
 30
0.0
  3
*D3
  1

  0
LINE
  5
EDD
330
B15
100
AcDbEntity
  8
BEM
 62
     0
370
    -2
100
AcDbLine
 10
273.614619476007
 20
650.5782885519716
 30
0.0
 11
273.614619476007
 21
548.5771032142381
 31
0.0
  0
LINE
  5
EDE
330
B15
100
AcDbEntity
  8
BEM
 62
     0
370
    -2
100
AcDbLine
 10
873.6146194760072
 20
650.5782885519716
 30
0.0
 11
873.6146194760072
 21
548.5771032142381
 31
0.0
  0
LINE
  5
EDF
330
B15
100
AcDbEntity
  8
BEM
 62
     0
370
    -2
100
AcDbLine
 10
291.114619476007
 20
553.5771032142381
 30
0.0
 11
856.1146194760071
 21
553.5771032142381
 31
0.0
  0
SOLID
  5
EE0
330
B15
100
AcDbEntity
  8
BEM
 62
     0
100
AcDbTrace
 10
291.114619476007
 20
556.4937698809047
 30
0.0
 11
291.114619476007
 21
550.6604365475715
 31
0.0
 12
273.614619476007
 22
553.5771032142381
 32
0.0
 13
273.614619476007
 23
553.5771032142381
 33
0.0
  0
SOLID
  5
EE1
330
B15
100
AcDbEntity
  8
BEM
 62
     0
100
AcDbTrace
 10
856.1146194760071
 20
556.4937698809047
 30
0.0
 11
856.1146194760071
 21
550.6604365475715
 31
0.0
 12
873.6146194760072
 22
553.5771032142381
 32
0.0
 13
873.6146194760072
 23
553.5771032142381
 33
0.0
  0
MTEXT
  5
EE2
330
B15
100
AcDbEntity
  8
BEM
 62
     1
100
AcDbMText
 10
573.614619476007
 20
568.3271032142381
 30
0.0
 40
17.5
 41
0.0
 71
     5
 72
     1
  1
\A1;600
  7
GREEKS
 73
     1
 44
1.0
  0
POINT
  5
EE3
330
B15
100
AcDbEntity
  8
DEFPOINTS
 62
     0
100
AcDbPoint
 10
273.614619476007
 20
655.5782885519715
 30
0.0
  0
POINT
  5
EE4
330
B15
100
AcDbEntity
  8
DEFPOINTS
 62
     0
100
AcDbPoint
 10
873.6146194760072
 20
655.5782885519715
 30
0.0
  0
POINT
  5
EE5
330
B15
100
AcDbEntity
  8
DEFPOINTS
 62
     0
100
AcDbPoint
 10
873.6146194760072
 20
553.5771032142381
 30
0.0
  0
ENDBLK
  5
B20
330
B15
100
AcDbEntity
  8
0
100
AcDbBlockEnd
  0
BLOCK
  5
B60
330
B56
100
AcDbEntity
  8
0
100
AcDbBlockBegin
  2
*D4
 70
     1
 10
0.0
 20
0.0
 30
0.0
  3
*D4
  1

  0
LINE
  5
FCE
330
B56
100
AcDbEntity
  8
BEM
 62
     0
370
    -2
100
AcDbLine
 10
858.6146194760072
 20
1235.578288551971
 30
0.0
 11
926.8457776526613
 21
1235.578288551971
 31
0.0
  0
LINE
  5
FCF
330
B56
100
AcDbEntity
  8
BEM
 62
     0
370
    -2
100
AcDbLine
 10
858.6146194760072
 20
635.5782885519715
 30
0.0
 11
926.8457776526611
 21
635.5782885519715
 31
0.0
  0
LINE
  5
FD0
330
B56
100
AcDbEntity
  8
BEM
 62
     0
370
    -2
100
AcDbLine
 10
921.8457776526612
 20
1218.078288551972
 30
0.0
 11
921.845777652661
 21
653.0782885519715
 31
0.0
  0
SOLID
  5
FD1
330
B56
100
AcDbEntity
  8
BEM
 62
     0
100
AcDbTrace
 10
918.9291109859945
 20
1218.078288551972
 30
0.0
 11
924.7624443193279
 21
1218.078288551972
 31
0.0
 12
921.8457776526612
 22
1235.578288551971
 32
0.0
 13
921.8457776526612
 23
1235.578288551971
 33
0.0
  0
SOLID
  5
FD2
330
B56
100
AcDbEntity
  8
BEM
 62
     0
100
AcDbTrace
 10
918.9291109859945
 20
653.0782885519715
 30
0.0
 11
924.7624443193277
 21
653.0782885519715
 31
0.0
 12
921.845777652661
 22
635.5782885519715
 32
0.0
 13
921.845777652661
 23
635.5782885519715
 33
0.0
  0
MTEXT
  5
FD3
330
B56
100
AcDbEntity
  8
BEM
 62
     1
100
AcDbMText
 10
907.0957776526611
 20
935.5782885519717
 30
0.0
 40
17.5
 41
0.0
 71
     5
 72
     1
  1
\A1;600
  7
GREEKS
 11
0.0000000000000001
 21
1.0
 31
0.0
 73
     1
 44
1.0
  0
POINT
  5
FD4
330
B56
100
AcDbEntity
  8
DEFPOINTS
 62
     0
100
AcDbPoint
 10
853.6146194760071
 20
1235.578288551971
 30
0.0
  0
POINT
  5
FD5
330
B56
100
AcDbEntity
  8
DEFPOINTS
 62
     0
100
AcDbPoint
 10
853.6146194760071
 20
635.5782885519715
 30
0.0
  0
POINT
  5
FD6
330
B56
100
AcDbEntity
  8
DEFPOINTS
 62
     0
100
AcDbPoint
 10
921.845777652661
 20
635.5782885519715
 30
0.0
  0
ENDBLK
  5
B61
330
B56
100
AcDbEntity
  8
0
100
AcDbBlockEnd
  0
BLOCK
  5
F80
330
F76
100
AcDbEntity
  8
0
100
AcDbBlockBegin
  2
*D5
 70
     1
 10
0.0
 20
0.0
 30
0.0
  3
*D5
  1

  0
LINE
  5
F8B
330
F76
100
AcDbEntity
  8
BEM
 62
     0
370
    -2
100
AcDbLine
 10
578.6146194760069
 20
1045.578288551971
 30
0.0
 11
791.2753186079626
 21
1045.578288551971
 31
0.0
  0
LINE
  5
F8C
330
F76
100
AcDbEntity
  8
BEM
 62
     0
370
    -2
100
AcDbLine
 10
578.6146194760069
 20
825.5782885519716
 30
0.0
 11
791.2753186079626
 21
825.5782885519714
 31
0.0
  0
LINE
  5
F8D
330
F76
100
AcDbEntity
  8
BEM
 62
     0
370
    -2
100
AcDbLine
 10
786.2753186079626
 20
1028.078288551971
 30
0.0
 11
786.2753186079626
 21
843.0782885519715
 31
0.0
  0
SOLID
  5
F8E
330
F76
100
AcDbEntity
  8
BEM
 62
     0
100
AcDbTrace
 10
783.358651941296
 20
1028.078288551971
 30
0.0
 11
789.1919852746292
 21
1028.078288551971
 31
0.0
 12
786.2753186079626
 22
1045.578288551971
 32
0.0
 13
786.2753186079626
 23
1045.578288551971
 33
0.0
  0
SOLID
  5
F8F
330
F76
100
AcDbEntity
  8
BEM
 62
     0
100
AcDbTrace
 10
783.358651941296
 20
843.0782885519715
 30
0.0
 11
789.1919852746292
 21
843.0782885519715
 31
0.0
 12
786.2753186079626
 22
825.5782885519714
 32
0.0
 13
786.2753186079626
 23
825.5782885519714
 33
0.0
  0
MTEXT
  5
F90
330
F76
100
AcDbEntity
  8
BEM
 62
     1
100
AcDbMText
 10
771.5253186079625
 20
935.5782885519717
 30
0.0
 40
17.5
 41
0.0
 71
     5
 72
     1
  1
\A1;220
  7
GREEKS
 11
0.0000000000000001
 21
1.0
 31
0.0
 73
     1
 44
1.0
  0
POINT
  5
F91
330
F76
100
AcDbEntity
  8
DEFPOINTS
 62
     0
100
AcDbPoint
 10
573.614619476007
 20
1045.578288551971
 30
0.0
  0
POINT
  5
F92
330
F76
100
AcDbEntity
  8
DEFPOINTS
 62
     0
100
AcDbPoint
 10
573.614619476007
 20
825.5782885519716
 30
0.0
  0
POINT
  5
F93
330
F76
100
AcDbEntity
  8
DEFPOINTS
 62
     0
100
AcDbPoint
 10
786.2753186079626
 20
825.5782885519714
 30
0.0
  0
ENDBLK
  5
F81
330
F76
100
AcDbEntity
  8
0
100
AcDbBlockEnd
  0
ENDSEC
  0
SECTION
  2
ENTITIES
  0
TEXT
  5
1F5
330
1E
100
AcDbEntity
  8
VOLL
100
AcDbText
 10
78.07675471698113
 20
31.02594776470585
 30
0.0
 40
1.8
  1

  7
GREEKS
100
AcDbText
  0
DIMENSION
  5
A5F
330
1E
100
AcDbEntity
  8
BEM
100
AcDbDimension
  2
*D1
 10
388.1806998684626
 20
935.5782885519715
 30
0.0
 11
458.6226889412266
 21
1134.750154698639
 31
0.0
 70
    34
 71
     5
 42
2.094395102393217
  3
Standard
100
AcDb2LineAngularDimension
 13
664.3896194760072
 23
1092.805200609036
 33
0.0
 14
660.3396194760071
 24
1085.790394838382
 34
0.0
 15
268.6146194760072
 25
935.5782885519715
 35
0.0
 16
536.2396517290599
 26
1147.542263644023
 36
0.0
1001
ACAD
1000
DSTYLE
1002
{
1070
    40
1040
5.0
1070
    41
1040
3.5
1070
    42
1040
1.0
1070
    43
1040
7.0
1070
    44
1040
1.0
1070
    73
1070
     0
1070
    74
1070
     0
1070
    77
1070
     1
1070
    78
1070
     8
1070
    79
1070
     2
1070
   140
1040
3.5
1070
   141
1040
1.5
1070
   146
1040
0.5142857142857144
1070
   147
1040
1.199999999999999
1070
   172
1070
     1
1070
   178
1070
     1
1070
   271
1070
     2
1070
   272
1070
     2
1070
   284
1070
     8
1070
   285
1070
     8
1070
   286
1070
     8
1070
   340
1005
34
1002
}
  0
DIMENSION
  5
A60
330
1E
100
AcDbEntity
  8
BEM
100
AcDbDimension
  2
*D2
 10
388.1806998684626
 20
935.5782885519715
 30
0.0
 11
473.3726889412274
 21
761.9541718169466
 31
0.0
 70
    34
 71
     5
 42
2.094395102393218
  3
Standard
100
AcDb2LineAngularDimension
 13
664.3896194760072
 23
778.3513764949068
 33
0.0
 14
660.3396194760071
 24
785.3661822655606
 34
0.0
 15
268.6146194760072
 25
935.5782885519715
 35
0.0
 16
408.7359162326296
 26
797.2286294714671
 36
0.0
1001
ACAD
1000
DSTYLE
1002
{
1070
    40
1040
5.0
1070
    41
1040
3.5
1070
    42
1040
1.0
1070
    43
1040
7.0
1070
    44
1040
1.0
1070
    73
1070
     0
1070
    74
1070
     0
1070
    77
1070
     1
1070
    78
1070
     8
1070
    79
1070
     2
1070
   140
1040
3.5
1070
   141
1040
1.5
1070
   146
1040
0.5142857142857144
1070
   147
1040
1.199999999999999
1070
   172
1070
     1
1070
   178
1070
     1
1070
   271
1070
     2
1070
   272
1070
     2
1070
   284
1070
     8
1070
   285
1070
     8
1070
   286
1070
     8
1070
   340
1005
34
1002
}
  0
LINE
  5
A62
330
1E
100
AcDbEntity
  8
STEMPEL
100
AcDbLine
 10
1025.0
 20
275.0
 30
0.0
 11
100.0
 21
275.0
 31
0.0
  0
LINE
  5
A63
330
1E
100
AcDbEntity
  8
STEMPEL
100
AcDbLine
 10
1025.0
 20
100.0
 30
0.0
 11
340.0000000000005
 21
100.0
 31
0.0
  0
LINE
  5
A64
330
1E
100
AcDbEntity
  8
STEMPEL
100
AcDbLine
 10
1025.0
 20
200.0
 30
0.0
 11
340.0000000000005
 21
200.0
 31
0.0
  0
LINE
  5
A65
330
1E
100
AcDbEntity
  8
HILF
100
AcDbLine
 10
340.0000000000005
 20
175.0
 30
0.0
 11
550.0
 21
175.0
 31
0.0
  0
LINE
  5
A66
330
1E
100
AcDbEntity
  8
HILF
100
AcDbLine
 10
340.0000000000005
 20
150.0
 30
0.0
 11
550.0
 21
150.0
 31
0.0
  0
LINE
  5
A67
330
1E
100
AcDbEntity
  8
HILF
100
AcDbLine
 10
340.0000000000005
 20
125.0
 30
0.0
 11
550.0
 21
125.0
 31
0.0
  0
TEXT
  5
A68
330
1E
100
AcDbEntity
  8
TEXT
100
AcDbText
 10
460.7147386835126
 20
256.0460421087048
 30
0.0
 40
12.5
  1
Zul. Abw.
 41
0.8
  7
GREEKS
100
AcDbText
  0
LINE
  5
A69
330
1E
100
AcDbEntity
  8
STEMPEL
100
AcDbLine
 10
124.9999999999998
 20
25.0
 30
0.0
 11
1025.0
 21
25.0
 31
0.0
  0
LINE
  5
A6A
330
1E
100
AcDbEntity
  8
STEMPEL
100
AcDbLine
 10
1025.0
 20
25.0
 30
0.0
 11
99.99999999999978
 21
25.0
 31
0.0
  0
LINE
  5
A6B
330
1E
100
AcDbEntity
  8
STEMPEL
100
AcDbLine
 10
1025.0
 20
1460.0
 30
0.0
 11
99.99999999999978
 21
1460.0
 31
0.0
  0
LINE
  5
A6C
330
1E
100
AcDbEntity
  8
HILF
100
AcDbLine
 10
1049.999999999999
 20
1485.0
 30
0.0
 11
0.0
 21
1485.0
 31
0.0
  0
LINE
  5
A6D
330
1E
100
AcDbEntity
  8
HILF
100
AcDbLine
 10
1050.0
 20
0.0
 30
0.0
 11
0.0
 21
0.0
 31
0.0
  0
TEXT
  5
A6E
330
1E
100
AcDbEntity
  8
TEXT
100
AcDbText
 10
463.2319971868767
 20
226.9090960255756
 30
0.0
 40
10.0
  1
DIN 6930-g
 41
0.8
  7
GREEKS
 72
     1
 11
499.0415209964005
 21
226.9090960255756
 31
0.0
100
AcDbText
  0
INSERT
  5
A6F
330
1E
100
AcDbEntity
  8
STEMPEL
100
AcDbBlockReference
  2
LOGO
 10
352.4888713644486
 20
112.5526319112082
 30
0.0
 41
5.0
 42
5.0
 43
5.0
  0
LINE
  5
A70
330
1E
100
AcDbEntity
  8
STEMPEL
100
AcDbLine
 10
293.6146194760072
 20
1235.578288551971
 30
0.0
 11
853.6146194760071
 21
1235.578288551971
 31
0.0
  0
LINE
  5
A71
330
1E
100
AcDbEntity
  8
STEMPEL
100
AcDbLine
 10
293.614619476007
 20
635.5782885519715
 30
0.0
 11
853.6146194760071
 21
635.5782885519715
 31
0.0
  0
DIMENSION
  5
A72
330
1E
100
AcDbEntity
  8
BEM
100
AcDbDimension
  2
*D3
 10
873.6146194760072
 20
553.5771032142381
 30
0.0
 11
573.614619476007
 21
568.3271032142381
 31
0.0
 70
    32
 71
     5
 42
600.0000000000002
  3
Standard
100
AcDbAlignedDimension
 13
273.614619476007
 23
655.5782885519715
 33
0.0
 14
873.6146194760072
 24
655.5782885519715
 34
0.0
100
AcDbRotatedDimension
1001
ACAD
1000
DSTYLE
1002
{
1070
    40
1040
5.0
1070
    41
1040
3.5
1070
    42
1040
1.0
1070
    43
1040
7.0
1070
    44
1040
1.0
1070
    73
1070
     0
1070
    74
1070
     0
1070
    77
1070
     1
1070
    78
1070
     8
1070
    79
1070
     2
1070
   140
1040
3.5
1070
   141
1040
1.5
1070
   146
1040
0.5142857142857144
1070
   147
1040
1.199999999999999
1070
   172
1070
     1
1070
   178
1070
     1
1070
   271
1070
     2
1070
   272
1070
     2
1070
   284
1070
     8
1070
   285
1070
     8
1070
   286
1070
     8
1070
   340
1005
34
1002
}
  0
LINE
  5
A73
330
1E
100
AcDbEntity
  8
MITTEL
100
AcDbLine
 10
268.6146194760072
 20
935.5782885519717
 30
0.0
 11
760.1189811126451
 21
935.5782885519715
 31
0.0
  0
TEXT
  5
A74
330
1E
100
AcDbEntity
  8
TEXT
 62
     1
100
AcDbText
 10
229.8489563196583
 20
357.7683137486726
 30
0.0
 40
17.5
  1
3x Befestigungslaschen
 41
0.8
  7
GREEKS
100
AcDbText
  0
CIRCLE
  5
A75
330
1E
100
AcDbEntity
  8
STEMPEL
100
AcDbCircle
 10
573.614619476007
 20
935.5782885519715
 30
0.0
 40
110.0
  0
LINE
  5
A76
330
1E
100
AcDbEntity
  8
STEMPEL
100
AcDbLine
 10
100.0
 20
25.0
 30
0.0
 11
99.99999999999978
 21
1460.0
 31
0.0
  0
LINE
  5
A77
330
1E
100
AcDbEntity
  8
HILF
100
AcDbLine
 10
0.0
 20
0.0
 30
0.0
 11
-0.0000000000002274
 21
1485.0
 31
0.0
  0
LINE
  5
A78
330
1E
100
AcDbEntity
  8
STEMPEL
100
AcDbLine
 10
273.6146194760072
 20
1215.578288551971
 30
0.0
 11
273.614619476007
 21
655.5782885519715
 31
0.0
  0
LINE
  5
A79
330
1E
100
AcDbEntity
  8
STEMPEL
100
AcDbLine
 10
339.9999999999998
 20
75.0
 30
0.0
 11
100.0
 21
75.0
 31
0.0
  0
LINE
  5
A7A
330
1E
100
AcDbEntity
  8
HILF
100
AcDbLine
 10
100.0
 20
250.0
 30
0.0
 11
340.0000000000005
 21
250.0
 31
0.0
  0
LINE
  5
A7B
330
1E
100
AcDbEntity
  8
HILF
100
AcDbLine
 10
100.0
 20
225.0
 30
0.0
 11
340.0000000000005
 21
225.0
 31
0.0
  0
LINE
  5
A7C
330
1E
100
AcDbEntity
  8
HILF
100
AcDbLine
 10
100.0
 20
200.0
 30
0.0
 11
340.0000000000005
 21
200.0
 31
0.0
  0
LINE
  5
A7D
330
1E
100
AcDbEntity
  8
HILF
100
AcDbLine
 10
100.0
 20
175.0
 30
0.0
 11
340.0000000000005
 21
175.0
 31
0.0
  0
LINE
  5
A7E
330
1E
100
AcDbEntity
  8
HILF
100
AcDbLine
 10
100.0
 20
150.0
 30
0.0
 11
340.0000000000005
 21
150.0
 31
0.0
  0
LINE
  5
A7F
330
1E
100
AcDbEntity
  8
HILF
100
AcDbLine
 10
100.0
 20
125.0
 30
0.0
 11
340.0000000000005
 21
125.0
 31
0.0
  0
LINE
  5
A80
330
1E
100
AcDbEntity
  8
HILF
100
AcDbLine
 10
100.0
 20
100.0
 30
0.0
 11
340.0000000000005
 21
100.0
 31
0.0
  0
TEXT
  5
A81
330
1E
100
AcDbEntity
  8
TEXT
100
AcDbText
 10
152.5070059895663
 20
46.68454737460343
 30
0.0
 40
10.0
  1
Änderung
 41
0.8
  7
GREEKS
100
AcDbText
  0
TEXT
  5
A82
330
1E
100
AcDbEntity
  8
TEXT
100
AcDbText
 10
104.6377487744416
 20
279.1799999999998
 30
0.0
 40
12.5
  1
Erstellt mit AUTO-CAD 2004
 41
0.8
  7
GREEKS
100
AcDbText
  0
LINE
  5
A83
330
1E
100
AcDbEntity
  8
VOLL
100
AcDbLine
 10
135.0
 20
275.0
 30
0.0
 11
135.0
 21
25.0
 31
0.0
  0
TEXT
  5
A84
330
1E
100
AcDbEntity
  8
TEXT
100
AcDbText
 10
120.666027676144
 20
34.13664615067978
 30
0.0
 40
10.0
  1
Index
 50
90.0
 41
0.8
  7
GREEKS
100
AcDbText
  0
LINE
  5
A85
330
1E
100
AcDbEntity
  8
HILF
100
AcDbLine
 10
77.71917839284651
 20
742.5000000000001
 30
0.0
 11
0.0000000000004547
 21
742.5000000000001
 31
0.0
  0
TEXT
  5
A86
330
1E
100
AcDbEntity
  8
TEXT
100
AcDbText
 10
358.7908930375943
 20
256.1552237717722
 30
0.0
 40
12.5
  1
Maßstab
 41
0.8
  7
GREEKS
100
AcDbText
  0
TEXT
  5
A87
330
1E
100
AcDbEntity
  8
TEXT
100
AcDbText
 10
343.9590317919037
 20
159.0747592404491
 30
0.0
 40
10.0
  1
Gez.
 41
0.8
  7
GREEKS
100
AcDbText
  0
TEXT
  5
A88
330
1E
100
AcDbEntity
  8
TEXT
100
AcDbText
 10
343.8787716429181
 20
134.2231572857095
 30
0.0
 40
10.0
  1
Gepr.
 41
0.8
  7
GREEKS
100
AcDbText
  0
TEXT
  5
A89
330
1E
100
AcDbEntity
  8
TEXT
100
AcDbText
 10
344.0016943468259
 20
108.8236597412451
 30
0.0
 40
10.0
  1
Norm.
 41
0.8
  7
GREEKS
100
AcDbText
  0
TEXT
  5
A8A
330
1E
100
AcDbEntity
  8
TEXT
100
AcDbText
 10
346.55527455526
 20
182.8506367787918
 30
0.0
 40
10.0
  1
2008
 41
0.8
  7
GREEKS
100
AcDbText
  0
LINE
  5
A8B
330
1E
100
AcDbEntity
  8
STEMPEL
100
AcDbLine
 10
340.0000000000005
 20
275.0
 30
0.0
 11
340.0
 21
25.0
 31
0.0
  0
LINE
  5
A8C
330
1E
100
AcDbEntity
  8
VOLL
100
AcDbLine
 10
235.0000000000004
 20
275.0
 30
0.0
 11
235.0
 21
25.0
 31
0.0
  0
LINE
  5
A8D
330
1E
100
AcDbEntity
  8
VOLL
100
AcDbLine
 10
285.0000000000004
 20
275.0
 30
0.0
 11
285.0
 21
25.0
 31
0.0
  0
TEXT
  5
A8E
330
1E
100
AcDbEntity
  8
TEXT
100
AcDbText
 10
248.6808842493008
 20
46.67890673349529
 30
0.0
 40
10.0
  1
Tag
 41
0.8
  7
GREEKS
100
AcDbText
  0
TEXT
  5
A8F
330
1E
100
AcDbEntity
  8
TEXT
100
AcDbText
 10
295.5503761794203
 20
46.48310542416015
 30
0.0
 40
10.0
  1
Name
 41
0.8
  7
GREEKS
100
AcDbText
  0
LINE
  5
A90
330
1E
100
AcDbEntity
  8
VOLL
100
AcDbLine
 10
385.0000000000004
 20
200.0
 30
0.0
 11
385.0000000000004
 21
100.0
 31
0.0
  0
TEXT
  5
A91
330
1E
100
AcDbEntity
  8
TEXT
100
AcDbText
 10
401.7593975324949
 20
157.7691260206434
 30
0.0
 40
10.0
  1
13.06.
 41
0.8
  7
GREEKS
 72
     1
 11
418.5213022943996
 21
157.7691260206434
 31
0.0
100
AcDbText
  0
TEXT
  5
A92
330
1E
100
AcDbEntity
  8
TEXT
 62
     1
100
AcDbText
 10
376.2515766204717
 20
220.3725357228491
 30
0.0
 40
17.5
  1
1:5
 41
0.8
  7
GREEKS
100
AcDbText
  0
TEXT
  5
A93
330
1E
100
AcDbEntity
  8
TEXT
100
AcDbText
 10
405.8279182884125
 20
183.2970125307481
 30
0.0
 40
10.0
  1
Tag
 41
0.8
  7
GREEKS
100
AcDbText
  0
LINE
  5
A94
330
1E
100
AcDbEntity
  8
VOLL
100
AcDbLine
 10
450.0000000000004
 20
274.9999999999996
 30
0.0
 11
450.0
 21
100.0
 31
0.0
  0
TEXT
  5
A95
330
1E
100
AcDbEntity
  8
TEXT
100
AcDbText
 10
486.0540121453142
 20
157.7240979930877
 30
0.0
 40
10.0
  1
Koeh
 41
0.8
  7
GREEKS
 72
     1
 11
499.1968692881714
 21
157.7240979930877
 31
0.0
100
AcDbText
  0
TEXT
  5
A96
330
1E
100
AcDbEntity
  8
TEXT
100
AcDbText
 10
481.1566460565736
 20
183.2740272978806
 30
0.0
 40
10.0
  1
Name
 41
0.8
  7
GREEKS
100
AcDbText
  0
LINE
  5
A98
330
1E
100
AcDbEntity
  8
STEMPEL
100
AcDbLine
 10
293.614619476007
 20
635.5782885519715
 30
0.0
 11
273.614619476007
 21
655.5782885519715
 31
0.0
  0
LINE
  5
A99
330
1E
100
AcDbEntity
  8
MITTEL
100
AcDbLine
 10
285.614619476007
 20
655.5782885519715
 30
0.0
 11
301.614619476007
 21
655.5782885519715
 31
0.0
  0
CIRCLE
  5
A9A
330
1E
100
AcDbEntity
  8
STEMPEL
100
AcDbCircle
 10
293.614619476007
 20
655.5782885519715
 30
0.0
 40
3.0
  0
LINE
  5
A9B
330
1E
100
AcDbEntity
  8
MITTEL
100
AcDbLine
 10
293.614619476007
 20
663.5782885519716
 30
0.0
 11
293.614619476007
 21
647.5782885519715
 31
0.0
  0
LINE
  5
AAF
330
1E
100
AcDbEntity
  8
STEMPEL
100
AcDbLine
 10
273.6146194760072
 20
1215.578288551971
 30
0.0
 11
293.6146194760072
 21
1235.578288551971
 31
0.0
  0
LINE
  5
AB0
330
1E
100
AcDbEntity
  8
MITTEL
100
AcDbLine
 10
285.614619476007
 20
1215.578288551971
 30
0.0
 11
301.614619476007
 21
1215.578288551971
 31
0.0
  0
LINE
  5
AB1
330
1E
100
AcDbEntity
  8
MITTEL
100
AcDbLine
 10
293.614619476007
 20
1223.578288551971
 30
0.0
 11
293.614619476007
 21
1207.578288551971
 31
0.0
  0
CIRCLE
  5
AB2
330
1E
100
AcDbEntity
  8
STEMPEL
100
AcDbCircle
 10
293.614619476007
 20
1215.578288551971
 30
0.0
 40
3.0
  0
LINE
  5
AB4
330
1E
100
AcDbEntity
  8
STEMPEL
100
AcDbLine
 10
1025.0
 20
275.0
 30
0.0
 11
1025.0
 21
1460.0
 31
0.0
  0
LINE
  5
AB5
330
1E
100
AcDbEntity
  8
HILF
100
AcDbLine
 10
1050.0
 20
-0.0000000000002274
 30
0.0
 11
1049.999999999999
 21
1485.0
 31
0.0
  0
LINE
  5
AB7
330
1E
100
AcDbEntity
  8
MITTEL
100
AcDbLine
 10
573.614619476007
 20
1240.578288551972
 30
0.0
 11
573.6146194760067
 21
630.5782885519715
 31
0.0
  0
LINE
  5
AB8
330
1E
100
AcDbEntity
  8
STEMPEL
100
AcDbLine
 10
873.6146194760072
 20
1215.578288551971
 30
0.0
 11
873.6146194760072
 21
655.5782885519715
 31
0.0
  0
DIMENSION
  5
AB9
330
1E
100
AcDbEntity
  8
BEM
100
AcDbDimension
  2
*D4
 10
921.845777652661
 20
635.5782885519715
 30
0.0
 11
907.0957776526611
 21
935.5782885519717
 31
0.0
 70
    32
 71
     5
 42
600.0
  3
Standard
100
AcDbAlignedDimension
 13
853.6146194760071
 23
1235.578288551971
 33
0.0
 14
853.6146194760071
 24
635.5782885519715
 34
0.0
 50
90.0
100
AcDbRotatedDimension
1001
ACAD
1000
DSTYLE
1002
{
1070
    40
1040
5.0
1070
    41
1040
3.5
1070
    42
1040
1.0
1070
    43
1040
7.0
1070
    44
1040
1.0
1070
    73
1070
     0
1070
    74
1070
     0
1070
    77
1070
     1
1070
    78
1070
     8
1070
    79
1070
     2
1070
   140
1040
3.5
1070
   141
1040
1.5
1070
   146
1040
0.5142857142857144
1070
   147
1040
1.199999999999999
1070
   172
1070
     1
1070
   178
1070
     1
1070
   271
1070
     2
1070
   272
1070
     2
1070
   284
1070
     8
1070
   285
1070
     8
1070
   286
1070
     8
1070
   340
1005
34
1002
}
  0
LINE
  5
ABA
330
1E
100
AcDbEntity
  8
VOLL
100
AcDbLine
 10
830.0
 20
150.0
 30
0.0
 11
1025.0
 21
150.0
 31
0.0
  0
LINE
  5
ABB
330
1E
100
AcDbEntity
  8
HILF
100
AcDbLine
 10
841.809654074248
 20
209.4495909238958
 30
0.0
 11
1012.147209831682
 21
209.4495909238958
 31
0.0
  0
LINE
  5
ABC
330
1E
100
AcDbEntity
  8
HILF
100
AcDbLine
 10
558.7274248224712
 20
37.23495645070784
 30
0.0
 11
1012.147209831682
 21
37.23495645070784
 31
0.0
  0
TEXT
  5
ABD
330
1E
100
AcDbEntity
  8
TEXT
100
AcDbText
 10
840.4468873940849
 20
255.7830086342842
 30
0.0
 40
12.5
  1
Zeichnungs Nr.
 41
0.8
  7
GREEKS
100
AcDbText
  0
TEXT
  5
ABE
330
1E
100
AcDbEntity
  8
TEXT
100
AcDbText
 10
841.809654074248
 20
182.9529559274993
 30
0.0
 40
12.5
  1
Ersatz für:
 41
0.8
  7
GREEKS
100
AcDbText
  0
TEXT
  5
ABF
330
1E
100
AcDbEntity
  8
TEXT
100
AcDbText
 10
843.1002153742515
 20
130.1854044469651
 30
0.0
 40
12.5
  1
ersetzt durch:
 41
0.8
  7
GREEKS
100
AcDbText
  0
CIRCLE
  5
AC0
330
1E
100
AcDbEntity
  8
STEMPEL
100
AcDbCircle
 10
853.6146194760071
 20
655.5782885519715
 30
0.0
 40
3.0
  0
LINE
  5
AC1
330
1E
100
AcDbEntity
  8
MITTEL
100
AcDbLine
 10
845.6146194760071
 20
655.5782885519715
 30
0.0
 11
861.6146194760071
 21
655.5782885519715
 31
0.0
  0
TEXT
  5
AC2
330
1E
100
AcDbEntity
  8
TEXT
 62
     1
100
AcDbText
 10
563.166620706688
 20
303.9814357358377
 30
0.0
 40
17.5
  1
Werkstoff: sendzimier verzinktes Blech
 41
0.8
  7
GREEKS
100
AcDbText
  0
TEXT
  5
AC3
330
1E
100
AcDbEntity
  8
TEXT
 62
     1
100
AcDbText
 10
852.8892176019567
 20
489.8612157023535
 30
0.0
 40
17.5
  1
t=1.5
 41
0.8
  7
GREEKS
100
AcDbText
  0
TEXT
  5
AC4
330
1E
100
AcDbEntity
  8
TEXT
100
AcDbText
 10
562.8240977813288
 20
178.7583604396322
 30
0.0
 40
12.5
  1
für DN70, DN100 und DN125
 41
0.8
  7
GREEKS
100
AcDbText
  0
LINE
  5
AC5
330
1E
100
AcDbEntity
  8
HILF
100
AcDbLine
 10
561.9342002742369
 20
210.0939561891034
 30
0.0
 11
812.0884791390777
 21
210.0939561891034
 31
0.0
  0
LINE
  5
AC6
330
1E
100
AcDbEntity
  8
HILF
100
AcDbLine
 10
561.9342002742369
 20
175.0
 30
0.0
 11
812.0884791390777
 21
175.0
 31
0.0
  0
LINE
  5
AC7
330
1E
100
AcDbEntity
  8
HILF
100
AcDbLine
 10
561.9342002742369
 20
150.0
 30
0.0
 11
812.0884791390777
 21
150.0
 31
0.0
  0
LINE
  5
AC8
330
1E
100
AcDbEntity
  8
HILF
100
AcDbLine
 10
561.9342002742369
 20
125.0
 30
0.0
 11
812.0884791390777
 21
125.0
 31
0.0
  0
TEXT
  5
AC9
330
1E
100
AcDbEntity
  8
TEXT
 62
     1
100
AcDbText
 10
567.2339327643503
 20
218.5437197313445
 30
0.0
 40
17.5
  1
Verstärkungsblech
 41
0.8
  7
GREEKS
100
AcDbText
  0
TEXT
  5
ACA
330
1E
100
AcDbEntity
  8
TEXT
100
AcDbText
 10
562.8240977813288
 20
129.100298576054
 30
0.0
 40
12.5
  1
EDV-Art.Nr. 19975.000X
 41
0.8
  7
GREEKS
100
AcDbText
  0
LINE
  5
ACB
330
1E
100
AcDbEntity
  8
STEMPEL
100
AcDbLine
 10
550.0
 20
275.0
 30
0.0
 11
550.0
 21
25.0
 31
0.0
  0
TEXT
  5
ACC
330
1E
100
AcDbEntity
  8
TEXT
100
AcDbText
 10
562.1948509522526
 20
256.3723320029449
 30
0.0
 40
12.5
  1
Benennung
 41
0.8
  7
GREEKS
100
AcDbText
  0
TEXT
  5
ACD
330
1E
100
AcDbEntity
  8
TEXT
100
AcDbText
 10
561.85559597784
 20
77.11401425482654
 30
0.0
 40
12.5
  1
Bauvorhaben
 41
0.8
  7
GREEKS
100
AcDbText
  0
TEXT
  5
ACE
330
1E
100
AcDbEntity
  8
TEXT
100
AcDbText
 10
562.4593753944568
 20
106.5743538255658
 30
0.0
 40
10.0
  1
19975000W.DWG
 41
0.8
  7
GREEKS
100
AcDbText
  0
LINE
  5
ACF
330
1E
100
AcDbEntity
  8
STEMPEL
100
AcDbLine
 10
830.0
 20
274.9999999999996
 30
0.0
 11
830.0
 21
100.0
 31
0.0
  0
TEXT
  5
AD1
330
1E
100
AcDbEntity
  8
TEXT
 62
     1
100
AcDbText
 10
865.616906953713
 20
220.3725357228491
 30
0.0
 40
17.5
  1
19975000W
 41
0.8
  7
GREEKS
 72
     1
 11
924.2835736203797
 21
220.3725357228491
 31
0.0
100
AcDbText
  0
LINE
  5
AD2
330
1E
100
AcDbEntity
  8
STEMPEL
100
AcDbLine
 10
1025.0
 20
275.0
 30
0.0
 11
1025.0
 21
25.0
 31
0.0
  0
LINE
  5
AD3
330
1E
100
AcDbEntity
  8
STEMPEL
100
AcDbLine
 10
873.6146194760072
 20
655.5782885519715
 30
0.0
 11
853.6146194760071
 21
635.5782885519715
 31
0.0
  0
LINE
  5
AD4
330
1E
100
AcDbEntity
  8
MITTEL
100
AcDbLine
 10
853.6146194760071
 20
663.5782885519716
 30
0.0
 11
853.6146194760071
 21
647.5782885519715
 31
0.0
  0
CIRCLE
  5
AD6
330
1E
100
AcDbEntity
  8
STEMPEL
100
AcDbCircle
 10
853.6146194760071
 20
1215.578288551971
 30
0.0
 40
3.0
  0
LINE
  5
AD7
330
1E
100
AcDbEntity
  8
MITTEL
100
AcDbLine
 10
845.6146194760071
 20
1215.578288551971
 30
0.0
 11
861.6146194760071
 21
1215.578288551971
 31
0.0
  0
LINE
  5
ADB
330
1E
100
AcDbEntity
  8
MITTEL
100
AcDbLine
 10
664.614619476007
 20
777.9616650632036
 30
0.0
 11
636.3646194760069
 21
826.8921003770245
 31
0.0
  0
LINE
  5
AE8
330
1E
100
AcDbEntity
  8
MITTEL
100
AcDbLine
 10
664.614619476007
 20
1093.194912040739
 30
0.0
 11
636.3646194760069
 21
1044.264476726918
 31
0.0
  0
LINE
  5
AF8
330
1E
100
AcDbEntity
  8
MITTEL
100
AcDbLine
 10
797.4795068660577
 20
935.5782885519715
 30
0.0
 11
878.6146194760071
 21
935.5782885519715
 31
0.0
  0
LINE
  5
AF9
330
1E
100
AcDbEntity
  8
STEMPEL
100
AcDbLine
 10
853.6146194760071
 20
1235.578288551971
 30
0.0
 11
873.6146194760072
 21
1215.578288551971
 31
0.0
  0
LINE
  5
AFA
330
1E
100
AcDbEntity
  8
MITTEL
100
AcDbLine
 10
853.6146194760071
 20
1223.578288551971
 30
0.0
 11
853.6146194760071
 21
1207.578288551971
 31
0.0
  0
CIRCLE
  5
C09
330
1E
100
AcDbEntity
  8
STEMPEL
100
AcDbCircle
 10
398.614619476007
 20
935.5782885519715
 30
0.0
 40
2.049999999999999
  0
CIRCLE
  5
C0A
330
1E
100
AcDbEntity
  8
STEMPEL
100
AcDbCircle
 10
413.6146194760069
 20
935.5782885519715
 30
0.0
 40
2.049999999999999
  0
CIRCLE
  5
DC5
330
1E
100
AcDbEntity
  8
STEMPEL
100
AcDbCircle
 10
441.1146194760069
 20
935.5782885519715
 30
0.0
 40
2.049999999999999
  0
CIRCLE
  5
DC6
330
1E
100
AcDbEntity
  8
STEMPEL
100
AcDbCircle
 10
653.6146194760067
 20
797.0142239464617
 30
0.0
 40
2.049999999999999
  0
CIRCLE
  5
DC7
330
1E
100
AcDbEntity
  8
STEMPEL
100
AcDbCircle
 10
661.1146194760067
 20
784.0238428896951
 30
0.0
 40
2.049999999999999
  0
CIRCLE
  5
DC8
330
1E
100
AcDbEntity
  8
STEMPEL
100
AcDbCircle
 10
639.8646194760067
 20
820.8299225505337
 30
0.0
 40
2.049999999999999
  0
CIRCLE
  5
DC9
330
1E
100
AcDbEntity
  8
STEMPEL
100
AcDbCircle
 10
653.6146194760071
 20
1074.142353157481
 30
0.0
 40
2.049999999999999
  0
CIRCLE
  5
DCA
330
1E
100
AcDbEntity
  8
STEMPEL
100
AcDbCircle
 10
661.1146194760071
 20
1087.132734214248
 30
0.0
 40
2.049999999999999
  0
CIRCLE
  5
DCB
330
1E
100
AcDbEntity
  8
STEMPEL
100
AcDbCircle
 10
639.8646194760072
 20
1050.326654553409
 30
0.0
 40
2.049999999999999
  0
TEXT
  5
E55
330
1E
100
AcDbEntity
  8
TEXT
 62
     1
100
AcDbText
 10
110.5904739251657
 20
400.8760383762012
 30
0.0
 40
17.5
  1
Zubehoer: 3x Blechschraube DIN 7981-St4.8x9.5-C-H
 41
0.8
  7
GREEKS
100
AcDbText
  0
CIRCLE
  5
E5C
330
1E
100
AcDbEntity
  8
MITTEL
100
AcDbCircle
 10
573.614619476007
 20
935.5782885519715
 30
0.0
 40
132.5
  0
CIRCLE
  5
E5D
330
1E
100
AcDbEntity
  8
MITTEL
100
AcDbCircle
 10
573.614619476007
 20
935.5782885519715
 30
0.0
 40
160.0
  0
CIRCLE
  5
E5E
330
1E
100
AcDbEntity
  8
MITTEL
100
AcDbCircle
 10
573.614619476007
 20
935.5782885519715
 30
0.0
 40
175.0
  0
DIMENSION
  5
F75
330
1E
100
AcDbEntity
  8
BEM
100
AcDbDimension
  2
*D5
 10
786.2753186079626
 20
825.5782885519714
 30
0.0
 11
771.5253186079625
 21
935.5782885519717
 31
0.0
 70
    32
 71
     5
 42
220.0000000000001
  3
Standard
100
AcDbAlignedDimension
 13
573.614619476007
 23
1045.578288551971
 33
0.0
 14
573.614619476007
 24
825.5782885519716
 34
0.0
 50
90.0
100
AcDbRotatedDimension
1001
ACAD
1000
DSTYLE
1002
{
1070
    40
1040
5.0
1070
    41
1040
3.5
1070
    42
1040
1.0
1070
    43
1040
7.0
1070
    44
1040
1.0
1070
    73
1070
     0
1070
    74
1070
     0
1070
    77
1070
     1
1070
    78
1070
     8
1070
    79
1070
     2
1070
   140
1040
3.5
1070
   141
1040
1.5
1070
   146
1040
0.5142857142857144
1070
   147
1040
1.199999999999999
1070
   172
1070
     1
1070
   178
1070
     1
1070
   271
1070
     0
1070
   272
1070
     0
1070
   284
1070
     8
1070
   285
1070
     8
1070
   286
1070
     8
1070
   340
1005
34
1002
}
  0
SOLID
  5
FAF
330
1E
100
AcDbEntity
  8
BEM
100
AcDbTrace
 10
669.2792172680279
 20
778.9118964787242
 30
0.0
 11
662.8839375293526
 21
785.0592237983972
 31
0.0
 12
670.9272542506962
 22
781.3183292220607
 32
0.0
 13
670.9272542506962
 23
781.3183292220607
 33
0.0
1001
ACAD
1000
DSTYLE
1002
{
1070
    40
1040
0.5
1070
    41
1040
17.5
1070
    42
1040
1.0
1070
    43
1040
7.0
1070
    44
1040
1.0
1070
    73
1070
     0
1070
    74
1070
     0
1070
    77
1070
     0
1070
    78
1070
     8
1070
    79
1070
     2
1070
   140
1040
3.5
1070
   141
1040
1.5
1070
   146
1040
0.5142857142857144
1070
   147
1040
1.199999999999999
1070
   172
1070
     1
1070
   178
1070
     1
1070
   271
1070
     0
1070
   272
1070
     0
1070
   284
1070
     8
1070
   285
1070
     8
1070
   286
1070
     8
1070
   340
1005
34
1002
}
  0
TEXT
  5
FB2
330
1E
100
AcDbEntity
  8
BEM
100
AcDbText
 10
1041.452885359359
 20
30.37012038345757
 30
0.0
 40
10.0
  1
Diese Zeichnung ist urheberrechtlich geschützt und bleibt unser Eigentum. Sie darf weder ganz noch teilweise vervielfältigt und nicht an Dritte weitergegeben werden.
 50
90.0
 41
0.8
  7
GREEKS
100
AcDbText
  0
ENDSEC
  0
SECTION
  2
OBJECTS
  0
DICTIONARY
  5
C
330
0
100
AcDbDictionary
281
     1
  3
ACAD_COLOR
350
F40
  3
ACAD_GROUP
350
D
  3
ACAD_LAYOUT
350
19
  3
ACAD_MATERIAL
350
F3F
  3
ACAD_MLINESTYLE
350
16
  3
ACAD_PLOTSETTINGS
350
18
  3
ACAD_PLOTSTYLENAME
350
E
  3
AcadDim
350
7FB
  3
AcDbVariableDictionary
350
2DD
  0
DICTIONARY
  5
F40
102
{ACAD_REACTORS
330
C
102
}
330
C
100
AcDbDictionary
281
     1
  0
DICTIONARY
  5
D
102
{ACAD_REACTORS
330
C
102
}
330
C
100
AcDbDictionary
281
     1
  0
DICTIONARY
  5
19
102
{ACAD_REACTORS
330
C
102
}
330
C
100
AcDbDictionary
281
     1
  3
Layout1
350
1D
  3
Model
350
21
  0
DICTIONARY
  5
F3F
102
{ACAD_REACTORS
330
C
102
}
330
C
100
AcDbDictionary
281
     1
  0
DICTIONARY
  5
16
102
{ACAD_REACTORS
330
C
102
}
330
C
100
AcDbDictionary
281
     1
  3
Standard
350
17
  0
DICTIONARY
  5
18
102
{ACAD_REACTORS
330
C
102
}
330
C
100
AcDbDictionary
281
     1
  0
ACDBDICTIONARYWDFLT
  5
E
102
{ACAD_REACTORS
330
C
102
}
330
C
100
AcDbDictionary
281
     1
  3
Normal
350
F
100
AcDbDictionaryWithDefault
340
F
  0
XRECORD
  5
7FB
102
{ACAD_REACTORS
330
C
102
}
330
C
100
AcDbXrecord
280
     1
 90
   990106
  3

 60
     0
 61
     0
 62
     1
 63
     3
 64
     0
 65
     0
 66
     0
 67
     3
 68
     1
 69
     0
 70
     0
 71
     0
 72
     0
 40
0.0
170
     0
340
0
  0
DICTIONARY
  5
2DD
102
{ACAD_REACTORS
330
C
102
}
330
C
100
AcDbDictionary
281
     1
  3
DIMASSOC
350
FC9
  3
PROJECTNAME
350
FCA
  3
SORTENTS
350
2DE
  0
LAYOUT
  5
1D
102
{ACAD_REACTORS
330
19
102
}
330
19
100
AcDbPlotSettings
  1

  2
\\D-1\BÜRO 2000  PHASER 740
  4

  6

 40
0.0
 41
0.0
 42
0.0
 43
0.0
 44
0.0
 45
0.0
 46
0.0
 47
0.0
 48
0.0
 49
0.0
140
0.0
141
0.0
142
1.0
143
1.0
 70
   688
 72
     0
 73
     0
 74
     5
  7
monochrome.ctb
 75
    16
147
1.0
 76
     0
 77
     2
 78
   300
148
0.0
149
0.0
100
AcDbLayout
  1
Layout1
 70
     0
 71
     1
 10
0.0
 20
0.0
 11
12.0
 21
9.0
 12
0.0
 22
0.0
 32
0.0
 14
1.000000000000000E+20
 24
1.000000000000000E+20
 34
1.000000000000000E+20
 15
-1.000000000000000E+20
 25
-1.000000000000000E+20
 35
-1.000000000000000E+20
146
0.0
 13
0.0
 23
0.0
 33
0.0
 16
1.0
 26
0.0
 36
0.0
 17
0.0
 27
1.0
 37
0.0
 76
     0
330
1A
  0
LAYOUT
  5
21
102
{ACAD_REACTORS
330
19
102
}
330
19
100
AcDbPlotSettings
  1

  2
Acrobat PDFWriter
  4
A4
  6

 40
7.143749713897705
 41
7.143756389617919
 42
7.14373779296875
 43
7.14373779296875
 44
209.9733276367187
 45
297.0530090332031
 46
0.0
 47
0.0
 48
0.0
 49
0.0
140
0.0
141
0.0
142
1.0
143
1.0
 70
 11952
 72
     0
 73
     1
 74
     0
  7
monochrome.ctb
 75
     0
147
1.0
 76
     0
 77
     2
 78
   300
148
5742.327132138992
149
218.7739019307648
100
AcDbLayout
  1
Model
 70
     1
 71
     0
 10
0.0
 20
0.0
 11
12.0
 21
9.0
 12
0.0
 22
0.0
 32
0.0
 14
0.0
 24
0.0
 34
0.0
 15
0.0
 25
0.0
 35
0.0
146
0.0
 13
0.0
 23
0.0
 33
0.0
 16
1.0
 26
0.0
 36
0.0
 17
0.0
 27
1.0
 37
0.0
 76
     0
330
1E
  0
MLINESTYLE
  5
17
102
{ACAD_REACTORS
330
16
102
}
330
16
100
AcDbMlineStyle
  2
STANDARD
 70
     0
  3

 62
   256
 51
90.0
 52
90.0
 71
     2
 49
0.5
 62
   256
  6
BYLAYER
 49
-0.5
 62
   256
  6
BYLAYER
  0
ACDBPLACEHOLDER
  5
F
102
{ACAD_REACTORS
330
E
102
}
330
E
  0
DICTIONARYVAR
  5
FC9
102
{ACAD_REACTORS
330
2DD
102
}
330
2DD
100
DictionaryVariables
280
     0
  1
1
  0
DICTIONARYVAR
  5
FCA
102
{ACAD_REACTORS
330
2DD
102
}
330
2DD
100
DictionaryVariables
280
     0
  1

  0
DICTIONARYVAR
  5
2DE
102
{ACAD_REACTORS
330
2DD
102
}
330
2DD
100
DictionaryVariables
280
     0
  1
96
  0
ENDSEC
  0
EOF
