  0
SECTION
  2
HEADER
  9
$ACADVER
  1
AC1018
  9
$ACADMAINTVER
 70
     2
  9
$DWGCODEPAGE
  3
ANSI_1252
  9
$INSBASE
 10
0.0
 20
0.0
 30
0.0
  9
$EXTMIN
 10
-0.0245577103429469
 20
-0.0173714618670147
 30
-0.0000000000000129
  9
$EXTMAX
 10
420.0080221352126
 20
297.0120925625062
 30
0.0000000000000023
  9
$LIMMIN
 10
0.0
 20
0.0
  9
$LIMMAX
 10
420.0
 20
297.0
  9
$ORTHOMODE
 70
     1
  9
$REGENMODE
 70
     1
  9
$FILLMODE
 70
     1
  9
$QTEXTMODE
 70
     0
  9
$MIRRTEXT
 70
     1
  9
$LTSCALE
 40
10.0
  9
$ATTMODE
 70
     1
  9
$TEXTSIZE
 40
3.5
  9
$TRACEWID
 40
1.0
  9
$TEXTSTYLE
  7
STANDARD
  9
$CLAYER
  8
BEM
  9
$CELTYPE
  6
ByLayer
  9
$CECOLOR
 62
   256
  9
$CELTSCALE
 40
1.0
  9
$DISPSILH
 70
     0
  9
$DIMSCALE
 40
1.0
  9
$DIMASZ
 40
3.5
  9
$DIMEXO
 40
1.0
  9
$DIMDLI
 40
7.0
  9
$DIMRND
 40
0.0
  9
$DIMDLE
 40
0.0
  9
$DIMEXE
 40
1.0
  9
$DIMTP
 40
0.0
  9
$DIMTM
 40
0.0
  9
$DIMTXT
 40
3.5
  9
$DIMCEN
 40
1.5
  9
$DIMTSZ
 40
0.0
  9
$DIMTOL
 70
     0
  9
$DIMLIM
 70
     0
  9
$DIMTIH
 70
     0
  9
$DIMTOH
 70
     0
  9
$DIMSE1
 70
     0
  9
$DIMSE2
 70
     0
  9
$DIMTAD
 70
     1
  9
$DIMZIN
 70
     8
  9
$DIMBLK
  1

  9
$DIMASO
 70
     1
  9
$DIMSHO
 70
     0
  9
$DIMPOST
  1

  9
$DIMAPOST
  1

  9
$DIMALT
 70
     0
  9
$DIMALTD
 70
     2
  9
$DIMALTF
 40
25.4
  9
$DIMLFAC
 40
1.0
  9
$DIMTOFL
 70
     1
  9
$DIMTVP
 40
0.0
  9
$DIMTIX
 70
     0
  9
$DIMSOXD
 70
     0
  9
$DIMSAH
 70
     0
  9
$DIMBLK1
  1

  9
$DIMBLK2
  1

  9
$DIMSTYLE
  2
Standard
  9
$DIMCLRD
 70
     0
  9
$DIMCLRE
 70
     0
  9
$DIMCLRT
 70
     1
  9
$DIMTFAC
 40
0.5142857142857144
  9
$DIMGAP
 40
1.5
  9
$DIMJUST
 70
     0
  9
$DIMSD1
 70
     0
  9
$DIMSD2
 70
     0
  9
$DIMTOLJ
 70
     1
  9
$DIMTZIN
 70
     8
  9
$DIMALTZ
 70
     8
  9
$DIMALTTZ
 70
     8
  9
$DIMUPT
 70
     0
  9
$DIMDEC
 70
     2
  9
$DIMTDEC
 70
     2
  9
$DIMALTU
 70
     2
  9
$DIMALTTD
 70
     2
  9
$DIMTXSTY
  7
STANDARD
  9
$DIMAUNIT
 70
     0
  9
$DIMADEC
 70
     2
  9
$DIMALTRND
 40
0.0
  9
$DIMAZIN
 70
     2
  9
$DIMDSEP
 70
    46
  9
$DIMATFIT
 70
     3
  9
$DIMFRAC
 70
     0
  9
$DIMLDRBLK
  1

  9
$DIMLUNIT
 70
     2
  9
$DIMLWD
 70
    -2
  9
$DIMLWE
 70
    -2
  9
$DIMTMOVE
 70
     0
  9
$LUNITS
 70
     2
  9
$LUPREC
 70
     2
  9
$SKETCHINC
 40
1.0
  9
$FILLETRAD
 40
0.0
  9
$AUNITS
 70
     0
  9
$AUPREC
 70
     0
  9
$MENU
  1
ACAD
  9
$ELEVATION
 40
0.0
  9
$PELEVATION
 40
0.0
  9
$THICKNESS
 40
0.0
  9
$LIMCHECK
 70
     0
  9
$CHAMFERA
 40
0.0
  9
$CHAMFERB
 40
0.0
  9
$CHAMFERC
 40
0.0
  9
$CHAMFERD
 40
0.0
  9
$SKPOLY
 70
     0
  9
$TDCREATE
 40
2455397.867059838
  9
$TDUCREATE
 40
2455397.783726505
  9
$TDUPDATE
 40
2455497.489577940
  9
$TDUUPDATE
 40
2455497.406244607
  9
$TDINDWG
 40
0.0348841551
  9
$TDUSRTIMER
 40
0.0348841551
  9
$USRTIMER
 70
     1
  9
$ANGBASE
 50
0.0
  9
$ANGDIR
 70
     0
  9
$PDMODE
 70
     0
  9
$PDSIZE
 40
0.0
  9
$PLINEWID
 40
0.0
  9
$SPLFRAME
 70
     0
  9
$SPLINETYPE
 70
     6
  9
$SPLINESEGS
 70
     8
  9
$HANDSEED
  5
92C
  9
$SURFTAB1
 70
     6
  9
$SURFTAB2
 70
     6
  9
$SURFTYPE
 70
     6
  9
$SURFU
 70
     6
  9
$SURFV
 70
     6
  9
$UCSBASE
  2

  9
$UCSNAME
  2

  9
$UCSORG
 10
0.0
 20
0.0
 30
0.0
  9
$UCSXDIR
 10
1.0
 20
0.0
 30
0.0
  9
$UCSYDIR
 10
0.0
 20
1.0
 30
0.0
  9
$UCSORTHOREF
  2

  9
$UCSORTHOVIEW
 70
     0
  9
$UCSORGTOP
 10
0.0
 20
0.0
 30
0.0
  9
$UCSORGBOTTOM
 10
0.0
 20
0.0
 30
0.0
  9
$UCSORGLEFT
 10
0.0
 20
0.0
 30
0.0
  9
$UCSORGRIGHT
 10
0.0
 20
0.0
 30
0.0
  9
$UCSORGFRONT
 10
0.0
 20
0.0
 30
0.0
  9
$UCSORGBACK
 10
0.0
 20
0.0
 30
0.0
  9
$PUCSBASE
  2

  9
$PUCSNAME
  2

  9
$PUCSORG
 10
0.0
 20
0.0
 30
0.0
  9
$PUCSXDIR
 10
1.0
 20
0.0
 30
0.0
  9
$PUCSYDIR
 10
0.0
 20
1.0
 30
0.0
  9
$PUCSORTHOREF
  2

  9
$PUCSORTHOVIEW
 70
     0
  9
$PUCSORGTOP
 10
0.0
 20
0.0
 30
0.0
  9
$PUCSORGBOTTOM
 10
0.0
 20
0.0
 30
0.0
  9
$PUCSORGLEFT
 10
0.0
 20
0.0
 30
0.0
  9
$PUCSORGRIGHT
 10
0.0
 20
0.0
 30
0.0
  9
$PUCSORGFRONT
 10
0.0
 20
0.0
 30
0.0
  9
$PUCSORGBACK
 10
0.0
 20
0.0
 30
0.0
  9
$USERI1
 70
     0
  9
$USERI2
 70
     0
  9
$USERI3
 70
     0
  9
$USERI4
 70
     0
  9
$USERI5
 70
     0
  9
$USERR1
 40
0.0
  9
$USERR2
 40
0.0
  9
$USERR3
 40
0.0
  9
$USERR4
 40
0.0
  9
$USERR5
 40
0.0
  9
$WORLDVIEW
 70
     1
  9
$SHADEDGE
 70
     3
  9
$SHADEDIF
 70
    70
  9
$TILEMODE
 70
     1
  9
$MAXACTVP
 70
    16
  9
$PINSBASE
 10
0.0
 20
0.0
 30
0.0
  9
$PLIMCHECK
 70
     0
  9
$PEXTMIN
 10
1.000000000000000E+20
 20
1.000000000000000E+20
 30
1.000000000000000E+20
  9
$PEXTMAX
 10
-1.000000000000000E+20
 20
-1.000000000000000E+20
 30
-1.000000000000000E+20
  9
$PLIMMIN
 10
0.0
 20
0.0
  9
$PLIMMAX
 10
12.0
 20
9.0
  9
$UNITMODE
 70
     0
  9
$VISRETAIN
 70
     0
  9
$PLINEGEN
 70
     0
  9
$PSLTSCALE
 70
     0
  9
$TREEDEPTH
 70
  3020
  9
$CMLSTYLE
  2
Standard
  9
$CMLJUST
 70
     0
  9
$CMLSCALE
 40
1.0
  9
$PROXYGRAPHICS
 70
     1
  9
$MEASUREMENT
 70
     0
  9
$CELWEIGHT
370
    -1
  9
$ENDCAPS
280
     0
  9
$JOINSTYLE
280
     0
  9
$LWDISPLAY
290
     0
  9
$INSUNITS
 70
     0
  9
$HYPERLINKBASE
  1

  9
$STYLESHEET
  1
monochrome 1.ctb
  9
$XEDIT
290
     1
  9
$CEPSNTYPE
380
     0
  9
$PSTYLEMODE
290
     1
  9
$FINGERPRINTGUID
  2
{D68B0D0D-A558-11D7-B632-000102183313}
  9
$VERSIONGUID
  2
{CE7E3453-342B-49DC-9ABE-9A1A8F5FD7EB}
  9
$EXTNAMES
290
     1
  9
$PSVPSCALE
 40
0.0
  9
$OLESTARTUP
290
     0
  9
$SORTENTS
280
   127
  9
$INDEXCTL
280
     0
  9
$HIDETEXT
280
     0
  9
$XCLIPFRAME
290
     0
  9
$HALOGAP
280
     0
  9
$OBSCOLOR
 70
   257
  9
$OBSLTYPE
280
     0
  9
$INTERSECTIONDISPLAY
280
     0
  9
$INTERSECTIONCOLOR
 70
   257
  9
$DIMASSOC
280
     1
  9
$PROJECTNAME
  1

  0
ENDSEC
  0
SECTION
  2
CLASSES
  0
CLASS
  1
ACDBDICTIONARYWDFLT
  2
AcDbDictionaryWithDefault
  3
ObjectDBX Classes
 90
        0
 91
        1
280
     0
281
     0
  0
CLASS
  1
DICTIONARYVAR
  2
AcDbDictionaryVar
  3
ObjectDBX Classes
 90
        0
 91
        2
280
     0
281
     0
  0
CLASS
  1
DIMASSOC
  2
AcDbDimAssoc
  3
"AcDbDimAssoc|Product Desc:     AcDim ARX App For Dimension|Company:          Autodesk, Inc.|WEB Address:      www.autodesk.com"
 90
        0
 91
        3
280
     0
281
     0
  0
ENDSEC
  0
SECTION
  2
TABLES
  0
TABLE
  2
VPORT
  5
8
330
0
100
AcDbSymbolTable
 70
     2
  0
VPORT
  5
92B
330
8
100
AcDbSymbolTableRecord
100
AcDbViewportTableRecord
  2
*Active
 70
     0
 10
0.0
 20
0.0
 11
1.0
 21
1.0
 12
210.0
 22
148.5
 13
0.0
 23
0.0
 14
1.0
 24
1.0
 15
10.0
 25
10.0
 16
0.0
 26
0.0
 36
1.0
 17
0.0
 27
0.0
 37
0.0
 40
314.1532258064516
 41
1.336927223719676
 42
50.0
 43
0.0
 44
0.0
 50
0.0
 51
0.0
 71
     0
 72
  1500
 73
     1
 74
     0
 75
     0
 76
     0
 77
     0
 78
     0
281
     0
 65
     1
110
0.0
120
0.0
130
0.0
111
1.0
121
0.0
131
0.0
112
0.0
122
1.0
132
0.0
 79
     0
146
0.0
  0
ENDTAB
  0
TABLE
  2
LTYPE
  5
5
330
0
100
AcDbSymbolTable
 70
     3
  0
LTYPE
  5
13
330
5
100
AcDbSymbolTableRecord
100
AcDbLinetypeTableRecord
  2
ByBlock
 70
     0
  3

 72
    65
 73
     0
 40
0.0
  0
LTYPE
  5
14
330
5
100
AcDbSymbolTableRecord
100
AcDbLinetypeTableRecord
  2
ByLayer
 70
     0
  3

 72
    65
 73
     0
 40
0.0
  0
LTYPE
  5
15
330
5
100
AcDbSymbolTableRecord
100
AcDbLinetypeTableRecord
  2
Continuous
 70
     0
  3
Solid line
 72
    65
 73
     0
 40
0.0
  0
LTYPE
  5
25
330
5
100
AcDbSymbolTableRecord
100
AcDbLinetypeTableRecord
  2
STRICHPUNKT
 70
     0
  3
__ . __ . __ . __ . __ . __ . __ . __ . __ . __
 72
    65
 73
     4
 40
1.0
 49
0.5
 74
     0
 49
-0.25
 74
     0
 49
0.0
 74
     0
 49
-0.25
 74
     0
  0
LTYPE
  5
203
330
5
100
AcDbSymbolTableRecord
100
AcDbLinetypeTableRecord
  2
VERDECKT
 70
     0
  3
Verdeckt __ __ __ __ __ __ __ __ __ __ __ __ __
 72
    65
 73
     2
 40
0.375
 49
0.25
 74
     0
 49
-0.125
 74
     0
  0
ENDTAB
  0
TABLE
  2
LAYER
  5
2
330
0
100
AcDbSymbolTable
 70
    10
  0
LAYER
  5
10
330
2
100
AcDbSymbolTableRecord
100
AcDbLayerTableRecord
  2
0
 70
     0
 62
     7
  6
Continuous
370
    -3
390
F
  0
LAYER
  5
2B
330
2
100
AcDbSymbolTableRecord
100
AcDbLayerTableRecord
  2
VOLL
 70
     0
 62
     1
  6
Continuous
370
    -3
390
F
  0
LAYER
  5
2C
330
2
100
AcDbSymbolTableRecord
100
AcDbLayerTableRecord
  2
HILF
 70
     0
 62
     2
  6
Continuous
370
    -3
390
F
  0
LAYER
  5
2D
330
2
100
AcDbSymbolTableRecord
100
AcDbLayerTableRecord
  2
MITTEL
 70
     0
 62
     2
  6
STRICHPUNKT
370
    -3
390
F
  0
LAYER
  5
2F
330
2
100
AcDbSymbolTableRecord
100
AcDbLayerTableRecord
  2
BEM
 70
     0
 62
     7
  6
Continuous
370
    -3
390
F
  0
LAYER
  5
30
330
2
100
AcDbSymbolTableRecord
100
AcDbLayerTableRecord
  2
STEMPEL
 70
     0
 62
     3
  6
Continuous
370
    -3
390
F
  0
LAYER
  5
33
330
2
100
AcDbSymbolTableRecord
100
AcDbLayerTableRecord
  2
TEXT
 70
     0
 62
     7
  6
Continuous
370
    -3
390
F
  0
LAYER
  5
204
330
2
100
AcDbSymbolTableRecord
100
AcDbLayerTableRecord
  2
SCHRAFF
 70
     0
 62
     7
  6
Continuous
370
    -3
390
F
  0
LAYER
  5
205
330
2
100
AcDbSymbolTableRecord
100
AcDbLayerTableRecord
  2
DEFPOINTS
 70
     0
 62
     7
  6
Continuous
290
     0
370
    -3
390
F
  0
LAYER
  5
206
330
2
100
AcDbSymbolTableRecord
100
AcDbLayerTableRecord
  2
VERDECKT
 70
     0
 62
     6
  6
VERDECKT
370
    -3
390
F
  0
ENDTAB
  0
TABLE
  2
STYLE
  5
3
330
0
100
AcDbSymbolTable
 70
     2
  0
STYLE
  5
11
330
3
100
AcDbSymbolTableRecord
100
AcDbTextStyleTableRecord
  2
STANDARD
 70
     0
 40
0.0
 41
0.8
 50
0.0
 71
     0
 42
3.5
  3
simplex.shx
  4

  0
STYLE
  5
24
330
3
100
AcDbSymbolTableRecord
100
AcDbTextStyleTableRecord
  2
GREEKS
 70
     0
 40
0.0
 41
0.8
 50
0.0
 71
     0
 42
2.5
  3
SIMPLEX.shx
  4

  0
ENDTAB
  0
TABLE
  2
VIEW
  5
6
330
0
100
AcDbSymbolTable
 70
     0
  0
ENDTAB
  0
TABLE
  2
UCS
  5
7
330
0
100
AcDbSymbolTable
 70
     0
  0
ENDTAB
  0
TABLE
  2
APPID
  5
9
330
0
100
AcDbSymbolTable
 70
     1
  0
APPID
  5
12
330
9
100
AcDbSymbolTableRecord
100
AcDbRegAppTableRecord
  2
ACAD
 70
     0
  0
ENDTAB
  0
TABLE
  2
DIMSTYLE
  5
A
330
0
100
AcDbSymbolTable
 70
     1
100
AcDbDimStyleTable
 71
     1
340
A2
  0
DIMSTYLE
105
A2
102
{ACAD_REACTORS
330
7E1
330
814
330
817
330
7E8
330
7E4
102
}
330
A
100
AcDbSymbolTableRecord
100
AcDbDimStyleTableRecord
  2
Standard
 70
     0
340
11
  0
ENDTAB
  0
TABLE
  2
BLOCK_RECORD
  5
1
330
0
100
AcDbSymbolTable
 70
     8
  0
BLOCK_RECORD
  5
1E
102
{ACAD_XDICTIONARY
360
DB
102
}
330
1
100
AcDbSymbolTableRecord
100
AcDbBlockTableRecord
  2
*Model_Space
340
21
  0
BLOCK_RECORD
  5
1A
102
{ACAD_XDICTIONARY
360
DD
102
}
330
1
100
AcDbSymbolTableRecord
100
AcDbBlockTableRecord
  2
*Paper_Space
340
1D
  0
BLOCK_RECORD
  5
22
330
1
100
AcDbSymbolTableRecord
100
AcDbBlockTableRecord
  2
LOGO
340
0
102
{BLKREFS
331
56
102
}
  0
BLOCK_RECORD
  5
23
330
1
100
AcDbSymbolTableRecord
100
AcDbBlockTableRecord
  2
LORO
340
0
102
{BLKREFS
331
30A
102
}
  0
BLOCK_RECORD
  5
6A9
330
1
100
AcDbSymbolTableRecord
100
AcDbBlockTableRecord
  2
*X2
340
0
102
{BLKREFS
331
829
102
}
  0
BLOCK_RECORD
  5
848
330
1
100
AcDbSymbolTableRecord
100
AcDbBlockTableRecord
  2
*D3
340
0
  0
BLOCK_RECORD
  5
854
330
1
100
AcDbSymbolTableRecord
100
AcDbBlockTableRecord
  2
*D4
340
0
  0
BLOCK_RECORD
  5
86D
330
1
100
AcDbSymbolTableRecord
100
AcDbBlockTableRecord
  2
*D5
340
0
  0
BLOCK_RECORD
  5
87B
330
1
100
AcDbSymbolTableRecord
100
AcDbBlockTableRecord
  2
*D6
340
0
  0
BLOCK_RECORD
  5
887
330
1
100
AcDbSymbolTableRecord
100
AcDbBlockTableRecord
  2
*D7
340
0
  0
ENDTAB
  0
ENDSEC
  0
SECTION
  2
BLOCKS
  0
BLOCK
  5
37
330
1E
100
AcDbEntity
  8
0
100
AcDbBlockBegin
  2
*Model_Space
 70
     0
 10
0.0
 20
0.0
 30
0.0
  3
*Model_Space
  1

  0
ENDBLK
  5
38
330
1E
100
AcDbEntity
  8
0
100
AcDbBlockEnd
  0
BLOCK
  5
35
330
1A
100
AcDbEntity
 67
     1
  8
0
100
AcDbBlockBegin
  2
*Paper_Space
 70
     0
 10
0.0
 20
0.0
 30
0.0
  3
*Paper_Space
  1

  0
ENDBLK
  5
36
330
1A
100
AcDbEntity
 67
     1
  8
0
100
AcDbBlockEnd
  0
BLOCK
  5
39
330
22
100
AcDbEntity
  8
0
100
AcDbBlockBegin
  2
LOGO
 70
     0
 10
0.0
 20
0.0
 30
0.0
  3
LOGO
  1

  0
ARC
  5
3A
330
22
100
AcDbEntity
  8
0
100
AcDbCircle
 10
11.59973089678112
 20
-9.271599258481501
 30
0.0
 40
4.5
100
AcDbArc
 50
270.0
 51
231.0575587310159
  0
LINE
  5
3B
330
22
100
AcDbEntity
  8
0
100
AcDbLine
 10
3.599730896781125
 20
-4.771599258481529
 30
0.0
 11
3.599730896781153
 21
-11.77159925848133
 31
0.0
  0
LINE
  5
3C
330
22
100
AcDbEntity
  8
0
100
AcDbLine
 10
2.599730896781125
 20
-4.771599258481529
 30
0.0
 11
2.599730896781153
 21
-11.77159925848133
 31
0.0
  0
CIRCLE
  5
3D
330
22
100
AcDbEntity
  8
0
100
AcDbCircle
 10
11.59973089678112
 20
-9.271599258481501
 30
0.0
 40
3.5
  0
ARC
  5
3E
330
22
100
AcDbEntity
  8
0
100
AcDbCircle
 10
31.59973089678115
 20
-9.271599258481472
 30
0.0
 40
4.5
100
AcDbArc
 50
270.0
 51
231.0575587310182
  0
LINE
  5
3F
330
22
100
AcDbEntity
  8
0
100
AcDbLine
 10
17.59973089678112
 20
-4.771599258481472
 30
0.0
 11
17.59973089678115
 21
-13.77159925848147
 31
0.0
  0
ARC
  5
40
330
22
100
AcDbEntity
  8
0
100
AcDbCircle
 10
22.59973089678116
 20
-7.271599258481472
 30
0.0
 40
2.5
100
AcDbArc
 50
293.1161887722295
 51
90.0
  0
CIRCLE
  5
41
330
22
100
AcDbEntity
  8
0
100
AcDbCircle
 10
31.59973089678115
 20
-9.271599258481472
 30
0.0
 40
3.5
  0
ARC
  5
42
330
22
100
AcDbEntity
  8
0
100
AcDbCircle
 10
4.599730896781153
 20
-11.77159925848133
 30
0.0
 40
1.0
100
AcDbArc
 50
180.0
 51
270.0
  0
ARC
  5
43
330
22
100
AcDbEntity
  8
0
100
AcDbCircle
 10
4.599730896781153
 20
-11.77159925848133
 30
0.0
 40
2.0
100
AcDbArc
 50
179.9999999999992
 51
270.0
  0
LINE
  5
44
330
22
100
AcDbEntity
  8
0
100
AcDbLine
 10
11.59973089678115
 20
-13.77159925848144
 30
0.0
 11
4.599730896781153
 21
-13.77159925848147
 31
0.0
  0
LINE
  5
45
330
22
100
AcDbEntity
  8
0
100
AcDbLine
 10
8.771303772034769
 20
-12.77159925848136
 30
0.0
 11
4.599730896781153
 21
-12.77159925848133
 31
0.0
  0
LINE
  5
46
330
22
100
AcDbEntity
  8
0
100
AcDbLine
 10
31.59973089678115
 20
-13.77159925848147
 30
0.0
 11
23.6715276665056
 21
-13.77159925848144
 31
0.0
  0
LINE
  5
47
330
22
100
AcDbEntity
  8
0
100
AcDbLine
 10
23.56565672307022
 20
-9.51278021337896
 30
0.0
 11
24.4388546544846
 21
-12.77159925848144
 31
0.0
  0
LINE
  5
48
330
22
100
AcDbEntity
  8
0
100
AcDbLine
 10
22.59973089678116
 20
-9.771599258481472
 30
0.0
 11
18.59973089678112
 21
-9.771599258481472
 31
0.0
  0
LINE
  5
49
330
22
100
AcDbEntity
  8
0
100
AcDbLine
 10
18.59973089678115
 20
-13.77159925848144
 30
0.0
 11
17.59973089678115
 21
-13.77159925848144
 31
0.0
  0
LINE
  5
4A
330
22
100
AcDbEntity
  8
0
100
AcDbLine
 10
18.59973089678115
 20
-9.771599258481472
 30
0.0
 11
18.59973089678115
 21
-13.77159925848144
 31
0.0
  0
LINE
  5
4B
330
22
100
AcDbEntity
  8
0
100
AcDbLine
 10
22.59973089678116
 20
-9.771599258481472
 30
0.0
 11
23.67152766650562
 21
-13.77159925848147
 31
0.0
  0
ARC
  5
4C
330
22
100
AcDbEntity
  8
0
100
AcDbCircle
 10
22.59973089678116
 20
-7.271599258481472
 30
0.0
 40
2.5
100
AcDbArc
 50
270.0
 51
270.0000000000007
  0
LINE
  5
4D
330
22
100
AcDbEntity
  8
0
100
AcDbLine
 10
28.77130377203494
 20
-12.77159925848147
 30
0.0
 11
24.43885465448463
 21
-12.77159925848144
 31
0.0
  0
LINE
  5
4E
330
22
100
AcDbEntity
  8
0
100
AcDbLine
 10
3.599730896781125
 20
-4.771599258481472
 30
0.0
 11
2.599730896781125
 21
-4.771599258481472
 31
0.0
  0
LINE
  5
4F
330
22
100
AcDbEntity
  8
0
100
AcDbLine
 10
22.59973089678116
 20
-8.771599258481472
 30
0.0
 11
18.59973089678115
 21
-8.771599258481472
 31
0.0
  0
LINE
  5
50
330
22
100
AcDbEntity
  8
0
100
AcDbLine
 10
22.59973089678116
 20
-5.771599258481472
 30
0.0
 11
18.59973089678115
 21
-5.771599258481472
 31
0.0
  0
LINE
  5
51
330
22
100
AcDbEntity
  8
0
100
AcDbLine
 10
22.59973089678116
 20
-4.771599258481472
 30
0.0
 11
17.59973089678115
 21
-4.771599258481472
 31
0.0
  0
LINE
  5
52
330
22
100
AcDbEntity
  8
0
100
AcDbLine
 10
18.59973089678115
 20
-5.771599258481472
 30
0.0
 11
18.59973089678115
 21
-8.771599258481472
 31
0.0
  0
ARC
  5
53
330
22
100
AcDbEntity
  8
0
100
AcDbCircle
 10
22.59973089678116
 20
-7.271599258481472
 30
0.0
 40
1.5
100
AcDbArc
 50
270.0
 51
90.0
  0
ENDBLK
  5
54
330
22
100
AcDbEntity
  8
0
100
AcDbBlockEnd
  0
BLOCK
  5
55
330
23
100
AcDbEntity
  8
0
100
AcDbBlockBegin
  2
LORO
 70
     0
 10
0.0
 20
0.0
 30
0.0
  3
LORO
  1

  0
INSERT
  5
56
330
23
100
AcDbEntity
  8
STEMPEL
100
AcDbBlockReference
  2
LOGO
 10
-1.748032802467321
 20
3.771489518552062
 30
0.0
  0
ENDBLK
  5
57
330
23
100
AcDbEntity
  8
0
100
AcDbBlockEnd
  0
BLOCK
  5
6AA
330
6A9
100
AcDbEntity
  8
0
100
AcDbBlockBegin
  2
*X2
 70
     1
 10
0.0
 20
0.0
 30
0.0
  3
*X2
  1

  0
LINE
  5
6AB
330
6A9
100
AcDbEntity
  8
SCHRAFF
 62
     0
100
AcDbLine
 10
79.74882017829045
 20
260.5745787841309
 30
0.0
 11
79.53227178867038
 21
260.791127173751
 31
0.0
  0
LINE
  5
6AC
330
6A9
100
AcDbEntity
  8
SCHRAFF
 62
     0
100
AcDbLine
 10
79.74882017829045
 20
257.0390448781981
 30
0.0
 11
75.99673788273765
 21
260.791127173751
 31
0.0
  0
LINE
  5
6AD
330
6A9
100
AcDbEntity
  8
SCHRAFF
 62
     0
100
AcDbLine
 10
79.21120397680486
 20
254.041127173751
 30
0.0
 11
72.46120397680485
 21
260.791127173751
 31
0.0
  0
LINE
  5
6AE
330
6A9
100
AcDbEntity
  8
SCHRAFF
 62
     0
100
AcDbLine
 10
73.94882017829033
 20
255.7679770663328
 30
0.0
 11
69.74882017829045
 21
259.9679770663327
 31
0.0
  0
LINE
  5
6AF
330
6A9
100
AcDbEntity
  8
SCHRAFF
 62
     0
100
AcDbLine
 10
75.67567007087212
 20
254.041127173751
 30
0.0
 11
75.54882017829038
 21
254.1679770663327
 31
0.0
  0
LINE
  5
6B0
330
6A9
100
AcDbEntity
  8
SCHRAFF
 62
     0
100
AcDbLine
 10
72.1401361649394
 20
254.041127173751
 30
0.0
 11
69.7488201782904
 21
256.4324431603999
 31
0.0
  0
LINE
  5
6B1
330
6A9
100
AcDbEntity
  8
SCHRAFF
 62
     0
100
AcDbLine
 10
76.28867043526179
 20
254.041127173751
 30
0.0
 11
79.74882017829043
 21
257.5012769167796
 31
0.0
  0
LINE
  5
6B2
330
6A9
100
AcDbEntity
  8
SCHRAFF
 62
     0
100
AcDbLine
 10
75.54882017829044
 20
256.8368108227123
 30
0.0
 11
79.50313652932902
 21
260.7911271737509
 31
0.0
  0
LINE
  5
6B3
330
6A9
100
AcDbEntity
  8
SCHRAFF
 62
     0
100
AcDbLine
 10
72.75313652932902
 20
254.0411271737509
 30
0.0
 11
73.94882017829036
 21
255.2368108227122
 31
0.0
  0
LINE
  5
6B4
330
6A9
100
AcDbEntity
  8
SCHRAFF
 62
     0
100
AcDbLine
 10
69.74882017829045
 20
254.5723447286451
 30
0.0
 11
75.96760262339635
 21
260.791127173751
 31
0.0
  0
LINE
  5
6B5
330
6A9
100
AcDbEntity
  8
SCHRAFF
 62
     0
100
AcDbLine
 10
69.74882017829045
 20
258.1078786345778
 30
0.0
 11
72.43206871746358
 21
260.791127173751
 31
0.0
  0
ENDBLK
  5
6B6
330
6A9
100
AcDbEntity
  8
0
100
AcDbBlockEnd
  0
BLOCK
  5
852
330
848
100
AcDbEntity
  8
0
100
AcDbBlockBegin
  2
*D3
 70
     1
 10
0.0
 20
0.0
 30
0.0
  3
*D3
  1

  0
LINE
  5
8FA
330
848
100
AcDbEntity
  8
BEM
 62
     0
370
    -2
100
AcDbLine
 10
211.750303563026
 20
202.2978968123899
 30
0.0
 11
224.3787439283299
 21
202.2978968123899
 31
0.0
  0
LINE
  5
8FB
330
848
100
AcDbEntity
  8
BEM
 62
     0
370
    -2
100
AcDbLine
 10
211.7503035630259
 20
152.2978968123899
 30
0.0
 11
224.3787439283299
 21
152.2978968123899
 31
0.0
  0
LINE
  5
8FC
330
848
100
AcDbEntity
  8
BEM
 62
     0
370
    -2
100
AcDbLine
 10
223.3787439283299
 20
198.7978968123899
 30
0.0
 11
223.3787439283299
 21
155.7978968123899
 31
0.0
  0
SOLID
  5
8FD
330
848
100
AcDbEntity
  8
BEM
 62
     0
100
AcDbTrace
 10
222.7954105949966
 20
198.7978968123899
 30
0.0
 11
223.9620772616632
 21
198.7978968123899
 31
0.0
 12
223.3787439283299
 22
202.2978968123899
 32
0.0
 13
223.3787439283299
 23
202.2978968123899
 33
0.0
  0
SOLID
  5
8FE
330
848
100
AcDbEntity
  8
BEM
 62
     0
100
AcDbTrace
 10
222.7954105949965
 20
155.7978968123899
 30
0.0
 11
223.9620772616632
 21
155.7978968123899
 31
0.0
 12
223.3787439283299
 22
152.2978968123899
 32
0.0
 13
223.3787439283299
 23
152.2978968123899
 33
0.0
  0
MTEXT
  5
8FF
330
848
100
AcDbEntity
  8
BEM
 62
     1
100
AcDbMText
 10
220.1287439283298
 20
177.2978968123899
 30
0.0
 40
3.5
 41
0.0
 71
     5
 72
     1
  1
\A1;50
 11
0.0000000000000001
 21
1.0
 31
0.0
 73
     1
 44
1.0
  0
POINT
  5
900
330
848
100
AcDbEntity
  8
DEFPOINTS
 62
     0
100
AcDbPoint
 10
210.750303563026
 20
202.2978968123899
 30
0.0
  0
POINT
  5
901
330
848
100
AcDbEntity
  8
DEFPOINTS
 62
     0
100
AcDbPoint
 10
210.7503035630259
 20
152.2978968123899
 30
0.0
  0
POINT
  5
902
330
848
100
AcDbEntity
  8
DEFPOINTS
 62
     0
100
AcDbPoint
 10
223.3787439283299
 20
152.2978968123899
 30
0.0
  0
ENDBLK
  5
853
330
848
100
AcDbEntity
  8
0
100
AcDbBlockEnd
  0
BLOCK
  5
860
330
854
100
AcDbEntity
  8
0
100
AcDbBlockBegin
  2
*D4
 70
     1
 10
0.0
 20
0.0
 30
0.0
  3
*D4
  1

  0
LINE
  5
8AA
330
854
100
AcDbEntity
  8
BEM
 62
     0
370
    -2
100
AcDbLine
 10
315.9520491770904
 20
260.9275119857586
 30
0.0
 11
315.9520491770904
 21
268.3800385604433
 31
0.0
  0
LINE
  5
8AB
330
854
100
AcDbEntity
  8
BEM
 62
     0
370
    -2
100
AcDbLine
 10
325.9520491770904
 20
260.9275119857586
 30
0.0
 11
325.9520491770904
 21
268.3800385604433
 31
0.0
  0
LINE
  5
8AC
330
854
100
AcDbEntity
  8
BEM
 62
     0
370
    -2
100
AcDbLine
 10
312.4520491770904
 20
267.3800385604433
 30
0.0
 11
308.9520491770904
 21
267.3800385604433
 31
0.0
  0
LINE
  5
8AD
330
854
100
AcDbEntity
  8
BEM
 62
     0
370
    -2
100
AcDbLine
 10
329.4520491770904
 20
267.3800385604433
 30
0.0
 11
332.9520491770904
 21
267.3800385604433
 31
0.0
  0
LINE
  5
8AE
330
854
100
AcDbEntity
  8
BEM
 62
     0
370
    -2
100
AcDbLine
 10
315.9520491770904
 20
267.3800385604433
 30
0.0
 11
325.9520491770904
 21
267.3800385604433
 31
0.0
  0
SOLID
  5
8AF
330
854
100
AcDbEntity
  8
BEM
 62
     0
100
AcDbTrace
 10
312.4520491770904
 20
267.9633718937766
 30
0.0
 11
312.4520491770904
 21
266.7967052271099
 31
0.0
 12
315.9520491770904
 22
267.3800385604433
 32
0.0
 13
315.9520491770904
 23
267.3800385604433
 33
0.0
  0
SOLID
  5
8B0
330
854
100
AcDbEntity
  8
BEM
 62
     0
100
AcDbTrace
 10
329.4520491770904
 20
267.9633718937766
 30
0.0
 11
329.4520491770904
 21
266.7967052271099
 31
0.0
 12
325.9520491770904
 22
267.3800385604433
 32
0.0
 13
325.9520491770904
 23
267.3800385604433
 33
0.0
  0
MTEXT
  5
8B1
330
854
100
AcDbEntity
  8
BEM
 62
     1
100
AcDbMText
 10
320.9520491770904
 20
270.6300385604432
 30
0.0
 40
3.5
 41
0.0
 71
     5
 72
     1
  1
\A1;12
 73
     1
 44
1.0
  0
POINT
  5
8B2
330
854
100
AcDbEntity
  8
DEFPOINTS
 62
     0
100
AcDbPoint
 10
315.9520491770904
 20
259.9275119857586
 30
0.0
  0
POINT
  5
8B3
330
854
100
AcDbEntity
  8
DEFPOINTS
 62
     0
100
AcDbPoint
 10
325.9520491770904
 20
259.9275119857586
 30
0.0
  0
POINT
  5
8B4
330
854
100
AcDbEntity
  8
DEFPOINTS
 62
     0
100
AcDbPoint
 10
325.9520491770904
 20
267.3800385604433
 30
0.0
  0
ENDBLK
  5
861
330
854
100
AcDbEntity
  8
0
100
AcDbBlockEnd
  0
BLOCK
  5
879
330
86D
100
AcDbEntity
  8
0
100
AcDbBlockBegin
  2
*D5
 70
     1
 10
0.0
 20
0.0
 30
0.0
  3
*D5
  1

  0
LINE
  5
915
330
86D
100
AcDbEntity
  8
BEM
 62
     0
370
    -2
100
AcDbLine
 10
207.850303563026
 20
203.2978968123898
 30
0.0
 11
207.850303563026
 21
213.2978968123899
 31
0.0
  0
LINE
  5
916
330
86D
100
AcDbEntity
  8
BEM
 62
     0
370
    -2
100
AcDbLine
 10
210.750303563026
 20
203.2978968123898
 30
0.0
 11
210.750303563026
 21
213.2978968123899
 31
0.0
  0
LINE
  5
917
330
86D
100
AcDbEntity
  8
BEM
 62
     0
370
    -2
100
AcDbLine
 10
204.350303563026
 20
212.2978968123899
 30
0.0
 11
200.8503035630261
 21
212.2978968123899
 31
0.0
  0
LINE
  5
918
330
86D
100
AcDbEntity
  8
BEM
 62
     0
370
    -2
100
AcDbLine
 10
214.250303563026
 20
212.2978968123899
 30
0.0
 11
226.4836368963593
 21
212.2978968123899
 31
0.0
  0
LINE
  5
919
330
86D
100
AcDbEntity
  8
BEM
 62
     0
370
    -2
100
AcDbLine
 10
207.850303563026
 20
212.2978968123899
 30
0.0
 11
210.750303563026
 21
212.2978968123899
 31
0.0
  0
SOLID
  5
91A
330
86D
100
AcDbEntity
  8
BEM
 62
     0
100
AcDbTrace
 10
204.350303563026
 20
212.8812301457232
 30
0.0
 11
204.350303563026
 21
211.7145634790565
 31
0.0
 12
207.850303563026
 22
212.2978968123899
 32
0.0
 13
207.850303563026
 23
212.2978968123899
 33
0.0
  0
SOLID
  5
91B
330
86D
100
AcDbEntity
  8
BEM
 62
     0
100
AcDbTrace
 10
214.250303563026
 20
212.8812301457232
 30
0.0
 11
214.250303563026
 21
211.7145634790565
 31
0.0
 12
210.750303563026
 22
212.2978968123899
 32
0.0
 13
210.750303563026
 23
212.2978968123899
 33
0.0
  0
MTEXT
  5
91C
330
86D
100
AcDbEntity
  8
BEM
 62
     1
100
AcDbMText
 10
222.1169702296927
 20
215.5478968123899
 30
0.0
 40
3.5
 41
0.0
 71
     5
 72
     1
  1
\A1;2.9
 73
     1
 44
1.0
  0
POINT
  5
91D
330
86D
100
AcDbEntity
  8
DEFPOINTS
 62
     0
100
AcDbPoint
 10
207.850303563026
 20
202.2978968123898
 30
0.0
  0
POINT
  5
91E
330
86D
100
AcDbEntity
  8
DEFPOINTS
 62
     0
100
AcDbPoint
 10
210.750303563026
 20
202.2978968123898
 30
0.0
  0
POINT
  5
91F
330
86D
100
AcDbEntity
  8
DEFPOINTS
 62
     0
100
AcDbPoint
 10
210.750303563026
 20
212.2978968123899
 30
0.0
  0
ENDBLK
  5
87A
330
86D
100
AcDbEntity
  8
0
100
AcDbBlockEnd
  0
BLOCK
  5
885
330
87B
100
AcDbEntity
  8
0
100
AcDbBlockBegin
  2
*D6
 70
     1
 10
0.0
 20
0.0
 30
0.0
  3
*D6
  1

  0
LINE
  5
90C
330
87B
100
AcDbEntity
  8
BEM
 62
     0
370
    -2
100
AcDbLine
 10
42.45030356302589
 20
203.2978968123899
 30
0.0
 11
42.45030356302589
 21
221.2978968123898
 31
0.0
  0
LINE
  5
90D
330
87B
100
AcDbEntity
  8
BEM
 62
     0
370
    -2
100
AcDbLine
 10
210.750303563026
 20
203.2978968123898
 30
0.0
 11
210.750303563026
 21
221.2978968123898
 31
0.0
  0
LINE
  5
90E
330
87B
100
AcDbEntity
  8
BEM
 62
     0
370
    -2
100
AcDbLine
 10
45.95030356302589
 20
220.2978968123899
 30
0.0
 11
207.250303563026
 21
220.2978968123899
 31
0.0
  0
SOLID
  5
90F
330
87B
100
AcDbEntity
  8
BEM
 62
     0
100
AcDbTrace
 10
45.95030356302589
 20
220.8812301457232
 30
0.0
 11
45.95030356302589
 21
219.7145634790565
 31
0.0
 12
42.45030356302589
 22
220.2978968123899
 32
0.0
 13
42.45030356302589
 23
220.2978968123899
 33
0.0
  0
SOLID
  5
910
330
87B
100
AcDbEntity
  8
BEM
 62
     0
100
AcDbTrace
 10
207.250303563026
 20
220.8812301457232
 30
0.0
 11
207.250303563026
 21
219.7145634790565
 31
0.0
 12
210.750303563026
 22
220.2978968123899
 32
0.0
 13
210.750303563026
 23
220.2978968123899
 33
0.0
  0
MTEXT
  5
911
330
87B
100
AcDbEntity
  8
BEM
 62
     1
100
AcDbMText
 10
126.6003035630259
 20
223.5478968123899
 30
0.0
 40
3.5
 41
0.0
 71
     5
 72
     1
  1
\A1;%%c168.3
 73
     1
 44
1.0
  0
POINT
  5
912
330
87B
100
AcDbEntity
  8
DEFPOINTS
 62
     0
100
AcDbPoint
 10
42.45030356302589
 20
202.2978968123899
 30
0.0
  0
POINT
  5
913
330
87B
100
AcDbEntity
  8
DEFPOINTS
 62
     0
100
AcDbPoint
 10
210.750303563026
 20
202.2978968123898
 30
0.0
  0
POINT
  5
914
330
87B
100
AcDbEntity
  8
DEFPOINTS
 62
     0
100
AcDbPoint
 10
210.750303563026
 20
220.2978968123899
 30
0.0
  0
ENDBLK
  5
886
330
87B
100
AcDbEntity
  8
0
100
AcDbBlockEnd
  0
BLOCK
  5
891
330
887
100
AcDbEntity
  8
0
100
AcDbBlockBegin
  2
*D7
 70
     1
 10
0.0
 20
0.0
 30
0.0
  3
*D7
  1

  0
LINE
  5
903
330
887
100
AcDbEntity
  8
BEM
 62
     0
370
    -2
100
AcDbLine
 10
60.10030356302576
 20
203.2978968123899
 30
0.0
 11
60.10030356302576
 21
213.2978968123899
 31
0.0
  0
LINE
  5
904
330
887
100
AcDbEntity
  8
BEM
 62
     0
370
    -2
100
AcDbLine
 10
193.1003035630256
 20
203.2978968123888
 30
0.0
 11
193.1003035630256
 21
213.2978968123899
 31
0.0
  0
LINE
  5
905
330
887
100
AcDbEntity
  8
BEM
 62
     0
370
    -2
100
AcDbLine
 10
63.60030356302576
 20
212.2978968123899
 30
0.0
 11
189.6003035630256
 21
212.2978968123899
 31
0.0
  0
SOLID
  5
906
330
887
100
AcDbEntity
  8
BEM
 62
     0
100
AcDbTrace
 10
63.60030356302576
 20
212.8812301457232
 30
0.0
 11
63.60030356302576
 21
211.7145634790565
 31
0.0
 12
60.10030356302576
 22
212.2978968123899
 32
0.0
 13
60.10030356302576
 23
212.2978968123899
 33
0.0
  0
SOLID
  5
907
330
887
100
AcDbEntity
  8
BEM
 62
     0
100
AcDbTrace
 10
189.6003035630256
 20
212.8812301457232
 30
0.0
 11
189.6003035630256
 21
211.7145634790565
 31
0.0
 12
193.1003035630256
 22
212.2978968123899
 32
0.0
 13
193.1003035630256
 23
212.2978968123899
 33
0.0
  0
MTEXT
  5
908
330
887
100
AcDbEntity
  8
BEM
 62
     1
100
AcDbMText
 10
126.6003035630256
 20
215.5478968123899
 30
0.0
 40
3.5
 41
0.0
 71
     5
 72
     1
  1
\A1;%%c133
 73
     1
 44
1.0
  0
POINT
  5
909
330
887
100
AcDbEntity
  8
DEFPOINTS
 62
     0
100
AcDbPoint
 10
60.10030356302576
 20
202.2978968123899
 30
0.0
  0
POINT
  5
90A
330
887
100
AcDbEntity
  8
DEFPOINTS
 62
     0
100
AcDbPoint
 10
193.1003035630256
 20
202.2978968123887
 30
0.0
  0
POINT
  5
90B
330
887
100
AcDbEntity
  8
DEFPOINTS
 62
     0
100
AcDbPoint
 10
193.1003035630256
 20
212.2978968123899
 30
0.0
  0
ENDBLK
  5
892
330
887
100
AcDbEntity
  8
0
100
AcDbBlockEnd
  0
ENDSEC
  0
SECTION
  2
ENTITIES
  0
TEXT
  5
2D0
330
1E
100
AcDbEntity
  8
TEXT
100
AcDbText
 10
327.874988149148
 20
25.6816046595321
 30
0.0
 40
2.5
  1
EDV-Art.Nr. 19974.125X
 41
0.8
  7
GREEKS
100
AcDbText
  0
TEXT
  5
2D1
330
1E
100
AcDbEntity
  8
TEXT
100
AcDbText
 10
327.4389701904506
 20
31.13696910956719
 30
0.0
 40
2.5
  1
mit Wärmedämmung und Heizung
 41
0.7
100
AcDbText
  0
TEXT
  5
2D2
330
1E
100
AcDbEntity
  8
TEXT
 62
     1
100
AcDbText
 10
291.6000000000003
 20
44.1804324308926
 30
0.0
 40
3.5
  1
1:1
 41
0.8
 72
     1
 11
294.0000000000002
 21
44.1804324308926
 31
0.0
100
AcDbText
  0
LINE
  5
2D3
330
1E
100
AcDbEntity
  8
HILF
100
AcDbLine
 10
327.3868400548474
 20
7.446991290141511
 30
0.0
 11
412.4294419663365
 21
7.446991290141511
 31
0.0
  0
TEXT
  5
2D4
330
1E
100
AcDbEntity
  8
TEXT
100
AcDbText
 10
378.0893774788172
 20
36.00000000000012
 30
0.0
 40
2.5
  1
Ersatz für:
 41
0.8
100
AcDbText
  0
TEXT
  5
2D5
330
1E
100
AcDbEntity
  8
TEXT
100
AcDbText
 10
378.0893774788172
 20
26.0
 30
0.0
 40
2.5
  1
ersetzt durch:
 41
0.8
100
AcDbText
  0
TEXT
  5
2D6
330
1E
100
AcDbEntity
  8
TEXT
100
AcDbText
 10
327.4389701904506
 20
21.0
 30
0.0
 40
2.0
  1
19974125W.DWG
 41
0.8
100
AcDbText
  0
TEXT
  5
2D7
330
1E
100
AcDbEntity
  8
TEXT
100
AcDbText
 10
327.4389701904506
 20
15.4228028509653
 30
0.0
 40
2.5
  1
Bauvorhaben
 41
0.8
100
AcDbText
  0
TEXT
  5
2D8
330
1E
100
AcDbEntity
  8
TEXT
100
AcDbText
 10
327.4389701904506
 20
36.13696910956719
 30
0.0
 40
2.5
  1
für LORO-Drainjet-Dachablauf
 41
0.8
100
AcDbText
  0
TEXT
  5
2D9
330
1E
100
AcDbEntity
  8
TEXT
100
AcDbText
 10
311.8380952380954
 20
36.5
 30
0.0
 40
2.0
  1
Name
 41
0.8
 72
     4
 11
315.0000000000001
 21
37.5
 31
0.0
100
AcDbText
  0
TEXT
  5
2DA
330
1E
100
AcDbEntity
  8
TEXT
100
AcDbText
 10
312.3714285714287
 20
31.35837445098832
 30
0.0
 40
2.0
  1
Koeh
 41
0.8
 72
     4
 11
315.0000000000001
 21
32.35837445098832
 31
0.0
100
AcDbText
  0
LINE
  5
2DB
330
1E
100
AcDbEntity
  8
HILF
100
AcDbLine
 10
327.3868400548474
 20
35.0
 30
0.0
 11
373.3148921257407
 21
35.0
 31
0.0
  0
LINE
  5
2DC
330
1E
100
AcDbEntity
  8
HILF
100
AcDbLine
 10
327.3868400548474
 20
30.0
 30
0.0
 11
373.3148921257407
 21
30.0
 31
0.0
  0
LINE
  5
2DD
330
1E
100
AcDbEntity
  8
HILF
100
AcDbLine
 10
327.3868400548474
 20
25.0
 30
0.0
 11
373.3148921257407
 21
25.0
 31
0.0
  0
TEXT
  5
2DE
330
1E
100
AcDbEntity
  8
TEXT
 62
     1
100
AcDbText
 10
384.0333333333333
 20
43.01879123782066
 30
0.0
 40
3.5
  1
19974125W
 41
0.8
 72
     1
 11
395.5
 21
43.01879123782066
 31
0.0
100
AcDbText
  0
TEXT
  5
2DF
330
1E
100
AcDbEntity
  8
TEXT
100
AcDbText
 10
378.0893774788172
 20
51.0
 30
0.0
 40
2.5
  1
Zeichnungs Nr.
 41
0.8
100
AcDbText
  0
TEXT
  5
2E0
330
1E
100
AcDbEntity
  8
TEXT
 62
     1
100
AcDbText
 10
327.4389701904506
 20
43.01879123782066
 30
0.0
 40
3.5
  1
Verbund-Isolierstück DN125
 41
0.6
100
AcDbText
  0
TEXT
  5
2E1
330
1E
100
AcDbEntity
  8
TEXT
100
AcDbText
 10
306.504761904762
 20
44.60053367635516
 30
0.0
 40
2.0
  1
DIN EN1123-2
 41
0.8
 72
     1
 11
315.0000000000001
 21
44.60053367635516
 31
0.0
100
AcDbText
  0
TEXT
  5
2E2
330
1E
100
AcDbEntity
  8
TEXT
100
AcDbText
 10
327.4389701904506
 20
51.27446640058895
 30
0.0
 40
2.5
  1
Benennung
 41
0.8
100
AcDbText
  0
LINE
  5
2E3
330
1E
100
AcDbEntity
  8
HILF
100
AcDbLine
 10
327.3868400548474
 20
42.01879123782066
 30
0.0
 11
373.3148921257407
 21
42.01879123782066
 31
0.0
  0
LINE
  5
2E4
330
1E
100
AcDbEntity
  8
STEMPEL
100
AcDbLine
 10
376.0000000000002
 20
54.99999999999983
 30
0.0
 11
376.0000000000002
 21
20.0
 31
0.0
  0
LINE
  5
2E5
330
1E
100
AcDbEntity
  8
VOLL
100
AcDbLine
 10
376.0000000000002
 20
30.0
 30
0.0
 11
415.0000000000002
 21
30.0
 31
0.0
  0
LINE
  5
2E6
330
1E
100
AcDbEntity
  8
HILF
100
AcDbLine
 10
378.3619308148498
 20
41.8899181847791
 30
0.0
 11
412.4294419663365
 21
41.8899181847791
 31
0.0
  0
LINE
  5
2E7
330
1E
100
AcDbEntity
  8
STEMPEL
100
AcDbLine
 10
325.0000000000001
 20
55.0
 30
0.0
 11
325.0000000000001
 21
5.0
 31
0.0
  0
TEXT
  5
2E8
330
1E
100
AcDbEntity
  8
TEXT
100
AcDbText
 10
265.1333333333334
 20
9.333333333333333
 30
0.0
 40
2.0
  1
Tag
 41
0.8
 72
     4
 11
267.0000000000001
 21
10.0
 31
0.0
100
AcDbText
  0
TEXT
  5
2E9
330
1E
100
AcDbEntity
  8
TEXT
100
AcDbText
 10
274.3380952380954
 20
9.0
 30
0.0
 40
2.0
  1
Name
 41
0.8
 72
     4
 11
277.5000000000001
 21
10.0
 31
0.0
100
AcDbText
  0
TEXT
  5
2EA
330
1E
100
AcDbEntity
  8
TEXT
100
AcDbText
 10
283.7886053849071
 20
21.00000000000012
 30
0.0
 40
2.0
  1
Norm.
 41
0.8
100
AcDbText
  0
TEXT
  5
2EB
330
1E
100
AcDbEntity
  8
TEXT
100
AcDbText
 10
296.6333333333336
 20
36.83333333333334
 30
0.0
 40
2.0
  1
Tag
 41
0.8
 72
     4
 11
298.5000000000002
 21
37.5
 31
0.0
100
AcDbText
  0
TEXT
  5
2EC
330
1E
100
AcDbEntity
  8
TEXT
100
AcDbText
 10
295.1476190476193
 20
31.35837445098838
 30
0.0
 40
2.0
  1
13.06.
 41
0.8
 72
     4
 11
298.5000000000002
 21
32.35837445098838
 31
0.0
100
AcDbText
  0
TEXT
  5
2ED
330
1E
100
AcDbEntity
  8
TEXT
100
AcDbText
 10
283.7886053849071
 20
31.0
 30
0.0
 40
2.0
  1
Gez.
 41
0.8
100
AcDbText
  0
TEXT
  5
2EE
330
1E
100
AcDbEntity
  8
TEXT
100
AcDbText
 10
283.7886053849071
 20
26.0
 30
0.0
 40
2.0
  1
Gepr.
 41
0.8
100
AcDbText
  0
TEXT
  5
2EF
330
1E
100
AcDbEntity
  8
TEXT
100
AcDbText
 10
284.6809523809526
 20
36.5
 30
0.0
 40
2.0
  1
2008
 41
0.8
 72
     4
 11
287.5000000000002
 21
37.5
 31
0.0
100
AcDbText
  0
LINE
  5
2F0
330
1E
100
AcDbEntity
  8
VOLL
100
AcDbLine
 10
292.0000000000002
 20
40.0
 30
0.0
 11
292.0000000000002
 21
20.0
 31
0.0
  0
TEXT
  5
2F1
330
1E
100
AcDbEntity
  8
TEXT
100
AcDbText
 10
246.6285714285715
 20
9.142857142857142
 30
0.0
 40
2.0
  1
Änderung
 41
0.8
 72
     4
 11
252.0000000000001
 21
10.0
 31
0.0
100
AcDbText
  0
LINE
  5
2F2
330
1E
100
AcDbEntity
  8
STEMPEL
100
AcDbLine
 10
283.0
 20
15.0
 30
0.0
 11
235.0000000000001
 21
15.0
 31
0.0
  0
LINE
  5
2F3
330
1E
100
AcDbEntity
  8
HILF
100
AcDbLine
 10
235.0000000000002
 20
40.0
 30
0.0
 11
283.0000000000002
 21
40.0
 31
0.0
  0
LINE
  5
2F4
330
1E
100
AcDbEntity
  8
HILF
100
AcDbLine
 10
235.0000000000002
 20
35.0
 30
0.0
 11
283.0000000000002
 21
35.0
 31
0.0
  0
LINE
  5
2F5
330
1E
100
AcDbEntity
  8
HILF
100
AcDbLine
 10
235.0000000000002
 20
30.0
 30
0.0
 11
283.0000000000002
 21
30.0
 31
0.0
  0
LINE
  5
2F6
330
1E
100
AcDbEntity
  8
HILF
100
AcDbLine
 10
235.0000000000002
 20
25.0
 30
0.0
 11
283.0000000000002
 21
25.0
 31
0.0
  0
LINE
  5
2F7
330
1E
100
AcDbEntity
  8
HILF
100
AcDbLine
 10
235.0000000000002
 20
20.0
 30
0.0
 11
283.0000000000002
 21
20.0
 31
0.0
  0
TEXT
  5
2F8
330
1E
100
AcDbEntity
  8
TEXT
100
AcDbText
 10
288.0952380952383
 20
51.42579333024355
 30
0.0
 40
2.5
  1
Maßstab
 41
0.8
 72
     1
 11
294.0000000000002
 21
51.42579333024355
 31
0.0
100
AcDbText
  0
LINE
  5
2F9
330
1E
100
AcDbEntity
  8
HILF
100
AcDbLine
 10
235.0000000000002
 20
50.0
 30
0.0
 11
283.0000000000002
 21
50.0
 31
0.0
  0
LINE
  5
2FA
330
1E
100
AcDbEntity
  8
HILF
100
AcDbLine
 10
235.0000000000002
 20
45.0
 30
0.0
 11
283.0000000000002
 21
45.0
 31
0.0
  0
TEXT
  5
2FB
330
1E
100
AcDbEntity
  8
TEXT
100
AcDbText
 10
235.0000000000002
 20
57.05717925255214
 30
0.0
 40
2.5
  1
Erstellt mit AUTOCAD 2004
 41
0.8
100
AcDbText
  0
LINE
  5
2FC
330
1E
100
AcDbEntity
  8
VOLL
100
AcDbLine
 10
305.0000000000002
 20
54.99999999999994
 30
0.0
 11
305.0000000000001
 21
20.0
 31
0.0
  0
LINE
  5
2FD
330
1E
100
AcDbEntity
  8
STEMPEL
100
AcDbLine
 10
235.0000000000002
 20
55.0
 30
0.0
 11
235.0000000000001
 21
5.0
 31
0.0
  0
LINE
  5
2FE
330
1E
100
AcDbEntity
  8
STEMPEL
100
AcDbLine
 10
283.0000000000002
 20
54.99999999999994
 30
0.0
 11
283.0000000000001
 21
4.999999999999943
 31
0.0
  0
LINE
  5
2FF
330
1E
100
AcDbEntity
  8
VOLL
100
AcDbLine
 10
242.0000000000002
 20
55.0
 30
0.0
 11
242.0000000000001
 21
5.0
 31
0.0
  0
LINE
  5
300
330
1E
100
AcDbEntity
  8
VOLL
100
AcDbLine
 10
262.0000000000002
 20
55.0
 30
0.0
 11
262.0000000000001
 21
5.0
 31
0.0
  0
LINE
  5
301
330
1E
100
AcDbEntity
  8
VOLL
100
AcDbLine
 10
272.0000000000002
 20
54.99999999999994
 30
0.0
 11
272.0000000000001
 21
4.999999999999943
 31
0.0
  0
TEXT
  5
302
330
1E
100
AcDbEntity
  8
TEXT
100
AcDbText
 10
239.5000000000001
 20
7.142857142857142
 30
0.0
 40
2.0
  1
Index
 50
90.0
 41
0.8
 72
     4
 11
238.5000000000001
 21
10.0
 31
0.0
100
AcDbText
  0
LINE
  5
303
330
1E
100
AcDbEntity
  8
STEMPEL
100
AcDbLine
 10
415.0000000000002
 20
55.0
 30
0.0
 11
235.0000000000002
 21
55.0
 31
0.0
  0
LINE
  5
304
330
1E
100
AcDbEntity
  8
STEMPEL
100
AcDbLine
 10
415.0000000000002
 20
20.0
 30
0.0
 11
283.0000000000001
 21
20.0
 31
0.0
  0
LINE
  5
305
330
1E
100
AcDbEntity
  8
STEMPEL
100
AcDbLine
 10
415.0000000000002
 20
40.0
 30
0.0
 11
283.0000000000002
 21
40.0
 31
0.0
  0
LINE
  5
306
330
1E
100
AcDbEntity
  8
HILF
100
AcDbLine
 10
283.0000000000002
 20
35.0
 30
0.0
 11
325.0000000000001
 21
35.0
 31
0.0
  0
LINE
  5
307
330
1E
100
AcDbEntity
  8
HILF
100
AcDbLine
 10
283.0000000000002
 20
30.0
 30
0.0
 11
325.0000000000001
 21
30.0
 31
0.0
  0
LINE
  5
308
330
1E
100
AcDbEntity
  8
HILF
100
AcDbLine
 10
283.0000000000002
 20
25.0
 30
0.0
 11
325.0000000000001
 21
25.0
 31
0.0
  0
TEXT
  5
309
330
1E
100
AcDbEntity
  8
TEXT
100
AcDbText
 10
308.2857142857145
 20
51.42579333024355
 30
0.0
 40
2.5
  1
Zul. Abw.
 41
0.8
 72
     1
 11
315.0000000000002
 21
51.42579333024355
 31
0.0
100
AcDbText
  0
INSERT
  5
30A
330
1E
100
AcDbEntity
  8
HILF
100
AcDbBlockReference
  2
LORO
 10
286.5312492981177
 20
18.49029650149481
 30
0.0
  0
LINE
  5
30B
330
1E
100
AcDbEntity
  8
HILF
100
AcDbLine
 10
230.0
 20
292.0
 30
0.0
 11
230.0
 21
297.0
 31
0.0
  0
LINE
  5
30C
330
1E
100
AcDbEntity
  8
HILF
100
AcDbLine
 10
230.0
 20
0.0
 30
0.0
 11
230.0
 21
5.0
 31
0.0
  0
TEXT
  5
30D
330
1E
100
AcDbEntity
  8
TEXT
100
AcDbText
 10
418.2066027689031
 20
5.276890308839199
 30
0.0
 40
2.0
  1
Diese Zeichnung ist urheberrechtlich geschuetzt und bleibt unser Eigentum. Sie darf weder ganz noch teilweise vervielfaeltigt und nicht an Dritte weitergegeben werden.
 50
90.0
 41
0.8
100
AcDbText
  0
LINE
  5
30E
330
1E
100
AcDbEntity
  8
STEMPEL
100
AcDbLine
 10
20.0
 20
292.0
 30
0.0
 11
20.0
 21
5.0
 31
0.0
  0
LINE
  5
30F
330
1E
100
AcDbEntity
  8
STEMPEL
100
AcDbLine
 10
415.0
 20
5.0
 30
0.0
 11
415.0
 21
292.0
 31
0.0
  0
LINE
  5
310
330
1E
100
AcDbEntity
  8
STEMPEL
100
AcDbLine
 10
20.0
 20
5.0
 30
0.0
 11
415.0
 21
5.0
 31
0.0
  0
LINE
  5
311
330
1E
100
AcDbEntity
  8
STEMPEL
100
AcDbLine
 10
415.0
 20
292.0
 30
0.0
 11
20.0
 21
292.0
 31
0.0
  0
LINE
  5
312
330
1E
100
AcDbEntity
  8
HILF
100
AcDbLine
 10
0.0
 20
297.0
 30
0.0
 11
0.0
 21
0.0
 31
0.0
  0
LINE
  5
313
330
1E
100
AcDbEntity
  8
HILF
100
AcDbLine
 10
420.0
 20
297.0
 30
0.0
 11
0.0
 21
297.0
 31
0.0
  0
LINE
  5
314
330
1E
100
AcDbEntity
  8
HILF
100
AcDbLine
 10
420.0
 20
0.0
 30
0.0
 11
420.0
 21
297.0
 31
0.0
  0
LINE
  5
315
330
1E
100
AcDbEntity
  8
HILF
100
AcDbLine
 10
0.0
 20
0.0
 30
0.0
 11
420.0
 21
0.0
 31
0.0
  0
TEXT
  5
36E
330
1E
100
AcDbEntity
  8
TEXT
 62
     1
100
AcDbText
 10
325.1669058328078
 20
74.98333943506338
 30
0.0
 40
3.5
  1
Werkstoff: E195 EN10305 feuerverzinkt
 41
0.8
  7
GREEKS
100
AcDbText
  0
TEXT
  5
370
330
1E
100
AcDbEntity
  8
TEXT
 62
     1
100
AcDbText
 10
325.3819539190641
 20
69.46665711926517
 30
0.0
 40
3.5
  1
Dämmung: 2 K PU-Schaum
 41
0.8
  7
GREEKS
100
AcDbText
  0
HATCH
  5
7BA
330
1E
100
AcDbEntity
  8
SCHRAFF
100
AcDbHatch
 10
0.0
 20
0.0
 30
0.0
210
0.0
220
0.0
230
1.0
  2
_USER
 70
     0
 71
     1
 91
        2
 92
        7
 72
     0
 73
     1
 93
        4
 10
42.45030356302584
 20
152.29789681239
 10
45.35030356302582
 20
152.29789681239
 10
45.35030356302586
 20
180.7978968123904
 10
42.45030356302588
 20
180.7978968123903
 97
        4
330
7E7
330
80E
330
80C
330
80F
 92
        7
 72
     0
 73
     1
 93
        4
 10
210.750303563026
 20
202.2978968123899
 10
207.8503035630261
 20
202.2978968123899
 10
207.850303563026
 20
152.2978968123899
 10
210.7503035630259
 20
152.2978968123899
 97
        4
330
7EE
330
812
330
808
330
813
 75
     0
 76
     0
 52
45.0
 41
2.0
 77
     0
 78
     1
 53
45.0
 43
8.635419540167958
 44
0.0
 45
-1.414213562373094
 46
1.414213562373095
 79
     0
 47
0.3269211436426488
 98
        2
 10
43.82490679356715
 20
173.0020756132301
 10
209.6996030137441
 20
185.4250792433168
  0
HATCH
  5
7BB
330
1E
100
AcDbEntity
  8
SCHRAFF
100
AcDbHatch
 10
0.0
 20
0.0
 30
0.0
210
0.0
220
0.0
230
1.0
  2
ANSI37
 70
     0
 71
     1
 91
        2
 92
        7
 72
     1
 73
     1
 93
       14
 10
45.35030356302581
 20
152.29789681239
 42
0.0
 10
42.45030356302584
 20
152.29789681239
 42
0.0
 10
42.45030356302583
 20
150.29789681239
 42
0.0
 10
50.60030356302582
 20
150.29789681239
 42
0.0
 10
52.74389710247482
 20
158.29789681239
 42
0.0
 10
60.10030356302581
 20
158.29789681239
 42
0.0
 10
60.1003035630258
 20
168.29789681239
 42
0.0
 10
56.10030356302582
 20
168.29789681239
 42
0.0
 10
56.10030356302582
 20
164.29789681239
 42
-0.5464881036522442
 10
51.85030356302588
 20
161.5707187837309
 42
-0.2932527545971547
 10
50.10030356302576
 20
164.29789681239
 42
0.0
 10
50.10030356302582
 20
168.29789681239
 42
0.0
 10
47.45030356302582
 20
168.29789681239
 42
0.0
 10
45.35030356302583
 20
166.19789681239
 42
0.0
 97
       14
330
7F0
330
7F1
330
7F3
330
7F4
330
7F2
330
80D
330
80B
330
80F
330
80C
330
80E
330
815
330
809
330
80A
330
810
 92
        7
 72
     1
 73
     1
 93
       15
 10
207.8503035630261
 20
166.1978968123894
 42
0.0
 10
205.7503035630257
 20
168.29789681239
 42
0.0
 10
203.1003035630258
 20
168.29789681239
 42
0.0
 10
203.1003035630258
 20
164.29789681239
 42
-0.2932527545971546
 10
201.3503035630257
 20
161.5707187837309
 42
-0.5464881036522346
 10
197.1003035630258
 20
164.29789681239
 42
0.0
 10
197.1003035630258
 20
168.29789681239
 42
0.0
 10
193.1003035630253
 20
168.29789681239
 42
0.0
 10
193.1003035630252
 20
158.29789681239
 42
0.0
 10
200.4567100235767
 20
158.29789681239
 42
0.0
 10
202.1003035630258
 20
152.1639222161744
 42
0.0
 10
202.6003035630258
 20
150.29789681239
 42
0.0
 10
210.7503035630259
 20
150.29789681239
 42
0.0
 10
210.7503035630259
 20
152.2978968123899
 42
0.0
 10
207.8503035630261
 20
152.2978968123899
 42
0.0
 97
       15
330
806
330
7EF
330
804
330
801
330
803
330
805
330
7F0
330
811
330
80A
330
802
330
807
330
815
330
813
330
808
330
812
 75
     0
 76
     1
 52
0.0
 41
15.0
 77
     0
 78
     2
 53
45.0
 43
8.635419540167958
 44
0.0
 45
-1.325825214724776
 46
1.325825214724776
 79
     0
 53
135.0
 43
8.635419540167958
 44
0.0
 45
-1.325825214724776
 46
-1.325825214724776
 79
     0
 47
0.3668009587639322
 98
        2
 10
48.22113637208963
 20
159.8244078139707
 10
205.3309823901461
 20
157.9904028578299
  0
LINE
  5
7BC
330
1E
100
AcDbEntity
  8
VERDECKT
100
AcDbLine
 10
387.4520491770905
 20
202.29789681239
 30
0.0
 11
387.4520491770904
 21
158.29789681239
 31
0.0
  0
LINE
  5
7BD
330
1E
100
AcDbEntity
  8
VERDECKT
100
AcDbLine
 10
254.4520491770905
 20
202.29789681239
 30
0.0
 11
254.4520491770904
 21
158.29789681239
 31
0.0
  0
LINE
  5
7BE
330
1E
100
AcDbEntity
  8
VERDECKT
100
AcDbLine
 10
402.2020491770907
 20
152.2978968123894
 30
0.0
 11
402.2020491770907
 21
202.2978968123894
 31
0.0
  0
HATCH
  5
7BF
330
1E
100
AcDbEntity
  8
SCHRAFF
100
AcDbHatch
 10
0.0
 20
0.0
 30
0.0
210
0.0
220
0.0
230
1.0
  2
HONEY
 70
     0
 71
     0
 91
        2
 92
        7
 72
     1
 73
     1
 93
       12
 10
60.10030356302576
 20
202.2978968123899
 42
0.0
 10
49.55030356302597
 20
202.2978968123899
 42
0.0
 10
49.55030356302597
 20
177.7978968123903
 42
0.0
 10
45.35030356302584
 20
177.7978968123903
 42
0.0
 10
45.35030356302583
 20
166.1978968123899
 42
0.0
 10
47.45030356302583
 20
168.29789681239
 42
0.0
 10
50.10030356302582
 20
168.29789681239
 42
0.0
 10
50.10030356302576
 20
164.29789681239
 42
0.2932527545971526
 10
51.85030356302586
 20
161.5707187837309
 42
0.5464881036522467
 10
56.10030356302582
 20
164.29789681239
 42
0.0
 10
56.10030356302582
 20
168.29789681239
 42
0.0
 10
60.10030356302579
 20
168.29789681239
 42
0.0
 97
        0
 92
        7
 72
     1
 73
     1
 93
       10
 10
207.850303563026
 20
202.2978968123899
 42
0.0
 10
193.1003035630256
 20
202.2978968123899
 42
0.0
 10
193.1003035630253
 20
168.29789681239
 42
0.0
 10
197.1003035630258
 20
168.29789681239
 42
0.0
 10
197.1003035630258
 20
164.29789681239
 42
0.5464881036522371
 10
201.3503035630257
 20
161.5707187837309
 42
0.2932527545971526
 10
203.1003035630258
 20
164.29789681239
 42
0.0
 10
203.1003035630258
 20
168.29789681239
 42
0.0
 10
205.7503035630258
 20
168.29789681239
 42
0.0
 10
207.850303563026
 20
166.1978968123895
 42
0.0
 97
        0
 75
     0
 76
     1
 52
0.0
 41
30.0
 77
     0
 78
     3
 53
0.0
 43
8.635419540167958
 44
0.0
 45
5.625
 46
3.247595249999999
 79
     2
 49
3.75
 49
-7.5
 53
120.0
 43
8.635419540167958
 44
0.0
 45
-5.624999987709673
 46
3.247595271287468
 79
     2
 49
3.749999999999998
 49
-7.499999999999997
 53
60.0
 43
8.635419540167958
 44
0.0
 45
0.0000000122903263
 46
6.495190521287468
 79
     2
 49
-7.5
 49
3.75
 47
0.3777559406474698
 98
        2
 10
54.30581898772584
 20
184.8088057508908
 10
200.5959873157378
 20
184.053295588867
  0
LINE
  5
7C0
330
1E
100
AcDbEntity
  8
VERDECKT
100
AcDbLine
 10
239.7020491770905
 20
152.29789681239
 30
0.0
 11
239.7020491770905
 21
202.29789681239
 31
0.0
  0
LINE
  5
7C1
330
1E
100
AcDbEntity
  8
STEMPEL
100
AcDbLine
 10
405.1020491770906
 20
150.29789681239
 30
0.0
 11
405.1020491770906
 21
202.29789681239
 31
0.0
  0
LINE
  5
7C2
330
1E
100
AcDbEntity
  8
STEMPEL
100
AcDbLine
 10
236.8020491770903
 20
150.29789681239
 30
0.0
 11
236.8020491770903
 21
202.29789681239
 31
0.0
  0
LINE
  5
7C3
330
1E
100
AcDbEntity
  8
STEMPEL
100
AcDbLine
 10
405.1020491770906
 20
150.29789681239
 30
0.0
 11
236.8020491770903
 21
150.29789681239
 31
0.0
  0
LINE
  5
7C4
330
1E
100
AcDbEntity
  8
STEMPEL
100
AcDbLine
 10
236.9520491770905
 20
150.29789681239
 30
0.0
 11
404.9520491770905
 21
150.29789681239
 31
0.0
  0
LINE
  5
7C5
330
1E
100
AcDbEntity
  8
VERDECKT
100
AcDbLine
 10
241.8020491770905
 20
168.29789681239
 30
0.0
 11
244.4520491770905
 21
168.29789681239
 31
0.0
  0
LINE
  5
7C6
330
1E
100
AcDbEntity
  8
VERDECKT
100
AcDbLine
 10
239.7020491770905
 20
166.19789681239
 30
0.0
 11
241.8020491770905
 21
168.29789681239
 31
0.0
  0
LINE
  5
7C7
330
1E
100
AcDbEntity
  8
VERDECKT
100
AcDbLine
 10
247.0956427165395
 20
158.29789681239
 30
0.0
 11
394.8084556376415
 21
158.29789681239
 31
0.0
  0
LINE
  5
7C8
330
1E
100
AcDbEntity
  8
VERDECKT
100
AcDbLine
 10
244.9520491770905
 20
150.29789681239
 30
0.0
 11
247.0956427165395
 21
158.29789681239
 31
0.0
  0
LINE
  5
7C9
330
1E
100
AcDbEntity
  8
VERDECKT
100
AcDbLine
 10
396.9520491770905
 20
150.29789681239
 30
0.0
 11
396.4520491770905
 21
152.1639222161744
 31
0.0
  0
LINE
  5
7CA
330
1E
100
AcDbEntity
  8
VERDECKT
100
AcDbLine
 10
402.2020491770907
 20
166.1978968123894
 30
0.0
 11
400.1020491770904
 21
168.29789681239
 31
0.0
  0
LINE
  5
7CB
330
1E
100
AcDbEntity
  8
VERDECKT
100
AcDbLine
 10
391.4520491770905
 20
168.29789681239
 30
0.0
 11
391.4520491770905
 21
164.29789681239
 31
0.0
  0
LINE
  5
7CC
330
1E
100
AcDbEntity
  8
VERDECKT
100
AcDbLine
 10
397.4520491770905
 20
168.29789681239
 30
0.0
 11
397.4520491770905
 21
164.29789681239
 31
0.0
  0
ARC
  5
7CD
330
1E
100
AcDbEntity
  8
VERDECKT
100
AcDbCircle
 10
394.4520491770905
 20
164.29789681239
 30
0.0
 40
3.000000000000056
100
AcDbArc
 50
180.0
 51
294.6243183521611
  0
LINE
  5
7CE
330
1E
100
AcDbEntity
  8
VERDECKT
100
AcDbLine
 10
396.4520491770905
 20
152.1639222161744
 30
0.0
 11
394.8084556376414
 21
158.29789681239
 31
0.0
  0
ARC
  5
7CF
330
1E
100
AcDbEntity
  8
VERDECKT
100
AcDbCircle
 10
394.4520491770905
 20
164.29789681239
 30
0.0
 40
3.000000000000056
100
AcDbArc
 50
294.6243183521611
 51
0.0
  0
POINT
  5
7D0
330
1E
100
AcDbEntity
  8
VERDECKT
100
AcDbPoint
 10
402.1020491770904
 20
166.29789681239
 30
0.0
  0
POINT
  5
7D1
330
1E
100
AcDbEntity
  8
VERDECKT
100
AcDbPoint
 10
391.4520491770905
 20
168.29789681239
 30
0.0
  0
POINT
  5
7D2
330
1E
100
AcDbEntity
  8
VERDECKT
100
AcDbPoint
 10
397.4520491770905
 20
168.29789681239
 30
0.0
  0
POINT
  5
7D3
330
1E
100
AcDbEntity
  8
VERDECKT
100
AcDbPoint
 10
394.4520491770905
 20
161.29789681239
 30
0.0
  0
POINT
  5
7D4
330
1E
100
AcDbEntity
  8
VERDECKT
100
AcDbPoint
 10
400.1020491770904
 20
168.29789681239
 30
0.0
  0
POINT
  5
7D5
330
1E
100
AcDbEntity
  8
VERDECKT
100
AcDbPoint
 10
247.0956427165395
 20
158.29789681239
 30
0.0
  0
POINT
  5
7D6
330
1E
100
AcDbEntity
  8
VERDECKT
100
AcDbPoint
 10
394.8084556376414
 20
158.29789681239
 30
0.0
  0
POINT
  5
7D7
330
1E
100
AcDbEntity
  8
VERDECKT
100
AcDbPoint
 10
244.9520491770905
 20
150.29789681239
 30
0.0
  0
POINT
  5
7D8
330
1E
100
AcDbEntity
  8
VERDECKT
100
AcDbPoint
 10
396.9520491770905
 20
150.29789681239
 30
0.0
  0
POINT
  5
7D9
330
1E
100
AcDbEntity
  8
VERDECKT
100
AcDbPoint
 10
396.4520491770905
 20
152.1639222161744
 30
0.0
  0
POINT
  5
7DA
330
1E
100
AcDbEntity
  8
VERDECKT
100
AcDbPoint
 10
247.4520491770905
 20
161.29789681239
 30
0.0
  0
ARC
  5
7DB
330
1E
100
AcDbEntity
  8
VERDECKT
100
AcDbCircle
 10
247.4520491770904
 20
164.29789681239
 30
0.0
 40
3.000000000000056
100
AcDbArc
 50
180.0
 51
245.375681647839
  0
ARC
  5
7DC
330
1E
100
AcDbEntity
  8
VERDECKT
100
AcDbCircle
 10
247.4520491770904
 20
164.29789681239
 30
0.0
 40
3.000000000000056
100
AcDbArc
 50
245.375681647839
 51
0.0
  0
LINE
  5
7DD
330
1E
100
AcDbEntity
  8
VERDECKT
100
AcDbLine
 10
244.4520491770905
 20
168.29789681239
 30
0.0
 11
244.4520491770904
 21
164.29789681239
 31
0.0
  0
LINE
  5
7DE
330
1E
100
AcDbEntity
  8
VERDECKT
100
AcDbLine
 10
250.4520491770905
 20
168.29789681239
 30
0.0
 11
250.4520491770905
 21
164.29789681239
 31
0.0
  0
LINE
  5
7DF
330
1E
100
AcDbEntity
  8
VERDECKT
100
AcDbLine
 10
250.4520491770905
 20
168.29789681239
 30
0.0
 11
391.4520491770905
 21
168.29789681239
 31
0.0
  0
LINE
  5
7E0
330
1E
100
AcDbEntity
  8
VERDECKT
100
AcDbLine
 10
397.4520491770905
 20
168.29789681239
 30
0.0
 11
400.1020491770906
 21
168.29789681239
 31
0.0
  0
DIMENSION
  5
7E1
102
{ACAD_XDICTIONARY
360
7E2
102
}
102
{ACAD_REACTORS
330
7E3
102
}
330
1E
100
AcDbEntity
  8
BEM
100
AcDbDimension
  2
*D5
 10
210.750303563026
 20
212.2978968123899
 30
0.0
 11
222.1169702296927
 21
215.5478968123899
 31
0.0
 70
    32
 71
     5
 42
2.899999999999948
  3
Standard
100
AcDbAlignedDimension
 13
207.850303563026
 23
202.2978968123898
 33
0.0
 14
210.750303563026
 24
202.2978968123898
 34
0.0
100
AcDbRotatedDimension
1001
ACAD
1000
DSTYLE
1002
{
1070
    41
1040
3.5
1070
    42
1040
1.0
1070
    43
1040
7.0
1070
    44
1040
1.0
1070
    47
1040
0.5
1070
    48
1040
0.5
1070
    73
1070
     0
1070
    74
1070
     0
1070
    77
1070
     1
1070
    78
1070
     8
1070
    79
1070
     2
1070
   140
1040
3.5
1070
   141
1040
1.5
1070
   146
1040
0.5
1070
   147
1040
1.5
1070
   172
1070
     1
1070
   178
1070
     1
1070
   179
1070
     2
1070
   271
1070
     2
1070
   272
1070
     2
1070
   284
1070
     8
1070
   285
1070
     8
1070
   286
1070
     8
1002
}
  0
DIMENSION
  5
7E4
102
{ACAD_XDICTIONARY
360
7E5
102
}
102
{ACAD_REACTORS
330
7E6
102
}
330
1E
100
AcDbEntity
  8
BEM
100
AcDbDimension
  2
*D6
 10
210.750303563026
 20
220.2978968123899
 30
0.0
 11
126.6003035630259
 21
223.5478968123899
 31
0.0
 70
    32
  1
%%c<>
 71
     5
 42
168.3000000000001
  3
Standard
100
AcDbAlignedDimension
 13
42.45030356302589
 23
202.2978968123899
 33
0.0
 14
210.750303563026
 24
202.2978968123898
 34
0.0
100
AcDbRotatedDimension
1001
ACAD
1000
DSTYLE
1002
{
1070
    41
1040
3.5
1070
    42
1040
1.0
1070
    43
1040
7.0
1070
    44
1040
1.0
1070
    73
1070
     0
1070
    74
1070
     0
1070
    77
1070
     1
1070
    78
1070
     8
1070
    79
1070
     2
1070
   140
1040
3.5
1070
   141
1040
1.5
1070
   146
1040
0.5142857142857144
1070
   147
1040
1.5
1070
   172
1070
     1
1070
   178
1070
     1
1070
   179
1070
     2
1070
   271
1070
     2
1070
   272
1070
     2
1070
   284
1070
     8
1070
   285
1070
     8
1070
   286
1070
     8
1002
}
  0
LINE
  5
7E7
102
{ACAD_REACTORS
330
7BA
102
}
330
1E
100
AcDbEntity
  8
STEMPEL
100
AcDbLine
 10
45.35030356302587
 20
180.7978968123903
 30
0.0
 11
42.45030356302587
 21
180.7978968123903
 31
0.0
  0
DIMENSION
  5
7E8
102
{ACAD_XDICTIONARY
360
7E9
102
}
102
{ACAD_REACTORS
330
7EA
102
}
330
1E
100
AcDbEntity
  8
BEM
100
AcDbDimension
  2
*D7
 10
193.1003035630256
 20
212.2978968123899
 30
0.0
 11
126.6003035630256
 21
215.5478968123899
 31
0.0
 70
    32
  1
%%c<>
 71
     5
 42
132.9999999999998
  3
Standard
100
AcDbAlignedDimension
 13
60.10030356302576
 23
202.2978968123899
 33
0.0
 14
193.1003035630256
 24
202.2978968123887
 34
0.0
100
AcDbRotatedDimension
1001
ACAD
1000
DSTYLE
1002
{
1070
    41
1040
3.5
1070
    42
1040
1.0
1070
    43
1040
7.0
1070
    44
1040
1.0
1070
    73
1070
     0
1070
    74
1070
     0
1070
    77
1070
     1
1070
    78
1070
     8
1070
    79
1070
     2
1070
   140
1040
3.5
1070
   141
1040
1.5
1070
   146
1040
0.5142857142857144
1070
   147
1040
1.5
1070
   172
1070
     1
1070
   178
1070
     1
1070
   179
1070
     2
1070
   271
1070
     2
1070
   272
1070
     2
1070
   284
1070
     8
1070
   285
1070
     8
1070
   286
1070
     8
1002
}
  0
LINE
  5
7EE
102
{ACAD_REACTORS
330
7E6
330
7BA
102
}
330
1E
100
AcDbEntity
  8
STEMPEL
100
AcDbLine
 10
210.7503035630259
 20
202.2978968123899
 30
0.0
 11
42.45030356302589
 21
202.2978968123899
 31
0.0
  0
LINE
  5
7EF
102
{ACAD_REACTORS
330
7BB
102
}
330
1E
100
AcDbEntity
  8
STEMPEL
100
AcDbLine
 10
203.1003035630258
 20
168.29789681239
 30
0.0
 11
205.7503035630259
 21
168.29789681239
 31
0.0
  0
LINE
  5
7F0
102
{ACAD_REACTORS
330
7BB
102
}
330
1E
100
AcDbEntity
  8
STEMPEL
100
AcDbLine
 10
56.10030356302582
 20
168.29789681239
 30
0.0
 11
197.1003035630258
 21
168.29789681239
 31
0.0
  0
LINE
  5
7F1
102
{ACAD_REACTORS
330
7BB
102
}
330
1E
100
AcDbEntity
  8
STEMPEL
100
AcDbLine
 10
56.10030356302582
 20
168.29789681239
 30
0.0
 11
56.10030356302582
 21
164.29789681239
 31
0.0
  0
LINE
  5
7F2
102
{ACAD_REACTORS
330
7BB
102
}
330
1E
100
AcDbEntity
  8
STEMPEL
100
AcDbLine
 10
50.10030356302582
 20
168.29789681239
 30
0.0
 11
50.10030356302576
 21
164.29789681239
 31
0.0
  0
ARC
  5
7F3
102
{ACAD_REACTORS
330
7BB
102
}
330
1E
100
AcDbEntity
  8
STEMPEL
100
AcDbCircle
 10
53.10030356302576
 20
164.29789681239
 30
0.0
 40
3.000000000000056
100
AcDbArc
 50
245.375681647839
 51
0.0
  0
ARC
  5
7F4
102
{ACAD_REACTORS
330
7BB
102
}
330
1E
100
AcDbEntity
  8
STEMPEL
100
AcDbCircle
 10
53.10030356302576
 20
164.29789681239
 30
0.0
 40
3.000000000000056
100
AcDbArc
 50
180.0
 51
245.375681647839
  0
POINT
  5
7F5
330
1E
100
AcDbEntity
  8
DEFPOINTS
  6
ByBlock
 62
     0
100
AcDbPoint
 10
53.10030356302582
 20
161.29789681239
 30
0.0
  0
POINT
  5
7F6
330
1E
100
AcDbEntity
  8
DEFPOINTS
  6
ByBlock
 62
     0
100
AcDbPoint
 10
210.6003035630258
 20
150.29789681239
 30
0.0
  0
POINT
  5
7F7
330
1E
100
AcDbEntity
  8
DEFPOINTS
  6
ByBlock
 62
     0
100
AcDbPoint
 10
202.1003035630258
 20
152.1639222161744
 30
0.0
  0
POINT
  5
7F8
330
1E
100
AcDbEntity
  8
DEFPOINTS
  6
ByBlock
 62
     0
100
AcDbPoint
 10
202.6003035630258
 20
150.29789681239
 30
0.0
  0
POINT
  5
7F9
330
1E
100
AcDbEntity
  8
DEFPOINTS
  6
ByBlock
 62
     0
100
AcDbPoint
 10
50.60030356302582
 20
150.29789681239
 30
0.0
  0
POINT
  5
7FA
330
1E
100
AcDbEntity
  8
DEFPOINTS
  6
ByBlock
 62
     0
100
AcDbPoint
 10
200.4567100235767
 20
158.29789681239
 30
0.0
  0
POINT
  5
7FB
330
1E
100
AcDbEntity
  8
DEFPOINTS
  6
ByBlock
 62
     0
100
AcDbPoint
 10
52.74389710247482
 20
158.29789681239
 30
0.0
  0
POINT
  5
7FC
330
1E
100
AcDbEntity
  8
DEFPOINTS
  6
ByBlock
 62
     0
100
AcDbPoint
 10
205.7503035630258
 20
168.29789681239
 30
0.0
  0
POINT
  5
7FD
330
1E
100
AcDbEntity
  8
DEFPOINTS
  6
ByBlock
 62
     0
100
AcDbPoint
 10
200.1003035630258
 20
161.29789681239
 30
0.0
  0
POINT
  5
7FE
330
1E
100
AcDbEntity
  8
DEFPOINTS
  6
ByBlock
 62
     0
100
AcDbPoint
 10
203.1003035630258
 20
168.29789681239
 30
0.0
  0
POINT
  5
7FF
330
1E
100
AcDbEntity
  8
DEFPOINTS
  6
ByBlock
 62
     0
100
AcDbPoint
 10
197.1003035630258
 20
168.29789681239
 30
0.0
  0
POINT
  5
800
330
1E
100
AcDbEntity
  8
DEFPOINTS
  6
ByBlock
 62
     0
100
AcDbPoint
 10
207.7503035630258
 20
166.29789681239
 30
0.0
  0
ARC
  5
801
102
{ACAD_REACTORS
330
7BB
102
}
330
1E
100
AcDbEntity
  8
STEMPEL
100
AcDbCircle
 10
200.1003035630258
 20
164.29789681239
 30
0.0
 40
3.000000000000056
100
AcDbArc
 50
294.6243183521611
 51
0.0
  0
LINE
  5
802
102
{ACAD_REACTORS
330
7BB
102
}
330
1E
100
AcDbEntity
  8
STEMPEL
100
AcDbLine
 10
202.1003035630258
 20
152.1639222161744
 30
0.0
 11
200.4567100235767
 21
158.29789681239
 31
0.0
  0
ARC
  5
803
102
{ACAD_REACTORS
330
7BB
102
}
330
1E
100
AcDbEntity
  8
STEMPEL
100
AcDbCircle
 10
200.1003035630258
 20
164.29789681239
 30
0.0
 40
3.000000000000056
100
AcDbArc
 50
180.0
 51
294.6243183521611
  0
LINE
  5
804
102
{ACAD_REACTORS
330
7BB
102
}
330
1E
100
AcDbEntity
  8
STEMPEL
100
AcDbLine
 10
203.1003035630258
 20
168.29789681239
 30
0.0
 11
203.1003035630258
 21
164.29789681239
 31
0.0
  0
LINE
  5
805
102
{ACAD_REACTORS
330
7BB
102
}
330
1E
100
AcDbEntity
  8
STEMPEL
100
AcDbLine
 10
197.1003035630258
 20
168.29789681239
 30
0.0
 11
197.1003035630258
 21
164.29789681239
 31
0.0
  0
LINE
  5
806
102
{ACAD_REACTORS
330
7BB
102
}
330
1E
100
AcDbEntity
  8
STEMPEL
100
AcDbLine
 10
207.850303563026
 20
166.1978968123894
 30
0.0
 11
205.7503035630258
 21
168.29789681239
 31
0.0
  0
LINE
  5
807
102
{ACAD_REACTORS
330
7BB
102
}
330
1E
100
AcDbEntity
  8
STEMPEL
100
AcDbLine
 10
202.6003035630258
 20
150.29789681239
 30
0.0
 11
202.1003035630258
 21
152.1639222161744
 31
0.0
  0
LINE
  5
808
102
{ACAD_REACTORS
330
7BB
330
7BA
102
}
330
1E
100
AcDbEntity
  8
STEMPEL
100
AcDbLine
 10
210.7503035630259
 20
152.2978968123899
 30
0.0
 11
207.850303563026
 21
152.2978968123899
 31
0.0
  0
LINE
  5
809
102
{ACAD_REACTORS
330
7BB
102
}
330
1E
100
AcDbEntity
  8
STEMPEL
100
AcDbLine
 10
50.60030356302582
 20
150.29789681239
 30
0.0
 11
52.74389710247482
 21
158.29789681239
 31
0.0
  0
LINE
  5
80A
102
{ACAD_REACTORS
330
7BB
102
}
330
1E
100
AcDbEntity
  8
STEMPEL
100
AcDbLine
 10
52.74389710247482
 20
158.29789681239
 30
0.0
 11
200.4567100235769
 21
158.29789681239
 31
0.0
  0
LINE
  5
80B
102
{ACAD_REACTORS
330
7BB
102
}
330
1E
100
AcDbEntity
  8
STEMPEL
100
AcDbLine
 10
45.35030356302581
 20
166.19789681239
 30
0.0
 11
47.45030356302584
 21
168.29789681239
 31
0.0
  0
LINE
  5
80C
102
{ACAD_REACTORS
330
7BB
330
7BA
102
}
330
1E
100
AcDbEntity
  8
STEMPEL
100
AcDbLine
 10
42.45030356302589
 20
152.29789681239
 30
0.0
 11
45.35030356302581
 21
152.29789681239
 31
0.0
  0
LINE
  5
80D
102
{ACAD_REACTORS
330
7BB
102
}
330
1E
100
AcDbEntity
  8
STEMPEL
100
AcDbLine
 10
47.45030356302584
 20
168.29789681239
 30
0.0
 11
50.10030356302582
 21
168.29789681239
 31
0.0
  0
LINE
  5
80E
102
{ACAD_REACTORS
330
7BB
330
7BA
102
}
330
1E
100
AcDbEntity
  8
STEMPEL
100
AcDbLine
 10
42.45030356302589
 20
202.2978968123898
 30
0.0
 11
42.45030356302584
 21
150.29789681239
 31
0.0
  0
LINE
  5
80F
102
{ACAD_REACTORS
330
7BB
330
7BA
102
}
330
1E
100
AcDbEntity
  8
STEMPEL
100
AcDbLine
 10
45.35030356302587
 20
202.2978968123899
 30
0.0
 11
45.35030356302581
 21
152.29789681239
 31
0.0
  0
LINE
  5
810
102
{ACAD_REACTORS
330
7EA
330
7BB
102
}
330
1E
100
AcDbEntity
  8
STEMPEL
100
AcDbLine
 10
60.10030356302576
 20
202.2978968123899
 30
0.0
 11
60.10030356302582
 21
158.2978968123901
 31
0.0
  0
LINE
  5
811
102
{ACAD_REACTORS
330
7EA
330
7BB
102
}
330
1E
100
AcDbEntity
  8
STEMPEL
100
AcDbLine
 10
193.1003035630256
 20
202.2978968123899
 30
0.0
 11
193.1003035630252
 21
158.2978968123899
 31
0.0
  0
LINE
  5
812
102
{ACAD_REACTORS
330
7E3
330
7BB
330
7BA
102
}
330
1E
100
AcDbEntity
  8
STEMPEL
100
AcDbLine
 10
207.850303563026
 20
202.2978968123898
 30
0.0
 11
207.850303563026
 21
152.2978968123899
 31
0.0
  0
LINE
  5
813
102
{ACAD_REACTORS
330
7E3
330
7BB
330
7BA
102
}
330
1E
100
AcDbEntity
  8
STEMPEL
100
AcDbLine
 10
210.750303563026
 20
202.2978968123898
 30
0.0
 11
210.7503035630259
 21
150.2978968123899
 31
0.0
  0
DIMENSION
  5
814
330
1E
100
AcDbEntity
  8
BEM
100
AcDbDimension
  2
*D3
 10
223.3787439283299
 20
152.2978968123899
 30
0.0
 11
220.1287439283298
 21
177.2978968123899
 31
0.0
 70
    32
 71
     5
 42
50.0
  3
Standard
100
AcDbAlignedDimension
 13
210.750303563026
 23
202.2978968123899
 33
0.0
 14
210.7503035630259
 24
152.2978968123899
 34
0.0
 50
90.0
100
AcDbRotatedDimension
1001
ACAD
1000
DSTYLE
1002
{
1070
    41
1040
3.5
1070
    42
1040
1.0
1070
    43
1040
7.0
1070
    44
1040
1.0
1070
    47
1040
0.5
1070
    48
1040
0.5
1070
    73
1070
     0
1070
    74
1070
     0
1070
    77
1070
     1
1070
    78
1070
     8
1070
    79
1070
     2
1070
   140
1040
3.5
1070
   141
1040
1.5
1070
   146
1040
0.5
1070
   147
1040
1.5
1070
   172
1070
     1
1070
   178
1070
     1
1070
   179
1070
     2
1070
   271
1070
     2
1070
   272
1070
     2
1070
   284
1070
     8
1070
   285
1070
     8
1070
   286
1070
     8
1002
}
  0
LINE
  5
815
102
{ACAD_REACTORS
330
7BB
102
}
330
1E
100
AcDbEntity
  8
STEMPEL
100
AcDbLine
 10
210.750303563026
 20
150.29789681239
 30
0.0
 11
42.45030356302561
 21
150.29789681239
 31
0.0
  0
LINE
  5
816
330
1E
100
AcDbEntity
  8
MITTEL
100
AcDbLine
 10
126.6003035630258
 20
207.2978968123899
 30
0.0
 11
126.6003035630258
 21
145.29789681239
 31
0.0
  0
DIMENSION
  5
817
330
1E
100
AcDbEntity
  8
BEM
100
AcDbDimension
  2
*D4
 10
325.9520491770904
 20
267.3800385604433
 30
0.0
 11
320.9520491770904
 21
270.6300385604432
 31
0.0
 70
    32
  1
12
 71
     5
 42
10.0
  3
Standard
100
AcDbAlignedDimension
 13
315.9520491770904
 23
259.9275119857586
 33
0.0
 14
325.9520491770904
 24
259.9275119857586
 34
0.0
100
AcDbRotatedDimension
1001
ACAD
1000
DSTYLE
1002
{
1070
    41
1040
3.5
1070
    42
1040
1.0
1070
    43
1040
7.0
1070
    44
1040
1.0
1070
    47
1040
0.5
1070
    48
1040
0.5
1070
    73
1070
     0
1070
    74
1070
     0
1070
    77
1070
     1
1070
    78
1070
     8
1070
    79
1070
     2
1070
   140
1040
3.5
1070
   141
1040
1.5
1070
   146
1040
0.5
1070
   147
1040
1.5
1070
   172
1070
     1
1070
   178
1070
     1
1070
   179
1070
     2
1070
   271
1070
     2
1070
   272
1070
     2
1070
   284
1070
     8
1070
   285
1070
     8
1070
   286
1070
     8
1002
}
  0
LINE
  5
81E
330
1E
100
AcDbEntity
  8
TEXT
 62
     2
100
AcDbLine
 10
63.02887743176938
 20
132.7068113827118
 30
0.0
 11
48.08569637611867
 21
153.2977555353754
 31
0.0
  0
TEXT
  5
81F
330
1E
100
AcDbEntity
  8
TEXT
 62
     1
100
AcDbText
 10
64.00185210567315
 20
134.3967640911601
 30
0.0
 40
3.5
  1
Zentrierring DN125
 41
0.8
  7
GREEKS
100
AcDbText
  0
LINE
  5
821
330
1E
100
AcDbEntity
  8
MITTEL
100
AcDbLine
 10
306.4520491770904
 20
190.29789681239
 30
0.0
 11
335.4520491770904
 21
190.29789681239
 31
0.0
  0
ARC
  5
822
330
1E
100
AcDbEntity
  8
STEMPEL
100
AcDbCircle
 10
320.9520491770904
 20
190.29789681239
 30
0.0
 40
9.5
100
AcDbArc
 50
129.1667107161198
 51
50.8332892838802
  0
LINE
  5
823
330
1E
100
AcDbEntity
  8
STEMPEL
100
AcDbLine
 10
326.9520491770904
 20
197.6633567437182
 30
0.0
 11
326.9520491770904
 21
202.29789681239
 31
0.0
  0
LINE
  5
824
330
1E
100
AcDbEntity
  8
STEMPEL
100
AcDbLine
 10
314.9520491770904
 20
197.6633567437182
 30
0.0
 11
314.9520491770904
 21
202.29789681239
 31
0.0
  0
LINE
  5
825
330
1E
100
AcDbEntity
  8
STEMPEL
100
AcDbLine
 10
405.1020491770906
 20
202.29789681239
 30
0.0
 11
236.8020491770903
 21
202.29789681239
 31
0.0
  0
LINE
  5
826
330
1E
100
AcDbEntity
  8
STEMPEL
100
AcDbLine
 10
405.1020491770906
 20
152.29789681239
 30
0.0
 11
236.8020491770903
 21
152.29789681239
 31
0.0
  0
LINE
  5
827
330
1E
100
AcDbEntity
  8
MITTEL
100
AcDbLine
 10
320.9520491770905
 20
207.29789681239
 30
0.0
 11
320.9520491770904
 21
145.29789681239
 31
0.0
  0
ARC
  5
828
330
1E
100
AcDbEntity
  8
VERDECKT
100
AcDbCircle
 10
320.9520491770904
 20
248.1988078800188
 30
0.0
 40
9.75
100
AcDbArc
 50
120.8518859860656
 51
59.14811401393434
  0
INSERT
  5
829
330
1E
100
AcDbEntity
  8
SCHRAFF
  6
Continuous
100
AcDbBlockReference
  2
*X2
 10
-27.29851661526453
 20
-18.59231929373209
 30
0.0
1001
ACAD
1000
HATCH
1002
{
1070
    19
1000
ANSI37
1040
20.0
1040
0.0
1000
R14_HATCH_DATA
1000
8D9
1011
-26.29851661526453
1021
-18.59231929373209
1031
0.0
1011
-27.29851661526453
1021
-17.59231929373209
1031
0.0
1011
-27.29851661526453
1021
-18.59231929373209
1031
1.0
1040
0.0
1010
0.0
1020
0.0
1030
1.0
1000
ANSI37
1070
     0
1070
     1
1071
        1
1071
        7
1070
     0
1070
     1
1071
        8
1040
79.74882017829042
1040
260.791127173751
1040
69.74882017829043
1040
260.791127173751
1040
69.74882017829043
1040
254.041127173751
1040
73.94882017829036
1040
254.041127173751
1040
73.94882017829036
1040
257.041127173751
1040
75.54882017829037
1040
257.0411271737511
1040
75.54882017829038
1040
254.041127173751
1040
79.74882017829043
1040
254.041127173751
1071
        8
1005
830
1005
83C
1005
836
1005
832
1005
833
1005
834
1005
835
1005
83B
1070
     0
1070
     1
1040
0.0
1040
20.0
1070
     0
1070
     2
1040
0.7853981633974483
1040
-24.78054606601609
1040
-235.936818980128
1040
-1.767766952966368
1040
1.767766952966368
1070
     0
1040
2.356194490192344
1040
-24.78054606601609
1040
-235.936818980128
1040
-1.767766952966368
1040
-1.767766952966368
1070
     0
1040
0.4929280656550787
1071
        1
1040
77.53060360483733
1040
258.2092458787624
1040
0.0
1002
}
  0
ARC
  5
82A
330
1E
100
AcDbEntity
  8
STEMPEL
100
AcDbCircle
 10
320.9520491770904
 20
248.1988078800188
 30
0.0
 40
12.74999999999994
100
AcDbArc
 50
113.0887724370089
 51
66.91122756299105
  0
LINE
  5
82B
330
1E
100
AcDbEntity
  8
STEMPEL
100
AcDbLine
 10
325.9520491770904
 20
259.9275119857586
 30
0.0
 11
325.9520491770904
 21
251.515432670374
 31
0.0
  0
LINE
  5
82C
330
1E
100
AcDbEntity
  8
STEMPEL
100
AcDbLine
 10
315.9520491770904
 20
259.9275119857586
 30
0.0
 11
315.9520491770904
 21
251.515432670374
 31
0.0
  0
LINE
  5
82D
330
1E
100
AcDbEntity
  8
MITTEL
100
AcDbLine
 10
320.9520491770904
 20
263.6988078800188
 30
0.0
 11
320.9520491770904
 21
232.6988078800187
 31
0.0
  0
LINE
  5
82E
330
1E
100
AcDbEntity
  8
MITTEL
100
AcDbLine
 10
305.4520491770905
 20
248.1988078800188
 30
0.0
 11
336.4520491770904
 21
248.1988078800188
 31
0.0
  0
ARC
  5
82F
330
1E
100
AcDbEntity
  8
STEMPEL
100
AcDbCircle
 10
320.9520491770904
 20
248.1988078800188
 30
0.0
 40
6.0
100
AcDbArc
 50
146.4426902380772
 51
33.55730976192294
  0
LINE
  5
830
330
1E
100
AcDbEntity
  8
STEMPEL
100
AcDbLine
 10
42.45030356302589
 20
242.1988078800188
 30
0.0
 11
52.45030356302589
 21
242.1988078800188
 31
0.0
  0
LINE
  5
831
330
1E
100
AcDbEntity
  8
STEMPEL
100
AcDbLine
 10
42.45030356302589
 20
253.1775119857587
 30
0.0
 11
52.45030356302589
 21
253.1775119857587
 31
0.0
  0
LINE
  5
832
330
1E
100
AcDbEntity
  8
STEMPEL
100
AcDbLine
 10
46.65030356302582
 20
235.4488078800188
 30
0.0
 11
46.65030356302582
 21
238.4488078800188
 31
0.0
  0
LINE
  5
833
330
1E
100
AcDbEntity
  8
STEMPEL
100
AcDbLine
 10
46.65030356302582
 20
238.4488078800188
 30
0.0
 11
48.25030356302585
 21
238.4488078800189
 31
0.0
  0
LINE
  5
834
330
1E
100
AcDbEntity
  8
STEMPEL
100
AcDbLine
 10
48.25030356302585
 20
235.4488078800188
 30
0.0
 11
48.25030356302585
 21
238.4488078800189
 31
0.0
  0
LINE
  5
835
330
1E
100
AcDbEntity
  8
STEMPEL
100
AcDbLine
 10
48.25030356302585
 20
235.4488078800188
 30
0.0
 11
52.45030356302589
 21
235.4488078800188
 31
0.0
  0
LINE
  5
836
330
1E
100
AcDbEntity
  8
STEMPEL
100
AcDbLine
 10
42.45030356302589
 20
235.4488078800188
 30
0.0
 11
46.65030356302582
 21
235.4488078800188
 31
0.0
  0
LINE
  5
837
330
1E
100
AcDbEntity
  8
STEMPEL
100
AcDbLine
 10
48.25030356302585
 20
259.9275119857586
 30
0.0
 11
52.45030356302589
 21
259.9275119857586
 31
0.0
  0
LINE
  5
838
330
1E
100
AcDbEntity
  8
STEMPEL
100
AcDbLine
 10
46.65030356302594
 20
256.6775119857587
 30
0.0
 11
48.25030356302585
 21
256.6775119857585
 31
0.0
  0
LINE
  5
839
330
1E
100
AcDbEntity
  8
STEMPEL
100
AcDbLine
 10
48.25030356302585
 20
259.9275119857586
 30
0.0
 11
48.25030356302585
 21
256.6775119857585
 31
0.0
  0
LINE
  5
83A
330
1E
100
AcDbEntity
  8
STEMPEL
100
AcDbLine
 10
46.65030356302594
 20
259.9275119857586
 30
0.0
 11
46.65030356302594
 21
256.6775119857587
 31
0.0
  0
LINE
  5
83B
330
1E
100
AcDbEntity
  8
STEMPEL
100
AcDbLine
 10
52.45030356302589
 20
235.4488078800188
 30
0.0
 11
52.45030356302589
 21
259.9275119857586
 31
0.0
  0
LINE
  5
83C
330
1E
100
AcDbEntity
  8
STEMPEL
100
AcDbLine
 10
42.45030356302589
 20
235.4488078800188
 30
0.0
 11
42.45030356302589
 21
259.9275119857586
 31
0.0
  0
LINE
  5
83D
330
1E
100
AcDbEntity
  8
STEMPEL
100
AcDbLine
 10
42.45030356302589
 20
259.9275119857586
 30
0.0
 11
46.65030356302594
 21
259.9275119857586
 31
0.0
  0
LINE
  5
83E
330
1E
100
AcDbEntity
  8
MITTEL
100
AcDbLine
 10
37.4503035630259
 20
248.1988078800188
 30
0.0
 11
57.45030356302589
 21
248.1988078800188
 31
0.0
  0
LINE
  5
83F
330
1E
100
AcDbEntity
  8
TEXT
 62
     2
100
AcDbLine
 10
344.6727749797606
 20
265.9179548269004
 30
0.0
 11
330.9854616816231
 21
255.1410580348809
 31
0.0
  0
LINE
  5
840
330
1E
100
AcDbEntity
  8
TEXT
 62
     2
100
AcDbLine
 10
344.6727749797606
 20
265.9179548269004
 30
0.0
 11
384.1587155848868
 21
265.9179548269004
 31
0.0
  0
TEXT
  5
841
330
1E
100
AcDbEntity
  8
TEXT
 62
     1
100
AcDbText
 10
344.7998218465518
 20
268.654469119383
 30
0.0
 40
3.5
  1
Durchführungstülle
 41
0.8
  7
GREEKS
100
AcDbText
  0
TEXT
  5
842
330
1E
100
AcDbEntity
  8
TEXT
 62
     1
100
AcDbText
 10
344.7998218465518
 20
260.1896421708918
 30
0.0
 40
3.5
  1
HV 1101
 41
0.8
  7
GREEKS
100
AcDbText
  0
ARC
  5
843
330
1E
100
AcDbEntity
  8
STEMPEL
100
AcDbCircle
 10
126.6003035630258
 20
29.74770001622358
 30
0.0
 40
81.25
100
AcDbArc
 50
0.0
 51
180.0
  0
ARC
  5
844
330
1E
100
AcDbEntity
  8
STEMPEL
100
AcDbCircle
 10
126.6003035630258
 20
29.74770001622358
 30
0.0
 40
84.15
100
AcDbArc
 50
0.0
 51
180.0
  0
ARC
  5
845
330
1E
100
AcDbEntity
  8
STEMPEL
100
AcDbCircle
 10
126.6003035630258
 20
29.74770001622358
 30
0.0
 40
66.5
100
AcDbArc
 50
0.0
 51
180.0
  0
LINE
  5
846
330
1E
100
AcDbEntity
  8
MITTEL
100
AcDbLine
 10
37.45030356302581
 20
29.74770001622358
 30
0.0
 11
215.7503035630258
 21
29.74770001622363
 31
0.0
  0
LINE
  5
847
330
1E
100
AcDbEntity
  8
MITTEL
100
AcDbLine
 10
126.6003035630258
 20
118.8977000162236
 30
0.0
 11
126.6003035630258
 21
29.74770001622358
 31
0.0
  0
ENDSEC
  0
SECTION
  2
OBJECTS
  0
DICTIONARY
  5
C
330
0
100
AcDbDictionary
281
     1
  3
ACAD_COLOR
350
11A
  3
ACAD_GROUP
350
D
  3
ACAD_LAYOUT
350
19
  3
ACAD_MATERIAL
350
119
  3
ACAD_MLINESTYLE
350
16
  3
ACAD_PLOTSETTINGS
350
18
  3
ACAD_PLOTSTYLENAME
350
E
  3
AcDbVariableDictionary
350
125
  0
DICTIONARY
  5
DB
330
1E
100
AcDbDictionary
280
     1
281
     1
  3
ACAD_LAYOUTSELFREF
360
10F
  0
DICTIONARY
  5
DD
330
1A
100
AcDbDictionary
280
     1
281
     1
  3
ACAD_LAYOUTSELFREF
360
10E
  0
DICTIONARY
  5
7E2
330
7E1
100
AcDbDictionary
280
     1
281
     1
  3
ACAD_DIMASSOC
360
7E3
  0
DICTIONARY
  5
7E5
330
7E4
100
AcDbDictionary
280
     1
281
     1
  3
ACAD_DIMASSOC
360
7E6
  0
DICTIONARY
  5
7E9
330
7E8
100
AcDbDictionary
280
     1
281
     1
  3
ACAD_DIMASSOC
360
7EA
  0
DICTIONARY
  5
11A
102
{ACAD_REACTORS
330
C
102
}
330
C
100
AcDbDictionary
281
     1
  0
DICTIONARY
  5
D
102
{ACAD_REACTORS
330
C
102
}
330
C
100
AcDbDictionary
281
     1
  0
DICTIONARY
  5
19
102
{ACAD_REACTORS
330
C
102
}
330
C
100
AcDbDictionary
281
     1
  3
Layout1
350
1D
  3
Model
350
21
  0
DICTIONARY
  5
119
102
{ACAD_REACTORS
330
C
102
}
330
C
100
AcDbDictionary
281
     1
  0
DICTIONARY
  5
16
102
{ACAD_REACTORS
330
C
102
}
330
C
100
AcDbDictionary
281
     1
  3
Standard
350
17
  0
DICTIONARY
  5
18
102
{ACAD_REACTORS
330
C
102
}
330
C
100
AcDbDictionary
281
     1
  0
ACDBDICTIONARYWDFLT
  5
E
102
{ACAD_REACTORS
330
C
102
}
330
C
100
AcDbDictionary
281
     1
  3
Normal
350
F
100
AcDbDictionaryWithDefault
340
F
  0
DICTIONARY
  5
125
102
{ACAD_REACTORS
330
C
102
}
330
C
100
AcDbDictionary
281
     1
  3
DIMASSOC
350
126
  3
PROJECTNAME
350
127
  0
XRECORD
  5
10F
102
{ACAD_REACTORS
330
DB
102
}
330
DB
100
AcDbXrecord
280
     1
340
1E
  0
XRECORD
  5
10E
102
{ACAD_REACTORS
330
DD
102
}
330
DD
100
AcDbXrecord
280
     1
340
1A
  0
DIMASSOC
  5
7E3
102
{ACAD_REACTORS
330
7E2
102
}
330
7E2
100
AcDbDimAssoc
330
7E1
 90
        3
 70
     0
 71
     0
  1
AcDbOsnapPointRef
 72
    13
331
812
 73
     2
 91
        0
 40
0.0
 10
0.0
 20
0.0
 30
2.000000000000000E+50
 75
     0
  1
AcDbOsnapPointRef
 72
     8
331
813
 73
     2
 91
        0
 40
0.0
 10
0.0
 20
0.0
 30
0.0
 75
     1
  1
AcDbOsnapPointRef
 72
    13
331
812
 73
     2
 91
        0
 40
0.0
 10
0.0
 20
0.0
 30
2.000000000000000E+50
 75
     0
  0
DIMASSOC
  5
7E6
102
{ACAD_REACTORS
330
7E5
102
}
330
7E5
100
AcDbDimAssoc
330
7E4
 90
        1
 70
     0
 71
     0
  1
AcDbOsnapPointRef
 72
     1
331
7EE
 73
     2
 91
        0
 40
1.0
 10
0.0
 20
0.0
 30
2.000000000000000E+50
 75
     0
  0
DIMASSOC
  5
7EA
102
{ACAD_REACTORS
330
7E9
102
}
330
7E9
100
AcDbDimAssoc
330
7E8
 90
        3
 70
     0
 71
     0
  1
AcDbOsnapPointRef
 72
    13
331
810
 73
     2
 91
        0
 40
0.0
 10
0.0
 20
0.0
 30
2.000000000000000E+50
 75
     0
  1
AcDbOsnapPointRef
 72
     8
331
811
 73
     2
 91
        0
 40
0.0000000000000258
 10
0.0
 20
0.0
 30
0.0
 75
     1
  1
AcDbOsnapPointRef
 72
    13
331
810
 73
     2
 91
        0
 40
0.0
 10
0.0
 20
0.0
 30
2.000000000000000E+50
 75
     0
  0
LAYOUT
  5
1D
102
{ACAD_REACTORS
330
19
102
}
330
19
100
AcDbPlotSettings
  1

  2
\\NT_WORK01\HP LaserJet 5000 PCL 6
  4

  6

 40
0.0
 41
0.0
 42
0.0
 43
0.0
 44
0.0
 45
0.0
 46
0.0
 47
0.0
 48
0.0
 49
0.0
140
0.0
141
0.0
142
1.0
143
1.0
 70
   688
 72
     0
 73
     0
 74
     5
  7

 75
    16
147
1.0
 76
     0
 77
     2
 78
   300
148
0.0
149
0.0
100
AcDbLayout
  1
Layout1
 70
     0
 71
     1
 10
0.0
 20
0.0
 11
12.0
 21
9.0
 12
0.0
 22
0.0
 32
0.0
 14
1.000000000000000E+20
 24
1.000000000000000E+20
 34
1.000000000000000E+20
 15
-1.000000000000000E+20
 25
-1.000000000000000E+20
 35
-1.000000000000000E+20
146
0.0
 13
0.0
 23
0.0
 33
0.0
 16
1.0
 26
0.0
 36
0.0
 17
0.0
 27
1.0
 37
0.0
 76
     0
330
1A
  0
LAYOUT
  5
21
102
{ACAD_REACTORS
330
19
102
}
330
19
100
AcDbPlotSettings
  1

  2
none_device
  4
Letter_(8.50_x_11.00_Inches)
  6

 40
6.349999904632568
 41
6.349999904632568
 42
6.350006103515625
 43
6.350006103515625
 44
215.8999938964844
 45
279.3999938964844
 46
0.0
 47
0.0
 48
0.0
 49
0.0
140
0.0
141
0.0
142
1.0
143
1.0
 70
 11952
 72
     0
 73
     1
 74
     0
  7

 75
     0
147
1.0
 76
     0
 77
     2
 78
   300
148
-1344.254032258064
149
217.8459677419351
100
AcDbLayout
  1
Model
 70
     1
 71
     0
 10
0.0
 20
0.0
 11
12.0
 21
9.0
 12
0.0
 22
0.0
 32
0.0
 14
0.0
 24
0.0
 34
0.0
 15
0.0
 25
0.0
 35
0.0
146
0.0
 13
0.0
 23
0.0
 33
0.0
 16
1.0
 26
0.0
 36
0.0
 17
0.0
 27
1.0
 37
0.0
 76
     0
330
1E
  0
MLINESTYLE
  5
17
102
{ACAD_REACTORS
330
16
102
}
330
16
100
AcDbMlineStyle
  2
STANDARD
 70
     0
  3

 62
   256
 51
90.0
 52
90.0
 71
     2
 49
0.5
 62
   256
  6
BYLAYER
 49
-0.5
 62
   256
  6
BYLAYER
  0
ACDBPLACEHOLDER
  5
F
102
{ACAD_REACTORS
330
E
102
}
330
E
  0
DICTIONARYVAR
  5
126
102
{ACAD_REACTORS
330
125
102
}
330
125
100
DictionaryVariables
280
     0
  1
1
  0
DICTIONARYVAR
  5
127
102
{ACAD_REACTORS
330
125
102
}
330
125
100
DictionaryVariables
280
     0
  1

  0
ENDSEC
  0
EOF
