  0
SECTION
  2
HEADER
  9
$ACADVER
  1
AC1018
  9
$ACADMAINTVER
 70
     2
  9
$DWGCODEPAGE
  3
ANSI_1252
  9
$INSBASE
 10
0.0
 20
0.0
 30
0.0
  9
$EXTMIN
 10
-0.0265819526648556
 20
-0.045311687738149
 30
-0.000000000000013
  9
$EXTMAX
 10
420.0069594072705
 20
594.0000027663659
 30
0.0000000000000023
  9
$LIMMIN
 10
0.0
 20
0.0
  9
$LIMMAX
 10
420.0000000000001
 20
594.0
  9
$ORTHOMODE
 70
     1
  9
$REGENMODE
 70
     1
  9
$FILLMODE
 70
     1
  9
$QTEXTMODE
 70
     0
  9
$MIRRTEXT
 70
     1
  9
$LTSCALE
 40
20.0
  9
$ATTMODE
 70
     1
  9
$TEXTSIZE
 40
3.5
  9
$TRACEWID
 40
0.5
  9
$TEXTSTYLE
  7
STANDARD
  9
$CLAYER
  8
SCHRAFF
  9
$CELTYPE
  6
ByLayer
  9
$CECOLOR
 62
   256
  9
$CELTSCALE
 40
1.0
  9
$DISPSILH
 70
     0
  9
$DIMSCALE
 40
2.0
  9
$DIMASZ
 40
3.5
  9
$DIMEXO
 40
1.0
  9
$DIMDLI
 40
7.0
  9
$DIMRND
 40
0.0
  9
$DIMDLE
 40
0.0
  9
$DIMEXE
 40
1.0
  9
$DIMTP
 40
0.0
  9
$DIMTM
 40
0.0
  9
$DIMTXT
 40
3.5
  9
$DIMCEN
 40
1.5
  9
$DIMTSZ
 40
0.0
  9
$DIMTOL
 70
     0
  9
$DIMLIM
 70
     0
  9
$DIMTIH
 70
     0
  9
$DIMTOH
 70
     0
  9
$DIMSE1
 70
     0
  9
$DIMSE2
 70
     0
  9
$DIMTAD
 70
     1
  9
$DIMZIN
 70
     8
  9
$DIMBLK
  1

  9
$DIMASO
 70
     1
  9
$DIMSHO
 70
     0
  9
$DIMPOST
  1

  9
$DIMAPOST
  1

  9
$DIMALT
 70
     0
  9
$DIMALTD
 70
     2
  9
$DIMALTF
 40
25.4
  9
$DIMLFAC
 40
1.0
  9
$DIMTOFL
 70
     1
  9
$DIMTVP
 40
0.0
  9
$DIMTIX
 70
     0
  9
$DIMSOXD
 70
     0
  9
$DIMSAH
 70
     0
  9
$DIMBLK1
  1

  9
$DIMBLK2
  1

  9
$DIMSTYLE
  2
Standard
  9
$DIMCLRD
 70
     0
  9
$DIMCLRE
 70
     0
  9
$DIMCLRT
 70
     1
  9
$DIMTFAC
 40
0.5
  9
$DIMGAP
 40
1.199999999999999
  9
$DIMJUST
 70
     0
  9
$DIMSD1
 70
     0
  9
$DIMSD2
 70
     0
  9
$DIMTOLJ
 70
     1
  9
$DIMTZIN
 70
     8
  9
$DIMALTZ
 70
     8
  9
$DIMALTTZ
 70
     8
  9
$DIMUPT
 70
     0
  9
$DIMDEC
 70
     2
  9
$DIMTDEC
 70
     2
  9
$DIMALTU
 70
     2
  9
$DIMALTTD
 70
     2
  9
$DIMTXSTY
  7
GREEKS
  9
$DIMAUNIT
 70
     0
  9
$DIMADEC
 70
     2
  9
$DIMALTRND
 40
0.0
  9
$DIMAZIN
 70
     2
  9
$DIMDSEP
 70
    46
  9
$DIMATFIT
 70
     3
  9
$DIMFRAC
 70
     0
  9
$DIMLDRBLK
  1

  9
$DIMLUNIT
 70
     2
  9
$DIMLWD
 70
    -2
  9
$DIMLWE
 70
    -2
  9
$DIMTMOVE
 70
     0
  9
$LUNITS
 70
     2
  9
$LUPREC
 70
     2
  9
$SKETCHINC
 40
1.0
  9
$FILLETRAD
 40
3.5
  9
$AUNITS
 70
     0
  9
$AUPREC
 70
     0
  9
$MENU
  1
ACAD
  9
$ELEVATION
 40
0.0
  9
$PELEVATION
 40
0.0
  9
$THICKNESS
 40
0.0
  9
$LIMCHECK
 70
     0
  9
$CHAMFERA
 40
0.0
  9
$CHAMFERB
 40
0.0
  9
$CHAMFERC
 40
0.0
  9
$CHAMFERD
 40
0.0
  9
$SKPOLY
 70
     0
  9
$TDCREATE
 40
2452795.555668171
  9
$TDUCREATE
 40
2452795.472334838
  9
$TDUPDATE
 40
2455476.456803021
  9
$TDUUPDATE
 40
2455476.373469688
  9
$TDINDWG
 40
0.3292341435
  9
$TDUSRTIMER
 40
0.3292341435
  9
$USRTIMER
 70
     1
  9
$ANGBASE
 50
0.0
  9
$ANGDIR
 70
     0
  9
$PDMODE
 70
     0
  9
$PDSIZE
 40
0.0
  9
$PLINEWID
 40
0.0
  9
$SPLFRAME
 70
     0
  9
$SPLINETYPE
 70
     6
  9
$SPLINESEGS
 70
     8
  9
$HANDSEED
  5
3804
  9
$SURFTAB1
 70
     6
  9
$SURFTAB2
 70
     6
  9
$SURFTYPE
 70
     6
  9
$SURFU
 70
     6
  9
$SURFV
 70
     6
  9
$UCSBASE
  2

  9
$UCSNAME
  2

  9
$UCSORG
 10
0.0
 20
0.0
 30
0.0
  9
$UCSXDIR
 10
1.0
 20
0.0
 30
0.0
  9
$UCSYDIR
 10
0.0
 20
1.0
 30
0.0
  9
$UCSORTHOREF
  2

  9
$UCSORTHOVIEW
 70
     0
  9
$UCSORGTOP
 10
0.0
 20
0.0
 30
0.0
  9
$UCSORGBOTTOM
 10
0.0
 20
0.0
 30
0.0
  9
$UCSORGLEFT
 10
0.0
 20
0.0
 30
0.0
  9
$UCSORGRIGHT
 10
0.0
 20
0.0
 30
0.0
  9
$UCSORGFRONT
 10
0.0
 20
0.0
 30
0.0
  9
$UCSORGBACK
 10
0.0
 20
0.0
 30
0.0
  9
$PUCSBASE
  2

  9
$PUCSNAME
  2

  9
$PUCSORG
 10
0.0
 20
0.0
 30
0.0
  9
$PUCSXDIR
 10
1.0
 20
0.0
 30
0.0
  9
$PUCSYDIR
 10
0.0
 20
1.0
 30
0.0
  9
$PUCSORTHOREF
  2

  9
$PUCSORTHOVIEW
 70
     0
  9
$PUCSORGTOP
 10
0.0
 20
0.0
 30
0.0
  9
$PUCSORGBOTTOM
 10
0.0
 20
0.0
 30
0.0
  9
$PUCSORGLEFT
 10
0.0
 20
0.0
 30
0.0
  9
$PUCSORGRIGHT
 10
0.0
 20
0.0
 30
0.0
  9
$PUCSORGFRONT
 10
0.0
 20
0.0
 30
0.0
  9
$PUCSORGBACK
 10
0.0
 20
0.0
 30
0.0
  9
$USERI1
 70
     0
  9
$USERI2
 70
     0
  9
$USERI3
 70
     0
  9
$USERI4
 70
     0
  9
$USERI5
 70
     0
  9
$USERR1
 40
0.0
  9
$USERR2
 40
0.0
  9
$USERR3
 40
0.0
  9
$USERR4
 40
0.0
  9
$USERR5
 40
0.0
  9
$WORLDVIEW
 70
     1
  9
$SHADEDGE
 70
     3
  9
$SHADEDIF
 70
    70
  9
$TILEMODE
 70
     1
  9
$MAXACTVP
 70
    16
  9
$PINSBASE
 10
0.0
 20
0.0
 30
0.0
  9
$PLIMCHECK
 70
     0
  9
$PEXTMIN
 10
1.000000000000000E+20
 20
1.000000000000000E+20
 30
1.000000000000000E+20
  9
$PEXTMAX
 10
-1.000000000000000E+20
 20
-1.000000000000000E+20
 30
-1.000000000000000E+20
  9
$PLIMMIN
 10
0.0
 20
0.0
  9
$PLIMMAX
 10
12.0
 20
9.0
  9
$UNITMODE
 70
     0
  9
$VISRETAIN
 70
     0
  9
$PLINEGEN
 70
     0
  9
$PSLTSCALE
 70
     0
  9
$TREEDEPTH
 70
  3020
  9
$CMLSTYLE
  2
Standard
  9
$CMLJUST
 70
     0
  9
$CMLSCALE
 40
1.0
  9
$PROXYGRAPHICS
 70
     1
  9
$MEASUREMENT
 70
     0
  9
$CELWEIGHT
370
    -1
  9
$ENDCAPS
280
     0
  9
$JOINSTYLE
280
     0
  9
$LWDISPLAY
290
     0
  9
$INSUNITS
 70
     0
  9
$HYPERLINKBASE
  1

  9
$STYLESHEET
  1
monochrome 1.ctb
  9
$XEDIT
290
     1
  9
$CEPSNTYPE
380
     0
  9
$PSTYLEMODE
290
     1
  9
$FINGERPRINTGUID
  2
{E3CF26FE-32DE-448E-97A4-F9F1010EEF83}
  9
$VERSIONGUID
  2
{8305BBAB-5E1B-4A79-AC02-BE7114304C3E}
  9
$EXTNAMES
290
     1
  9
$PSVPSCALE
 40
0.0
  9
$OLESTARTUP
290
     0
  9
$SORTENTS
280
   127
  9
$INDEXCTL
280
     0
  9
$HIDETEXT
280
     1
  9
$XCLIPFRAME
290
     0
  9
$HALOGAP
280
     0
  9
$OBSCOLOR
 70
   257
  9
$OBSLTYPE
280
     0
  9
$INTERSECTIONDISPLAY
280
     0
  9
$INTERSECTIONCOLOR
 70
   257
  9
$DIMASSOC
280
     2
  9
$PROJECTNAME
  1

  0
ENDSEC
  0
SECTION
  2
CLASSES
  0
CLASS
  1
ACDBDICTIONARYWDFLT
  2
AcDbDictionaryWithDefault
  3
ObjectDBX Classes
 90
        0
 91
        1
280
     0
281
     0
  0
CLASS
  1
DICTIONARYVAR
  2
AcDbDictionaryVar
  3
ObjectDBX Classes
 90
        0
 91
        3
280
     0
281
     0
  0
CLASS
  1
DIMASSOC
  2
AcDbDimAssoc
  3
"AcDbDimAssoc|Product Desc:     AcDim ARX App For Dimension|Company:          Autodesk, Inc.|WEB Address:      www.autodesk.com"
 90
        0
 91
        4
280
     0
281
     0
  0
ENDSEC
  0
SECTION
  2
TABLES
  0
TABLE
  2
VPORT
  5
8
330
0
100
AcDbSymbolTable
 70
     2
  0
VPORT
  5
3803
330
8
100
AcDbSymbolTableRecord
100
AcDbViewportTableRecord
  2
*Active
 70
     0
 10
0.0
 20
0.0
 11
1.0
 21
1.0
 12
209.9901887273028
 22
296.977345539314
 13
0.0
 23
0.0
 14
1.0
 24
1.0
 15
10.0
 25
10.0
 16
0.0
 26
0.0
 36
1.0
 17
0.0
 27
0.0
 37
0.0
 40
598.8424502370444
 41
1.336927223719676
 42
50.0
 43
0.0
 44
0.0
 50
0.0
 51
0.0
 71
     0
 72
  1500
 73
     1
 74
     0
 75
     0
 76
     0
 77
     0
 78
     0
281
     0
 65
     1
110
0.0
120
0.0
130
0.0
111
1.0
121
0.0
131
0.0
112
0.0
122
1.0
132
0.0
 79
     0
146
0.0
  0
ENDTAB
  0
TABLE
  2
LTYPE
  5
5
330
0
100
AcDbSymbolTable
 70
     3
  0
LTYPE
  5
13
330
5
100
AcDbSymbolTableRecord
100
AcDbLinetypeTableRecord
  2
ByBlock
 70
     0
  3

 72
    65
 73
     0
 40
0.0
  0
LTYPE
  5
14
330
5
100
AcDbSymbolTableRecord
100
AcDbLinetypeTableRecord
  2
ByLayer
 70
     0
  3

 72
    65
 73
     0
 40
0.0
  0
LTYPE
  5
15
330
5
100
AcDbSymbolTableRecord
100
AcDbLinetypeTableRecord
  2
Continuous
 70
     0
  3
Solid line
 72
    65
 73
     0
 40
0.0
  0
LTYPE
  5
32
330
5
100
AcDbSymbolTableRecord
100
AcDbLinetypeTableRecord
  2
STRICHPUNKT
 70
     0
  3
__ . __ . __ . __ . __ . __ . __ . __ . __ . __
 72
    65
 73
     4
 40
1.0
 49
0.5
 74
     0
 49
-0.25
 74
     0
 49
0.0
 74
     0
 49
-0.25
 74
     0
  0
LTYPE
  5
481
330
5
100
AcDbSymbolTableRecord
100
AcDbLinetypeTableRecord
  2
AUSGEZOGEN
 70
     0
  3
Ausgezogene Linie
 72
    65
 73
     0
 40
0.0
  0
ENDTAB
  0
TABLE
  2
LAYER
  5
2
330
0
100
AcDbSymbolTable
 70
    12
  0
LAYER
  5
10
330
2
100
AcDbSymbolTableRecord
100
AcDbLayerTableRecord
  2
0
 70
     0
 62
     7
  6
Continuous
370
    -3
390
F
  0
LAYER
  5
35
330
2
100
AcDbSymbolTableRecord
100
AcDbLayerTableRecord
  2
VOLL
 70
     0
 62
     1
  6
Continuous
370
    -3
390
F
  0
LAYER
  5
36
330
2
100
AcDbSymbolTableRecord
100
AcDbLayerTableRecord
  2
HILF
 70
     0
 62
     2
  6
Continuous
370
    -3
390
F
  0
LAYER
  5
37
330
2
100
AcDbSymbolTableRecord
100
AcDbLayerTableRecord
  2
MITTEL
 70
     0
 62
     2
  6
STRICHPUNKT
370
    -3
390
F
  0
LAYER
  5
38
330
2
100
AcDbSymbolTableRecord
100
AcDbLayerTableRecord
  2
BEM
 70
     0
 62
     7
  6
Continuous
370
    -3
390
F
  0
LAYER
  5
39
330
2
100
AcDbSymbolTableRecord
100
AcDbLayerTableRecord
  2
STEMPEL
 70
     0
 62
     3
  6
Continuous
370
    -3
390
F
  0
LAYER
  5
3A
330
2
100
AcDbSymbolTableRecord
100
AcDbLayerTableRecord
  2
TEXT
 70
     0
 62
     7
  6
Continuous
370
    -3
390
F
  0
LAYER
  5
3B
330
2
100
AcDbSymbolTableRecord
100
AcDbLayerTableRecord
  2
DEFPOINTS
 70
     0
 62
     7
  6
Continuous
290
     0
370
    -3
390
F
  0
LAYER
  5
3C
330
2
100
AcDbSymbolTableRecord
100
AcDbLayerTableRecord
  2
SCHRAFF
 70
     0
 62
     7
  6
Continuous
370
    -3
390
F
  0
LAYER
  5
485
330
2
100
AcDbSymbolTableRecord
100
AcDbLayerTableRecord
  2
TEXT25
 70
     0
 62
     7
  6
AUSGEZOGEN
370
    -3
390
F
  0
LAYER
  5
486
330
2
100
AcDbSymbolTableRecord
100
AcDbLayerTableRecord
  2
TEXT35
 70
     0
 62
     1
  6
AUSGEZOGEN
370
    -3
390
F
  0
LAYER
  5
487
330
2
100
AcDbSymbolTableRecord
100
AcDbLayerTableRecord
  2
ASHADE
 70
     0
 62
     7
  6
AUSGEZOGEN
370
    -3
390
F
  0
ENDTAB
  0
TABLE
  2
STYLE
  5
3
330
0
100
AcDbSymbolTable
 70
     2
  0
STYLE
  5
11
330
3
100
AcDbSymbolTableRecord
100
AcDbTextStyleTableRecord
  2
STANDARD
 70
     0
 40
0.0
 41
0.8
 50
0.0
 71
     0
 42
3.5
  3
simplex.shx
  4

  0
STYLE
  5
31
330
3
100
AcDbSymbolTableRecord
100
AcDbTextStyleTableRecord
  2
GREEKS
 70
     0
 40
0.0
 41
0.8
 50
0.0
 71
     0
 42
2.5
  3
SIMPLEX.shx
  4

  0
ENDTAB
  0
TABLE
  2
VIEW
  5
6
330
0
100
AcDbSymbolTable
 70
     0
  0
ENDTAB
  0
TABLE
  2
UCS
  5
7
330
0
100
AcDbSymbolTable
 70
     0
  0
ENDTAB
  0
TABLE
  2
APPID
  5
9
330
0
100
AcDbSymbolTable
 70
     3
  0
APPID
  5
12
330
9
100
AcDbSymbolTableRecord
100
AcDbRegAppTableRecord
  2
ACAD
 70
     0
  0
APPID
  5
48B
330
9
100
AcDbSymbolTableRecord
100
AcDbRegAppTableRecord
  2
AVE_RENDER
 70
     0
  0
APPID
  5
48C
330
9
100
AcDbSymbolTableRecord
100
AcDbRegAppTableRecord
  2
RAK
 70
     0
  0
ENDTAB
  0
TABLE
  2
DIMSTYLE
  5
A
330
0
100
AcDbSymbolTable
 70
     1
100
AcDbDimStyleTable
 71
     1
340
1E6
  0
DIMSTYLE
105
1E6
102
{ACAD_REACTORS
330
F88
330
1086
330
30E1
330
3392
330
3463
330
3511
330
37BB
102
}
330
A
100
AcDbSymbolTableRecord
100
AcDbDimStyleTableRecord
  2
Standard
 70
     0
340
11
  0
ENDTAB
  0
TABLE
  2
BLOCK_RECORD
  5
1
330
0
100
AcDbSymbolTable
 70
     8
  0
BLOCK_RECORD
  5
20
330
1
100
AcDbSymbolTableRecord
100
AcDbBlockTableRecord
  2
*Model_Space
340
23
  0
BLOCK_RECORD
  5
1C
330
1
100
AcDbSymbolTableRecord
100
AcDbBlockTableRecord
  2
*Paper_Space
340
1F
  0
BLOCK_RECORD
  5
346
330
1
100
AcDbSymbolTableRecord
100
AcDbBlockTableRecord
  2
AVE_RENDER
340
0
102
{BLKREFS
331
56B
331
56C
331
56D
331
28E6
331
28E7
331
28E8
331
2A0F
331
2A10
331
2A11
102
}
  0
BLOCK_RECORD
  5
F89
330
1
100
AcDbSymbolTableRecord
100
AcDbBlockTableRecord
  2
*D1
340
0
  0
BLOCK_RECORD
  5
1087
330
1
100
AcDbSymbolTableRecord
100
AcDbBlockTableRecord
  2
*D2
340
0
  0
BLOCK_RECORD
  5
30E2
330
1
100
AcDbSymbolTableRecord
100
AcDbBlockTableRecord
  2
*D3
340
0
  0
BLOCK_RECORD
  5
3393
330
1
100
AcDbSymbolTableRecord
100
AcDbBlockTableRecord
  2
*D4
340
0
  0
BLOCK_RECORD
  5
3464
330
1
100
AcDbSymbolTableRecord
100
AcDbBlockTableRecord
  2
*D5
340
0
  0
BLOCK_RECORD
  5
3512
330
1
100
AcDbSymbolTableRecord
100
AcDbBlockTableRecord
  2
*D6
340
0
  0
BLOCK_RECORD
  5
37BC
330
1
100
AcDbSymbolTableRecord
100
AcDbBlockTableRecord
  2
*D7
340
0
  0
ENDTAB
  0
ENDSEC
  0
SECTION
  2
BLOCKS
  0
BLOCK
  5
40
330
20
100
AcDbEntity
  8
0
100
AcDbBlockBegin
  2
*Model_Space
 70
     0
 10
0.0
 20
0.0
 30
0.0
  3
*Model_Space
  1

  0
ENDBLK
  5
41
330
20
100
AcDbEntity
  8
0
100
AcDbBlockEnd
  0
BLOCK
  5
3E
330
1C
100
AcDbEntity
 67
     1
  8
0
100
AcDbBlockBegin
  2
*Paper_Space
 70
     0
 10
0.0
 20
0.0
 30
0.0
  3
*Paper_Space
  1

  0
ENDBLK
  5
3F
330
1C
100
AcDbEntity
 67
     1
  8
0
100
AcDbBlockEnd
  0
BLOCK
  5
347
330
346
100
AcDbEntity
  8
0
100
AcDbBlockBegin
  2
AVE_RENDER
 70
     0
 10
0.0
 20
0.0
 30
0.0
  3
AVE_RENDER
  1
AVE_RENDER
  0
ENDBLK
  5
348
330
346
100
AcDbEntity
  8
0
100
AcDbBlockEnd
  0
BLOCK
  5
F95
330
F89
100
AcDbEntity
  8
0
100
AcDbBlockBegin
  2
*D1
 70
     1
 10
0.0
 20
0.0
 30
0.0
  3
*D1
  1

  0
LINE
  5
37B0
330
F89
100
AcDbEntity
  8
BEM
 62
     0
370
    -2
100
AcDbLine
 10
177.6512124798971
 20
471.2360933665083
 30
0.0
 11
177.6512124798971
 21
489.1575147064261
 31
0.0
  0
LINE
  5
37B1
330
F89
100
AcDbEntity
  8
BEM
 62
     0
370
    -2
100
AcDbLine
 10
168.6512124798972
 20
471.2360933665083
 30
0.0
 11
168.6512124798972
 21
489.1575147064261
 31
0.0
  0
LINE
  5
37B2
330
F89
100
AcDbEntity
  8
BEM
 62
     0
370
    -2
100
AcDbLine
 10
184.6512124798971
 20
487.1575147064261
 30
0.0
 11
191.6512124798971
 21
487.1575147064261
 31
0.0
  0
LINE
  5
37B3
330
F89
100
AcDbEntity
  8
BEM
 62
     0
370
    -2
100
AcDbLine
 10
161.6512124798972
 20
487.1575147064261
 30
0.0
 11
154.6512124798972
 21
487.1575147064261
 31
0.0
  0
LINE
  5
37B4
330
F89
100
AcDbEntity
  8
BEM
 62
     0
370
    -2
100
AcDbLine
 10
177.6512124798971
 20
487.1575147064261
 30
0.0
 11
168.6512124798972
 21
487.1575147064261
 31
0.0
  0
SOLID
  5
37B5
330
F89
100
AcDbEntity
  8
BEM
 62
     0
100
AcDbTrace
 10
184.6512124798971
 20
488.3241813730927
 30
0.0
 11
184.6512124798971
 21
485.9908480397594
 31
0.0
 12
177.6512124798971
 22
487.1575147064261
 32
0.0
 13
177.6512124798971
 23
487.1575147064261
 33
0.0
  0
SOLID
  5
37B6
330
F89
100
AcDbEntity
  8
BEM
 62
     0
100
AcDbTrace
 10
161.6512124798972
 20
488.3241813730927
 30
0.0
 11
161.6512124798972
 21
485.9908480397594
 31
0.0
 12
168.6512124798972
 22
487.1575147064261
 32
0.0
 13
168.6512124798972
 23
487.1575147064261
 33
0.0
  0
MTEXT
  5
37B7
330
F89
100
AcDbEntity
  8
BEM
 62
     1
100
AcDbMText
 10
173.1512124798971
 20
493.0575147064261
 30
0.0
 40
7.0
 41
0.0
 71
     5
 72
     1
  1
\A1;9
  7
GREEKS
 73
     1
 44
1.0
  0
POINT
  5
37B8
330
F89
100
AcDbEntity
  8
DEFPOINTS
 62
     0
100
AcDbPoint
 10
177.6512124798971
 20
469.2360933665083
 30
0.0
  0
POINT
  5
37B9
330
F89
100
AcDbEntity
  8
DEFPOINTS
 62
     0
100
AcDbPoint
 10
168.6512124798972
 20
469.2360933665083
 30
0.0
  0
POINT
  5
37BA
330
F89
100
AcDbEntity
  8
DEFPOINTS
 62
     0
100
AcDbPoint
 10
168.6512124798972
 20
487.1575147064261
 30
0.0
  0
ENDBLK
  5
F96
330
F89
100
AcDbEntity
  8
0
100
AcDbBlockEnd
  0
BLOCK
  5
1091
330
1087
100
AcDbEntity
  8
0
100
AcDbBlockBegin
  2
*D2
 70
     1
 10
0.0
 20
0.0
 30
0.0
  3
*D2
  1

  0
LINE
  5
37A7
330
1087
100
AcDbEntity
  8
BEM
 62
     0
370
    -2
100
AcDbLine
 10
166.6512124798971
 20
222.2360933665079
 30
0.0
 11
150.4889810713638
 21
222.2360933665079
 31
0.0
  0
LINE
  5
37A8
330
1087
100
AcDbEntity
  8
BEM
 62
     0
370
    -2
100
AcDbLine
 10
166.6512124798972
 20
469.2360933665083
 30
0.0
 11
150.4889810713638
 21
469.2360933665083
 31
0.0
  0
LINE
  5
37A9
330
1087
100
AcDbEntity
  8
BEM
 62
     0
370
    -2
100
AcDbLine
 10
152.4889810713638
 20
229.2360933665079
 30
0.0
 11
152.4889810713638
 21
462.2360933665083
 31
0.0
  0
SOLID
  5
37AA
330
1087
100
AcDbEntity
  8
BEM
 62
     0
100
AcDbTrace
 10
151.3223144046971
 20
229.2360933665079
 30
0.0
 11
153.6556477380304
 21
229.2360933665079
 31
0.0
 12
152.4889810713638
 22
222.2360933665079
 32
0.0
 13
152.4889810713638
 23
222.2360933665079
 33
0.0
  0
SOLID
  5
37AB
330
1087
100
AcDbEntity
  8
BEM
 62
     0
100
AcDbTrace
 10
151.3223144046972
 20
462.2360933665083
 30
0.0
 11
153.6556477380305
 21
462.2360933665083
 31
0.0
 12
152.4889810713638
 22
469.2360933665083
 32
0.0
 13
152.4889810713638
 23
469.2360933665083
 33
0.0
  0
MTEXT
  5
37AC
330
1087
100
AcDbEntity
  8
BEM
 62
     1
100
AcDbMText
 10
146.5889810713638
 20
345.7360933665082
 30
0.0
 40
7.0
 41
0.0
 71
     5
 72
     1
  1
\A1;%%c247
  7
GREEKS
 11
0.0000000000000001
 21
1.0
 31
0.0
 73
     1
 44
1.0
  0
POINT
  5
37AD
330
1087
100
AcDbEntity
  8
DEFPOINTS
 62
     0
100
AcDbPoint
 10
168.6512124798971
 20
222.2360933665079
 30
0.0
  0
POINT
  5
37AE
330
1087
100
AcDbEntity
  8
DEFPOINTS
 62
     0
100
AcDbPoint
 10
168.6512124798972
 20
469.2360933665083
 30
0.0
  0
POINT
  5
37AF
330
1087
100
AcDbEntity
  8
DEFPOINTS
 62
     0
100
AcDbPoint
 10
152.4889810713638
 20
469.2360933665083
 30
0.0
  0
ENDBLK
  5
1092
330
1087
100
AcDbEntity
  8
0
100
AcDbBlockEnd
  0
BLOCK
  5
30EC
330
30E2
100
AcDbEntity
  8
0
100
AcDbBlockBegin
  2
*D3
 70
     1
 10
0.0
 20
0.0
 30
0.0
  3
*D3
  1

  0
LINE
  5
379E
330
30E2
100
AcDbEntity
  8
BEM
 62
     0
370
    -2
100
AcDbLine
 10
270.6512124798974
 20
305.624180159233
 30
0.0
 11
288.9832775015738
 21
305.624180159233
 31
0.0
  0
LINE
  5
379F
330
30E2
100
AcDbEntity
  8
BEM
 62
     0
370
    -2
100
AcDbLine
 10
270.6512124798973
 20
385.624180159233
 30
0.0
 11
288.9832775015739
 21
385.624180159233
 31
0.0
  0
LINE
  5
37A0
330
30E2
100
AcDbEntity
  8
BEM
 62
     0
370
    -2
100
AcDbLine
 10
286.9832775015738
 20
312.624180159233
 30
0.0
 11
286.9832775015738
 21
378.6241801592329
 31
0.0
  0
SOLID
  5
37A1
330
30E2
100
AcDbEntity
  8
BEM
 62
     0
100
AcDbTrace
 10
285.8166108349071
 20
312.624180159233
 30
0.0
 11
288.1499441682405
 21
312.624180159233
 31
0.0
 12
286.9832775015738
 22
305.624180159233
 32
0.0
 13
286.9832775015738
 23
305.624180159233
 33
0.0
  0
SOLID
  5
37A2
330
30E2
100
AcDbEntity
  8
BEM
 62
     0
100
AcDbTrace
 10
285.8166108349071
 20
378.6241801592329
 30
0.0
 11
288.1499441682405
 21
378.6241801592329
 31
0.0
 12
286.9832775015739
 22
385.624180159233
 32
0.0
 13
286.9832775015739
 23
385.624180159233
 33
0.0
  0
MTEXT
  5
37A3
330
30E2
100
AcDbEntity
  8
BEM
 62
     1
100
AcDbMText
 10
281.0832775015738
 20
345.624180159233
 30
0.0
 40
7.0
 41
0.0
 71
     5
 72
     1
  1
\A1;%%c80
  7
GREEKS
 11
0.0000000000000001
 21
1.0
 31
0.0
 73
     1
 44
1.0
  0
POINT
  5
37A4
330
30E2
100
AcDbEntity
  8
DEFPOINTS
 62
     0
100
AcDbPoint
 10
268.6512124798974
 20
305.624180159233
 30
0.0
  0
POINT
  5
37A5
330
30E2
100
AcDbEntity
  8
DEFPOINTS
 62
     0
100
AcDbPoint
 10
268.6512124798973
 20
385.624180159233
 30
0.0
  0
POINT
  5
37A6
330
30E2
100
AcDbEntity
  8
DEFPOINTS
 62
     0
100
AcDbPoint
 10
286.9832775015739
 20
385.624180159233
 30
0.0
  0
ENDBLK
  5
30ED
330
30E2
100
AcDbEntity
  8
0
100
AcDbBlockEnd
  0
BLOCK
  5
339D
330
3393
100
AcDbEntity
  8
0
100
AcDbBlockBegin
  2
*D4
 70
     1
 10
0.0
 20
0.0
 30
0.0
  3
*D4
  1

  0
LINE
  5
3795
330
3393
100
AcDbEntity
  8
BEM
 62
     0
370
    -2
100
AcDbLine
 10
166.6512124798973
 20
135.7360933665082
 30
0.0
 11
133.6908149933265
 21
135.7360933665082
 31
0.0
  0
LINE
  5
3796
330
3393
100
AcDbEntity
  8
BEM
 62
     0
370
    -2
100
AcDbLine
 10
166.6512124798972
 20
555.7360933665083
 30
0.0
 11
133.6908149933266
 21
555.7360933665083
 31
0.0
  0
LINE
  5
3797
330
3393
100
AcDbEntity
  8
BEM
 62
     0
370
    -2
100
AcDbLine
 10
135.6908149933265
 20
142.7360933665083
 30
0.0
 11
135.6908149933266
 21
548.7360933665082
 31
0.0
  0
SOLID
  5
3798
330
3393
100
AcDbEntity
  8
BEM
 62
     0
100
AcDbTrace
 10
134.5241483266599
 20
142.7360933665083
 30
0.0
 11
136.8574816599932
 21
142.7360933665083
 31
0.0
 12
135.6908149933265
 22
135.7360933665082
 32
0.0
 13
135.6908149933265
 23
135.7360933665082
 33
0.0
  0
SOLID
  5
3799
330
3393
100
AcDbEntity
  8
BEM
 62
     0
100
AcDbTrace
 10
134.5241483266599
 20
548.7360933665082
 30
0.0
 11
136.8574816599933
 21
548.7360933665082
 31
0.0
 12
135.6908149933266
 22
555.7360933665083
 32
0.0
 13
135.6908149933266
 23
555.7360933665083
 33
0.0
  0
MTEXT
  5
379A
330
3393
100
AcDbEntity
  8
BEM
 62
     1
100
AcDbMText
 10
129.7908149933265
 20
345.7360933665083
 30
0.0
 40
7.0
 41
0.0
 71
     5
 72
     1
  1
\A1;420
  7
GREEKS
 11
0.0000000000000001
 21
1.0
 31
0.0
 73
     1
 44
1.0
  0
POINT
  5
379B
330
3393
100
AcDbEntity
  8
DEFPOINTS
 62
     0
100
AcDbPoint
 10
168.6512124798973
 20
135.7360933665082
 30
0.0
  0
POINT
  5
379C
330
3393
100
AcDbEntity
  8
DEFPOINTS
 62
     0
100
AcDbPoint
 10
168.6512124798972
 20
555.7360933665083
 30
0.0
  0
POINT
  5
379D
330
3393
100
AcDbEntity
  8
DEFPOINTS
 62
     0
100
AcDbPoint
 10
135.6908149933266
 20
555.7360933665083
 30
0.0
  0
ENDBLK
  5
339E
330
3393
100
AcDbEntity
  8
0
100
AcDbBlockEnd
  0
BLOCK
  5
346E
330
3464
100
AcDbEntity
  8
0
100
AcDbBlockBegin
  2
*D5
 70
     1
 10
0.0
 20
0.0
 30
0.0
  3
*D5
  1

  0
LINE
  5
378C
330
3464
100
AcDbEntity
  8
SCHRAFF
 62
     0
370
    -2
100
AcDbLine
 10
270.6512124798973
 20
470.7360933665081
 30
0.0
 11
305.1127324626273
 21
470.7360933665081
 31
0.0
  0
LINE
  5
378D
330
3464
100
AcDbEntity
  8
SCHRAFF
 62
     0
370
    -2
100
AcDbLine
 10
270.6512124798975
 20
220.7360933665083
 30
0.0
 11
305.1127324626273
 21
220.7360933665083
 31
0.0
  0
LINE
  5
378E
330
3464
100
AcDbEntity
  8
SCHRAFF
 62
     0
370
    -2
100
AcDbLine
 10
303.1127324626273
 20
463.7360933665081
 30
0.0
 11
303.1127324626273
 21
227.7360933665082
 31
0.0
  0
SOLID
  5
378F
330
3464
100
AcDbEntity
  8
SCHRAFF
 62
     0
100
AcDbTrace
 10
301.9460657959606
 20
463.7360933665081
 30
0.0
 11
304.279399129294
 21
463.7360933665081
 31
0.0
 12
303.1127324626273
 22
470.7360933665081
 32
0.0
 13
303.1127324626273
 23
470.7360933665081
 33
0.0
  0
SOLID
  5
3790
330
3464
100
AcDbEntity
  8
SCHRAFF
 62
     0
100
AcDbTrace
 10
301.9460657959606
 20
227.7360933665082
 30
0.0
 11
304.2793991292939
 21
227.7360933665082
 31
0.0
 12
303.1127324626273
 22
220.7360933665083
 32
0.0
 13
303.1127324626273
 23
220.7360933665083
 33
0.0
  0
MTEXT
  5
3791
330
3464
100
AcDbEntity
  8
SCHRAFF
 62
     1
100
AcDbMText
 10
297.2127324626272
 20
345.7360933665083
 30
0.0
 40
7.0
 41
0.0
 71
     5
 72
     1
  1
\A1;250
  7
GREEKS
 11
0.0000000000000001
 21
1.0
 31
0.0
 73
     1
 44
1.0
  0
POINT
  5
3792
330
3464
100
AcDbEntity
  8
DEFPOINTS
 62
     0
100
AcDbPoint
 10
268.6512124798973
 20
470.7360933665081
 30
0.0
  0
POINT
  5
3793
330
3464
100
AcDbEntity
  8
DEFPOINTS
 62
     0
100
AcDbPoint
 10
268.6512124798975
 20
220.7360933665083
 30
0.0
  0
POINT
  5
3794
330
3464
100
AcDbEntity
  8
DEFPOINTS
 62
     0
100
AcDbPoint
 10
303.1127324626273
 20
220.7360933665083
 30
0.0
  0
ENDBLK
  5
346F
330
3464
100
AcDbEntity
  8
0
100
AcDbBlockEnd
  0
BLOCK
  5
351C
330
3512
100
AcDbEntity
  8
0
100
AcDbBlockBegin
  2
*D6
 70
     1
 10
0.0
 20
0.0
 30
0.0
  3
*D6
  1

  0
LINE
  5
3783
330
3512
100
AcDbEntity
  8
SCHRAFF
 62
     0
370
    -2
100
AcDbLine
 10
268.6512124798973
 20
472.7360933665081
 30
0.0
 11
268.6512124798973
 21
567.2193084533528
 31
0.0
  0
LINE
  5
3784
330
3512
100
AcDbEntity
  8
SCHRAFF
 62
     0
370
    -2
100
AcDbLine
 10
168.6512124798972
 20
557.7360933665082
 30
0.0
 11
168.6512124798972
 21
567.2193084533528
 31
0.0
  0
LINE
  5
3785
330
3512
100
AcDbEntity
  8
SCHRAFF
 62
     0
370
    -2
100
AcDbLine
 10
261.6512124798973
 20
565.2193084533528
 30
0.0
 11
175.6512124798972
 21
565.2193084533528
 31
0.0
  0
SOLID
  5
3786
330
3512
100
AcDbEntity
  8
SCHRAFF
 62
     0
100
AcDbTrace
 10
261.6512124798973
 20
566.3859751200194
 30
0.0
 11
261.6512124798973
 21
564.0526417866862
 31
0.0
 12
268.6512124798973
 22
565.2193084533528
 32
0.0
 13
268.6512124798973
 23
565.2193084533528
 33
0.0
  0
SOLID
  5
3787
330
3512
100
AcDbEntity
  8
SCHRAFF
 62
     0
100
AcDbTrace
 10
175.6512124798972
 20
566.3859751200194
 30
0.0
 11
175.6512124798972
 21
564.0526417866862
 31
0.0
 12
168.6512124798972
 22
565.2193084533528
 32
0.0
 13
168.6512124798972
 23
565.2193084533528
 33
0.0
  0
MTEXT
  5
3788
330
3512
100
AcDbEntity
  8
SCHRAFF
 62
     1
100
AcDbMText
 10
218.6512124798973
 20
571.1193084533528
 30
0.0
 40
7.0
 41
0.0
 71
     5
 72
     1
  1
\A1;100
  7
GREEKS
 73
     1
 44
1.0
  0
POINT
  5
3789
330
3512
100
AcDbEntity
  8
DEFPOINTS
 62
     0
100
AcDbPoint
 10
268.6512124798973
 20
470.7360933665081
 30
0.0
  0
POINT
  5
378A
330
3512
100
AcDbEntity
  8
DEFPOINTS
 62
     0
100
AcDbPoint
 10
168.6512124798972
 20
555.7360933665083
 30
0.0
  0
POINT
  5
378B
330
3512
100
AcDbEntity
  8
DEFPOINTS
 62
     0
100
AcDbPoint
 10
168.6512124798972
 20
565.2193084533528
 30
0.0
  0
ENDBLK
  5
351D
330
3512
100
AcDbEntity
  8
0
100
AcDbBlockEnd
  0
BLOCK
  5
37C6
330
37BC
100
AcDbEntity
  8
0
100
AcDbBlockBegin
  2
*D7
 70
     1
 10
0.0
 20
0.0
 30
0.0
  3
*D7
  1

  0
LINE
  5
37C9
330
37BC
100
AcDbEntity
  8
BEM
 62
     0
370
    -2
100
AcDbLine
 10
168.6512124798973
 20
133.7360933665082
 30
0.0
 11
168.6512124798973
 21
118.3251189288132
 31
0.0
  0
LINE
  5
37CA
330
37BC
100
AcDbEntity
  8
BEM
 62
     0
370
    -2
100
AcDbLine
 10
228.6512124798977
 20
133.7360933665082
 30
0.0
 11
228.6512124798977
 21
118.3251189288132
 31
0.0
  0
LINE
  5
37CB
330
37BC
100
AcDbEntity
  8
BEM
 62
     0
370
    -2
100
AcDbLine
 10
175.6512124798973
 20
120.3251189288132
 30
0.0
 11
221.6512124798977
 21
120.3251189288132
 31
0.0
  0
SOLID
  5
37CC
330
37BC
100
AcDbEntity
  8
BEM
 62
     0
100
AcDbTrace
 10
175.6512124798973
 20
121.4917855954799
 30
0.0
 11
175.6512124798973
 21
119.1584522621466
 31
0.0
 12
168.6512124798973
 22
120.3251189288132
 32
0.0
 13
168.6512124798973
 23
120.3251189288132
 33
0.0
  0
SOLID
  5
37CD
330
37BC
100
AcDbEntity
  8
BEM
 62
     0
100
AcDbTrace
 10
221.6512124798977
 20
121.4917855954799
 30
0.0
 11
221.6512124798977
 21
119.1584522621466
 31
0.0
 12
228.6512124798977
 22
120.3251189288132
 32
0.0
 13
228.6512124798977
 23
120.3251189288132
 33
0.0
  0
MTEXT
  5
37CE
330
37BC
100
AcDbEntity
  8
BEM
 62
     1
100
AcDbMText
 10
198.6512124798975
 20
126.2251189288132
 30
0.0
 40
7.0
 41
0.0
 71
     5
 72
     1
  1
\A1;60
  7
GREEKS
 73
     1
 44
1.0
  0
POINT
  5
37CF
330
37BC
100
AcDbEntity
  8
DEFPOINTS
 62
     0
100
AcDbPoint
 10
168.6512124798973
 20
135.7360933665082
 30
0.0
  0
POINT
  5
37D0
330
37BC
100
AcDbEntity
  8
DEFPOINTS
 62
     0
100
AcDbPoint
 10
228.6512124798977
 20
135.7360933665082
 30
0.0
  0
POINT
  5
37D1
330
37BC
100
AcDbEntity
  8
DEFPOINTS
 62
     0
100
AcDbPoint
 10
228.6512124798977
 20
120.3251189288132
 30
0.0
  0
ENDBLK
  5
37C7
330
37BC
100
AcDbEntity
  8
0
100
AcDbBlockEnd
  0
ENDSEC
  0
SECTION
  2
ENTITIES
  0
TEXT
  5
D9
330
20
100
AcDbEntity
  8
VOLL
100
AcDbText
 10
78.07675471698113
 20
31.02594776470585
 30
0.0
 40
1.8
  1

  7
GREEKS
100
AcDbText
  0
LINE
  5
DA
330
20
100
AcDbEntity
  8
STEMPEL
100
AcDbLine
 10
332.0
 20
109.9999999999996
 30
0.0
 11
332.0
 21
39.99999999999998
 31
0.0
  0
LINE
  5
DB
330
20
100
AcDbEntity
  8
VOLL
100
AcDbLine
 10
190.0
 20
109.9999999999998
 30
0.0
 11
189.9999999999997
 21
39.99999999999999
 31
0.0
  0
LINE
  5
DC
330
20
100
AcDbEntity
  8
STEMPEL
100
AcDbLine
 10
229.9999999999998
 20
110.0
 30
0.0
 11
229.9999999999998
 21
9.999999999999987
 31
0.0
  0
LINE
  5
DD
330
20
100
AcDbEntity
  8
VOLL
100
AcDbLine
 10
164.0
 20
79.99999999999999
 30
0.0
 11
164.0
 21
39.99999999999999
 31
0.0
  0
LINE
  5
DE
330
20
100
AcDbEntity
  8
VOLL
100
AcDbLine
 10
64.0
 20
110.0
 30
0.0
 11
63.99999999999988
 21
9.999999999999996
 31
0.0
  0
LINE
  5
DF
330
20
100
AcDbEntity
  8
VOLL
100
AcDbLine
 10
104.0
 20
109.9999999999999
 30
0.0
 11
103.9999999999998
 21
9.99999999999988
 31
0.0
  0
LINE
  5
E0
330
20
100
AcDbEntity
  8
VOLL
100
AcDbLine
 10
124.0
 20
109.9999999999998
 30
0.0
 11
123.9999999999997
 21
9.999999999999879
 31
0.0
  0
LINE
  5
E1
330
20
100
AcDbEntity
  8
STEMPEL
100
AcDbLine
 10
146.0
 20
109.9999999999998
 30
0.0
 11
145.9999999999998
 21
9.999999999999877
 31
0.0
  0
LINE
  5
E2
330
20
100
AcDbEntity
  8
STEMPEL
100
AcDbLine
 10
50.00000000000063
 20
584.0
 30
0.0
 11
49.99999999999989
 21
9.999999999999998
 31
0.0
  0
LINE
  5
E3
330
20
100
AcDbEntity
  8
HILF
100
AcDbLine
 10
0.0
 20
0.0
 30
0.0
 11
0.0000000000001705
 21
594.0
 31
0.0
  0
LINE
  5
E4
330
20
100
AcDbEntity
  8
HILF
100
AcDbLine
 10
420.0
 20
-0.0000000000000257
 30
0.0
 11
420.0000000000001
 21
594.0
 31
0.0
  0
LINE
  5
E5
330
20
100
AcDbEntity
  8
STEMPEL
100
AcDbLine
 10
410.0
 20
9.999999999999975
 30
0.0
 11
410.0000000000001
 21
584.0
 31
0.0
  0
LINE
  5
E7
330
20
100
AcDbEntity
  8
STEMPEL
100
AcDbLine
 10
410.0
 20
39.99999999999997
 30
0.0
 11
145.9999999999998
 21
39.99999999999999
 31
0.0
  0
LINE
  5
E8
330
20
100
AcDbEntity
  8
HILF
100
AcDbLine
 10
0.0
 20
0.0
 30
0.0
 11
420.0
 21
-0.0000000000000257
 31
0.0
  0
LINE
  5
E9
330
20
100
AcDbEntity
  8
STEMPEL
100
AcDbLine
 10
49.99999999999989
 20
9.999999999999998
 30
0.0
 11
410.0
 21
9.999999999999975
 31
0.0
  0
LINE
  5
EA
330
20
100
AcDbEntity
  8
STEMPEL
100
AcDbLine
 10
145.9999999999998
 20
30.0
 30
0.0
 11
49.99999999999989
 21
30.0
 31
0.0
  0
LINE
  5
EB
330
20
100
AcDbEntity
  8
HILF
100
AcDbLine
 10
50.0
 20
40.0
 30
0.0
 11
146.0
 21
39.99999999999999
 31
0.0
  0
TEXT
  5
EC
330
20
100
AcDbEntity
  8
TEXT
100
AcDbText
 10
58.26641107045748
 20
13.65465846027188
 30
0.0
 40
3.6
  1
Index
 50
90.0
 41
0.8
  7
GREEKS
100
AcDbText
  0
TEXT
  5
ED
330
20
100
AcDbEntity
  8
TEXT
100
AcDbText
 10
129.1661324498495
 20
18.59324216966399
 30
0.0
 40
4.0
  1
Name
 41
0.8
  7
GREEKS
 72
     1
 11
135.489941973659
 21
18.59324216966399
 31
0.0
100
AcDbText
  0
TEXT
  5
EE
330
20
100
AcDbEntity
  8
TEXT
100
AcDbText
 10
72.72420184595431
 20
18.67381894984123
 30
0.0
 40
4.0
  1
Änderung
 41
0.8
  7
GREEKS
 72
     1
 11
83.46705898881145
 21
18.67381894984123
 31
0.0
100
AcDbText
  0
TEXT
  5
EF
330
20
100
AcDbEntity
  8
TEXT
100
AcDbText
 10
109.3739170636267
 20
18.67156269339806
 30
0.0
 40
4.0
  1
Tag
 41
0.8
  7
GREEKS
 72
     1
 11
113.10725039696
 21
18.67156269339806
 31
0.0
100
AcDbText
  0
TEXT
  5
F0
330
20
100
AcDbEntity
  8
TEXT
100
AcDbText
 10
147.6006777387301
 20
43.52946389649797
 30
0.0
 40
3.6
  1
Norm.
 41
0.8
  7
GREEKS
100
AcDbText
  0
LINE
  5
F1
330
20
100
AcDbEntity
  8
HILF
100
AcDbLine
 10
234.7736801096946
 20
14.89398258028301
 30
0.0
 11
404.8588839326728
 21
14.893982580283
 31
0.0
  0
TEXT
  5
F2
330
20
100
AcDbEntity
  8
TEXT
100
AcDbText
 10
234.7422383911358
 20
30.84560570193047
 30
0.0
 40
5.0
  1
Bauvorhaben
  7
GREEKS
100
AcDbText
  0
TEXT
  5
F3
330
20
100
AcDbEntity
  8
TEXT
100
AcDbText
 10
234.9713400534565
 20
42.19504573013533
 30
0.0
 40
3.6
  1
19845070W.DWG
 41
0.8
  7
GREEKS
100
AcDbText
  0
TEXT
  5
F4
330
20
100
AcDbEntity
  8
TEXT
100
AcDbText
 10
193.2681654675423
 20
88.94757451886867
 30
0.0
 40
4.0
  1
DIN ISO 2768-c
 41
0.7
  7
GREEKS
 72
     1
 11
210.4014988008756
 21
88.94757451886867
 31
0.0
100
AcDbText
  0
LINE
  5
102
330
20
100
AcDbEntity
  8
HILF
100
AcDbLine
 10
420.0000000000001
 20
594.0
 30
0.0
 11
0.0000000000001705
 21
594.0
 31
0.0
  0
LINE
  5
103
330
20
100
AcDbEntity
  8
STEMPEL
100
AcDbLine
 10
410.0000000000001
 20
584.0
 30
0.0
 11
50.00000000000063
 21
584.0
 31
0.0
  0
TEXT
  5
104
330
20
100
AcDbEntity
  8
TEXT
100
AcDbText
 10
196.234832134209
 20
102.4184168434818
 30
0.0
 40
5.0
  1
zul.Abw.
  7
GREEKS
 72
     1
 11
210.4014988008756
 21
102.4184168434818
 31
0.0
100
AcDbText
  0
LINE
  5
105
330
20
100
AcDbEntity
  8
HILF
100
AcDbLine
 10
146.0
 20
69.99999999999999
 30
0.0
 11
229.9999999999998
 21
69.99999999999999
 31
0.0
  0
LINE
  5
106
330
20
100
AcDbEntity
  8
HILF
100
AcDbLine
 10
146.0
 20
59.99999999999999
 30
0.0
 11
229.9999999999998
 21
59.99999999999999
 31
0.0
  0
LINE
  5
107
330
20
100
AcDbEntity
  8
HILF
100
AcDbLine
 10
146.0
 20
49.99999999999999
 30
0.0
 11
229.9999999999998
 21
49.99999999999999
 31
0.0
  0
LINE
  5
108
330
20
100
AcDbEntity
  8
STEMPEL
100
AcDbLine
 10
410.0
 20
109.9999999999999
 30
0.0
 11
50.0
 21
110.0
 31
0.0
  0
LINE
  5
109
330
20
100
AcDbEntity
  8
STEMPEL
100
AcDbLine
 10
410.0
 20
79.99999999999997
 30
0.0
 11
146.0
 21
79.99999999999999
 31
0.0
  0
TEXT
  5
10E
330
20
100
AcDbEntity
  8
TEXT
100
AcDbText
 10
52.57335568851459
 20
113.5954219225907
 30
0.0
 40
5.0
  1
Erstellt mit AUTOCAD 2004
 41
0.8
  7
GREEKS
100
AcDbText
  0
LINE
  5
10F
330
20
100
AcDbEntity
  8
HILF
100
AcDbLine
 10
50.0
 20
100.0
 30
0.0
 11
146.0
 21
100.0
 31
0.0
  0
LINE
  5
110
330
20
100
AcDbEntity
  8
HILF
100
AcDbLine
 10
50.0
 20
90.0
 30
0.0
 11
146.0
 21
89.99999999999998
 31
0.0
  0
LINE
  5
111
330
20
100
AcDbEntity
  8
HILF
100
AcDbLine
 10
50.0
 20
80.0
 30
0.0
 11
146.0
 21
79.99999999999999
 31
0.0
  0
LINE
  5
112
330
20
100
AcDbEntity
  8
HILF
100
AcDbLine
 10
50.0
 20
70.0
 30
0.0
 11
146.0
 21
69.99999999999999
 31
0.0
  0
LINE
  5
113
330
20
100
AcDbEntity
  8
HILF
100
AcDbLine
 10
50.0
 20
60.0
 30
0.0
 11
146.0
 21
59.99999999999999
 31
0.0
  0
LINE
  5
114
330
20
100
AcDbEntity
  8
HILF
100
AcDbLine
 10
50.0
 20
50.0
 30
0.0
 11
146.0
 21
49.99999999999999
 31
0.0
  0
TEXT
  5
115
330
20
100
AcDbEntity
  8
TEXT
100
AcDbText
 10
153.5163572150375
 20
102.4620895087088
 30
0.0
 40
5.0
  1
Maßstab
  7
GREEKS
100
AcDbText
  0
TEXT
  5
116
330
20
100
AcDbEntity
  8
TEXT
 62
     1
100
AcDbText
 10
161.5209068870866
 20
88.7899797722299
 30
0.0
 40
7.0
  1
1:2
 41
0.8
  7
GREEKS
100
AcDbText
  0
TEXT
  5
117
330
20
100
AcDbEntity
  8
TEXT
100
AcDbText
 10
148.5426010951828
 20
73.14583683904139
 30
0.0
 40
3.6
  1
2006
 41
0.8
  7
GREEKS
100
AcDbText
  0
TEXT
  5
118
330
20
100
AcDbEntity
  8
TEXT
100
AcDbText
 10
147.551508657167
 20
53.68926291428373
 30
0.0
 40
3.6
  1
Gepr.
 41
0.8
  7
GREEKS
100
AcDbText
  0
TEXT
  5
119
330
20
100
AcDbEntity
  8
TEXT
100
AcDbText
 10
147.5836127167613
 20
63.62990369617953
 30
0.0
 40
3.6
  1
Gez.
 41
0.8
  7
GREEKS
100
AcDbText
  0
TEXT
  5
11A
330
20
100
AcDbEntity
  8
TEXT
100
AcDbText
 10
170.724374196332
 20
63.40553235359492
 30
0.0
 40
3.6
  1
12.06.
 41
0.8
 72
     1
 11
176.7586599106178
 21
63.40553235359492
 31
0.0
100
AcDbText
  0
TEXT
  5
11B
330
20
100
AcDbEntity
  8
TEXT
100
AcDbText
 10
172.3311673153648
 20
73.31880501229919
 30
0.0
 40
3.6
  1
Tag
 41
0.8
  7
GREEKS
100
AcDbText
  0
TEXT
  5
127
330
20
100
AcDbEntity
  8
TEXT
 62
     1
100
AcDbText
 10
314.0559318824947
 20
143.482559467078
 30
0.0
 40
7.0
  1
Werkstoff: Foamglas
 41
0.8
  7
GREEKS
100
AcDbText
  0
TEXT
  5
128
330
20
100
AcDbEntity
  8
TEXT
100
AcDbText
 10
234.862987254257
 20
72.29651127304087
 30
0.0
 40
5.0
  1
aus Foamglas für Dachabläufe DN70
 41
0.65
  7
GREEKS
100
AcDbText
  0
TEXT
  5
129
330
20
100
AcDbEntity
  8
TEXT
 62
     1
100
AcDbText
 10
234.9791173409951
 20
86.99412083985315
 30
0.0
 40
7.0
  1
Wärmedämmung
 41
0.8
  7
GREEKS
100
AcDbText
  0
TEXT
  5
12A
330
20
100
AcDbEntity
  8
TEXT
100
AcDbText
 10
234.8779403809008
 20
102.5489328011778
 30
0.0
 40
5.0
  1
Benennung
  7
GREEKS
100
AcDbText
  0
LINE
  5
12C
330
20
100
AcDbEntity
  8
HILF
100
AcDbLine
 10
234.7736801096946
 20
84.03758247564125
 30
0.0
 11
326.629784251481
 21
84.03758247564125
 31
0.0
  0
LINE
  5
12D
330
20
100
AcDbEntity
  8
HILF
100
AcDbLine
 10
234.7736801096946
 20
69.99999999999999
 30
0.0
 11
326.629784251481
 21
69.99999999999997
 31
0.0
  0
LINE
  5
12E
330
20
100
AcDbEntity
  8
HILF
100
AcDbLine
 10
234.7736801096946
 20
59.99999999999999
 30
0.0
 11
326.629784251481
 21
59.99999999999998
 31
0.0
  0
LINE
  5
12F
330
20
100
AcDbEntity
  8
HILF
100
AcDbLine
 10
234.7736801096946
 20
49.99999999999999
 30
0.0
 11
326.629784251481
 21
49.99999999999998
 31
0.0
  0
TEXT
  5
130
330
20
100
AcDbEntity
  8
TEXT
100
AcDbText
 10
202.4626584226294
 20
73.30961091915217
 30
0.0
 40
3.6
  1
Name
 41
0.8
  7
GREEKS
100
AcDbText
  0
TEXT
  5
131
330
20
100
AcDbEntity
  8
TEXT
100
AcDbText
 10
205.1121860477744
 20
63.50253258750898
 30
0.0
 40
3.6
  1
Koeh
 41
0.8
  7
GREEKS
 72
     1
 11
209.843614619203
 21
63.50253258750898
 31
0.0
100
AcDbText
  0
LINE
  5
136
330
20
100
AcDbEntity
  8
VOLL
100
AcDbLine
 10
332.0
 20
59.99999999999998
 30
0.0
 11
410.0
 21
59.99999999999997
 31
0.0
  0
LINE
  5
137
330
20
100
AcDbEntity
  8
HILF
100
AcDbLine
 10
336.7238616296993
 20
83.77983636955812
 30
0.0
 11
404.8588839326728
 21
83.77983636955812
 31
0.0
  0
TEXT
  5
138
330
20
100
AcDbEntity
  8
TEXT
 62
     1
100
AcDbText
 10
346.9044394842363
 20
87.01863741763558
 30
0.0
 40
7.0
  1
19845070W
 41
0.8
  7
GREEKS
 72
     1
 11
370.371106150903
 21
87.01863741763558
 31
0.0
100
AcDbText
  0
TEXT
  5
139
330
20
100
AcDbEntity
  8
TEXT
100
AcDbText
 10
336.7238616296993
 20
73.18118237099961
 30
0.0
 40
5.0
  1
Ersatz für:
  7
GREEKS
100
AcDbText
  0
TEXT
  5
13A
330
20
100
AcDbEntity
  8
TEXT
100
AcDbText
 10
336.178754957634
 20
102.3132034537135
 30
0.0
 40
5.0
  1
Zeichnungs Nr.
  7
GREEKS
100
AcDbText
  0
TEXT
  5
13B
330
20
100
AcDbEntity
  8
TEXT
100
AcDbText
 10
337.2400861497006
 20
52.07416177878597
 30
0.0
 40
5.0
  1
ersetzt durch:
  7
GREEKS
100
AcDbText
  0
ARC
  5
140
330
20
100
AcDbEntity
  8
TEXT
 62
     3
100
AcDbCircle
 10
172.1699894482153
 20
25.78072120170838
 30
0.0
 40
9.0
100
AcDbArc
 50
270.0
 51
231.0575587310159
  0
LINE
  5
141
330
20
100
AcDbEntity
  8
TEXT
 62
     3
100
AcDbLine
 10
156.1699894482153
 20
34.78072120170838
 30
0.0
 11
156.1699894482154
 21
20.78072120170872
 31
0.0
  0
LINE
  5
142
330
20
100
AcDbEntity
  8
TEXT
 62
     3
100
AcDbLine
 10
154.1699894482153
 20
34.78072120170838
 30
0.0
 11
154.1699894482154
 21
20.78072120170872
 31
0.0
  0
CIRCLE
  5
143
330
20
100
AcDbEntity
  8
TEXT
 62
     3
100
AcDbCircle
 10
172.1699894482153
 20
25.78072120170838
 30
0.0
 40
7.0
  0
ARC
  5
144
330
20
100
AcDbEntity
  8
TEXT
 62
     3
100
AcDbCircle
 10
212.1699894482155
 20
25.78072120170849
 30
0.0
 40
9.0
100
AcDbArc
 50
270.0
 51
231.0575587310181
  0
LINE
  5
145
330
20
100
AcDbEntity
  8
TEXT
 62
     3
100
AcDbLine
 10
184.1699894482153
 20
34.78072120170849
 30
0.0
 11
184.1699894482154
 21
16.78072120170849
 31
0.0
  0
ARC
  5
146
330
20
100
AcDbEntity
  8
TEXT
 62
     3
100
AcDbCircle
 10
194.1699894482154
 20
29.78072120170849
 30
0.0
 40
5.0
100
AcDbArc
 50
293.1161887722296
 51
90.0
  0
CIRCLE
  5
147
330
20
100
AcDbEntity
  8
TEXT
 62
     3
100
AcDbCircle
 10
212.1699894482155
 20
25.78072120170849
 30
0.0
 40
7.0
  0
ARC
  5
148
330
20
100
AcDbEntity
  8
TEXT
 62
     3
100
AcDbCircle
 10
158.1699894482154
 20
20.78072120170872
 30
0.0
 40
2.0
100
AcDbArc
 50
180.0
 51
270.0
  0
ARC
  5
149
330
20
100
AcDbEntity
  8
TEXT
 62
     3
100
AcDbCircle
 10
158.1699894482154
 20
20.78072120170872
 30
0.0
 40
4.0
100
AcDbArc
 50
179.9999999999992
 51
270.0
  0
LINE
  5
14A
330
20
100
AcDbEntity
  8
TEXT
 62
     3
100
AcDbLine
 10
172.1699894482154
 20
16.78072120170849
 30
0.0
 11
158.1699894482154
 21
16.78072120170849
 31
0.0
  0
LINE
  5
14B
330
20
100
AcDbEntity
  8
TEXT
 62
     3
100
AcDbLine
 10
166.5131351987227
 20
18.78072120170872
 30
0.0
 11
158.1699894482154
 21
18.78072120170872
 31
0.0
  0
LINE
  5
14C
330
20
100
AcDbEntity
  8
TEXT
 62
     3
100
AcDbLine
 10
212.1699894482155
 20
16.78072120170849
 30
0.0
 11
196.3135829876643
 21
16.78072120170849
 31
0.0
  0
LINE
  5
14D
330
20
100
AcDbEntity
  8
TEXT
 62
     3
100
AcDbLine
 10
196.1018411007935
 20
25.29835929191346
 30
0.0
 11
197.8482369636223
 21
18.78072120170849
 31
0.0
  0
LINE
  5
14E
330
20
100
AcDbEntity
  8
TEXT
 62
     3
100
AcDbLine
 10
194.1699894482154
 20
24.78072120170849
 30
0.0
 11
186.1699894482153
 21
24.78072120170849
 31
0.0
  0
LINE
  5
14F
330
20
100
AcDbEntity
  8
TEXT
 62
     3
100
AcDbLine
 10
186.1699894482154
 20
16.78072120170849
 30
0.0
 11
184.1699894482154
 21
16.78072120170849
 31
0.0
  0
LINE
  5
150
330
20
100
AcDbEntity
  8
TEXT
 62
     3
100
AcDbLine
 10
186.1699894482154
 20
24.78072120170849
 30
0.0
 11
186.1699894482154
 21
16.78072120170849
 31
0.0
  0
LINE
  5
151
330
20
100
AcDbEntity
  8
TEXT
 62
     3
100
AcDbLine
 10
194.1699894482154
 20
24.78072120170849
 30
0.0
 11
196.3135829876644
 21
16.78072120170849
 31
0.0
  0
ARC
  5
152
330
20
100
AcDbEntity
  8
TEXT
 62
     3
100
AcDbCircle
 10
194.1699894482154
 20
29.78072120170849
 30
0.0
 40
5.0
100
AcDbArc
 50
270.0
 51
270.0000000000006
  0
LINE
  5
153
330
20
100
AcDbEntity
  8
TEXT
 62
     3
100
AcDbLine
 10
206.513135198723
 20
18.78072120170849
 30
0.0
 11
197.8482369636224
 21
18.78072120170849
 31
0.0
  0
LINE
  5
154
330
20
100
AcDbEntity
  8
TEXT
 62
     3
100
AcDbLine
 10
156.1699894482153
 20
34.78072120170849
 30
0.0
 11
154.1699894482153
 21
34.78072120170849
 31
0.0
  0
LINE
  5
155
330
20
100
AcDbEntity
  8
TEXT
 62
     3
100
AcDbLine
 10
194.1699894482154
 20
26.78072120170849
 30
0.0
 11
186.1699894482154
 21
26.78072120170849
 31
0.0
  0
LINE
  5
156
330
20
100
AcDbEntity
  8
TEXT
 62
     3
100
AcDbLine
 10
194.1699894482154
 20
32.78072120170849
 30
0.0
 11
186.1699894482154
 21
32.78072120170849
 31
0.0
  0
LINE
  5
157
330
20
100
AcDbEntity
  8
TEXT
 62
     3
100
AcDbLine
 10
194.1699894482154
 20
34.78072120170849
 30
0.0
 11
184.1699894482154
 21
34.78072120170849
 31
0.0
  0
LINE
  5
158
330
20
100
AcDbEntity
  8
TEXT
 62
     3
100
AcDbLine
 10
186.1699894482154
 20
32.78072120170849
 30
0.0
 11
186.1699894482154
 21
26.78072120170849
 31
0.0
  0
ARC
  5
159
330
20
100
AcDbEntity
  8
TEXT
 62
     3
100
AcDbCircle
 10
194.1699894482154
 20
29.78072120170849
 30
0.0
 40
3.0
100
AcDbArc
 50
270.0
 51
90.0
  0
TEXT
  5
1E8
330
20
100
AcDbEntity
  8
BEM
100
AcDbText
 10
416.5811541437437
 20
12.14804815338297
 30
0.0
 40
4.0
  1
Diese Zeichnung ist urheberrechtlich geschützt und bleibt unser Eigentum. Sie darf weder ganz noch teilweise vervielfältigt und nicht an Dritte weitergegeben werden.
 50
90.0
 41
0.8
  7
GREEKS
100
AcDbText
  0
TEXT
  5
569
330
20
100
AcDbEntity
  8
TEXT25
100
AcDbText
 10
824.706036264533
 20
152.8135437821292
 30
0.0
 40
2.5
  1

 41
0.8
100
AcDbText
  0
TEXT
  5
56A
330
20
100
AcDbEntity
  8
TEXT35
100
AcDbText
 10
847.0387804968957
 20
137.7363466330945
 30
0.0
 40
3.5
  1

 41
0.8
100
AcDbText
  0
INSERT
  5
56B
330
20
100
AcDbEntity
  8
ASHADE
 62
     1
100
AcDbBlockReference
  2
AVE_RENDER
 10
983.8479647894471
 20
124.1419718933692
 30
0.0
1001
AVE_RENDER
1002
{
1070
     2
1000
Pref
1070
    30
1070
    20
1070
     0
1070
     0
1000

1070
    10
1070
     0
1070
    30
1040
1.0
1070
     1
1040
0.3
1040
0.7
1040
0.0
1040
10.0
1010
-1.0
1020
-1.0
1030
-1.0
1040
0.3
1070
    49
1002
}
  0
INSERT
  5
56C
330
20
100
AcDbEntity
  8
ASHADE
 62
     3
100
AcDbBlockReference
  2
AVE_RENDER
 10
983.8479647894471
 20
124.1419718933692
 30
0.0
1001
AVE_RENDER
1002
{
1070
     0
1000
Full Opt
1070
     0
1070
     1
1070
     1
1070
     1
1070
     0
1070
     0
1070
     0
1070
     1
1070
     1
1040
0.0001
1040
0.0001
1002
}
  0
INSERT
  5
56D
330
20
100
AcDbEntity
  8
ASHADE
 62
     4
100
AcDbBlockReference
  2
AVE_RENDER
 10
983.8479647894471
 20
124.1419718933692
 30
0.0
1001
AVE_RENDER
1002
{
1070
     0
1000
Quick Opt
1070
     0
1070
     1
1070
     1
1070
     1
1070
     0
1070
     0
1070
     1
1002
}
  0
TEXT
  5
56E
330
20
100
AcDbEntity
  8
VOLL
100
AcDbText
 10
1155.199871876532
 20
157.1961718454178
 30
0.0
 40
1.8
  1

  7
GREEKS
100
AcDbText
  0
TEXT
  5
56F
330
20
100
AcDbEntity
  8
TEXT35
100
AcDbText
 10
1225.601573764456
 20
240.4323351979402
 30
0.0
 40
7.0
  1

 41
0.8
100
AcDbText
  0
TEXT
  5
570
330
20
100
AcDbEntity
  8
TEXT25
100
AcDbText
 10
1312.001057540452
 20
187.170224080712
 30
0.0
 40
5.0
  1

 41
0.8
100
AcDbText
  0
TEXT
  5
571
330
20
100
AcDbEntity
  8
TEXT35
100
AcDbText
 10
1312.001057540452
 20
143.064206660995
 30
0.0
 40
7.0
  1

 41
0.8
100
AcDbText
  0
TEXT
  5
572
330
20
100
AcDbEntity
  8
TEXT35
100
AcDbText
 10
1356.666546005177
 20
157.0158297826426
 30
0.0
 40
7.0
  1

 41
0.8
100
AcDbText
  0
TEXT
  5
573
330
20
100
AcDbEntity
  8
TEXT
100
AcDbText
 10
1821.912341869568
 20
342.7399535810657
 30
0.0
 40
5.0
  1

 41
0.8
  7
GREEKS
100
AcDbText
  0
TEXT
  5
58E
330
20
100
AcDbEntity
  8
VOLL
100
AcDbText
 10
653.4205755080445
 20
184.3654393115409
 30
0.0
 40
3.6
  1

  7
GREEKS
100
AcDbText
  0
TEXT
  5
591
330
20
100
AcDbEntity
  8
TEXT35
100
AcDbText
 10
1003.407095384802
 20
627.3350410931531
 30
0.0
 40
7.0
  1

 41
0.8
100
AcDbText
  0
TEXT
  5
630
330
20
100
AcDbEntity
  8
VOLL
100
AcDbText
 10
653.4205755080445
 20
184.3654393115409
 30
0.0
 40
3.6
  1

  7
GREEKS
100
AcDbText
  0
TEXT
  5
63A
330
20
100
AcDbEntity
  8
TEXT35
100
AcDbText
 10
1003.407095384802
 20
627.3350410931531
 30
0.0
 40
7.0
  1

 41
0.8
100
AcDbText
  0
LINE
  5
989
102
{ACAD_REACTORS
330
3528
330
37D2
330
37F0
102
}
330
20
100
AcDbEntity
  8
STEMPEL
100
AcDbLine
 10
168.6512124798973
 20
135.7360933665082
 30
0.0
 11
168.6512124798972
 21
555.7360933665083
 31
0.0
  0
DIMENSION
  5
F88
102
{ACAD_REACTORS
330
37F0
102
}
330
20
100
AcDbEntity
  8
BEM
100
AcDbDimension
  2
*D1
 10
168.6512124798972
 20
487.1575147064261
 30
0.0
 11
173.1512124798971
 21
493.0575147064261
 31
0.0
 70
    32
 71
     5
 42
8.999999999999886
  3
Standard
100
AcDbAlignedDimension
 13
177.6512124798971
 23
469.2360933665083
 33
0.0
 14
168.6512124798972
 24
469.2360933665083
 34
0.0
100
AcDbRotatedDimension
1001
ACAD
1000
DSTYLE
1002
{
1070
    40
1040
2.0
1070
    41
1040
3.5
1070
    42
1040
1.0
1070
    43
1040
7.0
1070
    44
1040
1.0
1070
    73
1070
     0
1070
    74
1070
     0
1070
    77
1070
     1
1070
    78
1070
     8
1070
    79
1070
     2
1070
   140
1040
3.5
1070
   141
1040
1.5
1070
   146
1040
0.5
1070
   147
1040
1.199999999999999
1070
   172
1070
     1
1070
   178
1070
     1
1070
   179
1070
     2
1070
   271
1070
     2
1070
   272
1070
     2
1070
   284
1070
     8
1070
   285
1070
     8
1070
   286
1070
     8
1070
   340
1005
31
1002
}
  0
LINE
  5
1059
102
{ACAD_REACTORS
330
37F0
102
}
330
20
100
AcDbEntity
  8
STEMPEL
100
AcDbLine
 10
168.6512124798972
 20
469.2360933665083
 30
0.0
 11
177.6512124798971
 21
469.2360933665083
 31
0.0
  0
LINE
  5
105A
102
{ACAD_REACTORS
330
37F0
102
}
330
20
100
AcDbEntity
  8
STEMPEL
100
AcDbLine
 10
168.6512124798971
 20
222.2360933665079
 30
0.0
 11
177.6512124798973
 21
222.236093366508
 31
0.0
  0
DIMENSION
  5
1086
330
20
100
AcDbEntity
  8
BEM
100
AcDbDimension
  2
*D2
 10
152.4889810713638
 20
469.2360933665083
 30
0.0
 11
146.5889810713638
 21
345.7360933665082
 31
0.0
 70
    32
  1
%%c<>
 71
     5
 42
247.0000000000004
  3
Standard
100
AcDbAlignedDimension
 13
168.6512124798971
 23
222.2360933665079
 33
0.0
 14
168.6512124798972
 24
469.2360933665083
 34
0.0
 50
90.0
100
AcDbRotatedDimension
1001
ACAD
1000
DSTYLE
1002
{
1070
    40
1040
2.0
1070
    41
1040
3.5
1070
    42
1040
1.0
1070
    43
1040
7.0
1070
    44
1040
1.0
1070
    73
1070
     0
1070
    74
1070
     0
1070
    77
1070
     1
1070
    78
1070
     8
1070
    79
1070
     2
1070
   140
1040
3.5
1070
   141
1040
1.5
1070
   146
1040
0.5
1070
   147
1040
1.199999999999999
1070
   172
1070
     1
1070
   178
1070
     1
1070
   179
1070
     2
1070
   271
1070
     2
1070
   272
1070
     2
1070
   284
1070
     8
1070
   285
1070
     8
1070
   286
1070
     8
1070
   340
1005
31
1002
}
  0
LINE
  5
1D25
102
{ACAD_REACTORS
330
37F0
102
}
330
20
100
AcDbEntity
  8
STEMPEL
100
AcDbLine
 10
168.6512124798972
 20
555.7360933665083
 30
0.0
 11
228.6512124798972
 21
555.7360933665081
 31
0.0
  0
LINE
  5
1D26
102
{ACAD_REACTORS
330
37F0
102
}
330
20
100
AcDbEntity
  8
STEMPEL
100
AcDbLine
 10
168.6512124798973
 20
135.7360933665082
 30
0.0
 11
228.6512124798977
 21
135.7360933665082
 31
0.0
  0
TEXT
  5
2087
330
20
100
AcDbEntity
  8
VOLL
100
AcDbText
 10
-380.1682971954266
 20
139.0982764962933
 30
0.0
 40
1.8
  1

  7
GREEKS
100
AcDbText
  0
LINE
  5
20AB
330
20
100
AcDbEntity
  8
STEMPEL
100
AcDbLine
 10
232.651212479897
 20
385.6241801592331
 30
0.0
 11
232.6512124798971
 21
305.624180159233
 31
0.0
  0
LINE
  5
20AC
330
20
100
AcDbEntity
  8
STEMPEL
100
AcDbLine
 10
187.651212479897
 20
399.1241801592333
 30
0.0
 11
187.6512124798971
 21
292.1241801592332
 31
0.0
  0
LINE
  5
20AD
330
20
100
AcDbEntity
  8
STEMPEL
100
AcDbLine
 10
207.6512124798971
 20
399.1241801592327
 30
0.0
 11
207.6512124798973
 21
292.1241801592334
 31
0.0
  0
LINE
  5
20B7
102
{ACAD_REACTORS
330
37F0
102
}
330
20
100
AcDbEntity
  8
STEMPEL
100
AcDbLine
 10
207.6512124798973
 20
292.1241801592334
 30
0.0
 11
232.6512124798971
 21
305.624180159233
 31
0.0
  0
LINE
  5
20CA
102
{ACAD_REACTORS
330
30F8
330
37F0
102
}
330
20
100
AcDbEntity
  8
STEMPEL
100
AcDbLine
 10
232.6512124798971
 20
305.624180159233
 30
0.0
 11
268.6512124798974
 21
305.624180159233
 31
0.0
  0
LINE
  5
20CF
102
{ACAD_REACTORS
330
37F0
102
}
330
20
100
AcDbEntity
  8
STEMPEL
100
AcDbLine
 10
207.6512124798973
 20
292.1241801592334
 30
0.0
 11
187.6512124798971
 21
292.1241801592332
 31
0.0
  0
LINE
  5
20D0
102
{ACAD_REACTORS
330
37F0
102
}
330
20
100
AcDbEntity
  8
STEMPEL
100
AcDbLine
 10
177.6512124798971
 20
280.6241801592332
 30
0.0
 11
187.6512124798971
 21
292.1241801592332
 31
0.0
  0
LINE
  5
20D1
102
{ACAD_REACTORS
330
37F0
102
}
330
20
100
AcDbEntity
  8
STEMPEL
100
AcDbLine
 10
207.6512124798973
 20
399.1241801592329
 30
0.0
 11
232.6512124798971
 21
385.6241801592331
 31
0.0
  0
LINE
  5
20DF
102
{ACAD_REACTORS
330
30F8
330
37F0
102
}
330
20
100
AcDbEntity
  8
STEMPEL
100
AcDbLine
 10
232.6512124798971
 20
385.6241801592331
 30
0.0
 11
268.6512124798973
 21
385.6241801592331
 31
0.0
  0
LINE
  5
20E9
102
{ACAD_REACTORS
330
37F0
102
}
330
20
100
AcDbEntity
  8
STEMPEL
100
AcDbLine
 10
177.6512124798971
 20
410.624180159233
 30
0.0
 11
187.6512124798971
 21
399.1241801592331
 31
0.0
  0
LINE
  5
20EA
102
{ACAD_REACTORS
330
37F0
102
}
330
20
100
AcDbEntity
  8
STEMPEL
100
AcDbLine
 10
207.6512124798973
 20
399.1241801592329
 30
0.0
 11
187.6512124798971
 21
399.1241801592331
 31
0.0
  0
TEXT
  5
28E4
330
20
100
AcDbEntity
  8
TEXT25
100
AcDbText
 10
1484.72299320336
 20
897.2777102225013
 30
0.0
 40
2.5
  1

 41
0.8
100
AcDbText
  0
TEXT
  5
28E5
330
20
100
AcDbEntity
  8
TEXT35
100
AcDbText
 10
1507.055737435723
 20
882.2005130734666
 30
0.0
 40
3.5
  1

 41
0.8
100
AcDbText
  0
INSERT
  5
28E6
330
20
100
AcDbEntity
  8
ASHADE
 62
     1
100
AcDbBlockReference
  2
AVE_RENDER
 10
1643.864921728274
 20
868.6061383337413
 30
0.0
1001
AVE_RENDER
1002
{
1070
     2
1000
Pref
1070
    30
1070
    20
1070
     0
1070
     0
1000

1070
    10
1070
     0
1070
    30
1040
1.0
1070
     1
1040
0.3
1040
0.7
1040
0.0
1040
10.0
1010
-1.0
1020
-1.0
1030
-1.0
1040
0.3
1070
    49
1002
}
  0
INSERT
  5
28E7
330
20
100
AcDbEntity
  8
ASHADE
 62
     3
100
AcDbBlockReference
  2
AVE_RENDER
 10
1643.864921728274
 20
868.6061383337413
 30
0.0
1001
AVE_RENDER
1002
{
1070
     0
1000
Full Opt
1070
     0
1070
     1
1070
     1
1070
     1
1070
     0
1070
     0
1070
     0
1070
     1
1070
     1
1040
0.0001
1040
0.0001
1002
}
  0
INSERT
  5
28E8
330
20
100
AcDbEntity
  8
ASHADE
 62
     4
100
AcDbBlockReference
  2
AVE_RENDER
 10
1643.864921728274
 20
868.6061383337413
 30
0.0
1001
AVE_RENDER
1002
{
1070
     0
1000
Quick Opt
1070
     0
1070
     1
1070
     1
1070
     1
1070
     0
1070
     0
1070
     1
1002
}
  0
TEXT
  5
28E9
330
20
100
AcDbEntity
  8
VOLL
100
AcDbText
 10
1815.216828815359
 20
901.6603382857899
 30
0.0
 40
1.8
  1

  7
GREEKS
100
AcDbText
  0
TEXT
  5
28EA
330
20
100
AcDbEntity
  8
TEXT35
100
AcDbText
 10
1885.618530703284
 20
984.8965016383123
 30
0.0
 40
7.0
  1

 41
0.8
100
AcDbText
  0
TEXT
  5
28EB
330
20
100
AcDbEntity
  8
TEXT25
100
AcDbText
 10
1972.018014479279
 20
931.6343905210841
 30
0.0
 40
5.0
  1

 41
0.8
100
AcDbText
  0
TEXT
  5
28EC
330
20
100
AcDbEntity
  8
TEXT35
100
AcDbText
 10
1972.018014479279
 20
887.5283731013672
 30
0.0
 40
7.0
  1

 41
0.8
100
AcDbText
  0
TEXT
  5
28ED
330
20
100
AcDbEntity
  8
TEXT35
100
AcDbText
 10
2016.683502944005
 20
901.4799962230148
 30
0.0
 40
7.0
  1

 41
0.8
100
AcDbText
  0
TEXT
  5
28EE
330
20
100
AcDbEntity
  8
TEXT
100
AcDbText
 10
2481.929298808396
 20
1087.204120021437
 30
0.0
 40
5.0
  1

 41
0.8
  7
GREEKS
100
AcDbText
  0
TEXT
  5
2919
330
20
100
AcDbEntity
  8
VOLL
100
AcDbText
 10
1809.352912497065
 20
889.4062134165032
 30
0.0
 40
1.8
  1

 50
90.0
  7
GREEKS
100
AcDbText
  0
TEXT
  5
291A
330
20
100
AcDbEntity
  8
VOLL
100
AcDbText
 10
1804.060795781345
 20
979.0723873421764
 30
0.0
 40
1.8
  1

 50
90.0
  7
GREEKS
100
AcDbText
  0
TEXT
  5
291B
330
20
100
AcDbEntity
  8
TEXT
100
AcDbText
 10
1798.50256024812
 20
1310.904655545769
 30
0.0
 40
2.5
  1
  
 50
90.0
  7
GREEKS
 72
     1
 11
1798.50256024812
 21
1313.166560307674
 31
0.0
100
AcDbText
  0
TEXT
  5
291C
330
20
100
AcDbEntity
  8
BEM
100
AcDbText
 10
1662.943678217718
 20
1555.024372858251
 30
0.0
 40
2.5
  1
 
 50
90.0
 72
     4
 11
1662.943678217718
 21
1556.155325239203
 31
0.0
100
AcDbText
  0
TEXT
  5
291D
330
20
100
AcDbEntity
  8
BEM
100
AcDbText
 10
1780.424081590184
 20
1120.713716988101
 30
0.0
 40
2.5
  1

 50
90.0
  7
GREEKS
100
AcDbText
  0
TEXT
  5
291E
330
20
100
AcDbEntity
  8
VOLL
100
AcDbText
 10
1800.607342247219
 20
1106.647523968379
 30
0.0
 40
1.8
  1

 50
90.0
  7
GREEKS
100
AcDbText
  0
TEXT
  5
291F
330
20
100
AcDbEntity
  8
BEM
100
AcDbText
 10
1795.881617923998
 20
1141.135588807664
 30
0.0
 40
2.5
  1

 50
90.0
 41
0.8
  7
GREEKS
100
AcDbText
  0
TEXT
  5
2920
330
20
100
AcDbEntity
  8
BEM
100
AcDbText
 10
1800.575386478051
 20
1141.135588807664
 30
0.0
 40
2.5
  1

 50
90.0
 41
0.8
  7
GREEKS
100
AcDbText
  0
TEXT
  5
2921
330
20
100
AcDbEntity
  8
BEM
100
AcDbText
 10
1805.813230296714
 20
1141.135588807664
 30
0.0
 40
2.5
  1

 50
90.0
 41
0.8
  7
GREEKS
100
AcDbText
  0
TEXT
  5
2922
330
20
100
AcDbEntity
  8
BEM
100
AcDbText
 10
1810.318419246812
 20
1141.06264433029
 30
0.0
 40
1.8
  1

 50
90.0
 41
0.8
  7
GREEKS
100
AcDbText
  0
TEXT
  5
2923
330
20
100
AcDbEntity
  8
BEM
100
AcDbText
 10
1784.726830150586
 20
1128.379073450678
 30
0.0
 40
2.0
  1

 50
90.0
 41
0.8
  7
GREEKS
 72
     1
 11
1784.726830150586
 21
1128.379073450678
 31
0.0
100
AcDbText
  0
TEXT
  5
2924
330
20
100
AcDbEntity
  8
TEXT
100
AcDbText
 10
1795.049106713994
 20
1438.479792171972
 30
0.0
 40
2.5
  1
  
 50
90.0
  7
GREEKS
 72
     1
 11
1795.049106713994
 21
1440.741696933877
 31
0.0
100
AcDbText
  0
TEXT
  5
2925
330
20
100
AcDbEntity
  8
BEM
100
AcDbText
 10
1659.490224683591
 20
1682.599509484455
 30
0.0
 40
2.5
  1
 
 50
90.0
 72
     4
 11
1659.490224683591
 21
1683.730461865407
 31
0.0
100
AcDbText
  0
TEXT
  5
2926
330
20
100
AcDbEntity
  8
VOLL
100
AcDbText
 10
1793.15582818523
 20
1031.364288363664
 30
0.0
 40
1.8
  1

 50
90.0
  7
GREEKS
100
AcDbText
  0
TEXT
  5
2927
330
20
100
AcDbEntity
  8
TEXT
100
AcDbText
 10
1787.597592652004
 20
1363.196556567257
 30
0.0
 40
2.5
  1
  
 50
90.0
  7
GREEKS
 72
     1
 11
1787.597592652004
 21
1365.458461329162
 31
0.0
100
AcDbText
  0
TEXT
  5
2928
330
20
100
AcDbEntity
  8
BEM
100
AcDbText
 10
1652.038710621602
 20
1607.31627387974
 30
0.0
 40
2.5
  1
 
 50
90.0
 72
     4
 11
1652.038710621602
 21
1608.447226260692
 31
0.0
100
AcDbText
  0
TEXT
  5
2929
330
20
100
AcDbEntity
  8
BEM
100
AcDbText
 10
1772.822417295553
 20
1186.503890520461
 30
0.0
 40
2.5
  1

 50
90.0
  7
GREEKS
100
AcDbText
  0
TEXT
  5
292A
330
20
100
AcDbEntity
  8
VOLL
100
AcDbText
 10
1793.005677952589
 20
1172.437697500739
 30
0.0
 40
1.8
  1

 50
90.0
  7
GREEKS
100
AcDbText
  0
TEXT
  5
292B
330
20
100
AcDbEntity
  8
BEM
100
AcDbText
 10
1788.279953629368
 20
1206.925762340024
 30
0.0
 40
2.5
  1

 50
90.0
 41
0.8
  7
GREEKS
100
AcDbText
  0
TEXT
  5
292C
330
20
100
AcDbEntity
  8
BEM
100
AcDbText
 10
1792.97372218342
 20
1206.925762340024
 30
0.0
 40
2.5
  1

 50
90.0
 41
0.8
  7
GREEKS
100
AcDbText
  0
TEXT
  5
292D
330
20
100
AcDbEntity
  8
BEM
100
AcDbText
 10
1798.211566002083
 20
1206.925762340024
 30
0.0
 40
2.5
  1

 50
90.0
 41
0.8
  7
GREEKS
100
AcDbText
  0
TEXT
  5
292E
330
20
100
AcDbEntity
  8
BEM
100
AcDbText
 10
1802.716754952181
 20
1206.852817862649
 30
0.0
 40
1.8
  1

 50
90.0
 41
0.8
  7
GREEKS
100
AcDbText
  0
TEXT
  5
292F
330
20
100
AcDbEntity
  8
BEM
100
AcDbText
 10
1777.125165855956
 20
1194.169246983038
 30
0.0
 40
2.0
  1

 50
90.0
 41
0.8
  7
GREEKS
 72
     1
 11
1777.125165855956
 21
1194.169246983038
 31
0.0
100
AcDbText
  0
TEXT
  5
2930
330
20
100
AcDbEntity
  8
TEXT
100
AcDbText
 10
1787.447442419363
 20
1504.269965704332
 30
0.0
 40
2.5
  1
  
 50
90.0
  7
GREEKS
 72
     1
 11
1787.447442419363
 21
1506.531870466237
 31
0.0
100
AcDbText
  0
TEXT
  5
2931
330
20
100
AcDbEntity
  8
BEM
100
AcDbText
 10
1651.888560388961
 20
1748.389683016814
 30
0.0
 40
2.5
  1
 
 50
90.0
 72
     4
 11
1651.888560388961
 21
1749.520635397766
 31
0.0
100
AcDbText
  0
TEXT
  5
2932
330
20
100
AcDbEntity
  8
VOLL
100
AcDbText
 10
1804.971537710979
 20
967.3420769369082
 30
0.0
 40
1.8
  1

 50
90.0
  7
GREEKS
100
AcDbText
  0
TEXT
  5
2933
330
20
100
AcDbEntity
  8
TEXT
100
AcDbText
 10
1799.413302177753
 20
1299.174345140501
 30
0.0
 40
2.5
  1
  
 50
90.0
  7
GREEKS
 72
     1
 11
1799.413302177753
 21
1301.436249902406
 31
0.0
100
AcDbText
  0
TEXT
  5
2934
330
20
100
AcDbEntity
  8
BEM
100
AcDbText
 10
1663.854420147351
 20
1543.294062452983
 30
0.0
 40
2.5
  1
 
 50
90.0
 72
     4
 11
1663.854420147351
 21
1544.425014833936
 31
0.0
100
AcDbText
  0
TEXT
  5
2935
330
20
100
AcDbEntity
  8
BEM
100
AcDbText
 10
1764.818307012393
 20
1132.687690016558
 30
0.0
 40
2.5
  1

 50
90.0
  7
GREEKS
100
AcDbText
  0
TEXT
  5
2936
330
20
100
AcDbEntity
  8
VOLL
100
AcDbText
 10
1785.001567669428
 20
1118.621496996836
 30
0.0
 40
1.8
  1

 50
90.0
  7
GREEKS
100
AcDbText
  0
TEXT
  5
2937
330
20
100
AcDbEntity
  8
BEM
100
AcDbText
 10
1780.275843346207
 20
1153.109561836121
 30
0.0
 40
2.5
  1

 50
90.0
 41
0.8
  7
GREEKS
100
AcDbText
  0
TEXT
  5
2938
330
20
100
AcDbEntity
  8
BEM
100
AcDbText
 10
1784.96961190026
 20
1153.109561836121
 30
0.0
 40
2.5
  1

 50
90.0
 41
0.8
  7
GREEKS
100
AcDbText
  0
TEXT
  5
2939
330
20
100
AcDbEntity
  8
BEM
100
AcDbText
 10
1790.207455718923
 20
1153.109561836121
 30
0.0
 40
2.5
  1

 50
90.0
 41
0.8
  7
GREEKS
100
AcDbText
  0
TEXT
  5
293A
330
20
100
AcDbEntity
  8
BEM
100
AcDbText
 10
1794.712644669021
 20
1153.036617358747
 30
0.0
 40
1.8
  1

 50
90.0
 41
0.8
  7
GREEKS
100
AcDbText
  0
TEXT
  5
293B
330
20
100
AcDbEntity
  8
BEM
100
AcDbText
 10
1769.121055572795
 20
1140.353046479136
 30
0.0
 40
2.0
  1

 50
90.0
 41
0.8
  7
GREEKS
 72
     1
 11
1769.121055572795
 21
1140.353046479136
 31
0.0
100
AcDbText
  0
TEXT
  5
293C
330
20
100
AcDbEntity
  8
TEXT
100
AcDbText
 10
1779.443332136202
 20
1450.453765200429
 30
0.0
 40
2.5
  1
  
 50
90.0
  7
GREEKS
 72
     1
 11
1779.443332136202
 21
1452.715669962334
 31
0.0
100
AcDbText
  0
TEXT
  5
293D
330
20
100
AcDbEntity
  8
BEM
100
AcDbText
 10
1643.8844501058
 20
1694.573482512912
 30
0.0
 40
2.5
  1
 
 50
90.0
 72
     4
 11
1643.8844501058
 21
1695.704434893864
 31
0.0
100
AcDbText
  0
TEXT
  5
293E
330
20
100
AcDbEntity
  8
VOLL
100
AcDbText
 10
1799.853094333476
 20
1294.923653190019
 30
0.0
 40
1.8
  1

 50
90.0
  7
GREEKS
100
AcDbText
  0
TEXT
  5
293F
330
20
100
AcDbEntity
  8
VOLL
100
AcDbText
 10
1794.560977617756
 20
1384.589827115693
 30
0.0
 40
1.8
  1

 50
90.0
  7
GREEKS
100
AcDbText
  0
TEXT
  5
2940
330
20
100
AcDbEntity
  8
TEXT
100
AcDbText
 10
1789.002742084531
 20
1716.422095319285
 30
0.0
 40
2.5
  1
  
 50
90.0
  7
GREEKS
 72
     1
 11
1789.002742084531
 21
1718.68400008119
 31
0.0
100
AcDbText
  0
TEXT
  5
2941
330
20
100
AcDbEntity
  8
BEM
100
AcDbText
 10
1653.443860054129
 20
1960.541812631768
 30
0.0
 40
2.5
  1
 
 50
90.0
 72
     4
 11
1653.443860054129
 21
1961.67276501272
 31
0.0
100
AcDbText
  0
TEXT
  5
2942
330
20
100
AcDbEntity
  8
BEM
100
AcDbText
 10
1770.924263426595
 20
1526.231156761617
 30
0.0
 40
2.5
  1

 50
90.0
  7
GREEKS
100
AcDbText
  0
TEXT
  5
2943
330
20
100
AcDbEntity
  8
VOLL
100
AcDbText
 10
1791.10752408363
 20
1512.164963741895
 30
0.0
 40
1.8
  1

 50
90.0
  7
GREEKS
100
AcDbText
  0
TEXT
  5
2944
330
20
100
AcDbEntity
  8
BEM
100
AcDbText
 10
1786.38179976041
 20
1546.65302858118
 30
0.0
 40
2.5
  1

 50
90.0
 41
0.8
  7
GREEKS
100
AcDbText
  0
TEXT
  5
2945
330
20
100
AcDbEntity
  8
BEM
100
AcDbText
 10
1791.075568314462
 20
1546.65302858118
 30
0.0
 40
2.5
  1

 50
90.0
 41
0.8
  7
GREEKS
100
AcDbText
  0
TEXT
  5
2946
330
20
100
AcDbEntity
  8
BEM
100
AcDbText
 10
1796.313412133125
 20
1546.65302858118
 30
0.0
 40
2.5
  1

 50
90.0
 41
0.8
  7
GREEKS
100
AcDbText
  0
TEXT
  5
2947
330
20
100
AcDbEntity
  8
BEM
100
AcDbText
 10
1800.818601083223
 20
1546.580084103806
 30
0.0
 40
1.8
  1

 50
90.0
 41
0.8
  7
GREEKS
100
AcDbText
  0
TEXT
  5
2948
330
20
100
AcDbEntity
  8
BEM
100
AcDbText
 10
1775.227011986998
 20
1533.896513224195
 30
0.0
 40
2.0
  1

 50
90.0
 41
0.8
  7
GREEKS
 72
     1
 11
1775.227011986998
 21
1533.896513224195
 31
0.0
100
AcDbText
  0
TEXT
  5
2949
330
20
100
AcDbEntity
  8
TEXT
100
AcDbText
 10
1785.549288550405
 20
1843.997231945489
 30
0.0
 40
2.5
  1
  
 50
90.0
  7
GREEKS
 72
     1
 11
1785.549288550405
 21
1846.259136707393
 31
0.0
100
AcDbText
  0
TEXT
  5
294A
330
20
100
AcDbEntity
  8
BEM
100
AcDbText
 10
1649.990406520003
 20
2088.116949257971
 30
0.0
 40
2.5
  1
 
 50
90.0
 72
     4
 11
1649.990406520003
 21
2089.247901638923
 31
0.0
100
AcDbText
  0
TEXT
  5
294B
330
20
100
AcDbEntity
  8
VOLL
100
AcDbText
 10
1822.802167225976
 20
1302.836967881803
 30
0.0
 40
1.8
  1

 50
90.0
  7
GREEKS
100
AcDbText
  0
TEXT
  5
294C
330
20
100
AcDbEntity
  8
VOLL
100
AcDbText
 10
1817.510050510257
 20
1392.503141807476
 30
0.0
 40
1.8
  1

 50
90.0
  7
GREEKS
100
AcDbText
  0
TEXT
  5
294D
330
20
100
AcDbEntity
  8
TEXT
100
AcDbText
 10
1811.951814977032
 20
1724.335410011069
 30
0.0
 40
2.5
  1
  
 50
90.0
  7
GREEKS
 72
     1
 11
1811.951814977032
 21
1726.597314772974
 31
0.0
100
AcDbText
  0
TEXT
  5
294E
330
20
100
AcDbEntity
  8
BEM
100
AcDbText
 10
1676.39293294663
 20
1968.455127323551
 30
0.0
 40
2.5
  1
 
 50
90.0
 72
     4
 11
1676.39293294663
 21
1969.586079704503
 31
0.0
100
AcDbText
  0
TEXT
  5
294F
330
20
100
AcDbEntity
  8
BEM
100
AcDbText
 10
1793.873336319096
 20
1534.1444714534
 30
0.0
 40
2.5
  1

 50
90.0
  7
GREEKS
100
AcDbText
  0
TEXT
  5
2950
330
20
100
AcDbEntity
  8
VOLL
100
AcDbText
 10
1814.056596976131
 20
1520.078278433679
 30
0.0
 40
1.8
  1

 50
90.0
  7
GREEKS
100
AcDbText
  0
TEXT
  5
2951
330
20
100
AcDbEntity
  8
BEM
100
AcDbText
 10
1809.33087265291
 20
1554.566343272963
 30
0.0
 40
2.5
  1

 50
90.0
 41
0.8
  7
GREEKS
100
AcDbText
  0
TEXT
  5
2952
330
20
100
AcDbEntity
  8
BEM
100
AcDbText
 10
1814.024641206963
 20
1554.566343272963
 30
0.0
 40
2.5
  1

 50
90.0
 41
0.8
  7
GREEKS
100
AcDbText
  0
TEXT
  5
2953
330
20
100
AcDbEntity
  8
BEM
100
AcDbText
 10
1819.262485025626
 20
1554.566343272963
 30
0.0
 40
2.5
  1

 50
90.0
 41
0.8
  7
GREEKS
100
AcDbText
  0
TEXT
  5
2954
330
20
100
AcDbEntity
  8
BEM
100
AcDbText
 10
1823.767673975724
 20
1554.493398795589
 30
0.0
 40
1.8
  1

 50
90.0
 41
0.8
  7
GREEKS
100
AcDbText
  0
TEXT
  5
2955
330
20
100
AcDbEntity
  8
BEM
100
AcDbText
 10
1798.176084879498
 20
1541.809827915978
 30
0.0
 40
2.0
  1

 50
90.0
 41
0.8
  7
GREEKS
 72
     1
 11
1798.176084879498
 21
1541.809827915978
 31
0.0
100
AcDbText
  0
TEXT
  5
2956
330
20
100
AcDbEntity
  8
TEXT
100
AcDbText
 10
1808.498361442905
 20
1851.910546637272
 30
0.0
 40
2.5
  1
  
 50
90.0
  7
GREEKS
 72
     1
 11
1808.498361442905
 21
1854.172451399177
 31
0.0
100
AcDbText
  0
TEXT
  5
2957
330
20
100
AcDbEntity
  8
BEM
100
AcDbText
 10
1672.939479412503
 20
2096.030263949754
 30
0.0
 40
2.5
  1
 
 50
90.0
 72
     4
 11
1672.939479412503
 21
2097.161216330706
 31
0.0
100
AcDbText
  0
TEXT
  5
2958
330
20
100
AcDbEntity
  8
VOLL
100
AcDbText
 10
1806.605082914142
 20
1444.795042828964
 30
0.0
 40
1.8
  1

 50
90.0
  7
GREEKS
100
AcDbText
  0
TEXT
  5
2959
330
20
100
AcDbEntity
  8
TEXT
100
AcDbText
 10
1801.046847380916
 20
1776.627311032557
 30
0.0
 40
2.5
  1
  
 50
90.0
  7
GREEKS
 72
     1
 11
1801.046847380916
 21
1778.889215794462
 31
0.0
100
AcDbText
  0
TEXT
  5
295A
330
20
100
AcDbEntity
  8
BEM
100
AcDbText
 10
1665.487965350514
 20
2020.747028345039
 30
0.0
 40
2.5
  1
 
 50
90.0
 72
     4
 11
1665.487965350514
 21
2021.877980725991
 31
0.0
100
AcDbText
  0
TEXT
  5
295B
330
20
100
AcDbEntity
  8
BEM
100
AcDbText
 10
1786.271672024465
 20
1599.93464498576
 30
0.0
 40
2.5
  1

 50
90.0
  7
GREEKS
100
AcDbText
  0
TEXT
  5
295C
330
20
100
AcDbEntity
  8
VOLL
100
AcDbText
 10
1806.4549326815
 20
1585.868451966039
 30
0.0
 40
1.8
  1

 50
90.0
  7
GREEKS
100
AcDbText
  0
TEXT
  5
295D
330
20
100
AcDbEntity
  8
BEM
100
AcDbText
 10
1801.72920835828
 20
1620.356516805323
 30
0.0
 40
2.5
  1

 50
90.0
 41
0.8
  7
GREEKS
100
AcDbText
  0
TEXT
  5
295E
330
20
100
AcDbEntity
  8
BEM
100
AcDbText
 10
1806.422976912332
 20
1620.356516805323
 30
0.0
 40
2.5
  1

 50
90.0
 41
0.8
  7
GREEKS
100
AcDbText
  0
TEXT
  5
295F
330
20
100
AcDbEntity
  8
BEM
100
AcDbText
 10
1811.660820730995
 20
1620.356516805323
 30
0.0
 40
2.5
  1

 50
90.0
 41
0.8
  7
GREEKS
100
AcDbText
  0
TEXT
  5
2960
330
20
100
AcDbEntity
  8
BEM
100
AcDbText
 10
1816.166009681093
 20
1620.283572327949
 30
0.0
 40
1.8
  1

 50
90.0
 41
0.8
  7
GREEKS
100
AcDbText
  0
TEXT
  5
2961
330
20
100
AcDbEntity
  8
BEM
100
AcDbText
 10
1790.574420584867
 20
1607.600001448338
 30
0.0
 40
2.0
  1

 50
90.0
 41
0.8
  7
GREEKS
 72
     1
 11
1790.574420584867
 21
1607.600001448338
 31
0.0
100
AcDbText
  0
TEXT
  5
2962
330
20
100
AcDbEntity
  8
TEXT
100
AcDbText
 10
1800.896697148275
 20
1917.700720169631
 30
0.0
 40
2.5
  1
  
 50
90.0
  7
GREEKS
 72
     1
 11
1800.896697148275
 21
1919.962624931536
 31
0.0
100
AcDbText
  0
TEXT
  5
2963
330
20
100
AcDbEntity
  8
BEM
100
AcDbText
 10
1665.337815117872
 20
2161.820437482114
 30
0.0
 40
2.5
  1
 
 50
90.0
 72
     4
 11
1665.337815117872
 21
2162.951389863066
 31
0.0
100
AcDbText
  0
TEXT
  5
2964
330
20
100
AcDbEntity
  8
VOLL
100
AcDbText
 10
1611.942853434336
 20
1075.41218314208
 30
0.0
 40
1.8
  1

 50
90.0
  7
GREEKS
100
AcDbText
  0
TEXT
  5
2965
330
20
100
AcDbEntity
  8
VOLL
100
AcDbText
 10
1606.650736718616
 20
1165.078357067753
 30
0.0
 40
1.8
  1

 50
90.0
  7
GREEKS
100
AcDbText
  0
TEXT
  5
2966
330
20
100
AcDbEntity
  8
TEXT
100
AcDbText
 10
1601.092501185391
 20
1496.910625271346
 30
0.0
 40
2.5
  1
  
 50
90.0
  7
GREEKS
 72
     1
 11
1601.092501185391
 21
1499.172530033251
 31
0.0
100
AcDbText
  0
TEXT
  5
2967
330
20
100
AcDbEntity
  8
BEM
100
AcDbText
 10
1465.533619154989
 20
1741.030342583828
 30
0.0
 40
2.5
  1
 
 50
90.0
 72
     4
 11
1465.533619154989
 21
1742.16129496478
 31
0.0
100
AcDbText
  0
TEXT
  5
2968
330
20
100
AcDbEntity
  8
BEM
100
AcDbText
 10
1583.014022527455
 20
1306.719686713678
 30
0.0
 40
2.5
  1

 50
90.0
  7
GREEKS
100
AcDbText
  0
TEXT
  5
2969
330
20
100
AcDbEntity
  8
VOLL
100
AcDbText
 10
1603.19728318449
 20
1292.653493693956
 30
0.0
 40
1.8
  1

 50
90.0
  7
GREEKS
100
AcDbText
  0
TEXT
  5
296A
330
20
100
AcDbEntity
  8
BEM
100
AcDbText
 10
1598.47155886127
 20
1327.141558533241
 30
0.0
 40
2.5
  1

 50
90.0
 41
0.8
  7
GREEKS
100
AcDbText
  0
TEXT
  5
296B
330
20
100
AcDbEntity
  8
BEM
100
AcDbText
 10
1603.165327415322
 20
1327.141558533241
 30
0.0
 40
2.5
  1

 50
90.0
 41
0.8
  7
GREEKS
100
AcDbText
  0
TEXT
  5
296C
330
20
100
AcDbEntity
  8
BEM
100
AcDbText
 10
1608.403171233985
 20
1327.141558533241
 30
0.0
 40
2.5
  1

 50
90.0
 41
0.8
  7
GREEKS
100
AcDbText
  0
TEXT
  5
296D
330
20
100
AcDbEntity
  8
BEM
100
AcDbText
 10
1612.908360184083
 20
1327.068614055866
 30
0.0
 40
1.8
  1

 50
90.0
 41
0.8
  7
GREEKS
100
AcDbText
  0
TEXT
  5
296E
330
20
100
AcDbEntity
  8
BEM
100
AcDbText
 10
1587.316771087858
 20
1314.385043176255
 30
0.0
 40
2.0
  1

 50
90.0
 41
0.8
  7
GREEKS
 72
     1
 11
1587.316771087858
 21
1314.385043176255
 31
0.0
100
AcDbText
  0
TEXT
  5
296F
330
20
100
AcDbEntity
  8
TEXT
100
AcDbText
 10
1597.639047651265
 20
1624.485761897549
 30
0.0
 40
2.5
  1
  
 50
90.0
  7
GREEKS
 72
     1
 11
1597.639047651265
 21
1626.747666659454
 31
0.0
100
AcDbText
  0
TEXT
  5
2970
330
20
100
AcDbEntity
  8
BEM
100
AcDbText
 10
1462.080165620862
 20
1868.605479210031
 30
0.0
 40
2.5
  1
 
 50
90.0
 72
     4
 11
1462.080165620862
 21
1869.736431590984
 31
0.0
100
AcDbText
  0
TEXT
  5
2971
330
20
100
AcDbEntity
  8
VOLL
100
AcDbText
 10
1595.745769122501
 20
1217.370258089241
 30
0.0
 40
1.8
  1

 50
90.0
  7
GREEKS
100
AcDbText
  0
TEXT
  5
2972
330
20
100
AcDbEntity
  8
TEXT
100
AcDbText
 10
1590.187533589276
 20
1549.202526292834
 30
0.0
 40
2.5
  1
  
 50
90.0
  7
GREEKS
 72
     1
 11
1590.187533589276
 21
1551.464431054739
 31
0.0
100
AcDbText
  0
TEXT
  5
2973
330
20
100
AcDbEntity
  8
BEM
100
AcDbText
 10
1454.628651558873
 20
1793.322243605316
 30
0.0
 40
2.5
  1
 
 50
90.0
 72
     4
 11
1454.628651558873
 21
1794.453195986269
 31
0.0
100
AcDbText
  0
TEXT
  5
2974
330
20
100
AcDbEntity
  8
BEM
100
AcDbText
 10
1575.412358232824
 20
1372.509860246037
 30
0.0
 40
2.5
  1

 50
90.0
  7
GREEKS
100
AcDbText
  0
TEXT
  5
2975
330
20
100
AcDbEntity
  8
VOLL
100
AcDbText
 10
1595.59561888986
 20
1358.443667226316
 30
0.0
 40
1.8
  1

 50
90.0
  7
GREEKS
100
AcDbText
  0
TEXT
  5
2976
330
20
100
AcDbEntity
  8
BEM
100
AcDbText
 10
1590.869894566639
 20
1392.9317320656
 30
0.0
 40
2.5
  1

 50
90.0
 41
0.8
  7
GREEKS
100
AcDbText
  0
TEXT
  5
2977
330
20
100
AcDbEntity
  8
BEM
100
AcDbText
 10
1595.563663120691
 20
1392.9317320656
 30
0.0
 40
2.5
  1

 50
90.0
 41
0.8
  7
GREEKS
100
AcDbText
  0
TEXT
  5
2978
330
20
100
AcDbEntity
  8
BEM
100
AcDbText
 10
1600.801506939355
 20
1392.9317320656
 30
0.0
 40
2.5
  1

 50
90.0
 41
0.8
  7
GREEKS
100
AcDbText
  0
TEXT
  5
2979
330
20
100
AcDbEntity
  8
BEM
100
AcDbText
 10
1605.306695889452
 20
1392.858787588226
 30
0.0
 40
1.8
  1

 50
90.0
 41
0.8
  7
GREEKS
100
AcDbText
  0
TEXT
  5
297A
330
20
100
AcDbEntity
  8
BEM
100
AcDbText
 10
1579.715106793227
 20
1380.175216708615
 30
0.0
 40
2.0
  1

 50
90.0
 41
0.8
  7
GREEKS
 72
     1
 11
1579.715106793227
 21
1380.175216708615
 31
0.0
100
AcDbText
  0
TEXT
  5
297B
330
20
100
AcDbEntity
  8
TEXT
100
AcDbText
 10
1590.037383356634
 20
1690.275935429908
 30
0.0
 40
2.5
  1
  
 50
90.0
  7
GREEKS
 72
     1
 11
1590.037383356634
 21
1692.537840191813
 31
0.0
100
AcDbText
  0
TEXT
  5
297C
330
20
100
AcDbEntity
  8
BEM
100
AcDbText
 10
1454.478501326232
 20
1934.395652742391
 30
0.0
 40
2.5
  1
 
 50
90.0
 72
     4
 11
1454.478501326232
 21
1935.526605123343
 31
0.0
100
AcDbText
  0
TEXT
  5
297D
330
20
100
AcDbEntity
  8
VOLL
100
AcDbText
 10
1607.561478648249
 20
1153.348046662485
 30
0.0
 40
1.8
  1

 50
90.0
  7
GREEKS
100
AcDbText
  0
TEXT
  5
297E
330
20
100
AcDbEntity
  8
TEXT
100
AcDbText
 10
1602.003243115024
 20
1485.180314866077
 30
0.0
 40
2.5
  1
  
 50
90.0
  7
GREEKS
 72
     1
 11
1602.003243115024
 21
1487.442219627983
 31
0.0
100
AcDbText
  0
TEXT
  5
297F
330
20
100
AcDbEntity
  8
BEM
100
AcDbText
 10
1466.444361084622
 20
1729.30003217856
 30
0.0
 40
2.5
  1
 
 50
90.0
 72
     4
 11
1466.444361084622
 21
1730.430984559512
 31
0.0
100
AcDbText
  0
TEXT
  5
2980
330
20
100
AcDbEntity
  8
BEM
100
AcDbText
 10
1567.408247949664
 20
1318.693659742135
 30
0.0
 40
2.5
  1

 50
90.0
  7
GREEKS
100
AcDbText
  0
TEXT
  5
2981
330
20
100
AcDbEntity
  8
VOLL
100
AcDbText
 10
1587.591508606699
 20
1304.627466722413
 30
0.0
 40
1.8
  1

 50
90.0
  7
GREEKS
100
AcDbText
  0
TEXT
  5
2982
330
20
100
AcDbEntity
  8
BEM
100
AcDbText
 10
1582.865784283479
 20
1339.115531561698
 30
0.0
 40
2.5
  1

 50
90.0
 41
0.8
  7
GREEKS
100
AcDbText
  0
TEXT
  5
2983
330
20
100
AcDbEntity
  8
BEM
100
AcDbText
 10
1587.559552837531
 20
1339.115531561698
 30
0.0
 40
2.5
  1

 50
90.0
 41
0.8
  7
GREEKS
100
AcDbText
  0
TEXT
  5
2984
330
20
100
AcDbEntity
  8
BEM
100
AcDbText
 10
1592.797396656194
 20
1339.115531561698
 30
0.0
 40
2.5
  1

 50
90.0
 41
0.8
  7
GREEKS
100
AcDbText
  0
TEXT
  5
2985
330
20
100
AcDbEntity
  8
BEM
100
AcDbText
 10
1597.302585606292
 20
1339.042587084324
 30
0.0
 40
1.8
  1

 50
90.0
 41
0.8
  7
GREEKS
100
AcDbText
  0
TEXT
  5
2986
330
20
100
AcDbEntity
  8
BEM
100
AcDbText
 10
1571.710996510066
 20
1326.359016204712
 30
0.0
 40
2.0
  1

 50
90.0
 41
0.8
  7
GREEKS
 72
     1
 11
1571.710996510066
 21
1326.359016204712
 31
0.0
100
AcDbText
  0
TEXT
  5
2987
330
20
100
AcDbEntity
  8
TEXT
100
AcDbText
 10
1582.033273073473
 20
1636.459734926006
 30
0.0
 40
2.5
  1
  
 50
90.0
  7
GREEKS
 72
     1
 11
1582.033273073473
 21
1638.721639687911
 31
0.0
100
AcDbText
  0
TEXT
  5
2988
330
20
100
AcDbEntity
  8
BEM
100
AcDbText
 10
1446.474391043071
 20
1880.579452238488
 30
0.0
 40
2.5
  1
 
 50
90.0
 72
     4
 11
1446.474391043071
 21
1881.710404619441
 31
0.0
100
AcDbText
  0
TEXT
  5
2989
330
20
100
AcDbEntity
  8
VOLL
100
AcDbText
 10
1623.756943568022
 20
936.7051119265182
 30
0.0
 40
1.8
  1

 50
90.0
  7
GREEKS
100
AcDbText
  0
TEXT
  5
298A
330
20
100
AcDbEntity
  8
TEXT
100
AcDbText
 10
1618.198708034796
 20
1268.537380130111
 30
0.0
 40
2.5
  1
  
 50
90.0
  7
GREEKS
 72
     1
 11
1618.198708034796
 21
1270.799284892016
 31
0.0
100
AcDbText
  0
TEXT
  5
298B
330
20
100
AcDbEntity
  8
BEM
100
AcDbText
 10
1482.639826004394
 20
1512.657097442593
 30
0.0
 40
2.5
  1
 
 50
90.0
 72
     4
 11
1482.639826004394
 21
1513.788049823545
 31
0.0
100
AcDbText
  0
TEXT
  5
298C
330
20
100
AcDbEntity
  8
VOLL
100
AcDbText
 10
1618.20138793295
 20
1094.239829003679
 30
0.0
 40
1.8
  1

 50
90.0
  7
GREEKS
100
AcDbText
  0
TEXT
  5
298D
330
20
100
AcDbEntity
  8
BEM
100
AcDbText
 10
1613.47566360973
 20
1128.727893842964
 30
0.0
 40
2.5
  1

 50
90.0
 41
0.8
  7
GREEKS
100
AcDbText
  0
TEXT
  5
298E
330
20
100
AcDbEntity
  8
BEM
100
AcDbText
 10
1618.169432163782
 20
1128.727893842964
 30
0.0
 40
2.5
  1

 50
90.0
 41
0.8
  7
GREEKS
100
AcDbText
  0
TEXT
  5
298F
330
20
100
AcDbEntity
  8
BEM
100
AcDbText
 10
1623.407275982446
 20
1128.727893842964
 30
0.0
 40
2.5
  1

 50
90.0
 41
0.8
  7
GREEKS
100
AcDbText
  0
TEXT
  5
2990
330
20
100
AcDbEntity
  8
BEM
100
AcDbText
 10
1627.912464932543
 20
1128.65494936559
 30
0.0
 40
1.8
  1

 50
90.0
 41
0.8
  7
GREEKS
100
AcDbText
  0
TEXT
  5
2991
330
20
100
AcDbEntity
  8
TEXT
100
AcDbText
 10
1612.643152399725
 20
1426.072097207273
 30
0.0
 40
2.5
  1
  
 50
90.0
  7
GREEKS
 72
     1
 11
1612.643152399725
 21
1428.334001969177
 31
0.0
100
AcDbText
  0
TEXT
  5
2992
330
20
100
AcDbEntity
  8
BEM
100
AcDbText
 10
1477.084270369323
 20
1670.191814519754
 30
0.0
 40
2.5
  1
 
 50
90.0
 72
     4
 11
1477.084270369323
 21
1671.322766900707
 31
0.0
100
AcDbText
  0
TEXT
  5
2993
330
20
100
AcDbEntity
  8
VOLL
100
AcDbText
 10
1841.253272102379
 20
879.1189762575465
 30
0.0
 40
1.8
  1

 50
90.0
  7
GREEKS
100
AcDbText
  0
TEXT
  5
2994
330
20
100
AcDbEntity
  8
VOLL
100
AcDbText
 10
1835.96115538666
 20
968.7851501832197
 30
0.0
 40
1.8
  1

 50
90.0
  7
GREEKS
100
AcDbText
  0
TEXT
  5
2995
330
20
100
AcDbEntity
  8
TEXT
100
AcDbText
 10
1830.402919853434
 20
1300.617418386813
 30
0.0
 40
2.5
  1
  
 50
90.0
  7
GREEKS
 72
     1
 11
1830.402919853434
 21
1302.879323148717
 31
0.0
100
AcDbText
  0
TEXT
  5
2996
330
20
100
AcDbEntity
  8
BEM
100
AcDbText
 10
1694.844037823032
 20
1544.737135699295
 30
0.0
 40
2.5
  1
 
 50
90.0
 72
     4
 11
1694.844037823032
 21
1545.868088080247
 31
0.0
100
AcDbText
  0
TEXT
  5
2997
330
20
100
AcDbEntity
  8
BEM
100
AcDbText
 10
1812.324441195498
 20
1110.426479829144
 30
0.0
 40
2.5
  1

 50
90.0
  7
GREEKS
100
AcDbText
  0
TEXT
  5
2998
330
20
100
AcDbEntity
  8
VOLL
100
AcDbText
 10
1832.507701852533
 20
1096.360286809422
 30
0.0
 40
1.8
  1

 50
90.0
  7
GREEKS
100
AcDbText
  0
TEXT
  5
2999
330
20
100
AcDbEntity
  8
BEM
100
AcDbText
 10
1827.781977529313
 20
1130.848351648707
 30
0.0
 40
2.5
  1

 50
90.0
 41
0.8
  7
GREEKS
100
AcDbText
  0
TEXT
  5
299A
330
20
100
AcDbEntity
  8
BEM
100
AcDbText
 10
1832.475746083365
 20
1130.848351648707
 30
0.0
 40
2.5
  1

 50
90.0
 41
0.8
  7
GREEKS
100
AcDbText
  0
TEXT
  5
299B
330
20
100
AcDbEntity
  8
BEM
100
AcDbText
 10
1837.713589902028
 20
1130.848351648707
 30
0.0
 40
2.5
  1

 50
90.0
 41
0.8
  7
GREEKS
100
AcDbText
  0
TEXT
  5
299C
330
20
100
AcDbEntity
  8
BEM
100
AcDbText
 10
1842.218778852126
 20
1130.775407171333
 30
0.0
 40
1.8
  1

 50
90.0
 41
0.8
  7
GREEKS
100
AcDbText
  0
TEXT
  5
299D
330
20
100
AcDbEntity
  8
BEM
100
AcDbText
 10
1816.627189755901
 20
1118.091836291722
 30
0.0
 40
2.0
  1

 50
90.0
 41
0.8
  7
GREEKS
 72
     1
 11
1816.627189755901
 21
1118.091836291722
 31
0.0
100
AcDbText
  0
TEXT
  5
299E
330
20
100
AcDbEntity
  8
TEXT
100
AcDbText
 10
1826.949466319308
 20
1428.192555013015
 30
0.0
 40
2.5
  1
  
 50
90.0
  7
GREEKS
 72
     1
 11
1826.949466319308
 21
1430.45445977492
 31
0.0
100
AcDbText
  0
TEXT
  5
299F
330
20
100
AcDbEntity
  8
BEM
100
AcDbText
 10
1691.390584288906
 20
1672.312272325498
 30
0.0
 40
2.5
  1
 
 50
90.0
 72
     4
 11
1691.390584288906
 21
1673.44322470645
 31
0.0
100
AcDbText
  0
TEXT
  5
29A0
330
20
100
AcDbEntity
  8
VOLL
100
AcDbText
 10
1825.056187790545
 20
1021.077051204708
 30
0.0
 40
1.8
  1

 50
90.0
  7
GREEKS
100
AcDbText
  0
TEXT
  5
29A1
330
20
100
AcDbEntity
  8
TEXT
100
AcDbText
 10
1819.497952257319
 20
1352.909319408301
 30
0.0
 40
2.5
  1
  
 50
90.0
  7
GREEKS
 72
     1
 11
1819.497952257319
 21
1355.171224170206
 31
0.0
100
AcDbText
  0
TEXT
  5
29A2
330
20
100
AcDbEntity
  8
BEM
100
AcDbText
 10
1683.939070226917
 20
1597.029036720783
 30
0.0
 40
2.5
  1
 
 50
90.0
 72
     4
 11
1683.939070226917
 21
1598.159989101735
 31
0.0
100
AcDbText
  0
TEXT
  5
29A3
330
20
100
AcDbEntity
  8
BEM
100
AcDbText
 10
1804.722776900868
 20
1176.216653361504
 30
0.0
 40
2.5
  1

 50
90.0
  7
GREEKS
100
AcDbText
  0
TEXT
  5
29A4
330
20
100
AcDbEntity
  8
VOLL
100
AcDbText
 10
1824.906037557903
 20
1162.150460341782
 30
0.0
 40
1.8
  1

 50
90.0
  7
GREEKS
100
AcDbText
  0
TEXT
  5
29A5
330
20
100
AcDbEntity
  8
BEM
100
AcDbText
 10
1820.180313234682
 20
1196.638525181067
 30
0.0
 40
2.5
  1

 50
90.0
 41
0.8
  7
GREEKS
100
AcDbText
  0
TEXT
  5
29A6
330
20
100
AcDbEntity
  8
BEM
100
AcDbText
 10
1824.874081788735
 20
1196.638525181067
 30
0.0
 40
2.5
  1

 50
90.0
 41
0.8
  7
GREEKS
100
AcDbText
  0
TEXT
  5
29A7
330
20
100
AcDbEntity
  8
BEM
100
AcDbText
 10
1830.111925607398
 20
1196.638525181067
 30
0.0
 40
2.5
  1

 50
90.0
 41
0.8
  7
GREEKS
100
AcDbText
  0
TEXT
  5
29A8
330
20
100
AcDbEntity
  8
BEM
100
AcDbText
 10
1834.617114557496
 20
1196.565580703692
 30
0.0
 40
1.8
  1

 50
90.0
 41
0.8
  7
GREEKS
100
AcDbText
  0
TEXT
  5
29A9
330
20
100
AcDbEntity
  8
BEM
100
AcDbText
 10
1809.025525461271
 20
1183.882009824081
 30
0.0
 40
2.0
  1

 50
90.0
 41
0.8
  7
GREEKS
 72
     1
 11
1809.025525461271
 21
1183.882009824081
 31
0.0
100
AcDbText
  0
TEXT
  5
29AA
330
20
100
AcDbEntity
  8
TEXT
100
AcDbText
 10
1819.347802024677
 20
1493.982728545375
 30
0.0
 40
2.5
  1
  
 50
90.0
  7
GREEKS
 72
     1
 11
1819.347802024677
 21
1496.24463330728
 31
0.0
100
AcDbText
  0
TEXT
  5
29AB
330
20
100
AcDbEntity
  8
BEM
100
AcDbText
 10
1683.788919994275
 20
1738.102445857857
 30
0.0
 40
2.5
  1
 
 50
90.0
 72
     4
 11
1683.788919994275
 21
1739.23339823881
 31
0.0
100
AcDbText
  0
TEXT
  5
29AC
330
20
100
AcDbEntity
  8
VOLL
100
AcDbText
 10
1836.871897316293
 20
957.0548397779514
 30
0.0
 40
1.8
  1

 50
90.0
  7
GREEKS
100
AcDbText
  0
TEXT
  5
29AD
330
20
100
AcDbEntity
  8
TEXT
100
AcDbText
 10
1831.313661783067
 20
1288.887107981544
 30
0.0
 40
2.5
  1
  
 50
90.0
  7
GREEKS
 72
     1
 11
1831.313661783067
 21
1291.149012743449
 31
0.0
100
AcDbText
  0
TEXT
  5
29AE
330
20
100
AcDbEntity
  8
BEM
100
AcDbText
 10
1695.754779752665
 20
1533.006825294027
 30
0.0
 40
2.5
  1
 
 50
90.0
 72
     4
 11
1695.754779752665
 21
1534.137777674979
 31
0.0
100
AcDbText
  0
TEXT
  5
29AF
330
20
100
AcDbEntity
  8
BEM
100
AcDbText
 10
1796.718666617707
 20
1122.400452857601
 30
0.0
 40
2.5
  1

 50
90.0
  7
GREEKS
100
AcDbText
  0
TEXT
  5
29B0
330
20
100
AcDbEntity
  8
VOLL
100
AcDbText
 10
1816.901927274742
 20
1108.33425983788
 30
0.0
 40
1.8
  1

 50
90.0
  7
GREEKS
100
AcDbText
  0
TEXT
  5
29B1
330
20
100
AcDbEntity
  8
BEM
100
AcDbText
 10
1812.176202951522
 20
1142.822324677164
 30
0.0
 40
2.5
  1

 50
90.0
 41
0.8
  7
GREEKS
100
AcDbText
  0
TEXT
  5
29B2
330
20
100
AcDbEntity
  8
BEM
100
AcDbText
 10
1816.869971505574
 20
1142.822324677164
 30
0.0
 40
2.5
  1

 50
90.0
 41
0.8
  7
GREEKS
100
AcDbText
  0
TEXT
  5
29B3
330
20
100
AcDbEntity
  8
BEM
100
AcDbText
 10
1822.107815324237
 20
1142.822324677164
 30
0.0
 40
2.5
  1

 50
90.0
 41
0.8
  7
GREEKS
100
AcDbText
  0
TEXT
  5
29B4
330
20
100
AcDbEntity
  8
BEM
100
AcDbText
 10
1826.613004274335
 20
1142.74938019979
 30
0.0
 40
1.8
  1

 50
90.0
 41
0.8
  7
GREEKS
100
AcDbText
  0
TEXT
  5
29B5
330
20
100
AcDbEntity
  8
BEM
100
AcDbText
 10
1801.021415178109
 20
1130.065809320179
 30
0.0
 40
2.0
  1

 50
90.0
 41
0.8
  7
GREEKS
 72
     1
 11
1801.021415178109
 21
1130.065809320179
 31
0.0
100
AcDbText
  0
TEXT
  5
29B6
330
20
100
AcDbEntity
  8
TEXT
100
AcDbText
 10
1811.343691741517
 20
1440.166528041473
 30
0.0
 40
2.5
  1
  
 50
90.0
  7
GREEKS
 72
     1
 11
1811.343691741517
 21
1442.428432803378
 31
0.0
100
AcDbText
  0
TEXT
  5
29B7
330
20
100
AcDbEntity
  8
BEM
100
AcDbText
 10
1675.784809711115
 20
1684.286245353955
 30
0.0
 40
2.5
  1
 
 50
90.0
 72
     4
 11
1675.784809711115
 21
1685.417197734907
 31
0.0
100
AcDbText
  0
TEXT
  5
29B8
330
20
100
AcDbEntity
  8
VOLL
100
AcDbText
 10
1831.75345393879
 20
1284.636416031063
 30
0.0
 40
1.8
  1

 50
90.0
  7
GREEKS
100
AcDbText
  0
TEXT
  5
29B9
330
20
100
AcDbEntity
  8
VOLL
100
AcDbText
 10
1826.461337223071
 20
1374.302589956736
 30
0.0
 40
1.8
  1

 50
90.0
  7
GREEKS
100
AcDbText
  0
TEXT
  5
29BA
330
20
100
AcDbEntity
  8
TEXT
100
AcDbText
 10
1820.903101689846
 20
1706.134858160329
 30
0.0
 40
2.5
  1
  
 50
90.0
  7
GREEKS
 72
     1
 11
1820.903101689846
 21
1708.396762922233
 31
0.0
100
AcDbText
  0
TEXT
  5
29BB
330
20
100
AcDbEntity
  8
BEM
100
AcDbText
 10
1685.344219659443
 20
1950.254575472811
 30
0.0
 40
2.5
  1
 
 50
90.0
 72
     4
 11
1685.344219659443
 21
1951.385527853763
 31
0.0
100
AcDbText
  0
TEXT
  5
29BC
330
20
100
AcDbEntity
  8
BEM
100
AcDbText
 10
1802.824623031909
 20
1515.94391960266
 30
0.0
 40
2.5
  1

 50
90.0
  7
GREEKS
100
AcDbText
  0
TEXT
  5
29BD
330
20
100
AcDbEntity
  8
VOLL
100
AcDbText
 10
1823.007883688944
 20
1501.877726582939
 30
0.0
 40
1.8
  1

 50
90.0
  7
GREEKS
100
AcDbText
  0
TEXT
  5
29BE
330
20
100
AcDbEntity
  8
BEM
100
AcDbText
 10
1818.282159365724
 20
1536.365791422223
 30
0.0
 40
2.5
  1

 50
90.0
 41
0.8
  7
GREEKS
100
AcDbText
  0
TEXT
  5
29BF
330
20
100
AcDbEntity
  8
BEM
100
AcDbText
 10
1822.975927919776
 20
1536.365791422223
 30
0.0
 40
2.5
  1

 50
90.0
 41
0.8
  7
GREEKS
100
AcDbText
  0
TEXT
  5
29C0
330
20
100
AcDbEntity
  8
BEM
100
AcDbText
 10
1828.21377173844
 20
1536.365791422223
 30
0.0
 40
2.5
  1

 50
90.0
 41
0.8
  7
GREEKS
100
AcDbText
  0
TEXT
  5
29C1
330
20
100
AcDbEntity
  8
BEM
100
AcDbText
 10
1832.718960688537
 20
1536.292846944849
 30
0.0
 40
1.8
  1

 50
90.0
 41
0.8
  7
GREEKS
100
AcDbText
  0
TEXT
  5
29C2
330
20
100
AcDbEntity
  8
BEM
100
AcDbText
 10
1807.127371592312
 20
1523.609276065238
 30
0.0
 40
2.0
  1

 50
90.0
 41
0.8
  7
GREEKS
 72
     1
 11
1807.127371592312
 21
1523.609276065238
 31
0.0
100
AcDbText
  0
TEXT
  5
29C3
330
20
100
AcDbEntity
  8
TEXT
100
AcDbText
 10
1817.449648155719
 20
1833.709994786532
 30
0.0
 40
2.5
  1
  
 50
90.0
  7
GREEKS
 72
     1
 11
1817.449648155719
 21
1835.971899548437
 31
0.0
100
AcDbText
  0
TEXT
  5
29C4
330
20
100
AcDbEntity
  8
BEM
100
AcDbText
 10
1681.890766125317
 20
2077.829712099014
 30
0.0
 40
2.5
  1
 
 50
90.0
 72
     4
 11
1681.890766125317
 21
2078.960664479966
 31
0.0
100
AcDbText
  0
TEXT
  5
29C5
330
20
100
AcDbEntity
  8
VOLL
100
AcDbText
 10
1854.702526831291
 20
1292.549730722846
 30
0.0
 40
1.8
  1

 50
90.0
  7
GREEKS
100
AcDbText
  0
TEXT
  5
29C6
330
20
100
AcDbEntity
  8
VOLL
100
AcDbText
 10
1849.410410115572
 20
1382.215904648519
 30
0.0
 40
1.8
  1

 50
90.0
  7
GREEKS
100
AcDbText
  0
TEXT
  5
29C7
330
20
100
AcDbEntity
  8
TEXT
100
AcDbText
 10
1843.852174582346
 20
1714.048172852112
 30
0.0
 40
2.5
  1
  
 50
90.0
  7
GREEKS
 72
     1
 11
1843.852174582346
 21
1716.310077614017
 31
0.0
100
AcDbText
  0
TEXT
  5
29C8
330
20
100
AcDbEntity
  8
BEM
100
AcDbText
 10
1708.293292551944
 20
1958.167890164594
 30
0.0
 40
2.5
  1
 
 50
90.0
 72
     4
 11
1708.293292551944
 21
1959.298842545546
 31
0.0
100
AcDbText
  0
TEXT
  5
29C9
330
20
100
AcDbEntity
  8
BEM
100
AcDbText
 10
1825.77369592441
 20
1523.857234294444
 30
0.0
 40
2.5
  1

 50
90.0
  7
GREEKS
100
AcDbText
  0
TEXT
  5
29CA
330
20
100
AcDbEntity
  8
VOLL
100
AcDbText
 10
1845.956956581445
 20
1509.791041274722
 30
0.0
 40
1.8
  1

 50
90.0
  7
GREEKS
100
AcDbText
  0
TEXT
  5
29CB
330
20
100
AcDbEntity
  8
BEM
100
AcDbText
 10
1841.231232258225
 20
1544.279106114007
 30
0.0
 40
2.5
  1

 50
90.0
 41
0.8
  7
GREEKS
100
AcDbText
  0
TEXT
  5
29CC
330
20
100
AcDbEntity
  8
BEM
100
AcDbText
 10
1845.925000812277
 20
1544.279106114007
 30
0.0
 40
2.5
  1

 50
90.0
 41
0.8
  7
GREEKS
100
AcDbText
  0
TEXT
  5
29CD
330
20
100
AcDbEntity
  8
BEM
100
AcDbText
 10
1851.16284463094
 20
1544.279106114007
 30
0.0
 40
2.5
  1

 50
90.0
 41
0.8
  7
GREEKS
100
AcDbText
  0
TEXT
  5
29CE
330
20
100
AcDbEntity
  8
BEM
100
AcDbText
 10
1855.668033581038
 20
1544.206161636632
 30
0.0
 40
1.8
  1

 50
90.0
 41
0.8
  7
GREEKS
100
AcDbText
  0
TEXT
  5
29CF
330
20
100
AcDbEntity
  8
BEM
100
AcDbText
 10
1830.076444484813
 20
1531.522590757021
 30
0.0
 40
2.0
  1

 50
90.0
 41
0.8
  7
GREEKS
 72
     1
 11
1830.076444484813
 21
1531.522590757021
 31
0.0
100
AcDbText
  0
TEXT
  5
29D0
330
20
100
AcDbEntity
  8
TEXT
100
AcDbText
 10
1840.39872104822
 20
1841.623309478315
 30
0.0
 40
2.5
  1
  
 50
90.0
  7
GREEKS
 72
     1
 11
1840.39872104822
 21
1843.88521424022
 31
0.0
100
AcDbText
  0
TEXT
  5
29D1
330
20
100
AcDbEntity
  8
BEM
100
AcDbText
 10
1704.839839017818
 20
2085.743026790797
 30
0.0
 40
2.5
  1
 
 50
90.0
 72
     4
 11
1704.839839017818
 21
2086.87397917175
 31
0.0
100
AcDbText
  0
TEXT
  5
29D2
330
20
100
AcDbEntity
  8
VOLL
100
AcDbText
 10
1838.505442519456
 20
1434.507805670007
 30
0.0
 40
1.8
  1

 50
90.0
  7
GREEKS
100
AcDbText
  0
TEXT
  5
29D3
330
20
100
AcDbEntity
  8
TEXT
100
AcDbText
 10
1832.947206986231
 20
1766.3400738736
 30
0.0
 40
2.5
  1
  
 50
90.0
  7
GREEKS
 72
     1
 11
1832.947206986231
 21
1768.601978635505
 31
0.0
100
AcDbText
  0
TEXT
  5
29D4
330
20
100
AcDbEntity
  8
BEM
100
AcDbText
 10
1697.388324955828
 20
2010.459791186082
 30
0.0
 40
2.5
  1
 
 50
90.0
 72
     4
 11
1697.388324955828
 21
2011.590743567035
 31
0.0
100
AcDbText
  0
TEXT
  5
29D5
330
20
100
AcDbEntity
  8
BEM
100
AcDbText
 10
1818.172031629779
 20
1589.647407826803
 30
0.0
 40
2.5
  1

 50
90.0
  7
GREEKS
100
AcDbText
  0
TEXT
  5
29D6
330
20
100
AcDbEntity
  8
VOLL
100
AcDbText
 10
1838.355292286815
 20
1575.581214807082
 30
0.0
 40
1.8
  1

 50
90.0
  7
GREEKS
100
AcDbText
  0
TEXT
  5
29D7
330
20
100
AcDbEntity
  8
BEM
100
AcDbText
 10
1833.629567963594
 20
1610.069279646366
 30
0.0
 40
2.5
  1

 50
90.0
 41
0.8
  7
GREEKS
100
AcDbText
  0
TEXT
  5
29D8
330
20
100
AcDbEntity
  8
BEM
100
AcDbText
 10
1838.323336517646
 20
1610.069279646366
 30
0.0
 40
2.5
  1

 50
90.0
 41
0.8
  7
GREEKS
100
AcDbText
  0
TEXT
  5
29D9
330
20
100
AcDbEntity
  8
BEM
100
AcDbText
 10
1843.56118033631
 20
1610.069279646366
 30
0.0
 40
2.5
  1

 50
90.0
 41
0.8
  7
GREEKS
100
AcDbText
  0
TEXT
  5
29DA
330
20
100
AcDbEntity
  8
BEM
100
AcDbText
 10
1848.066369286408
 20
1609.996335168992
 30
0.0
 40
1.8
  1

 50
90.0
 41
0.8
  7
GREEKS
100
AcDbText
  0
TEXT
  5
29DB
330
20
100
AcDbEntity
  8
BEM
100
AcDbText
 10
1822.474780190182
 20
1597.312764289381
 30
0.0
 40
2.0
  1

 50
90.0
 41
0.8
  7
GREEKS
 72
     1
 11
1822.474780190182
 21
1597.312764289381
 31
0.0
100
AcDbText
  0
TEXT
  5
29DC
330
20
100
AcDbEntity
  8
TEXT
100
AcDbText
 10
1832.797056753589
 20
1907.413483010675
 30
0.0
 40
2.5
  1
  
 50
90.0
  7
GREEKS
 72
     1
 11
1832.797056753589
 21
1909.67538777258
 31
0.0
100
AcDbText
  0
TEXT
  5
29DD
330
20
100
AcDbEntity
  8
BEM
100
AcDbText
 10
1697.238174723187
 20
2151.533200323157
 30
0.0
 40
2.5
  1
 
 50
90.0
 72
     4
 11
1697.238174723187
 21
2152.664152704109
 31
0.0
100
AcDbText
  0
TEXT
  5
29DE
330
20
100
AcDbEntity
  8
VOLL
100
AcDbText
 10
1643.84321303965
 20
1065.124945983123
 30
0.0
 40
1.8
  1

 50
90.0
  7
GREEKS
100
AcDbText
  0
TEXT
  5
29DF
330
20
100
AcDbEntity
  8
VOLL
100
AcDbText
 10
1638.551096323931
 20
1154.791119908796
 30
0.0
 40
1.8
  1

 50
90.0
  7
GREEKS
100
AcDbText
  0
TEXT
  5
29E0
330
20
100
AcDbEntity
  8
TEXT
100
AcDbText
 10
1632.992860790705
 20
1486.623388112389
 30
0.0
 40
2.5
  1
  
 50
90.0
  7
GREEKS
 72
     1
 11
1632.992860790705
 21
1488.885292874294
 31
0.0
100
AcDbText
  0
TEXT
  5
29E1
330
20
100
AcDbEntity
  8
BEM
100
AcDbText
 10
1497.433978760303
 20
1730.743105424871
 30
0.0
 40
2.5
  1
 
 50
90.0
 72
     4
 11
1497.433978760303
 21
1731.874057805823
 31
0.0
100
AcDbText
  0
TEXT
  5
29E2
330
20
100
AcDbEntity
  8
BEM
100
AcDbText
 10
1614.91438213277
 20
1296.432449554721
 30
0.0
 40
2.5
  1

 50
90.0
  7
GREEKS
100
AcDbText
  0
TEXT
  5
29E3
330
20
100
AcDbEntity
  8
VOLL
100
AcDbText
 10
1635.097642789804
 20
1282.366256535
 30
0.0
 40
1.8
  1

 50
90.0
  7
GREEKS
100
AcDbText
  0
TEXT
  5
29E4
330
20
100
AcDbEntity
  8
BEM
100
AcDbText
 10
1630.371918466584
 20
1316.854321374284
 30
0.0
 40
2.5
  1

 50
90.0
 41
0.8
  7
GREEKS
100
AcDbText
  0
TEXT
  5
29E5
330
20
100
AcDbEntity
  8
BEM
100
AcDbText
 10
1635.065687020636
 20
1316.854321374284
 30
0.0
 40
2.5
  1

 50
90.0
 41
0.8
  7
GREEKS
100
AcDbText
  0
TEXT
  5
29E6
330
20
100
AcDbEntity
  8
BEM
100
AcDbText
 10
1640.3035308393
 20
1316.854321374284
 30
0.0
 40
2.5
  1

 50
90.0
 41
0.8
  7
GREEKS
100
AcDbText
  0
TEXT
  5
29E7
330
20
100
AcDbEntity
  8
BEM
100
AcDbText
 10
1644.808719789397
 20
1316.78137689691
 30
0.0
 40
1.8
  1

 50
90.0
 41
0.8
  7
GREEKS
100
AcDbText
  0
TEXT
  5
29E8
330
20
100
AcDbEntity
  8
BEM
100
AcDbText
 10
1619.217130693172
 20
1304.097806017298
 30
0.0
 40
2.0
  1

 50
90.0
 41
0.8
  7
GREEKS
 72
     1
 11
1619.217130693172
 21
1304.097806017298
 31
0.0
100
AcDbText
  0
TEXT
  5
29E9
330
20
100
AcDbEntity
  8
TEXT
100
AcDbText
 10
1629.539407256579
 20
1614.198524738592
 30
0.0
 40
2.5
  1
  
 50
90.0
  7
GREEKS
 72
     1
 11
1629.539407256579
 21
1616.460429500497
 31
0.0
100
AcDbText
  0
TEXT
  5
29EA
330
20
100
AcDbEntity
  8
BEM
100
AcDbText
 10
1493.980525226177
 20
1858.318242051074
 30
0.0
 40
2.5
  1
 
 50
90.0
 72
     4
 11
1493.980525226177
 21
1859.449194432027
 31
0.0
100
AcDbText
  0
TEXT
  5
29EB
330
20
100
AcDbEntity
  8
VOLL
100
AcDbText
 10
1627.646128727815
 20
1207.083020930284
 30
0.0
 40
1.8
  1

 50
90.0
  7
GREEKS
100
AcDbText
  0
TEXT
  5
29EC
330
20
100
AcDbEntity
  8
TEXT
100
AcDbText
 10
1622.08789319459
 20
1538.915289133877
 30
0.0
 40
2.5
  1
  
 50
90.0
  7
GREEKS
 72
     1
 11
1622.08789319459
 21
1541.177193895782
 31
0.0
100
AcDbText
  0
TEXT
  5
29ED
330
20
100
AcDbEntity
  8
BEM
100
AcDbText
 10
1486.529011164188
 20
1783.035006446359
 30
0.0
 40
2.5
  1
 
 50
90.0
 72
     4
 11
1486.529011164188
 21
1784.165958827312
 31
0.0
100
AcDbText
  0
TEXT
  5
29EE
330
20
100
AcDbEntity
  8
BEM
100
AcDbText
 10
1607.312717838139
 20
1362.22262308708
 30
0.0
 40
2.5
  1

 50
90.0
  7
GREEKS
100
AcDbText
  0
TEXT
  5
29EF
330
20
100
AcDbEntity
  8
VOLL
100
AcDbText
 10
1627.495978495174
 20
1348.156430067359
 30
0.0
 40
1.8
  1

 50
90.0
  7
GREEKS
100
AcDbText
  0
TEXT
  5
29F0
330
20
100
AcDbEntity
  8
BEM
100
AcDbText
 10
1622.770254171953
 20
1382.644494906644
 30
0.0
 40
2.5
  1

 50
90.0
 41
0.8
  7
GREEKS
100
AcDbText
  0
TEXT
  5
29F1
330
20
100
AcDbEntity
  8
BEM
100
AcDbText
 10
1627.464022726005
 20
1382.644494906644
 30
0.0
 40
2.5
  1

 50
90.0
 41
0.8
  7
GREEKS
100
AcDbText
  0
TEXT
  5
29F2
330
20
100
AcDbEntity
  8
BEM
100
AcDbText
 10
1632.701866544669
 20
1382.644494906644
 30
0.0
 40
2.5
  1

 50
90.0
 41
0.8
  7
GREEKS
100
AcDbText
  0
TEXT
  5
29F3
330
20
100
AcDbEntity
  8
BEM
100
AcDbText
 10
1637.207055494767
 20
1382.571550429269
 30
0.0
 40
1.8
  1

 50
90.0
 41
0.8
  7
GREEKS
100
AcDbText
  0
TEXT
  5
29F4
330
20
100
AcDbEntity
  8
BEM
100
AcDbText
 10
1611.615466398541
 20
1369.887979549658
 30
0.0
 40
2.0
  1

 50
90.0
 41
0.8
  7
GREEKS
 72
     1
 11
1611.615466398541
 21
1369.887979549658
 31
0.0
100
AcDbText
  0
TEXT
  5
29F5
330
20
100
AcDbEntity
  8
TEXT
100
AcDbText
 10
1621.937742961948
 20
1679.988698270952
 30
0.0
 40
2.5
  1
  
 50
90.0
  7
GREEKS
 72
     1
 11
1621.937742961948
 21
1682.250603032857
 31
0.0
100
AcDbText
  0
TEXT
  5
29F6
330
20
100
AcDbEntity
  8
BEM
100
AcDbText
 10
1486.378860931546
 20
1924.108415583434
 30
0.0
 40
2.5
  1
 
 50
90.0
 72
     4
 11
1486.378860931546
 21
1925.239367964386
 31
0.0
100
AcDbText
  0
TEXT
  5
29F7
330
20
100
AcDbEntity
  8
VOLL
100
AcDbText
 10
1639.461838253564
 20
1143.060809503528
 30
0.0
 40
1.8
  1

 50
90.0
  7
GREEKS
100
AcDbText
  0
TEXT
  5
29F8
330
20
100
AcDbEntity
  8
TEXT
100
AcDbText
 10
1633.903602720338
 20
1474.893077707121
 30
0.0
 40
2.5
  1
  
 50
90.0
  7
GREEKS
 72
     1
 11
1633.903602720338
 21
1477.154982469026
 31
0.0
100
AcDbText
  0
TEXT
  5
29F9
330
20
100
AcDbEntity
  8
BEM
100
AcDbText
 10
1498.344720689936
 20
1719.012795019603
 30
0.0
 40
2.5
  1
 
 50
90.0
 72
     4
 11
1498.344720689936
 21
1720.143747400555
 31
0.0
100
AcDbText
  0
TEXT
  5
29FA
330
20
100
AcDbEntity
  8
BEM
100
AcDbText
 10
1599.308607554978
 20
1308.406422583178
 30
0.0
 40
2.5
  1

 50
90.0
  7
GREEKS
100
AcDbText
  0
TEXT
  5
29FB
330
20
100
AcDbEntity
  8
VOLL
100
AcDbText
 10
1619.491868212013
 20
1294.340229563456
 30
0.0
 40
1.8
  1

 50
90.0
  7
GREEKS
100
AcDbText
  0
TEXT
  5
29FC
330
20
100
AcDbEntity
  8
BEM
100
AcDbText
 10
1614.766143888793
 20
1328.828294402741
 30
0.0
 40
2.5
  1

 50
90.0
 41
0.8
  7
GREEKS
100
AcDbText
  0
TEXT
  5
29FD
330
20
100
AcDbEntity
  8
BEM
100
AcDbText
 10
1619.459912442845
 20
1328.828294402741
 30
0.0
 40
2.5
  1

 50
90.0
 41
0.8
  7
GREEKS
100
AcDbText
  0
TEXT
  5
29FE
330
20
100
AcDbEntity
  8
BEM
100
AcDbText
 10
1624.697756261508
 20
1328.828294402741
 30
0.0
 40
2.5
  1

 50
90.0
 41
0.8
  7
GREEKS
100
AcDbText
  0
TEXT
  5
29FF
330
20
100
AcDbEntity
  8
BEM
100
AcDbText
 10
1629.202945211606
 20
1328.755349925367
 30
0.0
 40
1.8
  1

 50
90.0
 41
0.8
  7
GREEKS
100
AcDbText
  0
TEXT
  5
2A00
330
20
100
AcDbEntity
  8
BEM
100
AcDbText
 10
1603.611356115381
 20
1316.071779045756
 30
0.0
 40
2.0
  1

 50
90.0
 41
0.8
  7
GREEKS
 72
     1
 11
1603.611356115381
 21
1316.071779045756
 31
0.0
100
AcDbText
  0
TEXT
  5
2A01
330
20
100
AcDbEntity
  8
TEXT
100
AcDbText
 10
1613.933632678788
 20
1626.17249776705
 30
0.0
 40
2.5
  1
  
 50
90.0
  7
GREEKS
 72
     1
 11
1613.933632678788
 21
1628.434402528954
 31
0.0
100
AcDbText
  0
TEXT
  5
2A02
330
20
100
AcDbEntity
  8
BEM
100
AcDbText
 10
1478.374750648385
 20
1870.292215079532
 30
0.0
 40
2.5
  1
 
 50
90.0
 72
     4
 11
1478.374750648385
 21
1871.423167460484
 31
0.0
100
AcDbText
  0
TEXT
  5
2A03
330
20
100
AcDbEntity
  8
VOLL
100
AcDbText
 10
1655.657303173336
 20
926.4178747675614
 30
0.0
 40
1.8
  1

 50
90.0
  7
GREEKS
100
AcDbText
  0
TEXT
  5
2A04
330
20
100
AcDbEntity
  8
TEXT
100
AcDbText
 10
1650.09906764011
 20
1258.250142971154
 30
0.0
 40
2.5
  1
  
 50
90.0
  7
GREEKS
 72
     1
 11
1650.09906764011
 21
1260.512047733059
 31
0.0
100
AcDbText
  0
TEXT
  5
2A05
330
20
100
AcDbEntity
  8
BEM
100
AcDbText
 10
1514.540185609708
 20
1502.369860283636
 30
0.0
 40
2.5
  1
 
 50
90.0
 72
     4
 11
1514.540185609708
 21
1503.500812664588
 31
0.0
100
AcDbText
  0
TEXT
  5
2A06
330
20
100
AcDbEntity
  8
VOLL
100
AcDbText
 10
1650.101747538265
 20
1083.952591844723
 30
0.0
 40
1.8
  1

 50
90.0
  7
GREEKS
100
AcDbText
  0
TEXT
  5
2A07
330
20
100
AcDbEntity
  8
BEM
100
AcDbText
 10
1645.376023215044
 20
1118.440656684007
 30
0.0
 40
2.5
  1

 50
90.0
 41
0.8
  7
GREEKS
100
AcDbText
  0
TEXT
  5
2A08
330
20
100
AcDbEntity
  8
BEM
100
AcDbText
 10
1650.069791769096
 20
1118.440656684007
 30
0.0
 40
2.5
  1

 50
90.0
 41
0.8
  7
GREEKS
100
AcDbText
  0
TEXT
  5
2A09
330
20
100
AcDbEntity
  8
BEM
100
AcDbText
 10
1655.30763558776
 20
1118.440656684007
 30
0.0
 40
2.5
  1

 50
90.0
 41
0.8
  7
GREEKS
100
AcDbText
  0
TEXT
  5
2A0A
330
20
100
AcDbEntity
  8
BEM
100
AcDbText
 10
1659.812824537858
 20
1118.367712206633
 30
0.0
 40
1.8
  1

 50
90.0
 41
0.8
  7
GREEKS
100
AcDbText
  0
TEXT
  5
2A0B
330
20
100
AcDbEntity
  8
TEXT
100
AcDbText
 10
1644.543512005039
 20
1415.784860048316
 30
0.0
 40
2.5
  1
  
 50
90.0
  7
GREEKS
 72
     1
 11
1644.543512005039
 21
1418.046764810221
 31
0.0
100
AcDbText
  0
TEXT
  5
2A0C
330
20
100
AcDbEntity
  8
BEM
100
AcDbText
 10
1508.984629974637
 20
1659.904577360798
 30
0.0
 40
2.5
  1
 
 50
90.0
 72
     4
 11
1508.984629974637
 21
1661.03552974175
 31
0.0
100
AcDbText
  0
TEXT
  5
2A0D
330
20
100
AcDbEntity
  8
TEXT25
100
AcDbText
 10
1497.77347388105
 20
757.8516206905954
 30
0.0
 40
2.5
  1

 41
0.8
100
AcDbText
  0
TEXT
  5
2A0E
330
20
100
AcDbEntity
  8
TEXT35
100
AcDbText
 10
1520.106218113413
 20
742.7744235415607
 30
0.0
 40
3.5
  1

 41
0.8
100
AcDbText
  0
INSERT
  5
2A0F
330
20
100
AcDbEntity
  8
ASHADE
 62
     1
100
AcDbBlockReference
  2
AVE_RENDER
 10
1656.915402405964
 20
729.1800488018354
 30
0.0
1001
AVE_RENDER
1002
{
1070
     2
1000
Pref
1070
    30
1070
    20
1070
     0
1070
     0
1000

1070
    10
1070
     0
1070
    30
1040
1.0
1070
     1
1040
0.3
1040
0.7
1040
0.0
1040
10.0
1010
-1.0
1020
-1.0
1030
-1.0
1040
0.3
1070
    49
1002
}
  0
INSERT
  5
2A10
330
20
100
AcDbEntity
  8
ASHADE
 62
     3
100
AcDbBlockReference
  2
AVE_RENDER
 10
1656.915402405964
 20
729.1800488018354
 30
0.0
1001
AVE_RENDER
1002
{
1070
     0
1000
Full Opt
1070
     0
1070
     1
1070
     1
1070
     1
1070
     0
1070
     0
1070
     0
1070
     1
1070
     1
1040
0.0001
1040
0.0001
1002
}
  0
INSERT
  5
2A11
330
20
100
AcDbEntity
  8
ASHADE
 62
     4
100
AcDbBlockReference
  2
AVE_RENDER
 10
1656.915402405964
 20
729.1800488018354
 30
0.0
1001
AVE_RENDER
1002
{
1070
     0
1000
Quick Opt
1070
     0
1070
     1
1070
     1
1070
     1
1070
     0
1070
     0
1070
     1
1002
}
  0
TEXT
  5
2A12
330
20
100
AcDbEntity
  8
VOLL
100
AcDbText
 10
1828.26730949305
 20
762.234248753884
 30
0.0
 40
1.8
  1

  7
GREEKS
100
AcDbText
  0
TEXT
  5
2A13
330
20
100
AcDbEntity
  8
TEXT35
100
AcDbText
 10
1898.669011380974
 20
845.4704121064063
 30
0.0
 40
7.0
  1

 41
0.8
100
AcDbText
  0
TEXT
  5
2A14
330
20
100
AcDbEntity
  8
TEXT25
100
AcDbText
 10
1985.068495156969
 20
792.2083009891781
 30
0.0
 40
5.0
  1

 41
0.8
100
AcDbText
  0
TEXT
  5
2A15
330
20
100
AcDbEntity
  8
TEXT35
100
AcDbText
 10
1985.068495156969
 20
748.1022835694611
 30
0.0
 40
7.0
  1

 41
0.8
100
AcDbText
  0
TEXT
  5
2A16
330
20
100
AcDbEntity
  8
TEXT35
100
AcDbText
 10
2029.733983621695
 20
762.0539066911087
 30
0.0
 40
7.0
  1

 41
0.8
100
AcDbText
  0
TEXT
  5
2A17
330
20
100
AcDbEntity
  8
TEXT
100
AcDbText
 10
2494.979779486086
 20
947.7780304895318
 30
0.0
 40
5.0
  1

 41
0.8
  7
GREEKS
100
AcDbText
  0
TEXT
  5
2B62
330
20
100
AcDbEntity
  8
VOLL
100
AcDbText
 10
2312.686849234136
 20
790.2584179148203
 30
0.0
 40
1.8
  1

  7
GREEKS
100
AcDbText
  0
LINE
  5
307F
330
20
100
AcDbEntity
  8
MITTEL
100
AcDbLine
 10
163.6512124798973
 20
345.7360933665083
 30
0.0
 11
273.6512124798974
 21
345.7360933665082
 31
0.0
  0
DIMENSION
  5
30E1
102
{ACAD_XDICTIONARY
360
30EE
102
}
102
{ACAD_REACTORS
330
30F8
102
}
330
20
100
AcDbEntity
  8
BEM
100
AcDbDimension
  2
*D3
 10
286.9832775015739
 20
385.624180159233
 30
0.0
 11
281.0832775015738
 21
345.624180159233
 31
0.0
 70
    32
  1
%%c<>
 71
     5
 42
79.99999999999994
  3
Standard
100
AcDbAlignedDimension
 13
268.6512124798974
 23
305.624180159233
 33
0.0
 14
268.6512124798973
 24
385.624180159233
 34
0.0
 50
270.0
100
AcDbRotatedDimension
1001
ACAD
1000
DSTYLE
1002
{
1070
    40
1040
2.0
1070
    41
1040
3.5
1070
    42
1040
1.0
1070
    43
1040
7.0
1070
    44
1040
1.0
1070
    73
1070
     0
1070
    74
1070
     0
1070
    77
1070
     1
1070
    78
1070
     8
1070
    79
1070
     2
1070
   140
1040
3.5
1070
   141
1040
1.5
1070
   146
1040
0.5
1070
   147
1040
1.199999999999999
1070
   172
1070
     1
1070
   178
1070
     1
1070
   179
1070
     2
1070
   271
1070
     2
1070
   272
1070
     2
1070
   284
1070
     8
1070
   285
1070
     8
1070
   286
1070
     8
1070
   340
1005
31
1002
}
  0
LINE
  5
3310
102
{ACAD_REACTORS
330
3528
330
37F0
102
}
330
20
100
AcDbEntity
  8
STEMPEL
100
AcDbLine
 10
268.6512124798975
 20
220.7360933665083
 30
0.0
 11
268.6512124798973
 21
470.7360933665081
 31
0.0
  0
DIMENSION
  5
3392
330
20
100
AcDbEntity
  8
BEM
100
AcDbDimension
  2
*D4
 10
135.6908149933266
 20
555.7360933665083
 30
0.0
 11
129.7908149933265
 21
345.7360933665083
 31
0.0
 70
    32
 71
     5
 42
420.0
  3
Standard
100
AcDbAlignedDimension
 13
168.6512124798973
 23
135.7360933665082
 33
0.0
 14
168.6512124798972
 24
555.7360933665083
 34
0.0
 50
270.0
100
AcDbRotatedDimension
1001
ACAD
1000
DSTYLE
1002
{
1070
    40
1040
2.0
1070
    41
1040
3.5
1070
    42
1040
1.0
1070
    43
1040
7.0
1070
    44
1040
1.0
1070
    73
1070
     0
1070
    74
1070
     0
1070
    77
1070
     1
1070
    78
1070
     8
1070
    79
1070
     2
1070
   140
1040
3.5
1070
   141
1040
1.5
1070
   146
1040
0.5
1070
   147
1040
1.199999999999999
1070
   172
1070
     1
1070
   178
1070
     1
1070
   179
1070
     2
1070
   271
1070
     2
1070
   272
1070
     2
1070
   284
1070
     8
1070
   285
1070
     8
1070
   286
1070
     8
1070
   340
1005
31
1002
}
  0
LINE
  5
3432
102
{ACAD_REACTORS
330
347A
330
37F0
102
}
330
20
100
AcDbEntity
  8
STEMPEL
100
AcDbLine
 10
228.6512124798973
 20
470.736093366508
 30
0.0
 11
268.6512124798973
 21
470.7360933665081
 31
0.0
  0
LINE
  5
3433
102
{ACAD_REACTORS
330
347A
330
37F0
102
}
330
20
100
AcDbEntity
  8
STEMPEL
100
AcDbLine
 10
228.6512124798976
 20
220.7360933665083
 30
0.0
 11
268.6512124798975
 21
220.7360933665083
 31
0.0
  0
LINE
  5
3434
102
{ACAD_REACTORS
330
37D2
330
37F0
102
}
330
20
100
AcDbEntity
  8
STEMPEL
100
AcDbLine
 10
228.6512124798977
 20
135.7360933665082
 30
0.0
 11
228.6512124798976
 21
220.7360933665083
 31
0.0
  0
LINE
  5
3435
330
20
100
AcDbEntity
  8
STEMPEL
100
AcDbLine
 10
228.6512124798972
 20
470.7360933665081
 30
0.0
 11
228.6512124798972
 21
555.7360933665081
 31
0.0
  0
DIMENSION
  5
3463
102
{ACAD_XDICTIONARY
360
3470
102
}
102
{ACAD_REACTORS
330
347A
102
}
330
20
100
AcDbEntity
  8
SCHRAFF
100
AcDbDimension
  2
*D5
 10
303.1127324626273
 20
220.7360933665083
 30
0.0
 11
297.2127324626272
 21
345.7360933665083
 31
0.0
 70
    32
 71
     5
 42
249.9999999999999
  3
Standard
100
AcDbAlignedDimension
 13
268.6512124798973
 23
470.7360933665081
 33
0.0
 14
268.6512124798975
 24
220.7360933665083
 34
0.0
 50
270.0
100
AcDbRotatedDimension
1001
ACAD
1000
DSTYLE
1002
{
1070
    40
1040
2.0
1070
    41
1040
3.5
1070
    42
1040
1.0
1070
    43
1040
7.0
1070
    44
1040
1.0
1070
    73
1070
     0
1070
    74
1070
     0
1070
    77
1070
     1
1070
    78
1070
     8
1070
    79
1070
     2
1070
   140
1040
3.5
1070
   141
1040
1.5
1070
   146
1040
0.5
1070
   147
1040
1.199999999999999
1070
   172
1070
     1
1070
   178
1070
     1
1070
   179
1070
     2
1070
   271
1070
     2
1070
   272
1070
     2
1070
   284
1070
     8
1070
   285
1070
     8
1070
   286
1070
     8
1070
   340
1005
31
1002
}
  0
LINE
  5
34A6
102
{ACAD_REACTORS
330
37F0
102
}
330
20
100
AcDbEntity
  8
STEMPEL
100
AcDbLine
 10
228.6512124798973
 20
470.736093366508
 30
0.0
 11
228.6512124798973
 21
555.7360933665083
 31
0.0
  0
DIMENSION
  5
3511
102
{ACAD_XDICTIONARY
360
351E
102
}
102
{ACAD_REACTORS
330
3528
102
}
330
20
100
AcDbEntity
  8
SCHRAFF
100
AcDbDimension
  2
*D6
 10
168.6512124798972
 20
565.2193084533528
 30
0.0
 11
218.6512124798973
 21
571.1193084533528
 31
0.0
 70
    32
 71
     5
 42
100.0
  3
Standard
100
AcDbAlignedDimension
 13
268.6512124798973
 23
470.7360933665081
 33
0.0
 14
168.6512124798972
 24
555.7360933665083
 34
0.0
100
AcDbRotatedDimension
1001
ACAD
1000
DSTYLE
1002
{
1070
    40
1040
2.0
1070
    41
1040
3.5
1070
    42
1040
1.0
1070
    43
1040
7.0
1070
    44
1040
1.0
1070
    73
1070
     0
1070
    74
1070
     0
1070
    77
1070
     1
1070
    78
1070
     8
1070
    79
1070
     2
1070
   140
1040
3.5
1070
   141
1040
1.5
1070
   146
1040
0.5
1070
   147
1040
1.199999999999999
1070
   172
1070
     1
1070
   178
1070
     1
1070
   179
1070
     2
1070
   271
1070
     2
1070
   272
1070
     2
1070
   284
1070
     8
1070
   285
1070
     8
1070
   286
1070
     8
1070
   340
1005
31
1002
}
  0
LINE
  5
3581
102
{ACAD_REACTORS
330
37F0
102
}
330
20
100
AcDbEntity
  8
STEMPEL
100
AcDbLine
 10
177.6512124798973
 20
222.236093366508
 30
0.0
 11
177.6512124798971
 21
469.2360933665083
 31
0.0
  0
TEXT
  5
3719
330
20
100
AcDbEntity
  8
TEXT
100
AcDbText
 10
234.862987254257
 20
52.29651127304087
 30
0.0
 40
5.0
  1
EDV-Art.Nr. 19845.070X
 41
0.8
  7
GREEKS
100
AcDbText
  0
LWPOLYLINE
  5
375D
330
20
100
AcDbEntity
  8
BEM
 62
     1
100
AcDbPolyline
 90
        4
 70
     1
 43
0.0
 10
126.5587752227525
 20
336.8644518688152
 10
126.5587752227525
 20
329.8644518688152
 10
133.5587752227525
 20
329.8644518688152
 10
133.5587752227525
 20
336.8644518688152
  0
LWPOLYLINE
  5
375E
330
20
100
AcDbEntity
  8
BEM
 62
     1
100
AcDbPolyline
 90
        4
 70
     1
 43
0.0
 10
293.6378992775853
 20
336.8644518688152
 10
293.6378992775853
 20
329.8644518688152
 10
300.6378992775854
 20
329.8644518688152
 10
300.6378992775854
 20
336.8644518688152
  0
DIMENSION
  5
37BB
102
{ACAD_XDICTIONARY
360
37C8
102
}
102
{ACAD_REACTORS
330
37D2
102
}
330
20
100
AcDbEntity
  8
BEM
100
AcDbDimension
  2
*D7
 10
228.6512124798977
 20
120.3251189288132
 30
0.0
 11
198.6512124798975
 21
126.2251189288132
 31
0.0
 70
    32
 71
     5
 42
60.00000000000034
  3
Standard
100
AcDbAlignedDimension
 13
168.6512124798973
 23
135.7360933665082
 33
0.0
 14
228.6512124798977
 24
135.7360933665082
 34
0.0
100
AcDbRotatedDimension
1001
ACAD
1000
DSTYLE
1002
{
1070
    40
1040
2.0
1070
    41
1040
3.5
1070
    42
1040
1.0
1070
    43
1040
7.0
1070
    44
1040
1.0
1070
    73
1070
     0
1070
    74
1070
     0
1070
    77
1070
     1
1070
    78
1070
     8
1070
    79
1070
     2
1070
   140
1040
3.5
1070
   141
1040
1.5
1070
   146
1040
0.5
1070
   147
1040
1.199999999999999
1070
   172
1070
     1
1070
   178
1070
     1
1070
   179
1070
     2
1070
   271
1070
     2
1070
   272
1070
     2
1070
   284
1070
     8
1070
   285
1070
     8
1070
   286
1070
     8
1070
   340
1005
31
1002
}
  0
HATCH
  5
37F0
330
20
100
AcDbEntity
  8
SCHRAFF
100
AcDbHatch
 10
0.0
 20
0.0
 30
0.0
210
0.0
220
0.0
230
1.0
  2
HONEY
 70
     0
 71
     1
 91
        3
 92
        7
 72
     0
 73
     1
 93
       11
 10
268.6512124798974
 20
470.7360933665081
 10
228.6512124798972
 20
470.7360933665081
 10
228.6512124798973
 20
555.7360933665083
 10
168.6512124798972
 20
555.7360933665083
 10
168.6512124798972
 20
469.2360933665083
 10
177.6512124798971
 20
469.2360933665083
 10
177.6512124798971
 20
410.624180159233
 10
187.6512124798972
 20
399.1241801592331
 10
207.6512124798973
 20
399.1241801592329
 10
232.6512124798972
 20
385.6241801592331
 10
268.6512124798974
 20
385.624180159233
 97
       11
330
3432
330
34A6
330
1D25
330
989
330
1059
330
3581
330
20E9
330
20EA
330
20D1
330
20DF
330
3310
 92
        7
 72
     0
 73
     1
 93
       11
 10
228.6512124798976
 20
220.7360933665082
 10
268.6512124798975
 20
220.7360933665082
 10
268.6512124798975
 20
305.6241801592331
 10
232.6512124798971
 20
305.624180159233
 10
207.6512124798973
 20
292.1241801592334
 10
187.6512124798971
 20
292.1241801592332
 10
177.6512124798972
 20
280.6241801592333
 10
177.6512124798973
 20
222.236093366508
 10
168.6512124798973
 20
222.236093366508
 10
168.6512124798973
 20
135.7360933665082
 10
228.6512124798977
 20
135.7360933665082
 97
       11
330
20CA
330
20B7
330
20CF
330
20D0
330
3581
330
105A
330
989
330
1D26
330
3434
330
3433
330
3310
 92
       24
 93
        4
 72
     1
 10
169.6678791465638
 20
498.3075147064261
 11
176.6345458132304
 21
498.3075147064261
 72
     1
 10
176.6345458132304
 20
498.3075147064261
 11
176.6345458132304
 21
487.8075147064261
 72
     1
 10
176.6345458132304
 20
487.8075147064261
 11
169.6678791465638
 21
487.8075147064261
 72
     1
 10
169.6678791465638
 20
487.8075147064261
 11
169.6678791465638
 21
498.3075147064261
 97
        1
330
F88
 75
     0
 76
     1
 52
0.0
 41
40.0
 77
     0
 78
     3
 53
0.0
 43
0.0
 44
0.0
 45
7.5
 46
4.330127
 79
     2
 49
5.0
 49
-10.0
 53
120.0
 43
0.0
 44
0.0
 45
-7.499999983612898
 46
4.330127028383291
 79
     2
 49
5.0
 49
-10.0
 53
60.0
 43
0.0
 44
0.0
 45
0.0000000163871017
 46
8.66025402838329
 79
     2
 49
-10.0
 49
5.0
 47
1.015372906816378
 98
        2
 10
243.0257528571437
 20
422.9062465317861
 10
219.6580759024391
 20
238.1083771418275
  0
ENDSEC
  0
SECTION
  2
OBJECTS
  0
DICTIONARY
  5
C
330
0
100
AcDbDictionary
281
     1
  3
ACAD_COLOR
350
1B
  3
ACAD_GROUP
350
D
  3
ACAD_LAYOUT
350
19
  3
ACAD_MATERIAL
350
1A
  3
ACAD_MLINESTYLE
350
16
  3
ACAD_PLOTSETTINGS
350
18
  3
ACAD_PLOTSTYLENAME
350
E
  3
AcDbVariableDictionary
350
31B
  0
DICTIONARY
  5
30EE
330
30E1
100
AcDbDictionary
280
     1
281
     1
  3
ACAD_DIMASSOC
360
30F8
  0
DICTIONARY
  5
3470
330
3463
100
AcDbDictionary
280
     1
281
     1
  3
ACAD_DIMASSOC
360
347A
  0
DICTIONARY
  5
351E
330
3511
100
AcDbDictionary
280
     1
281
     1
  3
ACAD_DIMASSOC
360
3528
  0
DICTIONARY
  5
37C8
330
37BB
100
AcDbDictionary
280
     1
281
     1
  3
ACAD_DIMASSOC
360
37D2
  0
DICTIONARY
  5
1B
102
{ACAD_REACTORS
330
C
102
}
330
C
100
AcDbDictionary
281
     1
  0
DICTIONARY
  5
D
102
{ACAD_REACTORS
330
C
102
}
330
C
100
AcDbDictionary
281
     1
  0
DICTIONARY
  5
19
102
{ACAD_REACTORS
330
C
102
}
330
C
100
AcDbDictionary
281
     1
  3
Layout1
350
1F
  3
Model
350
23
  0
DICTIONARY
  5
1A
102
{ACAD_REACTORS
330
C
102
}
330
C
100
AcDbDictionary
281
     1
  0
DICTIONARY
  5
16
102
{ACAD_REACTORS
330
C
102
}
330
C
100
AcDbDictionary
281
     1
  3
Standard
350
17
  0
DICTIONARY
  5
18
102
{ACAD_REACTORS
330
C
102
}
330
C
100
AcDbDictionary
281
     1
  0
ACDBDICTIONARYWDFLT
  5
E
102
{ACAD_REACTORS
330
C
102
}
330
C
100
AcDbDictionary
281
     1
  3
Normal
350
F
100
AcDbDictionaryWithDefault
340
F
  0
DICTIONARY
  5
31B
102
{ACAD_REACTORS
330
C
102
}
330
C
100
AcDbDictionary
281
     1
  3
DIMASSOC
350
31D
  3
HIDETEXT
350
31C
  3
PROJECTNAME
350
31E
  0
DIMASSOC
  5
30F8
102
{ACAD_REACTORS
330
30EE
102
}
330
30EE
100
AcDbDimAssoc
330
30E1
 90
        3
 70
     0
 71
     0
  1
AcDbOsnapPointRef
 72
     1
331
20CA
 73
     2
 91
        0
 40
1.0
 10
0.0
 20
0.0
 30
2.000000000000000E+50
 75
     0
  1
AcDbOsnapPointRef
 72
     1
331
20DF
 73
     2
 91
        0
 40
1.0
 10
0.0
 20
0.0
 30
2.000000000000000E+50
 75
     0
  0
DIMASSOC
  5
347A
102
{ACAD_REACTORS
330
3470
102
}
330
3470
100
AcDbDimAssoc
330
3463
 90
        3
 70
     0
 71
     0
  1
AcDbOsnapPointRef
 72
     1
331
3432
 73
     2
 91
        0
 40
1.0
 10
0.0
 20
0.0
 30
2.000000000000000E+50
 75
     0
  1
AcDbOsnapPointRef
 72
     1
331
3433
 73
     2
 91
        0
 40
1.0
 10
0.0
 20
0.0
 30
2.000000000000000E+50
 75
     0
  0
DIMASSOC
  5
3528
102
{ACAD_REACTORS
330
351E
102
}
330
351E
100
AcDbDimAssoc
330
3511
 90
        3
 70
     0
 71
     0
  1
AcDbOsnapPointRef
 72
     1
331
3310
 73
     2
 91
        0
 40
0.9999999999999998
 10
0.0
 20
0.0
 30
2.000000000000000E+50
 75
     0
  1
AcDbOsnapPointRef
 72
     1
331
989
 73
     2
 91
        0
 40
1.0
 10
0.0
 20
0.0
 30
2.000000000000000E+50
 75
     0
  0
DIMASSOC
  5
37D2
102
{ACAD_REACTORS
330
37C8
102
}
330
37C8
100
AcDbDimAssoc
330
37BB
 90
        3
 70
     0
 71
     0
  1
AcDbOsnapPointRef
 72
    13
331
989
 73
     2
 91
        0
 40
0.0
 10
0.0
 20
0.0
 30
2.000000000000000E+50
 75
     0
  1
AcDbOsnapPointRef
 72
    13
331
3434
 73
     2
 91
        0
 40
0.0
 10
0.0
 20
0.0
 30
2.000000000000000E+50
 75
     0
  0
LAYOUT
  5
1F
102
{ACAD_REACTORS
330
19
102
}
330
19
100
AcDbPlotSettings
  1

  2
RICOH Aficio 2027 PCL 6
  4

  6

 40
0.0
 41
0.0
 42
0.0
 43
0.0
 44
0.0
 45
0.0
 46
0.0
 47
0.0
 48
0.0
 49
0.0
140
0.0
141
0.0
142
1.0
143
1.0
 70
   688
 72
     0
 73
     0
 74
     5
  7
monochrome1.ctb
 75
    16
147
1.0
 76
     0
 77
     2
 78
   300
148
0.0
149
0.0
100
AcDbLayout
  1
Layout1
 70
     0
 71
     1
 10
0.0
 20
0.0
 11
12.0
 21
9.0
 12
0.0
 22
0.0
 32
0.0
 14
1.000000000000000E+20
 24
1.000000000000000E+20
 34
1.000000000000000E+20
 15
-1.000000000000000E+20
 25
-1.000000000000000E+20
 35
-1.000000000000000E+20
146
0.0
 13
0.0
 23
0.0
 33
0.0
 16
1.0
 26
0.0
 36
0.0
 17
0.0
 27
1.0
 37
0.0
 76
     0
330
1C
  0
LAYOUT
  5
23
102
{ACAD_REACTORS
330
19
102
}
330
19
100
AcDbPlotSettings
  1

  2
RICOH Aficio 2027 PCL 6
  4
A4
  6

 40
5.027083396911621
 41
5.027085304260253
 42
5.027084350585937
 43
5.027069091796875
 44
209.9733276367187
 45
296.9259948730469
 46
0.0
 47
0.0
 48
0.0
 49
0.0
140
0.0
141
0.0
142
1.0
143
1.0
 70
 11952
 72
     0
 73
     1
 74
     0
  7
monochrome1.ctb
 75
     0
147
1.0
 76
     0
 77
     2
 78
   300
148
2300.430855644145
149
90.63084535396582
100
AcDbLayout
  1
Model
 70
     1
 71
     0
 10
0.0
 20
0.0
 11
12.0
 21
9.0
 12
0.0
 22
0.0
 32
0.0
 14
0.0
 24
0.0
 34
0.0
 15
0.0
 25
0.0
 35
0.0
146
0.0
 13
0.0
 23
0.0
 33
0.0
 16
1.0
 26
0.0
 36
0.0
 17
0.0
 27
1.0
 37
0.0
 76
     0
330
20
  0
MLINESTYLE
  5
17
102
{ACAD_REACTORS
330
16
102
}
330
16
100
AcDbMlineStyle
  2
STANDARD
 70
     0
  3

 62
   256
 51
90.0
 52
90.0
 71
     2
 49
0.5
 62
   256
  6
BYLAYER
 49
-0.5
 62
   256
  6
BYLAYER
  0
ACDBPLACEHOLDER
  5
F
102
{ACAD_REACTORS
330
E
102
}
330
E
  0
DICTIONARYVAR
  5
31D
102
{ACAD_REACTORS
330
31B
102
}
330
31B
100
DictionaryVariables
280
     0
  1
2
  0
DICTIONARYVAR
  5
31C
102
{ACAD_REACTORS
330
31B
102
}
330
31B
100
DictionaryVariables
280
     0
  1
1
  0
DICTIONARYVAR
  5
31E
102
{ACAD_REACTORS
330
31B
102
}
330
31B
100
DictionaryVariables
280
     0
  1

  0
ENDSEC
  0
EOF
