  0
SECTION
  2
HEADER
  9
$ACADVER
  1
AC1018
  9
$ACADMAINTVER
 70
     2
  9
$DWGCODEPAGE
  3
ANSI_1252
  9
$INSBASE
 10
0.0
 20
0.0
 30
0.0
  9
$EXTMIN
 10
-0.018208267287605
 20
-0.0206892392782265
 30
-0.0000000000000053
  9
$EXTMAX
 10
420.007874157249
 20
594.0198532432587
 30
0.0000000000000099
  9
$LIMMIN
 10
0.0
 20
0.0
  9
$LIMMAX
 10
420.0000000000001
 20
594.0
  9
$ORTHOMODE
 70
     1
  9
$REGENMODE
 70
     1
  9
$FILLMODE
 70
     1
  9
$QTEXTMODE
 70
     0
  9
$MIRRTEXT
 70
     1
  9
$LTSCALE
 40
20.0
  9
$ATTMODE
 70
     1
  9
$TEXTSIZE
 40
40.0
  9
$TRACEWID
 40
0.5
  9
$TEXTSTYLE
  7
STANDARD
  9
$CLAYER
  8
SCHRAFF
  9
$CELTYPE
  6
ByLayer
  9
$CECOLOR
 62
   256
  9
$CELTSCALE
 40
1.0
  9
$DISPSILH
 70
     0
  9
$DIMSCALE
 40
2.0
  9
$DIMASZ
 40
3.5
  9
$DIMEXO
 40
1.0
  9
$DIMDLI
 40
7.0
  9
$DIMRND
 40
0.0
  9
$DIMDLE
 40
0.0
  9
$DIMEXE
 40
1.0
  9
$DIMTP
 40
0.0
  9
$DIMTM
 40
0.0
  9
$DIMTXT
 40
3.5
  9
$DIMCEN
 40
1.5
  9
$DIMTSZ
 40
0.0
  9
$DIMTOL
 70
     0
  9
$DIMLIM
 70
     0
  9
$DIMTIH
 70
     0
  9
$DIMTOH
 70
     0
  9
$DIMSE1
 70
     0
  9
$DIMSE2
 70
     0
  9
$DIMTAD
 70
     1
  9
$DIMZIN
 70
     8
  9
$DIMBLK
  1

  9
$DIMASO
 70
     1
  9
$DIMSHO
 70
     0
  9
$DIMPOST
  1

  9
$DIMAPOST
  1

  9
$DIMALT
 70
     0
  9
$DIMALTD
 70
     2
  9
$DIMALTF
 40
25.4
  9
$DIMLFAC
 40
1.0
  9
$DIMTOFL
 70
     1
  9
$DIMTVP
 40
0.0
  9
$DIMTIX
 70
     0
  9
$DIMSOXD
 70
     0
  9
$DIMSAH
 70
     0
  9
$DIMBLK1
  1

  9
$DIMBLK2
  1

  9
$DIMSTYLE
  2
Standard
  9
$DIMCLRD
 70
     0
  9
$DIMCLRE
 70
     0
  9
$DIMCLRT
 70
     1
  9
$DIMTFAC
 40
0.5
  9
$DIMGAP
 40
1.199999999999999
  9
$DIMJUST
 70
     0
  9
$DIMSD1
 70
     0
  9
$DIMSD2
 70
     0
  9
$DIMTOLJ
 70
     1
  9
$DIMTZIN
 70
     8
  9
$DIMALTZ
 70
     8
  9
$DIMALTTZ
 70
     8
  9
$DIMUPT
 70
     0
  9
$DIMDEC
 70
     2
  9
$DIMTDEC
 70
     2
  9
$DIMALTU
 70
     2
  9
$DIMALTTD
 70
     2
  9
$DIMTXSTY
  7
GREEKS
  9
$DIMAUNIT
 70
     0
  9
$DIMADEC
 70
     2
  9
$DIMALTRND
 40
0.0
  9
$DIMAZIN
 70
     2
  9
$DIMDSEP
 70
    46
  9
$DIMATFIT
 70
     3
  9
$DIMFRAC
 70
     0
  9
$DIMLDRBLK
  1

  9
$DIMLUNIT
 70
     2
  9
$DIMLWD
 70
    -2
  9
$DIMLWE
 70
    -2
  9
$DIMTMOVE
 70
     0
  9
$LUNITS
 70
     2
  9
$LUPREC
 70
     2
  9
$SKETCHINC
 40
1.0
  9
$FILLETRAD
 40
3.5
  9
$AUNITS
 70
     0
  9
$AUPREC
 70
     0
  9
$MENU
  1
ACAD
  9
$ELEVATION
 40
0.0
  9
$PELEVATION
 40
0.0
  9
$THICKNESS
 40
0.0
  9
$LIMCHECK
 70
     0
  9
$CHAMFERA
 40
0.0
  9
$CHAMFERB
 40
0.0
  9
$CHAMFERC
 40
0.0
  9
$CHAMFERD
 40
0.0
  9
$SKPOLY
 70
     0
  9
$TDCREATE
 40
2452795.555668171
  9
$TDUCREATE
 40
2452795.472334838
  9
$TDUPDATE
 40
2455476.455426053
  9
$TDUUPDATE
 40
2455476.372092720
  9
$TDINDWG
 40
0.2515513079
  9
$TDUSRTIMER
 40
0.2515513079
  9
$USRTIMER
 70
     1
  9
$ANGBASE
 50
0.0
  9
$ANGDIR
 70
     0
  9
$PDMODE
 70
     0
  9
$PDSIZE
 40
0.0
  9
$PLINEWID
 40
0.0
  9
$SPLFRAME
 70
     0
  9
$SPLINETYPE
 70
     6
  9
$SPLINESEGS
 70
     8
  9
$HANDSEED
  5
2139
  9
$SURFTAB1
 70
     6
  9
$SURFTAB2
 70
     6
  9
$SURFTYPE
 70
     6
  9
$SURFU
 70
     6
  9
$SURFV
 70
     6
  9
$UCSBASE
  2

  9
$UCSNAME
  2

  9
$UCSORG
 10
0.0
 20
0.0
 30
0.0
  9
$UCSXDIR
 10
1.0
 20
0.0
 30
0.0
  9
$UCSYDIR
 10
0.0
 20
1.0
 30
0.0
  9
$UCSORTHOREF
  2

  9
$UCSORTHOVIEW
 70
     0
  9
$UCSORGTOP
 10
0.0
 20
0.0
 30
0.0
  9
$UCSORGBOTTOM
 10
0.0
 20
0.0
 30
0.0
  9
$UCSORGLEFT
 10
0.0
 20
0.0
 30
0.0
  9
$UCSORGRIGHT
 10
0.0
 20
0.0
 30
0.0
  9
$UCSORGFRONT
 10
0.0
 20
0.0
 30
0.0
  9
$UCSORGBACK
 10
0.0
 20
0.0
 30
0.0
  9
$PUCSBASE
  2

  9
$PUCSNAME
  2

  9
$PUCSORG
 10
0.0
 20
0.0
 30
0.0
  9
$PUCSXDIR
 10
1.0
 20
0.0
 30
0.0
  9
$PUCSYDIR
 10
0.0
 20
1.0
 30
0.0
  9
$PUCSORTHOREF
  2

  9
$PUCSORTHOVIEW
 70
     0
  9
$PUCSORGTOP
 10
0.0
 20
0.0
 30
0.0
  9
$PUCSORGBOTTOM
 10
0.0
 20
0.0
 30
0.0
  9
$PUCSORGLEFT
 10
0.0
 20
0.0
 30
0.0
  9
$PUCSORGRIGHT
 10
0.0
 20
0.0
 30
0.0
  9
$PUCSORGFRONT
 10
0.0
 20
0.0
 30
0.0
  9
$PUCSORGBACK
 10
0.0
 20
0.0
 30
0.0
  9
$USERI1
 70
     0
  9
$USERI2
 70
     0
  9
$USERI3
 70
     0
  9
$USERI4
 70
     0
  9
$USERI5
 70
     0
  9
$USERR1
 40
0.0
  9
$USERR2
 40
0.0
  9
$USERR3
 40
0.0
  9
$USERR4
 40
0.0
  9
$USERR5
 40
0.0
  9
$WORLDVIEW
 70
     1
  9
$SHADEDGE
 70
     3
  9
$SHADEDIF
 70
    70
  9
$TILEMODE
 70
     1
  9
$MAXACTVP
 70
    16
  9
$PINSBASE
 10
0.0
 20
0.0
 30
0.0
  9
$PLIMCHECK
 70
     0
  9
$PEXTMIN
 10
1.000000000000000E+20
 20
1.000000000000000E+20
 30
1.000000000000000E+20
  9
$PEXTMAX
 10
-1.000000000000000E+20
 20
-1.000000000000000E+20
 30
-1.000000000000000E+20
  9
$PLIMMIN
 10
0.0
 20
0.0
  9
$PLIMMAX
 10
12.0
 20
9.0
  9
$UNITMODE
 70
     0
  9
$VISRETAIN
 70
     0
  9
$PLINEGEN
 70
     0
  9
$PSLTSCALE
 70
     0
  9
$TREEDEPTH
 70
  3020
  9
$CMLSTYLE
  2
Standard
  9
$CMLJUST
 70
     0
  9
$CMLSCALE
 40
1.0
  9
$PROXYGRAPHICS
 70
     1
  9
$MEASUREMENT
 70
     0
  9
$CELWEIGHT
370
    -1
  9
$ENDCAPS
280
     0
  9
$JOINSTYLE
280
     0
  9
$LWDISPLAY
290
     0
  9
$INSUNITS
 70
     0
  9
$HYPERLINKBASE
  1

  9
$STYLESHEET
  1
monochrome 1.ctb
  9
$XEDIT
290
     1
  9
$CEPSNTYPE
380
     0
  9
$PSTYLEMODE
290
     1
  9
$FINGERPRINTGUID
  2
{E3CF26FE-32DE-448E-97A4-F9F1010EEF83}
  9
$VERSIONGUID
  2
{370498CC-273D-462F-A781-9F32B7F3D4F2}
  9
$EXTNAMES
290
     1
  9
$PSVPSCALE
 40
0.0
  9
$OLESTARTUP
290
     0
  9
$SORTENTS
280
   127
  9
$INDEXCTL
280
     0
  9
$HIDETEXT
280
     1
  9
$XCLIPFRAME
290
     0
  9
$HALOGAP
280
     0
  9
$OBSCOLOR
 70
   257
  9
$OBSLTYPE
280
     0
  9
$INTERSECTIONDISPLAY
280
     0
  9
$INTERSECTIONCOLOR
 70
   257
  9
$DIMASSOC
280
     2
  9
$PROJECTNAME
  1

  0
ENDSEC
  0
SECTION
  2
CLASSES
  0
CLASS
  1
ACDBDICTIONARYWDFLT
  2
AcDbDictionaryWithDefault
  3
ObjectDBX Classes
 90
        0
 91
        1
280
     0
281
     0
  0
CLASS
  1
DICTIONARYVAR
  2
AcDbDictionaryVar
  3
ObjectDBX Classes
 90
        0
 91
        3
280
     0
281
     0
  0
CLASS
  1
DIMASSOC
  2
AcDbDimAssoc
  3
"AcDbDimAssoc|Product Desc:     AcDim ARX App For Dimension|Company:          Autodesk, Inc.|WEB Address:      www.autodesk.com"
 90
        0
 91
        0
280
     0
281
     0
  0
ENDSEC
  0
SECTION
  2
TABLES
  0
TABLE
  2
VPORT
  5
8
330
0
100
AcDbSymbolTable
 70
     2
  0
VPORT
  5
2138
330
8
100
AcDbSymbolTableRecord
100
AcDbViewportTableRecord
  2
*Active
 70
     0
 10
0.0
 20
0.0
 11
1.0
 21
1.0
 12
209.9948329449807
 22
296.9995820019903
 13
0.0
 23
0.0
 14
1.0
 24
1.0
 15
10.0
 25
10.0
 16
0.0
 26
0.0
 36
1.0
 17
0.0
 27
0.0
 37
0.0
 40
598.8376397300405
 41
1.336927223719676
 42
50.0
 43
0.0
 44
0.0
 50
0.0
 51
0.0
 71
     0
 72
  1500
 73
     1
 74
     0
 75
     0
 76
     0
 77
     0
 78
     0
281
     0
 65
     1
110
0.0
120
0.0
130
0.0
111
1.0
121
0.0
131
0.0
112
0.0
122
1.0
132
0.0
 79
     0
146
0.0
  0
ENDTAB
  0
TABLE
  2
LTYPE
  5
5
330
0
100
AcDbSymbolTable
 70
     3
  0
LTYPE
  5
13
330
5
100
AcDbSymbolTableRecord
100
AcDbLinetypeTableRecord
  2
ByBlock
 70
     0
  3

 72
    65
 73
     0
 40
0.0
  0
LTYPE
  5
14
330
5
100
AcDbSymbolTableRecord
100
AcDbLinetypeTableRecord
  2
ByLayer
 70
     0
  3

 72
    65
 73
     0
 40
0.0
  0
LTYPE
  5
15
330
5
100
AcDbSymbolTableRecord
100
AcDbLinetypeTableRecord
  2
Continuous
 70
     0
  3
Solid line
 72
    65
 73
     0
 40
0.0
  0
LTYPE
  5
32
330
5
100
AcDbSymbolTableRecord
100
AcDbLinetypeTableRecord
  2
STRICHPUNKT
 70
     0
  3
__ . __ . __ . __ . __ . __ . __ . __ . __ . __
 72
    65
 73
     4
 40
1.0
 49
0.5
 74
     0
 49
-0.25
 74
     0
 49
0.0
 74
     0
 49
-0.25
 74
     0
  0
LTYPE
  5
481
330
5
100
AcDbSymbolTableRecord
100
AcDbLinetypeTableRecord
  2
AUSGEZOGEN
 70
     0
  3
Ausgezogene Linie
 72
    65
 73
     0
 40
0.0
  0
ENDTAB
  0
TABLE
  2
LAYER
  5
2
330
0
100
AcDbSymbolTable
 70
    12
  0
LAYER
  5
10
330
2
100
AcDbSymbolTableRecord
100
AcDbLayerTableRecord
  2
0
 70
     0
 62
     7
  6
Continuous
370
    -3
390
F
  0
LAYER
  5
35
330
2
100
AcDbSymbolTableRecord
100
AcDbLayerTableRecord
  2
VOLL
 70
     0
 62
     1
  6
Continuous
370
    -3
390
F
  0
LAYER
  5
36
330
2
100
AcDbSymbolTableRecord
100
AcDbLayerTableRecord
  2
HILF
 70
     0
 62
     2
  6
Continuous
370
    -3
390
F
  0
LAYER
  5
37
330
2
100
AcDbSymbolTableRecord
100
AcDbLayerTableRecord
  2
MITTEL
 70
     0
 62
     2
  6
STRICHPUNKT
370
    -3
390
F
  0
LAYER
  5
38
330
2
100
AcDbSymbolTableRecord
100
AcDbLayerTableRecord
  2
BEM
 70
     0
 62
     7
  6
Continuous
370
    -3
390
F
  0
LAYER
  5
39
330
2
100
AcDbSymbolTableRecord
100
AcDbLayerTableRecord
  2
STEMPEL
 70
     0
 62
     3
  6
Continuous
370
    -3
390
F
  0
LAYER
  5
3A
330
2
100
AcDbSymbolTableRecord
100
AcDbLayerTableRecord
  2
TEXT
 70
     0
 62
     7
  6
Continuous
370
    -3
390
F
  0
LAYER
  5
3B
330
2
100
AcDbSymbolTableRecord
100
AcDbLayerTableRecord
  2
DEFPOINTS
 70
     0
 62
     7
  6
Continuous
290
     0
370
    -3
390
F
  0
LAYER
  5
3C
330
2
100
AcDbSymbolTableRecord
100
AcDbLayerTableRecord
  2
SCHRAFF
 70
     0
 62
     7
  6
Continuous
370
    -3
390
F
  0
LAYER
  5
485
330
2
100
AcDbSymbolTableRecord
100
AcDbLayerTableRecord
  2
TEXT25
 70
     0
 62
     7
  6
AUSGEZOGEN
370
    -3
390
F
  0
LAYER
  5
486
330
2
100
AcDbSymbolTableRecord
100
AcDbLayerTableRecord
  2
TEXT35
 70
     0
 62
     1
  6
AUSGEZOGEN
370
    -3
390
F
  0
LAYER
  5
487
330
2
100
AcDbSymbolTableRecord
100
AcDbLayerTableRecord
  2
ASHADE
 70
     0
 62
     7
  6
AUSGEZOGEN
370
    -3
390
F
  0
ENDTAB
  0
TABLE
  2
STYLE
  5
3
330
0
100
AcDbSymbolTable
 70
     2
  0
STYLE
  5
11
330
3
100
AcDbSymbolTableRecord
100
AcDbTextStyleTableRecord
  2
STANDARD
 70
     0
 40
0.0
 41
0.8
 50
0.0
 71
     0
 42
40.0
  3
simplex.shx
  4

  0
STYLE
  5
31
330
3
100
AcDbSymbolTableRecord
100
AcDbTextStyleTableRecord
  2
GREEKS
 70
     0
 40
0.0
 41
0.8
 50
0.0
 71
     0
 42
2.5
  3
SIMPLEX.shx
  4

  0
ENDTAB
  0
TABLE
  2
VIEW
  5
6
330
0
100
AcDbSymbolTable
 70
     0
  0
ENDTAB
  0
TABLE
  2
UCS
  5
7
330
0
100
AcDbSymbolTable
 70
     0
  0
ENDTAB
  0
TABLE
  2
APPID
  5
9
330
0
100
AcDbSymbolTable
 70
     3
  0
APPID
  5
12
330
9
100
AcDbSymbolTableRecord
100
AcDbRegAppTableRecord
  2
ACAD
 70
     0
  0
APPID
  5
48B
330
9
100
AcDbSymbolTableRecord
100
AcDbRegAppTableRecord
  2
AVE_RENDER
 70
     0
  0
APPID
  5
48C
330
9
100
AcDbSymbolTableRecord
100
AcDbRegAppTableRecord
  2
RAK
 70
     0
  0
ENDTAB
  0
TABLE
  2
DIMSTYLE
  5
A
330
0
100
AcDbSymbolTable
 70
     1
100
AcDbDimStyleTable
 71
     1
340
1E6
  0
DIMSTYLE
105
1E6
102
{ACAD_REACTORS
330
1D20
330
1D38
330
1D59
330
1DCE
102
}
330
A
100
AcDbSymbolTableRecord
100
AcDbDimStyleTableRecord
  2
Standard
 70
     0
340
11
  0
ENDTAB
  0
TABLE
  2
BLOCK_RECORD
  5
1
330
0
100
AcDbSymbolTable
 70
     5
  0
BLOCK_RECORD
  5
20
330
1
100
AcDbSymbolTableRecord
100
AcDbBlockTableRecord
  2
*Model_Space
340
23
  0
BLOCK_RECORD
  5
1C
330
1
100
AcDbSymbolTableRecord
100
AcDbBlockTableRecord
  2
*Paper_Space
340
1F
  0
BLOCK_RECORD
  5
346
330
1
100
AcDbSymbolTableRecord
100
AcDbBlockTableRecord
  2
AVE_RENDER
340
0
102
{BLKREFS
331
56B
331
56C
331
56D
102
}
  0
BLOCK_RECORD
  5
1D21
330
1
100
AcDbSymbolTableRecord
100
AcDbBlockTableRecord
  2
*D1
340
0
  0
BLOCK_RECORD
  5
1D39
330
1
100
AcDbSymbolTableRecord
100
AcDbBlockTableRecord
  2
*D2
340
0
  0
BLOCK_RECORD
  5
1D5A
330
1
100
AcDbSymbolTableRecord
100
AcDbBlockTableRecord
  2
*D3
340
0
  0
BLOCK_RECORD
  5
1DCF
330
1
100
AcDbSymbolTableRecord
100
AcDbBlockTableRecord
  2
*D4
340
0
  0
ENDTAB
  0
ENDSEC
  0
SECTION
  2
BLOCKS
  0
BLOCK
  5
40
330
20
100
AcDbEntity
  8
0
100
AcDbBlockBegin
  2
*Model_Space
 70
     0
 10
0.0
 20
0.0
 30
0.0
  3
*Model_Space
  1

  0
ENDBLK
  5
41
330
20
100
AcDbEntity
  8
0
100
AcDbBlockEnd
  0
BLOCK
  5
3E
330
1C
100
AcDbEntity
 67
     1
  8
0
100
AcDbBlockBegin
  2
*Paper_Space
 70
     0
 10
0.0
 20
0.0
 30
0.0
  3
*Paper_Space
  1

  0
ENDBLK
  5
3F
330
1C
100
AcDbEntity
 67
     1
  8
0
100
AcDbBlockEnd
  0
BLOCK
  5
347
330
346
100
AcDbEntity
  8
0
100
AcDbBlockBegin
  2
AVE_RENDER
 70
     0
 10
0.0
 20
0.0
 30
0.0
  3
AVE_RENDER
  1
AVE_RENDER
  0
ENDBLK
  5
348
330
346
100
AcDbEntity
  8
0
100
AcDbBlockEnd
  0
BLOCK
  5
1D2B
330
1D21
100
AcDbEntity
  8
0
100
AcDbBlockBegin
  2
*D1
 70
     1
 10
0.0
 20
0.0
 30
0.0
  3
*D1
  1

  0
LINE
  5
20D9
330
1D21
100
AcDbEntity
  8
BEM
 62
     0
370
    -2
100
AcDbLine
 10
349.1099723506686
 20
506.60102318081
 30
0.0
 11
373.349540047961
 21
506.60102318081
 31
0.0
  0
LINE
  5
20DA
330
1D21
100
AcDbEntity
  8
BEM
 62
     0
370
    -2
100
AcDbLine
 10
349.1099723506686
 20
546.6010231808101
 30
0.0
 11
373.349540047961
 21
546.6010231808101
 31
0.0
  0
LINE
  5
20DB
330
1D21
100
AcDbEntity
  8
BEM
 62
     0
370
    -2
100
AcDbLine
 10
371.349540047961
 20
513.6010231808098
 30
0.0
 11
371.349540047961
 21
539.6010231808101
 31
0.0
  0
SOLID
  5
20DC
330
1D21
100
AcDbEntity
  8
BEM
 62
     0
100
AcDbTrace
 10
370.1828733812943
 20
513.6010231808098
 30
0.0
 11
372.5162067146277
 21
513.6010231808098
 31
0.0
 12
371.349540047961
 22
506.60102318081
 32
0.0
 13
371.349540047961
 23
506.60102318081
 33
0.0
  0
SOLID
  5
20DD
330
1D21
100
AcDbEntity
  8
BEM
 62
     0
100
AcDbTrace
 10
370.1828733812943
 20
539.6010231808101
 30
0.0
 11
372.5162067146277
 21
539.6010231808101
 31
0.0
 12
371.349540047961
 22
546.6010231808101
 32
0.0
 13
371.349540047961
 23
546.6010231808101
 33
0.0
  0
MTEXT
  5
20DE
330
1D21
100
AcDbEntity
  8
BEM
 62
     1
100
AcDbMText
 10
365.449540047961
 20
526.6010231808101
 30
0.0
 40
7.0
 41
0.0
 71
     5
 72
     1
  1
\A1;40
  7
GREEKS
 11
0.0000000000000001
 21
1.0
 31
0.0
 73
     1
 44
1.0
  0
POINT
  5
20DF
330
1D21
100
AcDbEntity
  8
DEFPOINTS
 62
     0
100
AcDbPoint
 10
347.1099723506686
 20
506.60102318081
 30
0.0
  0
POINT
  5
20E0
330
1D21
100
AcDbEntity
  8
DEFPOINTS
 62
     0
100
AcDbPoint
 10
347.1099723506686
 20
546.6010231808101
 30
0.0
  0
POINT
  5
20E1
330
1D21
100
AcDbEntity
  8
DEFPOINTS
 62
     0
100
AcDbPoint
 10
371.349540047961
 20
546.6010231808101
 30
0.0
  0
ENDBLK
  5
1D2C
330
1D21
100
AcDbEntity
  8
0
100
AcDbBlockEnd
  0
BLOCK
  5
1D43
330
1D39
100
AcDbEntity
  8
0
100
AcDbBlockBegin
  2
*D2
 70
     1
 10
0.0
 20
0.0
 30
0.0
  3
*D2
  1

  0
LINE
  5
20D0
330
1D39
100
AcDbEntity
  8
BEM
 62
     0
370
    -2
100
AcDbLine
 10
349.1099723506687
 20
176.6483691426763
 30
0.0
 11
373.349540047961
 21
176.6483691426763
 31
0.0
  0
LINE
  5
20D1
330
1D39
100
AcDbEntity
  8
BEM
 62
     0
370
    -2
100
AcDbLine
 10
349.1099723506685
 20
426.6483691426762
 30
0.0
 11
373.3495400479611
 21
426.6483691426762
 31
0.0
  0
LINE
  5
20D2
330
1D39
100
AcDbEntity
  8
BEM
 62
     0
370
    -2
100
AcDbLine
 10
371.349540047961
 20
183.6483691426763
 30
0.0
 11
371.3495400479611
 21
419.6483691426762
 31
0.0
  0
SOLID
  5
20D3
330
1D39
100
AcDbEntity
  8
BEM
 62
     0
100
AcDbTrace
 10
370.1828733812943
 20
183.6483691426763
 30
0.0
 11
372.5162067146277
 21
183.6483691426763
 31
0.0
 12
371.349540047961
 22
176.6483691426763
 32
0.0
 13
371.349540047961
 23
176.6483691426763
 33
0.0
  0
SOLID
  5
20D4
330
1D39
100
AcDbEntity
  8
BEM
 62
     0
100
AcDbTrace
 10
370.1828733812944
 20
419.6483691426762
 30
0.0
 11
372.5162067146277
 21
419.6483691426762
 31
0.0
 12
371.3495400479611
 22
426.6483691426762
 32
0.0
 13
371.3495400479611
 23
426.6483691426762
 33
0.0
  0
MTEXT
  5
20D5
330
1D39
100
AcDbEntity
  8
BEM
 62
     1
100
AcDbMText
 10
365.449540047961
 20
301.6483691426764
 30
0.0
 40
7.0
 41
0.0
 71
     5
 72
     1
  1
\A1;250
  7
GREEKS
 11
0.0000000000000001
 21
1.0
 31
0.0
 73
     1
 44
1.0
  0
POINT
  5
20D6
330
1D39
100
AcDbEntity
  8
DEFPOINTS
 62
     0
100
AcDbPoint
 10
347.1099723506687
 20
176.6483691426763
 30
0.0
  0
POINT
  5
20D7
330
1D39
100
AcDbEntity
  8
DEFPOINTS
 62
     0
100
AcDbPoint
 10
347.1099723506685
 20
426.6483691426762
 30
0.0
  0
POINT
  5
20D8
330
1D39
100
AcDbEntity
  8
DEFPOINTS
 62
     0
100
AcDbPoint
 10
371.3495400479611
 20
426.6483691426762
 30
0.0
  0
ENDBLK
  5
1D44
330
1D39
100
AcDbEntity
  8
0
100
AcDbBlockEnd
  0
BLOCK
  5
1D64
330
1D5A
100
AcDbEntity
  8
0
100
AcDbBlockBegin
  2
*D3
 70
     1
 10
0.0
 20
0.0
 30
0.0
  3
*D3
  1

  0
LINE
  5
20F1
330
1D5A
100
AcDbEntity
  8
BEM
 62
     0
370
    -2
100
AcDbLine
 10
278.1099723506687
 20
504.60102318081
 30
0.0
 11
278.1099723506687
 21
481.0954891369954
 31
0.0
  0
LINE
  5
20F2
330
1D5A
100
AcDbEntity
  8
BEM
 62
     0
370
    -2
100
AcDbLine
 10
166.1099723506686
 20
504.60102318081
 30
0.0
 11
166.1099723506686
 21
481.0954891369954
 31
0.0
  0
LINE
  5
20F3
330
1D5A
100
AcDbEntity
  8
BEM
 62
     0
370
    -2
100
AcDbLine
 10
271.1099723506687
 20
483.0954891369954
 30
0.0
 11
173.1099723506686
 21
483.0954891369954
 31
0.0
  0
SOLID
  5
20F4
330
1D5A
100
AcDbEntity
  8
BEM
 62
     0
100
AcDbTrace
 10
271.1099723506687
 20
484.262155803662
 30
0.0
 11
271.1099723506687
 21
481.9288224703287
 31
0.0
 12
278.1099723506687
 22
483.0954891369954
 32
0.0
 13
278.1099723506687
 23
483.0954891369954
 33
0.0
  0
SOLID
  5
20F5
330
1D5A
100
AcDbEntity
  8
BEM
 62
     0
100
AcDbTrace
 10
173.1099723506686
 20
484.262155803662
 30
0.0
 11
173.1099723506686
 21
481.9288224703287
 31
0.0
 12
166.1099723506686
 22
483.0954891369954
 32
0.0
 13
166.1099723506686
 23
483.0954891369954
 33
0.0
  0
MTEXT
  5
20F6
330
1D5A
100
AcDbEntity
  8
BEM
 62
     1
100
AcDbMText
 10
222.1099723506686
 20
488.9954891369954
 30
0.0
 40
7.0
 41
0.0
 71
     5
 72
     1
  1
\A1;%%c112
  7
GREEKS
 73
     1
 44
1.0
  0
POINT
  5
20F7
330
1D5A
100
AcDbEntity
  8
DEFPOINTS
 62
     0
100
AcDbPoint
 10
278.1099723506687
 20
506.60102318081
 30
0.0
  0
POINT
  5
20F8
330
1D5A
100
AcDbEntity
  8
DEFPOINTS
 62
     0
100
AcDbPoint
 10
166.1099723506686
 20
506.60102318081
 30
0.0
  0
POINT
  5
20F9
330
1D5A
100
AcDbEntity
  8
DEFPOINTS
 62
     0
100
AcDbPoint
 10
166.1099723506686
 20
483.0954891369954
 30
0.0
  0
ENDBLK
  5
1D65
330
1D5A
100
AcDbEntity
  8
0
100
AcDbBlockEnd
  0
BLOCK
  5
1DD9
330
1DCF
100
AcDbEntity
  8
0
100
AcDbBlockBegin
  2
*D4
 70
     1
 10
0.0
 20
0.0
 30
0.0
  3
*D4
  1

  0
LINE
  5
20BE
330
1DCF
100
AcDbEntity
  8
BEM
 62
     0
370
    -2
100
AcDbLine
 10
347.1099723506685
 20
428.6483691426763
 30
0.0
 11
347.1099723506685
 21
447.0584148969932
 31
0.0
  0
LINE
  5
20BF
330
1DCF
100
AcDbEntity
  8
BEM
 62
     0
370
    -2
100
AcDbLine
 10
97.10997235066862
 20
428.6483691426763
 30
0.0
 11
97.10997235066862
 21
447.0584148969932
 31
0.0
  0
LINE
  5
20C0
330
1DCF
100
AcDbEntity
  8
BEM
 62
     0
370
    -2
100
AcDbLine
 10
340.1099723506685
 20
445.0584148969933
 30
0.0
 11
104.1099723506686
 21
445.0584148969933
 31
0.0
  0
SOLID
  5
20C1
330
1DCF
100
AcDbEntity
  8
BEM
 62
     0
100
AcDbTrace
 10
340.1099723506685
 20
446.22508156366
 30
0.0
 11
340.1099723506685
 21
443.8917482303266
 31
0.0
 12
347.1099723506685
 22
445.0584148969933
 32
0.0
 13
347.1099723506685
 23
445.0584148969933
 33
0.0
  0
SOLID
  5
20C2
330
1DCF
100
AcDbEntity
  8
BEM
 62
     0
100
AcDbTrace
 10
104.1099723506686
 20
446.22508156366
 30
0.0
 11
104.1099723506686
 21
443.8917482303266
 31
0.0
 12
97.10997235066862
 22
445.0584148969933
 32
0.0
 13
97.10997235066862
 23
445.0584148969933
 33
0.0
  0
MTEXT
  5
20C3
330
1DCF
100
AcDbEntity
  8
BEM
 62
     1
100
AcDbMText
 10
222.1099723506686
 20
450.9584148969933
 30
0.0
 40
7.0
 41
0.0
 71
     5
 72
     1
  1
\A1;250
  7
GREEKS
 73
     1
 44
1.0
  0
POINT
  5
20C4
330
1DCF
100
AcDbEntity
  8
DEFPOINTS
 62
     0
100
AcDbPoint
 10
347.1099723506685
 20
426.6483691426762
 30
0.0
  0
POINT
  5
20C5
330
1DCF
100
AcDbEntity
  8
DEFPOINTS
 62
     0
100
AcDbPoint
 10
97.10997235066862
 20
426.6483691426762
 30
0.0
  0
POINT
  5
20C6
330
1DCF
100
AcDbEntity
  8
DEFPOINTS
 62
     0
100
AcDbPoint
 10
97.10997235066862
 20
445.0584148969933
 30
0.0
  0
ENDBLK
  5
1DDA
330
1DCF
100
AcDbEntity
  8
0
100
AcDbBlockEnd
  0
ENDSEC
  0
SECTION
  2
ENTITIES
  0
TEXT
  5
D9
330
20
100
AcDbEntity
  8
VOLL
100
AcDbText
 10
78.07675471698113
 20
31.02594776470585
 30
0.0
 40
1.8
  1

  7
GREEKS
100
AcDbText
  0
LINE
  5
DA
330
20
100
AcDbEntity
  8
STEMPEL
100
AcDbLine
 10
332.0
 20
109.9999999999996
 30
0.0
 11
332.0
 21
39.99999999999998
 31
0.0
  0
LINE
  5
DB
330
20
100
AcDbEntity
  8
VOLL
100
AcDbLine
 10
190.0
 20
109.9999999999998
 30
0.0
 11
189.9999999999997
 21
39.99999999999999
 31
0.0
  0
LINE
  5
DC
330
20
100
AcDbEntity
  8
STEMPEL
100
AcDbLine
 10
229.9999999999998
 20
110.0
 30
0.0
 11
229.9999999999998
 21
9.999999999999987
 31
0.0
  0
LINE
  5
DD
330
20
100
AcDbEntity
  8
VOLL
100
AcDbLine
 10
164.0
 20
79.99999999999999
 30
0.0
 11
164.0
 21
39.99999999999999
 31
0.0
  0
LINE
  5
DE
330
20
100
AcDbEntity
  8
VOLL
100
AcDbLine
 10
64.0
 20
110.0
 30
0.0
 11
63.99999999999988
 21
9.999999999999996
 31
0.0
  0
LINE
  5
DF
330
20
100
AcDbEntity
  8
VOLL
100
AcDbLine
 10
104.0
 20
109.9999999999999
 30
0.0
 11
103.9999999999998
 21
9.99999999999988
 31
0.0
  0
LINE
  5
E0
330
20
100
AcDbEntity
  8
VOLL
100
AcDbLine
 10
124.0
 20
109.9999999999998
 30
0.0
 11
123.9999999999997
 21
9.999999999999879
 31
0.0
  0
LINE
  5
E1
330
20
100
AcDbEntity
  8
STEMPEL
100
AcDbLine
 10
146.0
 20
109.9999999999998
 30
0.0
 11
145.9999999999998
 21
9.999999999999877
 31
0.0
  0
LINE
  5
E2
330
20
100
AcDbEntity
  8
STEMPEL
100
AcDbLine
 10
50.00000000000063
 20
584.0
 30
0.0
 11
49.99999999999989
 21
9.999999999999998
 31
0.0
  0
LINE
  5
E3
330
20
100
AcDbEntity
  8
HILF
100
AcDbLine
 10
0.0
 20
0.0
 30
0.0
 11
0.0000000000001705
 21
594.0
 31
0.0
  0
LINE
  5
E4
330
20
100
AcDbEntity
  8
HILF
100
AcDbLine
 10
420.0
 20
-0.0000000000000257
 30
0.0
 11
420.0000000000001
 21
594.0
 31
0.0
  0
LINE
  5
E5
330
20
100
AcDbEntity
  8
STEMPEL
100
AcDbLine
 10
410.0
 20
9.999999999999975
 30
0.0
 11
410.0000000000001
 21
584.0
 31
0.0
  0
LINE
  5
E7
330
20
100
AcDbEntity
  8
STEMPEL
100
AcDbLine
 10
410.0
 20
39.99999999999997
 30
0.0
 11
145.9999999999998
 21
39.99999999999999
 31
0.0
  0
LINE
  5
E8
330
20
100
AcDbEntity
  8
HILF
100
AcDbLine
 10
0.0
 20
0.0
 30
0.0
 11
420.0
 21
-0.0000000000000257
 31
0.0
  0
LINE
  5
E9
330
20
100
AcDbEntity
  8
STEMPEL
100
AcDbLine
 10
49.99999999999989
 20
9.999999999999998
 30
0.0
 11
410.0
 21
9.999999999999975
 31
0.0
  0
LINE
  5
EA
330
20
100
AcDbEntity
  8
STEMPEL
100
AcDbLine
 10
145.9999999999998
 20
30.0
 30
0.0
 11
49.99999999999989
 21
30.0
 31
0.0
  0
LINE
  5
EB
330
20
100
AcDbEntity
  8
HILF
100
AcDbLine
 10
50.0
 20
40.0
 30
0.0
 11
146.0
 21
39.99999999999999
 31
0.0
  0
TEXT
  5
EC
330
20
100
AcDbEntity
  8
TEXT
100
AcDbText
 10
58.26641107045748
 20
13.65465846027188
 30
0.0
 40
3.6
  1
Index
 50
90.0
 41
0.8
  7
GREEKS
100
AcDbText
  0
TEXT
  5
ED
330
20
100
AcDbEntity
  8
TEXT
100
AcDbText
 10
129.1661324498495
 20
18.59324216966399
 30
0.0
 40
4.0
  1
Name
 41
0.8
  7
GREEKS
 72
     1
 11
135.489941973659
 21
18.59324216966399
 31
0.0
100
AcDbText
  0
TEXT
  5
EE
330
20
100
AcDbEntity
  8
TEXT
100
AcDbText
 10
72.72420184595431
 20
18.67381894984123
 30
0.0
 40
4.0
  1
Änderung
 41
0.8
  7
GREEKS
 72
     1
 11
83.46705898881145
 21
18.67381894984123
 31
0.0
100
AcDbText
  0
TEXT
  5
EF
330
20
100
AcDbEntity
  8
TEXT
100
AcDbText
 10
109.3739170636267
 20
18.67156269339806
 30
0.0
 40
4.0
  1
Tag
 41
0.8
  7
GREEKS
 72
     1
 11
113.10725039696
 21
18.67156269339806
 31
0.0
100
AcDbText
  0
TEXT
  5
F0
330
20
100
AcDbEntity
  8
TEXT
100
AcDbText
 10
147.6006777387301
 20
43.52946389649797
 30
0.0
 40
3.6
  1
Norm.
  7
GREEKS
100
AcDbText
  0
LINE
  5
F1
330
20
100
AcDbEntity
  8
HILF
100
AcDbLine
 10
234.7736801096946
 20
14.89398258028301
 30
0.0
 11
404.8588839326728
 21
14.893982580283
 31
0.0
  0
TEXT
  5
F2
330
20
100
AcDbEntity
  8
TEXT
100
AcDbText
 10
234.7422383911358
 20
30.84560570193047
 30
0.0
 40
5.0
  1
Bauvorhaben
  7
GREEKS
100
AcDbText
  0
TEXT
  5
F3
330
20
100
AcDbEntity
  8
TEXT
100
AcDbText
 10
234.9713400534565
 20
42.19504573013533
 30
0.0
 40
3.6
  1
19844100W.DWG
 41
0.8
  7
GREEKS
100
AcDbText
  0
TEXT
  5
F4
330
20
100
AcDbEntity
  8
TEXT
100
AcDbText
 10
193.2681654675423
 20
88.94757451886867
 30
0.0
 40
4.0
  1
DIN ISO 2768-c
 41
0.7
  7
GREEKS
 72
     1
 11
210.4014988008756
 21
88.94757451886867
 31
0.0
100
AcDbText
  0
LINE
  5
102
330
20
100
AcDbEntity
  8
HILF
100
AcDbLine
 10
420.0000000000001
 20
594.0
 30
0.0
 11
0.0000000000001705
 21
594.0
 31
0.0
  0
LINE
  5
103
330
20
100
AcDbEntity
  8
STEMPEL
100
AcDbLine
 10
410.0000000000001
 20
584.0
 30
0.0
 11
50.00000000000063
 21
584.0
 31
0.0
  0
TEXT
  5
104
330
20
100
AcDbEntity
  8
TEXT
100
AcDbText
 10
196.234832134209
 20
102.4184168434818
 30
0.0
 40
5.0
  1
zul.Abw.
  7
GREEKS
 72
     1
 11
210.4014988008756
 21
102.4184168434818
 31
0.0
100
AcDbText
  0
LINE
  5
105
330
20
100
AcDbEntity
  8
HILF
100
AcDbLine
 10
146.0
 20
69.99999999999999
 30
0.0
 11
229.9999999999998
 21
69.99999999999999
 31
0.0
  0
LINE
  5
106
330
20
100
AcDbEntity
  8
HILF
100
AcDbLine
 10
146.0
 20
59.99999999999999
 30
0.0
 11
229.9999999999998
 21
59.99999999999999
 31
0.0
  0
LINE
  5
107
330
20
100
AcDbEntity
  8
HILF
100
AcDbLine
 10
146.0
 20
49.99999999999999
 30
0.0
 11
229.9999999999998
 21
49.99999999999999
 31
0.0
  0
LINE
  5
108
330
20
100
AcDbEntity
  8
STEMPEL
100
AcDbLine
 10
410.0
 20
109.9999999999999
 30
0.0
 11
50.0
 21
110.0
 31
0.0
  0
LINE
  5
109
330
20
100
AcDbEntity
  8
STEMPEL
100
AcDbLine
 10
410.0
 20
79.99999999999997
 30
0.0
 11
146.0
 21
79.99999999999999
 31
0.0
  0
TEXT
  5
10E
330
20
100
AcDbEntity
  8
TEXT
100
AcDbText
 10
52.57335568851459
 20
113.5954219225907
 30
0.0
 40
5.0
  1
Erstellt mit AUTOCAD 2004
 41
0.8
  7
GREEKS
100
AcDbText
  0
LINE
  5
10F
330
20
100
AcDbEntity
  8
HILF
100
AcDbLine
 10
50.0
 20
100.0
 30
0.0
 11
146.0
 21
100.0
 31
0.0
  0
LINE
  5
110
330
20
100
AcDbEntity
  8
HILF
100
AcDbLine
 10
50.0
 20
90.0
 30
0.0
 11
146.0
 21
89.99999999999998
 31
0.0
  0
LINE
  5
111
330
20
100
AcDbEntity
  8
HILF
100
AcDbLine
 10
50.0
 20
80.0
 30
0.0
 11
146.0
 21
79.99999999999999
 31
0.0
  0
LINE
  5
112
330
20
100
AcDbEntity
  8
HILF
100
AcDbLine
 10
50.0
 20
70.0
 30
0.0
 11
146.0
 21
69.99999999999999
 31
0.0
  0
LINE
  5
113
330
20
100
AcDbEntity
  8
HILF
100
AcDbLine
 10
50.0
 20
60.0
 30
0.0
 11
146.0
 21
59.99999999999999
 31
0.0
  0
LINE
  5
114
330
20
100
AcDbEntity
  8
HILF
100
AcDbLine
 10
50.0
 20
50.0
 30
0.0
 11
146.0
 21
49.99999999999999
 31
0.0
  0
TEXT
  5
115
330
20
100
AcDbEntity
  8
TEXT
100
AcDbText
 10
153.5163572150375
 20
102.4620895087088
 30
0.0
 40
5.0
  1
Maßstab
  7
GREEKS
100
AcDbText
  0
TEXT
  5
116
330
20
100
AcDbEntity
  8
TEXT
 62
     1
100
AcDbText
 10
161.5209068870866
 20
88.7899797722299
 30
0.0
 40
7.0
  1
1:2
 41
0.8
  7
GREEKS
100
AcDbText
  0
TEXT
  5
117
330
20
100
AcDbEntity
  8
TEXT
100
AcDbText
 10
148.5426010951828
 20
73.14583683904139
 30
0.0
 40
3.6
  1
2008
 41
0.8
100
AcDbText
  0
TEXT
  5
118
330
20
100
AcDbEntity
  8
TEXT
100
AcDbText
 10
147.551508657167
 20
53.68926291428373
 30
0.0
 40
3.6
  1
Gepr.
  7
GREEKS
100
AcDbText
  0
TEXT
  5
119
330
20
100
AcDbEntity
  8
TEXT
100
AcDbText
 10
147.5836127167613
 20
63.62990369617953
 30
0.0
 40
3.6
  1
Gez.
  7
GREEKS
100
AcDbText
  0
TEXT
  5
11A
330
20
100
AcDbEntity
  8
TEXT
100
AcDbText
 10
170.724374196332
 20
63.40553235359492
 30
0.0
 40
3.6
  1
12.06.
 41
0.8
 72
     1
 11
176.7586599106178
 21
63.40553235359492
 31
0.0
100
AcDbText
  0
TEXT
  5
11B
330
20
100
AcDbEntity
  8
TEXT
100
AcDbText
 10
172.3311673153648
 20
73.31880501229919
 30
0.0
 40
3.6
  1
Tag
  7
GREEKS
100
AcDbText
  0
TEXT
  5
127
330
20
100
AcDbEntity
  8
TEXT
 62
     1
100
AcDbText
 10
313.4375370711785
 20
133.4580453920329
 30
0.0
 40
7.0
  1
Werkstoff: Foamglas
 41
0.8
  7
GREEKS
100
AcDbText
  0
TEXT
  5
128
330
20
100
AcDbEntity
  8
TEXT
100
AcDbText
 10
234.862987254257
 20
72.29651127304087
 30
0.0
 40
5.0
  1
aus Foamglas
 41
0.8
  7
GREEKS
100
AcDbText
  0
TEXT
  5
129
330
20
100
AcDbEntity
  8
TEXT
 62
     1
100
AcDbText
 10
234.9791173409951
 20
86.99412083985315
 30
0.0
 40
7.0
  1
Ausgleichsstück,quadr.
 41
0.8
  7
GREEKS
100
AcDbText
  0
TEXT
  5
12A
330
20
100
AcDbEntity
  8
TEXT
100
AcDbText
 10
234.8779403809008
 20
102.5489328011778
 30
0.0
 40
5.0
  1
Benennung
  7
GREEKS
100
AcDbText
  0
LINE
  5
12C
330
20
100
AcDbEntity
  8
HILF
100
AcDbLine
 10
234.7736801096946
 20
84.03758247564125
 30
0.0
 11
326.629784251481
 21
84.03758247564125
 31
0.0
  0
LINE
  5
12D
330
20
100
AcDbEntity
  8
HILF
100
AcDbLine
 10
234.7736801096946
 20
69.99999999999999
 30
0.0
 11
326.629784251481
 21
69.99999999999997
 31
0.0
  0
LINE
  5
12E
330
20
100
AcDbEntity
  8
HILF
100
AcDbLine
 10
234.7736801096946
 20
59.99999999999999
 30
0.0
 11
326.629784251481
 21
59.99999999999998
 31
0.0
  0
LINE
  5
12F
330
20
100
AcDbEntity
  8
HILF
100
AcDbLine
 10
234.7736801096946
 20
49.99999999999999
 30
0.0
 11
326.629784251481
 21
49.99999999999998
 31
0.0
  0
TEXT
  5
130
330
20
100
AcDbEntity
  8
TEXT
100
AcDbText
 10
202.4626584226294
 20
73.30961091915217
 30
0.0
 40
3.6
  1
Name
  7
GREEKS
100
AcDbText
  0
TEXT
  5
131
330
20
100
AcDbEntity
  8
TEXT
100
AcDbText
 10
203.9293289049173
 20
63.50253258750898
 30
0.0
 40
3.6
  1
Koeh
  7
GREEKS
 72
     1
 11
209.843614619203
 21
63.50253258750898
 31
0.0
100
AcDbText
  0
LINE
  5
136
330
20
100
AcDbEntity
  8
VOLL
100
AcDbLine
 10
332.0
 20
59.99999999999998
 30
0.0
 11
410.0
 21
59.99999999999997
 31
0.0
  0
LINE
  5
137
330
20
100
AcDbEntity
  8
HILF
100
AcDbLine
 10
336.7238616296993
 20
83.77983636955812
 30
0.0
 11
404.8588839326728
 21
83.77983636955812
 31
0.0
  0
TEXT
  5
138
330
20
100
AcDbEntity
  8
TEXT
 62
     1
100
AcDbText
 10
347.4377728175696
 20
87.01863741763558
 30
0.0
 40
7.0
  1
19844100W
 41
0.8
  7
GREEKS
 72
     1
 11
370.371106150903
 21
87.01863741763558
 31
0.0
100
AcDbText
  0
TEXT
  5
139
330
20
100
AcDbEntity
  8
TEXT
100
AcDbText
 10
336.7238616296993
 20
73.18118237099961
 30
0.0
 40
5.0
  1
Ersatz für:
  7
GREEKS
100
AcDbText
  0
TEXT
  5
13A
330
20
100
AcDbEntity
  8
TEXT
100
AcDbText
 10
336.178754957634
 20
102.3132034537135
 30
0.0
 40
5.0
  1
Zeichnungs Nr.
  7
GREEKS
100
AcDbText
  0
TEXT
  5
13B
330
20
100
AcDbEntity
  8
TEXT
100
AcDbText
 10
337.2400861497006
 20
52.07416177878597
 30
0.0
 40
5.0
  1
ersetzt durch:
  7
GREEKS
100
AcDbText
  0
ARC
  5
140
330
20
100
AcDbEntity
  8
TEXT
 62
     3
100
AcDbCircle
 10
172.1699894482153
 20
25.78072120170838
 30
0.0
 40
9.0
100
AcDbArc
 50
270.0
 51
231.0575587310159
  0
LINE
  5
141
330
20
100
AcDbEntity
  8
TEXT
 62
     3
100
AcDbLine
 10
156.1699894482153
 20
34.78072120170838
 30
0.0
 11
156.1699894482154
 21
20.78072120170872
 31
0.0
  0
LINE
  5
142
330
20
100
AcDbEntity
  8
TEXT
 62
     3
100
AcDbLine
 10
154.1699894482153
 20
34.78072120170838
 30
0.0
 11
154.1699894482154
 21
20.78072120170872
 31
0.0
  0
CIRCLE
  5
143
330
20
100
AcDbEntity
  8
TEXT
 62
     3
100
AcDbCircle
 10
172.1699894482153
 20
25.78072120170838
 30
0.0
 40
7.0
  0
ARC
  5
144
330
20
100
AcDbEntity
  8
TEXT
 62
     3
100
AcDbCircle
 10
212.1699894482155
 20
25.78072120170849
 30
0.0
 40
9.0
100
AcDbArc
 50
270.0
 51
231.0575587310181
  0
LINE
  5
145
330
20
100
AcDbEntity
  8
TEXT
 62
     3
100
AcDbLine
 10
184.1699894482153
 20
34.78072120170849
 30
0.0
 11
184.1699894482154
 21
16.78072120170849
 31
0.0
  0
ARC
  5
146
330
20
100
AcDbEntity
  8
TEXT
 62
     3
100
AcDbCircle
 10
194.1699894482154
 20
29.78072120170849
 30
0.0
 40
5.0
100
AcDbArc
 50
293.1161887722296
 51
90.0
  0
CIRCLE
  5
147
330
20
100
AcDbEntity
  8
TEXT
 62
     3
100
AcDbCircle
 10
212.1699894482155
 20
25.78072120170849
 30
0.0
 40
7.0
  0
ARC
  5
148
330
20
100
AcDbEntity
  8
TEXT
 62
     3
100
AcDbCircle
 10
158.1699894482154
 20
20.78072120170872
 30
0.0
 40
2.0
100
AcDbArc
 50
180.0
 51
270.0
  0
ARC
  5
149
330
20
100
AcDbEntity
  8
TEXT
 62
     3
100
AcDbCircle
 10
158.1699894482154
 20
20.78072120170872
 30
0.0
 40
4.0
100
AcDbArc
 50
179.9999999999992
 51
270.0
  0
LINE
  5
14A
330
20
100
AcDbEntity
  8
TEXT
 62
     3
100
AcDbLine
 10
172.1699894482154
 20
16.78072120170849
 30
0.0
 11
158.1699894482154
 21
16.78072120170849
 31
0.0
  0
LINE
  5
14B
330
20
100
AcDbEntity
  8
TEXT
 62
     3
100
AcDbLine
 10
166.5131351987227
 20
18.78072120170872
 30
0.0
 11
158.1699894482154
 21
18.78072120170872
 31
0.0
  0
LINE
  5
14C
330
20
100
AcDbEntity
  8
TEXT
 62
     3
100
AcDbLine
 10
212.1699894482155
 20
16.78072120170849
 30
0.0
 11
196.3135829876643
 21
16.78072120170849
 31
0.0
  0
LINE
  5
14D
330
20
100
AcDbEntity
  8
TEXT
 62
     3
100
AcDbLine
 10
196.1018411007935
 20
25.29835929191346
 30
0.0
 11
197.8482369636223
 21
18.78072120170849
 31
0.0
  0
LINE
  5
14E
330
20
100
AcDbEntity
  8
TEXT
 62
     3
100
AcDbLine
 10
194.1699894482154
 20
24.78072120170849
 30
0.0
 11
186.1699894482153
 21
24.78072120170849
 31
0.0
  0
LINE
  5
14F
330
20
100
AcDbEntity
  8
TEXT
 62
     3
100
AcDbLine
 10
186.1699894482154
 20
16.78072120170849
 30
0.0
 11
184.1699894482154
 21
16.78072120170849
 31
0.0
  0
LINE
  5
150
330
20
100
AcDbEntity
  8
TEXT
 62
     3
100
AcDbLine
 10
186.1699894482154
 20
24.78072120170849
 30
0.0
 11
186.1699894482154
 21
16.78072120170849
 31
0.0
  0
LINE
  5
151
330
20
100
AcDbEntity
  8
TEXT
 62
     3
100
AcDbLine
 10
194.1699894482154
 20
24.78072120170849
 30
0.0
 11
196.3135829876644
 21
16.78072120170849
 31
0.0
  0
ARC
  5
152
330
20
100
AcDbEntity
  8
TEXT
 62
     3
100
AcDbCircle
 10
194.1699894482154
 20
29.78072120170849
 30
0.0
 40
5.0
100
AcDbArc
 50
270.0
 51
270.0000000000006
  0
LINE
  5
153
330
20
100
AcDbEntity
  8
TEXT
 62
     3
100
AcDbLine
 10
206.513135198723
 20
18.78072120170849
 30
0.0
 11
197.8482369636224
 21
18.78072120170849
 31
0.0
  0
LINE
  5
154
330
20
100
AcDbEntity
  8
TEXT
 62
     3
100
AcDbLine
 10
156.1699894482153
 20
34.78072120170849
 30
0.0
 11
154.1699894482153
 21
34.78072120170849
 31
0.0
  0
LINE
  5
155
330
20
100
AcDbEntity
  8
TEXT
 62
     3
100
AcDbLine
 10
194.1699894482154
 20
26.78072120170849
 30
0.0
 11
186.1699894482154
 21
26.78072120170849
 31
0.0
  0
LINE
  5
156
330
20
100
AcDbEntity
  8
TEXT
 62
     3
100
AcDbLine
 10
194.1699894482154
 20
32.78072120170849
 30
0.0
 11
186.1699894482154
 21
32.78072120170849
 31
0.0
  0
LINE
  5
157
330
20
100
AcDbEntity
  8
TEXT
 62
     3
100
AcDbLine
 10
194.1699894482154
 20
34.78072120170849
 30
0.0
 11
184.1699894482154
 21
34.78072120170849
 31
0.0
  0
LINE
  5
158
330
20
100
AcDbEntity
  8
TEXT
 62
     3
100
AcDbLine
 10
186.1699894482154
 20
32.78072120170849
 30
0.0
 11
186.1699894482154
 21
26.78072120170849
 31
0.0
  0
ARC
  5
159
330
20
100
AcDbEntity
  8
TEXT
 62
     3
100
AcDbCircle
 10
194.1699894482154
 20
29.78072120170849
 30
0.0
 40
3.0
100
AcDbArc
 50
270.0
 51
90.0
  0
TEXT
  5
1E5
330
20
100
AcDbEntity
  8
TEXT
100
AcDbText
 10
234.862987254257
 20
62.29651127304087
 30
0.0
 40
5.0
  1
für Dachabläufe DN100
 41
0.8
  7
GREEKS
100
AcDbText
  0
TEXT
  5
1E8
330
20
100
AcDbEntity
  8
BEM
100
AcDbText
 10
416.5811541437437
 20
12.14804815338297
 30
0.0
 40
4.0
  1
Diese Zeichnung ist urheberrechtlich geschützt und bleibt unser Eigentum. Sie darf weder ganz noch teilweise vervielfältigt und nicht an Dritte weitergegeben werden.
 50
90.0
 41
0.8
  7
GREEKS
100
AcDbText
  0
TEXT
  5
569
330
20
100
AcDbEntity
  8
TEXT25
100
AcDbText
 10
824.706036264533
 20
152.8135437821292
 30
0.0
 40
2.5
  1

 41
0.8
100
AcDbText
  0
TEXT
  5
56A
330
20
100
AcDbEntity
  8
TEXT35
100
AcDbText
 10
847.0387804968957
 20
137.7363466330945
 30
0.0
 40
3.5
  1

 41
0.8
100
AcDbText
  0
INSERT
  5
56B
330
20
100
AcDbEntity
  8
ASHADE
 62
     1
100
AcDbBlockReference
  2
AVE_RENDER
 10
983.8479647894471
 20
124.1419718933692
 30
0.0
1001
AVE_RENDER
1002
{
1070
     2
1000
Pref
1070
    30
1070
    20
1070
     0
1070
     0
1000

1070
    10
1070
     0
1070
    30
1040
1.0
1070
     1
1040
0.3
1040
0.7
1040
0.0
1040
10.0
1010
-1.0
1020
-1.0
1030
-1.0
1040
0.3
1070
    49
1002
}
  0
INSERT
  5
56C
330
20
100
AcDbEntity
  8
ASHADE
 62
     3
100
AcDbBlockReference
  2
AVE_RENDER
 10
983.8479647894471
 20
124.1419718933692
 30
0.0
1001
AVE_RENDER
1002
{
1070
     0
1000
Full Opt
1070
     0
1070
     1
1070
     1
1070
     1
1070
     0
1070
     0
1070
     0
1070
     1
1070
     1
1040
0.0001
1040
0.0001
1002
}
  0
INSERT
  5
56D
330
20
100
AcDbEntity
  8
ASHADE
 62
     4
100
AcDbBlockReference
  2
AVE_RENDER
 10
983.8479647894471
 20
124.1419718933692
 30
0.0
1001
AVE_RENDER
1002
{
1070
     0
1000
Quick Opt
1070
     0
1070
     1
1070
     1
1070
     1
1070
     0
1070
     0
1070
     1
1002
}
  0
TEXT
  5
56E
330
20
100
AcDbEntity
  8
VOLL
100
AcDbText
 10
1155.199871876532
 20
157.1961718454178
 30
0.0
 40
1.8
  1

  7
GREEKS
100
AcDbText
  0
TEXT
  5
56F
330
20
100
AcDbEntity
  8
TEXT35
100
AcDbText
 10
1225.601573764456
 20
240.4323351979402
 30
0.0
 40
7.0
  1

 41
0.8
100
AcDbText
  0
TEXT
  5
570
330
20
100
AcDbEntity
  8
TEXT25
100
AcDbText
 10
1312.001057540452
 20
187.170224080712
 30
0.0
 40
5.0
  1

 41
0.8
100
AcDbText
  0
TEXT
  5
571
330
20
100
AcDbEntity
  8
TEXT35
100
AcDbText
 10
1312.001057540452
 20
143.064206660995
 30
0.0
 40
7.0
  1

 41
0.8
100
AcDbText
  0
TEXT
  5
572
330
20
100
AcDbEntity
  8
TEXT35
100
AcDbText
 10
1356.666546005177
 20
157.0158297826426
 30
0.0
 40
7.0
  1

 41
0.8
100
AcDbText
  0
TEXT
  5
573
330
20
100
AcDbEntity
  8
TEXT
100
AcDbText
 10
1821.912341869568
 20
342.7399535810657
 30
0.0
 40
5.0
  1

 41
0.8
  7
GREEKS
100
AcDbText
  0
TEXT
  5
58E
330
20
100
AcDbEntity
  8
VOLL
100
AcDbText
 10
653.4205755080445
 20
184.3654393115409
 30
0.0
 40
3.6
  1

  7
GREEKS
100
AcDbText
  0
TEXT
  5
591
330
20
100
AcDbEntity
  8
TEXT35
100
AcDbText
 10
1003.407095384802
 20
627.3350410931531
 30
0.0
 40
7.0
  1

 41
0.8
100
AcDbText
  0
TEXT
  5
630
330
20
100
AcDbEntity
  8
VOLL
100
AcDbText
 10
653.4205755080445
 20
184.3654393115409
 30
0.0
 40
3.6
  1

  7
GREEKS
100
AcDbText
  0
TEXT
  5
63A
330
20
100
AcDbEntity
  8
TEXT35
100
AcDbText
 10
1003.407095384802
 20
627.3350410931531
 30
0.0
 40
7.0
  1

 41
0.8
100
AcDbText
  0
LINE
  5
1D0F
330
20
100
AcDbEntity
  8
MITTEL
100
AcDbLine
 10
92.10997235066862
 20
301.6483691426763
 30
0.0
 11
352.1099723506686
 21
301.6483691426762
 31
0.0
  0
LINE
  5
1D1B
330
20
100
AcDbEntity
  8
MITTEL
100
AcDbLine
 10
222.1099723506686
 20
551.6010231808101
 30
0.0
 11
222.1099723506686
 21
501.60102318081
 31
0.0
  0
LINE
  5
1D1F
102
{ACAD_REACTORS
330
2106
102
}
330
20
100
AcDbEntity
  8
STEMPEL
100
AcDbLine
 10
97.10997235066862
 20
506.60102318081
 30
0.0
 11
347.1099723506686
 21
506.60102318081
 31
0.0
  0
DIMENSION
  5
1D20
330
20
100
AcDbEntity
  8
BEM
100
AcDbDimension
  2
*D1
 10
371.349540047961
 20
546.6010231808101
 30
0.0
 11
365.449540047961
 21
526.6010231808101
 31
0.0
 70
    32
 71
     5
 42
40.00000000000016
  3
Standard
100
AcDbAlignedDimension
 13
347.1099723506686
 23
506.60102318081
 33
0.0
 14
347.1099723506686
 24
546.6010231808101
 34
0.0
 50
270.0
100
AcDbRotatedDimension
1001
ACAD
1000
DSTYLE
1002
{
1070
    40
1040
2.0
1070
    41
1040
3.5
1070
    42
1040
1.0
1070
    43
1040
7.0
1070
    44
1040
1.0
1070
    73
1070
     0
1070
    74
1070
     0
1070
    77
1070
     1
1070
    78
1070
     8
1070
    79
1070
     2
1070
   140
1040
3.5
1070
   141
1040
1.5
1070
   146
1040
0.5
1070
   147
1040
1.199999999999999
1070
   172
1070
     1
1070
   178
1070
     1
1070
   179
1070
     2
1070
   271
1070
     2
1070
   272
1070
     2
1070
   284
1070
     8
1070
   285
1070
     8
1070
   286
1070
     8
1070
   340
1005
31
1002
}
  0
DIMENSION
  5
1D38
330
20
100
AcDbEntity
  8
BEM
100
AcDbDimension
  2
*D2
 10
371.3495400479611
 20
426.6483691426762
 30
0.0
 11
365.449540047961
 21
301.6483691426764
 31
0.0
 70
    32
 71
     5
 42
250.0
  3
Standard
100
AcDbAlignedDimension
 13
347.1099723506687
 23
176.6483691426763
 33
0.0
 14
347.1099723506685
 24
426.6483691426762
 34
0.0
 50
270.0
100
AcDbRotatedDimension
1001
ACAD
1000
DSTYLE
1002
{
1070
    40
1040
2.0
1070
    41
1040
3.5
1070
    42
1040
1.0
1070
    43
1040
7.0
1070
    44
1040
1.0
1070
    73
1070
     0
1070
    74
1070
     0
1070
    77
1070
     1
1070
    78
1070
     8
1070
    79
1070
     2
1070
   140
1040
3.5
1070
   141
1040
1.5
1070
   146
1040
0.5
1070
   147
1040
1.199999999999999
1070
   172
1070
     1
1070
   178
1070
     1
1070
   179
1070
     2
1070
   271
1070
     2
1070
   272
1070
     2
1070
   284
1070
     8
1070
   285
1070
     8
1070
   286
1070
     8
1070
   340
1005
31
1002
}
  0
DIMENSION
  5
1D59
330
20
100
AcDbEntity
  8
BEM
100
AcDbDimension
  2
*D3
 10
166.1099723506686
 20
483.0954891369954
 30
0.0
 11
222.1099723506686
 21
488.9954891369954
 31
0.0
 70
    32
  1
%%c<>
 71
     5
 42
112.0
  3
Standard
100
AcDbAlignedDimension
 13
278.1099723506687
 23
506.60102318081
 33
0.0
 14
166.1099723506686
 24
506.60102318081
 34
0.0
100
AcDbRotatedDimension
1001
ACAD
1000
DSTYLE
1002
{
1070
    40
1040
2.0
1070
    41
1040
3.5
1070
    42
1040
1.0
1070
    43
1040
7.0
1070
    44
1040
1.0
1070
    73
1070
     0
1070
    74
1070
     0
1070
    77
1070
     1
1070
    78
1070
     8
1070
    79
1070
     2
1070
   140
1040
3.5
1070
   141
1040
1.5
1070
   146
1040
0.5
1070
   147
1040
1.199999999999999
1070
   172
1070
     1
1070
   178
1070
     1
1070
   179
1070
     2
1070
   271
1070
     2
1070
   272
1070
     2
1070
   284
1070
     8
1070
   285
1070
     8
1070
   286
1070
     8
1070
   340
1005
31
1002
}
  0
DIMENSION
  5
1DCE
330
20
100
AcDbEntity
  8
BEM
100
AcDbDimension
  2
*D4
 10
97.10997235066862
 20
445.0584148969933
 30
0.0
 11
222.1099723506686
 21
450.9584148969933
 31
0.0
 70
    32
 71
     5
 42
249.9999999999999
  3
Standard
100
AcDbAlignedDimension
 13
347.1099723506685
 23
426.6483691426762
 33
0.0
 14
97.10997235066862
 24
426.6483691426762
 34
0.0
100
AcDbRotatedDimension
1001
ACAD
1000
DSTYLE
1002
{
1070
    40
1040
2.0
1070
    41
1040
3.5
1070
    42
1040
1.0
1070
    43
1040
7.0
1070
    44
1040
1.0
1070
    73
1070
     0
1070
    74
1070
     0
1070
    77
1070
     1
1070
    78
1070
     8
1070
    79
1070
     2
1070
   140
1040
3.5
1070
   141
1040
1.5
1070
   146
1040
0.5
1070
   147
1040
1.199999999999999
1070
   172
1070
     1
1070
   178
1070
     1
1070
   179
1070
     2
1070
   271
1070
     2
1070
   272
1070
     2
1070
   284
1070
     8
1070
   285
1070
     8
1070
   286
1070
     8
1070
   340
1005
31
1002
}
  0
LINE
  5
1ED3
330
20
100
AcDbEntity
  8
MITTEL
100
AcDbLine
 10
222.1099723506686
 20
431.6483691426762
 30
0.0
 11
222.1099723506686
 21
171.6483691426763
 31
0.0
  0
LINE
  5
1F29
330
20
100
AcDbEntity
  8
STEMPEL
100
AcDbLine
 10
97.10997235066862
 20
426.6483691426762
 30
0.0
 11
347.1099723506685
 21
426.6483691426762
 31
0.0
  0
LINE
  5
1F2A
330
20
100
AcDbEntity
  8
STEMPEL
100
AcDbLine
 10
97.10997235066862
 20
176.6483691426763
 30
0.0
 11
347.1099723506687
 21
176.6483691426763
 31
0.0
  0
LINE
  5
1F2B
330
20
100
AcDbEntity
  8
STEMPEL
100
AcDbLine
 10
347.1099723506685
 20
426.6483691426762
 30
0.0
 11
347.1099723506687
 21
176.6483691426763
 31
0.0
  0
LINE
  5
1F2C
330
20
100
AcDbEntity
  8
STEMPEL
100
AcDbLine
 10
97.10997235066862
 20
426.6483691426762
 30
0.0
 11
97.10997235066862
 21
176.6483691426763
 31
0.0
  0
LINE
  5
1F7E
102
{ACAD_REACTORS
330
2106
102
}
330
20
100
AcDbEntity
  8
STEMPEL
100
AcDbLine
 10
347.1099723506686
 20
546.6010231808101
 30
0.0
 11
347.1099723506686
 21
506.60102318081
 31
0.0
  0
LINE
  5
1F7F
102
{ACAD_REACTORS
330
2106
102
}
330
20
100
AcDbEntity
  8
STEMPEL
100
AcDbLine
 10
97.10997235066862
 20
546.6010231808102
 30
0.0
 11
97.10997235066862
 21
506.60102318081
 31
0.0
  0
LINE
  5
2023
102
{ACAD_REACTORS
330
2106
102
}
330
20
100
AcDbEntity
  8
STEMPEL
100
AcDbLine
 10
97.10997235066862
 20
546.6010231808102
 30
0.0
 11
347.1099723506686
 21
546.6010231808101
 31
0.0
  0
CIRCLE
  5
20E5
330
20
100
AcDbEntity
  8
STEMPEL
100
AcDbCircle
 10
222.732003894421
 20
301.6483691426763
 30
0.0
 40
56.0
  0
LINE
  5
20E6
102
{ACAD_REACTORS
330
2106
102
}
330
20
100
AcDbEntity
  8
STEMPEL
100
AcDbLine
 10
166.1099723506686
 20
546.6010231808099
 30
0.0
 11
166.1099723506686
 21
506.60102318081
 31
0.0
  0
LINE
  5
20E7
102
{ACAD_REACTORS
330
2106
102
}
330
20
100
AcDbEntity
  8
STEMPEL
100
AcDbLine
 10
278.1099723506686
 20
546.6010231808099
 30
0.0
 11
278.1099723506687
 21
506.60102318081
 31
0.0
  0
HATCH
  5
2106
330
20
100
AcDbEntity
  8
SCHRAFF
100
AcDbHatch
 10
0.0
 20
0.0
 30
0.0
210
0.0
220
0.0
230
1.0
  2
HONEY
 70
     0
 71
     1
 91
        2
 92
        7
 72
     0
 73
     1
 93
        4
 10
97.10997235066862
 20
546.6010231808102
 10
97.10997235066862
 20
506.60102318081
 10
166.1099723506686
 20
506.60102318081
 10
166.1099723506686
 20
546.6010231808102
 97
        4
330
2023
330
1F7F
330
1D1F
330
20E6
 92
        7
 72
     0
 73
     1
 93
        4
 10
347.1099723506686
 20
506.60102318081
 10
347.1099723506686
 20
546.6010231808101
 10
278.1099723506686
 20
546.6010231808102
 10
278.1099723506687
 20
506.60102318081
 97
        4
330
2023
330
20E7
330
1D1F
330
1F7E
 75
     0
 76
     1
 52
0.0
 41
40.0
 77
     0
 78
     3
 53
0.0
 43
0.0
 44
0.0
 45
7.5
 46
4.330127
 79
     2
 49
5.0
 49
-10.0
 53
120.0
 43
0.0
 44
0.0
 45
-7.499999983612898
 46
4.330127028383291
 79
     2
 49
5.0
 49
-10.0
 53
60.0
 43
0.0
 44
0.0
 45
0.0000000163871017
 46
8.66025402838329
 79
     2
 49
-10.0
 49
5.0
 47
0.3087247451539242
 98
        2
 10
148.9317240244177
 20
533.4189847921395
 10
299.7099471053989
 20
517.6740226300537
  0
TEXT
  5
2117
330
20
100
AcDbEntity
  8
TEXT
100
AcDbText
 10
234.862987254257
 20
52.29651127304087
 30
0.0
 40
5.0
  1
EDV-Art.Nr. 19844.100X
 41
0.8
  7
GREEKS
100
AcDbText
  0
ENDSEC
  0
SECTION
  2
OBJECTS
  0
DICTIONARY
  5
C
330
0
100
AcDbDictionary
281
     1
  3
ACAD_COLOR
350
1B
  3
ACAD_GROUP
350
D
  3
ACAD_LAYOUT
350
19
  3
ACAD_MATERIAL
350
1A
  3
ACAD_MLINESTYLE
350
16
  3
ACAD_PLOTSETTINGS
350
18
  3
ACAD_PLOTSTYLENAME
350
E
  3
AcadDim
350
1F0A
  3
AcDbVariableDictionary
350
31B
  0
DICTIONARY
  5
1B
102
{ACAD_REACTORS
330
C
102
}
330
C
100
AcDbDictionary
281
     1
  0
DICTIONARY
  5
D
102
{ACAD_REACTORS
330
C
102
}
330
C
100
AcDbDictionary
281
     1
  0
DICTIONARY
  5
19
102
{ACAD_REACTORS
330
C
102
}
330
C
100
AcDbDictionary
281
     1
  3
Layout1
350
1F
  3
Model
350
23
  0
DICTIONARY
  5
1A
102
{ACAD_REACTORS
330
C
102
}
330
C
100
AcDbDictionary
281
     1
  0
DICTIONARY
  5
16
102
{ACAD_REACTORS
330
C
102
}
330
C
100
AcDbDictionary
281
     1
  3
Standard
350
17
  0
DICTIONARY
  5
18
102
{ACAD_REACTORS
330
C
102
}
330
C
100
AcDbDictionary
281
     1
  0
ACDBDICTIONARYWDFLT
  5
E
102
{ACAD_REACTORS
330
C
102
}
330
C
100
AcDbDictionary
281
     1
  3
Normal
350
F
100
AcDbDictionaryWithDefault
340
F
  0
XRECORD
  5
1F0A
102
{ACAD_REACTORS
330
C
102
}
330
C
100
AcDbXrecord
280
     1
 90
   990106
  3

 60
     0
 61
     0
 62
     1
 63
     3
 64
     0
 65
     0
 66
     0
 67
     3
 68
     1
 69
     0
 70
     0
 71
     0
 72
     0
 40
0.0
170
     0
  0
DICTIONARY
  5
31B
102
{ACAD_REACTORS
330
C
102
}
330
C
100
AcDbDictionary
281
     1
  3
DIMASSOC
350
31D
  3
HIDETEXT
350
31C
  3
PROJECTNAME
350
31E
  0
LAYOUT
  5
1F
102
{ACAD_REACTORS
330
19
102
}
330
19
100
AcDbPlotSettings
  1

  2
RICOH Aficio 2027 PCL 6
  4

  6

 40
0.0
 41
0.0
 42
0.0
 43
0.0
 44
0.0
 45
0.0
 46
0.0
 47
0.0
 48
0.0
 49
0.0
140
0.0
141
0.0
142
1.0
143
1.0
 70
   688
 72
     0
 73
     0
 74
     5
  7
monochrome1.ctb
 75
    16
147
1.0
 76
     0
 77
     2
 78
   300
148
0.0
149
0.0
100
AcDbLayout
  1
Layout1
 70
     0
 71
     1
 10
0.0
 20
0.0
 11
12.0
 21
9.0
 12
0.0
 22
0.0
 32
0.0
 14
1.000000000000000E+20
 24
1.000000000000000E+20
 34
1.000000000000000E+20
 15
-1.000000000000000E+20
 25
-1.000000000000000E+20
 35
-1.000000000000000E+20
146
0.0
 13
0.0
 23
0.0
 33
0.0
 16
1.0
 26
0.0
 36
0.0
 17
0.0
 27
1.0
 37
0.0
 76
     0
330
1C
  0
LAYOUT
  5
23
102
{ACAD_REACTORS
330
19
102
}
330
19
100
AcDbPlotSettings
  1

  2
RICOH Aficio 2027 PCL 6
  4
A4
  6

 40
5.027083396911621
 41
5.027085304260253
 42
5.027084350585937
 43
5.027069091796875
 44
209.9733276367187
 45
296.9259948730469
 46
0.0
 47
0.0
 48
0.0
 49
0.0
140
0.0
141
0.0
142
1.0
143
1.0
 70
 11952
 72
     0
 73
     1
 74
     0
  7
monochrome1.ctb
 75
     0
147
1.0
 76
     0
 77
     2
 78
   300
148
2300.430855644145
149
90.63084535396582
100
AcDbLayout
  1
Model
 70
     1
 71
     0
 10
0.0
 20
0.0
 11
12.0
 21
9.0
 12
0.0
 22
0.0
 32
0.0
 14
0.0
 24
0.0
 34
0.0
 15
0.0
 25
0.0
 35
0.0
146
0.0
 13
0.0
 23
0.0
 33
0.0
 16
1.0
 26
0.0
 36
0.0
 17
0.0
 27
1.0
 37
0.0
 76
     0
330
20
  0
MLINESTYLE
  5
17
102
{ACAD_REACTORS
330
16
102
}
330
16
100
AcDbMlineStyle
  2
STANDARD
 70
     0
  3

 62
   256
 51
90.0
 52
90.0
 71
     2
 49
0.5
 62
   256
  6
BYLAYER
 49
-0.5
 62
   256
  6
BYLAYER
  0
ACDBPLACEHOLDER
  5
F
102
{ACAD_REACTORS
330
E
102
}
330
E
  0
DICTIONARYVAR
  5
31D
102
{ACAD_REACTORS
330
31B
102
}
330
31B
100
DictionaryVariables
280
     0
  1
2
  0
DICTIONARYVAR
  5
31C
102
{ACAD_REACTORS
330
31B
102
}
330
31B
100
DictionaryVariables
280
     0
  1
1
  0
DICTIONARYVAR
  5
31E
102
{ACAD_REACTORS
330
31B
102
}
330
31B
100
DictionaryVariables
280
     0
  1

  0
ENDSEC
  0
EOF
