  0
SECTION
  2
HEADER
  9
$ACADVER
  1
AC1018
  9
$ACADMAINTVER
 70
     2
  9
$DWGCODEPAGE
  3
ANSI_1252
  9
$INSBASE
 10
0.0
 20
0.0
 30
0.0
  9
$EXTMIN
 10
-0.0000000000000568
 20
-0.0000000000000568
 30
0.0
  9
$EXTMAX
 10
210.0
 20
297.0000000000001
 30
0.0
  9
$LIMMIN
 10
0.0
 20
0.0
  9
$LIMMAX
 10
210.0
 20
297.0
  9
$ORTHOMODE
 70
     1
  9
$REGENMODE
 70
     1
  9
$FILLMODE
 70
     1
  9
$QTEXTMODE
 70
     0
  9
$MIRRTEXT
 70
     1
  9
$LTSCALE
 40
10.0
  9
$ATTMODE
 70
     1
  9
$TEXTSIZE
 40
3.5
  9
$TRACEWID
 40
0.5
  9
$TEXTSTYLE
  7
STANDARD
  9
$CLAYER
  8
BEM
  9
$CELTYPE
  6
ByLayer
  9
$CECOLOR
 62
   256
  9
$CELTSCALE
 40
1.0
  9
$DISPSILH
 70
     0
  9
$DIMSCALE
 40
1.0
  9
$DIMASZ
 40
3.5
  9
$DIMEXO
 40
1.0
  9
$DIMDLI
 40
7.0
  9
$DIMRND
 40
0.0
  9
$DIMDLE
 40
0.0
  9
$DIMEXE
 40
1.0
  9
$DIMTP
 40
0.0
  9
$DIMTM
 40
0.0
  9
$DIMTXT
 40
3.5
  9
$DIMCEN
 40
1.5
  9
$DIMTSZ
 40
0.0
  9
$DIMTOL
 70
     0
  9
$DIMLIM
 70
     0
  9
$DIMTIH
 70
     0
  9
$DIMTOH
 70
     0
  9
$DIMSE1
 70
     0
  9
$DIMSE2
 70
     0
  9
$DIMTAD
 70
     1
  9
$DIMZIN
 70
     8
  9
$DIMBLK
  1

  9
$DIMASO
 70
     1
  9
$DIMSHO
 70
     0
  9
$DIMPOST
  1

  9
$DIMAPOST
  1

  9
$DIMALT
 70
     0
  9
$DIMALTD
 70
     2
  9
$DIMALTF
 40
25.4
  9
$DIMLFAC
 40
1.0
  9
$DIMTOFL
 70
     1
  9
$DIMTVP
 40
0.0
  9
$DIMTIX
 70
     0
  9
$DIMSOXD
 70
     0
  9
$DIMSAH
 70
     0
  9
$DIMBLK1
  1

  9
$DIMBLK2
  1

  9
$DIMSTYLE
  2
Standard
  9
$DIMCLRD
 70
     0
  9
$DIMCLRE
 70
     0
  9
$DIMCLRT
 70
     1
  9
$DIMTFAC
 40
0.5
  9
$DIMGAP
 40
1.5
  9
$DIMJUST
 70
     0
  9
$DIMSD1
 70
     0
  9
$DIMSD2
 70
     0
  9
$DIMTOLJ
 70
     1
  9
$DIMTZIN
 70
     8
  9
$DIMALTZ
 70
     8
  9
$DIMALTTZ
 70
     8
  9
$DIMUPT
 70
     0
  9
$DIMDEC
 70
     2
  9
$DIMTDEC
 70
     2
  9
$DIMALTU
 70
     2
  9
$DIMALTTD
 70
     2
  9
$DIMTXSTY
  7
STANDARD
  9
$DIMAUNIT
 70
     0
  9
$DIMADEC
 70
     2
  9
$DIMALTRND
 40
0.0
  9
$DIMAZIN
 70
     2
  9
$DIMDSEP
 70
    46
  9
$DIMATFIT
 70
     3
  9
$DIMFRAC
 70
     0
  9
$DIMLDRBLK
  1

  9
$DIMLUNIT
 70
     2
  9
$DIMLWD
 70
    -2
  9
$DIMLWE
 70
    -2
  9
$DIMTMOVE
 70
     0
  9
$LUNITS
 70
     2
  9
$LUPREC
 70
     2
  9
$SKETCHINC
 40
1.0
  9
$FILLETRAD
 40
0.0
  9
$AUNITS
 70
     0
  9
$AUPREC
 70
     0
  9
$MENU
  1
ACAD
  9
$ELEVATION
 40
0.0
  9
$PELEVATION
 40
0.0
  9
$THICKNESS
 40
0.0
  9
$LIMCHECK
 70
     0
  9
$CHAMFERA
 40
0.0
  9
$CHAMFERB
 40
0.0
  9
$CHAMFERC
 40
0.0
  9
$CHAMFERD
 40
0.0
  9
$SKPOLY
 70
     0
  9
$TDCREATE
 40
2455397.864709028
  9
$TDUCREATE
 40
2455397.781375695
  9
$TDUPDATE
 40
2455812.605451193
  9
$TDUUPDATE
 40
2455812.522117859
  9
$TDINDWG
 40
0.1690819560
  9
$TDUSRTIMER
 40
0.1690819560
  9
$USRTIMER
 70
     1
  9
$ANGBASE
 50
0.0
  9
$ANGDIR
 70
     0
  9
$PDMODE
 70
     0
  9
$PDSIZE
 40
0.0
  9
$PLINEWID
 40
0.0
  9
$SPLFRAME
 70
     0
  9
$SPLINETYPE
 70
     6
  9
$SPLINESEGS
 70
     8
  9
$HANDSEED
  5
12D4
  9
$SURFTAB1
 70
     6
  9
$SURFTAB2
 70
     6
  9
$SURFTYPE
 70
     6
  9
$SURFU
 70
     6
  9
$SURFV
 70
     6
  9
$UCSBASE
  2

  9
$UCSNAME
  2

  9
$UCSORG
 10
0.0
 20
0.0
 30
0.0
  9
$UCSXDIR
 10
1.0
 20
0.0
 30
0.0
  9
$UCSYDIR
 10
0.0
 20
1.0
 30
0.0
  9
$UCSORTHOREF
  2

  9
$UCSORTHOVIEW
 70
     0
  9
$UCSORGTOP
 10
0.0
 20
0.0
 30
0.0
  9
$UCSORGBOTTOM
 10
0.0
 20
0.0
 30
0.0
  9
$UCSORGLEFT
 10
0.0
 20
0.0
 30
0.0
  9
$UCSORGRIGHT
 10
0.0
 20
0.0
 30
0.0
  9
$UCSORGFRONT
 10
0.0
 20
0.0
 30
0.0
  9
$UCSORGBACK
 10
0.0
 20
0.0
 30
0.0
  9
$PUCSBASE
  2

  9
$PUCSNAME
  2

  9
$PUCSORG
 10
0.0
 20
0.0
 30
0.0
  9
$PUCSXDIR
 10
1.0
 20
0.0
 30
0.0
  9
$PUCSYDIR
 10
0.0
 20
1.0
 30
0.0
  9
$PUCSORTHOREF
  2

  9
$PUCSORTHOVIEW
 70
     0
  9
$PUCSORGTOP
 10
0.0
 20
0.0
 30
0.0
  9
$PUCSORGBOTTOM
 10
0.0
 20
0.0
 30
0.0
  9
$PUCSORGLEFT
 10
0.0
 20
0.0
 30
0.0
  9
$PUCSORGRIGHT
 10
0.0
 20
0.0
 30
0.0
  9
$PUCSORGFRONT
 10
0.0
 20
0.0
 30
0.0
  9
$PUCSORGBACK
 10
0.0
 20
0.0
 30
0.0
  9
$USERI1
 70
     0
  9
$USERI2
 70
     0
  9
$USERI3
 70
     0
  9
$USERI4
 70
     0
  9
$USERI5
 70
     0
  9
$USERR1
 40
0.0
  9
$USERR2
 40
0.0
  9
$USERR3
 40
0.0
  9
$USERR4
 40
0.0
  9
$USERR5
 40
0.0
  9
$WORLDVIEW
 70
     1
  9
$SHADEDGE
 70
     3
  9
$SHADEDIF
 70
    70
  9
$TILEMODE
 70
     1
  9
$MAXACTVP
 70
    16
  9
$PINSBASE
 10
0.0
 20
0.0
 30
0.0
  9
$PLIMCHECK
 70
     0
  9
$PEXTMIN
 10
1.000000000000000E+20
 20
1.000000000000000E+20
 30
1.000000000000000E+20
  9
$PEXTMAX
 10
-1.000000000000000E+20
 20
-1.000000000000000E+20
 30
-1.000000000000000E+20
  9
$PLIMMIN
 10
0.0
 20
0.0
  9
$PLIMMAX
 10
12.0
 20
9.0
  9
$UNITMODE
 70
     0
  9
$VISRETAIN
 70
     0
  9
$PLINEGEN
 70
     0
  9
$PSLTSCALE
 70
     0
  9
$TREEDEPTH
 70
  3020
  9
$CMLSTYLE
  2
Standard
  9
$CMLJUST
 70
     0
  9
$CMLSCALE
 40
1.0
  9
$PROXYGRAPHICS
 70
     1
  9
$MEASUREMENT
 70
     0
  9
$CELWEIGHT
370
    -1
  9
$ENDCAPS
280
     0
  9
$JOINSTYLE
280
     0
  9
$LWDISPLAY
290
     0
  9
$INSUNITS
 70
     0
  9
$HYPERLINKBASE
  1

  9
$STYLESHEET
  1

  9
$XEDIT
290
     1
  9
$CEPSNTYPE
380
     0
  9
$PSTYLEMODE
290
     1
  9
$FINGERPRINTGUID
  2
{D68B0D02-A558-11D7-B632-000102183313}
  9
$VERSIONGUID
  2
{0BF91786-6AE4-4CC7-9AA9-B0764611AC41}
  9
$EXTNAMES
290
     1
  9
$PSVPSCALE
 40
0.0
  9
$OLESTARTUP
290
     0
  9
$SORTENTS
280
   127
  9
$INDEXCTL
280
     0
  9
$HIDETEXT
280
     0
  9
$XCLIPFRAME
290
     0
  9
$HALOGAP
280
     0
  9
$OBSCOLOR
 70
   257
  9
$OBSLTYPE
280
     0
  9
$INTERSECTIONDISPLAY
280
     0
  9
$INTERSECTIONCOLOR
 70
   257
  9
$DIMASSOC
280
     1
  9
$PROJECTNAME
  1

  0
ENDSEC
  0
SECTION
  2
CLASSES
  0
CLASS
  1
ACDBDICTIONARYWDFLT
  2
AcDbDictionaryWithDefault
  3
ObjectDBX Classes
 90
        0
 91
        1
280
     0
281
     0
  0
CLASS
  1
DICTIONARYVAR
  2
AcDbDictionaryVar
  3
ObjectDBX Classes
 90
        0
 91
        2
280
     0
281
     0
  0
ENDSEC
  0
SECTION
  2
TABLES
  0
TABLE
  2
VPORT
  5
8
330
0
100
AcDbSymbolTable
 70
     2
  0
VPORT
  5
12D3
330
8
100
AcDbSymbolTableRecord
100
AcDbViewportTableRecord
  2
*Active
 70
     0
 10
0.0
 20
0.0
 11
1.0
 21
1.0
 12
105.0
 22
148.5
 13
0.0
 23
0.0
 14
1.0
 24
1.0
 15
10.0
 25
10.0
 16
0.0
 26
0.0
 36
1.0
 17
0.0
 27
0.0
 37
0.0
 40
297.0
 41
1.339622641509433
 42
50.0
 43
0.0
 44
0.0
 50
0.0
 51
0.0
 71
     0
 72
  1500
 73
     1
 74
     0
 75
     0
 76
     0
 77
     0
 78
     0
281
     0
 65
     1
110
0.0
120
0.0
130
0.0
111
1.0
121
0.0
131
0.0
112
0.0
122
1.0
132
0.0
 79
     0
146
0.0
  0
ENDTAB
  0
TABLE
  2
LTYPE
  5
5
330
0
100
AcDbSymbolTable
 70
     2
  0
LTYPE
  5
13
330
5
100
AcDbSymbolTableRecord
100
AcDbLinetypeTableRecord
  2
ByBlock
 70
     0
  3

 72
    65
 73
     0
 40
0.0
  0
LTYPE
  5
14
330
5
100
AcDbSymbolTableRecord
100
AcDbLinetypeTableRecord
  2
ByLayer
 70
     0
  3

 72
    65
 73
     0
 40
0.0
  0
LTYPE
  5
15
330
5
100
AcDbSymbolTableRecord
100
AcDbLinetypeTableRecord
  2
Continuous
 70
     0
  3
Solid line
 72
    65
 73
     0
 40
0.0
  0
LTYPE
  5
25
330
5
100
AcDbSymbolTableRecord
100
AcDbLinetypeTableRecord
  2
STRICHPUNKT
 70
     0
  3
__ . __ . __ . __ . __ . __ . __ . __ . __ . __
 72
    65
 73
     4
 40
1.0
 49
0.5
 74
     0
 49
-0.25
 74
     0
 49
0.0
 74
     0
 49
-0.25
 74
     0
  0
ENDTAB
  0
TABLE
  2
LAYER
  5
2
330
0
100
AcDbSymbolTable
 70
     9
  0
LAYER
  5
10
330
2
100
AcDbSymbolTableRecord
100
AcDbLayerTableRecord
  2
0
 70
     0
 62
     7
  6
Continuous
370
    -3
390
F
  0
LAYER
  5
2A
330
2
100
AcDbSymbolTableRecord
100
AcDbLayerTableRecord
  2
VOLL
 70
     0
 62
     1
  6
Continuous
370
    -3
390
F
  0
LAYER
  5
2B
330
2
100
AcDbSymbolTableRecord
100
AcDbLayerTableRecord
  2
HILF
 70
     0
 62
     2
  6
Continuous
370
    -3
390
F
  0
LAYER
  5
2C
330
2
100
AcDbSymbolTableRecord
100
AcDbLayerTableRecord
  2
MITTEL
 70
     0
 62
     2
  6
STRICHPUNKT
370
    -3
390
F
  0
LAYER
  5
2F
330
2
100
AcDbSymbolTableRecord
100
AcDbLayerTableRecord
  2
BEM
 70
     0
 62
     7
  6
Continuous
370
    -3
390
F
  0
LAYER
  5
30
330
2
100
AcDbSymbolTableRecord
100
AcDbLayerTableRecord
  2
STEMPEL
 70
     0
 62
     3
  6
Continuous
370
    -3
390
F
  0
LAYER
  5
31
330
2
100
AcDbSymbolTableRecord
100
AcDbLayerTableRecord
  2
TEXT
 70
     0
 62
     7
  6
Continuous
370
    -3
390
F
  0
LAYER
  5
1E5
330
2
100
AcDbSymbolTableRecord
100
AcDbLayerTableRecord
  2
Defpoints
 70
     0
 62
     7
  6
Continuous
290
     0
370
    -3
390
F
  0
LAYER
  5
242
330
2
100
AcDbSymbolTableRecord
100
AcDbLayerTableRecord
  2
SCHRAFF
 70
     0
 62
     7
  6
Continuous
370
    -3
390
F
  0
ENDTAB
  0
TABLE
  2
STYLE
  5
3
330
0
100
AcDbSymbolTable
 70
     2
  0
STYLE
  5
11
330
3
100
AcDbSymbolTableRecord
100
AcDbTextStyleTableRecord
  2
STANDARD
 70
     0
 40
0.0
 41
0.8
 50
0.0
 71
     0
 42
3.5
  3
simplex.shx
  4

  0
STYLE
  5
24
330
3
100
AcDbSymbolTableRecord
100
AcDbTextStyleTableRecord
  2
GREEKS
 70
     0
 40
0.0
 41
0.8
 50
0.0
 71
     0
 42
2.5
  3
SIMPLEX.shx
  4

  0
ENDTAB
  0
TABLE
  2
VIEW
  5
6
330
0
100
AcDbSymbolTable
 70
     0
  0
ENDTAB
  0
TABLE
  2
UCS
  5
7
330
0
100
AcDbSymbolTable
 70
     0
  0
ENDTAB
  0
TABLE
  2
APPID
  5
9
330
0
100
AcDbSymbolTable
 70
     1
  0
APPID
  5
12
330
9
100
AcDbSymbolTableRecord
100
AcDbRegAppTableRecord
  2
ACAD
 70
     0
  0
ENDTAB
  0
TABLE
  2
DIMSTYLE
  5
A
330
0
100
AcDbSymbolTable
 70
     1
100
AcDbDimStyleTable
 71
     1
340
9D
  0
DIMSTYLE
105
9D
102
{ACAD_REACTORS
330
11C3
330
11EA
330
11F7
330
1228
102
}
330
A
100
AcDbSymbolTableRecord
100
AcDbDimStyleTableRecord
  2
Standard
 70
     0
340
11
  0
ENDTAB
  0
TABLE
  2
BLOCK_RECORD
  5
1
330
0
100
AcDbSymbolTable
 70
     5
  0
BLOCK_RECORD
  5
1E
102
{ACAD_XDICTIONARY
360
A0
102
}
330
1
100
AcDbSymbolTableRecord
100
AcDbBlockTableRecord
  2
*Model_Space
340
21
  0
BLOCK_RECORD
  5
1A
102
{ACAD_XDICTIONARY
360
A2
102
}
330
1
100
AcDbSymbolTableRecord
100
AcDbBlockTableRecord
  2
*Paper_Space
340
1D
  0
BLOCK_RECORD
  5
22
330
1
100
AcDbSymbolTableRecord
100
AcDbBlockTableRecord
  2
LOGO
340
0
102
{BLKREFS
331
9B
102
}
  0
BLOCK_RECORD
  5
11C4
330
1
100
AcDbSymbolTableRecord
100
AcDbBlockTableRecord
  2
*D1
340
0
  0
BLOCK_RECORD
  5
11EB
330
1
100
AcDbSymbolTableRecord
100
AcDbBlockTableRecord
  2
*D2
340
0
  0
BLOCK_RECORD
  5
11F8
330
1
100
AcDbSymbolTableRecord
100
AcDbBlockTableRecord
  2
*D3
340
0
  0
BLOCK_RECORD
  5
1229
330
1
100
AcDbSymbolTableRecord
100
AcDbBlockTableRecord
  2
*D4
340
0
  0
ENDTAB
  0
ENDSEC
  0
SECTION
  2
BLOCKS
  0
BLOCK
  5
35
330
1E
100
AcDbEntity
  8
0
100
AcDbBlockBegin
  2
*Model_Space
 70
     0
 10
0.0
 20
0.0
 30
0.0
  3
*Model_Space
  1

  0
ENDBLK
  5
36
330
1E
100
AcDbEntity
  8
0
100
AcDbBlockEnd
  0
BLOCK
  5
33
330
1A
100
AcDbEntity
 67
     1
  8
0
100
AcDbBlockBegin
  2
*Paper_Space
 70
     0
 10
0.0
 20
0.0
 30
0.0
  3
*Paper_Space
  1

  0
ENDBLK
  5
34
330
1A
100
AcDbEntity
 67
     1
  8
0
100
AcDbBlockEnd
  0
BLOCK
  5
37
330
22
100
AcDbEntity
  8
0
100
AcDbBlockBegin
  2
LOGO
 70
     0
 10
0.0
 20
0.0
 30
0.0
  3
LOGO
  1

  0
ARC
  5
38
330
22
100
AcDbEntity
  8
0
100
AcDbCircle
 10
11.59973089678112
 20
-9.271599258481501
 30
0.0
 40
4.5
100
AcDbArc
 50
270.0
 51
231.0575587310159
  0
LINE
  5
39
330
22
100
AcDbEntity
  8
0
100
AcDbLine
 10
3.599730896781125
 20
-4.771599258481529
 30
0.0
 11
3.599730896781153
 21
-11.77159925848133
 31
0.0
  0
LINE
  5
3A
330
22
100
AcDbEntity
  8
0
100
AcDbLine
 10
2.599730896781125
 20
-4.771599258481529
 30
0.0
 11
2.599730896781153
 21
-11.77159925848133
 31
0.0
  0
CIRCLE
  5
3B
330
22
100
AcDbEntity
  8
0
100
AcDbCircle
 10
11.59973089678112
 20
-9.271599258481501
 30
0.0
 40
3.5
  0
ARC
  5
3C
330
22
100
AcDbEntity
  8
0
100
AcDbCircle
 10
31.59973089678115
 20
-9.271599258481472
 30
0.0
 40
4.5
100
AcDbArc
 50
270.0
 51
231.0575587310182
  0
LINE
  5
3D
330
22
100
AcDbEntity
  8
0
100
AcDbLine
 10
17.59973089678112
 20
-4.771599258481472
 30
0.0
 11
17.59973089678115
 21
-13.77159925848147
 31
0.0
  0
ARC
  5
3E
330
22
100
AcDbEntity
  8
0
100
AcDbCircle
 10
22.59973089678116
 20
-7.271599258481472
 30
0.0
 40
2.5
100
AcDbArc
 50
293.1161887722295
 51
90.0
  0
CIRCLE
  5
3F
330
22
100
AcDbEntity
  8
0
100
AcDbCircle
 10
31.59973089678115
 20
-9.271599258481472
 30
0.0
 40
3.5
  0
ARC
  5
40
330
22
100
AcDbEntity
  8
0
100
AcDbCircle
 10
4.599730896781153
 20
-11.77159925848133
 30
0.0
 40
1.0
100
AcDbArc
 50
180.0
 51
270.0
  0
ARC
  5
41
330
22
100
AcDbEntity
  8
0
100
AcDbCircle
 10
4.599730896781153
 20
-11.77159925848133
 30
0.0
 40
2.0
100
AcDbArc
 50
179.9999999999992
 51
270.0
  0
LINE
  5
42
330
22
100
AcDbEntity
  8
0
100
AcDbLine
 10
11.59973089678115
 20
-13.77159925848144
 30
0.0
 11
4.599730896781153
 21
-13.77159925848147
 31
0.0
  0
LINE
  5
43
330
22
100
AcDbEntity
  8
0
100
AcDbLine
 10
8.771303772034769
 20
-12.77159925848136
 30
0.0
 11
4.599730896781153
 21
-12.77159925848133
 31
0.0
  0
LINE
  5
44
330
22
100
AcDbEntity
  8
0
100
AcDbLine
 10
31.59973089678115
 20
-13.77159925848147
 30
0.0
 11
23.6715276665056
 21
-13.77159925848144
 31
0.0
  0
LINE
  5
45
330
22
100
AcDbEntity
  8
0
100
AcDbLine
 10
23.56565672307022
 20
-9.51278021337896
 30
0.0
 11
24.4388546544846
 21
-12.77159925848144
 31
0.0
  0
LINE
  5
46
330
22
100
AcDbEntity
  8
0
100
AcDbLine
 10
22.59973089678116
 20
-9.771599258481472
 30
0.0
 11
18.59973089678112
 21
-9.771599258481472
 31
0.0
  0
LINE
  5
47
330
22
100
AcDbEntity
  8
0
100
AcDbLine
 10
18.59973089678115
 20
-13.77159925848144
 30
0.0
 11
17.59973089678115
 21
-13.77159925848144
 31
0.0
  0
LINE
  5
48
330
22
100
AcDbEntity
  8
0
100
AcDbLine
 10
18.59973089678115
 20
-9.771599258481472
 30
0.0
 11
18.59973089678115
 21
-13.77159925848144
 31
0.0
  0
LINE
  5
49
330
22
100
AcDbEntity
  8
0
100
AcDbLine
 10
22.59973089678116
 20
-9.771599258481472
 30
0.0
 11
23.67152766650562
 21
-13.77159925848147
 31
0.0
  0
ARC
  5
4A
330
22
100
AcDbEntity
  8
0
100
AcDbCircle
 10
22.59973089678116
 20
-7.271599258481472
 30
0.0
 40
2.5
100
AcDbArc
 50
270.0
 51
270.0000000000007
  0
LINE
  5
4B
330
22
100
AcDbEntity
  8
0
100
AcDbLine
 10
28.77130377203494
 20
-12.77159925848147
 30
0.0
 11
24.43885465448463
 21
-12.77159925848144
 31
0.0
  0
LINE
  5
4C
330
22
100
AcDbEntity
  8
0
100
AcDbLine
 10
3.599730896781125
 20
-4.771599258481472
 30
0.0
 11
2.599730896781125
 21
-4.771599258481472
 31
0.0
  0
LINE
  5
4D
330
22
100
AcDbEntity
  8
0
100
AcDbLine
 10
22.59973089678116
 20
-8.771599258481472
 30
0.0
 11
18.59973089678115
 21
-8.771599258481472
 31
0.0
  0
LINE
  5
4E
330
22
100
AcDbEntity
  8
0
100
AcDbLine
 10
22.59973089678116
 20
-5.771599258481472
 30
0.0
 11
18.59973089678115
 21
-5.771599258481472
 31
0.0
  0
LINE
  5
4F
330
22
100
AcDbEntity
  8
0
100
AcDbLine
 10
22.59973089678116
 20
-4.771599258481472
 30
0.0
 11
17.59973089678115
 21
-4.771599258481472
 31
0.0
  0
LINE
  5
50
330
22
100
AcDbEntity
  8
0
100
AcDbLine
 10
18.59973089678115
 20
-5.771599258481472
 30
0.0
 11
18.59973089678115
 21
-8.771599258481472
 31
0.0
  0
ARC
  5
51
330
22
100
AcDbEntity
  8
0
100
AcDbCircle
 10
22.59973089678116
 20
-7.271599258481472
 30
0.0
 40
1.5
100
AcDbArc
 50
270.0
 51
90.0
  0
ENDBLK
  5
52
330
22
100
AcDbEntity
  8
0
100
AcDbBlockEnd
  0
BLOCK
  5
11CE
330
11C4
100
AcDbEntity
  8
0
100
AcDbBlockBegin
  2
*D1
 70
     1
 10
0.0
 20
0.0
 30
0.0
  3
*D1
  1

  0
LINE
  5
12A1
330
11C4
100
AcDbEntity
  8
BEM
 62
     0
370
    -2
100
AcDbLine
 10
75.86877489518972
 20
86.4739161738716
 30
0.0
 11
56.65686424965231
 21
86.4739161738716
 31
0.0
  0
LINE
  5
12A2
330
11C4
100
AcDbEntity
  8
BEM
 62
     0
370
    -2
100
AcDbLine
 10
74.95883156313024
 20
186.4739161738715
 30
0.0
 11
56.65686424965233
 21
186.4739161738716
 31
0.0
  0
LINE
  5
12A3
330
11C4
100
AcDbEntity
  8
BEM
 62
     0
370
    -2
100
AcDbLine
 10
57.65686424965231
 20
89.9739161738716
 30
0.0
 11
57.65686424965233
 21
182.9739161738716
 31
0.0
  0
SOLID
  5
12A4
330
11C4
100
AcDbEntity
  8
BEM
 62
     0
100
AcDbTrace
 10
57.07353091631897
 20
89.9739161738716
 30
0.0
 11
58.24019758298565
 21
89.9739161738716
 31
0.0
 12
57.65686424965231
 22
86.4739161738716
 32
0.0
 13
57.65686424965231
 23
86.4739161738716
 33
0.0
  0
SOLID
  5
12A5
330
11C4
100
AcDbEntity
  8
BEM
 62
     0
100
AcDbTrace
 10
57.07353091631899
 20
182.9739161738716
 30
0.0
 11
58.24019758298566
 21
182.9739161738716
 31
0.0
 12
57.65686424965233
 22
186.4739161738716
 32
0.0
 13
57.65686424965233
 23
186.4739161738716
 33
0.0
  0
MTEXT
  5
12A6
330
11C4
100
AcDbEntity
  8
BEM
 62
     1
100
AcDbMText
 10
54.40686424965229
 20
136.4739161738716
 30
0.0
 40
3.5
 41
0.0
 71
     5
 72
     1
  1
\A1;100
 11
0.0000000000000001
 21
1.0
 31
0.0
 73
     1
 44
1.0
  0
POINT
  5
12A7
330
11C4
100
AcDbEntity
  8
Defpoints
 62
     0
100
AcDbPoint
 10
76.86877489518971
 20
86.4739161738716
 30
0.0
  0
POINT
  5
12A8
330
11C4
100
AcDbEntity
  8
Defpoints
 62
     0
100
AcDbPoint
 10
75.95883156313025
 20
186.4739161738715
 30
0.0
  0
POINT
  5
12A9
330
11C4
100
AcDbEntity
  8
Defpoints
 62
     0
100
AcDbPoint
 10
57.65686424965233
 20
186.4739161738716
 30
0.0
  0
ENDBLK
  5
11CF
330
11C4
100
AcDbEntity
  8
0
100
AcDbBlockEnd
  0
BLOCK
  5
11F5
330
11EB
100
AcDbEntity
  8
0
100
AcDbBlockBegin
  2
*D2
 70
     1
 10
0.0
 20
0.0
 30
0.0
  3
*D2
  1

  0
LINE
  5
12C6
330
11EB
100
AcDbEntity
  8
BEM
 62
     0
370
    -2
100
AcDbLine
 10
75.86877489518972
 20
86.4739161738716
 30
0.0
 11
48.56005688291183
 21
86.4739161738716
 31
0.0
  0
LINE
  5
12C7
330
11EB
100
AcDbEntity
  8
BEM
 62
     0
370
    -2
100
AcDbLine
 10
63.73459532965998
 20
280.4739161738717
 30
0.0
 11
48.56005688291188
 21
280.4739161738717
 31
0.0
  0
LINE
  5
12C8
330
11EB
100
AcDbEntity
  8
BEM
 62
     0
370
    -2
100
AcDbLine
 10
49.56005688291184
 20
89.9739161738716
 30
0.0
 11
49.56005688291188
 21
276.9739161738717
 31
0.0
  0
SOLID
  5
12C9
330
11EB
100
AcDbEntity
  8
BEM
 62
     0
100
AcDbTrace
 10
48.9767235495785
 20
89.9739161738716
 30
0.0
 11
50.14339021624517
 21
89.9739161738716
 31
0.0
 12
49.56005688291184
 22
86.4739161738716
 32
0.0
 13
49.56005688291184
 23
86.4739161738716
 33
0.0
  0
SOLID
  5
12CA
330
11EB
100
AcDbEntity
  8
BEM
 62
     0
100
AcDbTrace
 10
48.97672354957855
 20
276.9739161738717
 30
0.0
 11
50.14339021624522
 21
276.9739161738717
 31
0.0
 12
49.56005688291188
 22
280.4739161738717
 32
0.0
 13
49.56005688291188
 23
280.4739161738717
 33
0.0
  0
MTEXT
  5
12CB
330
11EB
100
AcDbEntity
  8
BEM
 62
     1
100
AcDbMText
 10
46.31005688291183
 20
183.4739161738716
 30
0.0
 40
3.5
 41
0.0
 71
     5
 72
     1
  1
\A1;194
 11
0.0000000000000001
 21
1.0
 31
0.0
 73
     1
 44
1.0
  0
POINT
  5
12CC
330
11EB
100
AcDbEntity
  8
Defpoints
 62
     0
100
AcDbPoint
 10
76.86877489518971
 20
86.4739161738716
 30
0.0
  0
POINT
  5
12CD
330
11EB
100
AcDbEntity
  8
Defpoints
 62
     0
100
AcDbPoint
 10
64.73459532965998
 20
280.4739161738717
 30
0.0
  0
POINT
  5
12CE
330
11EB
100
AcDbEntity
  8
Defpoints
 62
     0
100
AcDbPoint
 10
49.56005688291188
 20
280.4739161738717
 30
0.0
  0
ENDBLK
  5
11F6
330
11EB
100
AcDbEntity
  8
0
100
AcDbBlockEnd
  0
BLOCK
  5
1202
330
11F8
100
AcDbEntity
  8
0
100
AcDbBlockBegin
  2
*D3
 70
     1
 10
0.0
 20
0.0
 30
0.0
  3
*D3
  1

  0
LINE
  5
127D
330
11F8
100
AcDbEntity
  8
BEM
 62
     0
370
    -2
100
AcDbLine
 10
75.9999999999998
 20
95.40405866521947
 30
0.0
 11
75.9999999999998
 21
72.37755717255243
 31
0.0
  0
LINE
  5
127E
330
11F8
100
AcDbEntity
  8
BEM
 62
     0
370
    -2
100
AcDbLine
 10
148.9999999999998
 20
95.40405866521703
 30
0.0
 11
148.9999999999998
 21
72.37755717255243
 31
0.0
  0
LINE
  5
127F
330
11F8
100
AcDbEntity
  8
BEM
 62
     0
370
    -2
100
AcDbLine
 10
79.4999999999998
 20
73.37755717255243
 30
0.0
 11
145.4999999999998
 21
73.37755717255243
 31
0.0
  0
SOLID
  5
1280
330
11F8
100
AcDbEntity
  8
BEM
 62
     0
100
AcDbTrace
 10
79.4999999999998
 20
73.96089050588575
 30
0.0
 11
79.4999999999998
 21
72.7942238392191
 31
0.0
 12
75.9999999999998
 22
73.37755717255243
 32
0.0
 13
75.9999999999998
 23
73.37755717255243
 33
0.0
  0
SOLID
  5
1281
330
11F8
100
AcDbEntity
  8
BEM
 62
     0
100
AcDbTrace
 10
145.4999999999998
 20
73.96089050588575
 30
0.0
 11
145.4999999999998
 21
72.7942238392191
 31
0.0
 12
148.9999999999998
 22
73.37755717255243
 32
0.0
 13
148.9999999999998
 23
73.37755717255243
 33
0.0
  0
MTEXT
  5
1282
330
11F8
100
AcDbEntity
  8
BEM
 62
     1
100
AcDbMText
 10
112.4999999999998
 20
76.62755717255243
 30
0.0
 40
3.5
 41
0.0
 71
     5
 72
     1
  1
\A1;%%c73
 73
     1
 44
1.0
  0
POINT
  5
1283
330
11F8
100
AcDbEntity
  8
Defpoints
 62
     0
100
AcDbPoint
 10
75.9999999999998
 20
96.40405866521946
 30
0.0
  0
POINT
  5
1284
330
11F8
100
AcDbEntity
  8
Defpoints
 62
     0
100
AcDbPoint
 10
148.9999999999998
 20
96.40405866521703
 30
0.0
  0
POINT
  5
1285
330
11F8
100
AcDbEntity
  8
Defpoints
 62
     0
100
AcDbPoint
 10
148.9999999999998
 20
73.37755717255243
 30
0.0
  0
ENDBLK
  5
1203
330
11F8
100
AcDbEntity
  8
0
100
AcDbBlockEnd
  0
BLOCK
  5
1233
330
1229
100
AcDbEntity
  8
0
100
AcDbBlockBegin
  2
*D4
 70
     1
 10
0.0
 20
0.0
 30
0.0
  3
*D4
  1

  0
LINE
  5
1261
330
1229
100
AcDbEntity
  8
BEM
 62
     0
370
    -2
100
AcDbLine
 10
67.99999999999986
 20
212.504883610402
 30
0.0
 11
67.99999999999986
 21
191.680182742171
 31
0.0
  0
LINE
  5
1262
330
1229
100
AcDbEntity
  8
BEM
 62
     0
370
    -2
100
AcDbLine
 10
157.0
 20
212.504883610402
 30
0.0
 11
157.0
 21
191.680182742171
 31
0.0
  0
LINE
  5
1263
330
1229
100
AcDbEntity
  8
BEM
 62
     0
370
    -2
100
AcDbLine
 10
71.49999999999986
 20
192.680182742171
 30
0.0
 11
153.5
 21
192.680182742171
 31
0.0
  0
SOLID
  5
1264
330
1229
100
AcDbEntity
  8
BEM
 62
     0
100
AcDbTrace
 10
71.49999999999986
 20
193.2635160755044
 30
0.0
 11
71.49999999999986
 21
192.0968494088377
 31
0.0
 12
67.99999999999986
 22
192.680182742171
 32
0.0
 13
67.99999999999986
 23
192.680182742171
 33
0.0
  0
SOLID
  5
1265
330
1229
100
AcDbEntity
  8
BEM
 62
     0
100
AcDbTrace
 10
153.5
 20
193.2635160755044
 30
0.0
 11
153.5
 21
192.0968494088377
 31
0.0
 12
157.0
 22
192.680182742171
 32
0.0
 13
157.0
 23
192.680182742171
 33
0.0
  0
MTEXT
  5
1266
330
1229
100
AcDbEntity
  8
BEM
 62
     1
100
AcDbMText
 10
112.4999999999999
 20
195.930182742171
 30
0.0
 40
3.5
 41
0.0
 71
     5
 72
     1
  1
\A1;%%c89
 73
     1
 44
1.0
  0
POINT
  5
1267
330
1229
100
AcDbEntity
  8
Defpoints
 62
     0
100
AcDbPoint
 10
67.99999999999986
 20
213.504883610402
 30
0.0
  0
POINT
  5
1268
330
1229
100
AcDbEntity
  8
Defpoints
 62
     0
100
AcDbPoint
 10
157.0
 20
213.504883610402
 30
0.0
  0
POINT
  5
1269
330
1229
100
AcDbEntity
  8
Defpoints
 62
     0
100
AcDbPoint
 10
157.0
 20
192.680182742171
 30
0.0
  0
ENDBLK
  5
1234
330
1229
100
AcDbEntity
  8
0
100
AcDbBlockEnd
  0
ENDSEC
  0
SECTION
  2
ENTITIES
  0
LINE
  5
57
330
1E
100
AcDbEntity
  8
STEMPEL
100
AcDbLine
 10
205.0
 20
55.00000000000003
 30
0.0
 11
19.99999999999998
 21
55.0
 31
0.0
  0
LINE
  5
58
330
1E
100
AcDbEntity
  8
STEMPEL
100
AcDbLine
 10
68.00000000000006
 20
54.99999999999997
 30
0.0
 11
68.0
 21
4.999999999999985
 31
0.0
  0
LINE
  5
59
330
1E
100
AcDbEntity
  8
STEMPEL
100
AcDbLine
 10
110.0
 20
55.00000000000003
 30
0.0
 11
110.0
 21
4.999999999999985
 31
0.0
  0
LINE
  5
5A
330
1E
100
AcDbEntity
  8
STEMPEL
100
AcDbLine
 10
166.0
 20
54.99999999999989
 30
0.0
 11
166.0
 21
20.0
 31
0.0
  0
LINE
  5
5B
330
1E
100
AcDbEntity
  8
STEMPEL
100
AcDbLine
 10
67.99999999999994
 20
14.99999999999998
 30
0.0
 11
19.99999999999998
 21
14.99999999999998
 31
0.0
  0
LINE
  5
5C
330
1E
100
AcDbEntity
  8
STEMPEL
100
AcDbLine
 10
205.0
 20
20.0
 30
0.0
 11
68.00000000000006
 21
19.99999999999998
 31
0.0
  0
LINE
  5
5D
330
1E
100
AcDbEntity
  8
STEMPEL
100
AcDbLine
 10
205.0
 20
40.0
 30
0.0
 11
68.00000000000006
 21
39.99999999999997
 31
0.0
  0
LINE
  5
5E
330
1E
100
AcDbEntity
  8
VOLL
100
AcDbLine
 10
27.00000000000005
 20
55.00000000000003
 30
0.0
 11
26.99999999999999
 21
4.999999999999985
 31
0.0
  0
LINE
  5
5F
330
1E
100
AcDbEntity
  8
VOLL
100
AcDbLine
 10
47.00000000000005
 20
54.99999999999997
 30
0.0
 11
47.0
 21
4.999999999999985
 31
0.0
  0
LINE
  5
60
330
1E
100
AcDbEntity
  8
VOLL
100
AcDbLine
 10
57.00000000000006
 20
54.99999999999997
 30
0.0
 11
57.0
 21
4.999999999999985
 31
0.0
  0
LINE
  5
61
330
1E
100
AcDbEntity
  8
VOLL
100
AcDbLine
 10
77.00000000000006
 20
39.99999999999997
 30
0.0
 11
77.00000000000006
 21
19.99999999999998
 31
0.0
  0
LINE
  5
62
330
1E
100
AcDbEntity
  8
VOLL
100
AcDbLine
 10
90.00000000000005
 20
54.99999999999992
 30
0.0
 11
90.0
 21
19.99999999999998
 31
0.0
  0
LINE
  5
63
330
1E
100
AcDbEntity
  8
HILF
100
AcDbLine
 10
20.00000000000004
 20
50.00000000000003
 30
0.0
 11
68.00000000000006
 21
50.00000000000003
 31
0.0
  0
LINE
  5
64
330
1E
100
AcDbEntity
  8
HILF
100
AcDbLine
 10
20.00000000000004
 20
45.00000000000002
 30
0.0
 11
68.00000000000006
 21
45.00000000000002
 31
0.0
  0
LINE
  5
65
330
1E
100
AcDbEntity
  8
HILF
100
AcDbLine
 10
20.00000000000004
 20
39.99999999999997
 30
0.0
 11
68.00000000000006
 21
39.99999999999997
 31
0.0
  0
LINE
  5
66
330
1E
100
AcDbEntity
  8
HILF
100
AcDbLine
 10
20.00000000000004
 20
34.99999999999997
 30
0.0
 11
68.00000000000006
 21
34.99999999999997
 31
0.0
  0
LINE
  5
67
330
1E
100
AcDbEntity
  8
HILF
100
AcDbLine
 10
20.00000000000004
 20
29.99999999999999
 30
0.0
 11
68.00000000000006
 21
29.99999999999999
 31
0.0
  0
LINE
  5
68
330
1E
100
AcDbEntity
  8
HILF
100
AcDbLine
 10
20.00000000000004
 20
24.99999999999999
 30
0.0
 11
68.00000000000006
 21
24.99999999999999
 31
0.0
  0
LINE
  5
69
330
1E
100
AcDbEntity
  8
HILF
100
AcDbLine
 10
20.00000000000004
 20
19.99999999999998
 30
0.0
 11
68.00000000000006
 21
19.99999999999998
 31
0.0
  0
LINE
  5
6A
330
1E
100
AcDbEntity
  8
HILF
100
AcDbLine
 10
68.00000000000006
 20
34.99999999999997
 30
0.0
 11
110.0
 21
34.99999999999997
 31
0.0
  0
LINE
  5
6B
330
1E
100
AcDbEntity
  8
HILF
100
AcDbLine
 10
68.00000000000006
 20
29.99999999999999
 30
0.0
 11
110.0
 21
29.99999999999999
 31
0.0
  0
LINE
  5
6C
330
1E
100
AcDbEntity
  8
HILF
100
AcDbLine
 10
68.00000000000006
 20
24.99999999999999
 30
0.0
 11
110.0
 21
24.99999999999999
 31
0.0
  0
LINE
  5
6D
330
1E
100
AcDbEntity
  8
HILF
100
AcDbLine
 10
112.3868400548474
 20
42.01879123782069
 30
0.0
 11
162.4176958278155
 21
42.01879123782069
 31
0.0
  0
LINE
  5
6E
330
1E
100
AcDbEntity
  8
HILF
100
AcDbLine
 10
112.3868400548474
 20
34.99999999999997
 30
0.0
 11
162.4176958278155
 21
34.99999999999997
 31
0.0
  0
LINE
  5
6F
330
1E
100
AcDbEntity
  8
HILF
100
AcDbLine
 10
112.3868400548474
 20
29.99999999999999
 30
0.0
 11
162.4176958278155
 21
29.99999999999999
 31
0.0
  0
LINE
  5
70
330
1E
100
AcDbEntity
  8
HILF
100
AcDbLine
 10
112.3868400548474
 20
24.99999999999999
 30
0.0
 11
162.4176958278155
 21
24.99999999999999
 31
0.0
  0
LINE
  5
71
330
1E
100
AcDbEntity
  8
VOLL
100
AcDbLine
 10
166.0
 20
30.0
 30
0.0
 11
205.0
 21
30.0
 31
0.0
  0
LINE
  5
72
330
1E
100
AcDbEntity
  8
HILF
100
AcDbLine
 10
168.3619308148496
 20
41.88991818477913
 30
0.0
 11
202.4294419663364
 21
41.88991818477913
 31
0.0
  0
LINE
  5
73
330
1E
100
AcDbEntity
  8
HILF
100
AcDbLine
 10
111.7454849644942
 20
7.446991290141568
 30
0.0
 11
202.4294419663364
 21
7.446991290141568
 31
0.0
  0
TEXT
  5
74
330
1E
100
AcDbEntity
  8
TEXT
100
AcDbText
 10
31.9308298981591
 20
9.336909474920659
 30
0.0
 40
2.0
  1
Änderung
 41
0.8
  7
GREEKS
 72
     1
 11
37.30225846958767
 21
9.336909474920659
 31
0.0
100
AcDbText
  0
TEXT
  5
75
330
1E
100
AcDbEntity
  8
TEXT
100
AcDbText
 10
71.75817860751886
 20
51.23104475435443
 30
0.0
 40
2.5
  1
Maßstab
 41
0.8
  7
GREEKS
100
AcDbText
  0
TEXT
  5
76
330
1E
100
AcDbEntity
  8
TEXT
100
AcDbText
 10
92.14294773670257
 20
51.20920842174095
 30
0.0
 40
2.5
  1
Zul. Abw.
 41
0.8
  7
GREEKS
100
AcDbText
  0
TEXT
  5
77
330
1E
100
AcDbEntity
  8
TEXT
100
AcDbText
 10
112.4389701904505
 20
51.27446640058898
 30
0.0
 40
2.5
  1
Benennung
 41
0.8
  7
GREEKS
100
AcDbText
  0
TEXT
  5
78
330
1E
100
AcDbEntity
  8
TEXT
100
AcDbText
 10
168.089377478817
 20
51.15660172685682
 30
0.0
 40
2.5
  1
Zeichnungs Nr.
 41
0.8
  7
GREEKS
100
AcDbText
  0
TEXT
  5
79
330
1E
100
AcDbEntity
  8
TEXT
100
AcDbText
 10
112.371119195568
 20
15.42280285096528
 30
0.0
 40
2.5
  1
Bauvorhaben
 41
0.8
  7
GREEKS
100
AcDbText
  0
TEXT
  5
7A
330
1E
100
AcDbEntity
  8
TEXT
100
AcDbText
 10
168.3619308148496
 20
36.59059118549985
 30
0.0
 40
2.5
  1
Ersatz für:
 41
0.8
  7
GREEKS
100
AcDbText
  0
TEXT
  5
7B
330
1E
100
AcDbEntity
  8
TEXT
100
AcDbText
 10
24.13320553522878
 20
6.827329230135958
 30
0.0
 40
2.0
  1
Index
 50
90.0
 41
0.8
  7
GREEKS
100
AcDbText
  0
TEXT
  5
7C
330
1E
100
AcDbEntity
  8
TEXT
100
AcDbText
 10
50.04673380377405
 20
9.33578134669905
 30
0.0
 40
2.0
  1
Tag
 41
0.8
  7
GREEKS
 72
     1
 11
51.91340047044072
 21
9.33578134669905
 31
0.0
100
AcDbText
  0
TEXT
  5
7D
330
1E
100
AcDbEntity
  8
TEXT
100
AcDbText
 10
59.50613721932963
 20
9.29662108483204
 30
0.0
 40
2.0
  1
Name
 41
0.8
  7
GREEKS
 72
     1
 11
62.66804198123439
 21
9.29662108483204
 31
0.0
100
AcDbText
  0
TEXT
  5
7E
330
1E
100
AcDbEntity
  8
TEXT
100
AcDbText
 10
81.16558365768254
 20
36.65940250614963
 30
0.0
 40
2.0
  1
Tag
 41
0.8
  7
GREEKS
100
AcDbText
  0
TEXT
  5
7F
330
1E
100
AcDbEntity
  8
TEXT
100
AcDbText
 10
96.23132921131475
 20
36.65480545957612
 30
0.0
 40
2.0
  1
Name
 41
0.8
  7
GREEKS
100
AcDbText
  0
TEXT
  5
80
330
1E
100
AcDbEntity
  8
TEXT
100
AcDbText
 10
68.79180635838077
 20
31.81495184808982
 30
0.0
 40
2.0
  1
Gez.
 41
0.8
  7
GREEKS
100
AcDbText
  0
TEXT
  5
81
330
1E
100
AcDbEntity
  8
TEXT
100
AcDbText
 10
68.77575432858361
 20
26.84463145714189
 30
0.0
 40
2.0
  1
Gepr.
 41
0.8
  7
GREEKS
100
AcDbText
  0
TEXT
  5
82
330
1E
100
AcDbEntity
  8
TEXT
100
AcDbText
 10
68.80033886936519
 20
21.76473194824904
 30
0.0
 40
2.0
  1
Norm.
 41
0.8
  7
GREEKS
100
AcDbText
  0
LINE
  5
83
330
1E
100
AcDbEntity
  8
STEMPEL
100
AcDbLine
 10
24.99999999999995
 20
5.0
 30
0.0
 11
205.0
 21
5.0
 31
0.0
  0
TEXT
  5
84
330
1E
100
AcDbEntity
  8
TEXT
100
AcDbText
 10
168.6200430748503
 20
26.03708088939301
 30
0.0
 40
2.5
  1
ersetzt durch:
 41
0.8
  7
GREEKS
100
AcDbText
  0
LINE
  5
85
330
1E
100
AcDbEntity
  8
STEMPEL
100
AcDbLine
 10
205.0
 20
5.0
 30
0.0
 11
19.99999999999994
 21
5.0
 31
0.0
  0
LINE
  5
86
330
1E
100
AcDbEntity
  8
STEMPEL
100
AcDbLine
 10
205.0
 20
5.0
 30
0.0
 11
205.0
 21
292.0
 31
0.0
  0
LINE
  5
87
330
1E
100
AcDbEntity
  8
STEMPEL
100
AcDbLine
 10
20.0
 20
5.0
 30
0.0
 11
19.99999999999994
 21
292.0
 31
0.0
  0
LINE
  5
88
330
1E
100
AcDbEntity
  8
STEMPEL
100
AcDbLine
 10
205.0
 20
292.0
 30
0.0
 11
19.99999999999994
 21
292.0
 31
0.0
  0
LINE
  5
89
330
1E
100
AcDbEntity
  8
HILF
100
AcDbLine
 10
0.0
 20
0.0
 30
0.0
 11
-0.0000000000000568
 21
297.0
 31
0.0
  0
LINE
  5
8A
330
1E
100
AcDbEntity
  8
HILF
100
AcDbLine
 10
210.0
 20
297.0000000000001
 30
0.0
 11
0.0
 21
297.0
 31
0.0
  0
LINE
  5
8B
330
1E
100
AcDbEntity
  8
HILF
100
AcDbLine
 10
210.0
 20
0.0
 30
0.0
 11
0.0
 21
0.0
 31
0.0
  0
LINE
  5
8C
330
1E
100
AcDbEntity
  8
HILF
100
AcDbLine
 10
15.54383567856928
 20
148.5
 30
0.0
 11
0.0000000000000568
 21
148.5
 31
0.0
  0
TEXT
  5
8D
330
1E
100
AcDbEntity
  8
TEXT
100
AcDbText
 10
69.31105491105199
 20
36.57012735575833
 30
0.0
 40
2.0
  1
2011
 41
0.8
  7
GREEKS
100
AcDbText
  0
LINE
  5
8E
330
1E
100
AcDbEntity
  8
HILF
100
AcDbLine
 10
210.0
 20
-0.0000000000000568
 30
0.0
 11
210.0
 21
297.0
 31
0.0
  0
TEXT
  5
8F
330
1E
100
AcDbEntity
  8
VOLL
100
AcDbText
 10
78.07675471698113
 20
31.02594776470585
 30
0.0
 40
1.8
  1

  7
GREEKS
100
AcDbText
  0
TEXT
  5
90
330
1E
100
AcDbEntity
  8
TEXT
100
AcDbText
 10
20.92754975488837
 20
55.83599999999997
 30
0.0
 40
2.5
  1
Erstellt mit AUTOCAD 2004
 41
0.8
  7
GREEKS
100
AcDbText
  0
TEXT
  5
91
330
1E
100
AcDbEntity
  8
TEXT
100
AcDbText
 10
97.21080242906285
 20
31.54481959861755
 30
0.0
 40
2.0
  1
Koeh
 41
0.8
  7
GREEKS
 72
     1
 11
99.83937385763429
 21
31.54481959861755
 31
0.0
100
AcDbText
  0
TEXT
  5
92
330
1E
100
AcDbEntity
  8
TEXT
 62
     1
100
AcDbText
 10
173.7270521181649
 20
44.07450714456979
 30
0.0
 40
3.5
  1
19602MC0W
 41
0.8
  7
GREEKS
 72
     1
 11
185.7937187848316
 21
44.07450714456979
 31
0.0
100
AcDbText
  0
TEXT
  5
93
330
1E
100
AcDbEntity
  8
TEXT
 62
     1
100
AcDbText
 10
75.25031532409435
 20
44.07450714456979
 30
0.0
 40
3.5
  1
1:1
 41
0.8
  7
GREEKS
100
AcDbText
  0
TEXT
  5
94
330
1E
100
AcDbEntity
  8
TEXT
100
AcDbText
 10
80.19949855411802
 20
31.55382520412866
 30
0.0
 40
2.0
  1
07.09.
 41
0.8
  7
GREEKS
 72
     1
 11
83.70426045887993
 21
31.55382520412866
 31
0.0
100
AcDbText
  0
TEXT
  5
95
330
1E
100
AcDbEntity
  8
TEXT
 62
     1
100
AcDbText
 10
113.4467865528701
 20
43.70874394626889
 30
0.0
 40
3.5
  1
Abgleichstück DN80/70
 41
0.75
  7
GREEKS
100
AcDbText
  0
TEXT
  5
96
330
1E
100
AcDbEntity
  8
TEXT
100
AcDbText
 10
112.5648195562657
 20
35.75167208792644
 30
0.0
 40
2.5
  1

 41
0.8
  7
GREEKS
100
AcDbText
  0
TEXT
  5
97
330
1E
100
AcDbEntity
  8
TEXT
100
AcDbText
 10
112.5648195562657
 20
31.05790353387428
 30
0.0
 40
2.5
  1

 41
0.8
  7
GREEKS
100
AcDbText
  0
TEXT
  5
98
330
1E
100
AcDbEntity
  8
TEXT
100
AcDbText
 10
112.5648195562657
 20
25.82005971521079
 30
0.0
 40
2.5
  1
EDV-Art.Nr. 19602.MC0X
 41
0.8
  7
GREEKS
100
AcDbText
  0
TEXT
  5
99
330
1E
100
AcDbEntity
  8
TEXT
100
AcDbText
 10
112.4918750788913
 20
21.31487076511316
 30
0.0
 40
2.0
  1
19602MC0W.DWG
 41
0.8
  7
GREEKS
100
AcDbText
  0
TEXT
  5
9A
330
1E
100
AcDbEntity
  8
TEXT
100
AcDbText
 10
91.31306610404202
 20
45.38181920511511
 30
0.0
 40
2.0
  1
DIN EN1123-2
 41
0.8
  7
GREEKS
 72
     1
 11
99.80830419928011
 21
45.38181920511511
 31
0.0
100
AcDbText
  0
INSERT
  5
9B
330
1E
100
AcDbEntity
  8
STEMPEL
100
AcDbBlockReference
  2
LOGO
 10
70.4977742728897
 20
22.51052638224161
 30
0.0
  0
TEXT
  5
118
330
1E
100
AcDbEntity
  8
BEM
100
AcDbText
 10
208.6511461928583
 20
5.083950539994247
 30
0.0
 40
2.0
  1
Diese Zeichnung ist urheberrechtlich geschützt und bleibt unser Eigentum. Sie darf weder ganz noch teilweise verfielfältigt und nicht an Dritte weitergegeben werden.
 50
90.0
 41
0.8
  7
GREEKS
100
AcDbText
  0
TEXT
  5
380
330
1E
100
AcDbEntity
  8
TEXT
 62
     1
100
AcDbText
 10
29.95709425014128
 20
64.22980214170593
 30
0.0
 40
3.5
  1
Rohrende leicht eingezogen
 41
0.8
  7
GREEKS
100
AcDbText
  0
TEXT
  5
388
330
1E
100
AcDbEntity
  8
TEXT
 62
     1
100
AcDbText
 10
140.1625659508535
 20
58.44693597545518
 30
0.0
 40
3.5
  1
und innen beschichtet
 41
0.8
  7
GREEKS
100
AcDbText
  0
TEXT
  5
389
330
1E
100
AcDbEntity
  8
TEXT
 62
     1
100
AcDbText
 10
116.1877072321546
 20
63.80799188295691
 30
0.0
 40
3.5
  1
Werkstoff: E195 EN10305 feuerverzinkt
 41
0.8
  7
GREEKS
100
AcDbText
  0
ARC
  5
10FE
102
{ACAD_REACTORS
330
118F
102
}
330
1E
100
AcDbEntity
  8
STEMPEL
100
AcDbCircle
 10
63.99999999999986
 20
185.4807658102928
 30
0.0
 40
13.6
100
AcDbArc
 50
0.0
 51
9.46232220802401
  0
ARC
  5
10FF
102
{ACAD_REACTORS
330
118F
102
}
330
1E
100
AcDbEntity
  8
STEMPEL
100
AcDbCircle
 10
160.9999999999999
 20
185.4807658102928
 30
0.0
 40
13.6
100
AcDbArc
 50
170.537677791976
 51
180.0
  0
ARC
  5
1100
102
{ACAD_REACTORS
330
118F
102
}
330
1E
100
AcDbEntity
  8
STEMPEL
100
AcDbCircle
 10
160.9999999999999
 20
185.4807658102928
 30
0.0
 40
12.0
100
AcDbArc
 50
170.537677791976
 51
180.0
  0
ARC
  5
1101
102
{ACAD_REACTORS
330
118F
102
}
330
1E
100
AcDbEntity
  8
STEMPEL
100
AcDbCircle
 10
63.99999999999986
 20
185.4807658102928
 30
0.0
 40
12.0
100
AcDbArc
 50
0.0
 51
9.46232220802401
  0
LINE
  5
1103
102
{ACAD_REACTORS
330
1179
330
118F
102
}
330
1E
100
AcDbEntity
  8
STEMPEL
100
AcDbLine
 10
149.1632729140142
 20
187.453553657957
 30
0.0
 11
151.4999999999999
 21
201.4739161738715
 31
0.0
  0
LINE
  5
1104
102
{ACAD_REACTORS
330
118F
102
}
330
1E
100
AcDbEntity
  8
STEMPEL
100
AcDbLine
 10
147.5850426358828
 20
187.7165920376457
 30
0.0
 11
149.8779299919204
 21
201.4739161738714
 31
0.0
  0
LINE
  5
1105
102
{ACAD_REACTORS
330
118F
102
}
330
1E
100
AcDbEntity
  8
STEMPEL
100
AcDbLine
 10
149.0
 20
185.4807658102928
 30
0.0
 11
148.9999999999998
 21
96.40405866521703
 31
0.0
  0
LINE
  5
1106
102
{ACAD_REACTORS
330
118F
102
}
330
1E
100
AcDbEntity
  8
STEMPEL
100
AcDbLine
 10
147.4
 20
185.4807658102928
 30
0.0
 11
147.3999999999999
 21
96.47391617387178
 31
0.0
  0
LINE
  5
1109
102
{ACAD_REACTORS
330
118F
102
}
330
1E
100
AcDbEntity
  8
STEMPEL
100
AcDbLine
 10
77.41495736411704
 20
187.7165920376457
 30
0.0
 11
75.12207000807942
 21
201.4739161738715
 31
0.0
  0
LINE
  5
110A
102
{ACAD_REACTORS
330
1179
330
118F
102
}
330
1E
100
AcDbEntity
  8
STEMPEL
100
AcDbLine
 10
75.83672708598564
 20
187.4535536579571
 30
0.0
 11
73.49999999999991
 21
201.4739161738717
 31
0.0
  0
LINE
  5
110C
102
{ACAD_REACTORS
330
118F
102
}
330
1E
100
AcDbEntity
  8
STEMPEL
100
AcDbLine
 10
77.59999999999988
 20
185.4807658102928
 30
0.0
 11
77.59999999999988
 21
96.47391617387345
 31
0.0
  0
LINE
  5
1110
102
{ACAD_REACTORS
330
118F
102
}
330
1E
100
AcDbEntity
  8
STEMPEL
100
AcDbLine
 10
75.99999999999986
 20
185.4807658102928
 30
0.0
 11
75.9999999999998
 21
96.40405866521945
 31
0.0
  0
LINE
  5
1111
102
{ACAD_REACTORS
330
118F
102
}
330
1E
100
AcDbEntity
  8
STEMPEL
100
AcDbLine
 10
148.1312251048099
 20
86.47391617387137
 30
0.0
 11
76.86877489518971
 21
86.4739161738716
 31
0.0
  0
ARC
  5
1114
102
{ACAD_REACTORS
330
11C1
102
}
330
1E
100
AcDbEntity
  8
STEMPEL
100
AcDbCircle
 10
81.59999999999987
 20
213.504883610402
 30
0.0
 40
13.6
100
AcDbArc
 50
180.0
 51
215.7177082445932
  0
ARC
  5
1115
102
{ACAD_REACTORS
330
11C1
102
}
330
1E
100
AcDbEntity
  8
STEMPEL
100
AcDbCircle
 10
81.59999999999987
 20
213.504883610402
 30
0.0
 40
12.0
100
AcDbArc
 50
180.0
 51
215.7177082445932
  0
LINE
  5
1116
102
{ACAD_REACTORS
330
11C1
102
}
330
1E
100
AcDbEntity
  8
STEMPEL
100
AcDbLine
 10
75.47067843645945
 20
201.4739161738714
 30
0.0
 11
71.85716238388685
 21
206.4993775483067
 31
0.0
  0
LINE
  5
1117
102
{ACAD_REACTORS
330
1179
330
11C1
102
}
330
1E
100
AcDbEntity
  8
STEMPEL
100
AcDbLine
 10
73.49999999999991
 20
201.4739161738714
 30
0.0
 11
70.5581173684051
 21
205.5653100733606
 31
0.0
  0
LINE
  5
1119
102
{ACAD_REACTORS
330
11C1
102
}
330
1E
100
AcDbEntity
  8
STEMPEL
100
AcDbLine
 10
149.5293215635403
 20
201.4739161738714
 30
0.0
 11
153.1428376161129
 21
206.4993775483067
 31
0.0
  0
LINE
  5
111A
102
{ACAD_REACTORS
330
1179
330
11C1
102
}
330
1E
100
AcDbEntity
  8
STEMPEL
100
AcDbLine
 10
151.4999999999999
 20
201.4739161738714
 30
0.0
 11
154.4418826315947
 21
205.5653100733606
 31
0.0
  0
POINT
  5
111B
330
1E
100
AcDbEntity
  8
STEMPEL
100
AcDbPoint
 10
151.4999999999999
 20
201.4739161738714
 30
0.0
  0
POINT
  5
111C
330
1E
100
AcDbEntity
  8
STEMPEL
100
AcDbPoint
 10
73.49999999999991
 20
201.4739161738717
 30
0.0
  0
POINT
  5
111D
330
1E
100
AcDbEntity
  8
STEMPEL
100
AcDbPoint
 10
160.0999999999999
 20
225.8626425912886
 30
0.0
  0
POINT
  5
111E
330
1E
100
AcDbEntity
  8
STEMPEL
100
AcDbPoint
 10
64.89999999999989
 20
225.8626425912886
 30
0.0
  0
POINT
  5
111F
330
1E
100
AcDbEntity
  8
STEMPEL
100
AcDbPoint
 10
157.0
 20
213.504883610402
 30
0.0
  0
POINT
  5
1120
330
1E
100
AcDbEntity
  8
STEMPEL
100
AcDbPoint
 10
67.99999999999991
 20
213.5048836104019
 30
0.0
  0
ARC
  5
1124
102
{ACAD_REACTORS
330
11C1
102
}
330
1E
100
AcDbEntity
  8
STEMPEL
100
AcDbCircle
 10
143.4
 20
213.504883610402
 30
0.0
 40
13.6
100
AcDbArc
 50
324.2822917554068
 51
0.0
  0
ARC
  5
1125
102
{ACAD_REACTORS
330
11C1
102
}
330
1E
100
AcDbEntity
  8
STEMPEL
100
AcDbCircle
 10
143.4
 20
213.504883610402
 30
0.0
 40
12.0
100
AcDbArc
 50
324.2822917554068
 51
0.0
  0
LINE
  5
1127
102
{ACAD_REACTORS
330
118F
330
11C1
102
}
330
1E
100
AcDbEntity
  8
STEMPEL
100
AcDbLine
 10
151.4999999999998
 20
201.4739161738713
 30
0.0
 11
73.49999999999991
 21
201.4739161738717
 31
0.0
  0
LINE
  5
1128
102
{ACAD_REACTORS
330
11C1
102
}
330
1E
100
AcDbEntity
  8
STEMPEL
100
AcDbLine
 10
160.2654046703398
 20
280.4739161738717
 30
0.0
 11
161.2951715611013
 21
278.2655739501223
 31
0.0
  0
LINE
  5
1129
102
{ACAD_REACTORS
330
11C1
102
}
330
1E
100
AcDbEntity
  8
STEMPEL
100
AcDbLine
 10
158.4999999999999
 20
280.4739161738717
 30
0.0
 11
159.8450791018428
 21
277.5893847313366
 31
0.0
  0
ARC
  5
112A
102
{ACAD_REACTORS
330
11C1
102
}
330
1E
100
AcDbEntity
  8
STEMPEL
100
AcDbCircle
 10
138.9999999999999
 20
267.8691647113006
 30
0.0
 40
23.0
100
AcDbArc
 50
0.0
 51
24.99999999998912
  0
ARC
  5
112B
102
{ACAD_REACTORS
330
11C1
102
}
330
1E
100
AcDbEntity
  8
STEMPEL
100
AcDbCircle
 10
138.9999999999999
 20
267.8691647113006
 30
0.0
 40
24.6
100
AcDbArc
 50
0.0
 51
24.99999999999134
  0
ARC
  5
112C
102
{ACAD_REACTORS
330
11C1
102
}
330
1E
100
AcDbEntity
  8
STEMPEL
100
AcDbCircle
 10
138.5999999999998
 20
260.8420611830813
 30
0.0
 40
23.40009324312573
100
AcDbArc
 50
334.9760028074218
 51
0.1617474314689241
  0
ARC
  5
112D
102
{ACAD_REACTORS
330
11C1
102
}
330
1E
100
AcDbEntity
  8
STEMPEL
100
AcDbCircle
 10
172.0999999999999
 20
245.1337831106765
 30
0.0
 40
12.0
100
AcDbArc
 50
154.6922769019328
 51
180.0
  0
ARC
  5
112E
102
{ACAD_REACTORS
330
11C1
102
}
330
1E
100
AcDbEntity
  8
STEMPEL
100
AcDbCircle
 10
172.0999999999999
 20
245.1337831106765
 30
0.0
 40
13.6
100
AcDbArc
 50
154.7092129456868
 51
180.0
  0
ARC
  5
112F
102
{ACAD_REACTORS
330
11C1
102
}
330
1E
100
AcDbEntity
  8
STEMPEL
100
AcDbCircle
 10
164.9999999999999
 20
215.1673165093031
 30
0.0
 40
9.599999999999999
100
AcDbArc
 50
147.6719358778391
 51
180.0
  0
ARC
  5
1130
102
{ACAD_REACTORS
330
11C1
102
}
330
1E
100
AcDbEntity
  8
STEMPEL
100
AcDbCircle
 10
164.9999999999999
 20
215.1673165093031
 30
0.0
 40
8.0
100
AcDbArc
 50
147.6719358778391
 51
180.0
  0
ARC
  5
1131
102
{ACAD_REACTORS
330
11C1
102
}
330
1E
100
AcDbEntity
  8
STEMPEL
100
AcDbCircle
 10
148.0999999999999
 20
225.8626425912886
 30
0.0
 40
12.0
100
AcDbArc
 50
327.6719358778392
 51
0.0
  0
ARC
  5
1132
102
{ACAD_REACTORS
330
11C1
102
}
330
1E
100
AcDbEntity
  8
STEMPEL
100
AcDbCircle
 10
148.0999999999999
 20
225.8626425912886
 30
0.0
 40
10.4
100
AcDbArc
 50
327.6719358778392
 51
0.0
  0
LINE
  5
1133
102
{ACAD_REACTORS
330
11C1
102
}
330
1E
100
AcDbEntity
  8
STEMPEL
100
AcDbLine
 10
158.4999999999999
 20
245.1337831106765
 30
0.0
 11
158.4999999999999
 21
225.8626425912886
 31
0.0
  0
LINE
  5
1134
102
{ACAD_REACTORS
330
11C1
102
}
330
1E
100
AcDbEntity
  8
STEMPEL
100
AcDbLine
 10
160.0999999999999
 20
245.1337831106765
 30
0.0
 11
160.0999999999999
 21
225.8626425912886
 31
0.0
  0
ARC
  5
1135
102
{ACAD_REACTORS
330
11C1
102
}
330
1E
100
AcDbEntity
  8
STEMPEL
100
AcDbCircle
 10
138.5999999999999
 20
260.8420611830813
 30
0.0
 40
25.00009324312574
100
AcDbArc
 50
334.9670575584586
 51
0.1564859545818676
  0
LINE
  5
1136
102
{ACAD_REACTORS
330
11C1
102
}
330
1E
100
AcDbEntity
  8
STEMPEL
100
AcDbLine
 10
155.4
 20
215.1673165093031
 30
0.0
 11
155.4
 21
213.504883610402
 31
0.0
  0
LINE
  5
1137
102
{ACAD_REACTORS
330
11C1
102
}
330
1E
100
AcDbEntity
  8
STEMPEL
100
AcDbLine
 10
156.9999999999999
 20
215.1673165093031
 30
0.0
 11
156.9999999999999
 21
213.504883610402
 31
0.0
  0
LINE
  5
1138
102
{ACAD_REACTORS
330
11C1
102
}
330
1E
100
AcDbEntity
  8
STEMPEL
100
AcDbLine
 10
161.9999999999999
 20
267.8691647113006
 30
0.0
 11
161.9999999999999
 21
260.9081201490842
 31
0.0
  0
LINE
  5
1139
102
{ACAD_REACTORS
330
11C1
102
}
330
1E
100
AcDbEntity
  8
STEMPEL
100
AcDbLine
 10
163.5999999999999
 20
267.8691647113006
 30
0.0
 11
163.5999999999999
 21
260.9103412313729
 31
0.0
  0
LINE
  5
113A
102
{ACAD_REACTORS
330
11C1
102
}
330
1E
100
AcDbEntity
  8
STEMPEL
100
AcDbLine
 10
66.49999999999997
 20
280.4739161738717
 30
0.0
 11
65.15492089815698
 21
277.5893847313366
 31
0.0
  0
LINE
  5
113B
102
{ACAD_REACTORS
330
11C1
102
}
330
1E
100
AcDbEntity
  8
STEMPEL
100
AcDbLine
 10
64.73459532965998
 20
280.4739161738717
 30
0.0
 11
63.70482843889854
 21
278.2655739501223
 31
0.0
  0
LINE
  5
113C
102
{ACAD_REACTORS
330
11C1
102
}
330
1E
100
AcDbEntity
  8
STEMPEL
100
AcDbLine
 10
62.99999999999991
 20
267.8691647113006
 30
0.0
 11
62.99999999999991
 21
260.9081201490842
 31
0.0
  0
LINE
  5
113D
102
{ACAD_REACTORS
330
11C1
102
}
330
1E
100
AcDbEntity
  8
STEMPEL
100
AcDbLine
 10
61.39999999999989
 20
267.8691647113006
 30
0.0
 11
61.39999999999989
 21
260.9103412313729
 31
0.0
  0
ARC
  5
113E
102
{ACAD_REACTORS
330
11C1
102
}
330
1E
100
AcDbEntity
  8
STEMPEL
100
AcDbCircle
 10
86.39999999999989
 20
260.8420611830813
 30
0.0
 40
25.00009324312574
100
AcDbArc
 50
179.8435140454181
 51
205.0329424415414
  0
ARC
  5
113F
102
{ACAD_REACTORS
330
11C1
102
}
330
1E
100
AcDbEntity
  8
STEMPEL
100
AcDbCircle
 10
86.39999999999995
 20
260.8420611830813
 30
0.0
 40
23.40009324312573
100
AcDbArc
 50
179.838252568531
 51
205.0239971925812
  0
LINE
  5
1140
102
{ACAD_REACTORS
330
11C1
102
}
330
1E
100
AcDbEntity
  8
STEMPEL
100
AcDbLine
 10
64.89999999999989
 20
245.1337831106765
 30
0.0
 11
64.89999999999989
 21
225.8626425912886
 31
0.0
  0
LINE
  5
1141
102
{ACAD_REACTORS
330
11C1
102
}
330
1E
100
AcDbEntity
  8
STEMPEL
100
AcDbLine
 10
66.49999999999986
 20
245.1337831106765
 30
0.0
 11
66.49999999999986
 21
225.8626425912886
 31
0.0
  0
ARC
  5
1142
102
{ACAD_REACTORS
330
11C1
102
}
330
1E
100
AcDbEntity
  8
STEMPEL
100
AcDbCircle
 10
52.89999999999989
 20
245.1337831106765
 30
0.0
 40
12.0
100
AcDbArc
 50
0.0
 51
25.30772309807151
  0
ARC
  5
1143
102
{ACAD_REACTORS
330
11C1
102
}
330
1E
100
AcDbEntity
  8
STEMPEL
100
AcDbCircle
 10
52.89999999999989
 20
245.1337831106765
 30
0.0
 40
13.6
100
AcDbArc
 50
0.0
 51
25.29078705432043
  0
ARC
  5
1144
102
{ACAD_REACTORS
330
11C1
102
}
330
1E
100
AcDbEntity
  8
STEMPEL
100
AcDbCircle
 10
85.99999999999992
 20
267.8691647113006
 30
0.0
 40
23.0
100
AcDbArc
 50
155.0000000000079
 51
180.0
  0
ARC
  5
1145
102
{ACAD_REACTORS
330
11C1
102
}
330
1E
100
AcDbEntity
  8
STEMPEL
100
AcDbCircle
 10
85.99999999999992
 20
267.8691647113006
 30
0.0
 40
24.6
100
AcDbArc
 50
155.0000000000036
 51
180.0
  0
LINE
  5
1146
102
{ACAD_REACTORS
330
11C1
102
}
330
1E
100
AcDbEntity
  8
STEMPEL
100
AcDbLine
 10
160.26540467034
 20
280.4739161738714
 30
0.0
 11
64.73459532965998
 21
280.4739161738717
 31
0.0
  0
ARC
  5
1147
102
{ACAD_REACTORS
330
11C1
102
}
330
1E
100
AcDbEntity
  8
STEMPEL
100
AcDbCircle
 10
59.99999999999992
 20
215.1673165093031
 30
0.0
 40
8.0
100
AcDbArc
 50
0.0
 51
32.32806412216083
  0
ARC
  5
1148
102
{ACAD_REACTORS
330
11C1
102
}
330
1E
100
AcDbEntity
  8
STEMPEL
100
AcDbCircle
 10
59.99999999999992
 20
215.1673165093031
 30
0.0
 40
9.599999999999999
100
AcDbArc
 50
0.0
 51
32.32806412216083
  0
LINE
  5
1149
102
{ACAD_REACTORS
330
11C1
102
}
330
1E
100
AcDbEntity
  8
STEMPEL
100
AcDbLine
 10
67.99999999999991
 20
215.1673165093031
 30
0.0
 11
67.99999999999991
 21
213.5048836104019
 31
0.0
  0
LINE
  5
114A
102
{ACAD_REACTORS
330
11C1
102
}
330
1E
100
AcDbEntity
  8
STEMPEL
100
AcDbLine
 10
69.59999999999988
 20
215.1673165093031
 30
0.0
 11
69.59999999999988
 21
213.504883610402
 31
0.0
  0
ARC
  5
114B
102
{ACAD_REACTORS
330
11C1
102
}
330
1E
100
AcDbEntity
  8
STEMPEL
100
AcDbCircle
 10
76.89999999999989
 20
225.8626425912886
 30
0.0
 40
12.0
100
AcDbArc
 50
180.0
 51
212.3280641221608
  0
LINE
  5
114C
330
1E
100
AcDbEntity
  8
MITTEL
  6
STRICHPUNKT
100
AcDbLine
 10
112.5
 20
285.4739161738716
 30
0.0
 11
112.4999999999999
 21
198.7203754254884
 31
0.0
  0
ARC
  5
114D
102
{ACAD_REACTORS
330
11C1
102
}
330
1E
100
AcDbEntity
  8
STEMPEL
100
AcDbCircle
 10
76.89999999999989
 20
225.8626425912886
 30
0.0
 40
10.4
100
AcDbArc
 50
180.0
 51
212.3280641221608
  0
LINE
  5
1158
102
{ACAD_REACTORS
330
118F
102
}
330
1E
100
AcDbEntity
  8
STEMPEL
100
AcDbLine
 10
77.59999999999988
 20
96.47391617387345
 30
0.0
 11
78.47488663525919
 21
86.47391617387146
 31
0.0
  0
LINE
  5
1159
102
{ACAD_REACTORS
330
118F
102
}
330
1E
100
AcDbEntity
  8
STEMPEL
100
AcDbLine
 10
75.9999999999998
 20
96.40405866521945
 30
0.0
 11
76.86877489518988
 21
86.47391617387146
 31
0.0
  0
LINE
  5
115A
330
1E
100
AcDbEntity
  8
HILF
100
AcDbLine
 10
79.20000000000007
 20
96.47391617387151
 30
0.0
 11
145.7999999999998
 21
96.47391617387151
 31
0.0
  0
LINE
  5
115B
102
{ACAD_REACTORS
330
118F
102
}
330
1E
100
AcDbEntity
  8
STEMPEL
100
AcDbLine
 10
147.3999999999999
 20
96.47391617387178
 30
0.0
 11
146.5251133647407
 21
86.47391617387151
 31
0.0
  0
LINE
  5
115C
102
{ACAD_REACTORS
330
118F
102
}
330
1E
100
AcDbEntity
  8
STEMPEL
100
AcDbLine
 10
148.9999999999998
 20
96.40405866521703
 30
0.0
 11
148.13122510481
 21
86.47391617387151
 31
0.0
  0
LINE
  5
115D
330
1E
100
AcDbEntity
  8
HILF
100
AcDbLine
 10
145.8322591492366
 20
186.4705321888314
 30
0.0
 11
79.16774085076318
 21
186.4705321888314
 31
0.0
  0
LINE
  5
115E
330
1E
100
AcDbEntity
  8
HILF
100
AcDbLine
 10
152.9270563079497
 20
209.3341285102845
 30
0.0
 11
72.07294369205019
 21
209.3341285102845
 31
0.0
  0
LINE
  5
115F
330
1E
100
AcDbEntity
  8
HILF
100
AcDbLine
 10
154.0236618127901
 20
217.394422254435
 30
0.0
 11
70.97633818720973
 21
217.394422254435
 31
0.0
  0
LINE
  5
1160
330
1E
100
AcDbEntity
  8
HILF
100
AcDbLine
 10
156.241252974819
 20
222.5219839735907
 30
0.0
 11
68.75874702518078
 21
222.5219839735907
 31
0.0
  0
LINE
  5
1161
330
1E
100
AcDbEntity
  8
HILF
100
AcDbLine
 10
157.1290349202172
 20
247.7625099089433
 30
0.0
 11
67.87096507978262
 21
247.7625099089433
 31
0.0
  0
TEXT
  5
116D
330
1E
100
AcDbEntity
  8
TEXT
 62
     1
100
AcDbText
 10
107.2480655368872
 20
259.3078586516343
 30
0.0
 40
3.5
  1
DN80
 50
90.0
 41
0.8
  7
GREEKS
 72
     1
 11
107.2480655368872
 21
264.4411919849676
 31
0.0
100
AcDbText
  0
TEXT
  5
116E
330
1E
100
AcDbEntity
  8
TEXT
 62
     1
100
AcDbText
 10
107.2480655368872
 20
147.270361429712
 30
0.0
 40
3.5
  1
DN70
 50
90.0
 41
0.8
  7
GREEKS
 72
     1
 11
107.2480655368872
 21
152.4036947630453
 31
0.0
100
AcDbText
  0
ARC
  5
1171
102
{ACAD_REACTORS
330
1179
102
}
330
1E
100
AcDbEntity
  8
SCHRAFF
100
AcDbCircle
 10
76.07762723207949
 20
202.9823614562662
 30
0.0
 40
4.964132731890289
100
AcDbArc
 50
162.5143861853262
 51
245.2583278650633
  0
ARC
  5
1172
102
{ACAD_REACTORS
330
1179
102
}
330
1E
100
AcDbEntity
  8
SCHRAFF
100
AcDbCircle
 10
148.9223727679203
 20
202.9823614562662
 30
0.0
 40
4.964132731890289
100
AcDbArc
 50
294.7416721349367
 51
17.4856138146738
  0
HATCH
  5
1179
330
1E
100
AcDbEntity
  8
SCHRAFF
100
AcDbHatch
 10
0.0
 20
0.0
 30
0.0
210
0.0
220
0.0
230
1.0
  2
_USER
 70
     0
 71
     1
 91
        2
 92
        7
 72
     1
 73
     1
 93
        3
 10
153.6571249582903
 20
204.4739161738717
 42
0.0
 10
151.4999999999999
 20
201.4739161738715
 42
0.0
 10
151.0
 20
198.4739161738717
 42
0.3775890118412308
 97
        3
330
111A
330
1103
330
1172
 92
        7
 72
     1
 73
     1
 93
        3
 10
71.3428750417095
 20
204.4739161738717
 42
0.3775890118412339
 10
73.99999999999991
 20
198.4739161738716
 42
0.0
 10
73.49999999999998
 20
201.4739161738713
 42
0.0
 97
        3
330
1117
330
1171
330
110A
 75
     0
 76
     0
 52
0.0
 41
0.1
 77
     0
 78
     1
 53
0.0
 43
-230.7773269324906
 44
-2.904073487154846
 45
0.0
 46
0.1
 79
     0
 47
0.1655804565433454
 98
        2
 10
152.6721251815698
 20
201.0085533429355
 10
72.48279988387648
 20
201.339714319849
  0
HATCH
  5
118F
330
1E
100
AcDbEntity
  8
SCHRAFF
100
AcDbHatch
 10
0.0
 20
0.0
 30
0.0
210
0.0
220
0.0
230
1.0
  2
_USER
 70
     0
 71
     1
 91
        2
 92
        7
 72
     1
 73
     1
 93
       10
 10
149.0
 20
185.4807658102928
 42
-0.0413106451481681
 10
149.1632729140142
 20
187.4535536579571
 42
0.0
 10
151.4999999999999
 20
201.4739161738713
 42
0.0
 10
149.8779299919204
 20
201.4739161738713
 42
0.0
 10
147.5850426358828
 20
187.7165920376457
 42
0.0413106451481692
 10
147.4
 20
185.4807658102927
 42
0.0
 10
147.4
 20
96.47391617387171
 42
0.0
 10
146.5251133647407
 20
86.47391617387137
 42
0.0
 10
148.13122510481
 20
86.47391617387137
 42
0.0
 10
148.9999999999998
 20
96.40405866521739
 42
0.0
 97
       10
330
1100
330
1103
330
1127
330
1104
330
10FF
330
1106
330
115B
330
1111
330
115C
330
1105
 92
        7
 72
     1
 73
     1
 93
       10
 10
77.59999999999988
 20
185.4807658102928
 42
0.0413106451481639
 10
77.41495736411707
 20
187.7165920376455
 42
0.0
 10
75.1220700080794
 20
201.4739161738716
 42
0.0
 10
73.49999999999993
 20
201.4739161738716
 42
0.0
 10
75.83672708598564
 20
187.4535536579571
 42
-0.0413106451481596
 10
75.99999999999986
 20
185.4807658102932
 42
0.0
 10
75.9999999999998
 20
96.40405866521962
 42
0.0
 10
76.86877489518987
 20
86.4739161738716
 42
0.0
 10
78.47488663525918
 20
86.4739161738716
 42
0.0
 10
77.5999999999999
 20
96.47391617387349
 42
0.0
 97
       10
330
10FE
330
1109
330
1127
330
110A
330
1101
330
1110
330
1159
330
1111
330
1158
330
110C
 75
     0
 76
     0
 52
45.0
 41
2.0
 77
     0
 78
     1
 53
45.0
 43
-230.7773269324906
 44
-2.904073487154846
 45
-1.414213562373094
 46
1.414213562373095
 79
     0
 47
0.3625104567905466
 98
        2
 10
148.2579683211755
 20
167.4316070149473
 10
77.16302127598701
 20
170.3316905747134
  0
HATCH
  5
11C1
330
1E
100
AcDbEntity
  8
SCHRAFF
100
AcDbHatch
 10
0.0
 20
0.0
 30
0.0
210
0.0
220
0.0
230
1.0
  2
_USER
 70
     0
 71
     1
 91
        2
 92
        7
 72
     1
 73
     1
 93
       24
 10
160.0999999999999
 20
245.1337831106765
 42
-0.1108768121414951
 10
161.2517007633209
 20
250.2635397980321
 42
0.1089723179973837
 10
163.5999999999999
 20
260.7737811348958
 42
0.0
 10
163.5999999999999
 20
267.8691647113006
 42
0.1095178116832465
 10
161.2951715611013
 20
278.2655739501223
 42
0.0
 10
160.2654046703398
 20
280.4739161738714
 42
0.0
 10
158.5
 20
280.4739161738714
 42
0.0
 10
159.8450791018428
 20
277.5893847313366
 42
-0.1095178116832431
 10
161.9999999999999
 20
267.8691647113004
 42
0.0
 10
161.9999999999999
 20
260.9081201490842
 42
-0.1112043308297071
 10
159.7695368315741
 20
250.8713503697241
 42
0.1093117521959793
 10
158.4999999999999
 20
245.1337831106766
 42
0.0
 10
158.4999999999999
 20
225.8626425912886
 42
-0.1420008527982229
 10
156.888
 20
220.3010730286564
 42
0.1420008527982359
 10
155.4
 20
215.167316509303
 42
0.0
 10
155.4
 20
213.504883610402
 42
-0.1571220570869216
 10
153.1428376161129
 20
206.4993775483067
 42
0.0
 10
149.5293215635403
 20
201.4739161738713
 42
0.0
 10
151.4999999999998
 20
201.4739161738713
 42
0.0
 10
154.4418826315947
 20
205.5653100733606
 42
0.1571220570869228
 10
156.9999999999999
 20
213.504883610402
 42
0.0
 10
156.9999999999999
 20
215.1673165093031
 42
-0.1420008527982231
 10
158.2399999999998
 20
219.4454469420971
 42
0.1420008527982333
 10
160.0999999999999
 20
225.8626425912886
 42
0.0
 97
       24
330
112D
330
1135
330
1139
330
112B
330
1128
330
1146
330
1129
330
112A
330
1138
330
112C
330
112E
330
1133
330
1132
330
112F
330
1136
330
1125
330
1119
330
1127
330
111A
330
1124
330
1137
330
1130
330
1131
330
1134
 92
        7
 72
     1
 73
     1
 93
       24
 10
66.49999999999986
 20
245.1337831106765
 42
0.1093117521959604
 10
65.23046316842616
 20
250.8713503697231
 42
-0.1112043308297192
 10
62.99999999999991
 20
260.9081201490842
 42
0.0
 10
62.99999999999991
 20
267.8691647113006
 42
-0.1095178116832404
 10
65.15492089815698
 20
277.5893847313366
 42
0.0
 10
66.49999999999997
 20
280.4739161738717
 42
0.0
 10
64.73459532966
 20
280.4739161738717
 42
0.0
 10
63.70482843889854
 20
278.2655739501223
 42
0.1095178116832469
 10
61.39999999999989
 20
267.8691647113006
 42
0.0
 10
61.39999999999989
 20
260.7737811348891
 42
0.1089723179972742
 10
63.74829923667713
 20
250.2635397980359
 42
-0.1108768121415825
 10
64.89999999999989
 20
245.1337831106765
 42
0.0
 10
64.89999999999989
 20
225.8626425912886
 42
0.1420008527982294
 10
66.75999999999989
 20
219.4454469420973
 42
-0.1420008527982306
 10
67.99999999999991
 20
215.167316509303
 42
0.0
 10
67.99999999999991
 20
213.5048836104019
 42
0.1571220570869207
 10
70.5581173684051
 20
205.5653100733606
 42
0.0
 10
73.49999999999976
 20
201.4739161738717
 42
0.0
 10
75.47067843645931
 20
201.4739161738717
 42
0.0
 10
71.85716238388685
 20
206.4993775483067
 42
-0.1571220570869213
 10
69.59999999999988
 20
213.504883610402
 42
0.0
 10
69.59999999999988
 20
215.1673165093031
 42
0.1420008527982301
 10
68.11199999999988
 20
220.3010730286562
 42
-0.1420008527982283
 10
66.49999999999986
 20
225.8626425912886
 42
0.0
 97
       24
330
1143
330
113F
330
113C
330
1144
330
113A
330
1146
330
113B
330
1145
330
113D
330
113E
330
1142
330
1140
330
114B
330
1147
330
1149
330
1114
330
1117
330
1127
330
1116
330
1115
330
114A
330
1148
330
114D
330
1141
 75
     0
 76
     0
 52
135.0
 41
2.0
 77
     0
 78
     1
 53
135.0
 43
-230.7773269324906
 44
-2.904073487154846
 45
-1.414213562373095
 46
-1.414213562373094
 79
     0
 47
0.3625104567905466
 98
        2
 10
159.502577926159
 20
234.4960421287349
 10
65.91841167100355
 20
239.2086779133549
  0
DIMENSION
  5
11C3
330
1E
100
AcDbEntity
  8
BEM
100
AcDbDimension
  2
*D1
 10
57.65686424965233
 20
186.4739161738716
 30
0.0
 11
54.40686424965229
 21
136.4739161738716
 31
0.0
 70
    32
 71
     5
 42
100.0
  3
Standard
100
AcDbAlignedDimension
 13
76.86877489518971
 23
86.4739161738716
 33
0.0
 14
75.95883156313025
 24
186.4739161738715
 34
0.0
 50
90.0
100
AcDbRotatedDimension
1001
ACAD
1000
DSTYLE
1002
{
1070
    41
1040
3.5
1070
    42
1040
1.0
1070
    43
1040
7.0
1070
    44
1040
1.0
1070
    73
1070
     0
1070
    74
1070
     0
1070
    77
1070
     1
1070
    78
1070
     8
1070
    79
1070
     2
1070
   140
1040
3.5
1070
   141
1040
1.5
1070
   146
1040
0.5
1070
   147
1040
1.5
1070
   172
1070
     1
1070
   178
1070
     1
1070
   179
1070
     2
1070
   271
1070
     2
1070
   272
1070
     2
1070
   284
1070
     8
1070
   285
1070
     8
1070
   286
1070
     8
1002
}
  0
DIMENSION
  5
11EA
330
1E
100
AcDbEntity
  8
BEM
100
AcDbDimension
  2
*D2
 10
49.56005688291188
 20
280.4739161738717
 30
0.0
 11
46.31005688291183
 21
183.4739161738716
 31
0.0
 70
    32
 71
     5
 42
194.0
  3
Standard
100
AcDbAlignedDimension
 13
76.86877489518971
 23
86.4739161738716
 33
0.0
 14
64.73459532965998
 24
280.4739161738717
 34
0.0
 50
90.0
100
AcDbRotatedDimension
1001
ACAD
1000
DSTYLE
1002
{
1070
    41
1040
3.5
1070
    42
1040
1.0
1070
    43
1040
7.0
1070
    44
1040
1.0
1070
    73
1070
     0
1070
    74
1070
     0
1070
    77
1070
     1
1070
    78
1070
     8
1070
    79
1070
     2
1070
   140
1040
3.5
1070
   141
1040
1.5
1070
   146
1040
0.5
1070
   147
1040
1.5
1070
   172
1070
     1
1070
   178
1070
     1
1070
   179
1070
     2
1070
   271
1070
     2
1070
   272
1070
     2
1070
   284
1070
     8
1070
   285
1070
     8
1070
   286
1070
     8
1002
}
  0
DIMENSION
  5
11F7
330
1E
100
AcDbEntity
  8
BEM
100
AcDbDimension
  2
*D3
 10
148.9999999999998
 20
73.37755717255243
 30
0.0
 11
112.4999999999998
 21
76.62755717255243
 31
0.0
 70
    32
  1
%%c<>
 71
     5
 42
73.0
  3
Standard
100
AcDbAlignedDimension
 13
75.9999999999998
 23
96.40405866521946
 33
0.0
 14
148.9999999999998
 24
96.40405866521703
 34
0.0
100
AcDbRotatedDimension
1001
ACAD
1000
DSTYLE
1002
{
1070
    41
1040
3.5
1070
    42
1040
1.0
1070
    43
1040
7.0
1070
    44
1040
1.0
1070
    73
1070
     0
1070
    74
1070
     0
1070
    77
1070
     1
1070
    78
1070
     8
1070
    79
1070
     2
1070
   140
1040
3.5
1070
   141
1040
1.5
1070
   146
1040
0.5
1070
   147
1040
1.5
1070
   172
1070
     1
1070
   178
1070
     1
1070
   179
1070
     2
1070
   271
1070
     2
1070
   272
1070
     2
1070
   284
1070
     8
1070
   285
1070
     8
1070
   286
1070
     8
1002
}
  0
DIMENSION
  5
1228
330
1E
100
AcDbEntity
  8
BEM
100
AcDbDimension
  2
*D4
 10
157.0
 20
192.680182742171
 30
0.0
 11
112.4999999999999
 21
195.930182742171
 31
0.0
 70
    32
  1
%%c<>
 71
     5
 42
89.00000000000018
  3
Standard
100
AcDbAlignedDimension
 13
67.99999999999986
 23
213.504883610402
 33
0.0
 14
157.0
 24
213.504883610402
 34
0.0
100
AcDbRotatedDimension
1001
ACAD
1000
DSTYLE
1002
{
1070
    41
1040
3.5
1070
    42
1040
1.0
1070
    43
1040
7.0
1070
    44
1040
1.0
1070
    73
1070
     0
1070
    74
1070
     0
1070
    77
1070
     1
1070
    78
1070
     8
1070
    79
1070
     2
1070
   140
1040
3.5
1070
   141
1040
1.5
1070
   146
1040
0.5
1070
   147
1040
1.5
1070
   172
1070
     1
1070
   178
1070
     1
1070
   179
1070
     2
1070
   271
1070
     2
1070
   272
1070
     2
1070
   284
1070
     8
1070
   285
1070
     8
1070
   286
1070
     8
1002
}
  0
LINE
  5
1249
330
1E
100
AcDbEntity
  8
MITTEL
  6
STRICHPUNKT
100
AcDbLine
 10
112.4999999999998
 20
191.0405373844223
 30
0.0
 11
112.4999999999998
 21
81.47391617387148
 31
0.0
  0
ENDSEC
  0
SECTION
  2
OBJECTS
  0
DICTIONARY
  5
C
330
0
100
AcDbDictionary
281
     1
  3
ACAD_COLOR
350
DF
  3
ACAD_GROUP
350
D
  3
ACAD_LAYOUT
350
19
  3
ACAD_MATERIAL
350
DE
  3
ACAD_MLINESTYLE
350
16
  3
ACAD_PLOTSETTINGS
350
18
  3
ACAD_PLOTSTYLENAME
350
E
  3
AcDbVariableDictionary
350
EA
  0
DICTIONARY
  5
A0
330
1E
100
AcDbDictionary
280
     1
281
     1
  3
ACAD_LAYOUTSELFREF
360
D4
  0
DICTIONARY
  5
A2
330
1A
100
AcDbDictionary
280
     1
281
     1
  3
ACAD_LAYOUTSELFREF
360
D3
  0
DICTIONARY
  5
DF
102
{ACAD_REACTORS
330
C
102
}
330
C
100
AcDbDictionary
281
     1
  0
DICTIONARY
  5
D
102
{ACAD_REACTORS
330
C
102
}
330
C
100
AcDbDictionary
281
     1
  0
DICTIONARY
  5
19
102
{ACAD_REACTORS
330
C
102
}
330
C
100
AcDbDictionary
281
     1
  3
Layout1
350
1D
  3
Model
350
21
  0
DICTIONARY
  5
DE
102
{ACAD_REACTORS
330
C
102
}
330
C
100
AcDbDictionary
281
     1
  0
DICTIONARY
  5
16
102
{ACAD_REACTORS
330
C
102
}
330
C
100
AcDbDictionary
281
     1
  3
Standard
350
17
  0
DICTIONARY
  5
18
102
{ACAD_REACTORS
330
C
102
}
330
C
100
AcDbDictionary
281
     1
  0
ACDBDICTIONARYWDFLT
  5
E
102
{ACAD_REACTORS
330
C
102
}
330
C
100
AcDbDictionary
281
     1
  3
Normal
350
F
100
AcDbDictionaryWithDefault
340
F
  0
DICTIONARY
  5
EA
102
{ACAD_REACTORS
330
C
102
}
330
C
100
AcDbDictionary
281
     1
  3
DIMASSOC
350
EB
  3
PROJECTNAME
350
EC
  0
XRECORD
  5
D4
102
{ACAD_REACTORS
330
A0
102
}
330
A0
100
AcDbXrecord
280
     1
340
1E
  0
XRECORD
  5
D3
102
{ACAD_REACTORS
330
A2
102
}
330
A2
100
AcDbXrecord
280
     1
340
1A
  0
LAYOUT
  5
1D
102
{ACAD_REACTORS
330
19
102
}
330
19
100
AcDbPlotSettings
  1

  2
\\NT_WORK01\HP LaserJet 5000 PCL 6
  4

  6

 40
0.0
 41
0.0
 42
0.0
 43
0.0
 44
0.0
 45
0.0
 46
0.0
 47
0.0
 48
0.0
 49
0.0
140
0.0
141
0.0
142
1.0
143
1.0
 70
   688
 72
     0
 73
     0
 74
     5
  7

 75
    16
147
1.0
 76
     0
 77
     2
 78
   300
148
0.0
149
0.0
100
AcDbLayout
  1
Layout1
 70
     0
 71
     1
 10
0.0
 20
0.0
 11
12.0
 21
9.0
 12
0.0
 22
0.0
 32
0.0
 14
1.000000000000000E+20
 24
1.000000000000000E+20
 34
1.000000000000000E+20
 15
-1.000000000000000E+20
 25
-1.000000000000000E+20
 35
-1.000000000000000E+20
146
0.0
 13
0.0
 23
0.0
 33
0.0
 16
1.0
 26
0.0
 36
0.0
 17
0.0
 27
1.0
 37
0.0
 76
     0
330
1A
  0
LAYOUT
  5
21
102
{ACAD_REACTORS
330
19
102
}
330
19
100
AcDbPlotSettings
  1

  2
\\NT_WORK01\HP LaserJet 5000 PCL 6
  4

  6

 40
0.0
 41
0.0
 42
0.0
 43
0.0
 44
0.0
 45
0.0
 46
0.0
 47
0.0
 48
0.0
 49
0.0
140
0.0
141
0.0
142
1.0
143
1.0
 70
  1712
 72
     0
 73
     0
 74
     0
  7

 75
     0
147
1.0
 76
     0
 77
     2
 78
   300
148
0.0
149
0.0
100
AcDbLayout
  1
Model
 70
     1
 71
     0
 10
0.0
 20
0.0
 11
12.0
 21
9.0
 12
0.0
 22
0.0
 32
0.0
 14
0.0
 24
0.0
 34
0.0
 15
0.0
 25
0.0
 35
0.0
146
0.0
 13
0.0
 23
0.0
 33
0.0
 16
1.0
 26
0.0
 36
0.0
 17
0.0
 27
1.0
 37
0.0
 76
     0
330
1E
  0
MLINESTYLE
  5
17
102
{ACAD_REACTORS
330
16
102
}
330
16
100
AcDbMlineStyle
  2
STANDARD
 70
     0
  3

 62
   256
 51
90.0
 52
90.0
 71
     2
 49
0.5
 62
   256
  6
BYLAYER
 49
-0.5
 62
   256
  6
BYLAYER
  0
ACDBPLACEHOLDER
  5
F
102
{ACAD_REACTORS
330
E
102
}
330
E
  0
DICTIONARYVAR
  5
EB
102
{ACAD_REACTORS
330
EA
102
}
330
EA
100
DictionaryVariables
280
     0
  1
1
  0
DICTIONARYVAR
  5
EC
102
{ACAD_REACTORS
330
EA
102
}
330
EA
100
DictionaryVariables
280
     0
  1

  0
ENDSEC
  0
EOF
