  0
SECTION
  2
HEADER
  9
$ACADVER
  1
AC1018
  9
$ACADMAINTVER
 70
     2
  9
$DWGCODEPAGE
  3
ANSI_1252
  9
$INSBASE
 10
0.0
 20
0.0
 30
0.0
  9
$EXTMIN
 10
-0.0000000000001137
 20
-0.0000000000001137
 30
0.0
  9
$EXTMAX
 10
420.0
 20
594.0000000000002
 30
0.0
  9
$LIMMIN
 10
0.0
 20
0.0
  9
$LIMMAX
 10
419.9999999999999
 20
594.0
  9
$ORTHOMODE
 70
     1
  9
$REGENMODE
 70
     1
  9
$FILLMODE
 70
     1
  9
$QTEXTMODE
 70
     0
  9
$MIRRTEXT
 70
     1
  9
$LTSCALE
 40
20.0
  9
$ATTMODE
 70
     1
  9
$TEXTSIZE
 40
3.5
  9
$TRACEWID
 40
0.5
  9
$TEXTSTYLE
  7
STANDARD
  9
$CLAYER
  8
SCHRAFF
  9
$CELTYPE
  6
ByLayer
  9
$CECOLOR
 62
   256
  9
$CELTSCALE
 40
1.0
  9
$DISPSILH
 70
     0
  9
$DIMSCALE
 40
2.0
  9
$DIMASZ
 40
3.5
  9
$DIMEXO
 40
1.0
  9
$DIMDLI
 40
7.0
  9
$DIMRND
 40
0.0
  9
$DIMDLE
 40
0.0
  9
$DIMEXE
 40
1.0
  9
$DIMTP
 40
0.0
  9
$DIMTM
 40
0.0
  9
$DIMTXT
 40
3.5
  9
$DIMCEN
 40
1.5
  9
$DIMTSZ
 40
0.0
  9
$DIMTOL
 70
     0
  9
$DIMLIM
 70
     0
  9
$DIMTIH
 70
     0
  9
$DIMTOH
 70
     0
  9
$DIMSE1
 70
     0
  9
$DIMSE2
 70
     0
  9
$DIMTAD
 70
     1
  9
$DIMZIN
 70
     8
  9
$DIMBLK
  1

  9
$DIMASO
 70
     1
  9
$DIMSHO
 70
     0
  9
$DIMPOST
  1

  9
$DIMAPOST
  1

  9
$DIMALT
 70
     0
  9
$DIMALTD
 70
     2
  9
$DIMALTF
 40
25.4
  9
$DIMLFAC
 40
1.0
  9
$DIMTOFL
 70
     1
  9
$DIMTVP
 40
0.0
  9
$DIMTIX
 70
     0
  9
$DIMSOXD
 70
     0
  9
$DIMSAH
 70
     0
  9
$DIMBLK1
  1

  9
$DIMBLK2
  1

  9
$DIMSTYLE
  2
Standard
  9
$DIMCLRD
 70
     0
  9
$DIMCLRE
 70
     0
  9
$DIMCLRT
 70
     1
  9
$DIMTFAC
 40
0.5
  9
$DIMGAP
 40
1.5
  9
$DIMJUST
 70
     0
  9
$DIMSD1
 70
     0
  9
$DIMSD2
 70
     0
  9
$DIMTOLJ
 70
     1
  9
$DIMTZIN
 70
     8
  9
$DIMALTZ
 70
     8
  9
$DIMALTTZ
 70
     8
  9
$DIMUPT
 70
     0
  9
$DIMDEC
 70
     2
  9
$DIMTDEC
 70
     2
  9
$DIMALTU
 70
     2
  9
$DIMALTTD
 70
     2
  9
$DIMTXSTY
  7
STANDARD
  9
$DIMAUNIT
 70
     0
  9
$DIMADEC
 70
     2
  9
$DIMALTRND
 40
0.0
  9
$DIMAZIN
 70
     2
  9
$DIMDSEP
 70
    46
  9
$DIMATFIT
 70
     3
  9
$DIMFRAC
 70
     0
  9
$DIMLDRBLK
  1

  9
$DIMLUNIT
 70
     2
  9
$DIMLWD
 70
    -2
  9
$DIMLWE
 70
    -2
  9
$DIMTMOVE
 70
     0
  9
$LUNITS
 70
     2
  9
$LUPREC
 70
     2
  9
$SKETCHINC
 40
1.0
  9
$FILLETRAD
 40
0.0
  9
$AUNITS
 70
     0
  9
$AUPREC
 70
     0
  9
$MENU
  1
ACAD
  9
$ELEVATION
 40
0.0
  9
$PELEVATION
 40
0.0
  9
$THICKNESS
 40
0.0
  9
$LIMCHECK
 70
     0
  9
$CHAMFERA
 40
0.0
  9
$CHAMFERB
 40
0.0
  9
$CHAMFERC
 40
0.0
  9
$CHAMFERD
 40
0.0
  9
$SKPOLY
 70
     0
  9
$TDCREATE
 40
2455397.864709028
  9
$TDUCREATE
 40
2455397.781375695
  9
$TDUPDATE
 40
2455812.605811528
  9
$TDUUPDATE
 40
2455812.522478195
  9
$TDINDWG
 40
0.2303223032
  9
$TDUSRTIMER
 40
0.2303223032
  9
$USRTIMER
 70
     1
  9
$ANGBASE
 50
0.0
  9
$ANGDIR
 70
     0
  9
$PDMODE
 70
     0
  9
$PDSIZE
 40
0.0
  9
$PLINEWID
 40
0.0
  9
$SPLFRAME
 70
     0
  9
$SPLINETYPE
 70
     6
  9
$SPLINESEGS
 70
     8
  9
$HANDSEED
  5
1511
  9
$SURFTAB1
 70
     6
  9
$SURFTAB2
 70
     6
  9
$SURFTYPE
 70
     6
  9
$SURFU
 70
     6
  9
$SURFV
 70
     6
  9
$UCSBASE
  2

  9
$UCSNAME
  2

  9
$UCSORG
 10
0.0
 20
0.0
 30
0.0
  9
$UCSXDIR
 10
1.0
 20
0.0
 30
0.0
  9
$UCSYDIR
 10
0.0
 20
1.0
 30
0.0
  9
$UCSORTHOREF
  2

  9
$UCSORTHOVIEW
 70
     0
  9
$UCSORGTOP
 10
0.0
 20
0.0
 30
0.0
  9
$UCSORGBOTTOM
 10
0.0
 20
0.0
 30
0.0
  9
$UCSORGLEFT
 10
0.0
 20
0.0
 30
0.0
  9
$UCSORGRIGHT
 10
0.0
 20
0.0
 30
0.0
  9
$UCSORGFRONT
 10
0.0
 20
0.0
 30
0.0
  9
$UCSORGBACK
 10
0.0
 20
0.0
 30
0.0
  9
$PUCSBASE
  2

  9
$PUCSNAME
  2

  9
$PUCSORG
 10
0.0
 20
0.0
 30
0.0
  9
$PUCSXDIR
 10
1.0
 20
0.0
 30
0.0
  9
$PUCSYDIR
 10
0.0
 20
1.0
 30
0.0
  9
$PUCSORTHOREF
  2

  9
$PUCSORTHOVIEW
 70
     0
  9
$PUCSORGTOP
 10
0.0
 20
0.0
 30
0.0
  9
$PUCSORGBOTTOM
 10
0.0
 20
0.0
 30
0.0
  9
$PUCSORGLEFT
 10
0.0
 20
0.0
 30
0.0
  9
$PUCSORGRIGHT
 10
0.0
 20
0.0
 30
0.0
  9
$PUCSORGFRONT
 10
0.0
 20
0.0
 30
0.0
  9
$PUCSORGBACK
 10
0.0
 20
0.0
 30
0.0
  9
$USERI1
 70
     0
  9
$USERI2
 70
     0
  9
$USERI3
 70
     0
  9
$USERI4
 70
     0
  9
$USERI5
 70
     0
  9
$USERR1
 40
0.0
  9
$USERR2
 40
0.0
  9
$USERR3
 40
0.0
  9
$USERR4
 40
0.0
  9
$USERR5
 40
0.0
  9
$WORLDVIEW
 70
     1
  9
$SHADEDGE
 70
     3
  9
$SHADEDIF
 70
    70
  9
$TILEMODE
 70
     1
  9
$MAXACTVP
 70
    16
  9
$PINSBASE
 10
0.0
 20
0.0
 30
0.0
  9
$PLIMCHECK
 70
     0
  9
$PEXTMIN
 10
1.000000000000000E+20
 20
1.000000000000000E+20
 30
1.000000000000000E+20
  9
$PEXTMAX
 10
-1.000000000000000E+20
 20
-1.000000000000000E+20
 30
-1.000000000000000E+20
  9
$PLIMMIN
 10
0.0
 20
0.0
  9
$PLIMMAX
 10
12.0
 20
9.0
  9
$UNITMODE
 70
     0
  9
$VISRETAIN
 70
     0
  9
$PLINEGEN
 70
     0
  9
$PSLTSCALE
 70
     0
  9
$TREEDEPTH
 70
  3020
  9
$CMLSTYLE
  2
Standard
  9
$CMLJUST
 70
     0
  9
$CMLSCALE
 40
1.0
  9
$PROXYGRAPHICS
 70
     1
  9
$MEASUREMENT
 70
     0
  9
$CELWEIGHT
370
    -1
  9
$ENDCAPS
280
     0
  9
$JOINSTYLE
280
     0
  9
$LWDISPLAY
290
     0
  9
$INSUNITS
 70
     0
  9
$HYPERLINKBASE
  1

  9
$STYLESHEET
  1

  9
$XEDIT
290
     1
  9
$CEPSNTYPE
380
     0
  9
$PSTYLEMODE
290
     1
  9
$FINGERPRINTGUID
  2
{D68B0D02-A558-11D7-B632-000102183313}
  9
$VERSIONGUID
  2
{071F4CE8-A0BD-4802-B058-865A5122692E}
  9
$EXTNAMES
290
     1
  9
$PSVPSCALE
 40
0.0
  9
$OLESTARTUP
290
     0
  9
$SORTENTS
280
   127
  9
$INDEXCTL
280
     0
  9
$HIDETEXT
280
     0
  9
$XCLIPFRAME
290
     0
  9
$HALOGAP
280
     0
  9
$OBSCOLOR
 70
   257
  9
$OBSLTYPE
280
     0
  9
$INTERSECTIONDISPLAY
280
     0
  9
$INTERSECTIONCOLOR
 70
   257
  9
$DIMASSOC
280
     1
  9
$PROJECTNAME
  1

  0
ENDSEC
  0
SECTION
  2
CLASSES
  0
CLASS
  1
ACDBDICTIONARYWDFLT
  2
AcDbDictionaryWithDefault
  3
ObjectDBX Classes
 90
        0
 91
        1
280
     0
281
     0
  0
CLASS
  1
DICTIONARYVAR
  2
AcDbDictionaryVar
  3
ObjectDBX Classes
 90
        0
 91
        2
280
     0
281
     0
  0
ENDSEC
  0
SECTION
  2
TABLES
  0
TABLE
  2
VPORT
  5
8
330
0
100
AcDbSymbolTable
 70
     2
  0
VPORT
  5
1510
330
8
100
AcDbSymbolTableRecord
100
AcDbViewportTableRecord
  2
*Active
 70
     0
 10
0.0
 20
0.0
 11
1.0
 21
1.0
 12
210.0
 22
297.0000000000001
 13
0.0
 23
0.0
 14
1.0
 24
1.0
 15
10.0
 25
10.0
 16
0.0
 26
0.0
 36
1.0
 17
0.0
 27
0.0
 37
0.0
 40
594.359733397497
 41
1.339622641509433
 42
50.0
 43
0.0
 44
0.0
 50
0.0
 51
0.0
 71
     0
 72
  1500
 73
     1
 74
     0
 75
     0
 76
     0
 77
     0
 78
     0
281
     0
 65
     1
110
0.0
120
0.0
130
0.0
111
1.0
121
0.0
131
0.0
112
0.0
122
1.0
132
0.0
 79
     0
146
0.0
  0
ENDTAB
  0
TABLE
  2
LTYPE
  5
5
330
0
100
AcDbSymbolTable
 70
     2
  0
LTYPE
  5
13
330
5
100
AcDbSymbolTableRecord
100
AcDbLinetypeTableRecord
  2
ByBlock
 70
     0
  3

 72
    65
 73
     0
 40
0.0
  0
LTYPE
  5
14
330
5
100
AcDbSymbolTableRecord
100
AcDbLinetypeTableRecord
  2
ByLayer
 70
     0
  3

 72
    65
 73
     0
 40
0.0
  0
LTYPE
  5
15
330
5
100
AcDbSymbolTableRecord
100
AcDbLinetypeTableRecord
  2
Continuous
 70
     0
  3
Solid line
 72
    65
 73
     0
 40
0.0
  0
LTYPE
  5
25
330
5
100
AcDbSymbolTableRecord
100
AcDbLinetypeTableRecord
  2
STRICHPUNKT
 70
     0
  3
__ . __ . __ . __ . __ . __ . __ . __ . __ . __
 72
    65
 73
     4
 40
1.0
 49
0.5
 74
     0
 49
-0.25
 74
     0
 49
0.0
 74
     0
 49
-0.25
 74
     0
  0
ENDTAB
  0
TABLE
  2
LAYER
  5
2
330
0
100
AcDbSymbolTable
 70
     9
  0
LAYER
  5
10
330
2
100
AcDbSymbolTableRecord
100
AcDbLayerTableRecord
  2
0
 70
     0
 62
     7
  6
Continuous
370
    -3
390
F
  0
LAYER
  5
2A
330
2
100
AcDbSymbolTableRecord
100
AcDbLayerTableRecord
  2
VOLL
 70
     0
 62
     1
  6
Continuous
370
    -3
390
F
  0
LAYER
  5
2B
330
2
100
AcDbSymbolTableRecord
100
AcDbLayerTableRecord
  2
HILF
 70
     0
 62
     2
  6
Continuous
370
    -3
390
F
  0
LAYER
  5
2C
330
2
100
AcDbSymbolTableRecord
100
AcDbLayerTableRecord
  2
MITTEL
 70
     0
 62
     2
  6
STRICHPUNKT
370
    -3
390
F
  0
LAYER
  5
2F
330
2
100
AcDbSymbolTableRecord
100
AcDbLayerTableRecord
  2
BEM
 70
     0
 62
     7
  6
Continuous
370
    -3
390
F
  0
LAYER
  5
30
330
2
100
AcDbSymbolTableRecord
100
AcDbLayerTableRecord
  2
STEMPEL
 70
     0
 62
     3
  6
Continuous
370
    -3
390
F
  0
LAYER
  5
31
330
2
100
AcDbSymbolTableRecord
100
AcDbLayerTableRecord
  2
TEXT
 70
     0
 62
     7
  6
Continuous
370
    -3
390
F
  0
LAYER
  5
1E5
330
2
100
AcDbSymbolTableRecord
100
AcDbLayerTableRecord
  2
Defpoints
 70
     0
 62
     7
  6
Continuous
290
     0
370
    -3
390
F
  0
LAYER
  5
242
330
2
100
AcDbSymbolTableRecord
100
AcDbLayerTableRecord
  2
SCHRAFF
 70
     0
 62
     7
  6
Continuous
370
    -3
390
F
  0
ENDTAB
  0
TABLE
  2
STYLE
  5
3
330
0
100
AcDbSymbolTable
 70
     2
  0
STYLE
  5
11
330
3
100
AcDbSymbolTableRecord
100
AcDbTextStyleTableRecord
  2
STANDARD
 70
     0
 40
0.0
 41
0.8
 50
0.0
 71
     0
 42
3.5
  3
simplex.shx
  4

  0
STYLE
  5
24
330
3
100
AcDbSymbolTableRecord
100
AcDbTextStyleTableRecord
  2
GREEKS
 70
     0
 40
0.0
 41
0.8
 50
0.0
 71
     0
 42
2.5
  3
SIMPLEX.shx
  4

  0
ENDTAB
  0
TABLE
  2
VIEW
  5
6
330
0
100
AcDbSymbolTable
 70
     0
  0
ENDTAB
  0
TABLE
  2
UCS
  5
7
330
0
100
AcDbSymbolTable
 70
     0
  0
ENDTAB
  0
TABLE
  2
APPID
  5
9
330
0
100
AcDbSymbolTable
 70
     1
  0
APPID
  5
12
330
9
100
AcDbSymbolTableRecord
100
AcDbRegAppTableRecord
  2
ACAD
 70
     0
  0
ENDTAB
  0
TABLE
  2
DIMSTYLE
  5
A
330
0
100
AcDbSymbolTable
 70
     1
100
AcDbDimStyleTable
 71
     1
340
9D
  0
DIMSTYLE
105
9D
102
{ACAD_REACTORS
330
13C8
330
1404
330
141E
330
1464
102
}
330
A
100
AcDbSymbolTableRecord
100
AcDbDimStyleTableRecord
  2
Standard
 70
     0
340
11
  0
ENDTAB
  0
TABLE
  2
BLOCK_RECORD
  5
1
330
0
100
AcDbSymbolTable
 70
     5
  0
BLOCK_RECORD
  5
1E
102
{ACAD_XDICTIONARY
360
A0
102
}
330
1
100
AcDbSymbolTableRecord
100
AcDbBlockTableRecord
  2
*Model_Space
340
21
  0
BLOCK_RECORD
  5
1A
102
{ACAD_XDICTIONARY
360
A2
102
}
330
1
100
AcDbSymbolTableRecord
100
AcDbBlockTableRecord
  2
*Paper_Space
340
1D
  0
BLOCK_RECORD
  5
22
330
1
100
AcDbSymbolTableRecord
100
AcDbBlockTableRecord
  2
LOGO
340
0
102
{BLKREFS
331
9B
102
}
  0
BLOCK_RECORD
  5
13C9
330
1
100
AcDbSymbolTableRecord
100
AcDbBlockTableRecord
  2
*D1
340
0
  0
BLOCK_RECORD
  5
1405
330
1
100
AcDbSymbolTableRecord
100
AcDbBlockTableRecord
  2
*D2
340
0
  0
BLOCK_RECORD
  5
141F
330
1
100
AcDbSymbolTableRecord
100
AcDbBlockTableRecord
  2
*D3
340
0
  0
BLOCK_RECORD
  5
1465
330
1
100
AcDbSymbolTableRecord
100
AcDbBlockTableRecord
  2
*D4
340
0
  0
ENDTAB
  0
ENDSEC
  0
SECTION
  2
BLOCKS
  0
BLOCK
  5
35
330
1E
100
AcDbEntity
  8
0
100
AcDbBlockBegin
  2
*Model_Space
 70
     0
 10
0.0
 20
0.0
 30
0.0
  3
*Model_Space
  1

  0
ENDBLK
  5
36
330
1E
100
AcDbEntity
  8
0
100
AcDbBlockEnd
  0
BLOCK
  5
33
330
1A
100
AcDbEntity
 67
     1
  8
0
100
AcDbBlockBegin
  2
*Paper_Space
 70
     0
 10
0.0
 20
0.0
 30
0.0
  3
*Paper_Space
  1

  0
ENDBLK
  5
34
330
1A
100
AcDbEntity
 67
     1
  8
0
100
AcDbBlockEnd
  0
BLOCK
  5
37
330
22
100
AcDbEntity
  8
0
100
AcDbBlockBegin
  2
LOGO
 70
     0
 10
0.0
 20
0.0
 30
0.0
  3
LOGO
  1

  0
ARC
  5
38
330
22
100
AcDbEntity
  8
0
100
AcDbCircle
 10
11.59973089678112
 20
-9.271599258481501
 30
0.0
 40
4.5
100
AcDbArc
 50
270.0
 51
231.0575587310159
  0
LINE
  5
39
330
22
100
AcDbEntity
  8
0
100
AcDbLine
 10
3.599730896781125
 20
-4.771599258481529
 30
0.0
 11
3.599730896781153
 21
-11.77159925848133
 31
0.0
  0
LINE
  5
3A
330
22
100
AcDbEntity
  8
0
100
AcDbLine
 10
2.599730896781125
 20
-4.771599258481529
 30
0.0
 11
2.599730896781153
 21
-11.77159925848133
 31
0.0
  0
CIRCLE
  5
3B
330
22
100
AcDbEntity
  8
0
100
AcDbCircle
 10
11.59973089678112
 20
-9.271599258481501
 30
0.0
 40
3.5
  0
ARC
  5
3C
330
22
100
AcDbEntity
  8
0
100
AcDbCircle
 10
31.59973089678115
 20
-9.271599258481472
 30
0.0
 40
4.5
100
AcDbArc
 50
270.0
 51
231.0575587310182
  0
LINE
  5
3D
330
22
100
AcDbEntity
  8
0
100
AcDbLine
 10
17.59973089678112
 20
-4.771599258481472
 30
0.0
 11
17.59973089678115
 21
-13.77159925848147
 31
0.0
  0
ARC
  5
3E
330
22
100
AcDbEntity
  8
0
100
AcDbCircle
 10
22.59973089678116
 20
-7.271599258481472
 30
0.0
 40
2.5
100
AcDbArc
 50
293.1161887722295
 51
90.0
  0
CIRCLE
  5
3F
330
22
100
AcDbEntity
  8
0
100
AcDbCircle
 10
31.59973089678115
 20
-9.271599258481472
 30
0.0
 40
3.5
  0
ARC
  5
40
330
22
100
AcDbEntity
  8
0
100
AcDbCircle
 10
4.599730896781153
 20
-11.77159925848133
 30
0.0
 40
1.0
100
AcDbArc
 50
180.0
 51
270.0
  0
ARC
  5
41
330
22
100
AcDbEntity
  8
0
100
AcDbCircle
 10
4.599730896781153
 20
-11.77159925848133
 30
0.0
 40
2.0
100
AcDbArc
 50
179.9999999999992
 51
270.0
  0
LINE
  5
42
330
22
100
AcDbEntity
  8
0
100
AcDbLine
 10
11.59973089678115
 20
-13.77159925848144
 30
0.0
 11
4.599730896781153
 21
-13.77159925848147
 31
0.0
  0
LINE
  5
43
330
22
100
AcDbEntity
  8
0
100
AcDbLine
 10
8.771303772034769
 20
-12.77159925848136
 30
0.0
 11
4.599730896781153
 21
-12.77159925848133
 31
0.0
  0
LINE
  5
44
330
22
100
AcDbEntity
  8
0
100
AcDbLine
 10
31.59973089678115
 20
-13.77159925848147
 30
0.0
 11
23.6715276665056
 21
-13.77159925848144
 31
0.0
  0
LINE
  5
45
330
22
100
AcDbEntity
  8
0
100
AcDbLine
 10
23.56565672307022
 20
-9.51278021337896
 30
0.0
 11
24.4388546544846
 21
-12.77159925848144
 31
0.0
  0
LINE
  5
46
330
22
100
AcDbEntity
  8
0
100
AcDbLine
 10
22.59973089678116
 20
-9.771599258481472
 30
0.0
 11
18.59973089678112
 21
-9.771599258481472
 31
0.0
  0
LINE
  5
47
330
22
100
AcDbEntity
  8
0
100
AcDbLine
 10
18.59973089678115
 20
-13.77159925848144
 30
0.0
 11
17.59973089678115
 21
-13.77159925848144
 31
0.0
  0
LINE
  5
48
330
22
100
AcDbEntity
  8
0
100
AcDbLine
 10
18.59973089678115
 20
-9.771599258481472
 30
0.0
 11
18.59973089678115
 21
-13.77159925848144
 31
0.0
  0
LINE
  5
49
330
22
100
AcDbEntity
  8
0
100
AcDbLine
 10
22.59973089678116
 20
-9.771599258481472
 30
0.0
 11
23.67152766650562
 21
-13.77159925848147
 31
0.0
  0
ARC
  5
4A
330
22
100
AcDbEntity
  8
0
100
AcDbCircle
 10
22.59973089678116
 20
-7.271599258481472
 30
0.0
 40
2.5
100
AcDbArc
 50
270.0
 51
270.0000000000007
  0
LINE
  5
4B
330
22
100
AcDbEntity
  8
0
100
AcDbLine
 10
28.77130377203494
 20
-12.77159925848147
 30
0.0
 11
24.43885465448463
 21
-12.77159925848144
 31
0.0
  0
LINE
  5
4C
330
22
100
AcDbEntity
  8
0
100
AcDbLine
 10
3.599730896781125
 20
-4.771599258481472
 30
0.0
 11
2.599730896781125
 21
-4.771599258481472
 31
0.0
  0
LINE
  5
4D
330
22
100
AcDbEntity
  8
0
100
AcDbLine
 10
22.59973089678116
 20
-8.771599258481472
 30
0.0
 11
18.59973089678115
 21
-8.771599258481472
 31
0.0
  0
LINE
  5
4E
330
22
100
AcDbEntity
  8
0
100
AcDbLine
 10
22.59973089678116
 20
-5.771599258481472
 30
0.0
 11
18.59973089678115
 21
-5.771599258481472
 31
0.0
  0
LINE
  5
4F
330
22
100
AcDbEntity
  8
0
100
AcDbLine
 10
22.59973089678116
 20
-4.771599258481472
 30
0.0
 11
17.59973089678115
 21
-4.771599258481472
 31
0.0
  0
LINE
  5
50
330
22
100
AcDbEntity
  8
0
100
AcDbLine
 10
18.59973089678115
 20
-5.771599258481472
 30
0.0
 11
18.59973089678115
 21
-8.771599258481472
 31
0.0
  0
ARC
  5
51
330
22
100
AcDbEntity
  8
0
100
AcDbCircle
 10
22.59973089678116
 20
-7.271599258481472
 30
0.0
 40
1.5
100
AcDbArc
 50
270.0
 51
90.0
  0
ENDBLK
  5
52
330
22
100
AcDbEntity
  8
0
100
AcDbBlockEnd
  0
BLOCK
  5
13D3
330
13C9
100
AcDbEntity
  8
0
100
AcDbBlockBegin
  2
*D1
 70
     1
 10
0.0
 20
0.0
 30
0.0
  3
*D1
  1

  0
LINE
  5
13D5
330
13C9
100
AcDbEntity
  8
BEM
 62
     0
370
    -2
100
AcDbLine
 10
156.4829172156492
 20
364.3414593335159
 30
0.0
 11
119.8904344124189
 21
364.3414593335159
 31
0.0
  0
LINE
  5
13D6
330
13C9
100
AcDbEntity
  8
BEM
 62
     0
370
    -2
100
AcDbLine
 10
157.8027803590303
 20
234.3414593335158
 30
0.0
 11
119.8904344124189
 21
234.3414593335158
 31
0.0
  0
LINE
  5
13D7
330
13C9
100
AcDbEntity
  8
BEM
 62
     0
370
    -2
100
AcDbLine
 10
121.8904344124189
 20
357.3414593335159
 30
0.0
 11
121.8904344124189
 21
241.3414593335158
 31
0.0
  0
SOLID
  5
13D8
330
13C9
100
AcDbEntity
  8
BEM
 62
     0
100
AcDbTrace
 10
120.7237677457523
 20
357.3414593335159
 30
0.0
 11
123.0571010790856
 21
357.3414593335159
 31
0.0
 12
121.8904344124189
 22
364.3414593335159
 32
0.0
 13
121.8904344124189
 23
364.3414593335159
 33
0.0
  0
SOLID
  5
13D9
330
13C9
100
AcDbEntity
  8
BEM
 62
     0
100
AcDbTrace
 10
120.7237677457522
 20
241.3414593335158
 30
0.0
 11
123.0571010790856
 21
241.3414593335158
 31
0.0
 12
121.8904344124189
 22
234.3414593335158
 32
0.0
 13
121.8904344124189
 23
234.3414593335158
 33
0.0
  0
MTEXT
  5
13DA
330
13C9
100
AcDbEntity
  8
BEM
 62
     1
100
AcDbMText
 10
115.3904344124189
 20
299.3414593335159
 30
0.0
 40
7.0
 41
0.0
 71
     5
 72
     1
  1
\A1;130
 11
0.0000000000000001
 21
1.0
 31
0.0
 73
     1
 44
1.0
  0
POINT
  5
13DB
330
13C9
100
AcDbEntity
  8
Defpoints
 62
     0
100
AcDbPoint
 10
158.4829172156492
 20
364.3414593335159
 30
0.0
  0
POINT
  5
13DC
330
13C9
100
AcDbEntity
  8
Defpoints
 62
     0
100
AcDbPoint
 10
159.8027803590303
 20
234.3414593335158
 30
0.0
  0
POINT
  5
13DD
330
13C9
100
AcDbEntity
  8
Defpoints
 62
     0
100
AcDbPoint
 10
121.8904344124189
 20
234.3414593335158
 30
0.0
  0
ENDBLK
  5
13D4
330
13C9
100
AcDbEntity
  8
0
100
AcDbBlockEnd
  0
BLOCK
  5
140F
330
1405
100
AcDbEntity
  8
0
100
AcDbBlockBegin
  2
*D2
 70
     1
 10
0.0
 20
0.0
 30
0.0
  3
*D2
  1

  0
LINE
  5
14FA
330
1405
100
AcDbEntity
  8
BEM
 62
     0
370
    -2
100
AcDbLine
 10
136.2415552025937
 20
519.3414593335157
 30
0.0
 11
101.9400120866726
 21
519.3414593335157
 31
0.0
  0
LINE
  5
14FB
330
1405
100
AcDbEntity
  8
BEM
 62
     0
370
    -2
100
AcDbLine
 10
157.8027803590303
 20
234.3414593335158
 30
0.0
 11
101.9400120866726
 21
234.3414593335158
 31
0.0
  0
LINE
  5
14FC
330
1405
100
AcDbEntity
  8
BEM
 62
     0
370
    -2
100
AcDbLine
 10
103.9400120866726
 20
512.3414593335158
 30
0.0
 11
103.9400120866726
 21
241.3414593335158
 31
0.0
  0
SOLID
  5
14FD
330
1405
100
AcDbEntity
  8
BEM
 62
     0
100
AcDbTrace
 10
102.773345420006
 20
512.3414593335158
 30
0.0
 11
105.1066787533393
 21
512.3414593335158
 31
0.0
 12
103.9400120866726
 22
519.3414593335157
 32
0.0
 13
103.9400120866726
 23
519.3414593335157
 33
0.0
  0
SOLID
  5
14FE
330
1405
100
AcDbEntity
  8
BEM
 62
     0
100
AcDbTrace
 10
102.7733454200059
 20
241.3414593335158
 30
0.0
 11
105.1066787533392
 21
241.3414593335158
 31
0.0
 12
103.9400120866726
 22
234.3414593335158
 32
0.0
 13
103.9400120866726
 23
234.3414593335158
 33
0.0
  0
MTEXT
  5
14FF
330
1405
100
AcDbEntity
  8
BEM
 62
     1
100
AcDbMText
 10
97.44001208667256
 20
376.8414593335159
 30
0.0
 40
7.0
 41
0.0
 71
     5
 72
     1
  1
\A1;285
 11
0.0000000000000001
 21
1.0
 31
0.0
 73
     1
 44
1.0
  0
POINT
  5
1500
330
1405
100
AcDbEntity
  8
Defpoints
 62
     0
100
AcDbPoint
 10
138.2415552025937
 20
519.3414593335157
 30
0.0
  0
POINT
  5
1501
330
1405
100
AcDbEntity
  8
Defpoints
 62
     0
100
AcDbPoint
 10
159.8027803590303
 20
234.3414593335158
 30
0.0
  0
POINT
  5
1502
330
1405
100
AcDbEntity
  8
Defpoints
 62
     0
100
AcDbPoint
 10
103.9400120866726
 20
234.3414593335158
 30
0.0
  0
ENDBLK
  5
1410
330
1405
100
AcDbEntity
  8
0
100
AcDbBlockEnd
  0
BLOCK
  5
1429
330
141F
100
AcDbEntity
  8
0
100
AcDbBlockBegin
  2
*D3
 70
     1
 10
0.0
 20
0.0
 30
0.0
  3
*D3
  1

  0
LINE
  5
142B
330
141F
100
AcDbEntity
  8
BEM
 62
     0
370
    -2
100
AcDbLine
 10
158.4999999999999
 20
247.2323069762442
 30
0.0
 11
158.4999999999999
 21
210.6887694149668
 31
0.0
  0
LINE
  5
142C
330
141F
100
AcDbEntity
  8
BEM
 62
     0
370
    -2
100
AcDbLine
 10
291.5
 20
247.2323069762448
 30
0.0
 11
291.5
 21
210.6887694149668
 31
0.0
  0
LINE
  5
142D
330
141F
100
AcDbEntity
  8
BEM
 62
     0
370
    -2
100
AcDbLine
 10
165.4999999999999
 20
212.6887694149668
 30
0.0
 11
284.4999999999999
 21
212.6887694149668
 31
0.0
  0
SOLID
  5
142E
330
141F
100
AcDbEntity
  8
BEM
 62
     0
100
AcDbTrace
 10
165.4999999999999
 20
213.8554360816335
 30
0.0
 11
165.4999999999999
 21
211.5221027483002
 31
0.0
 12
158.4999999999999
 22
212.6887694149668
 32
0.0
 13
158.4999999999999
 23
212.6887694149668
 33
0.0
  0
SOLID
  5
142F
330
141F
100
AcDbEntity
  8
BEM
 62
     0
100
AcDbTrace
 10
284.4999999999999
 20
213.8554360816335
 30
0.0
 11
284.4999999999999
 21
211.5221027483002
 31
0.0
 12
291.5
 22
212.6887694149668
 32
0.0
 13
291.5
 23
212.6887694149668
 33
0.0
  0
MTEXT
  5
1430
330
141F
100
AcDbEntity
  8
BEM
 62
     1
100
AcDbMText
 10
225.0
 20
219.1887694149668
 30
0.0
 40
7.0
 41
0.0
 71
     5
 72
     1
  1
\A1;%%c133
 73
     1
 44
1.0
  0
POINT
  5
1431
330
141F
100
AcDbEntity
  8
Defpoints
 62
     0
100
AcDbPoint
 10
158.4999999999999
 20
249.2323069762441
 30
0.0
  0
POINT
  5
1432
330
141F
100
AcDbEntity
  8
Defpoints
 62
     0
100
AcDbPoint
 10
291.5
 20
249.2323069762448
 30
0.0
  0
POINT
  5
1433
330
141F
100
AcDbEntity
  8
Defpoints
 62
     0
100
AcDbPoint
 10
291.5
 20
212.6887694149668
 30
0.0
  0
ENDBLK
  5
142A
330
141F
100
AcDbEntity
  8
0
100
AcDbBlockEnd
  0
BLOCK
  5
146F
330
1465
100
AcDbEntity
  8
0
100
AcDbBlockBegin
  2
*D4
 70
     1
 10
0.0
 20
0.0
 30
0.0
  3
*D4
  1

  0
LINE
  5
1503
330
1465
100
AcDbEntity
  8
BEM
 62
     0
370
    -2
100
AcDbLine
 10
145.4999999999999
 20
410.1730706036692
 30
0.0
 11
145.4999999999999
 21
368.4324953976445
 31
0.0
  0
LINE
  5
1504
330
1465
100
AcDbEntity
  8
BEM
 62
     0
370
    -2
100
AcDbLine
 10
304.4999999999998
 20
410.1730706036691
 30
0.0
 11
304.4999999999998
 21
368.4324953976445
 31
0.0
  0
LINE
  5
1505
330
1465
100
AcDbEntity
  8
BEM
 62
     0
370
    -2
100
AcDbLine
 10
152.4999999999999
 20
370.4324953976445
 30
0.0
 11
297.4999999999998
 21
370.4324953976445
 31
0.0
  0
SOLID
  5
1506
330
1465
100
AcDbEntity
  8
BEM
 62
     0
100
AcDbTrace
 10
152.4999999999999
 20
371.5991620643112
 30
0.0
 11
152.4999999999999
 21
369.2658287309778
 31
0.0
 12
145.4999999999999
 22
370.4324953976445
 32
0.0
 13
145.4999999999999
 23
370.4324953976445
 33
0.0
  0
SOLID
  5
1507
330
1465
100
AcDbEntity
  8
BEM
 62
     0
100
AcDbTrace
 10
297.4999999999998
 20
371.5991620643112
 30
0.0
 11
297.4999999999998
 21
369.2658287309778
 31
0.0
 12
304.4999999999998
 22
370.4324953976445
 32
0.0
 13
304.4999999999998
 23
370.4324953976445
 33
0.0
  0
MTEXT
  5
1508
330
1465
100
AcDbEntity
  8
BEM
 62
     1
100
AcDbMText
 10
224.9999999999999
 20
376.9324953976445
 30
0.0
 40
7.0
 41
0.0
 71
     5
 72
     1
  1
\A1;%%c159
 73
     1
 44
1.0
  0
POINT
  5
1509
330
1465
100
AcDbEntity
  8
Defpoints
 62
     0
100
AcDbPoint
 10
145.4999999999999
 20
412.1730706036691
 30
0.0
  0
POINT
  5
150A
330
1465
100
AcDbEntity
  8
Defpoints
 62
     0
100
AcDbPoint
 10
304.4999999999998
 20
412.1730706036691
 30
0.0
  0
POINT
  5
150B
330
1465
100
AcDbEntity
  8
Defpoints
 62
     0
100
AcDbPoint
 10
304.4999999999998
 20
370.4324953976445
 30
0.0
  0
ENDBLK
  5
1470
330
1465
100
AcDbEntity
  8
0
100
AcDbBlockEnd
  0
ENDSEC
  0
SECTION
  2
ENTITIES
  0
LINE
  5
57
330
1E
100
AcDbEntity
  8
STEMPEL
100
AcDbLine
 10
410.0
 20
110.0
 30
0.0
 11
39.99999999999997
 21
110.0
 31
0.0
  0
LINE
  5
58
330
1E
100
AcDbEntity
  8
STEMPEL
100
AcDbLine
 10
136.0000000000001
 20
109.9999999999999
 30
0.0
 11
136.0
 21
9.999999999999971
 31
0.0
  0
LINE
  5
59
330
1E
100
AcDbEntity
  8
STEMPEL
100
AcDbLine
 10
220.0
 20
110.0
 30
0.0
 11
220.0
 21
9.999999999999971
 31
0.0
  0
LINE
  5
5A
330
1E
100
AcDbEntity
  8
STEMPEL
100
AcDbLine
 10
332.0
 20
109.9999999999997
 30
0.0
 11
332.0
 21
40.0
 31
0.0
  0
LINE
  5
5B
330
1E
100
AcDbEntity
  8
STEMPEL
100
AcDbLine
 10
135.9999999999999
 20
29.99999999999997
 30
0.0
 11
39.99999999999997
 21
29.99999999999997
 31
0.0
  0
LINE
  5
5C
330
1E
100
AcDbEntity
  8
STEMPEL
100
AcDbLine
 10
410.0
 20
40.0
 30
0.0
 11
136.0000000000001
 21
39.99999999999997
 31
0.0
  0
LINE
  5
5D
330
1E
100
AcDbEntity
  8
STEMPEL
100
AcDbLine
 10
410.0
 20
80.0
 30
0.0
 11
136.0000000000001
 21
79.99999999999994
 31
0.0
  0
LINE
  5
5E
330
1E
100
AcDbEntity
  8
VOLL
100
AcDbLine
 10
54.00000000000009
 20
110.0
 30
0.0
 11
53.99999999999997
 21
9.999999999999971
 31
0.0
  0
LINE
  5
5F
330
1E
100
AcDbEntity
  8
VOLL
100
AcDbLine
 10
94.00000000000011
 20
109.9999999999999
 30
0.0
 11
94.0
 21
9.999999999999971
 31
0.0
  0
LINE
  5
60
330
1E
100
AcDbEntity
  8
VOLL
100
AcDbLine
 10
114.0000000000001
 20
109.9999999999999
 30
0.0
 11
114.0
 21
9.999999999999971
 31
0.0
  0
LINE
  5
61
330
1E
100
AcDbEntity
  8
VOLL
100
AcDbLine
 10
154.0000000000001
 20
79.99999999999994
 30
0.0
 11
154.0000000000001
 21
39.99999999999997
 31
0.0
  0
LINE
  5
62
330
1E
100
AcDbEntity
  8
VOLL
100
AcDbLine
 10
180.0000000000001
 20
109.9999999999998
 30
0.0
 11
180.0
 21
39.99999999999997
 31
0.0
  0
LINE
  5
63
330
1E
100
AcDbEntity
  8
HILF
100
AcDbLine
 10
40.00000000000008
 20
100.0
 30
0.0
 11
136.0000000000001
 21
100.0
 31
0.0
  0
LINE
  5
64
330
1E
100
AcDbEntity
  8
HILF
100
AcDbLine
 10
40.00000000000008
 20
90.00000000000005
 30
0.0
 11
136.0000000000001
 21
90.00000000000005
 31
0.0
  0
LINE
  5
65
330
1E
100
AcDbEntity
  8
HILF
100
AcDbLine
 10
40.00000000000008
 20
79.99999999999994
 30
0.0
 11
136.0000000000001
 21
79.99999999999994
 31
0.0
  0
LINE
  5
66
330
1E
100
AcDbEntity
  8
HILF
100
AcDbLine
 10
40.00000000000008
 20
69.99999999999994
 30
0.0
 11
136.0000000000001
 21
69.99999999999994
 31
0.0
  0
LINE
  5
67
330
1E
100
AcDbEntity
  8
HILF
100
AcDbLine
 10
40.00000000000008
 20
59.99999999999997
 30
0.0
 11
136.0000000000001
 21
59.99999999999997
 31
0.0
  0
LINE
  5
68
330
1E
100
AcDbEntity
  8
HILF
100
AcDbLine
 10
40.00000000000008
 20
49.99999999999997
 30
0.0
 11
136.0000000000001
 21
49.99999999999997
 31
0.0
  0
LINE
  5
69
330
1E
100
AcDbEntity
  8
HILF
100
AcDbLine
 10
40.00000000000008
 20
39.99999999999997
 30
0.0
 11
136.0000000000001
 21
39.99999999999997
 31
0.0
  0
LINE
  5
6A
330
1E
100
AcDbEntity
  8
HILF
100
AcDbLine
 10
136.0000000000001
 20
69.99999999999994
 30
0.0
 11
220.0
 21
69.99999999999994
 31
0.0
  0
LINE
  5
6B
330
1E
100
AcDbEntity
  8
HILF
100
AcDbLine
 10
136.0000000000001
 20
59.99999999999997
 30
0.0
 11
220.0
 21
59.99999999999997
 31
0.0
  0
LINE
  5
6C
330
1E
100
AcDbEntity
  8
HILF
100
AcDbLine
 10
136.0000000000001
 20
49.99999999999997
 30
0.0
 11
220.0
 21
49.99999999999997
 31
0.0
  0
LINE
  5
6D
330
1E
100
AcDbEntity
  8
HILF
100
AcDbLine
 10
224.7736801096948
 20
84.03758247564139
 30
0.0
 11
324.8353916556311
 21
84.03758247564139
 31
0.0
  0
LINE
  5
6E
330
1E
100
AcDbEntity
  8
HILF
100
AcDbLine
 10
224.7736801096948
 20
69.99999999999994
 30
0.0
 11
324.835391655631
 21
69.99999999999994
 31
0.0
  0
LINE
  5
6F
330
1E
100
AcDbEntity
  8
HILF
100
AcDbLine
 10
224.7736801096948
 20
59.99999999999997
 30
0.0
 11
324.835391655631
 21
59.99999999999997
 31
0.0
  0
LINE
  5
70
330
1E
100
AcDbEntity
  8
HILF
100
AcDbLine
 10
224.7736801096948
 20
49.99999999999997
 30
0.0
 11
324.835391655631
 21
49.99999999999997
 31
0.0
  0
LINE
  5
71
330
1E
100
AcDbEntity
  8
VOLL
100
AcDbLine
 10
332.0
 20
60.0
 30
0.0
 11
410.0
 21
60.0
 31
0.0
  0
LINE
  5
72
330
1E
100
AcDbEntity
  8
HILF
100
AcDbLine
 10
336.7238616296993
 20
83.77983636955827
 30
0.0
 11
404.8588839326728
 21
83.77983636955827
 31
0.0
  0
LINE
  5
73
330
1E
100
AcDbEntity
  8
HILF
100
AcDbLine
 10
223.4909699289885
 20
14.89398258028314
 30
0.0
 11
404.8588839326728
 21
14.89398258028314
 31
0.0
  0
TEXT
  5
74
330
1E
100
AcDbEntity
  8
TEXT
100
AcDbText
 10
63.86165979631819
 20
18.67381894984132
 30
0.0
 40
4.0
  1
Änderung
 41
0.8
  7
GREEKS
 72
     1
 11
74.60451693917534
 21
18.67381894984132
 31
0.0
100
AcDbText
  0
TEXT
  5
75
330
1E
100
AcDbEntity
  8
TEXT
100
AcDbText
 10
143.5163572150377
 20
102.4620895087088
 30
0.0
 40
5.0
  1
Maßstab
 41
0.8
  7
GREEKS
100
AcDbText
  0
TEXT
  5
76
330
1E
100
AcDbEntity
  8
TEXT
100
AcDbText
 10
184.2858954734051
 20
102.4184168434819
 30
0.0
 40
5.0
  1
Zul. Abw.
 41
0.8
  7
GREEKS
100
AcDbText
  0
TEXT
  5
77
330
1E
100
AcDbEntity
  8
TEXT
100
AcDbText
 10
224.877940380901
 20
102.5489328011779
 30
0.0
 40
5.0
  1
Benennung
 41
0.8
  7
GREEKS
100
AcDbText
  0
TEXT
  5
78
330
1E
100
AcDbEntity
  8
TEXT
100
AcDbText
 10
336.178754957634
 20
102.3132034537136
 30
0.0
 40
5.0
  1
Zeichnungs Nr.
 41
0.8
  7
GREEKS
100
AcDbText
  0
TEXT
  5
79
330
1E
100
AcDbEntity
  8
TEXT
100
AcDbText
 10
224.742238391136
 20
30.84560570193057
 30
0.0
 40
5.0
  1
Bauvorhaben
 41
0.8
  7
GREEKS
100
AcDbText
  0
TEXT
  5
7A
330
1E
100
AcDbEntity
  8
TEXT
100
AcDbText
 10
336.7238616296993
 20
73.1811823709997
 30
0.0
 40
5.0
  1
Ersatz für:
 41
0.8
  7
GREEKS
100
AcDbText
  0
TEXT
  5
7B
330
1E
100
AcDbEntity
  8
TEXT
100
AcDbText
 10
48.26641107045756
 20
13.65465846027192
 30
0.0
 40
4.0
  1
Index
 50
90.0
 41
0.8
  7
GREEKS
100
AcDbText
  0
TEXT
  5
7C
330
1E
100
AcDbEntity
  8
TEXT
100
AcDbText
 10
100.0934676075481
 20
18.6715626933981
 30
0.0
 40
4.0
  1
Tag
 41
0.8
  7
GREEKS
 72
     1
 11
103.8268009408814
 21
18.6715626933981
 31
0.0
100
AcDbText
  0
TEXT
  5
7D
330
1E
100
AcDbEntity
  8
TEXT
100
AcDbText
 10
119.0122744386592
 20
18.59324216966408
 30
0.0
 40
4.0
  1
Name
 41
0.8
  7
GREEKS
 72
     1
 11
125.3360839624688
 21
18.59324216966408
 31
0.0
100
AcDbText
  0
TEXT
  5
7E
330
1E
100
AcDbEntity
  8
TEXT
100
AcDbText
 10
162.3311673153651
 20
73.31880501229926
 30
0.0
 40
4.0
  1
Tag
 41
0.8
  7
GREEKS
100
AcDbText
  0
TEXT
  5
7F
330
1E
100
AcDbEntity
  8
TEXT
100
AcDbText
 10
192.4626584226295
 20
73.30961091915225
 30
0.0
 40
4.0
  1
Name
 41
0.8
  7
GREEKS
100
AcDbText
  0
TEXT
  5
80
330
1E
100
AcDbEntity
  8
TEXT
100
AcDbText
 10
137.5836127167615
 20
63.62990369617964
 30
0.0
 40
4.0
  1
Gez.
 41
0.8
  7
GREEKS
100
AcDbText
  0
TEXT
  5
81
330
1E
100
AcDbEntity
  8
TEXT
100
AcDbText
 10
137.5515086571672
 20
53.68926291428377
 30
0.0
 40
4.0
  1
Gepr.
 41
0.8
  7
GREEKS
100
AcDbText
  0
TEXT
  5
82
330
1E
100
AcDbEntity
  8
TEXT
100
AcDbText
 10
137.6006777387304
 20
43.52946389649807
 30
0.0
 40
4.0
  1
Norm.
 41
0.8
  7
GREEKS
100
AcDbText
  0
LINE
  5
83
330
1E
100
AcDbEntity
  8
STEMPEL
100
AcDbLine
 10
49.99999999999989
 20
10.0
 30
0.0
 11
410.0
 21
10.0
 31
0.0
  0
TEXT
  5
84
330
1E
100
AcDbEntity
  8
TEXT
100
AcDbText
 10
337.2400861497006
 20
52.07416177878602
 30
0.0
 40
5.0
  1
ersetzt durch:
 41
0.8
  7
GREEKS
100
AcDbText
  0
LINE
  5
85
330
1E
100
AcDbEntity
  8
STEMPEL
100
AcDbLine
 10
410.0
 20
10.0
 30
0.0
 11
39.99999999999989
 21
10.0
 31
0.0
  0
LINE
  5
86
330
1E
100
AcDbEntity
  8
STEMPEL
100
AcDbLine
 10
410.0
 20
10.0
 30
0.0
 11
410.0
 21
584.0
 31
0.0
  0
LINE
  5
87
330
1E
100
AcDbEntity
  8
STEMPEL
100
AcDbLine
 10
40.0
 20
10.0
 30
0.0
 11
39.99999999999989
 21
584.0
 31
0.0
  0
LINE
  5
88
330
1E
100
AcDbEntity
  8
STEMPEL
100
AcDbLine
 10
410.0
 20
584.0
 30
0.0
 11
39.99999999999989
 21
584.0
 31
0.0
  0
LINE
  5
89
330
1E
100
AcDbEntity
  8
HILF
100
AcDbLine
 10
0.0
 20
0.0
 30
0.0
 11
-0.0000000000001137
 21
594.0
 31
0.0
  0
LINE
  5
8A
330
1E
100
AcDbEntity
  8
HILF
100
AcDbLine
 10
419.9999999999999
 20
594.0000000000002
 30
0.0
 11
0.0
 21
594.0
 31
0.0
  0
LINE
  5
8B
330
1E
100
AcDbEntity
  8
HILF
100
AcDbLine
 10
420.0
 20
0.0
 30
0.0
 11
0.0
 21
0.0
 31
0.0
  0
LINE
  5
8C
330
1E
100
AcDbEntity
  8
HILF
100
AcDbLine
 10
31.08767135713856
 20
297.0
 30
0.0
 11
0.0000000000001137
 21
297.0
 31
0.0
  0
TEXT
  5
8D
330
1E
100
AcDbEntity
  8
TEXT
100
AcDbText
 10
138.622109822104
 20
73.14025471151666
 30
0.0
 40
4.0
  1
2011
 41
0.8
  7
GREEKS
100
AcDbText
  0
LINE
  5
8E
330
1E
100
AcDbEntity
  8
HILF
100
AcDbLine
 10
420.0
 20
-0.0000000000001137
 30
0.0
 11
419.9999999999999
 21
594.0
 31
0.0
  0
TEXT
  5
8F
330
1E
100
AcDbEntity
  8
VOLL
100
AcDbText
 10
78.07675471698113
 20
31.02594776470585
 30
0.0
 40
1.8
  1

  7
GREEKS
100
AcDbText
  0
TEXT
  5
90
330
1E
100
AcDbEntity
  8
TEXT
100
AcDbText
 10
41.85509950977674
 20
111.6719999999999
 30
0.0
 40
5.0
  1
Erstellt mit AUTOCAD 2004
 41
0.8
  7
GREEKS
100
AcDbText
  0
TEXT
  5
91
330
1E
100
AcDbEntity
  8
TEXT
100
AcDbText
 10
194.4216048581257
 20
63.0896391972351
 30
0.0
 40
4.0
  1
Koeh
 41
0.8
  7
GREEKS
 72
     1
 11
199.6787477152685
 21
63.0896391972351
 31
0.0
100
AcDbText
  0
TEXT
  5
92
330
1E
100
AcDbEntity
  8
TEXT
 62
     1
100
AcDbText
 10
348.5207709029965
 20
88.14901428913959
 30
0.0
 40
7.0
  1
19602FE0W
 41
0.8
  7
GREEKS
 72
     1
 11
371.5874375696632
 21
88.14901428913959
 31
0.0
100
AcDbText
  0
TEXT
  5
93
330
1E
100
AcDbEntity
  8
TEXT
 62
     1
100
AcDbText
 10
150.5006306481887
 20
88.14901428913959
 30
0.0
 40
7.0
  1
1:2
 41
0.8
  7
GREEKS
100
AcDbText
  0
TEXT
  5
94
330
1E
100
AcDbEntity
  8
TEXT
100
AcDbText
 10
160.398997108236
 20
63.10765040825732
 30
0.0
 40
4.0
  1
07.09.
 41
0.8
  7
GREEKS
 72
     1
 11
167.4085209177598
 21
63.10765040825732
 31
0.0
100
AcDbText
  0
TEXT
  5
95
330
1E
100
AcDbEntity
  8
TEXT
 62
     1
100
AcDbText
 10
226.8935731057402
 20
87.41748789253779
 30
0.0
 40
7.0
  1
Abgleichstück DN150/125
 41
0.7
  7
GREEKS
100
AcDbText
  0
TEXT
  5
96
330
1E
100
AcDbEntity
  8
TEXT
100
AcDbText
 10
112.5648195562657
 20
35.75167208792644
 30
0.0
 40
2.5
  1

 41
0.8
  7
GREEKS
100
AcDbText
  0
TEXT
  5
97
330
1E
100
AcDbEntity
  8
TEXT
100
AcDbText
 10
112.5648195562657
 20
31.05790353387428
 30
0.0
 40
2.5
  1

 41
0.8
  7
GREEKS
100
AcDbText
  0
TEXT
  5
98
330
1E
100
AcDbEntity
  8
TEXT
100
AcDbText
 10
225.1296391125315
 20
51.64011943042158
 30
0.0
 40
5.0
  1
EDV-Art.Nr. 19602.FE0X
 41
0.8
  7
GREEKS
100
AcDbText
  0
TEXT
  5
99
330
1E
100
AcDbEntity
  8
TEXT
100
AcDbText
 10
224.9837501577827
 20
42.62974153022632
 30
0.0
 40
4.0
  1
19602FE0W.DWG
 41
0.8
  7
GREEKS
100
AcDbText
  0
TEXT
  5
9A
330
1E
100
AcDbEntity
  8
TEXT
100
AcDbText
 10
182.626132208084
 20
90.76363841023022
 30
0.0
 40
4.0
  1
DIN EN1123-2
 41
0.8
  7
GREEKS
 72
     1
 11
199.6166083985602
 21
90.76363841023022
 31
0.0
100
AcDbText
  0
INSERT
  5
9B
330
1E
100
AcDbEntity
  8
STEMPEL
100
AcDbBlockReference
  2
LOGO
 10
140.9955485457794
 20
45.02105276448322
 30
0.0
 41
2.0
 42
2.0
 43
2.0
  0
TEXT
  5
118
330
1E
100
AcDbEntity
  8
BEM
100
AcDbText
 10
417.3022923857165
 20
10.16790107998849
 30
0.0
 40
4.0
  1
Diese Zeichnung ist urheberrechtlich geschützt und bleibt unser Eigentum. Sie darf weder ganz noch teilweise verfielfältigt und nicht an Dritte weitergegeben werden.
 50
90.0
 41
0.8
  7
GREEKS
100
AcDbText
  0
TEXT
  5
196
330
1E
100
AcDbEntity
  8
TEXT
 62
     1
100
AcDbText
 10
217.7569537503719
 20
475.9374850130991
 30
0.0
 40
7.0
  1
DN150
 50
90.0
 41
0.8
  7
GREEKS
 72
     1
 11
217.7569537503719
 21
488.3374850130991
 31
0.0
100
AcDbText
  0
TEXT
  5
197
330
1E
100
AcDbEntity
  8
TEXT
 62
     1
100
AcDbText
 10
218.8423319433724
 20
278.7846157305113
 30
0.0
 40
7.0
  1
DN125
 50
90.0
 41
0.8
  7
GREEKS
 72
     1
 11
218.8423319433724
 21
291.1846157305113
 31
0.0
100
AcDbText
  0
TEXT
  5
380
330
1E
100
AcDbEntity
  8
TEXT
 62
     1
100
AcDbText
 10
59.91418850028257
 20
158.9207908425064
 30
0.0
 40
7.0
  1
Rohrende leicht eingezogen
 41
0.8
  7
GREEKS
100
AcDbText
  0
TEXT
  5
388
330
1E
100
AcDbEntity
  8
TEXT
 62
     1
100
AcDbText
 10
234.6057658946468
 20
129.0783465745483
 30
0.0
 40
7.0
  1
und innen beschichtet
 41
0.8
  7
GREEKS
100
AcDbText
  0
TEXT
  5
389
330
1E
100
AcDbEntity
  8
TEXT
 62
     1
100
AcDbText
 10
186.6560484572489
 20
139.8004583895517
 30
0.0
 40
7.0
  1
Werkstoff: E195 EN10305 feuerverzinkt
 41
0.8
  7
GREEKS
100
AcDbText
  0
ARC
  5
1371
102
{ACAD_REACTORS
330
14AC
102
}
330
1E
100
AcDbEntity
  8
STEMPEL
100
AcDbCircle
 10
307.4999999999998
 20
363.6022994876755
 30
0.0
 40
18.5
100
AcDbArc
 50
174.7099187946294
 51
180.0
  0
ARC
  5
1372
102
{ACAD_REACTORS
330
14AC
102
}
330
1E
100
AcDbEntity
  8
STEMPEL
100
AcDbCircle
 10
142.4999999999999
 20
363.6022994876756
 30
0.0
 40
18.5
100
AcDbArc
 50
0.0
 51
5.290081205370578
  0
ARC
  5
1373
102
{ACAD_REACTORS
330
14AC
102
}
330
1E
100
AcDbEntity
  8
STEMPEL
100
AcDbCircle
 10
307.4999999999998
 20
363.6022994876755
 30
0.0
 40
16.0
100
AcDbArc
 50
174.7099187946294
 51
180.0
  0
ARC
  5
1374
102
{ACAD_REACTORS
330
14AC
102
}
330
1E
100
AcDbEntity
  8
STEMPEL
100
AcDbCircle
 10
142.4999999999999
 20
363.6022994876756
 30
0.0
 40
16.0
100
AcDbArc
 50
0.0
 51
5.290081205370578
  0
LINE
  5
1375
102
{ACAD_REACTORS
330
14AC
102
}
330
1E
100
AcDbEntity
  8
STEMPEL
100
AcDbLine
 10
160.9212024700351
 20
365.3079663830493
 30
0.0
 11
158.5106938635104
 21
391.3414593335158
 31
0.0
  0
LINE
  5
1376
102
{ACAD_REACTORS
330
14AC
102
}
330
1E
100
AcDbEntity
  8
STEMPEL
100
AcDbLine
 10
289.0787975299648
 20
365.3079663830492
 30
0.0
 11
291.4893061364895
 21
391.3414593335157
 31
0.0
  0
LINE
  5
1377
102
{ACAD_REACTORS
330
1497
330
14AC
102
}
330
1E
100
AcDbEntity
  8
STEMPEL
100
AcDbLine
 10
158.4318507848952
 20
365.0774708566474
 30
0.0
 11
155.9999999999999
 21
391.3414593335158
 31
0.0
  0
LINE
  5
1378
102
{ACAD_REACTORS
330
1497
330
14AC
102
}
330
1E
100
AcDbEntity
  8
STEMPEL
100
AcDbLine
 10
291.5681492151046
 20
365.0774708566473
 30
0.0
 11
293.9999999999998
 21
391.3414593335157
 31
0.0
  0
LINE
  5
1379
330
1E
100
AcDbEntity
  8
HILF
  6
Continuous
100
AcDbLine
 10
286.5130125381869
 20
364.3414593335156
 30
0.0
 11
163.4869874618129
 21
364.3414593335159
 31
0.0
  0
LINE
  5
137A
102
{ACAD_REACTORS
330
14AC
102
}
330
1E
100
AcDbEntity
  8
STEMPEL
100
AcDbLine
 10
289.0
 20
249.3414593335164
 30
0.0
 11
287.6876700471111
 21
234.3414593335157
 31
0.0
  0
LINE
  5
137B
102
{ACAD_REACTORS
330
14AC
102
}
330
1E
100
AcDbEntity
  8
STEMPEL
100
AcDbLine
 10
291.5
 20
249.2323069762448
 30
0.0
 11
290.1972196409695
 21
234.3414593335157
 31
0.0
  0
LINE
  5
137C
102
{ACAD_REACTORS
330
14AC
102
}
330
1E
100
AcDbEntity
  8
STEMPEL
100
AcDbLine
 10
158.4999999999999
 20
249.2323069762441
 30
0.0
 11
159.8027803590303
 21
234.3414593335158
 31
0.0
  0
LINE
  5
137D
102
{ACAD_REACTORS
330
14AC
102
}
330
1E
100
AcDbEntity
  8
STEMPEL
100
AcDbLine
 10
160.9999999999999
 20
249.3414593335162
 30
0.0
 11
162.3123299528888
 21
234.3414593335158
 31
0.0
  0
LINE
  5
137E
102
{ACAD_REACTORS
330
14AC
102
}
330
1E
100
AcDbEntity
  8
STEMPEL
100
AcDbLine
 10
289.0
 20
363.6022994876755
 30
0.0
 11
289.0
 21
249.3414593335164
 31
0.0
  0
LINE
  5
137F
102
{ACAD_REACTORS
330
14AC
102
}
330
1E
100
AcDbEntity
  8
STEMPEL
100
AcDbLine
 10
160.9999999999999
 20
363.6022994876756
 30
0.0
 11
160.9999999999999
 21
249.3414593335162
 31
0.0
  0
LINE
  5
1380
330
1E
100
AcDbEntity
  8
HILF
  6
Continuous
100
AcDbLine
 10
286.4999999999999
 20
249.3414593335157
 30
0.0
 11
163.4999999999999
 21
249.3414593335158
 31
0.0
  0
LINE
  5
1381
102
{ACAD_REACTORS
330
14AC
102
}
330
1E
100
AcDbEntity
  8
STEMPEL
100
AcDbLine
 10
291.4999999999998
 20
363.6022994876755
 30
0.0
 11
291.5
 21
249.2323069762448
 31
0.0
  0
LINE
  5
1382
102
{ACAD_REACTORS
330
14AC
102
}
330
1E
100
AcDbEntity
  8
STEMPEL
100
AcDbLine
 10
158.4999999999999
 20
363.6022994876756
 30
0.0
 11
158.4999999999999
 21
249.2323069762441
 31
0.0
  0
LINE
  5
1383
102
{ACAD_REACTORS
330
14AC
102
}
330
1E
100
AcDbEntity
  8
STEMPEL
100
AcDbLine
 10
290.1972196409695
 20
234.3414593335157
 30
0.0
 11
159.8027803590303
 21
234.3414593335158
 31
0.0
  0
ARC
  5
1384
102
{ACAD_REACTORS
330
14DD
102
}
330
1E
100
AcDbEntity
  8
STEMPEL
100
AcDbCircle
 10
285.9999999999999
 20
412.1730706036691
 30
0.0
 40
18.5
100
AcDbArc
 50
325.0079798014413
 51
0.0
  0
ARC
  5
1385
102
{ACAD_REACTORS
330
14DD
102
}
330
1E
100
AcDbEntity
  8
STEMPEL
100
AcDbCircle
 10
163.9999999999999
 20
412.1730706036691
 30
0.0
 40
18.5
100
AcDbArc
 50
180.0
 51
214.9920201985587
  0
ARC
  5
1386
102
{ACAD_REACTORS
330
14DD
102
}
330
1E
100
AcDbEntity
  8
STEMPEL
100
AcDbCircle
 10
163.9999999999999
 20
412.1730706036691
 30
0.0
 40
16.0
100
AcDbArc
 50
180.0
 51
214.9920201985587
  0
ARC
  5
1387
102
{ACAD_REACTORS
330
14DD
102
}
330
1E
100
AcDbEntity
  8
STEMPEL
100
AcDbCircle
 10
285.9999999999999
 20
412.1730706036691
 30
0.0
 40
16.0
100
AcDbArc
 50
325.0079798014413
 51
0.0
  0
LINE
  5
1388
102
{ACAD_REACTORS
330
14DD
102
}
330
1E
100
AcDbEntity
  8
STEMPEL
100
AcDbLine
 10
159.0516389039334
 20
391.3414593335159
 30
0.0
 11
150.8922892716953
 21
402.9976730938559
 31
0.0
  0
LINE
  5
1389
102
{ACAD_REACTORS
330
14DD
102
}
330
1E
100
AcDbEntity
  8
STEMPEL
100
AcDbLine
 10
299.1077107283044
 20
402.9976730938559
 30
0.0
 11
290.9483610960664
 21
391.3414593335157
 31
0.0
  0
LINE
  5
138A
102
{ACAD_REACTORS
330
1497
330
14DD
102
}
330
1E
100
AcDbEntity
  8
STEMPEL
100
AcDbLine
 10
155.9999999999999
 20
391.3414593335159
 30
0.0
 11
148.8442094703977
 21
401.5640172329476
 31
0.0
  0
LINE
  5
138B
102
{ACAD_REACTORS
330
1497
330
14DD
102
}
330
1E
100
AcDbEntity
  8
STEMPEL
100
AcDbLine
 10
301.1557905296021
 20
401.5640172329475
 30
0.0
 11
293.9999999999998
 21
391.3414593335157
 31
0.0
  0
LINE
  5
1390
102
{ACAD_REACTORS
330
14AC
330
14DD
102
}
330
1E
100
AcDbEntity
  8
STEMPEL
100
AcDbLine
 10
293.9999999999998
 20
391.3414593335157
 30
0.0
 11
155.9999999999999
 21
391.3414593335158
 31
0.0
  0
LINE
  5
1391
102
{ACAD_REACTORS
330
14DD
102
}
330
1E
100
AcDbEntity
  8
STEMPEL
100
AcDbLine
 10
308.9999999999999
 20
519.3414593335157
 30
0.0
 11
309.9550030786913
 21
517.293448622154
 31
0.0
  0
LINE
  5
1392
102
{ACAD_REACTORS
330
14DD
102
}
330
1E
100
AcDbEntity
  8
STEMPEL
100
AcDbLine
 10
311.7584447974061
 20
519.3414593335157
 30
0.0
 11
312.2207725462827
 21
518.3499942765063
 31
0.0
  0
LINE
  5
1393
102
{ACAD_REACTORS
330
14DD
102
}
330
1E
100
AcDbEntity
  8
STEMPEL
100
AcDbLine
 10
312.9999999999999
 20
503.558355115582
 30
0.0
 11
312.9999999999999
 21
487.6968068354311
 31
0.0
  0
LINE
  5
1394
102
{ACAD_REACTORS
330
14DD
102
}
330
1E
100
AcDbEntity
  8
STEMPEL
100
AcDbLine
 10
315.4999999999999
 20
503.558355115582
 30
0.0
 11
315.4999999999999
 21
487.3940648627399
 31
0.0
  0
ARC
  5
1395
102
{ACAD_REACTORS
330
14DD
102
}
330
1E
100
AcDbEntity
  8
STEMPEL
100
AcDbCircle
 10
280.4999999999998
 20
503.558355115582
 30
0.0
 40
32.5
100
AcDbArc
 50
0.0
 51
24.99999999998912
  0
ARC
  5
1396
102
{ACAD_REACTORS
330
14DD
102
}
330
1E
100
AcDbEntity
  8
STEMPEL
100
AcDbCircle
 10
280.4999999999998
 20
503.558355115582
 30
0.0
 40
35.0
100
AcDbArc
 50
0.0
 51
24.99999999999059
  0
ARC
  5
1397
102
{ACAD_REACTORS
330
14DD
102
}
330
1E
100
AcDbEntity
  8
STEMPEL
100
AcDbCircle
 10
327.4999999999999
 20
462.8414593335157
 30
0.0
 40
18.0
100
AcDbArc
 50
152.4728163794473
 51
180.0
  0
ARC
  5
1398
102
{ACAD_REACTORS
330
14DD
102
}
330
1E
100
AcDbEntity
  8
STEMPEL
100
AcDbCircle
 10
327.4999999999999
 20
462.8414593335157
 30
0.0
 40
20.5
100
AcDbArc
 50
152.8235627241355
 51
180.0
  0
ARC
  5
1399
102
{ACAD_REACTORS
330
14DD
102
}
330
1E
100
AcDbEntity
  8
STEMPEL
100
AcDbCircle
 10
291.4999999999998
 20
447.7824308415828
 30
0.0
 40
15.5
100
AcDbArc
 50
325.2280559680519
 51
0.0
  0
ARC
  5
139A
102
{ACAD_REACTORS
330
14DD
102
}
330
1E
100
AcDbEntity
  8
STEMPEL
100
AcDbCircle
 10
291.4999999999998
 20
447.7824308415828
 30
0.0
 40
18.0
100
AcDbArc
 50
325.2280559680519
 51
0.0
  0
LINE
  5
139B
102
{ACAD_REACTORS
330
14DD
102
}
330
1E
100
AcDbEntity
  8
STEMPEL
100
AcDbLine
 10
306.9999999999999
 20
462.8414593335157
 30
0.0
 11
306.9999999999999
 21
447.7824308415828
 31
0.0
  0
LINE
  5
139C
102
{ACAD_REACTORS
330
14DD
102
}
330
1E
100
AcDbEntity
  8
STEMPEL
100
AcDbLine
 10
309.4999999999999
 20
462.8414593335157
 30
0.0
 11
309.4999999999999
 21
447.7824308415828
 31
0.0
  0
LINE
  5
139D
102
{ACAD_REACTORS
330
14DD
102
}
330
1E
100
AcDbEntity
  8
STEMPEL
100
AcDbLine
 10
304.4999999999998
 20
431.8137114189115
 30
0.0
 11
304.4999999999998
 21
412.1730706036691
 31
0.0
  0
LINE
  5
139E
102
{ACAD_REACTORS
330
14DD
102
}
330
1E
100
AcDbEntity
  8
STEMPEL
100
AcDbLine
 10
301.9999999999998
 20
431.8137114189116
 30
0.0
 11
301.9999999999998
 21
412.1730706036691
 31
0.0
  0
ARC
  5
139F
102
{ACAD_REACTORS
330
14DD
102
}
330
1E
100
AcDbEntity
  8
STEMPEL
100
AcDbCircle
 10
314.5
 20
431.8137114189115
 30
0.0
 40
10.0
100
AcDbArc
 50
145.2280559680519
 51
180.0
  0
ARC
  5
13A0
102
{ACAD_REACTORS
330
14DD
102
}
330
1E
100
AcDbEntity
  8
STEMPEL
100
AcDbCircle
 10
314.5
 20
431.8137114189116
 30
0.0
 40
12.5
100
AcDbArc
 50
145.2280559680519
 51
180.0
  0
ARC
  5
13A1
102
{ACAD_REACTORS
330
14DD
102
}
330
1E
100
AcDbEntity
  8
STEMPEL
100
AcDbCircle
 10
280.5019723202418
 20
487.3387608527978
 30
0.0
 40
32.5
100
AcDbArc
 50
332.2463720435633
 51
0.6312288822566755
  0
ARC
  5
13A2
102
{ACAD_REACTORS
330
14DD
102
}
330
1E
100
AcDbEntity
  8
STEMPEL
100
AcDbCircle
 10
280.4999999999998
 20
487.3364593335157
 30
0.0
 40
35.00004740563918
100
AcDbArc
 50
332.4728163794473
 51
0.0943014491683592
  0
LINE
  5
13A3
330
1E
100
AcDbEntity
  8
MITTEL
100
AcDbLine
 10
225.0
 20
524.3414593335158
 30
0.0
 11
225.0
 21
381.8576591322937
 31
0.0
  0
LINE
  5
13A4
102
{ACAD_REACTORS
330
14DD
102
}
330
1E
100
AcDbEntity
  8
STEMPEL
100
AcDbLine
 10
138.2415552025937
 20
519.3414593335157
 30
0.0
 11
137.779227453717
 21
518.3499942765063
 31
0.0
  0
LINE
  5
13A5
102
{ACAD_REACTORS
330
14DD
102
}
330
1E
100
AcDbEntity
  8
STEMPEL
100
AcDbLine
 10
140.9999999999999
 20
519.3414593335157
 30
0.0
 11
140.0449969213085
 21
517.293448622154
 31
0.0
  0
ARC
  5
13A6
102
{ACAD_REACTORS
330
14DD
102
}
330
1E
100
AcDbEntity
  8
STEMPEL
100
AcDbCircle
 10
169.4999999999999
 20
503.558355115582
 30
0.0
 40
32.5
100
AcDbArc
 50
155.0000000000072
 51
180.0
  0
ARC
  5
13A7
102
{ACAD_REACTORS
330
14DD
102
}
330
1E
100
AcDbEntity
  8
STEMPEL
100
AcDbCircle
 10
169.4999999999999
 20
503.558355115582
 30
0.0
 40
35.0
100
AcDbArc
 50
155.0000000000072
 51
180.0
  0
ARC
  5
13A8
102
{ACAD_REACTORS
330
14DD
102
}
330
1E
100
AcDbEntity
  8
STEMPEL
100
AcDbCircle
 10
169.4980276797579
 20
487.3387608527978
 30
0.0
 40
32.5
100
AcDbArc
 50
179.3687711177433
 51
207.7536279564367
  0
LINE
  5
13A9
102
{ACAD_REACTORS
330
14DD
102
}
330
1E
100
AcDbEntity
  8
STEMPEL
100
AcDbLine
 10
142.9999999999999
 20
462.8414593335157
 30
0.0
 11
142.9999999999999
 21
447.7824308415828
 31
0.0
  0
LINE
  5
13AA
102
{ACAD_REACTORS
330
14DD
102
}
330
1E
100
AcDbEntity
  8
STEMPEL
100
AcDbLine
 10
140.4999999999999
 20
462.8414593335157
 30
0.0
 11
140.4999999999999
 21
447.7824308415828
 31
0.0
  0
ARC
  5
13AB
102
{ACAD_REACTORS
330
14DD
102
}
330
1E
100
AcDbEntity
  8
STEMPEL
100
AcDbCircle
 10
122.4999999999999
 20
462.8414593335157
 30
0.0
 40
18.0
100
AcDbArc
 50
0.0
 51
27.52718362055266
  0
ARC
  5
13AC
102
{ACAD_REACTORS
330
14DD
102
}
330
1E
100
AcDbEntity
  8
STEMPEL
100
AcDbCircle
 10
122.4999999999999
 20
462.8414593335157
 30
0.0
 40
20.5
100
AcDbArc
 50
0.0
 51
27.17643727586449
  0
ARC
  5
13AD
102
{ACAD_REACTORS
330
14DD
102
}
330
1E
100
AcDbEntity
  8
STEMPEL
100
AcDbCircle
 10
169.4999999999999
 20
487.3364593335157
 30
0.0
 40
35.00004740563918
100
AcDbArc
 50
179.9056985508316
 51
207.5271836205526
  0
LINE
  5
13AE
102
{ACAD_REACTORS
330
14DD
102
}
330
1E
100
AcDbEntity
  8
STEMPEL
100
AcDbLine
 10
136.9999999999999
 20
503.558355115582
 30
0.0
 11
136.9999999999999
 21
487.6968068354311
 31
0.0
  0
LINE
  5
13AF
102
{ACAD_REACTORS
330
14DD
102
}
330
1E
100
AcDbEntity
  8
STEMPEL
100
AcDbLine
 10
134.4999999999999
 20
503.558355115582
 30
0.0
 11
134.4999999999999
 21
487.3940648627399
 31
0.0
  0
ARC
  5
13B0
102
{ACAD_REACTORS
330
14DD
102
}
330
1E
100
AcDbEntity
  8
STEMPEL
100
AcDbCircle
 10
135.4999999999999
 20
431.8137114189116
 30
0.0
 40
12.5
100
AcDbArc
 50
0.0
 51
34.7719440319481
  0
ARC
  5
13B1
102
{ACAD_REACTORS
330
14DD
102
}
330
1E
100
AcDbEntity
  8
STEMPEL
100
AcDbCircle
 10
135.4999999999999
 20
431.8137114189115
 30
0.0
 40
10.0
100
AcDbArc
 50
0.0
 51
34.7719440319481
  0
LINE
  5
13B2
102
{ACAD_REACTORS
330
14DD
102
}
330
1E
100
AcDbEntity
  8
STEMPEL
100
AcDbLine
 10
147.9999999999999
 20
431.8137114189116
 30
0.0
 11
147.9999999999999
 21
412.1730706036691
 31
0.0
  0
LINE
  5
13B3
102
{ACAD_REACTORS
330
14DD
102
}
330
1E
100
AcDbEntity
  8
STEMPEL
100
AcDbLine
 10
145.4999999999999
 20
431.8137114189115
 30
0.0
 11
145.4999999999999
 21
412.1730706036691
 31
0.0
  0
ARC
  5
13B4
102
{ACAD_REACTORS
330
14DD
102
}
330
1E
100
AcDbEntity
  8
STEMPEL
100
AcDbCircle
 10
158.4999999999999
 20
447.7824308415828
 30
0.0
 40
15.5
100
AcDbArc
 50
180.0
 51
214.7719440319481
  0
ARC
  5
13B5
102
{ACAD_REACTORS
330
14DD
102
}
330
1E
100
AcDbEntity
  8
STEMPEL
100
AcDbCircle
 10
158.4999999999999
 20
447.7824308415828
 30
0.0
 40
18.0
100
AcDbArc
 50
180.0
 51
214.7719440319481
  0
LINE
  5
13B6
102
{ACAD_REACTORS
330
14DD
102
}
330
1E
100
AcDbEntity
  8
STEMPEL
100
AcDbLine
 10
311.7584447974061
 20
519.3414593335157
 30
0.0
 11
138.2415552025937
 21
519.3414593335157
 31
0.0
  0
DIMENSION
  5
13C8
330
1E
100
AcDbEntity
  8
BEM
100
AcDbDimension
  2
*D1
 10
121.8904344124189
 20
234.3414593335158
 30
0.0
 11
115.3904344124189
 21
299.3414593335159
 31
0.0
 70
    32
 71
     5
 42
130.0
  3
Standard
100
AcDbAlignedDimension
 13
158.4829172156492
 23
364.3414593335159
 33
0.0
 14
159.8027803590303
 24
234.3414593335158
 34
0.0
 50
90.0
100
AcDbRotatedDimension
1001
ACAD
1000
DSTYLE
1002
{
1070
    40
1040
2.0
1070
    41
1040
3.5
1070
    42
1040
1.0
1070
    43
1040
7.0
1070
    44
1040
1.0
1070
    73
1070
     0
1070
    74
1070
     0
1070
    77
1070
     1
1070
    78
1070
     8
1070
    79
1070
     2
1070
   140
1040
3.5
1070
   141
1040
1.5
1070
   146
1040
0.5
1070
   147
1040
1.5
1070
   172
1070
     1
1070
   178
1070
     1
1070
   179
1070
     2
1070
   271
1070
     2
1070
   272
1070
     2
1070
   284
1070
     8
1070
   285
1070
     8
1070
   286
1070
     8
1002
}
  0
LINE
  5
13DE
330
1E
100
AcDbEntity
  8
HILF
100
AcDbLine
 10
305.0099333266099
 20
467.6577754596094
 30
0.0
 11
144.9900666733899
 21
467.6577754596094
 31
0.0
  0
LINE
  5
13DF
330
1E
100
AcDbEntity
  8
HILF
100
AcDbLine
 10
303.6469793423243
 20
443.150919980412
 30
0.0
 11
146.3530206576755
 21
443.150919980412
 31
0.0
  0
LINE
  5
13E0
330
1E
100
AcDbEntity
  8
HILF
100
AcDbLine
 10
299.9724707144381
 20
435.5488008230814
 30
0.0
 11
150.0275292855618
 21
435.5488008230814
 31
0.0
  0
LINE
  5
13E1
330
1E
100
AcDbEntity
  8
HILF
100
AcDbLine
 10
298.6139480665822
 20
407.3628404456036
 30
0.0
 11
151.3860519334176
 21
407.3628404456036
 31
0.0
  0
DIMENSION
  5
1404
330
1E
100
AcDbEntity
  8
BEM
100
AcDbDimension
  2
*D2
 10
103.9400120866726
 20
234.3414593335158
 30
0.0
 11
97.44001208667256
 21
376.8414593335159
 31
0.0
 70
    32
 71
     5
 42
284.9999999999999
  3
Standard
100
AcDbAlignedDimension
 13
138.2415552025937
 23
519.3414593335157
 33
0.0
 14
159.8027803590303
 24
234.3414593335158
 34
0.0
 50
90.0
100
AcDbRotatedDimension
1001
ACAD
1000
DSTYLE
1002
{
1070
    40
1040
2.0
1070
    41
1040
3.5
1070
    42
1040
1.0
1070
    43
1040
7.0
1070
    44
1040
1.0
1070
    73
1070
     0
1070
    74
1070
     0
1070
    77
1070
     1
1070
    78
1070
     8
1070
    79
1070
     2
1070
   140
1040
3.5
1070
   141
1040
1.5
1070
   146
1040
0.5
1070
   147
1040
1.5
1070
   172
1070
     1
1070
   178
1070
     1
1070
   179
1070
     2
1070
   271
1070
     2
1070
   272
1070
     2
1070
   284
1070
     8
1070
   285
1070
     8
1070
   286
1070
     8
1002
}
  0
DIMENSION
  5
141E
330
1E
100
AcDbEntity
  8
BEM
100
AcDbDimension
  2
*D3
 10
291.5
 20
212.6887694149668
 30
0.0
 11
225.0
 21
219.1887694149668
 31
0.0
 70
    32
  1
%%c<>
 71
     5
 42
133.0
  3
Standard
100
AcDbAlignedDimension
 13
158.4999999999999
 23
249.2323069762441
 33
0.0
 14
291.5
 24
249.2323069762448
 34
0.0
100
AcDbRotatedDimension
1001
ACAD
1000
DSTYLE
1002
{
1070
    40
1040
2.0
1070
    41
1040
3.5
1070
    42
1040
1.0
1070
    43
1040
7.0
1070
    44
1040
1.0
1070
    73
1070
     0
1070
    74
1070
     0
1070
    77
1070
     1
1070
    78
1070
     8
1070
    79
1070
     2
1070
   140
1040
3.5
1070
   141
1040
1.5
1070
   146
1040
0.5
1070
   147
1040
1.5
1070
   172
1070
     1
1070
   178
1070
     1
1070
   179
1070
     2
1070
   271
1070
     2
1070
   272
1070
     2
1070
   284
1070
     8
1070
   285
1070
     8
1070
   286
1070
     8
1002
}
  0
DIMENSION
  5
1464
330
1E
100
AcDbEntity
  8
BEM
100
AcDbDimension
  2
*D4
 10
304.4999999999998
 20
370.4324953976445
 30
0.0
 11
224.9999999999999
 21
370.4324953976445
 31
0.0
 70
   160
  1
%%c<>
 71
     5
 42
158.9999999999999
  3
Standard
100
AcDbAlignedDimension
 13
145.4999999999999
 23
412.1730706036691
 33
0.0
 14
304.4999999999998
 24
412.1730706036691
 34
0.0
100
AcDbRotatedDimension
1001
ACAD
1000
DSTYLE
1002
{
1070
    40
1040
2.0
1070
    41
1040
3.5
1070
    42
1040
1.0
1070
    43
1040
7.0
1070
    44
1040
1.0
1070
    73
1070
     0
1070
    74
1070
     0
1070
    77
1070
     1
1070
    78
1070
     8
1070
    79
1070
     2
1070
   140
1040
3.5
1070
   141
1040
1.5
1070
   146
1040
0.5
1070
   147
1040
1.5
1070
   172
1070
     1
1070
   178
1070
     1
1070
   179
1070
     2
1070
   271
1070
     2
1070
   272
1070
     2
1070
   284
1070
     8
1070
   285
1070
     8
1070
   286
1070
     8
1002
}
  0
LINE
  5
1483
330
1E
100
AcDbEntity
  8
MITTEL
100
AcDbLine
 10
225.0
 20
368.4868324345099
 30
0.0
 11
225.0
 21
229.3414593335157
 31
0.0
  0
ARC
  5
148F
102
{ACAD_REACTORS
330
1497
102
}
330
1E
100
AcDbEntity
  8
SCHRAFF
100
AcDbCircle
 10
157.5846200047765
 20
392.3305083312935
 30
0.0
 40
4.197659885333554
100
AcDbArc
 50
151.3756609901755
 51
251.8608179293327
  0
ARC
  5
1490
102
{ACAD_REACTORS
330
1497
102
}
330
1E
100
AcDbEntity
  8
SCHRAFF
100
AcDbCircle
 10
292.4153799952235
 20
392.3305083312935
 30
0.0
 40
4.197659885333554
100
AcDbArc
 50
288.1391820706673
 51
28.62433900982449
  0
HATCH
  5
1497
330
1E
100
AcDbEntity
  8
SCHRAFF
100
AcDbHatch
 10
0.0
 20
0.0
 30
0.0
210
0.0
220
0.0
230
1.0
  2
_USER
 70
     0
 71
     1
 91
        2
 92
        7
 72
     1
 73
     1
 93
        3
 10
155.9999999999999
 20
391.3414593335158
 42
0.0
 10
153.8999999999999
 20
394.3414593335158
 42
0.4688874090083694
 10
156.2777777777777
 20
388.3414593335158
 42
0.0
 97
        3
330
138A
330
148F
330
1377
 92
        7
 72
     1
 73
     1
 93
        3
 10
296.1
 20
394.3414593335159
 42
0.0
 10
293.9999999999999
 20
391.3414593335157
 42
0.0
 10
293.7222222222221
 20
388.3414593335157
 42
0.4688874090083909
 97
        3
330
138B
330
1378
330
1490
 75
     0
 76
     0
 52
0.0
 41
0.1
 77
     0
 78
     1
 53
0.0
 43
0.0
 44
0.0
 45
0.0
 46
0.1
 79
     0
 47
0.1968805818835034
 98
        2
 10
154.2036671429091
 20
391.1753976612849
 10
294.6642759920851
 20
390.3878748255006
  0
HATCH
  5
14AC
330
1E
100
AcDbEntity
  8
SCHRAFF
100
AcDbHatch
 10
0.0
 20
0.0
 30
0.0
210
0.0
220
0.0
230
1.0
  2
_USER
 70
     0
 71
     1
 91
        2
 92
        7
 72
     1
 73
     1
 93
       10
 10
291.4999999999998
 20
363.6022994876755
 42
-0.0230864339340243
 10
291.5681492151046
 20
365.0774708566475
 42
0.0
 10
293.9999999999998
 20
391.3414593335157
 42
0.0
 10
291.4893061364894
 20
391.3414593335157
 42
0.0
 10
289.0787975299648
 20
365.3079663830492
 42
0.0230864339340274
 10
289.0
 20
363.6022994876752
 42
0.0
 10
289.0
 20
249.341459333516
 42
0.0
 10
287.6876700471111
 20
234.3414593335157
 42
0.0
 10
290.1972196409695
 20
234.3414593335157
 42
0.0
 10
291.5
 20
249.2323069762446
 42
0.0
 97
       10
330
1373
330
1378
330
1390
330
1376
330
1371
330
137E
330
137A
330
1383
330
137B
330
1381
 92
        7
 72
     1
 73
     1
 93
       10
 10
160.9999999999999
 20
363.6022994876756
 42
0.0230864339340221
 10
160.9212024700351
 20
365.3079663830492
 42
0.0
 10
158.5106938635105
 20
391.3414593335159
 42
0.0
 10
155.9999999999999
 20
391.3414593335158
 42
0.0
 10
158.4318507848952
 20
365.0774708566474
 42
-0.0230864339340172
 10
158.4999999999999
 20
363.6022994876759
 42
0.0
 10
158.4999999999999
 20
249.2323069762443
 42
0.0
 10
159.8027803590303
 20
234.3414593335159
 42
0.0
 10
162.3123299528888
 20
234.3414593335159
 42
0.0
 10
160.9999999999999
 20
249.3414593335164
 42
0.0
 97
       10
330
1372
330
1375
330
1390
330
1377
330
1374
330
1382
330
137C
330
1383
330
137D
330
137F
 75
     0
 76
     0
 52
45.0
 41
2.0
 77
     0
 78
     1
 53
45.0
 43
0.0
 44
0.0
 45
-1.414213562373094
 46
1.414213562373095
 79
     0
 47
0.5703956014304241
 98
        2
 10
290.2162441707378
 20
345.321513285769
 10
160.0875292810124
 20
333.9136012618883
  0
HATCH
  5
14DD
330
1E
100
AcDbEntity
  8
SCHRAFF
100
AcDbHatch
 10
0.0
 20
0.0
 30
0.0
210
0.0
220
0.0
230
1.0
  2
_USER
 70
     0
 71
     1
 91
        2
 92
        7
 72
     1
 73
     1
 93
       24
 10
304.4999999999998
 20
431.8137114189115
 42
-0.1528962216020385
 10
306.2857142857142
 20
437.5168254984369
 42
0.1528962216020416
 10
309.4999999999999
 20
447.7824308415828
 42
0.0
 10
309.4999999999999
 20
462.8414593335157
 42
-0.1206909349745714
 10
311.5377501264276
 20
471.160508496349
 42
0.1202734944253523
 10
315.4999999999999
 20
487.2788538044333
 42
0.0
 10
315.4999999999999
 20
503.558355115582
 42
0.1095178116832399
 10
312.2207725462827
 20
518.3499942765063
 42
0.0
 10
311.7584447974061
 20
519.3414593335157
 42
0.0
 10
308.9999999999999
 20
519.3414593335157
 42
0.0
 10
309.9550030786913
 20
517.293448622154
 42
-0.1095178116832356
 10
312.9999999999999
 20
503.558355115582
 42
0.0
 10
312.9999999999999
 20
487.6968068354311
 42
-0.1244894853097928
 10
309.263112295265
 20
472.2044677626954
 42
0.1191385083149653
 10
306.9999999999999
 20
462.8414593335159
 42
0.0
 10
306.9999999999999
 20
447.7824308415828
 42
-0.1528962216020382
 10
304.2321428571428
 20
438.9426040183184
 42
0.1528962216020399
 10
301.9999999999998
 20
431.8137114189116
 42
0.0
 10
301.9999999999998
 20
412.1730706036691
 42
-0.1538790779584989
 10
299.1077107283045
 20
402.9976730938559
 42
0.0
 10
290.9483610960664
 20
391.3414593335157
 42
0.0
 10
293.9999999999998
 20
391.3414593335157
 42
0.0
 10
301.1557905296021
 20
401.5640172329475
 42
0.1538790779584995
 10
304.4999999999998
 20
412.1730706036691
 42
0.0
 97
       24
330
139F
330
139A
330
139C
330
1397
330
13A2
330
1394
330
1396
330
1392
330
13B6
330
1391
330
1395
330
1393
330
13A1
330
1398
330
139B
330
1399
330
13A0
330
139E
330
1387
330
1389
330
1390
330
138B
330
1384
330
139D
 92
        7
 72
     1
 73
     1
 93
       24
 10
147.9999999999999
 20
431.8137114189116
 42
0.152896221602038
 10
145.7678571428571
 20
438.9426040183183
 42
-0.1528962216020402
 10
142.9999999999999
 20
447.7824308415828
 42
0.0
 10
142.9999999999999
 20
462.8414593335157
 42
0.1191385083150308
 10
140.7368877047324
 20
472.2044677626999
 42
-0.1244894853097529
 10
136.9999999999999
 20
487.6968068354311
 42
0.0
 10
136.9999999999999
 20
503.558355115582
 42
-0.109517811683236
 10
140.0449969213085
 20
517.293448622154
 42
0.0
 10
140.9999999999999
 20
519.3414593335157
 42
0.0
 10
138.2415552025937
 20
519.3414593335159
 42
0.0
 10
137.779227453717
 20
518.3499942765063
 42
0.1095178116832396
 10
134.4999999999999
 20
503.5583551155821
 42
0.0
 10
134.4999999999999
 20
487.2788538043979
 42
0.1202734944250982
 10
138.4622498735724
 20
471.1605084963489
 42
-0.120690934974567
 10
140.4999999999999
 20
462.8414593335158
 42
0.0
 10
140.4999999999999
 20
447.7824308415828
 42
0.1528962216020396
 10
143.7142857142856
 20
437.516825498437
 42
-0.1528962216020397
 10
145.4999999999999
 20
431.8137114189116
 42
0.0
 10
145.4999999999999
 20
412.1730706036691
 42
0.1538790779585
 10
148.8442094703977
 20
401.5640172329476
 42
0.0
 10
155.9999999999999
 20
391.3414593335158
 42
0.0
 10
159.0516389039334
 20
391.3414593335157
 42
0.0
 10
150.8922892716953
 20
402.9976730938559
 42
-0.1538790779585009
 10
147.9999999999999
 20
412.1730706036691
 42
0.0
 97
       24
330
13B0
330
13B4
330
13A9
330
13AC
330
13A8
330
13AE
330
13A6
330
13A5
330
13B6
330
13A4
330
13A7
330
13AF
330
13AD
330
13AB
330
13AA
330
13B5
330
13B1
330
13B3
330
1385
330
138A
330
1390
330
1388
330
1386
330
13B2
 75
     0
 76
     0
 52
135.0
 41
2.0
 77
     0
 78
     1
 53
135.0
 43
0.0
 44
0.0
 45
-1.414213562373095
 46
-1.414213562373094
 79
     0
 47
0.5703956014304241
 98
        2
 10
303.3432626933263
 20
421.7545230075102
 10
146.960508587003
 20
424.606501712029
  0
ENDSEC
  0
SECTION
  2
OBJECTS
  0
DICTIONARY
  5
C
330
0
100
AcDbDictionary
281
     1
  3
ACAD_COLOR
350
DF
  3
ACAD_GROUP
350
D
  3
ACAD_LAYOUT
350
19
  3
ACAD_MATERIAL
350
DE
  3
ACAD_MLINESTYLE
350
16
  3
ACAD_PLOTSETTINGS
350
18
  3
ACAD_PLOTSTYLENAME
350
E
  3
AcDbVariableDictionary
350
EA
  0
DICTIONARY
  5
A0
330
1E
100
AcDbDictionary
280
     1
281
     1
  3
ACAD_LAYOUTSELFREF
360
D4
  0
DICTIONARY
  5
A2
330
1A
100
AcDbDictionary
280
     1
281
     1
  3
ACAD_LAYOUTSELFREF
360
D3
  0
DICTIONARY
  5
DF
102
{ACAD_REACTORS
330
C
102
}
330
C
100
AcDbDictionary
281
     1
  0
DICTIONARY
  5
D
102
{ACAD_REACTORS
330
C
102
}
330
C
100
AcDbDictionary
281
     1
  0
DICTIONARY
  5
19
102
{ACAD_REACTORS
330
C
102
}
330
C
100
AcDbDictionary
281
     1
  3
Layout1
350
1D
  3
Model
350
21
  0
DICTIONARY
  5
DE
102
{ACAD_REACTORS
330
C
102
}
330
C
100
AcDbDictionary
281
     1
  0
DICTIONARY
  5
16
102
{ACAD_REACTORS
330
C
102
}
330
C
100
AcDbDictionary
281
     1
  3
Standard
350
17
  0
DICTIONARY
  5
18
102
{ACAD_REACTORS
330
C
102
}
330
C
100
AcDbDictionary
281
     1
  0
ACDBDICTIONARYWDFLT
  5
E
102
{ACAD_REACTORS
330
C
102
}
330
C
100
AcDbDictionary
281
     1
  3
Normal
350
F
100
AcDbDictionaryWithDefault
340
F
  0
DICTIONARY
  5
EA
102
{ACAD_REACTORS
330
C
102
}
330
C
100
AcDbDictionary
281
     1
  3
DIMASSOC
350
EB
  3
PROJECTNAME
350
EC
  0
XRECORD
  5
D4
102
{ACAD_REACTORS
330
A0
102
}
330
A0
100
AcDbXrecord
280
     1
340
1E
  0
XRECORD
  5
D3
102
{ACAD_REACTORS
330
A2
102
}
330
A2
100
AcDbXrecord
280
     1
340
1A
  0
LAYOUT
  5
1D
102
{ACAD_REACTORS
330
19
102
}
330
19
100
AcDbPlotSettings
  1

  2
\\NT_WORK01\HP LaserJet 5000 PCL 6
  4

  6

 40
0.0
 41
0.0
 42
0.0
 43
0.0
 44
0.0
 45
0.0
 46
0.0
 47
0.0
 48
0.0
 49
0.0
140
0.0
141
0.0
142
1.0
143
1.0
 70
   688
 72
     0
 73
     0
 74
     5
  7

 75
    16
147
1.0
 76
     0
 77
     2
 78
   300
148
0.0
149
0.0
100
AcDbLayout
  1
Layout1
 70
     0
 71
     1
 10
0.0
 20
0.0
 11
12.0
 21
9.0
 12
0.0
 22
0.0
 32
0.0
 14
1.000000000000000E+20
 24
1.000000000000000E+20
 34
1.000000000000000E+20
 15
-1.000000000000000E+20
 25
-1.000000000000000E+20
 35
-1.000000000000000E+20
146
0.0
 13
0.0
 23
0.0
 33
0.0
 16
1.0
 26
0.0
 36
0.0
 17
0.0
 27
1.0
 37
0.0
 76
     0
330
1A
  0
LAYOUT
  5
21
102
{ACAD_REACTORS
330
19
102
}
330
19
100
AcDbPlotSettings
  1

  2
\\NT_WORK01\HP LaserJet 5000 PCL 6
  4

  6

 40
0.0
 41
0.0
 42
0.0
 43
0.0
 44
0.0
 45
0.0
 46
0.0
 47
0.0
 48
0.0
 49
0.0
140
0.0
141
0.0
142
1.0
143
1.0
 70
  1712
 72
     0
 73
     0
 74
     0
  7

 75
     0
147
1.0
 76
     0
 77
     2
 78
   300
148
0.0
149
0.0
100
AcDbLayout
  1
Model
 70
     1
 71
     0
 10
0.0
 20
0.0
 11
12.0
 21
9.0
 12
0.0
 22
0.0
 32
0.0
 14
0.0
 24
0.0
 34
0.0
 15
0.0
 25
0.0
 35
0.0
146
0.0
 13
0.0
 23
0.0
 33
0.0
 16
1.0
 26
0.0
 36
0.0
 17
0.0
 27
1.0
 37
0.0
 76
     0
330
1E
  0
MLINESTYLE
  5
17
102
{ACAD_REACTORS
330
16
102
}
330
16
100
AcDbMlineStyle
  2
STANDARD
 70
     0
  3

 62
   256
 51
90.0
 52
90.0
 71
     2
 49
0.5
 62
   256
  6
BYLAYER
 49
-0.5
 62
   256
  6
BYLAYER
  0
ACDBPLACEHOLDER
  5
F
102
{ACAD_REACTORS
330
E
102
}
330
E
  0
DICTIONARYVAR
  5
EB
102
{ACAD_REACTORS
330
EA
102
}
330
EA
100
DictionaryVariables
280
     0
  1
1
  0
DICTIONARYVAR
  5
EC
102
{ACAD_REACTORS
330
EA
102
}
330
EA
100
DictionaryVariables
280
     0
  1

  0
ENDSEC
  0
EOF
