  0
SECTION
  2
HEADER
  9
$ACADVER
  1
AC1018
  9
$ACADMAINTVER
 70
     2
  9
$DWGCODEPAGE
  3
ANSI_1252
  9
$INSBASE
 10
0.0
 20
0.0
 30
0.0
  9
$EXTMIN
 10
-0.0000000000000568
 20
-0.0000000000000568
 30
0.0
  9
$EXTMAX
 10
210.0
 20
297.0000000000001
 30
0.0
  9
$LIMMIN
 10
0.0
 20
0.0
  9
$LIMMAX
 10
210.0
 20
297.0
  9
$ORTHOMODE
 70
     1
  9
$REGENMODE
 70
     1
  9
$FILLMODE
 70
     1
  9
$QTEXTMODE
 70
     0
  9
$MIRRTEXT
 70
     1
  9
$LTSCALE
 40
10.0
  9
$ATTMODE
 70
     1
  9
$TEXTSIZE
 40
3.5
  9
$TRACEWID
 40
0.5
  9
$TEXTSTYLE
  7
STANDARD
  9
$CLAYER
  8
SCHRAFF
  9
$CELTYPE
  6
ByLayer
  9
$CECOLOR
 62
   256
  9
$CELTSCALE
 40
1.0
  9
$DISPSILH
 70
     0
  9
$DIMSCALE
 40
1.0
  9
$DIMASZ
 40
3.5
  9
$DIMEXO
 40
1.0
  9
$DIMDLI
 40
7.0
  9
$DIMRND
 40
0.0
  9
$DIMDLE
 40
0.0
  9
$DIMEXE
 40
1.0
  9
$DIMTP
 40
0.0
  9
$DIMTM
 40
0.0
  9
$DIMTXT
 40
3.5
  9
$DIMCEN
 40
1.5
  9
$DIMTSZ
 40
0.0
  9
$DIMTOL
 70
     0
  9
$DIMLIM
 70
     0
  9
$DIMTIH
 70
     0
  9
$DIMTOH
 70
     0
  9
$DIMSE1
 70
     0
  9
$DIMSE2
 70
     0
  9
$DIMTAD
 70
     1
  9
$DIMZIN
 70
     8
  9
$DIMBLK
  1

  9
$DIMASO
 70
     1
  9
$DIMSHO
 70
     0
  9
$DIMPOST
  1

  9
$DIMAPOST
  1

  9
$DIMALT
 70
     0
  9
$DIMALTD
 70
     2
  9
$DIMALTF
 40
25.4
  9
$DIMLFAC
 40
1.0
  9
$DIMTOFL
 70
     1
  9
$DIMTVP
 40
0.0
  9
$DIMTIX
 70
     0
  9
$DIMSOXD
 70
     0
  9
$DIMSAH
 70
     0
  9
$DIMBLK1
  1

  9
$DIMBLK2
  1

  9
$DIMSTYLE
  2
Standard
  9
$DIMCLRD
 70
     0
  9
$DIMCLRE
 70
     0
  9
$DIMCLRT
 70
     1
  9
$DIMTFAC
 40
0.5
  9
$DIMGAP
 40
1.5
  9
$DIMJUST
 70
     0
  9
$DIMSD1
 70
     0
  9
$DIMSD2
 70
     0
  9
$DIMTOLJ
 70
     1
  9
$DIMTZIN
 70
     8
  9
$DIMALTZ
 70
     8
  9
$DIMALTTZ
 70
     8
  9
$DIMUPT
 70
     0
  9
$DIMDEC
 70
     2
  9
$DIMTDEC
 70
     2
  9
$DIMALTU
 70
     2
  9
$DIMALTTD
 70
     2
  9
$DIMTXSTY
  7
STANDARD
  9
$DIMAUNIT
 70
     0
  9
$DIMADEC
 70
     2
  9
$DIMALTRND
 40
0.0
  9
$DIMAZIN
 70
     2
  9
$DIMDSEP
 70
    46
  9
$DIMATFIT
 70
     3
  9
$DIMFRAC
 70
     0
  9
$DIMLDRBLK
  1

  9
$DIMLUNIT
 70
     2
  9
$DIMLWD
 70
    -2
  9
$DIMLWE
 70
    -2
  9
$DIMTMOVE
 70
     0
  9
$LUNITS
 70
     2
  9
$LUPREC
 70
     2
  9
$SKETCHINC
 40
1.0
  9
$FILLETRAD
 40
8.0
  9
$AUNITS
 70
     0
  9
$AUPREC
 70
     0
  9
$MENU
  1
ACAD
  9
$ELEVATION
 40
0.0
  9
$PELEVATION
 40
0.0
  9
$THICKNESS
 40
0.0
  9
$LIMCHECK
 70
     0
  9
$CHAMFERA
 40
0.0
  9
$CHAMFERB
 40
0.0
  9
$CHAMFERC
 40
0.0
  9
$CHAMFERD
 40
0.0
  9
$SKPOLY
 70
     0
  9
$TDCREATE
 40
2455397.864709028
  9
$TDUCREATE
 40
2455397.781375695
  9
$TDUPDATE
 40
2455812.605083021
  9
$TDUUPDATE
 40
2455812.521749687
  9
$TDINDWG
 40
0.1044209838
  9
$TDUSRTIMER
 40
0.1044209838
  9
$USRTIMER
 70
     1
  9
$ANGBASE
 50
0.0
  9
$ANGDIR
 70
     0
  9
$PDMODE
 70
     0
  9
$PDSIZE
 40
0.0
  9
$PLINEWID
 40
0.0
  9
$SPLFRAME
 70
     0
  9
$SPLINETYPE
 70
     6
  9
$SPLINESEGS
 70
     8
  9
$HANDSEED
  5
E1D
  9
$SURFTAB1
 70
     6
  9
$SURFTAB2
 70
     6
  9
$SURFTYPE
 70
     6
  9
$SURFU
 70
     6
  9
$SURFV
 70
     6
  9
$UCSBASE
  2

  9
$UCSNAME
  2

  9
$UCSORG
 10
0.0
 20
0.0
 30
0.0
  9
$UCSXDIR
 10
1.0
 20
0.0
 30
0.0
  9
$UCSYDIR
 10
0.0
 20
1.0
 30
0.0
  9
$UCSORTHOREF
  2

  9
$UCSORTHOVIEW
 70
     0
  9
$UCSORGTOP
 10
0.0
 20
0.0
 30
0.0
  9
$UCSORGBOTTOM
 10
0.0
 20
0.0
 30
0.0
  9
$UCSORGLEFT
 10
0.0
 20
0.0
 30
0.0
  9
$UCSORGRIGHT
 10
0.0
 20
0.0
 30
0.0
  9
$UCSORGFRONT
 10
0.0
 20
0.0
 30
0.0
  9
$UCSORGBACK
 10
0.0
 20
0.0
 30
0.0
  9
$PUCSBASE
  2

  9
$PUCSNAME
  2

  9
$PUCSORG
 10
0.0
 20
0.0
 30
0.0
  9
$PUCSXDIR
 10
1.0
 20
0.0
 30
0.0
  9
$PUCSYDIR
 10
0.0
 20
1.0
 30
0.0
  9
$PUCSORTHOREF
  2

  9
$PUCSORTHOVIEW
 70
     0
  9
$PUCSORGTOP
 10
0.0
 20
0.0
 30
0.0
  9
$PUCSORGBOTTOM
 10
0.0
 20
0.0
 30
0.0
  9
$PUCSORGLEFT
 10
0.0
 20
0.0
 30
0.0
  9
$PUCSORGRIGHT
 10
0.0
 20
0.0
 30
0.0
  9
$PUCSORGFRONT
 10
0.0
 20
0.0
 30
0.0
  9
$PUCSORGBACK
 10
0.0
 20
0.0
 30
0.0
  9
$USERI1
 70
     0
  9
$USERI2
 70
     0
  9
$USERI3
 70
     0
  9
$USERI4
 70
     0
  9
$USERI5
 70
     0
  9
$USERR1
 40
0.0
  9
$USERR2
 40
0.0
  9
$USERR3
 40
0.0
  9
$USERR4
 40
0.0
  9
$USERR5
 40
0.0
  9
$WORLDVIEW
 70
     1
  9
$SHADEDGE
 70
     3
  9
$SHADEDIF
 70
    70
  9
$TILEMODE
 70
     1
  9
$MAXACTVP
 70
    16
  9
$PINSBASE
 10
0.0
 20
0.0
 30
0.0
  9
$PLIMCHECK
 70
     0
  9
$PEXTMIN
 10
1.000000000000000E+20
 20
1.000000000000000E+20
 30
1.000000000000000E+20
  9
$PEXTMAX
 10
-1.000000000000000E+20
 20
-1.000000000000000E+20
 30
-1.000000000000000E+20
  9
$PLIMMIN
 10
0.0
 20
0.0
  9
$PLIMMAX
 10
12.0
 20
9.0
  9
$UNITMODE
 70
     0
  9
$VISRETAIN
 70
     0
  9
$PLINEGEN
 70
     0
  9
$PSLTSCALE
 70
     0
  9
$TREEDEPTH
 70
  3020
  9
$CMLSTYLE
  2
Standard
  9
$CMLJUST
 70
     0
  9
$CMLSCALE
 40
1.0
  9
$PROXYGRAPHICS
 70
     1
  9
$MEASUREMENT
 70
     0
  9
$CELWEIGHT
370
    -1
  9
$ENDCAPS
280
     0
  9
$JOINSTYLE
280
     0
  9
$LWDISPLAY
290
     0
  9
$INSUNITS
 70
     0
  9
$HYPERLINKBASE
  1

  9
$STYLESHEET
  1

  9
$XEDIT
290
     1
  9
$CEPSNTYPE
380
     0
  9
$PSTYLEMODE
290
     1
  9
$FINGERPRINTGUID
  2
{D68B0D02-A558-11D7-B632-000102183313}
  9
$VERSIONGUID
  2
{91448BDA-6101-4AA4-80A6-7A8EB8C8A1F2}
  9
$EXTNAMES
290
     1
  9
$PSVPSCALE
 40
0.0
  9
$OLESTARTUP
290
     0
  9
$SORTENTS
280
   127
  9
$INDEXCTL
280
     0
  9
$HIDETEXT
280
     0
  9
$XCLIPFRAME
290
     0
  9
$HALOGAP
280
     0
  9
$OBSCOLOR
 70
   257
  9
$OBSLTYPE
280
     0
  9
$INTERSECTIONDISPLAY
280
     0
  9
$INTERSECTIONCOLOR
 70
   257
  9
$DIMASSOC
280
     1
  9
$PROJECTNAME
  1

  0
ENDSEC
  0
SECTION
  2
CLASSES
  0
CLASS
  1
ACDBDICTIONARYWDFLT
  2
AcDbDictionaryWithDefault
  3
ObjectDBX Classes
 90
        0
 91
        1
280
     0
281
     0
  0
CLASS
  1
DICTIONARYVAR
  2
AcDbDictionaryVar
  3
ObjectDBX Classes
 90
        0
 91
        2
280
     0
281
     0
  0
ENDSEC
  0
SECTION
  2
TABLES
  0
TABLE
  2
VPORT
  5
8
330
0
100
AcDbSymbolTable
 70
     2
  0
VPORT
  5
E1C
330
8
100
AcDbSymbolTableRecord
100
AcDbViewportTableRecord
  2
*Active
 70
     0
 10
0.0
 20
0.0
 11
1.0
 21
1.0
 12
105.0
 22
148.5
 13
0.0
 23
0.0
 14
1.0
 24
1.0
 15
10.0
 25
10.0
 16
0.0
 26
0.0
 36
1.0
 17
0.0
 27
0.0
 37
0.0
 40
297.0297648434644
 41
1.339622641509433
 42
50.0
 43
0.0
 44
0.0
 50
0.0
 51
0.0
 71
     0
 72
  1500
 73
     1
 74
     0
 75
     0
 76
     0
 77
     0
 78
     0
281
     0
 65
     1
110
0.0
120
0.0
130
0.0
111
1.0
121
0.0
131
0.0
112
0.0
122
1.0
132
0.0
 79
     0
146
0.0
  0
ENDTAB
  0
TABLE
  2
LTYPE
  5
5
330
0
100
AcDbSymbolTable
 70
     2
  0
LTYPE
  5
13
330
5
100
AcDbSymbolTableRecord
100
AcDbLinetypeTableRecord
  2
ByBlock
 70
     0
  3

 72
    65
 73
     0
 40
0.0
  0
LTYPE
  5
14
330
5
100
AcDbSymbolTableRecord
100
AcDbLinetypeTableRecord
  2
ByLayer
 70
     0
  3

 72
    65
 73
     0
 40
0.0
  0
LTYPE
  5
15
330
5
100
AcDbSymbolTableRecord
100
AcDbLinetypeTableRecord
  2
Continuous
 70
     0
  3
Solid line
 72
    65
 73
     0
 40
0.0
  0
LTYPE
  5
25
330
5
100
AcDbSymbolTableRecord
100
AcDbLinetypeTableRecord
  2
STRICHPUNKT
 70
     0
  3
__ . __ . __ . __ . __ . __ . __ . __ . __ . __
 72
    65
 73
     4
 40
1.0
 49
0.5
 74
     0
 49
-0.25
 74
     0
 49
0.0
 74
     0
 49
-0.25
 74
     0
  0
ENDTAB
  0
TABLE
  2
LAYER
  5
2
330
0
100
AcDbSymbolTable
 70
     9
  0
LAYER
  5
10
330
2
100
AcDbSymbolTableRecord
100
AcDbLayerTableRecord
  2
0
 70
     0
 62
     7
  6
Continuous
370
    -3
390
F
  0
LAYER
  5
2A
330
2
100
AcDbSymbolTableRecord
100
AcDbLayerTableRecord
  2
VOLL
 70
     0
 62
     1
  6
Continuous
370
    -3
390
F
  0
LAYER
  5
2B
330
2
100
AcDbSymbolTableRecord
100
AcDbLayerTableRecord
  2
HILF
 70
     0
 62
     2
  6
Continuous
370
    -3
390
F
  0
LAYER
  5
2C
330
2
100
AcDbSymbolTableRecord
100
AcDbLayerTableRecord
  2
MITTEL
 70
     0
 62
     2
  6
STRICHPUNKT
370
    -3
390
F
  0
LAYER
  5
2F
330
2
100
AcDbSymbolTableRecord
100
AcDbLayerTableRecord
  2
BEM
 70
     0
 62
     7
  6
Continuous
370
    -3
390
F
  0
LAYER
  5
30
330
2
100
AcDbSymbolTableRecord
100
AcDbLayerTableRecord
  2
STEMPEL
 70
     0
 62
     3
  6
Continuous
370
    -3
390
F
  0
LAYER
  5
31
330
2
100
AcDbSymbolTableRecord
100
AcDbLayerTableRecord
  2
TEXT
 70
     0
 62
     7
  6
Continuous
370
    -3
390
F
  0
LAYER
  5
1E5
330
2
100
AcDbSymbolTableRecord
100
AcDbLayerTableRecord
  2
Defpoints
 70
     0
 62
     7
  6
Continuous
290
     0
370
    -3
390
F
  0
LAYER
  5
242
330
2
100
AcDbSymbolTableRecord
100
AcDbLayerTableRecord
  2
SCHRAFF
 70
     0
 62
     7
  6
Continuous
370
    -3
390
F
  0
ENDTAB
  0
TABLE
  2
STYLE
  5
3
330
0
100
AcDbSymbolTable
 70
     2
  0
STYLE
  5
11
330
3
100
AcDbSymbolTableRecord
100
AcDbTextStyleTableRecord
  2
STANDARD
 70
     0
 40
0.0
 41
0.8
 50
0.0
 71
     0
 42
3.5
  3
simplex.shx
  4

  0
STYLE
  5
24
330
3
100
AcDbSymbolTableRecord
100
AcDbTextStyleTableRecord
  2
GREEKS
 70
     0
 40
0.0
 41
0.8
 50
0.0
 71
     0
 42
2.5
  3
SIMPLEX.shx
  4

  0
ENDTAB
  0
TABLE
  2
VIEW
  5
6
330
0
100
AcDbSymbolTable
 70
     0
  0
ENDTAB
  0
TABLE
  2
UCS
  5
7
330
0
100
AcDbSymbolTable
 70
     0
  0
ENDTAB
  0
TABLE
  2
APPID
  5
9
330
0
100
AcDbSymbolTable
 70
     1
  0
APPID
  5
12
330
9
100
AcDbSymbolTableRecord
100
AcDbRegAppTableRecord
  2
ACAD
 70
     0
  0
ENDTAB
  0
TABLE
  2
DIMSTYLE
  5
A
330
0
100
AcDbSymbolTable
 70
     1
100
AcDbDimStyleTable
 71
     1
340
9D
  0
DIMSTYLE
105
9D
102
{ACAD_REACTORS
330
B3D
330
B6D
330
B7B
330
B9E
102
}
330
A
100
AcDbSymbolTableRecord
100
AcDbDimStyleTableRecord
  2
Standard
 70
     0
340
11
  0
ENDTAB
  0
TABLE
  2
BLOCK_RECORD
  5
1
330
0
100
AcDbSymbolTable
 70
     5
  0
BLOCK_RECORD
  5
1E
102
{ACAD_XDICTIONARY
360
A0
102
}
330
1
100
AcDbSymbolTableRecord
100
AcDbBlockTableRecord
  2
*Model_Space
340
21
  0
BLOCK_RECORD
  5
1A
102
{ACAD_XDICTIONARY
360
A2
102
}
330
1
100
AcDbSymbolTableRecord
100
AcDbBlockTableRecord
  2
*Paper_Space
340
1D
  0
BLOCK_RECORD
  5
22
330
1
100
AcDbSymbolTableRecord
100
AcDbBlockTableRecord
  2
LOGO
340
0
102
{BLKREFS
331
9B
102
}
  0
BLOCK_RECORD
  5
B3E
330
1
100
AcDbSymbolTableRecord
100
AcDbBlockTableRecord
  2
*D1
340
0
  0
BLOCK_RECORD
  5
B6E
330
1
100
AcDbSymbolTableRecord
100
AcDbBlockTableRecord
  2
*D2
340
0
  0
BLOCK_RECORD
  5
B7C
330
1
100
AcDbSymbolTableRecord
100
AcDbBlockTableRecord
  2
*D3
340
0
  0
BLOCK_RECORD
  5
B9F
330
1
100
AcDbSymbolTableRecord
100
AcDbBlockTableRecord
  2
*D4
340
0
  0
ENDTAB
  0
ENDSEC
  0
SECTION
  2
BLOCKS
  0
BLOCK
  5
35
330
1E
100
AcDbEntity
  8
0
100
AcDbBlockBegin
  2
*Model_Space
 70
     0
 10
0.0
 20
0.0
 30
0.0
  3
*Model_Space
  1

  0
ENDBLK
  5
36
330
1E
100
AcDbEntity
  8
0
100
AcDbBlockEnd
  0
BLOCK
  5
33
330
1A
100
AcDbEntity
 67
     1
  8
0
100
AcDbBlockBegin
  2
*Paper_Space
 70
     0
 10
0.0
 20
0.0
 30
0.0
  3
*Paper_Space
  1

  0
ENDBLK
  5
34
330
1A
100
AcDbEntity
 67
     1
  8
0
100
AcDbBlockEnd
  0
BLOCK
  5
37
330
22
100
AcDbEntity
  8
0
100
AcDbBlockBegin
  2
LOGO
 70
     0
 10
0.0
 20
0.0
 30
0.0
  3
LOGO
  1

  0
ARC
  5
38
330
22
100
AcDbEntity
  8
0
100
AcDbCircle
 10
11.59973089678112
 20
-9.271599258481501
 30
0.0
 40
4.5
100
AcDbArc
 50
270.0
 51
231.0575587310159
  0
LINE
  5
39
330
22
100
AcDbEntity
  8
0
100
AcDbLine
 10
3.599730896781125
 20
-4.771599258481529
 30
0.0
 11
3.599730896781153
 21
-11.77159925848133
 31
0.0
  0
LINE
  5
3A
330
22
100
AcDbEntity
  8
0
100
AcDbLine
 10
2.599730896781125
 20
-4.771599258481529
 30
0.0
 11
2.599730896781153
 21
-11.77159925848133
 31
0.0
  0
CIRCLE
  5
3B
330
22
100
AcDbEntity
  8
0
100
AcDbCircle
 10
11.59973089678112
 20
-9.271599258481501
 30
0.0
 40
3.5
  0
ARC
  5
3C
330
22
100
AcDbEntity
  8
0
100
AcDbCircle
 10
31.59973089678115
 20
-9.271599258481472
 30
0.0
 40
4.5
100
AcDbArc
 50
270.0
 51
231.0575587310182
  0
LINE
  5
3D
330
22
100
AcDbEntity
  8
0
100
AcDbLine
 10
17.59973089678112
 20
-4.771599258481472
 30
0.0
 11
17.59973089678115
 21
-13.77159925848147
 31
0.0
  0
ARC
  5
3E
330
22
100
AcDbEntity
  8
0
100
AcDbCircle
 10
22.59973089678116
 20
-7.271599258481472
 30
0.0
 40
2.5
100
AcDbArc
 50
293.1161887722295
 51
90.0
  0
CIRCLE
  5
3F
330
22
100
AcDbEntity
  8
0
100
AcDbCircle
 10
31.59973089678115
 20
-9.271599258481472
 30
0.0
 40
3.5
  0
ARC
  5
40
330
22
100
AcDbEntity
  8
0
100
AcDbCircle
 10
4.599730896781153
 20
-11.77159925848133
 30
0.0
 40
1.0
100
AcDbArc
 50
180.0
 51
270.0
  0
ARC
  5
41
330
22
100
AcDbEntity
  8
0
100
AcDbCircle
 10
4.599730896781153
 20
-11.77159925848133
 30
0.0
 40
2.0
100
AcDbArc
 50
179.9999999999992
 51
270.0
  0
LINE
  5
42
330
22
100
AcDbEntity
  8
0
100
AcDbLine
 10
11.59973089678115
 20
-13.77159925848144
 30
0.0
 11
4.599730896781153
 21
-13.77159925848147
 31
0.0
  0
LINE
  5
43
330
22
100
AcDbEntity
  8
0
100
AcDbLine
 10
8.771303772034769
 20
-12.77159925848136
 30
0.0
 11
4.599730896781153
 21
-12.77159925848133
 31
0.0
  0
LINE
  5
44
330
22
100
AcDbEntity
  8
0
100
AcDbLine
 10
31.59973089678115
 20
-13.77159925848147
 30
0.0
 11
23.6715276665056
 21
-13.77159925848144
 31
0.0
  0
LINE
  5
45
330
22
100
AcDbEntity
  8
0
100
AcDbLine
 10
23.56565672307022
 20
-9.51278021337896
 30
0.0
 11
24.4388546544846
 21
-12.77159925848144
 31
0.0
  0
LINE
  5
46
330
22
100
AcDbEntity
  8
0
100
AcDbLine
 10
22.59973089678116
 20
-9.771599258481472
 30
0.0
 11
18.59973089678112
 21
-9.771599258481472
 31
0.0
  0
LINE
  5
47
330
22
100
AcDbEntity
  8
0
100
AcDbLine
 10
18.59973089678115
 20
-13.77159925848144
 30
0.0
 11
17.59973089678115
 21
-13.77159925848144
 31
0.0
  0
LINE
  5
48
330
22
100
AcDbEntity
  8
0
100
AcDbLine
 10
18.59973089678115
 20
-9.771599258481472
 30
0.0
 11
18.59973089678115
 21
-13.77159925848144
 31
0.0
  0
LINE
  5
49
330
22
100
AcDbEntity
  8
0
100
AcDbLine
 10
22.59973089678116
 20
-9.771599258481472
 30
0.0
 11
23.67152766650562
 21
-13.77159925848147
 31
0.0
  0
ARC
  5
4A
330
22
100
AcDbEntity
  8
0
100
AcDbCircle
 10
22.59973089678116
 20
-7.271599258481472
 30
0.0
 40
2.5
100
AcDbArc
 50
270.0
 51
270.0000000000007
  0
LINE
  5
4B
330
22
100
AcDbEntity
  8
0
100
AcDbLine
 10
28.77130377203494
 20
-12.77159925848147
 30
0.0
 11
24.43885465448463
 21
-12.77159925848144
 31
0.0
  0
LINE
  5
4C
330
22
100
AcDbEntity
  8
0
100
AcDbLine
 10
3.599730896781125
 20
-4.771599258481472
 30
0.0
 11
2.599730896781125
 21
-4.771599258481472
 31
0.0
  0
LINE
  5
4D
330
22
100
AcDbEntity
  8
0
100
AcDbLine
 10
22.59973089678116
 20
-8.771599258481472
 30
0.0
 11
18.59973089678115
 21
-8.771599258481472
 31
0.0
  0
LINE
  5
4E
330
22
100
AcDbEntity
  8
0
100
AcDbLine
 10
22.59973089678116
 20
-5.771599258481472
 30
0.0
 11
18.59973089678115
 21
-5.771599258481472
 31
0.0
  0
LINE
  5
4F
330
22
100
AcDbEntity
  8
0
100
AcDbLine
 10
22.59973089678116
 20
-4.771599258481472
 30
0.0
 11
17.59973089678115
 21
-4.771599258481472
 31
0.0
  0
LINE
  5
50
330
22
100
AcDbEntity
  8
0
100
AcDbLine
 10
18.59973089678115
 20
-5.771599258481472
 30
0.0
 11
18.59973089678115
 21
-8.771599258481472
 31
0.0
  0
ARC
  5
51
330
22
100
AcDbEntity
  8
0
100
AcDbCircle
 10
22.59973089678116
 20
-7.271599258481472
 30
0.0
 40
1.5
100
AcDbArc
 50
270.0
 51
90.0
  0
ENDBLK
  5
52
330
22
100
AcDbEntity
  8
0
100
AcDbBlockEnd
  0
BLOCK
  5
B48
330
B3E
100
AcDbEntity
  8
0
100
AcDbBlockBegin
  2
*D1
 70
     1
 10
0.0
 20
0.0
 30
0.0
  3
*D1
  1

  0
LINE
  5
DC3
330
B3E
100
AcDbEntity
  8
BEM
 62
     0
370
    -2
100
AcDbLine
 10
90.43744331762963
 20
101.8125012274628
 30
0.0
 11
70.01984491653023
 21
101.8125012274628
 31
0.0
  0
LINE
  5
DC4
330
B3E
100
AcDbEntity
  8
BEM
 62
     0
370
    -2
100
AcDbLine
 10
89.86649784899244
 20
176.8125012274627
 30
0.0
 11
70.01984491653025
 21
176.8125012274627
 31
0.0
  0
LINE
  5
DC5
330
B3E
100
AcDbEntity
  8
BEM
 62
     0
370
    -2
100
AcDbLine
 10
71.01984491653023
 20
105.3125012274628
 30
0.0
 11
71.01984491653024
 21
173.3125012274627
 31
0.0
  0
SOLID
  5
DC6
330
B3E
100
AcDbEntity
  8
BEM
 62
     0
100
AcDbTrace
 10
70.4365115831969
 20
105.3125012274628
 30
0.0
 11
71.60317824986356
 21
105.3125012274628
 31
0.0
 12
71.01984491653023
 22
101.8125012274628
 32
0.0
 13
71.01984491653023
 23
101.8125012274628
 33
0.0
  0
SOLID
  5
DC7
330
B3E
100
AcDbEntity
  8
BEM
 62
     0
100
AcDbTrace
 10
70.43651158319692
 20
173.3125012274627
 30
0.0
 11
71.60317824986357
 21
173.3125012274627
 31
0.0
 12
71.01984491653024
 22
176.8125012274627
 32
0.0
 13
71.01984491653024
 23
176.8125012274627
 33
0.0
  0
MTEXT
  5
DC8
330
B3E
100
AcDbEntity
  8
BEM
 62
     1
100
AcDbMText
 10
67.76984491653021
 20
139.3125012274628
 30
0.0
 40
3.5
 41
0.0
 71
     5
 72
     1
  1
\A1;75
 11
0.0000000000000001
 21
1.0
 31
0.0
 73
     1
 44
1.0
  0
POINT
  5
DC9
330
B3E
100
AcDbEntity
  8
Defpoints
 62
     0
100
AcDbPoint
 10
91.43744331762963
 20
101.8125012274628
 30
0.0
  0
POINT
  5
DCA
330
B3E
100
AcDbEntity
  8
Defpoints
 62
     0
100
AcDbPoint
 10
90.86649784899243
 20
176.8125012274627
 30
0.0
  0
POINT
  5
DCB
330
B3E
100
AcDbEntity
  8
Defpoints
 62
     0
100
AcDbPoint
 10
71.01984491653024
 20
176.8125012274627
 30
0.0
  0
ENDBLK
  5
B49
330
B3E
100
AcDbEntity
  8
0
100
AcDbBlockEnd
  0
BLOCK
  5
B78
330
B6E
100
AcDbEntity
  8
0
100
AcDbBlockBegin
  2
*D2
 70
     1
 10
0.0
 20
0.0
 30
0.0
  3
*D2
  1

  0
LINE
  5
E0F
330
B6E
100
AcDbEntity
  8
BEM
 62
     0
370
    -2
100
AcDbLine
 10
71.73460267172472
 20
266.8125012274628
 30
0.0
 11
61.5307200163409
 21
266.8125012274628
 31
0.0
  0
LINE
  5
E10
330
B6E
100
AcDbEntity
  8
BEM
 62
     0
370
    -2
100
AcDbLine
 10
90.43744331762963
 20
101.8125012274628
 30
0.0
 11
61.53072001634086
 21
101.8125012274628
 31
0.0
  0
LINE
  5
E11
330
B6E
100
AcDbEntity
  8
BEM
 62
     0
370
    -2
100
AcDbLine
 10
62.5307200163409
 20
263.3125012274628
 30
0.0
 11
62.53072001634087
 21
105.3125012274628
 31
0.0
  0
SOLID
  5
E12
330
B6E
100
AcDbEntity
  8
BEM
 62
     0
100
AcDbTrace
 10
61.94738668300757
 20
263.3125012274628
 30
0.0
 11
63.11405334967424
 21
263.3125012274628
 31
0.0
 12
62.5307200163409
 22
266.8125012274628
 32
0.0
 13
62.5307200163409
 23
266.8125012274628
 33
0.0
  0
SOLID
  5
E13
330
B6E
100
AcDbEntity
  8
BEM
 62
     0
100
AcDbTrace
 10
61.94738668300753
 20
105.3125012274628
 30
0.0
 11
63.1140533496742
 21
105.3125012274628
 31
0.0
 12
62.53072001634087
 22
101.8125012274628
 32
0.0
 13
62.53072001634087
 23
101.8125012274628
 33
0.0
  0
MTEXT
  5
E14
330
B6E
100
AcDbEntity
  8
BEM
 62
     1
100
AcDbMText
 10
59.28072001634085
 20
184.3125012274628
 30
0.0
 40
3.5
 41
0.0
 71
     5
 72
     1
  1
\A1;165
 11
0.0000000000000001
 21
1.0
 31
0.0
 73
     1
 44
1.0
  0
POINT
  5
E15
330
B6E
100
AcDbEntity
  8
Defpoints
 62
     0
100
AcDbPoint
 10
72.73460267172473
 20
266.8125012274628
 30
0.0
  0
POINT
  5
E16
330
B6E
100
AcDbEntity
  8
Defpoints
 62
     0
100
AcDbPoint
 10
91.43744331762963
 20
101.8125012274628
 30
0.0
  0
POINT
  5
E17
330
B6E
100
AcDbEntity
  8
Defpoints
 62
     0
100
AcDbPoint
 10
62.53072001634087
 20
101.8125012274628
 30
0.0
  0
ENDBLK
  5
B79
330
B6E
100
AcDbEntity
  8
0
100
AcDbBlockEnd
  0
BLOCK
  5
B86
330
B7C
100
AcDbEntity
  8
0
100
AcDbBlockBegin
  2
*D3
 70
     1
 10
0.0
 20
0.0
 30
0.0
  3
*D3
  1

  0
LINE
  5
C79
330
B7C
100
AcDbEntity
  8
BEM
 62
     0
370
    -2
100
AcDbLine
 10
91.00000000000003
 20
105.8125012274626
 30
0.0
 11
91.00000000000003
 21
88.10431999422258
 31
0.0
  0
LINE
  5
C7A
330
B7C
100
AcDbEntity
  8
BEM
 62
     0
370
    -2
100
AcDbLine
 10
133.9999999999999
 20
105.8125012274628
 30
0.0
 11
133.9999999999999
 21
88.10431999422258
 31
0.0
  0
LINE
  5
C7B
330
B7C
100
AcDbEntity
  8
BEM
 62
     0
370
    -2
100
AcDbLine
 10
94.50000000000002
 20
89.10431999422257
 30
0.0
 11
130.4999999999999
 21
89.10431999422257
 31
0.0
  0
SOLID
  5
C7C
330
B7C
100
AcDbEntity
  8
BEM
 62
     0
100
AcDbTrace
 10
94.50000000000002
 20
89.68765332755591
 30
0.0
 11
94.50000000000002
 21
88.52098666088926
 31
0.0
 12
91.00000000000003
 22
89.10431999422257
 32
0.0
 13
91.00000000000003
 23
89.10431999422257
 33
0.0
  0
SOLID
  5
C7D
330
B7C
100
AcDbEntity
  8
BEM
 62
     0
100
AcDbTrace
 10
130.4999999999999
 20
89.68765332755591
 30
0.0
 11
130.4999999999999
 21
88.52098666088926
 31
0.0
 12
133.9999999999999
 22
89.10431999422257
 32
0.0
 13
133.9999999999999
 23
89.10431999422257
 33
0.0
  0
MTEXT
  5
C7E
330
B7C
100
AcDbEntity
  8
BEM
 62
     1
100
AcDbMText
 10
112.5
 20
92.35431999422258
 30
0.0
 40
3.5
 41
0.0
 71
     5
 72
     1
  1
\A1;%%c43
 73
     1
 44
1.0
  0
POINT
  5
C7F
330
B7C
100
AcDbEntity
  8
Defpoints
 62
     0
100
AcDbPoint
 10
91.00000000000003
 20
106.8125012274626
 30
0.0
  0
POINT
  5
C80
330
B7C
100
AcDbEntity
  8
Defpoints
 62
     0
100
AcDbPoint
 10
133.9999999999999
 20
106.8125012274628
 30
0.0
  0
POINT
  5
C81
330
B7C
100
AcDbEntity
  8
Defpoints
 62
     0
100
AcDbPoint
 10
133.9999999999999
 20
89.10431999422257
 30
0.0
  0
ENDBLK
  5
B87
330
B7C
100
AcDbEntity
  8
0
100
AcDbBlockEnd
  0
BLOCK
  5
BA9
330
B9F
100
AcDbEntity
  8
0
100
AcDbBlockBegin
  2
*D4
 70
     1
 10
0.0
 20
0.0
 30
0.0
  3
*D4
  1

  0
LINE
  5
D41
330
B9F
100
AcDbEntity
  8
BEM
 62
     0
370
    -2
100
AcDbLine
 10
75.99999999999991
 20
205.5059015628942
 30
0.0
 11
75.99999999999991
 21
191.5730099351911
 31
0.0
  0
LINE
  5
D42
330
B9F
100
AcDbEntity
  8
BEM
 62
     0
370
    -2
100
AcDbLine
 10
149.0
 20
204.9563822671366
 30
0.0
 11
149.0
 21
191.5730099351911
 31
0.0
  0
LINE
  5
D43
330
B9F
100
AcDbEntity
  8
BEM
 62
     0
370
    -2
100
AcDbLine
 10
79.49999999999992
 20
192.5730099351912
 30
0.0
 11
145.5
 21
192.5730099351912
 31
0.0
  0
SOLID
  5
D44
330
B9F
100
AcDbEntity
  8
BEM
 62
     0
100
AcDbTrace
 10
79.49999999999992
 20
193.1563432685245
 30
0.0
 11
79.49999999999992
 21
191.9896766018578
 31
0.0
 12
75.99999999999991
 22
192.5730099351912
 32
0.0
 13
75.99999999999991
 23
192.5730099351912
 33
0.0
  0
SOLID
  5
D45
330
B9F
100
AcDbEntity
  8
BEM
 62
     0
100
AcDbTrace
 10
145.5
 20
193.1563432685245
 30
0.0
 11
145.5
 21
191.9896766018578
 31
0.0
 12
149.0
 22
192.5730099351912
 32
0.0
 13
149.0
 23
192.5730099351912
 33
0.0
  0
MTEXT
  5
D46
330
B9F
100
AcDbEntity
  8
BEM
 62
     1
100
AcDbMText
 10
112.4999999999999
 20
195.8230099351912
 30
0.0
 40
3.5
 41
0.0
 71
     5
 72
     1
  1
\A1;%%c73
 73
     1
 44
1.0
  0
POINT
  5
D47
330
B9F
100
AcDbEntity
  8
Defpoints
 62
     0
100
AcDbPoint
 10
75.99999999999991
 20
206.5059015628942
 30
0.0
  0
POINT
  5
D48
330
B9F
100
AcDbEntity
  8
Defpoints
 62
     0
100
AcDbPoint
 10
149.0
 20
205.9563822671365
 30
0.0
  0
POINT
  5
D49
330
B9F
100
AcDbEntity
  8
Defpoints
 62
     0
100
AcDbPoint
 10
149.0
 20
192.5730099351912
 30
0.0
  0
ENDBLK
  5
BAA
330
B9F
100
AcDbEntity
  8
0
100
AcDbBlockEnd
  0
ENDSEC
  0
SECTION
  2
ENTITIES
  0
LINE
  5
57
330
1E
100
AcDbEntity
  8
STEMPEL
100
AcDbLine
 10
205.0
 20
55.00000000000003
 30
0.0
 11
19.99999999999998
 21
55.0
 31
0.0
  0
LINE
  5
58
330
1E
100
AcDbEntity
  8
STEMPEL
100
AcDbLine
 10
68.00000000000006
 20
54.99999999999997
 30
0.0
 11
68.0
 21
4.999999999999985
 31
0.0
  0
LINE
  5
59
330
1E
100
AcDbEntity
  8
STEMPEL
100
AcDbLine
 10
110.0
 20
55.00000000000003
 30
0.0
 11
110.0
 21
4.999999999999985
 31
0.0
  0
LINE
  5
5A
330
1E
100
AcDbEntity
  8
STEMPEL
100
AcDbLine
 10
166.0
 20
54.99999999999989
 30
0.0
 11
166.0
 21
20.0
 31
0.0
  0
LINE
  5
5B
330
1E
100
AcDbEntity
  8
STEMPEL
100
AcDbLine
 10
67.99999999999994
 20
14.99999999999998
 30
0.0
 11
19.99999999999998
 21
14.99999999999998
 31
0.0
  0
LINE
  5
5C
330
1E
100
AcDbEntity
  8
STEMPEL
100
AcDbLine
 10
205.0
 20
20.0
 30
0.0
 11
68.00000000000006
 21
19.99999999999998
 31
0.0
  0
LINE
  5
5D
330
1E
100
AcDbEntity
  8
STEMPEL
100
AcDbLine
 10
205.0
 20
40.0
 30
0.0
 11
68.00000000000006
 21
39.99999999999997
 31
0.0
  0
LINE
  5
5E
330
1E
100
AcDbEntity
  8
VOLL
100
AcDbLine
 10
27.00000000000005
 20
55.00000000000003
 30
0.0
 11
26.99999999999999
 21
4.999999999999985
 31
0.0
  0
LINE
  5
5F
330
1E
100
AcDbEntity
  8
VOLL
100
AcDbLine
 10
47.00000000000005
 20
54.99999999999997
 30
0.0
 11
47.0
 21
4.999999999999985
 31
0.0
  0
LINE
  5
60
330
1E
100
AcDbEntity
  8
VOLL
100
AcDbLine
 10
57.00000000000006
 20
54.99999999999997
 30
0.0
 11
57.0
 21
4.999999999999985
 31
0.0
  0
LINE
  5
61
330
1E
100
AcDbEntity
  8
VOLL
100
AcDbLine
 10
77.00000000000006
 20
39.99999999999997
 30
0.0
 11
77.00000000000006
 21
19.99999999999998
 31
0.0
  0
LINE
  5
62
330
1E
100
AcDbEntity
  8
VOLL
100
AcDbLine
 10
90.00000000000005
 20
54.99999999999992
 30
0.0
 11
90.0
 21
19.99999999999998
 31
0.0
  0
LINE
  5
63
330
1E
100
AcDbEntity
  8
HILF
100
AcDbLine
 10
20.00000000000004
 20
50.00000000000003
 30
0.0
 11
68.00000000000006
 21
50.00000000000003
 31
0.0
  0
LINE
  5
64
330
1E
100
AcDbEntity
  8
HILF
100
AcDbLine
 10
20.00000000000004
 20
45.00000000000002
 30
0.0
 11
68.00000000000006
 21
45.00000000000002
 31
0.0
  0
LINE
  5
65
330
1E
100
AcDbEntity
  8
HILF
100
AcDbLine
 10
20.00000000000004
 20
39.99999999999997
 30
0.0
 11
68.00000000000006
 21
39.99999999999997
 31
0.0
  0
LINE
  5
66
330
1E
100
AcDbEntity
  8
HILF
100
AcDbLine
 10
20.00000000000004
 20
34.99999999999997
 30
0.0
 11
68.00000000000006
 21
34.99999999999997
 31
0.0
  0
LINE
  5
67
330
1E
100
AcDbEntity
  8
HILF
100
AcDbLine
 10
20.00000000000004
 20
29.99999999999999
 30
0.0
 11
68.00000000000006
 21
29.99999999999999
 31
0.0
  0
LINE
  5
68
330
1E
100
AcDbEntity
  8
HILF
100
AcDbLine
 10
20.00000000000004
 20
24.99999999999999
 30
0.0
 11
68.00000000000006
 21
24.99999999999999
 31
0.0
  0
LINE
  5
69
330
1E
100
AcDbEntity
  8
HILF
100
AcDbLine
 10
20.00000000000004
 20
19.99999999999998
 30
0.0
 11
68.00000000000006
 21
19.99999999999998
 31
0.0
  0
LINE
  5
6A
330
1E
100
AcDbEntity
  8
HILF
100
AcDbLine
 10
68.00000000000006
 20
34.99999999999997
 30
0.0
 11
110.0
 21
34.99999999999997
 31
0.0
  0
LINE
  5
6B
330
1E
100
AcDbEntity
  8
HILF
100
AcDbLine
 10
68.00000000000006
 20
29.99999999999999
 30
0.0
 11
110.0
 21
29.99999999999999
 31
0.0
  0
LINE
  5
6C
330
1E
100
AcDbEntity
  8
HILF
100
AcDbLine
 10
68.00000000000006
 20
24.99999999999999
 30
0.0
 11
110.0
 21
24.99999999999999
 31
0.0
  0
LINE
  5
6D
330
1E
100
AcDbEntity
  8
HILF
100
AcDbLine
 10
112.3868400548474
 20
42.01879123782069
 30
0.0
 11
162.4176958278155
 21
42.01879123782069
 31
0.0
  0
LINE
  5
6E
330
1E
100
AcDbEntity
  8
HILF
100
AcDbLine
 10
112.3868400548474
 20
34.99999999999997
 30
0.0
 11
162.4176958278155
 21
34.99999999999997
 31
0.0
  0
LINE
  5
6F
330
1E
100
AcDbEntity
  8
HILF
100
AcDbLine
 10
112.3868400548474
 20
29.99999999999999
 30
0.0
 11
162.4176958278155
 21
29.99999999999999
 31
0.0
  0
LINE
  5
70
330
1E
100
AcDbEntity
  8
HILF
100
AcDbLine
 10
112.3868400548474
 20
24.99999999999999
 30
0.0
 11
162.4176958278155
 21
24.99999999999999
 31
0.0
  0
LINE
  5
71
330
1E
100
AcDbEntity
  8
VOLL
100
AcDbLine
 10
166.0
 20
30.0
 30
0.0
 11
205.0
 21
30.0
 31
0.0
  0
LINE
  5
72
330
1E
100
AcDbEntity
  8
HILF
100
AcDbLine
 10
168.3619308148496
 20
41.88991818477913
 30
0.0
 11
202.4294419663364
 21
41.88991818477913
 31
0.0
  0
LINE
  5
73
330
1E
100
AcDbEntity
  8
HILF
100
AcDbLine
 10
111.7454849644942
 20
7.446991290141568
 30
0.0
 11
202.4294419663364
 21
7.446991290141568
 31
0.0
  0
TEXT
  5
74
330
1E
100
AcDbEntity
  8
TEXT
100
AcDbText
 10
31.9308298981591
 20
9.336909474920659
 30
0.0
 40
2.0
  1
Änderung
 41
0.8
  7
GREEKS
 72
     1
 11
37.30225846958767
 21
9.336909474920659
 31
0.0
100
AcDbText
  0
TEXT
  5
75
330
1E
100
AcDbEntity
  8
TEXT
100
AcDbText
 10
71.75817860751886
 20
51.23104475435443
 30
0.0
 40
2.5
  1
Maßstab
 41
0.8
  7
GREEKS
100
AcDbText
  0
TEXT
  5
76
330
1E
100
AcDbEntity
  8
TEXT
100
AcDbText
 10
92.14294773670257
 20
51.20920842174095
 30
0.0
 40
2.5
  1
Zul. Abw.
 41
0.8
  7
GREEKS
100
AcDbText
  0
TEXT
  5
77
330
1E
100
AcDbEntity
  8
TEXT
100
AcDbText
 10
112.4389701904505
 20
51.27446640058898
 30
0.0
 40
2.5
  1
Benennung
 41
0.8
  7
GREEKS
100
AcDbText
  0
TEXT
  5
78
330
1E
100
AcDbEntity
  8
TEXT
100
AcDbText
 10
168.089377478817
 20
51.15660172685682
 30
0.0
 40
2.5
  1
Zeichnungs Nr.
 41
0.8
  7
GREEKS
100
AcDbText
  0
TEXT
  5
79
330
1E
100
AcDbEntity
  8
TEXT
100
AcDbText
 10
112.371119195568
 20
15.42280285096528
 30
0.0
 40
2.5
  1
Bauvorhaben
 41
0.8
  7
GREEKS
100
AcDbText
  0
TEXT
  5
7A
330
1E
100
AcDbEntity
  8
TEXT
100
AcDbText
 10
168.3619308148496
 20
36.59059118549985
 30
0.0
 40
2.5
  1
Ersatz für:
 41
0.8
  7
GREEKS
100
AcDbText
  0
TEXT
  5
7B
330
1E
100
AcDbEntity
  8
TEXT
100
AcDbText
 10
24.13320553522878
 20
6.827329230135958
 30
0.0
 40
2.0
  1
Index
 50
90.0
 41
0.8
  7
GREEKS
100
AcDbText
  0
TEXT
  5
7C
330
1E
100
AcDbEntity
  8
TEXT
100
AcDbText
 10
50.04673380377405
 20
9.33578134669905
 30
0.0
 40
2.0
  1
Tag
 41
0.8
  7
GREEKS
 72
     1
 11
51.91340047044072
 21
9.33578134669905
 31
0.0
100
AcDbText
  0
TEXT
  5
7D
330
1E
100
AcDbEntity
  8
TEXT
100
AcDbText
 10
59.50613721932963
 20
9.29662108483204
 30
0.0
 40
2.0
  1
Name
 41
0.8
  7
GREEKS
 72
     1
 11
62.66804198123439
 21
9.29662108483204
 31
0.0
100
AcDbText
  0
TEXT
  5
7E
330
1E
100
AcDbEntity
  8
TEXT
100
AcDbText
 10
81.16558365768254
 20
36.65940250614963
 30
0.0
 40
2.0
  1
Tag
 41
0.8
  7
GREEKS
100
AcDbText
  0
TEXT
  5
7F
330
1E
100
AcDbEntity
  8
TEXT
100
AcDbText
 10
96.23132921131475
 20
36.65480545957612
 30
0.0
 40
2.0
  1
Name
 41
0.8
  7
GREEKS
100
AcDbText
  0
TEXT
  5
80
330
1E
100
AcDbEntity
  8
TEXT
100
AcDbText
 10
68.79180635838077
 20
31.81495184808982
 30
0.0
 40
2.0
  1
Gez.
 41
0.8
  7
GREEKS
100
AcDbText
  0
TEXT
  5
81
330
1E
100
AcDbEntity
  8
TEXT
100
AcDbText
 10
68.77575432858361
 20
26.84463145714189
 30
0.0
 40
2.0
  1
Gepr.
 41
0.8
  7
GREEKS
100
AcDbText
  0
TEXT
  5
82
330
1E
100
AcDbEntity
  8
TEXT
100
AcDbText
 10
68.80033886936519
 20
21.76473194824904
 30
0.0
 40
2.0
  1
Norm.
 41
0.8
  7
GREEKS
100
AcDbText
  0
LINE
  5
83
330
1E
100
AcDbEntity
  8
STEMPEL
100
AcDbLine
 10
24.99999999999995
 20
5.0
 30
0.0
 11
205.0
 21
5.0
 31
0.0
  0
TEXT
  5
84
330
1E
100
AcDbEntity
  8
TEXT
100
AcDbText
 10
168.6200430748503
 20
26.03708088939301
 30
0.0
 40
2.5
  1
ersetzt durch:
 41
0.8
  7
GREEKS
100
AcDbText
  0
LINE
  5
85
330
1E
100
AcDbEntity
  8
STEMPEL
100
AcDbLine
 10
205.0
 20
5.0
 30
0.0
 11
19.99999999999994
 21
5.0
 31
0.0
  0
LINE
  5
86
330
1E
100
AcDbEntity
  8
STEMPEL
100
AcDbLine
 10
205.0
 20
5.0
 30
0.0
 11
205.0
 21
292.0
 31
0.0
  0
LINE
  5
87
330
1E
100
AcDbEntity
  8
STEMPEL
100
AcDbLine
 10
20.0
 20
5.0
 30
0.0
 11
19.99999999999994
 21
292.0
 31
0.0
  0
LINE
  5
88
330
1E
100
AcDbEntity
  8
STEMPEL
100
AcDbLine
 10
205.0
 20
292.0
 30
0.0
 11
19.99999999999994
 21
292.0
 31
0.0
  0
LINE
  5
89
330
1E
100
AcDbEntity
  8
HILF
100
AcDbLine
 10
0.0
 20
0.0
 30
0.0
 11
-0.0000000000000568
 21
297.0
 31
0.0
  0
LINE
  5
8A
330
1E
100
AcDbEntity
  8
HILF
100
AcDbLine
 10
210.0
 20
297.0000000000001
 30
0.0
 11
0.0
 21
297.0
 31
0.0
  0
LINE
  5
8B
330
1E
100
AcDbEntity
  8
HILF
100
AcDbLine
 10
210.0
 20
0.0
 30
0.0
 11
0.0
 21
0.0
 31
0.0
  0
LINE
  5
8C
330
1E
100
AcDbEntity
  8
HILF
100
AcDbLine
 10
15.54383567856928
 20
148.5
 30
0.0
 11
0.0000000000000568
 21
148.5
 31
0.0
  0
TEXT
  5
8D
330
1E
100
AcDbEntity
  8
TEXT
100
AcDbText
 10
69.31105491105199
 20
36.57012735575833
 30
0.0
 40
2.0
  1
2011
 41
0.8
  7
GREEKS
100
AcDbText
  0
LINE
  5
8E
330
1E
100
AcDbEntity
  8
HILF
100
AcDbLine
 10
210.0
 20
-0.0000000000000568
 30
0.0
 11
210.0
 21
297.0
 31
0.0
  0
TEXT
  5
8F
330
1E
100
AcDbEntity
  8
VOLL
100
AcDbText
 10
78.07675471698113
 20
31.02594776470585
 30
0.0
 40
1.8
  1

  7
GREEKS
100
AcDbText
  0
TEXT
  5
90
330
1E
100
AcDbEntity
  8
TEXT
100
AcDbText
 10
20.92754975488837
 20
55.83599999999997
 30
0.0
 40
2.5
  1
Erstellt mit AUTOCAD 2004
 41
0.8
  7
GREEKS
100
AcDbText
  0
TEXT
  5
91
330
1E
100
AcDbEntity
  8
TEXT
100
AcDbText
 10
97.21080242906285
 20
31.54481959861755
 30
0.0
 40
2.0
  1
Koeh
 41
0.8
  7
GREEKS
 72
     1
 11
99.83937385763429
 21
31.54481959861755
 31
0.0
100
AcDbText
  0
TEXT
  5
92
330
1E
100
AcDbEntity
  8
TEXT
 62
     1
100
AcDbText
 10
173.8603854514982
 20
44.07450714456979
 30
0.0
 40
3.5
  1
19602CA0W
 41
0.8
  7
GREEKS
 72
     1
 11
185.7937187848316
 21
44.07450714456979
 31
0.0
100
AcDbText
  0
TEXT
  5
93
330
1E
100
AcDbEntity
  8
TEXT
 62
     1
100
AcDbText
 10
75.25031532409435
 20
44.07450714456979
 30
0.0
 40
3.5
  1
1:1
 41
0.8
  7
GREEKS
100
AcDbText
  0
TEXT
  5
94
330
1E
100
AcDbEntity
  8
TEXT
100
AcDbText
 10
80.19949855411802
 20
31.55382520412866
 30
0.0
 40
2.0
  1
07.09.
 41
0.8
  7
GREEKS
 72
     1
 11
83.70426045887993
 21
31.55382520412866
 31
0.0
100
AcDbText
  0
TEXT
  5
95
330
1E
100
AcDbEntity
  8
TEXT
 62
     1
100
AcDbText
 10
113.4467865528701
 20
43.70874394626889
 30
0.0
 40
3.5
  1
Abgleichstück DN70/40
 41
0.75
  7
GREEKS
100
AcDbText
  0
TEXT
  5
96
330
1E
100
AcDbEntity
  8
TEXT
100
AcDbText
 10
112.5648195562657
 20
35.75167208792644
 30
0.0
 40
2.5
  1

 41
0.8
  7
GREEKS
100
AcDbText
  0
TEXT
  5
97
330
1E
100
AcDbEntity
  8
TEXT
100
AcDbText
 10
112.5648195562657
 20
31.05790353387428
 30
0.0
 40
2.5
  1

 41
0.8
  7
GREEKS
100
AcDbText
  0
TEXT
  5
98
330
1E
100
AcDbEntity
  8
TEXT
100
AcDbText
 10
112.5648195562657
 20
25.82005971521079
 30
0.0
 40
2.5
  1
EDV-Art.Nr. 19602.CA0X
 41
0.8
  7
GREEKS
100
AcDbText
  0
TEXT
  5
99
330
1E
100
AcDbEntity
  8
TEXT
100
AcDbText
 10
112.4918750788913
 20
21.31487076511316
 30
0.0
 40
2.0
  1
19602CA0W.DWG
 41
0.8
  7
GREEKS
100
AcDbText
  0
TEXT
  5
9A
330
1E
100
AcDbEntity
  8
TEXT
100
AcDbText
 10
91.31306610404202
 20
45.38181920511511
 30
0.0
 40
2.0
  1
DIN EN1123-2
 41
0.8
  7
GREEKS
 72
     1
 11
99.80830419928011
 21
45.38181920511511
 31
0.0
100
AcDbText
  0
INSERT
  5
9B
330
1E
100
AcDbEntity
  8
STEMPEL
100
AcDbBlockReference
  2
LOGO
 10
70.4977742728897
 20
22.51052638224161
 30
0.0
  0
TEXT
  5
118
330
1E
100
AcDbEntity
  8
BEM
100
AcDbText
 10
208.6511461928583
 20
5.083950539994247
 30
0.0
 40
2.0
  1
Diese Zeichnung ist urheberrechtlich geschützt und bleibt unser Eigentum. Sie darf weder ganz noch teilweise verfielfältigt und nicht an Dritte weitergegeben werden.
 50
90.0
 41
0.8
  7
GREEKS
100
AcDbText
  0
TEXT
  5
196
330
1E
100
AcDbEntity
  8
TEXT
 62
     1
100
AcDbText
 10
107.2480655368872
 20
245.6464437052255
 30
0.0
 40
3.5
  1
DN70
 50
90.0
 41
0.8
  7
GREEKS
 72
     1
 11
107.2480655368872
 21
250.7797770385589
 31
0.0
100
AcDbText
  0
TEXT
  5
197
330
1E
100
AcDbEntity
  8
TEXT
 62
     1
100
AcDbText
 10
107.2480655368872
 20
136.6089464833033
 30
0.0
 40
3.5
  1
DN40
 50
90.0
 41
0.8
  7
GREEKS
 72
     1
 11
107.2480655368872
 21
141.7422798166366
 31
0.0
100
AcDbText
  0
TEXT
  5
380
330
1E
100
AcDbEntity
  8
TEXT
 62
     1
100
AcDbText
 10
29.95709425014128
 20
79.46039542125323
 30
0.0
 40
3.5
  1
Rohrende leicht eingezogen
 41
0.8
  7
GREEKS
100
AcDbText
  0
TEXT
  5
388
330
1E
100
AcDbEntity
  8
TEXT
 62
     1
100
AcDbText
 10
117.3028829473234
 20
64.53917328727413
 30
0.0
 40
3.5
  1
und innen beschichtet
 41
0.8
  7
GREEKS
100
AcDbText
  0
TEXT
  5
389
330
1E
100
AcDbEntity
  8
TEXT
 62
     1
100
AcDbText
 10
93.32802422862448
 20
69.90022919477588
 30
0.0
 40
3.5
  1
Werkstoff: E195 EN10305 feuerverzinkt
 41
0.8
  7
GREEKS
100
AcDbText
  0
LINE
  5
AEC
330
1E
100
AcDbEntity
  8
HILF
100
AcDbLine
 10
93.99999999999996
 20
106.8125012274628
 30
0.0
 11
131.0
 21
106.8125012274628
 31
0.0
  0
LINE
  5
AED
102
{ACAD_REACTORS
330
DF8
102
}
330
1E
100
AcDbEntity
  8
STEMPEL
100
AcDbLine
 10
132.4999999999999
 20
106.877992641825
 30
0.0
 11
132.0568269260554
 21
101.8125012274628
 31
0.0
  0
LINE
  5
AEE
102
{ACAD_REACTORS
330
DF8
102
}
330
1E
100
AcDbEntity
  8
STEMPEL
100
AcDbLine
 10
133.9999999999999
 20
106.8125012274625
 30
0.0
 11
133.5625566823704
 21
101.8125012274628
 31
0.0
  0
LINE
  5
AEF
102
{ACAD_REACTORS
330
DF8
102
}
330
1E
100
AcDbEntity
  8
STEMPEL
100
AcDbLine
 10
92.49999999999998
 20
106.8779926418253
 30
0.0
 11
92.94317307394461
 21
101.8125012274628
 31
0.0
  0
LINE
  5
AF0
102
{ACAD_REACTORS
330
DF8
102
}
330
1E
100
AcDbEntity
  8
STEMPEL
100
AcDbLine
 10
91.00000000000003
 20
106.8125012274626
 30
0.0
 11
91.43744331762963
 21
101.8125012274628
 31
0.0
  0
LINE
  5
AF1
102
{ACAD_REACTORS
330
DF8
102
}
330
1E
100
AcDbEntity
  8
STEMPEL
100
AcDbLine
 10
92.50000000000005
 20
175.3570935210808
 30
0.0
 11
92.49999999999998
 21
106.8779926418252
 31
0.0
  0
LINE
  5
AF2
102
{ACAD_REACTORS
330
DF8
102
}
330
1E
100
AcDbEntity
  8
STEMPEL
100
AcDbLine
 10
132.5
 20
175.3570935210808
 30
0.0
 11
132.5
 21
106.8779926418249
 31
0.0
  0
LINE
  5
AF3
102
{ACAD_REACTORS
330
DF8
102
}
330
1E
100
AcDbEntity
  8
STEMPEL
100
AcDbLine
 10
134.0
 20
175.3570935210808
 30
0.0
 11
133.9999999999999
 21
106.8125012274628
 31
0.0
  0
LINE
  5
AF4
102
{ACAD_REACTORS
330
DF8
102
}
330
1E
100
AcDbEntity
  8
STEMPEL
100
AcDbLine
 10
90.99999999999992
 20
175.3570935210808
 30
0.0
 11
91.00000000000003
 21
106.8125012274626
 31
0.0
  0
LINE
  5
AF5
102
{ACAD_REACTORS
330
DF8
102
}
330
1E
100
AcDbEntity
  8
STEMPEL
  6
Continuous
100
AcDbLine
 10
133.5625566823704
 20
101.8125012274628
 30
0.0
 11
91.43744331762963
 21
101.8125012274628
 31
0.0
  0
LINE
  5
AF9
102
{ACAD_REACTORS
330
D9F
102
}
330
1E
100
AcDbEntity
  8
STEMPEL
  6
Continuous
100
AcDbLine
 10
150.4999999999999
 20
266.8125012274628
 30
0.0
 11
150.8076022166575
 21
266.1528461450766
 31
0.0
  0
ARC
  5
AFA
102
{ACAD_REACTORS
330
D9F
102
}
330
1E
100
AcDbEntity
  8
STEMPEL
  6
Continuous
100
AcDbCircle
 10
129.6
 20
256.2635788203441
 30
0.0
 40
25.0
100
AcDbArc
 50
0.0
 51
24.95819631230951
  0
ARC
  5
AFB
102
{ACAD_REACTORS
330
D9F
102
}
330
1E
100
AcDbEntity
  8
STEMPEL
  6
Continuous
100
AcDbCircle
 10
129.6
 20
256.2635788203441
 30
0.0
 40
23.4
100
AcDbArc
 50
0.0
 51
24.99999999999242
  0
LINE
  5
AFC
102
{ACAD_REACTORS
330
D9F
102
}
330
1E
100
AcDbEntity
  8
STEMPEL
  6
Continuous
100
AcDbLine
 10
154.6
 20
256.2635788203441
 30
0.0
 11
154.6
 21
247.2507812755987
 31
0.0
  0
LINE
  5
AFD
102
{ACAD_REACTORS
330
D9F
102
}
330
1E
100
AcDbEntity
  8
STEMPEL
  6
Continuous
100
AcDbLine
 10
153.0
 20
256.2635788203441
 30
0.0
 11
153.0
 21
247.2485601933398
 31
0.0
  0
ARC
  5
AFE
102
{ACAD_REACTORS
330
D9F
102
}
330
1E
100
AcDbEntity
  8
STEMPEL
  6
Continuous
100
AcDbCircle
 10
164.1
 20
233.8125012274628
 30
0.0
 40
13.6
100
AcDbArc
 50
158.8168456069635
 51
180.0
  0
ARC
  5
AFF
102
{ACAD_REACTORS
330
D9F
102
}
330
1E
100
AcDbEntity
  8
STEMPEL
  6
Continuous
100
AcDbCircle
 10
164.1
 20
233.8125012274628
 30
0.0
 40
12.0
100
AcDbArc
 50
158.8168456069635
 51
180.0
  0
ARC
  5
B00
102
{ACAD_REACTORS
330
D9F
102
}
330
1E
100
AcDbEntity
  8
STEMPEL
  6
Continuous
100
AcDbCircle
 10
129.6
 20
247.1825012274628
 30
0.0
 40
25.00009324312574
100
AcDbArc
 50
338.8168456069636
 51
0.1564859542268659
  0
ARC
  5
B01
102
{ACAD_REACTORS
330
D9F
102
}
330
1E
100
AcDbEntity
  8
STEMPEL
  6
Continuous
100
AcDbCircle
 10
129.6
 20
247.1825012274628
 30
0.0
 40
23.40009324312573
100
AcDbArc
 50
338.8168456069636
 51
0.1617474311627755
  0
ARC
  5
B02
102
{ACAD_REACTORS
330
D9F
102
}
330
1E
100
AcDbEntity
  8
STEMPEL
  6
Continuous
100
AcDbCircle
 10
140.1
 20
217.2012276448798
 30
0.0
 40
10.4
100
AcDbArc
 50
327.6719358778383
 51
0.0
  0
ARC
  5
B03
102
{ACAD_REACTORS
330
D9F
102
}
330
1E
100
AcDbEntity
  8
STEMPEL
  6
Continuous
100
AcDbCircle
 10
157.0
 20
206.5059015628942
 30
0.0
 40
8.0
100
AcDbArc
 50
147.6719358778383
 51
180.0
  0
ARC
  5
B04
102
{ACAD_REACTORS
330
D9F
102
}
330
1E
100
AcDbEntity
  8
STEMPEL
  6
Continuous
100
AcDbCircle
 10
157.0
 20
206.5059015628942
 30
0.0
 40
9.599999999999999
100
AcDbArc
 50
147.6719358778383
 51
180.0
  0
ARC
  5
B05
102
{ACAD_REACTORS
330
D9F
102
}
330
1E
100
AcDbEntity
  8
STEMPEL
  6
Continuous
100
AcDbCircle
 10
140.1
 20
217.2012276448798
 30
0.0
 40
12.0
100
AcDbArc
 50
327.6719358778383
 51
0.0
  0
LINE
  5
B06
102
{ACAD_REACTORS
330
D9F
102
}
330
1E
100
AcDbEntity
  8
STEMPEL
  6
Continuous
100
AcDbLine
 10
147.3999999999999
 20
206.5059015628942
 30
0.0
 11
147.3999999999999
 21
205.9563822671365
 31
0.0
  0
LINE
  5
B07
102
{ACAD_REACTORS
330
D9F
102
}
330
1E
100
AcDbEntity
  8
STEMPEL
  6
Continuous
100
AcDbLine
 10
149.0
 20
206.5059015628942
 30
0.0
 11
149.0
 21
205.9563822671365
 31
0.0
  0
LINE
  5
B08
102
{ACAD_REACTORS
330
D9F
102
}
330
1E
100
AcDbEntity
  8
STEMPEL
  6
Continuous
100
AcDbLine
 10
152.1
 20
233.8125012274628
 30
0.0
 11
152.1
 21
217.2012276448798
 31
0.0
  0
LINE
  5
B09
102
{ACAD_REACTORS
330
D9F
102
}
330
1E
100
AcDbEntity
  8
STEMPEL
  6
Continuous
100
AcDbLine
 10
150.4999999999999
 20
233.8125012274628
 30
0.0
 11
150.4999999999999
 21
217.2012276448798
 31
0.0
  0
LINE
  5
B0C
102
{ACAD_REACTORS
330
D9F
102
}
330
1E
100
AcDbEntity
  8
STEMPEL
  6
Continuous
100
AcDbLine
 10
74.49999999999992
 20
266.8125012274628
 30
0.0
 11
74.19239778334227
 21
266.1528461450765
 31
0.0
  0
ARC
  5
B0D
102
{ACAD_REACTORS
330
D9F
102
}
330
1E
100
AcDbEntity
  8
STEMPEL
  6
Continuous
100
AcDbCircle
 10
95.39999999999995
 20
256.2635788203441
 30
0.0
 40
23.4
100
AcDbArc
 50
155.0000000000076
 51
180.0
  0
ARC
  5
B0E
102
{ACAD_REACTORS
330
D9F
102
}
330
1E
100
AcDbEntity
  8
STEMPEL
  6
Continuous
100
AcDbCircle
 10
95.39999999999995
 20
256.2635788203441
 30
0.0
 40
25.0
100
AcDbArc
 50
155.0418036876905
 51
180.0
  0
ARC
  5
B0F
102
{ACAD_REACTORS
330
D9F
102
}
330
1E
100
AcDbEntity
  8
STEMPEL
  6
Continuous
100
AcDbCircle
 10
60.9
 20
233.8125012274628
 30
0.0
 40
12.0
100
AcDbArc
 50
0.0
 51
21.18315439303641
  0
ARC
  5
B10
102
{ACAD_REACTORS
330
D9F
102
}
330
1E
100
AcDbEntity
  8
STEMPEL
  6
Continuous
100
AcDbCircle
 10
60.9
 20
233.8125012274628
 30
0.0
 40
13.6
100
AcDbArc
 50
0.0
 51
21.18315439303641
  0
ARC
  5
B11
102
{ACAD_REACTORS
330
D9F
102
}
330
1E
100
AcDbEntity
  8
STEMPEL
  6
Continuous
100
AcDbCircle
 10
95.39999999999995
 20
247.1825012274628
 30
0.0
 40
23.40009324312573
100
AcDbArc
 50
179.8382525688763
 51
201.1831543930364
  0
ARC
  5
B12
102
{ACAD_REACTORS
330
D9F
102
}
330
1E
100
AcDbEntity
  8
STEMPEL
  6
Continuous
100
AcDbCircle
 10
95.39999999999995
 20
247.1825012274628
 30
0.0
 40
25.00009324312574
100
AcDbArc
 50
179.8435140455223
 51
201.1831543930364
  0
LINE
  5
B13
102
{ACAD_REACTORS
330
D9F
102
}
330
1E
100
AcDbEntity
  8
STEMPEL
  6
Continuous
100
AcDbLine
 10
71.99999999999992
 20
256.2635788203441
 30
0.0
 11
71.99999999999992
 21
247.2485601933243
 31
0.0
  0
LINE
  5
B14
102
{ACAD_REACTORS
330
D9F
102
}
330
1E
100
AcDbEntity
  8
STEMPEL
  6
Continuous
100
AcDbLine
 10
70.39999999999995
 20
256.2635788203441
 30
0.0
 11
70.39999999999995
 21
247.2507812757082
 31
0.0
  0
ARC
  5
B15
102
{ACAD_REACTORS
330
D9F
102
}
330
1E
100
AcDbEntity
  8
STEMPEL
  6
Continuous
100
AcDbCircle
 10
67.99999999999997
 20
206.5059015628942
 30
0.0
 40
8.0
100
AcDbArc
 50
0.0
 51
32.32806412216171
  0
ARC
  5
B16
102
{ACAD_REACTORS
330
D9F
102
}
330
1E
100
AcDbEntity
  8
STEMPEL
  6
Continuous
100
AcDbCircle
 10
67.99999999999991
 20
206.5059015628942
 30
0.0
 40
9.599999999999999
100
AcDbArc
 50
0.0
 51
32.32806412216171
  0
ARC
  5
B17
102
{ACAD_REACTORS
330
D9F
102
}
330
1E
100
AcDbEntity
  8
STEMPEL
  6
Continuous
100
AcDbCircle
 10
84.89999999999994
 20
217.2012276448798
 30
0.0
 40
10.4
100
AcDbArc
 50
180.0
 51
212.3280641221617
  0
ARC
  5
B18
102
{ACAD_REACTORS
330
D9F
102
}
330
1E
100
AcDbEntity
  8
STEMPEL
  6
Continuous
100
AcDbCircle
 10
84.89999999999994
 20
217.2012276448798
 30
0.0
 40
12.0
100
AcDbArc
 50
180.0
 51
212.3280641221617
  0
LINE
  5
B19
102
{ACAD_REACTORS
330
D9F
102
}
330
1E
100
AcDbEntity
  8
STEMPEL
  6
Continuous
100
AcDbLine
 10
75.99999999999991
 20
206.5059015628942
 30
0.0
 11
75.99999999999993
 21
205.9563822671363
 31
0.0
  0
LINE
  5
B1A
102
{ACAD_REACTORS
330
D9F
102
}
330
1E
100
AcDbEntity
  8
STEMPEL
  6
Continuous
100
AcDbLine
 10
77.59999999999994
 20
206.5059015628942
 30
0.0
 11
77.59999999999995
 21
205.9563822671365
 31
0.0
  0
LINE
  5
B1B
102
{ACAD_REACTORS
330
D9F
102
}
330
1E
100
AcDbEntity
  8
STEMPEL
  6
Continuous
100
AcDbLine
 10
74.49999999999997
 20
233.8125012274628
 30
0.0
 11
74.49999999999997
 21
217.2012276448798
 31
0.0
  0
LINE
  5
B1C
102
{ACAD_REACTORS
330
D9F
102
}
330
1E
100
AcDbEntity
  8
STEMPEL
  6
Continuous
100
AcDbLine
 10
72.9
 20
233.8125012274628
 30
0.0
 11
72.9
 21
217.2012276448798
 31
0.0
  0
LINE
  5
B1D
102
{ACAD_REACTORS
330
D9F
102
}
330
1E
100
AcDbEntity
  8
STEMPEL
  6
Continuous
100
AcDbLine
 10
152.2653973282755
 20
266.8125012274628
 30
0.0
 11
72.73460267172473
 21
266.8125012274628
 31
0.0
  0
LINE
  5
B28
330
1E
100
AcDbEntity
  8
HILF
100
AcDbLine
 10
149.1069638151037
 20
236.3122744088518
 30
0.0
 11
75.89303618489626
 21
236.3122744088518
 31
0.0
  0
LINE
  5
B29
330
1E
100
AcDbEntity
  8
HILF
100
AcDbLine
 10
148.4100902522175
 20
214.3059901762082
 30
0.0
 11
76.58990974778245
 21
214.3059901762082
 31
0.0
  0
LINE
  5
B2A
330
1E
100
AcDbEntity
  8
HILF
100
AcDbLine
 10
146.1235299844112
 20
209.1784284570526
 30
0.0
 11
78.87647001558862
 21
209.1784284570526
 31
0.0
  0
DIMENSION
  5
B3D
330
1E
100
AcDbEntity
  8
BEM
100
AcDbDimension
  2
*D1
 10
71.01984491653024
 20
176.8125012274627
 30
0.0
 11
67.76984491653021
 21
139.3125012274628
 31
0.0
 70
    32
 71
     5
 42
75.0
  3
Standard
100
AcDbAlignedDimension
 13
91.43744331762963
 23
101.8125012274628
 33
0.0
 14
90.86649784899243
 24
176.8125012274627
 34
0.0
 50
90.0
100
AcDbRotatedDimension
1001
ACAD
1000
DSTYLE
1002
{
1070
    41
1040
3.5
1070
    42
1040
1.0
1070
    43
1040
7.0
1070
    44
1040
1.0
1070
    73
1070
     0
1070
    74
1070
     0
1070
    77
1070
     1
1070
    78
1070
     8
1070
    79
1070
     2
1070
   140
1040
3.5
1070
   141
1040
1.5
1070
   146
1040
0.5
1070
   147
1040
1.5
1070
   172
1070
     1
1070
   178
1070
     1
1070
   179
1070
     2
1070
   271
1070
     2
1070
   272
1070
     2
1070
   284
1070
     8
1070
   285
1070
     8
1070
   286
1070
     8
1002
}
  0
DIMENSION
  5
B6D
330
1E
100
AcDbEntity
  8
BEM
100
AcDbDimension
  2
*D2
 10
62.53072001634087
 20
101.8125012274628
 30
0.0
 11
59.28072001634085
 21
184.3125012274628
 31
0.0
 70
    32
 71
     5
 42
165.0
  3
Standard
100
AcDbAlignedDimension
 13
72.73460267172473
 23
266.8125012274628
 33
0.0
 14
91.43744331762963
 24
101.8125012274628
 34
0.0
 50
90.0
100
AcDbRotatedDimension
1001
ACAD
1000
DSTYLE
1002
{
1070
    41
1040
3.5
1070
    42
1040
1.0
1070
    43
1040
7.0
1070
    44
1040
1.0
1070
    73
1070
     0
1070
    74
1070
     0
1070
    77
1070
     1
1070
    78
1070
     8
1070
    79
1070
     2
1070
   140
1040
3.5
1070
   141
1040
1.5
1070
   146
1040
0.5
1070
   147
1040
1.5
1070
   172
1070
     1
1070
   178
1070
     1
1070
   179
1070
     2
1070
   271
1070
     2
1070
   272
1070
     2
1070
   284
1070
     8
1070
   285
1070
     8
1070
   286
1070
     8
1002
}
  0
DIMENSION
  5
B7B
330
1E
100
AcDbEntity
  8
BEM
100
AcDbDimension
  2
*D3
 10
133.9999999999999
 20
89.10431999422257
 30
0.0
 11
112.5
 21
92.35431999422258
 31
0.0
 70
    32
  1
%%c<>
 71
     5
 42
42.99999999999994
  3
Standard
100
AcDbAlignedDimension
 13
91.00000000000003
 23
106.8125012274626
 33
0.0
 14
133.9999999999999
 24
106.8125012274628
 34
0.0
100
AcDbRotatedDimension
1001
ACAD
1000
DSTYLE
1002
{
1070
    41
1040
3.5
1070
    42
1040
1.0
1070
    43
1040
7.0
1070
    44
1040
1.0
1070
    73
1070
     0
1070
    74
1070
     0
1070
    77
1070
     1
1070
    78
1070
     8
1070
    79
1070
     2
1070
   140
1040
3.5
1070
   141
1040
1.5
1070
   146
1040
0.5
1070
   147
1040
1.5
1070
   172
1070
     1
1070
   178
1070
     1
1070
   179
1070
     2
1070
   271
1070
     2
1070
   272
1070
     2
1070
   284
1070
     8
1070
   285
1070
     8
1070
   286
1070
     8
1002
}
  0
DIMENSION
  5
B9E
330
1E
100
AcDbEntity
  8
BEM
100
AcDbDimension
  2
*D4
 10
149.0
 20
192.5730099351912
 30
0.0
 11
112.4999999999999
 21
195.8230099351912
 31
0.0
 70
    32
  1
%%c<>
 71
     5
 42
73.00000000000006
  3
Standard
100
AcDbAlignedDimension
 13
75.99999999999991
 23
206.5059015628942
 33
0.0
 14
149.0
 24
205.9563822671365
 34
0.0
100
AcDbRotatedDimension
1001
ACAD
1000
DSTYLE
1002
{
1070
    41
1040
3.5
1070
    42
1040
1.0
1070
    43
1040
7.0
1070
    44
1040
1.0
1070
    73
1070
     0
1070
    74
1070
     0
1070
    77
1070
     1
1070
    78
1070
     8
1070
    79
1070
     2
1070
   140
1040
3.5
1070
   141
1040
1.5
1070
   146
1040
0.5
1070
   147
1040
1.5
1070
   172
1070
     1
1070
   178
1070
     1
1070
   179
1070
     2
1070
   271
1070
     2
1070
   272
1070
     2
1070
   284
1070
     8
1070
   285
1070
     8
1070
   286
1070
     8
1002
}
  0
LINE
  5
BC1
330
1E
100
AcDbEntity
  8
MITTEL
100
AcDbLine
 10
112.4999999999999
 20
269.6528220263642
 30
0.0
 11
112.4999999999999
 21
199.152262706306
 31
0.0
  0
LINE
  5
CCA
102
{ACAD_REACTORS
330
D9F
330
DDC
330
DF8
102
}
330
1E
100
AcDbEntity
  8
STEMPEL
  6
Continuous
100
AcDbLine
 10
137.6709185464638
 20
186.8125012274628
 30
0.0
 11
87.32908145353608
 21
186.8125012274628
 31
0.0
  0
LINE
  5
CDB
102
{ACAD_REACTORS
330
D9F
102
}
330
1E
100
AcDbEntity
  8
STEMPEL
100
AcDbLine
 10
144.8429637853919
 20
198.5516246784119
 30
0.0
 11
135.6376586043149
 21
186.8125012274628
 31
0.0
  0
LINE
  5
CDC
102
{ACAD_REACTORS
330
D9F
102
}
330
1E
100
AcDbEntity
  8
STEMPEL
100
AcDbLine
 10
80.15703621460801
 20
198.5516246784117
 30
0.0
 11
89.36234139568497
 21
186.8125012274628
 31
0.0
  0
LINE
  5
CDD
102
{ACAD_REACTORS
330
D9F
330
DDC
102
}
330
1E
100
AcDbEntity
  8
STEMPEL
100
AcDbLine
 10
146.1020256234442
 20
197.5643236665819
 30
0.0
 11
137.6709185464638
 21
186.8125012274628
 31
0.0
  0
LINE
  5
CDE
102
{ACAD_REACTORS
330
D9F
330
DDC
102
}
330
1E
100
AcDbEntity
  8
STEMPEL
100
AcDbLine
 10
78.89797437655575
 20
197.5643236665818
 30
0.0
 11
87.32908145353608
 21
186.8125012274628
 31
0.0
  0
ARC
  5
CDF
102
{ACAD_REACTORS
330
D9F
102
}
330
1E
100
AcDbEntity
  8
STEMPEL
100
AcDbCircle
 10
89.59999999999995
 20
205.9563822671365
 30
0.0
 40
12.0
100
AcDbArc
 50
180.0
 51
218.1019845943077
  0
ARC
  5
CE0
102
{ACAD_REACTORS
330
D9F
102
}
330
1E
100
AcDbEntity
  8
STEMPEL
100
AcDbCircle
 10
135.3999999999999
 20
205.9563822671365
 30
0.0
 40
12.0
100
AcDbArc
 50
321.8980154056926
 51
0.0
  0
ARC
  5
CEB
102
{ACAD_REACTORS
330
D9F
102
}
330
1E
100
AcDbEntity
  8
STEMPEL
100
AcDbCircle
 10
89.59999999999995
 20
205.9563822671365
 30
0.0
 40
13.6
100
AcDbArc
 50
180.0
 51
218.1019845943077
  0
ARC
  5
CED
102
{ACAD_REACTORS
330
D9F
102
}
330
1E
100
AcDbEntity
  8
STEMPEL
100
AcDbCircle
 10
135.3999999999999
 20
205.9563822671365
 30
0.0
 40
13.6
100
AcDbArc
 50
321.8980154056926
 51
0.0
  0
LINE
  5
CEF
330
1E
100
AcDbEntity
  8
HILF
100
AcDbLine
 10
144.8049866687529
 20
201.517212777178
 30
0.0
 11
80.19501333124701
 21
201.5172127771779
 31
0.0
  0
HATCH
  5
D9F
330
1E
100
AcDbEntity
  8
SCHRAFF
100
AcDbHatch
 10
0.0
 20
0.0
 30
0.0
210
0.0
220
0.0
230
1.0
  2
_USER
 70
     0
 71
     1
 91
        2
 92
        7
 72
     1
 73
     1
 93
       23
 10
152.1
 20
233.8125012274628
 42
-0.0926930603363612
 10
152.9108390084418
 20
238.1487065160755
 42
0.0933817694253559
 10
154.6
 20
247.2507812755987
 42
0.0
 10
154.6
 20
256.2635788203441
 42
0.1093332246020752
 10
152.2653973282753
 20
266.8125012274628
 42
0.0
 10
150.4999999999999
 20
266.8125012274629
 42
0.0
 10
150.8076022166575
 20
266.1528461450766
 42
-0.1095178116832425
 10
153.0
 20
256.2635788203441
 42
0.0
 10
153.0
 20
247.2485601933398
 42
-0.0934049271921899
 10
151.4189508762338
 20
238.7268672212234
 42
0.0926930603363495
 10
150.4999999999999
 20
233.8125012274629
 42
0.0
 10
150.4999999999999
 20
217.2012276448798
 42
-0.1420008527982268
 10
148.888
 20
211.6396580822474
 42
0.1420008527982198
 10
147.3999999999999
 20
206.5059015628947
 42
0.0
 10
147.3999999999999
 20
205.9563822671365
 42
-0.1678000962660288
 10
144.8429637853919
 20
198.5516246784119
 42
0.0
 10
135.637658604315
 20
186.8125012274629
 42
0.0
 10
137.6709185464638
 20
186.8125012274629
 42
0.0
 10
146.1020256234442
 20
197.5643236665819
 42
0.1678000962660289
 10
149.0
 20
205.9563822671365
 42
0.0
 10
149.0
 20
206.5059015628942
 42
-0.142000852798227
 10
150.2399999999999
 20
210.7840319956884
 42
0.1420008527982321
 10
152.1
 20
217.2012276448798
 42
0.0
 97
       23
330
AFF
330
B00
330
AFC
330
AFA
330
B1D
330
AF9
330
AFB
330
AFD
330
B01
330
AFE
330
B09
330
B02
330
B04
330
B06
330
CE0
330
CDB
330
CCA
330
CDD
330
CED
330
B07
330
B03
330
B05
330
B08
 92
        7
 72
     1
 73
     1
 93
       23
 10
72.9
 20
217.2012276448798
 42
0.1420008527982303
 10
74.75999999999999
 20
210.7840319956884
 42
-0.1420008527982213
 10
75.99999999999991
 20
206.5059015628944
 42
0.0
 10
75.99999999999993
 20
205.9563822671363
 42
0.1678000962660253
 10
78.89797437655572
 20
197.5643236665818
 42
0.0
 10
87.3290814535361
 20
186.8125012274628
 42
0.0
 10
89.36234139568492
 20
186.8125012274628
 42
0.0
 10
80.15703621460801
 20
198.5516246784117
 42
-0.1678000962660301
 10
77.59999999999995
 20
205.9563822671365
 42
0.0
 10
77.59999999999994
 20
206.5059015628942
 42
0.1420008527982288
 10
76.11199999999995
 20
211.6396580822473
 42
-0.1420008527982299
 10
74.49999999999997
 20
217.2012276448798
 42
0.0
 10
74.49999999999997
 20
233.8125012274628
 42
0.0926930603363583
 10
73.58104912376596
 20
238.7268672212237
 42
-0.0934049271920185
 10
71.99999999999992
 20
247.2485601933243
 42
0.0
 10
71.99999999999992
 20
256.2635788203441
 42
-0.1095178116832405
 10
74.19239778334227
 20
266.1528461450765
 42
0.0
 10
74.4999999999999
 20
266.8125012274628
 42
0.0
 10
72.73460267172473
 20
266.8125012274628
 42
0.1093332246020776
 10
70.39999999999995
 20
256.2635788203439
 42
0.0
 10
70.39999999999995
 20
247.2507812757082
 42
0.093381769426461
 10
72.08916099155814
 20
238.1487065160755
 42
-0.0926930603363625
 10
72.9
 20
233.8125012274627
 42
0.0
 97
       23
330
B10
330
B11
330
B13
330
B0D
330
B0C
330
B1D
330
B0E
330
B14
330
B12
330
B0F
330
B1C
330
B18
330
B15
330
B19
330
CEB
330
CDE
330
CCA
330
CDC
330
CDF
330
B1A
330
B16
330
B17
330
B1B
 75
     0
 76
     0
 52
135.0
 41
2.0
 77
     0
 78
     1
 53
135.0
 43
0.0
 44
0.0
 45
-1.414213562373095
 46
-1.414213562373094
 79
     0
 47
0.3133486463910373
 98
        2
 10
151.5363944575122
 20
224.1357000873924
 10
73.47025976637815
 20
227.8958842941564
  0
ARC
  5
DA4
102
{ACAD_REACTORS
330
DDC
102
}
330
1E
100
AcDbEntity
  8
SCHRAFF
100
AcDbCircle
 10
135.5966713260102
 20
188.4399253130969
 30
0.0
 40
4.127915709414232
100
AcDbArc
 50
281.9784643576419
 51
12.20347875113938
  0
ARC
  5
DA5
102
{ACAD_REACTORS
330
DDC
102
}
330
1E
100
AcDbEntity
  8
SCHRAFF
100
AcDbCircle
 10
89.40332867398964
 20
188.4399253130969
 30
0.0
 40
4.127915709414232
100
AcDbArc
 50
167.7965212488606
 51
258.0215356423582
  0
LINE
  5
DB6
330
1E
100
AcDbEntity
  8
MITTEL
100
AcDbLine
 10
112.4999999999999
 20
190.3535767370698
 30
0.0
 11
112.5
 21
96.81250122746281
 31
0.0
  0
LINE
  5
DBB
330
1E
100
AcDbEntity
  8
HILF
  6
Continuous
100
AcDbLine
 10
131.0967074510401
 20
176.8125012274628
 30
0.0
 11
93.90329254895979
 21
176.8125012274627
 31
0.0
  0
LINE
  5
DBE
102
{ACAD_REACTORS
330
DF8
102
}
330
1E
100
AcDbEntity
  8
STEMPEL
100
AcDbLine
 10
92.06428711186896
 20
178.2011573659346
 30
0.0
 11
89.36234139568497
 21
186.8125012274628
 31
0.0
  0
LINE
  5
DBF
102
{ACAD_REACTORS
330
DDC
330
DF8
102
}
330
1E
100
AcDbEntity
  8
STEMPEL
100
AcDbLine
 10
90.63308388367913
 20
177.7520946535892
 30
0.0
 11
87.79023761916842
 21
186.8125012274628
 31
0.0
  0
ARC
  5
DC0
102
{ACAD_REACTORS
330
DF8
102
}
330
1E
100
AcDbEntity
  8
STEMPEL
100
AcDbCircle
 10
82.99999999999991
 20
175.3570935210808
 30
0.0
 40
8.0
100
AcDbArc
 50
0.0000000000001018
 51
17.42007655291453
  0
ARC
  5
DC1
102
{ACAD_REACTORS
330
DF8
102
}
330
1E
100
AcDbEntity
  8
STEMPEL
100
AcDbCircle
 10
82.99999999999991
 20
175.3570935210808
 30
0.0
 40
9.5
100
AcDbArc
 50
0.0000000000001018
 51
17.42007655291453
  0
ARC
  5
DCD
102
{ACAD_REACTORS
330
DF8
102
}
330
1E
100
AcDbEntity
  8
STEMPEL
100
AcDbCircle
 10
142.0
 20
175.3570935210808
 30
0.0
 40
9.5
100
AcDbArc
 50
162.5799234470854
 51
179.9999999999999
  0
ARC
  5
DCE
102
{ACAD_REACTORS
330
DF8
102
}
330
1E
100
AcDbEntity
  8
STEMPEL
100
AcDbCircle
 10
142.0
 20
175.3570935210808
 30
0.0
 40
8.0
100
AcDbArc
 50
162.5799234470854
 51
179.9999999999999
  0
LINE
  5
DCF
102
{ACAD_REACTORS
330
DDC
330
DF8
102
}
330
1E
100
AcDbEntity
  8
STEMPEL
100
AcDbLine
 10
134.3669161163208
 20
177.7520946535892
 30
0.0
 11
137.2097623808315
 21
186.8125012274628
 31
0.0
  0
LINE
  5
DD0
102
{ACAD_REACTORS
330
DF8
102
}
330
1E
100
AcDbEntity
  8
STEMPEL
100
AcDbLine
 10
132.9357128881309
 20
178.2011573659346
 30
0.0
 11
135.6376586043149
 21
186.8125012274628
 31
0.0
  0
HATCH
  5
DDC
330
1E
100
AcDbEntity
  8
SCHRAFF
100
AcDbHatch
 10
0.0
 20
0.0
 30
0.0
210
0.0
220
0.0
230
1.0
  2
_USER
 70
     0
 71
     1
 91
        2
 92
        7
 72
     1
 73
     1
 93
        4
 10
139.631308779078
 20
189.3125012274628
 42
0.0
 10
137.6709185464639
 20
186.8125012274629
 42
0.0
 10
137.2097623808315
 20
186.8125012274629
 42
0.0
 10
136.4533955543603
 20
184.4018921655625
 42
0.4153642932806946
 97
        4
330
CDD
330
CCA
330
DCF
330
DA4
 92
        7
 72
     1
 73
     1
 93
        4
 10
87.79023761916842
 20
186.8125012274628
 42
0.0
 10
87.3290814535361
 20
186.8125012274628
 42
0.0
 10
85.36869122092186
 20
189.3125012274628
 42
0.415364293280693
 10
88.54660444563956
 20
184.4018921655625
 42
0.0
 97
        4
330
CCA
330
CDE
330
DA5
330
DBF
 75
     0
 76
     0
 52
0.0
 41
0.1
 77
     0
 78
     1
 53
0.0
 43
0.0
 44
0.0
 45
0.0
 46
0.1
 79
     0
 47
0.085724921350593
 98
        2
 10
138.5099533887762
 20
186.2233704363813
 10
87.39018684179383
 20
185.7947462255264
  0
HATCH
  5
DF8
330
1E
100
AcDbEntity
  8
SCHRAFF
100
AcDbHatch
 10
0.0
 20
0.0
 30
0.0
210
0.0
220
0.0
230
1.0
  2
_USER
 70
     0
 71
     1
 91
        2
 92
        7
 72
     1
 73
     1
 93
       10
 10
134.0
 20
175.3570935210808
 42
-0.0761561417890935
 10
134.3669161163208
 20
177.7520946535892
 42
0.0
 10
137.2097623808315
 20
186.8125012274628
 42
0.0
 10
135.6376586043149
 20
186.8125012274629
 42
0.0
 10
132.9357128881309
 20
178.2011573659346
 42
0.0761561417890949
 10
132.5
 20
175.3570935210808
 42
0.0
 10
132.5
 20
106.8779926418251
 42
0.0
 10
132.0568269260554
 20
101.8125012274628
 42
0.0
 10
133.5625566823704
 20
101.8125012274628
 42
0.0
 10
133.9999999999999
 20
106.8125012274625
 42
0.0
 97
       10
330
DCE
330
DCF
330
CCA
330
DD0
330
DCD
330
AF2
330
AED
330
AF5
330
AEE
330
AF3
 92
        7
 72
     1
 73
     1
 93
       10
 10
92.50000000000005
 20
175.3570935210808
 42
0.0761561417890845
 10
92.06428711186907
 20
178.2011573659342
 42
0.0
 10
89.36234139568497
 20
186.8125012274628
 42
0.0
 10
87.79023761916844
 20
186.8125012274628
 42
0.0
 10
90.63308388367913
 20
177.7520946535892
 42
-0.0761561417890943
 10
90.99999999999992
 20
175.3570935210808
 42
0.0
 10
91.00000000000003
 20
106.8125012274625
 42
0.0
 10
91.43744331762965
 20
101.8125012274628
 42
0.0
 10
92.94317307394463
 20
101.8125012274628
 42
0.0
 10
92.49999999999998
 20
106.8779926418254
 42
0.0
 97
       10
330
DC1
330
DBE
330
CCA
330
DBF
330
DC0
330
AF4
330
AF0
330
AF5
330
AEF
330
AF1
 75
     0
 76
     0
 52
45.0
 41
2.0
 77
     0
 78
     1
 53
45.0
 43
0.0
 44
0.0
 45
-1.414213562373094
 46
1.414213562373095
 79
     0
 47
0.1570942285120696
 98
        2
 10
132.9319075082542
 20
150.3864793133142
 10
91.27935660840853
 20
154.6280231582414
  0
ENDSEC
  0
SECTION
  2
OBJECTS
  0
DICTIONARY
  5
C
330
0
100
AcDbDictionary
281
     1
  3
ACAD_COLOR
350
DF
  3
ACAD_GROUP
350
D
  3
ACAD_LAYOUT
350
19
  3
ACAD_MATERIAL
350
DE
  3
ACAD_MLINESTYLE
350
16
  3
ACAD_PLOTSETTINGS
350
18
  3
ACAD_PLOTSTYLENAME
350
E
  3
AcDbVariableDictionary
350
EA
  0
DICTIONARY
  5
A0
330
1E
100
AcDbDictionary
280
     1
281
     1
  3
ACAD_LAYOUTSELFREF
360
D4
  0
DICTIONARY
  5
A2
330
1A
100
AcDbDictionary
280
     1
281
     1
  3
ACAD_LAYOUTSELFREF
360
D3
  0
DICTIONARY
  5
DF
102
{ACAD_REACTORS
330
C
102
}
330
C
100
AcDbDictionary
281
     1
  0
DICTIONARY
  5
D
102
{ACAD_REACTORS
330
C
102
}
330
C
100
AcDbDictionary
281
     1
  0
DICTIONARY
  5
19
102
{ACAD_REACTORS
330
C
102
}
330
C
100
AcDbDictionary
281
     1
  3
Layout1
350
1D
  3
Model
350
21
  0
DICTIONARY
  5
DE
102
{ACAD_REACTORS
330
C
102
}
330
C
100
AcDbDictionary
281
     1
  0
DICTIONARY
  5
16
102
{ACAD_REACTORS
330
C
102
}
330
C
100
AcDbDictionary
281
     1
  3
Standard
350
17
  0
DICTIONARY
  5
18
102
{ACAD_REACTORS
330
C
102
}
330
C
100
AcDbDictionary
281
     1
  0
ACDBDICTIONARYWDFLT
  5
E
102
{ACAD_REACTORS
330
C
102
}
330
C
100
AcDbDictionary
281
     1
  3
Normal
350
F
100
AcDbDictionaryWithDefault
340
F
  0
DICTIONARY
  5
EA
102
{ACAD_REACTORS
330
C
102
}
330
C
100
AcDbDictionary
281
     1
  3
DIMASSOC
350
EB
  3
PROJECTNAME
350
EC
  0
XRECORD
  5
D4
102
{ACAD_REACTORS
330
A0
102
}
330
A0
100
AcDbXrecord
280
     1
340
1E
  0
XRECORD
  5
D3
102
{ACAD_REACTORS
330
A2
102
}
330
A2
100
AcDbXrecord
280
     1
340
1A
  0
LAYOUT
  5
1D
102
{ACAD_REACTORS
330
19
102
}
330
19
100
AcDbPlotSettings
  1

  2
\\NT_WORK01\HP LaserJet 5000 PCL 6
  4

  6

 40
0.0
 41
0.0
 42
0.0
 43
0.0
 44
0.0
 45
0.0
 46
0.0
 47
0.0
 48
0.0
 49
0.0
140
0.0
141
0.0
142
1.0
143
1.0
 70
   688
 72
     0
 73
     0
 74
     5
  7

 75
    16
147
1.0
 76
     0
 77
     2
 78
   300
148
0.0
149
0.0
100
AcDbLayout
  1
Layout1
 70
     0
 71
     1
 10
0.0
 20
0.0
 11
12.0
 21
9.0
 12
0.0
 22
0.0
 32
0.0
 14
1.000000000000000E+20
 24
1.000000000000000E+20
 34
1.000000000000000E+20
 15
-1.000000000000000E+20
 25
-1.000000000000000E+20
 35
-1.000000000000000E+20
146
0.0
 13
0.0
 23
0.0
 33
0.0
 16
1.0
 26
0.0
 36
0.0
 17
0.0
 27
1.0
 37
0.0
 76
     0
330
1A
  0
LAYOUT
  5
21
102
{ACAD_REACTORS
330
19
102
}
330
19
100
AcDbPlotSettings
  1

  2
\\NT_WORK01\HP LaserJet 5000 PCL 6
  4

  6

 40
0.0
 41
0.0
 42
0.0
 43
0.0
 44
0.0
 45
0.0
 46
0.0
 47
0.0
 48
0.0
 49
0.0
140
0.0
141
0.0
142
1.0
143
1.0
 70
  1712
 72
     0
 73
     0
 74
     0
  7

 75
     0
147
1.0
 76
     0
 77
     2
 78
   300
148
0.0
149
0.0
100
AcDbLayout
  1
Model
 70
     1
 71
     0
 10
0.0
 20
0.0
 11
12.0
 21
9.0
 12
0.0
 22
0.0
 32
0.0
 14
0.0
 24
0.0
 34
0.0
 15
0.0
 25
0.0
 35
0.0
146
0.0
 13
0.0
 23
0.0
 33
0.0
 16
1.0
 26
0.0
 36
0.0
 17
0.0
 27
1.0
 37
0.0
 76
     0
330
1E
  0
MLINESTYLE
  5
17
102
{ACAD_REACTORS
330
16
102
}
330
16
100
AcDbMlineStyle
  2
STANDARD
 70
     0
  3

 62
   256
 51
90.0
 52
90.0
 71
     2
 49
0.5
 62
   256
  6
BYLAYER
 49
-0.5
 62
   256
  6
BYLAYER
  0
ACDBPLACEHOLDER
  5
F
102
{ACAD_REACTORS
330
E
102
}
330
E
  0
DICTIONARYVAR
  5
EB
102
{ACAD_REACTORS
330
EA
102
}
330
EA
100
DictionaryVariables
280
     0
  1
1
  0
DICTIONARYVAR
  5
EC
102
{ACAD_REACTORS
330
EA
102
}
330
EA
100
DictionaryVariables
280
     0
  1

  0
ENDSEC
  0
EOF
