  0
SECTION
  2
HEADER
  9
$ACADVER
  1
AC1018
  9
$ACADMAINTVER
 70
     2
  9
$DWGCODEPAGE
  3
ANSI_1252
  9
$INSBASE
 10
0.0
 20
0.0
 30
0.0
  9
$EXTMIN
 10
-0.0000000000000568
 20
-0.0000000000000568
 30
0.0
  9
$EXTMAX
 10
210.0
 20
297.0000000000001
 30
0.0
  9
$LIMMIN
 10
0.0
 20
0.0
  9
$LIMMAX
 10
210.0
 20
297.0
  9
$ORTHOMODE
 70
     1
  9
$REGENMODE
 70
     1
  9
$FILLMODE
 70
     1
  9
$QTEXTMODE
 70
     0
  9
$MIRRTEXT
 70
     1
  9
$LTSCALE
 40
10.0
  9
$ATTMODE
 70
     1
  9
$TEXTSIZE
 40
3.5
  9
$TRACEWID
 40
0.5
  9
$TEXTSTYLE
  7
STANDARD
  9
$CLAYER
  8
BEM
  9
$CELTYPE
  6
ByLayer
  9
$CECOLOR
 62
   256
  9
$CELTSCALE
 40
1.0
  9
$DISPSILH
 70
     0
  9
$DIMSCALE
 40
1.0
  9
$DIMASZ
 40
3.5
  9
$DIMEXO
 40
1.0
  9
$DIMDLI
 40
7.0
  9
$DIMRND
 40
0.0
  9
$DIMDLE
 40
0.0
  9
$DIMEXE
 40
1.0
  9
$DIMTP
 40
0.0
  9
$DIMTM
 40
0.0
  9
$DIMTXT
 40
3.5
  9
$DIMCEN
 40
1.5
  9
$DIMTSZ
 40
0.0
  9
$DIMTOL
 70
     0
  9
$DIMLIM
 70
     0
  9
$DIMTIH
 70
     0
  9
$DIMTOH
 70
     0
  9
$DIMSE1
 70
     0
  9
$DIMSE2
 70
     0
  9
$DIMTAD
 70
     1
  9
$DIMZIN
 70
     8
  9
$DIMBLK
  1

  9
$DIMASO
 70
     1
  9
$DIMSHO
 70
     0
  9
$DIMPOST
  1

  9
$DIMAPOST
  1

  9
$DIMALT
 70
     0
  9
$DIMALTD
 70
     2
  9
$DIMALTF
 40
25.4
  9
$DIMLFAC
 40
1.0
  9
$DIMTOFL
 70
     1
  9
$DIMTVP
 40
0.0
  9
$DIMTIX
 70
     0
  9
$DIMSOXD
 70
     0
  9
$DIMSAH
 70
     0
  9
$DIMBLK1
  1

  9
$DIMBLK2
  1

  9
$DIMSTYLE
  2
Standard
  9
$DIMCLRD
 70
     0
  9
$DIMCLRE
 70
     0
  9
$DIMCLRT
 70
     1
  9
$DIMTFAC
 40
0.5
  9
$DIMGAP
 40
1.5
  9
$DIMJUST
 70
     0
  9
$DIMSD1
 70
     0
  9
$DIMSD2
 70
     0
  9
$DIMTOLJ
 70
     1
  9
$DIMTZIN
 70
     8
  9
$DIMALTZ
 70
     8
  9
$DIMALTTZ
 70
     8
  9
$DIMUPT
 70
     0
  9
$DIMDEC
 70
     2
  9
$DIMTDEC
 70
     2
  9
$DIMALTU
 70
     2
  9
$DIMALTTD
 70
     2
  9
$DIMTXSTY
  7
STANDARD
  9
$DIMAUNIT
 70
     0
  9
$DIMADEC
 70
     2
  9
$DIMALTRND
 40
0.0
  9
$DIMAZIN
 70
     2
  9
$DIMDSEP
 70
    46
  9
$DIMATFIT
 70
     3
  9
$DIMFRAC
 70
     0
  9
$DIMLDRBLK
  1

  9
$DIMLUNIT
 70
     2
  9
$DIMLWD
 70
    -2
  9
$DIMLWE
 70
    -2
  9
$DIMTMOVE
 70
     0
  9
$LUNITS
 70
     2
  9
$LUPREC
 70
     2
  9
$SKETCHINC
 40
1.0
  9
$FILLETRAD
 40
0.0
  9
$AUNITS
 70
     0
  9
$AUPREC
 70
     0
  9
$MENU
  1
ACAD
  9
$ELEVATION
 40
0.0
  9
$PELEVATION
 40
0.0
  9
$THICKNESS
 40
0.0
  9
$LIMCHECK
 70
     0
  9
$CHAMFERA
 40
0.0
  9
$CHAMFERB
 40
0.0
  9
$CHAMFERC
 40
0.0
  9
$CHAMFERD
 40
0.0
  9
$SKPOLY
 70
     0
  9
$TDCREATE
 40
2455397.864709028
  9
$TDUCREATE
 40
2455397.781375695
  9
$TDUPDATE
 40
2455812.605192743
  9
$TDUUPDATE
 40
2455812.521859410
  9
$TDINDWG
 40
0.0457191319
  9
$TDUSRTIMER
 40
0.0457191319
  9
$USRTIMER
 70
     1
  9
$ANGBASE
 50
0.0
  9
$ANGDIR
 70
     0
  9
$PDMODE
 70
     0
  9
$PDSIZE
 40
0.0
  9
$PLINEWID
 40
0.0
  9
$SPLFRAME
 70
     0
  9
$SPLINETYPE
 70
     6
  9
$SPLINESEGS
 70
     8
  9
$HANDSEED
  5
838
  9
$SURFTAB1
 70
     6
  9
$SURFTAB2
 70
     6
  9
$SURFTYPE
 70
     6
  9
$SURFU
 70
     6
  9
$SURFV
 70
     6
  9
$UCSBASE
  2

  9
$UCSNAME
  2

  9
$UCSORG
 10
0.0
 20
0.0
 30
0.0
  9
$UCSXDIR
 10
1.0
 20
0.0
 30
0.0
  9
$UCSYDIR
 10
0.0
 20
1.0
 30
0.0
  9
$UCSORTHOREF
  2

  9
$UCSORTHOVIEW
 70
     0
  9
$UCSORGTOP
 10
0.0
 20
0.0
 30
0.0
  9
$UCSORGBOTTOM
 10
0.0
 20
0.0
 30
0.0
  9
$UCSORGLEFT
 10
0.0
 20
0.0
 30
0.0
  9
$UCSORGRIGHT
 10
0.0
 20
0.0
 30
0.0
  9
$UCSORGFRONT
 10
0.0
 20
0.0
 30
0.0
  9
$UCSORGBACK
 10
0.0
 20
0.0
 30
0.0
  9
$PUCSBASE
  2

  9
$PUCSNAME
  2

  9
$PUCSORG
 10
0.0
 20
0.0
 30
0.0
  9
$PUCSXDIR
 10
1.0
 20
0.0
 30
0.0
  9
$PUCSYDIR
 10
0.0
 20
1.0
 30
0.0
  9
$PUCSORTHOREF
  2

  9
$PUCSORTHOVIEW
 70
     0
  9
$PUCSORGTOP
 10
0.0
 20
0.0
 30
0.0
  9
$PUCSORGBOTTOM
 10
0.0
 20
0.0
 30
0.0
  9
$PUCSORGLEFT
 10
0.0
 20
0.0
 30
0.0
  9
$PUCSORGRIGHT
 10
0.0
 20
0.0
 30
0.0
  9
$PUCSORGFRONT
 10
0.0
 20
0.0
 30
0.0
  9
$PUCSORGBACK
 10
0.0
 20
0.0
 30
0.0
  9
$USERI1
 70
     0
  9
$USERI2
 70
     0
  9
$USERI3
 70
     0
  9
$USERI4
 70
     0
  9
$USERI5
 70
     0
  9
$USERR1
 40
0.0
  9
$USERR2
 40
0.0
  9
$USERR3
 40
0.0
  9
$USERR4
 40
0.0
  9
$USERR5
 40
0.0
  9
$WORLDVIEW
 70
     1
  9
$SHADEDGE
 70
     3
  9
$SHADEDIF
 70
    70
  9
$TILEMODE
 70
     1
  9
$MAXACTVP
 70
    16
  9
$PINSBASE
 10
0.0
 20
0.0
 30
0.0
  9
$PLIMCHECK
 70
     0
  9
$PEXTMIN
 10
1.000000000000000E+20
 20
1.000000000000000E+20
 30
1.000000000000000E+20
  9
$PEXTMAX
 10
-1.000000000000000E+20
 20
-1.000000000000000E+20
 30
-1.000000000000000E+20
  9
$PLIMMIN
 10
0.0
 20
0.0
  9
$PLIMMAX
 10
12.0
 20
9.0
  9
$UNITMODE
 70
     0
  9
$VISRETAIN
 70
     0
  9
$PLINEGEN
 70
     0
  9
$PSLTSCALE
 70
     0
  9
$TREEDEPTH
 70
  3020
  9
$CMLSTYLE
  2
Standard
  9
$CMLJUST
 70
     0
  9
$CMLSCALE
 40
1.0
  9
$PROXYGRAPHICS
 70
     1
  9
$MEASUREMENT
 70
     0
  9
$CELWEIGHT
370
    -1
  9
$ENDCAPS
280
     0
  9
$JOINSTYLE
280
     0
  9
$LWDISPLAY
290
     0
  9
$INSUNITS
 70
     0
  9
$HYPERLINKBASE
  1

  9
$STYLESHEET
  1

  9
$XEDIT
290
     1
  9
$CEPSNTYPE
380
     0
  9
$PSTYLEMODE
290
     1
  9
$FINGERPRINTGUID
  2
{D68B0D02-A558-11D7-B632-000102183313}
  9
$VERSIONGUID
  2
{ABE0B8C1-483F-4A1B-9D08-E5603037E8B7}
  9
$EXTNAMES
290
     1
  9
$PSVPSCALE
 40
0.0
  9
$OLESTARTUP
290
     0
  9
$SORTENTS
280
   127
  9
$INDEXCTL
280
     0
  9
$HIDETEXT
280
     0
  9
$XCLIPFRAME
290
     0
  9
$HALOGAP
280
     0
  9
$OBSCOLOR
 70
   257
  9
$OBSLTYPE
280
     0
  9
$INTERSECTIONDISPLAY
280
     0
  9
$INTERSECTIONCOLOR
 70
   257
  9
$DIMASSOC
280
     1
  9
$PROJECTNAME
  1

  0
ENDSEC
  0
SECTION
  2
CLASSES
  0
CLASS
  1
ACDBDICTIONARYWDFLT
  2
AcDbDictionaryWithDefault
  3
ObjectDBX Classes
 90
        0
 91
        1
280
     0
281
     0
  0
CLASS
  1
DICTIONARYVAR
  2
AcDbDictionaryVar
  3
ObjectDBX Classes
 90
        0
 91
        2
280
     0
281
     0
  0
ENDSEC
  0
SECTION
  2
TABLES
  0
TABLE
  2
VPORT
  5
8
330
0
100
AcDbSymbolTable
 70
     2
  0
VPORT
  5
837
330
8
100
AcDbSymbolTableRecord
100
AcDbViewportTableRecord
  2
*Active
 70
     0
 10
0.0
 20
0.0
 11
1.0
 21
1.0
 12
105.0
 22
148.5
 13
0.0
 23
0.0
 14
1.0
 24
1.0
 15
10.0
 25
10.0
 16
0.0
 26
0.0
 36
1.0
 17
0.0
 27
0.0
 37
0.0
 40
297.1607561374938
 41
1.339622641509433
 42
50.0
 43
0.0
 44
0.0
 50
0.0
 51
0.0
 71
     0
 72
  1500
 73
     1
 74
     0
 75
     0
 76
     0
 77
     0
 78
     0
281
     0
 65
     1
110
0.0
120
0.0
130
0.0
111
1.0
121
0.0
131
0.0
112
0.0
122
1.0
132
0.0
 79
     0
146
0.0
  0
ENDTAB
  0
TABLE
  2
LTYPE
  5
5
330
0
100
AcDbSymbolTable
 70
     2
  0
LTYPE
  5
13
330
5
100
AcDbSymbolTableRecord
100
AcDbLinetypeTableRecord
  2
ByBlock
 70
     0
  3

 72
    65
 73
     0
 40
0.0
  0
LTYPE
  5
14
330
5
100
AcDbSymbolTableRecord
100
AcDbLinetypeTableRecord
  2
ByLayer
 70
     0
  3

 72
    65
 73
     0
 40
0.0
  0
LTYPE
  5
15
330
5
100
AcDbSymbolTableRecord
100
AcDbLinetypeTableRecord
  2
Continuous
 70
     0
  3
Solid line
 72
    65
 73
     0
 40
0.0
  0
LTYPE
  5
25
330
5
100
AcDbSymbolTableRecord
100
AcDbLinetypeTableRecord
  2
STRICHPUNKT
 70
     0
  3
__ . __ . __ . __ . __ . __ . __ . __ . __ . __
 72
    65
 73
     4
 40
1.0
 49
0.5
 74
     0
 49
-0.25
 74
     0
 49
0.0
 74
     0
 49
-0.25
 74
     0
  0
ENDTAB
  0
TABLE
  2
LAYER
  5
2
330
0
100
AcDbSymbolTable
 70
     9
  0
LAYER
  5
10
330
2
100
AcDbSymbolTableRecord
100
AcDbLayerTableRecord
  2
0
 70
     0
 62
     7
  6
Continuous
370
    -3
390
F
  0
LAYER
  5
2A
330
2
100
AcDbSymbolTableRecord
100
AcDbLayerTableRecord
  2
VOLL
 70
     0
 62
     1
  6
Continuous
370
    -3
390
F
  0
LAYER
  5
2B
330
2
100
AcDbSymbolTableRecord
100
AcDbLayerTableRecord
  2
HILF
 70
     0
 62
     2
  6
Continuous
370
    -3
390
F
  0
LAYER
  5
2C
330
2
100
AcDbSymbolTableRecord
100
AcDbLayerTableRecord
  2
MITTEL
 70
     0
 62
     2
  6
STRICHPUNKT
370
    -3
390
F
  0
LAYER
  5
2F
330
2
100
AcDbSymbolTableRecord
100
AcDbLayerTableRecord
  2
BEM
 70
     0
 62
     7
  6
Continuous
370
    -3
390
F
  0
LAYER
  5
30
330
2
100
AcDbSymbolTableRecord
100
AcDbLayerTableRecord
  2
STEMPEL
 70
     0
 62
     3
  6
Continuous
370
    -3
390
F
  0
LAYER
  5
31
330
2
100
AcDbSymbolTableRecord
100
AcDbLayerTableRecord
  2
TEXT
 70
     0
 62
     7
  6
Continuous
370
    -3
390
F
  0
LAYER
  5
1E5
330
2
100
AcDbSymbolTableRecord
100
AcDbLayerTableRecord
  2
Defpoints
 70
     0
 62
     7
  6
Continuous
290
     0
370
    -3
390
F
  0
LAYER
  5
242
330
2
100
AcDbSymbolTableRecord
100
AcDbLayerTableRecord
  2
SCHRAFF
 70
     0
 62
     7
  6
Continuous
370
    -3
390
F
  0
ENDTAB
  0
TABLE
  2
STYLE
  5
3
330
0
100
AcDbSymbolTable
 70
     2
  0
STYLE
  5
11
330
3
100
AcDbSymbolTableRecord
100
AcDbTextStyleTableRecord
  2
STANDARD
 70
     0
 40
0.0
 41
0.8
 50
0.0
 71
     0
 42
3.5
  3
simplex.shx
  4

  0
STYLE
  5
24
330
3
100
AcDbSymbolTableRecord
100
AcDbTextStyleTableRecord
  2
GREEKS
 70
     0
 40
0.0
 41
0.8
 50
0.0
 71
     0
 42
2.5
  3
SIMPLEX.shx
  4

  0
ENDTAB
  0
TABLE
  2
VIEW
  5
6
330
0
100
AcDbSymbolTable
 70
     0
  0
ENDTAB
  0
TABLE
  2
UCS
  5
7
330
0
100
AcDbSymbolTable
 70
     0
  0
ENDTAB
  0
TABLE
  2
APPID
  5
9
330
0
100
AcDbSymbolTable
 70
     1
  0
APPID
  5
12
330
9
100
AcDbSymbolTableRecord
100
AcDbRegAppTableRecord
  2
ACAD
 70
     0
  0
ENDTAB
  0
TABLE
  2
DIMSTYLE
  5
A
330
0
100
AcDbSymbolTable
 70
     1
100
AcDbDimStyleTable
 71
     1
340
9D
  0
DIMSTYLE
105
9D
102
{ACAD_REACTORS
330
774
330
79B
330
7DA
330
7F5
102
}
330
A
100
AcDbSymbolTableRecord
100
AcDbDimStyleTableRecord
  2
Standard
 70
     0
340
11
  0
ENDTAB
  0
TABLE
  2
BLOCK_RECORD
  5
1
330
0
100
AcDbSymbolTable
 70
     5
  0
BLOCK_RECORD
  5
1E
102
{ACAD_XDICTIONARY
360
A0
102
}
330
1
100
AcDbSymbolTableRecord
100
AcDbBlockTableRecord
  2
*Model_Space
340
21
  0
BLOCK_RECORD
  5
1A
102
{ACAD_XDICTIONARY
360
A2
102
}
330
1
100
AcDbSymbolTableRecord
100
AcDbBlockTableRecord
  2
*Paper_Space
340
1D
  0
BLOCK_RECORD
  5
22
330
1
100
AcDbSymbolTableRecord
100
AcDbBlockTableRecord
  2
LOGO
340
0
102
{BLKREFS
331
9B
102
}
  0
BLOCK_RECORD
  5
775
330
1
100
AcDbSymbolTableRecord
100
AcDbBlockTableRecord
  2
*D1
340
0
  0
BLOCK_RECORD
  5
79C
330
1
100
AcDbSymbolTableRecord
100
AcDbBlockTableRecord
  2
*D2
340
0
  0
BLOCK_RECORD
  5
7DB
330
1
100
AcDbSymbolTableRecord
100
AcDbBlockTableRecord
  2
*D3
340
0
  0
BLOCK_RECORD
  5
7F6
330
1
100
AcDbSymbolTableRecord
100
AcDbBlockTableRecord
  2
*D4
340
0
  0
ENDTAB
  0
ENDSEC
  0
SECTION
  2
BLOCKS
  0
BLOCK
  5
35
330
1E
100
AcDbEntity
  8
0
100
AcDbBlockBegin
  2
*Model_Space
 70
     0
 10
0.0
 20
0.0
 30
0.0
  3
*Model_Space
  1

  0
ENDBLK
  5
36
330
1E
100
AcDbEntity
  8
0
100
AcDbBlockEnd
  0
BLOCK
  5
33
330
1A
100
AcDbEntity
 67
     1
  8
0
100
AcDbBlockBegin
  2
*Paper_Space
 70
     0
 10
0.0
 20
0.0
 30
0.0
  3
*Paper_Space
  1

  0
ENDBLK
  5
34
330
1A
100
AcDbEntity
 67
     1
  8
0
100
AcDbBlockEnd
  0
BLOCK
  5
37
330
22
100
AcDbEntity
  8
0
100
AcDbBlockBegin
  2
LOGO
 70
     0
 10
0.0
 20
0.0
 30
0.0
  3
LOGO
  1

  0
ARC
  5
38
330
22
100
AcDbEntity
  8
0
100
AcDbCircle
 10
11.59973089678112
 20
-9.271599258481501
 30
0.0
 40
4.5
100
AcDbArc
 50
270.0
 51
231.0575587310159
  0
LINE
  5
39
330
22
100
AcDbEntity
  8
0
100
AcDbLine
 10
3.599730896781125
 20
-4.771599258481529
 30
0.0
 11
3.599730896781153
 21
-11.77159925848133
 31
0.0
  0
LINE
  5
3A
330
22
100
AcDbEntity
  8
0
100
AcDbLine
 10
2.599730896781125
 20
-4.771599258481529
 30
0.0
 11
2.599730896781153
 21
-11.77159925848133
 31
0.0
  0
CIRCLE
  5
3B
330
22
100
AcDbEntity
  8
0
100
AcDbCircle
 10
11.59973089678112
 20
-9.271599258481501
 30
0.0
 40
3.5
  0
ARC
  5
3C
330
22
100
AcDbEntity
  8
0
100
AcDbCircle
 10
31.59973089678115
 20
-9.271599258481472
 30
0.0
 40
4.5
100
AcDbArc
 50
270.0
 51
231.0575587310182
  0
LINE
  5
3D
330
22
100
AcDbEntity
  8
0
100
AcDbLine
 10
17.59973089678112
 20
-4.771599258481472
 30
0.0
 11
17.59973089678115
 21
-13.77159925848147
 31
0.0
  0
ARC
  5
3E
330
22
100
AcDbEntity
  8
0
100
AcDbCircle
 10
22.59973089678116
 20
-7.271599258481472
 30
0.0
 40
2.5
100
AcDbArc
 50
293.1161887722295
 51
90.0
  0
CIRCLE
  5
3F
330
22
100
AcDbEntity
  8
0
100
AcDbCircle
 10
31.59973089678115
 20
-9.271599258481472
 30
0.0
 40
3.5
  0
ARC
  5
40
330
22
100
AcDbEntity
  8
0
100
AcDbCircle
 10
4.599730896781153
 20
-11.77159925848133
 30
0.0
 40
1.0
100
AcDbArc
 50
180.0
 51
270.0
  0
ARC
  5
41
330
22
100
AcDbEntity
  8
0
100
AcDbCircle
 10
4.599730896781153
 20
-11.77159925848133
 30
0.0
 40
2.0
100
AcDbArc
 50
179.9999999999992
 51
270.0
  0
LINE
  5
42
330
22
100
AcDbEntity
  8
0
100
AcDbLine
 10
11.59973089678115
 20
-13.77159925848144
 30
0.0
 11
4.599730896781153
 21
-13.77159925848147
 31
0.0
  0
LINE
  5
43
330
22
100
AcDbEntity
  8
0
100
AcDbLine
 10
8.771303772034769
 20
-12.77159925848136
 30
0.0
 11
4.599730896781153
 21
-12.77159925848133
 31
0.0
  0
LINE
  5
44
330
22
100
AcDbEntity
  8
0
100
AcDbLine
 10
31.59973089678115
 20
-13.77159925848147
 30
0.0
 11
23.6715276665056
 21
-13.77159925848144
 31
0.0
  0
LINE
  5
45
330
22
100
AcDbEntity
  8
0
100
AcDbLine
 10
23.56565672307022
 20
-9.51278021337896
 30
0.0
 11
24.4388546544846
 21
-12.77159925848144
 31
0.0
  0
LINE
  5
46
330
22
100
AcDbEntity
  8
0
100
AcDbLine
 10
22.59973089678116
 20
-9.771599258481472
 30
0.0
 11
18.59973089678112
 21
-9.771599258481472
 31
0.0
  0
LINE
  5
47
330
22
100
AcDbEntity
  8
0
100
AcDbLine
 10
18.59973089678115
 20
-13.77159925848144
 30
0.0
 11
17.59973089678115
 21
-13.77159925848144
 31
0.0
  0
LINE
  5
48
330
22
100
AcDbEntity
  8
0
100
AcDbLine
 10
18.59973089678115
 20
-9.771599258481472
 30
0.0
 11
18.59973089678115
 21
-13.77159925848144
 31
0.0
  0
LINE
  5
49
330
22
100
AcDbEntity
  8
0
100
AcDbLine
 10
22.59973089678116
 20
-9.771599258481472
 30
0.0
 11
23.67152766650562
 21
-13.77159925848147
 31
0.0
  0
ARC
  5
4A
330
22
100
AcDbEntity
  8
0
100
AcDbCircle
 10
22.59973089678116
 20
-7.271599258481472
 30
0.0
 40
2.5
100
AcDbArc
 50
270.0
 51
270.0000000000007
  0
LINE
  5
4B
330
22
100
AcDbEntity
  8
0
100
AcDbLine
 10
28.77130377203494
 20
-12.77159925848147
 30
0.0
 11
24.43885465448463
 21
-12.77159925848144
 31
0.0
  0
LINE
  5
4C
330
22
100
AcDbEntity
  8
0
100
AcDbLine
 10
3.599730896781125
 20
-4.771599258481472
 30
0.0
 11
2.599730896781125
 21
-4.771599258481472
 31
0.0
  0
LINE
  5
4D
330
22
100
AcDbEntity
  8
0
100
AcDbLine
 10
22.59973089678116
 20
-8.771599258481472
 30
0.0
 11
18.59973089678115
 21
-8.771599258481472
 31
0.0
  0
LINE
  5
4E
330
22
100
AcDbEntity
  8
0
100
AcDbLine
 10
22.59973089678116
 20
-5.771599258481472
 30
0.0
 11
18.59973089678115
 21
-5.771599258481472
 31
0.0
  0
LINE
  5
4F
330
22
100
AcDbEntity
  8
0
100
AcDbLine
 10
22.59973089678116
 20
-4.771599258481472
 30
0.0
 11
17.59973089678115
 21
-4.771599258481472
 31
0.0
  0
LINE
  5
50
330
22
100
AcDbEntity
  8
0
100
AcDbLine
 10
18.59973089678115
 20
-5.771599258481472
 30
0.0
 11
18.59973089678115
 21
-8.771599258481472
 31
0.0
  0
ARC
  5
51
330
22
100
AcDbEntity
  8
0
100
AcDbCircle
 10
22.59973089678116
 20
-7.271599258481472
 30
0.0
 40
1.5
100
AcDbArc
 50
270.0
 51
90.0
  0
ENDBLK
  5
52
330
22
100
AcDbEntity
  8
0
100
AcDbBlockEnd
  0
BLOCK
  5
77F
330
775
100
AcDbEntity
  8
0
100
AcDbBlockBegin
  2
*D1
 70
     1
 10
0.0
 20
0.0
 30
0.0
  3
*D1
  1

  0
LINE
  5
7C3
330
775
100
AcDbEntity
  8
BEM
 62
     0
370
    -2
100
AcDbLine
 10
91.10669088836639
 20
121.5250738795245
 30
0.0
 11
78.46571446564211
 21
121.5250738795245
 31
0.0
  0
LINE
  5
7C4
330
775
100
AcDbEntity
  8
BEM
 62
     0
370
    -2
100
AcDbLine
 10
90.19443613409388
 20
196.5250738795245
 30
0.0
 11
78.46571446564212
 21
196.5250738795245
 31
0.0
  0
LINE
  5
7C5
330
775
100
AcDbEntity
  8
BEM
 62
     0
370
    -2
100
AcDbLine
 10
79.4657144656421
 20
125.0250738795245
 30
0.0
 11
79.46571446564212
 21
193.0250738795244
 31
0.0
  0
SOLID
  5
7C6
330
775
100
AcDbEntity
  8
BEM
 62
     0
100
AcDbTrace
 10
78.88238113230878
 20
125.0250738795245
 30
0.0
 11
80.04904779897543
 21
125.0250738795245
 31
0.0
 12
79.4657144656421
 22
121.5250738795245
 32
0.0
 13
79.4657144656421
 23
121.5250738795245
 33
0.0
  0
SOLID
  5
7C7
330
775
100
AcDbEntity
  8
BEM
 62
     0
100
AcDbTrace
 10
78.8823811323088
 20
193.0250738795244
 30
0.0
 11
80.04904779897545
 21
193.0250738795244
 31
0.0
 12
79.46571446564212
 22
196.5250738795245
 32
0.0
 13
79.46571446564212
 23
196.5250738795245
 33
0.0
  0
MTEXT
  5
7C8
330
775
100
AcDbEntity
  8
BEM
 62
     1
100
AcDbMText
 10
76.21571446564209
 20
159.0250738795245
 30
0.0
 40
3.5
 41
0.0
 71
     5
 72
     1
  1
\A1;75
 11
0.0000000000000001
 21
1.0
 31
0.0
 73
     1
 44
1.0
  0
POINT
  5
7C9
330
775
100
AcDbEntity
  8
Defpoints
 62
     0
100
AcDbPoint
 10
92.10669088836638
 20
121.5250738795245
 30
0.0
  0
POINT
  5
7CA
330
775
100
AcDbEntity
  8
Defpoints
 62
     0
100
AcDbPoint
 10
91.19443613409387
 20
196.5250738795245
 30
0.0
  0
POINT
  5
7CB
330
775
100
AcDbEntity
  8
Defpoints
 62
     0
100
AcDbPoint
 10
79.46571446564212
 20
196.5250738795245
 30
0.0
  0
ENDBLK
  5
780
330
775
100
AcDbEntity
  8
0
100
AcDbBlockEnd
  0
BLOCK
  5
7A6
330
79C
100
AcDbEntity
  8
0
100
AcDbBlockBegin
  2
*D2
 70
     1
 10
0.0
 20
0.0
 30
0.0
  3
*D2
  1

  0
LINE
  5
82A
330
79C
100
AcDbEntity
  8
BEM
 62
     0
370
    -2
100
AcDbLine
 10
81.89295515080871
 20
253.5250738795246
 30
0.0
 11
69.17996242970222
 21
253.5250738795246
 31
0.0
  0
LINE
  5
82B
330
79C
100
AcDbEntity
  8
BEM
 62
     0
370
    -2
100
AcDbLine
 10
91.10669088836639
 20
121.5250738795245
 30
0.0
 11
69.17996242970218
 21
121.5250738795245
 31
0.0
  0
LINE
  5
82C
330
79C
100
AcDbEntity
  8
BEM
 62
     0
370
    -2
100
AcDbLine
 10
70.17996242970221
 20
250.0250738795246
 30
0.0
 11
70.17996242970219
 21
125.0250738795245
 31
0.0
  0
SOLID
  5
82D
330
79C
100
AcDbEntity
  8
BEM
 62
     0
100
AcDbTrace
 10
69.59662909636889
 20
250.0250738795246
 30
0.0
 11
70.76329576303554
 21
250.0250738795246
 31
0.0
 12
70.17996242970221
 22
253.5250738795246
 32
0.0
 13
70.17996242970221
 23
253.5250738795246
 33
0.0
  0
SOLID
  5
82E
330
79C
100
AcDbEntity
  8
BEM
 62
     0
100
AcDbTrace
 10
69.59662909636886
 20
125.0250738795245
 30
0.0
 11
70.76329576303551
 21
125.0250738795245
 31
0.0
 12
70.17996242970219
 22
121.5250738795245
 32
0.0
 13
70.17996242970219
 23
121.5250738795245
 33
0.0
  0
MTEXT
  5
82F
330
79C
100
AcDbEntity
  8
BEM
 62
     1
100
AcDbMText
 10
66.92996242970217
 20
187.5250738795245
 30
0.0
 40
3.5
 41
0.0
 71
     5
 72
     1
  1
\A1;132
 11
0.0000000000000001
 21
1.0
 31
0.0
 73
     1
 44
1.0
  0
POINT
  5
830
330
79C
100
AcDbEntity
  8
Defpoints
 62
     0
100
AcDbPoint
 10
82.89295515080871
 20
253.5250738795246
 30
0.0
  0
POINT
  5
831
330
79C
100
AcDbEntity
  8
Defpoints
 62
     0
100
AcDbPoint
 10
92.10669088836638
 20
121.5250738795245
 30
0.0
  0
POINT
  5
832
330
79C
100
AcDbEntity
  8
Defpoints
 62
     0
100
AcDbPoint
 10
70.17996242970219
 20
121.5250738795245
 30
0.0
  0
ENDBLK
  5
7A7
330
79C
100
AcDbEntity
  8
0
100
AcDbBlockEnd
  0
BLOCK
  5
7E5
330
7DB
100
AcDbEntity
  8
0
100
AcDbBlockBegin
  2
*D3
 70
     1
 10
0.0
 20
0.0
 30
0.0
  3
*D3
  1

  0
LINE
  5
802
330
7DB
100
AcDbEntity
  8
BEM
 62
     0
370
    -2
100
AcDbLine
 10
85.99999999999992
 20
204.5250738795246
 30
0.0
 11
85.99999999999992
 21
186.6201175613733
 31
0.0
  0
LINE
  5
803
330
7DB
100
AcDbEntity
  8
BEM
 62
     0
370
    -2
100
AcDbLine
 10
138.9999999999999
 20
204.5250738795244
 30
0.0
 11
138.9999999999999
 21
186.6201175613733
 31
0.0
  0
LINE
  5
804
330
7DB
100
AcDbEntity
  8
BEM
 62
     0
370
    -2
100
AcDbLine
 10
89.49999999999992
 20
187.6201175613734
 30
0.0
 11
135.4999999999999
 21
187.6201175613734
 31
0.0
  0
SOLID
  5
805
330
7DB
100
AcDbEntity
  8
BEM
 62
     0
100
AcDbTrace
 10
89.49999999999992
 20
188.2034508947067
 30
0.0
 11
89.49999999999992
 21
187.03678422804
 31
0.0
 12
85.99999999999992
 22
187.6201175613734
 32
0.0
 13
85.99999999999992
 23
187.6201175613734
 33
0.0
  0
SOLID
  5
806
330
7DB
100
AcDbEntity
  8
BEM
 62
     0
100
AcDbTrace
 10
135.4999999999999
 20
188.2034508947067
 30
0.0
 11
135.4999999999999
 21
187.03678422804
 31
0.0
 12
138.9999999999999
 22
187.6201175613734
 32
0.0
 13
138.9999999999999
 23
187.6201175613734
 33
0.0
  0
MTEXT
  5
807
330
7DB
100
AcDbEntity
  8
BEM
 62
     1
100
AcDbMText
 10
112.4999999999999
 20
190.8701175613733
 30
0.0
 40
3.5
 41
0.0
 71
     5
 72
     1
  1
\A1;%%c53
 73
     1
 44
1.0
  0
POINT
  5
808
330
7DB
100
AcDbEntity
  8
Defpoints
 62
     0
100
AcDbPoint
 10
85.99999999999992
 20
205.5250738795245
 30
0.0
  0
POINT
  5
809
330
7DB
100
AcDbEntity
  8
Defpoints
 62
     0
100
AcDbPoint
 10
138.9999999999999
 20
205.5250738795244
 30
0.0
  0
POINT
  5
80A
330
7DB
100
AcDbEntity
  8
Defpoints
 62
     0
100
AcDbPoint
 10
138.9999999999999
 20
187.6201175613734
 30
0.0
  0
ENDBLK
  5
7E6
330
7DB
100
AcDbEntity
  8
0
100
AcDbBlockEnd
  0
BLOCK
  5
800
330
7F6
100
AcDbEntity
  8
0
100
AcDbBlockBegin
  2
*D4
 70
     1
 10
0.0
 20
0.0
 30
0.0
  3
*D4
  1

  0
LINE
  5
80B
330
7F6
100
AcDbEntity
  8
BEM
 62
     0
370
    -2
100
AcDbLine
 10
91.49999999999996
 20
127.4595824651616
 30
0.0
 11
91.49999999999996
 21
107.7819943813596
 31
0.0
  0
LINE
  5
80C
330
7F6
100
AcDbEntity
  8
BEM
 62
     0
370
    -2
100
AcDbLine
 10
133.4999999999999
 20
127.4595824651621
 30
0.0
 11
133.4999999999999
 21
107.7819943813596
 31
0.0
  0
LINE
  5
80D
330
7F6
100
AcDbEntity
  8
BEM
 62
     0
370
    -2
100
AcDbLine
 10
94.99999999999998
 20
108.7819943813596
 30
0.0
 11
130.0
 21
108.7819943813596
 31
0.0
  0
SOLID
  5
80E
330
7F6
100
AcDbEntity
  8
BEM
 62
     0
100
AcDbTrace
 10
94.99999999999998
 20
109.3653277146929
 30
0.0
 11
94.99999999999998
 21
108.1986610480262
 31
0.0
 12
91.49999999999996
 22
108.7819943813596
 32
0.0
 13
91.49999999999996
 23
108.7819943813596
 33
0.0
  0
SOLID
  5
80F
330
7F6
100
AcDbEntity
  8
BEM
 62
     0
100
AcDbTrace
 10
130.0
 20
109.3653277146929
 30
0.0
 11
130.0
 21
108.1986610480262
 31
0.0
 12
133.4999999999999
 22
108.7819943813596
 32
0.0
 13
133.4999999999999
 23
108.7819943813596
 33
0.0
  0
MTEXT
  5
810
330
7F6
100
AcDbEntity
  8
BEM
 62
     1
100
AcDbMText
 10
112.5
 20
112.0319943813596
 30
0.0
 40
3.5
 41
0.0
 71
     5
 72
     1
  1
\A1;%%c42
 73
     1
 44
1.0
  0
POINT
  5
811
330
7F6
100
AcDbEntity
  8
Defpoints
 62
     0
100
AcDbPoint
 10
91.49999999999996
 20
128.4595824651616
 30
0.0
  0
POINT
  5
812
330
7F6
100
AcDbEntity
  8
Defpoints
 62
     0
100
AcDbPoint
 10
133.4999999999999
 20
128.4595824651621
 30
0.0
  0
POINT
  5
813
330
7F6
100
AcDbEntity
  8
Defpoints
 62
     0
100
AcDbPoint
 10
133.4999999999999
 20
108.7819943813596
 30
0.0
  0
ENDBLK
  5
801
330
7F6
100
AcDbEntity
  8
0
100
AcDbBlockEnd
  0
ENDSEC
  0
SECTION
  2
ENTITIES
  0
LINE
  5
57
330
1E
100
AcDbEntity
  8
STEMPEL
100
AcDbLine
 10
205.0
 20
55.00000000000003
 30
0.0
 11
19.99999999999998
 21
55.0
 31
0.0
  0
LINE
  5
58
330
1E
100
AcDbEntity
  8
STEMPEL
100
AcDbLine
 10
68.00000000000006
 20
54.99999999999997
 30
0.0
 11
68.0
 21
4.999999999999985
 31
0.0
  0
LINE
  5
59
330
1E
100
AcDbEntity
  8
STEMPEL
100
AcDbLine
 10
110.0
 20
55.00000000000003
 30
0.0
 11
110.0
 21
4.999999999999985
 31
0.0
  0
LINE
  5
5A
330
1E
100
AcDbEntity
  8
STEMPEL
100
AcDbLine
 10
166.0
 20
54.99999999999989
 30
0.0
 11
166.0
 21
20.0
 31
0.0
  0
LINE
  5
5B
330
1E
100
AcDbEntity
  8
STEMPEL
100
AcDbLine
 10
67.99999999999994
 20
14.99999999999998
 30
0.0
 11
19.99999999999998
 21
14.99999999999998
 31
0.0
  0
LINE
  5
5C
330
1E
100
AcDbEntity
  8
STEMPEL
100
AcDbLine
 10
205.0
 20
20.0
 30
0.0
 11
68.00000000000006
 21
19.99999999999998
 31
0.0
  0
LINE
  5
5D
330
1E
100
AcDbEntity
  8
STEMPEL
100
AcDbLine
 10
205.0
 20
40.0
 30
0.0
 11
68.00000000000006
 21
39.99999999999997
 31
0.0
  0
LINE
  5
5E
330
1E
100
AcDbEntity
  8
VOLL
100
AcDbLine
 10
27.00000000000005
 20
55.00000000000003
 30
0.0
 11
26.99999999999999
 21
4.999999999999985
 31
0.0
  0
LINE
  5
5F
330
1E
100
AcDbEntity
  8
VOLL
100
AcDbLine
 10
47.00000000000005
 20
54.99999999999997
 30
0.0
 11
47.0
 21
4.999999999999985
 31
0.0
  0
LINE
  5
60
330
1E
100
AcDbEntity
  8
VOLL
100
AcDbLine
 10
57.00000000000006
 20
54.99999999999997
 30
0.0
 11
57.0
 21
4.999999999999985
 31
0.0
  0
LINE
  5
61
330
1E
100
AcDbEntity
  8
VOLL
100
AcDbLine
 10
77.00000000000006
 20
39.99999999999997
 30
0.0
 11
77.00000000000006
 21
19.99999999999998
 31
0.0
  0
LINE
  5
62
330
1E
100
AcDbEntity
  8
VOLL
100
AcDbLine
 10
90.00000000000005
 20
54.99999999999992
 30
0.0
 11
90.0
 21
19.99999999999998
 31
0.0
  0
LINE
  5
63
330
1E
100
AcDbEntity
  8
HILF
100
AcDbLine
 10
20.00000000000004
 20
50.00000000000003
 30
0.0
 11
68.00000000000006
 21
50.00000000000003
 31
0.0
  0
LINE
  5
64
330
1E
100
AcDbEntity
  8
HILF
100
AcDbLine
 10
20.00000000000004
 20
45.00000000000002
 30
0.0
 11
68.00000000000006
 21
45.00000000000002
 31
0.0
  0
LINE
  5
65
330
1E
100
AcDbEntity
  8
HILF
100
AcDbLine
 10
20.00000000000004
 20
39.99999999999997
 30
0.0
 11
68.00000000000006
 21
39.99999999999997
 31
0.0
  0
LINE
  5
66
330
1E
100
AcDbEntity
  8
HILF
100
AcDbLine
 10
20.00000000000004
 20
34.99999999999997
 30
0.0
 11
68.00000000000006
 21
34.99999999999997
 31
0.0
  0
LINE
  5
67
330
1E
100
AcDbEntity
  8
HILF
100
AcDbLine
 10
20.00000000000004
 20
29.99999999999999
 30
0.0
 11
68.00000000000006
 21
29.99999999999999
 31
0.0
  0
LINE
  5
68
330
1E
100
AcDbEntity
  8
HILF
100
AcDbLine
 10
20.00000000000004
 20
24.99999999999999
 30
0.0
 11
68.00000000000006
 21
24.99999999999999
 31
0.0
  0
LINE
  5
69
330
1E
100
AcDbEntity
  8
HILF
100
AcDbLine
 10
20.00000000000004
 20
19.99999999999998
 30
0.0
 11
68.00000000000006
 21
19.99999999999998
 31
0.0
  0
LINE
  5
6A
330
1E
100
AcDbEntity
  8
HILF
100
AcDbLine
 10
68.00000000000006
 20
34.99999999999997
 30
0.0
 11
110.0
 21
34.99999999999997
 31
0.0
  0
LINE
  5
6B
330
1E
100
AcDbEntity
  8
HILF
100
AcDbLine
 10
68.00000000000006
 20
29.99999999999999
 30
0.0
 11
110.0
 21
29.99999999999999
 31
0.0
  0
LINE
  5
6C
330
1E
100
AcDbEntity
  8
HILF
100
AcDbLine
 10
68.00000000000006
 20
24.99999999999999
 30
0.0
 11
110.0
 21
24.99999999999999
 31
0.0
  0
LINE
  5
6D
330
1E
100
AcDbEntity
  8
HILF
100
AcDbLine
 10
112.3868400548474
 20
42.01879123782069
 30
0.0
 11
162.4176958278155
 21
42.01879123782069
 31
0.0
  0
LINE
  5
6E
330
1E
100
AcDbEntity
  8
HILF
100
AcDbLine
 10
112.3868400548474
 20
34.99999999999997
 30
0.0
 11
162.4176958278155
 21
34.99999999999997
 31
0.0
  0
LINE
  5
6F
330
1E
100
AcDbEntity
  8
HILF
100
AcDbLine
 10
112.3868400548474
 20
29.99999999999999
 30
0.0
 11
162.4176958278155
 21
29.99999999999999
 31
0.0
  0
LINE
  5
70
330
1E
100
AcDbEntity
  8
HILF
100
AcDbLine
 10
112.3868400548474
 20
24.99999999999999
 30
0.0
 11
162.4176958278155
 21
24.99999999999999
 31
0.0
  0
LINE
  5
71
330
1E
100
AcDbEntity
  8
VOLL
100
AcDbLine
 10
166.0
 20
30.0
 30
0.0
 11
205.0
 21
30.0
 31
0.0
  0
LINE
  5
72
330
1E
100
AcDbEntity
  8
HILF
100
AcDbLine
 10
168.3619308148496
 20
41.88991818477913
 30
0.0
 11
202.4294419663364
 21
41.88991818477913
 31
0.0
  0
LINE
  5
73
330
1E
100
AcDbEntity
  8
HILF
100
AcDbLine
 10
111.7454849644942
 20
7.446991290141568
 30
0.0
 11
202.4294419663364
 21
7.446991290141568
 31
0.0
  0
TEXT
  5
74
330
1E
100
AcDbEntity
  8
TEXT
100
AcDbText
 10
31.9308298981591
 20
9.336909474920659
 30
0.0
 40
2.0
  1
Änderung
 41
0.8
  7
GREEKS
 72
     1
 11
37.30225846958767
 21
9.336909474920659
 31
0.0
100
AcDbText
  0
TEXT
  5
75
330
1E
100
AcDbEntity
  8
TEXT
100
AcDbText
 10
71.75817860751886
 20
51.23104475435443
 30
0.0
 40
2.5
  1
Maßstab
 41
0.8
  7
GREEKS
100
AcDbText
  0
TEXT
  5
76
330
1E
100
AcDbEntity
  8
TEXT
100
AcDbText
 10
92.14294773670257
 20
51.20920842174095
 30
0.0
 40
2.5
  1
Zul. Abw.
 41
0.8
  7
GREEKS
100
AcDbText
  0
TEXT
  5
77
330
1E
100
AcDbEntity
  8
TEXT
100
AcDbText
 10
112.4389701904505
 20
51.27446640058898
 30
0.0
 40
2.5
  1
Benennung
 41
0.8
  7
GREEKS
100
AcDbText
  0
TEXT
  5
78
330
1E
100
AcDbEntity
  8
TEXT
100
AcDbText
 10
168.089377478817
 20
51.15660172685682
 30
0.0
 40
2.5
  1
Zeichnungs Nr.
 41
0.8
  7
GREEKS
100
AcDbText
  0
TEXT
  5
79
330
1E
100
AcDbEntity
  8
TEXT
100
AcDbText
 10
112.371119195568
 20
15.42280285096528
 30
0.0
 40
2.5
  1
Bauvorhaben
 41
0.8
  7
GREEKS
100
AcDbText
  0
TEXT
  5
7A
330
1E
100
AcDbEntity
  8
TEXT
100
AcDbText
 10
168.3619308148496
 20
36.59059118549985
 30
0.0
 40
2.5
  1
Ersatz für:
 41
0.8
  7
GREEKS
100
AcDbText
  0
TEXT
  5
7B
330
1E
100
AcDbEntity
  8
TEXT
100
AcDbText
 10
24.13320553522878
 20
6.827329230135958
 30
0.0
 40
2.0
  1
Index
 50
90.0
 41
0.8
  7
GREEKS
100
AcDbText
  0
TEXT
  5
7C
330
1E
100
AcDbEntity
  8
TEXT
100
AcDbText
 10
50.04673380377405
 20
9.33578134669905
 30
0.0
 40
2.0
  1
Tag
 41
0.8
  7
GREEKS
 72
     1
 11
51.91340047044072
 21
9.33578134669905
 31
0.0
100
AcDbText
  0
TEXT
  5
7D
330
1E
100
AcDbEntity
  8
TEXT
100
AcDbText
 10
59.50613721932963
 20
9.29662108483204
 30
0.0
 40
2.0
  1
Name
 41
0.8
  7
GREEKS
 72
     1
 11
62.66804198123439
 21
9.29662108483204
 31
0.0
100
AcDbText
  0
TEXT
  5
7E
330
1E
100
AcDbEntity
  8
TEXT
100
AcDbText
 10
81.16558365768254
 20
36.65940250614963
 30
0.0
 40
2.0
  1
Tag
 41
0.8
  7
GREEKS
100
AcDbText
  0
TEXT
  5
7F
330
1E
100
AcDbEntity
  8
TEXT
100
AcDbText
 10
96.23132921131475
 20
36.65480545957612
 30
0.0
 40
2.0
  1
Name
 41
0.8
  7
GREEKS
100
AcDbText
  0
TEXT
  5
80
330
1E
100
AcDbEntity
  8
TEXT
100
AcDbText
 10
68.79180635838077
 20
31.81495184808982
 30
0.0
 40
2.0
  1
Gez.
 41
0.8
  7
GREEKS
100
AcDbText
  0
TEXT
  5
81
330
1E
100
AcDbEntity
  8
TEXT
100
AcDbText
 10
68.77575432858361
 20
26.84463145714189
 30
0.0
 40
2.0
  1
Gepr.
 41
0.8
  7
GREEKS
100
AcDbText
  0
TEXT
  5
82
330
1E
100
AcDbEntity
  8
TEXT
100
AcDbText
 10
68.80033886936519
 20
21.76473194824904
 30
0.0
 40
2.0
  1
Norm.
 41
0.8
  7
GREEKS
100
AcDbText
  0
LINE
  5
83
330
1E
100
AcDbEntity
  8
STEMPEL
100
AcDbLine
 10
24.99999999999995
 20
5.0
 30
0.0
 11
205.0
 21
5.0
 31
0.0
  0
TEXT
  5
84
330
1E
100
AcDbEntity
  8
TEXT
100
AcDbText
 10
168.6200430748503
 20
26.03708088939301
 30
0.0
 40
2.5
  1
ersetzt durch:
 41
0.8
  7
GREEKS
100
AcDbText
  0
LINE
  5
85
330
1E
100
AcDbEntity
  8
STEMPEL
100
AcDbLine
 10
205.0
 20
5.0
 30
0.0
 11
19.99999999999994
 21
5.0
 31
0.0
  0
LINE
  5
86
330
1E
100
AcDbEntity
  8
STEMPEL
100
AcDbLine
 10
205.0
 20
5.0
 30
0.0
 11
205.0
 21
292.0
 31
0.0
  0
LINE
  5
87
330
1E
100
AcDbEntity
  8
STEMPEL
100
AcDbLine
 10
20.0
 20
5.0
 30
0.0
 11
19.99999999999994
 21
292.0
 31
0.0
  0
LINE
  5
88
330
1E
100
AcDbEntity
  8
STEMPEL
100
AcDbLine
 10
205.0
 20
292.0
 30
0.0
 11
19.99999999999994
 21
292.0
 31
0.0
  0
LINE
  5
89
330
1E
100
AcDbEntity
  8
HILF
100
AcDbLine
 10
0.0
 20
0.0
 30
0.0
 11
-0.0000000000000568
 21
297.0
 31
0.0
  0
LINE
  5
8A
330
1E
100
AcDbEntity
  8
HILF
100
AcDbLine
 10
210.0
 20
297.0000000000001
 30
0.0
 11
0.0
 21
297.0
 31
0.0
  0
LINE
  5
8B
330
1E
100
AcDbEntity
  8
HILF
100
AcDbLine
 10
210.0
 20
0.0
 30
0.0
 11
0.0
 21
0.0
 31
0.0
  0
LINE
  5
8C
330
1E
100
AcDbEntity
  8
HILF
100
AcDbLine
 10
15.54383567856928
 20
148.5
 30
0.0
 11
0.0000000000000568
 21
148.5
 31
0.0
  0
TEXT
  5
8D
330
1E
100
AcDbEntity
  8
TEXT
100
AcDbText
 10
69.31105491105199
 20
36.57012735575833
 30
0.0
 40
2.0
  1
2011
 41
0.8
  7
GREEKS
100
AcDbText
  0
LINE
  5
8E
330
1E
100
AcDbEntity
  8
HILF
100
AcDbLine
 10
210.0
 20
-0.0000000000000568
 30
0.0
 11
210.0
 21
297.0
 31
0.0
  0
TEXT
  5
8F
330
1E
100
AcDbEntity
  8
VOLL
100
AcDbText
 10
78.07675471698113
 20
31.02594776470585
 30
0.0
 40
1.8
  1

  7
GREEKS
100
AcDbText
  0
TEXT
  5
90
330
1E
100
AcDbEntity
  8
TEXT
100
AcDbText
 10
20.92754975488837
 20
55.83599999999997
 30
0.0
 40
2.5
  1
Erstellt mit AUTOCAD 2004
 41
0.8
  7
GREEKS
100
AcDbText
  0
TEXT
  5
91
330
1E
100
AcDbEntity
  8
TEXT
100
AcDbText
 10
97.21080242906285
 20
31.54481959861755
 30
0.0
 40
2.0
  1
Koeh
 41
0.8
  7
GREEKS
 72
     1
 11
99.83937385763429
 21
31.54481959861755
 31
0.0
100
AcDbText
  0
TEXT
  5
92
330
1E
100
AcDbEntity
  8
TEXT
 62
     1
100
AcDbText
 10
173.8603854514982
 20
44.07450714456979
 30
0.0
 40
3.5
  1
19602BA0W
 41
0.8
  7
GREEKS
 72
     1
 11
185.7937187848316
 21
44.07450714456979
 31
0.0
100
AcDbText
  0
TEXT
  5
93
330
1E
100
AcDbEntity
  8
TEXT
 62
     1
100
AcDbText
 10
75.25031532409435
 20
44.07450714456979
 30
0.0
 40
3.5
  1
1:1
 41
0.8
  7
GREEKS
100
AcDbText
  0
TEXT
  5
94
330
1E
100
AcDbEntity
  8
TEXT
100
AcDbText
 10
80.19949855411802
 20
31.55382520412866
 30
0.0
 40
2.0
  1
07.09.
 41
0.8
  7
GREEKS
 72
     1
 11
83.70426045887993
 21
31.55382520412866
 31
0.0
100
AcDbText
  0
TEXT
  5
95
330
1E
100
AcDbEntity
  8
TEXT
 62
     1
100
AcDbText
 10
113.4467865528701
 20
43.70874394626889
 30
0.0
 40
3.5
  1
Abgleichstück DN50/40
 41
0.75
  7
GREEKS
100
AcDbText
  0
TEXT
  5
96
330
1E
100
AcDbEntity
  8
TEXT
100
AcDbText
 10
112.5648195562657
 20
35.75167208792644
 30
0.0
 40
2.5
  1

 41
0.8
  7
GREEKS
100
AcDbText
  0
TEXT
  5
97
330
1E
100
AcDbEntity
  8
TEXT
100
AcDbText
 10
112.5648195562657
 20
31.05790353387428
 30
0.0
 40
2.5
  1

 41
0.8
  7
GREEKS
100
AcDbText
  0
TEXT
  5
98
330
1E
100
AcDbEntity
  8
TEXT
100
AcDbText
 10
112.5648195562657
 20
25.82005971521079
 30
0.0
 40
2.5
  1
EDV-Art.Nr. 19602.BA0X
 41
0.8
  7
GREEKS
100
AcDbText
  0
TEXT
  5
99
330
1E
100
AcDbEntity
  8
TEXT
100
AcDbText
 10
112.4918750788913
 20
21.31487076511316
 30
0.0
 40
2.0
  1
19602BA0W.DWG
 41
0.8
  7
GREEKS
100
AcDbText
  0
TEXT
  5
9A
330
1E
100
AcDbEntity
  8
TEXT
100
AcDbText
 10
91.31306610404202
 20
45.38181920511511
 30
0.0
 40
2.0
  1
DIN EN1123-2
 41
0.8
  7
GREEKS
 72
     1
 11
99.80830419928011
 21
45.38181920511511
 31
0.0
100
AcDbText
  0
INSERT
  5
9B
330
1E
100
AcDbEntity
  8
STEMPEL
100
AcDbBlockReference
  2
LOGO
 10
70.4977742728897
 20
22.51052638224161
 30
0.0
  0
TEXT
  5
118
330
1E
100
AcDbEntity
  8
BEM
100
AcDbText
 10
208.6511461928583
 20
5.083950539994247
 30
0.0
 40
2.0
  1
Diese Zeichnung ist urheberrechtlich geschützt und bleibt unser Eigentum. Sie darf weder ganz noch teilweise verfielfältigt und nicht an Dritte weitergegeben werden.
 50
90.0
 41
0.8
  7
GREEKS
100
AcDbText
  0
TEXT
  5
196
330
1E
100
AcDbEntity
  8
TEXT
 62
     1
100
AcDbText
 10
110.2958381745479
 20
236.5472627601625
 30
0.0
 40
3.5
  1
DN50
 50
90.0
 41
0.8
  7
GREEKS
 72
     1
 11
110.2958381745479
 21
241.6805960934958
 31
0.0
100
AcDbText
  0
TEXT
  5
197
330
1E
100
AcDbEntity
  8
TEXT
 62
     1
100
AcDbText
 10
110.2958381745479
 20
141.1214486984315
 30
0.0
 40
3.5
  1
DN40
 50
90.0
 41
0.8
  7
GREEKS
 72
     1
 11
110.2958381745479
 21
146.2547820317649
 31
0.0
100
AcDbText
  0
TEXT
  5
380
330
1E
100
AcDbEntity
  8
TEXT
 62
     1
100
AcDbText
 10
39.72490265633441
 20
97.37656550398538
 30
0.0
 40
3.5
  1
Rohrende leicht eingezogen
 41
0.8
  7
GREEKS
100
AcDbText
  0
TEXT
  5
388
330
1E
100
AcDbEntity
  8
TEXT
 62
     1
100
AcDbText
 10
117.3028829473234
 20
64.53917328727413
 30
0.0
 40
3.5
  1
und innen beschichtet
 41
0.8
  7
GREEKS
100
AcDbText
  0
TEXT
  5
389
330
1E
100
AcDbEntity
  8
TEXT
 62
     1
100
AcDbText
 10
93.32802422862448
 20
69.90022919477588
 30
0.0
 40
3.5
  1
Werkstoff: E195 EN10305 feuerverzinkt
 41
0.8
  7
GREEKS
100
AcDbText
  0
LINE
  5
6AE
330
1E
100
AcDbEntity
  8
MITTEL
100
AcDbLine
 10
112.5
 20
258.5250738795245
 30
0.0
 11
112.5
 21
195.0191643453791
 31
0.0
  0
LINE
  5
6B0
102
{ACAD_REACTORS
330
75F
102
}
330
1E
100
AcDbEntity
  8
STEMPEL
100
AcDbLine
 10
142.1070448491912
 20
253.5250738795246
 30
0.0
 11
142.1730018472146
 21
253.3836286408072
 31
0.0
  0
LINE
  5
6B1
102
{ACAD_REACTORS
330
75F
102
}
330
1E
100
AcDbEntity
  8
STEMPEL
100
AcDbLine
 10
140.4519779707475
 20
253.5250738795245
 30
0.0
 11
140.8135401666596
 21
252.7497012481962
 31
0.0
  0
LINE
  5
6B2
102
{ACAD_REACTORS
330
75F
102
}
330
1E
100
AcDbEntity
  8
STEMPEL
100
AcDbLine
 10
143.9999999999999
 20
245.1425725368637
 30
0.0
 11
143.9999999999999
 21
240.7271095815563
 31
0.0
  0
LINE
  5
6B3
330
1E
100
AcDbEntity
  8
STEMPEL
100
AcDbLine
 10
142.5
 20
240.6870738795245
 30
0.0
 11
142.5000320571281
 21
240.6870738795245
 31
0.0
  0
LINE
  5
6B4
102
{ACAD_REACTORS
330
75F
102
}
330
1E
100
AcDbEntity
  8
STEMPEL
100
AcDbLine
 10
142.4999999999999
 20
245.1425725368637
 30
0.0
 11
142.4999999999999
 21
240.7258899335641
 31
0.0
  0
ARC
  5
6B5
102
{ACAD_REACTORS
330
75F
102
}
330
1E
100
AcDbEntity
  8
STEMPEL
100
AcDbCircle
 10
124.4999999999999
 20
245.1425725368637
 30
0.0
 40
19.5
100
AcDbArc
 50
0.0
 51
24.99999999998986
  0
ARC
  5
6B6
102
{ACAD_REACTORS
330
75F
102
}
330
1E
100
AcDbEntity
  8
STEMPEL
100
AcDbCircle
 10
124.4999999999999
 20
245.1425725368637
 30
0.0
 40
18.0
100
AcDbArc
 50
0.0
 51
24.99999999999059
  0
ARC
  5
6B7
102
{ACAD_REACTORS
330
75F
102
}
330
1E
100
AcDbEntity
  8
STEMPEL
100
AcDbCircle
 10
152.0
 20
229.0250738795245
 30
0.0
 40
10.0
100
AcDbArc
 50
160.5369005553112
 51
180.0
  0
ARC
  5
6B8
102
{ACAD_REACTORS
330
75F
102
}
330
1E
100
AcDbEntity
  8
STEMPEL
100
AcDbCircle
 10
152.0
 20
229.0250738795245
 30
0.0
 40
11.5
100
AcDbArc
 50
160.5369005553112
 51
180.0
  0
POINT
  5
6B9
330
1E
100
AcDbEntity
  8
STEMPEL
100
AcDbPoint
 10
141.9999999999999
 20
220.9334007927205
 30
0.0
  0
ARC
  5
6BA
102
{ACAD_REACTORS
330
75F
102
}
330
1E
100
AcDbEntity
  8
STEMPEL
100
AcDbCircle
 10
130.0
 20
220.9334007927204
 30
0.0
 40
12.0
100
AcDbArc
 50
328.2116693829482
 51
0.0
  0
LINE
  5
6BB
102
{ACAD_REACTORS
330
75F
102
}
330
1E
100
AcDbEntity
  8
STEMPEL
100
AcDbLine
 10
141.9999999999999
 20
229.0250738795245
 30
0.0
 11
141.9999999999999
 21
220.9334007927205
 31
0.0
  0
LINE
  5
6BC
102
{ACAD_REACTORS
330
75F
102
}
330
1E
100
AcDbEntity
  8
STEMPEL
100
AcDbLine
 10
140.5
 20
229.0250738795245
 30
0.0
 11
140.5
 21
220.9334007927205
 31
0.0
  0
LINE
  5
6BD
330
1E
100
AcDbEntity
  8
STEMPEL
100
AcDbLine
 10
138.9999999999999
 20
215.5250738795245
 30
0.0
 11
138.9999999999999
 21
215.5212224228474
 31
0.0
  0
ARC
  5
6BE
102
{ACAD_REACTORS
330
75F
102
}
330
1E
100
AcDbEntity
  8
STEMPEL
100
AcDbCircle
 10
130.0
 20
220.9334007927204
 30
0.0
 40
10.5
100
AcDbArc
 50
328.2116693829482
 51
0.0
  0
POINT
  5
6BF
330
1E
100
AcDbEntity
  8
STEMPEL
100
AcDbPoint
 10
138.9999999999999
 20
210.3977470398677
 30
0.0
  0
LINE
  5
6C0
102
{ACAD_REACTORS
330
75F
330
76A
102
}
330
1E
100
AcDbEntity
  8
STEMPEL
100
AcDbLine
 10
138.9999999999999
 20
210.3977470398677
 30
0.0
 11
138.9999999999999
 21
205.5250738795244
 31
0.0
  0
LINE
  5
6C1
102
{ACAD_REACTORS
330
75F
102
}
330
1E
100
AcDbEntity
  8
STEMPEL
100
AcDbLine
 10
137.5
 20
210.3977470398676
 30
0.0
 11
137.5
 21
205.5250738795245
 31
0.0
  0
ARC
  5
6C2
102
{ACAD_REACTORS
330
736
102
}
330
1E
100
AcDbEntity
  8
STEMPEL
100
AcDbCircle
 10
143.5
 20
194.0719313965093
 30
0.0
 40
10.0
100
AcDbArc
 50
147.0947570770127
 51
180.0
  0
ARC
  5
6C3
102
{ACAD_REACTORS
330
736
102
}
330
1E
100
AcDbEntity
  8
STEMPEL
100
AcDbCircle
 10
143.5
 20
194.0719313965093
 30
0.0
 40
11.5
100
AcDbArc
 50
147.0947570770127
 51
180.0
  0
LINE
  5
6C4
102
{ACAD_REACTORS
330
736
330
76A
102
}
330
1E
100
AcDbEntity
  8
STEMPEL
100
AcDbLine
 10
138.9999999999999
 20
205.5250738795244
 30
0.0
 11
135.1042984284784
 21
199.5044441780821
 31
0.0
  0
LINE
  5
6C5
102
{ACAD_REACTORS
330
736
102
}
330
1E
100
AcDbEntity
  8
STEMPEL
100
AcDbLine
 10
137.2133714648838
 20
205.5250738795245
 30
0.0
 11
133.8449431927502
 21
200.319321095318
 31
0.0
  0
ARC
  5
6C7
102
{ACAD_REACTORS
330
75F
102
}
330
1E
100
AcDbEntity
  8
STEMPEL
100
AcDbCircle
 10
147.0
 20
210.3977470398676
 30
0.0
 40
9.5
100
AcDbArc
 50
148.2116693829482
 51
180.0
  0
ARC
  5
6C8
102
{ACAD_REACTORS
330
75F
102
}
330
1E
100
AcDbEntity
  8
STEMPEL
100
AcDbCircle
 10
146.9999999999999
 20
210.3977470398677
 30
0.0
 40
8.0
100
AcDbArc
 50
148.2116693829482
 51
180.0
  0
ARC
  5
6C9
102
{ACAD_REACTORS
330
75F
102
}
330
1E
100
AcDbEntity
  8
STEMPEL
100
AcDbCircle
 10
118.9999999999999
 20
240.6870738795245
 30
0.0
 40
25.00003205712822
100
AcDbArc
 50
340.5369005553112
 51
0.0917549918134009
  0
ARC
  5
6CA
102
{ACAD_REACTORS
330
75F
102
}
330
1E
100
AcDbEntity
  8
STEMPEL
100
AcDbCircle
 10
118.9999999999999
 20
240.6870738795245
 30
0.0
 40
23.5000320571282
100
AcDbArc
 50
340.5369005553112
 51
0.0946380447351559
  0
LINE
  5
6CB
102
{ACAD_REACTORS
330
736
102
}
330
1E
100
AcDbEntity
  8
STEMPEL
100
AcDbLine
 10
133.4999999999999
 20
128.4595824651621
 30
0.0
 11
132.8933091116335
 21
121.5250738795244
 31
0.0
  0
LINE
  5
6CC
102
{ACAD_REACTORS
330
736
102
}
330
1E
100
AcDbEntity
  8
STEMPEL
100
AcDbLine
 10
132.0
 20
128.5250738795245
 30
0.0
 11
131.3875793553185
 21
121.5250738795245
 31
0.0
  0
LINE
  5
6CD
102
{ACAD_REACTORS
330
736
102
}
330
1E
100
AcDbEntity
  8
STEMPEL
100
AcDbLine
 10
133.4999999999999
 20
194.0719313965093
 30
0.0
 11
133.4999999999999
 21
128.4595824651621
 31
0.0
  0
LINE
  5
6CE
102
{ACAD_REACTORS
330
736
102
}
330
1E
100
AcDbEntity
  8
STEMPEL
100
AcDbLine
 10
132.0
 20
194.0719313965093
 30
0.0
 11
132.0
 21
128.5250738795245
 31
0.0
  0
LINE
  5
6CF
102
{ACAD_REACTORS
330
75F
102
}
330
1E
100
AcDbEntity
  8
STEMPEL
100
AcDbLine
 10
84.54802202925245
 20
253.5250738795245
 30
0.0
 11
84.1864598333403
 21
252.7497012481962
 31
0.0
  0
LINE
  5
6D0
102
{ACAD_REACTORS
330
75F
102
}
330
1E
100
AcDbEntity
  8
STEMPEL
100
AcDbLine
 10
82.89295515080871
 20
253.5250738795246
 30
0.0
 11
82.82699815278524
 21
253.3836286408072
 31
0.0
  0
LINE
  5
6D1
330
1E
100
AcDbEntity
  8
STEMPEL
100
AcDbLine
 10
82.49999999999998
 20
240.6870738795245
 30
0.0
 11
82.49996794287174
 21
240.6870738795245
 31
0.0
  0
LINE
  5
6D2
102
{ACAD_REACTORS
330
75F
102
}
330
1E
100
AcDbEntity
  8
STEMPEL
100
AcDbLine
 10
82.49999999999998
 20
245.1425725368637
 30
0.0
 11
82.49999999999998
 21
240.7258899335641
 31
0.0
  0
ARC
  5
6D3
102
{ACAD_REACTORS
330
75F
102
}
330
1E
100
AcDbEntity
  8
STEMPEL
100
AcDbCircle
 10
100.4999999999999
 20
245.1425725368637
 30
0.0
 40
18.0
100
AcDbArc
 50
155.0000000000065
 51
180.0
  0
LINE
  5
6D4
102
{ACAD_REACTORS
330
75F
102
}
330
1E
100
AcDbEntity
  8
STEMPEL
100
AcDbLine
 10
80.99999999999992
 20
245.1425725368637
 30
0.0
 11
80.99999999999992
 21
240.7271095815563
 31
0.0
  0
ARC
  5
6D5
102
{ACAD_REACTORS
330
75F
102
}
330
1E
100
AcDbEntity
  8
STEMPEL
100
AcDbCircle
 10
100.4999999999999
 20
245.1425725368637
 30
0.0
 40
19.5
100
AcDbArc
 50
155.0000000000065
 51
180.0
  0
ARC
  5
6D6
102
{ACAD_REACTORS
330
75F
102
}
330
1E
100
AcDbEntity
  8
STEMPEL
100
AcDbCircle
 10
72.99999999999991
 20
229.0250738795245
 30
0.0
 40
10.0
100
AcDbArc
 50
0.0
 51
19.46309944468874
  0
ARC
  5
6D7
102
{ACAD_REACTORS
330
75F
102
}
330
1E
100
AcDbEntity
  8
STEMPEL
100
AcDbCircle
 10
72.99999999999991
 20
229.0250738795245
 30
0.0
 40
11.5
100
AcDbArc
 50
0.0
 51
19.46309944468874
  0
POINT
  5
6D8
330
1E
100
AcDbEntity
  8
STEMPEL
100
AcDbPoint
 10
82.99999999999997
 20
220.9334007927205
 30
0.0
  0
LINE
  5
6D9
330
1E
100
AcDbEntity
  8
STEMPEL
100
AcDbLine
 10
85.99999999999992
 20
215.5250738795245
 30
0.0
 11
85.99999999999992
 21
215.5212224228474
 31
0.0
  0
ARC
  5
6DA
102
{ACAD_REACTORS
330
75F
102
}
330
1E
100
AcDbEntity
  8
STEMPEL
100
AcDbCircle
 10
94.99999999999998
 20
220.9334007927204
 30
0.0
 40
12.0
100
AcDbArc
 50
180.0
 51
211.7883306170518
  0
ARC
  5
6DB
102
{ACAD_REACTORS
330
75F
102
}
330
1E
100
AcDbEntity
  8
STEMPEL
100
AcDbCircle
 10
94.99999999999998
 20
220.9334007927204
 30
0.0
 40
10.5
100
AcDbArc
 50
180.0
 51
211.7883306170518
  0
LINE
  5
6DC
102
{ACAD_REACTORS
330
75F
102
}
330
1E
100
AcDbEntity
  8
STEMPEL
100
AcDbLine
 10
84.49999999999992
 20
229.0250738795245
 30
0.0
 11
84.49999999999992
 21
220.9334007927205
 31
0.0
  0
LINE
  5
6DD
102
{ACAD_REACTORS
330
75F
102
}
330
1E
100
AcDbEntity
  8
STEMPEL
100
AcDbLine
 10
82.99999999999997
 20
229.0250738795245
 30
0.0
 11
82.99999999999997
 21
220.9334007927205
 31
0.0
  0
ARC
  5
6DE
102
{ACAD_REACTORS
330
736
102
}
330
1E
100
AcDbEntity
  8
STEMPEL
100
AcDbCircle
 10
81.49999999999991
 20
194.0719313965094
 30
0.0
 40
11.5
100
AcDbArc
 50
0.0
 51
32.90524292298726
  0
LINE
  5
6DF
102
{ACAD_REACTORS
330
75F
102
}
330
1E
100
AcDbEntity
  8
STEMPEL
100
AcDbLine
 10
87.49999999999991
 20
210.3977470398676
 30
0.0
 11
87.49999999999991
 21
205.5250738795245
 31
0.0
  0
POINT
  5
6E0
330
1E
100
AcDbEntity
  8
STEMPEL
100
AcDbPoint
 10
85.99999999999992
 20
210.3977470398677
 30
0.0
  0
LINE
  5
6E1
102
{ACAD_REACTORS
330
75F
330
76A
102
}
330
1E
100
AcDbEntity
  8
STEMPEL
100
AcDbLine
 10
85.99999999999992
 20
210.3977470398677
 30
0.0
 11
85.99999999999992
 21
205.5250738795245
 31
0.0
  0
LINE
  5
6E3
102
{ACAD_REACTORS
330
736
330
76A
102
}
330
1E
100
AcDbEntity
  8
STEMPEL
100
AcDbLine
 10
89.89570157152142
 20
199.5044441780822
 30
0.0
 11
85.99999999999992
 21
205.5250738795245
 31
0.0
  0
LINE
  5
6E4
102
{ACAD_REACTORS
330
736
102
}
330
1E
100
AcDbEntity
  8
STEMPEL
100
AcDbLine
 10
91.15505680724973
 20
200.3193210953182
 30
0.0
 11
87.78662853511608
 21
205.5250738795246
 31
0.0
  0
ARC
  5
6E5
102
{ACAD_REACTORS
330
736
102
}
330
1E
100
AcDbEntity
  8
STEMPEL
100
AcDbCircle
 10
81.49999999999991
 20
194.0719313965094
 30
0.0
 40
10.0
100
AcDbArc
 50
0.0
 51
32.90524292298726
  0
ARC
  5
6E6
102
{ACAD_REACTORS
330
75F
102
}
330
1E
100
AcDbEntity
  8
STEMPEL
100
AcDbCircle
 10
77.99999999999991
 20
210.3977470398676
 30
0.0
 40
9.5
100
AcDbArc
 50
0.0
 51
31.7883306170518
  0
ARC
  5
6E7
102
{ACAD_REACTORS
330
75F
102
}
330
1E
100
AcDbEntity
  8
STEMPEL
100
AcDbCircle
 10
77.99999999999991
 20
210.3977470398677
 30
0.0
 40
8.0
100
AcDbArc
 50
0.0
 51
31.7883306170518
  0
ARC
  5
6E8
102
{ACAD_REACTORS
330
75F
102
}
330
1E
100
AcDbEntity
  8
STEMPEL
100
AcDbCircle
 10
106.0
 20
240.6870738795245
 30
0.0
 40
25.00003205712822
100
AcDbArc
 50
179.9082450081866
 51
199.4630994446887
  0
ARC
  5
6E9
102
{ACAD_REACTORS
330
75F
102
}
330
1E
100
AcDbEntity
  8
STEMPEL
100
AcDbCircle
 10
106.0
 20
240.6870738795245
 30
0.0
 40
23.5000320571282
100
AcDbArc
 50
179.9053619552648
 51
199.4630994446887
  0
LINE
  5
6EA
102
{ACAD_REACTORS
330
736
102
}
330
1E
100
AcDbEntity
  8
STEMPEL
100
AcDbLine
 10
92.99999999999997
 20
128.5250738795244
 30
0.0
 11
93.61242064468141
 21
121.5250738795245
 31
0.0
  0
LINE
  5
6EB
102
{ACAD_REACTORS
330
736
102
}
330
1E
100
AcDbEntity
  8
STEMPEL
100
AcDbLine
 10
91.49999999999996
 20
128.4595824651616
 30
0.0
 11
92.10669088836638
 21
121.5250738795245
 31
0.0
  0
LINE
  5
6EC
102
{ACAD_REACTORS
330
736
102
}
330
1E
100
AcDbEntity
  8
STEMPEL
100
AcDbLine
 10
91.49999999999991
 20
194.0719313965094
 30
0.0
 11
91.49999999999996
 21
128.4595824651616
 31
0.0
  0
LINE
  5
6ED
102
{ACAD_REACTORS
330
736
102
}
330
1E
100
AcDbEntity
  8
STEMPEL
100
AcDbLine
 10
92.99999999999997
 20
194.0719313965094
 30
0.0
 11
92.99999999999997
 21
128.5250738795244
 31
0.0
  0
LINE
  5
6EE
102
{ACAD_REACTORS
330
75F
102
}
330
1E
100
AcDbEntity
  8
STEMPEL
100
AcDbLine
 10
142.1070448491912
 20
253.5250738795244
 30
0.0
 11
82.89295515080871
 21
253.5250738795246
 31
0.0
  0
LINE
  5
6EF
102
{ACAD_REACTORS
330
736
330
75F
102
}
330
1E
100
AcDbEntity
  8
STEMPEL
100
AcDbLine
 10
138.9999999999999
 20
205.5250738795244
 30
0.0
 11
85.99999999999992
 21
205.5250738795245
 31
0.0
  0
LINE
  5
6F0
102
{ACAD_REACTORS
330
736
102
}
330
1E
100
AcDbEntity
  8
STEMPEL
100
AcDbLine
 10
132.8933091116335
 20
121.5250738795244
 30
0.0
 11
92.10669088836638
 21
121.5250738795245
 31
0.0
  0
LINE
  5
6F2
330
1E
100
AcDbEntity
  8
HILF
100
AcDbLine
 10
130.4999999999999
 20
128.5250738795244
 30
0.0
 11
94.49999999999997
 21
128.5250738795245
 31
0.0
  0
LINE
  5
6F8
330
1E
100
AcDbEntity
  8
HILF
100
AcDbLine
 10
139.1461534369174
 20
230.9689433537259
 30
0.0
 11
85.8538465630824
 21
230.9689433537259
 31
0.0
  0
LINE
  5
6F9
330
1E
100
AcDbEntity
  8
HILF
100
AcDbLine
 10
138.5282618393198
 20
218.0578573658183
 30
0.0
 11
86.4717381606801
 21
218.0578573658183
 31
0.0
  0
LINE
  5
6FA
330
1E
100
AcDbEntity
  8
HILF
100
AcDbLine
 10
136.3120979607783
 20
212.9994291880172
 30
0.0
 11
88.68790203922165
 21
212.9994291880172
 31
0.0
  0
LINE
  5
6FB
330
1E
100
AcDbEntity
  8
HILF
100
AcDbLine
 10
130.9146284662832
 20
197.3289888658078
 30
0.0
 11
94.08537153371664
 21
197.3289888658079
 31
0.0
  0
HATCH
  5
736
330
1E
100
AcDbEntity
  8
SCHRAFF
100
AcDbHatch
 10
0.0
 20
0.0
 30
0.0
210
0.0
220
0.0
230
1.0
  2
_USER
 70
     0
 71
     1
 91
        2
 92
        7
 72
     1
 73
     1
 93
       10
 10
132.0
 20
128.5250738795245
 42
0.0
 10
131.3875793553184
 20
121.5250738795244
 42
0.0
 10
132.8933091116335
 20
121.5250738795244
 42
0.0
 10
133.4999999999999
 20
128.4595824651619
 42
0.0
 10
133.4999999999999
 20
194.0719313965093
 42
-0.1445709769475337
 10
135.1042984284784
 20
199.5044441780821
 42
0.0
 10
138.9999999999999
 20
205.5250738795244
 42
0.0
 10
137.2133714648837
 20
205.5250738795244
 42
0.0
 10
133.8449431927502
 20
200.319321095318
 42
0.144570976947533
 10
132.0
 20
194.0719313965094
 42
0.0
 97
       10
330
6C2
330
6C4
330
6EF
330
6C5
330
6C3
330
6CE
330
6CC
330
6F0
330
6CB
330
6CD
 92
        7
 72
     1
 73
     1
 93
       10
 10
92.99999999999997
 20
194.0719313965094
 42
0.1445709769475356
 10
91.1550568072497
 20
200.3193210953182
 42
0.0
 10
87.7866285351161
 20
205.5250738795245
 42
0.0
 10
85.99999999999992
 20
205.5250738795245
 42
0.0
 10
89.89570157152142
 20
199.5044441780822
 42
-0.1445709769475347
 10
91.49999999999991
 20
194.0719313965094
 42
0.0
 10
91.49999999999996
 20
128.4595824651617
 42
0.0
 10
92.10669088836636
 20
121.5250738795245
 42
0.0
 10
93.61242064468141
 20
121.5250738795245
 42
0.0
 10
92.99999999999997
 20
128.5250738795244
 42
0.0
 97
       10
330
6DE
330
6E4
330
6EF
330
6E3
330
6E5
330
6EC
330
6EB
330
6F0
330
6EA
330
6ED
 75
     0
 76
     0
 52
45.0
 41
2.0
 77
     0
 78
     1
 53
45.0
 43
0.0
 44
0.0
 45
-1.414213562373094
 46
1.414213562373095
 79
     0
 47
0.5077019418044314
 98
        2
 10
132.4816843665214
 20
169.3157879378127
 10
92.34901617467903
 20
168.3003835934551
  0
HATCH
  5
75F
330
1E
100
AcDbEntity
  8
SCHRAFF
100
AcDbHatch
 10
0.0
 20
0.0
 30
0.0
210
0.0
220
0.0
230
1.0
  2
_USER
 70
     0
 71
     1
 91
        2
 92
        7
 72
     1
 73
     1
 93
       20
 10
143.9999999999999
 20
240.6470381774648
 42
0.0
 10
143.9999999999999
 20
245.1425725368637
 42
0.1095178116832408
 10
142.1730018472146
 20
253.3836286408072
 42
0.0
 10
142.1070448491913
 20
253.5250738795244
 42
0.0
 10
140.4519779707475
 20
253.5250738795244
 42
0.0
 10
140.8135401666596
 20
252.7497012481962
 42
-0.1095178116832405
 10
142.4999999999999
 20
245.1425725368637
 42
0.0
 10
142.4999999999999
 20
240.7258899335641
 42
-0.0855444844065445
 10
141.1571527883012
 20
232.8568703699133
 42
0.0851285408962541
 10
140.5
 20
229.0250738795243
 42
0.0
 10
140.5
 20
220.9334007927205
 42
-0.139599132416863
 10
138.9249999999999
 20
215.4021825724727
 42
0.1395991324168579
 10
137.5
 20
210.3977470398678
 42
0.0
 10
137.5
 20
205.5250738795245
 42
0.0
 10
138.9999999999999
 20
205.5250738795244
 42
0.0
 10
138.9999999999999
 20
210.3977470398677
 42
-0.1395991324168619
 10
140.2
 20
214.6120085410089
 42
0.1395991324168606
 10
141.9999999999999
 20
220.9334007927205
 42
0.0
 10
141.9999999999999
 20
229.0250738795245
 42
-0.0851285408962506
 10
142.5714372072184
 20
232.3570708276887
 42
0.0847252966074469
 97
       20
330
6B2
330
6B5
330
6B0
330
6EE
330
6B1
330
6B6
330
6B4
330
6CA
330
6B8
330
6BC
330
6BE
330
6C7
330
6C1
330
6EF
330
6C0
330
6C8
330
6BA
330
6BB
330
6B7
330
6C9
 92
        7
 72
     1
 73
     1
 93
       20
 10
80.99999999999992
 20
240.6470381775094
 42
0.0847252966078968
 10
82.42856279278147
 20
232.3570708276887
 42
-0.0851285408962499
 10
82.99999999999997
 20
229.0250738795245
 42
0.0
 10
82.99999999999997
 20
220.9334007927205
 42
0.139599132416861
 10
84.79999999999995
 20
214.6120085410089
 42
-0.1395991324168588
 10
85.99999999999992
 20
210.3977470398678
 42
0.0
 10
85.99999999999992
 20
205.5250738795245
 42
0.0
 10
87.49999999999991
 20
205.5250738795245
 42
0.0
 10
87.49999999999991
 20
210.3977470398676
 42
0.1395991324168616
 10
86.07499999999994
 20
215.4021825724727
 42
-0.1395991324168627
 10
84.49999999999992
 20
220.9334007927205
 42
0.0
 10
84.49999999999992
 20
229.0250738795245
 42
0.0851285408962508
 10
83.84284721169871
 20
232.8568703699133
 42
-0.0855444844065446
 10
82.49999999999998
 20
240.7258899335641
 42
0.0
 10
82.49999999999998
 20
245.1425725368637
 42
-0.1095178116832415
 10
84.1864598333403
 20
252.7497012481962
 42
0.0
 10
84.54802202925245
 20
253.5250738795245
 42
0.0
 10
82.89295515080871
 20
253.5250738795245
 42
0.0
 10
82.82699815278524
 20
253.3836286408072
 42
0.1095178116832402
 10
80.99999999999992
 20
245.1425725368637
 42
0.0
 97
       20
330
6D3
330
6CF
330
6EE
330
6D0
330
6D5
330
6D4
330
6E8
330
6D6
330
6DD
330
6DA
330
6E7
330
6E1
330
6EF
330
6DF
330
6E6
330
6DB
330
6DC
330
6D7
330
6E9
330
6D2
 75
     0
 76
     0
 52
135.0
 41
2.0
 77
     0
 78
     1
 53
135.0
 43
0.0
 44
0.0
 45
-1.414213562373095
 46
-1.414213562373094
 79
     0
 47
0.1754097844909383
 98
        2
 10
143.4865096556866
 20
240.6139543796817
 10
81.70498781350557
 20
242.1926422698902
  0
ARC
  5
762
102
{ACAD_REACTORS
330
76A
102
}
330
1E
100
AcDbEntity
  8
SCHRAFF
100
AcDbCircle
 10
87.06655460264293
 20
205.6607931021789
 30
0.0
 40
2.147808542957069
100
AcDbArc
 50
119.7738634298577
 51
276.0819760941562
  0
ARC
  5
763
102
{ACAD_REACTORS
330
76A
102
}
330
1E
100
AcDbEntity
  8
SCHRAFF
100
AcDbCircle
 10
137.933445397357
 20
205.6607931021789
 30
0.0
 40
2.147808542957069
100
AcDbArc
 50
263.9180239058438
 51
60.22613657014228
  0
HATCH
  5
76A
330
1E
100
AcDbEntity
  8
SCHRAFF
100
AcDbHatch
 10
0.0
 20
0.0
 30
0.0
210
0.0
220
0.0
230
1.0
  2
_USER
 70
     0
 71
     1
 91
        2
 92
        7
 72
     1
 73
     1
 93
        3
 10
138.9999999999999
 20
207.5250738795246
 42
0.0
 10
138.9999999999999
 20
205.5250738795244
 42
0.0
 10
137.7058823529412
 20
203.5250738795245
 42
0.8120124429936049
 97
        3
330
6C0
330
6C4
330
763
 92
        7
 72
     1
 73
     1
 93
        3
 10
85.99999999999992
 20
205.5250738795245
 42
0.0
 10
85.99999999999992
 20
207.5250738795246
 42
0.8120124429936172
 10
87.29411764705874
 20
203.5250738795245
 42
0.0
 97
        3
330
6E1
330
762
330
6E3
 75
     0
 76
     0
 52
0.0
 41
0.1
 77
     0
 78
     1
 53
0.0
 43
0.0
 44
0.0
 45
0.0
 46
0.1
 79
     0
 47
0.188676588802396
 98
        2
 10
139.5227845551285
 20
204.8960263855539
 10
85.52870085327231
 20
205.0847031599325
  0
DIMENSION
  5
774
330
1E
100
AcDbEntity
  8
BEM
100
AcDbDimension
  2
*D1
 10
79.46571446564212
 20
196.5250738795245
 30
0.0
 11
76.21571446564209
 21
159.0250738795245
 31
0.0
 70
    32
 71
     5
 42
74.99999999999999
  3
Standard
100
AcDbAlignedDimension
 13
92.10669088836638
 23
121.5250738795245
 33
0.0
 14
91.19443613409387
 24
196.5250738795245
 34
0.0
 50
90.0
100
AcDbRotatedDimension
1001
ACAD
1000
DSTYLE
1002
{
1070
    41
1040
3.5
1070
    42
1040
1.0
1070
    43
1040
7.0
1070
    44
1040
1.0
1070
    73
1070
     0
1070
    74
1070
     0
1070
    77
1070
     1
1070
    78
1070
     8
1070
    79
1070
     2
1070
   140
1040
3.5
1070
   141
1040
1.5
1070
   146
1040
0.5
1070
   147
1040
1.5
1070
   172
1070
     1
1070
   178
1070
     1
1070
   179
1070
     2
1070
   271
1070
     2
1070
   272
1070
     2
1070
   284
1070
     8
1070
   285
1070
     8
1070
   286
1070
     8
1002
}
  0
DIMENSION
  5
79B
330
1E
100
AcDbEntity
  8
BEM
100
AcDbDimension
  2
*D2
 10
70.17996242970219
 20
121.5250738795245
 30
0.0
 11
66.92996242970217
 21
187.5250738795245
 31
0.0
 70
    32
 71
     5
 42
132.0
  3
Standard
100
AcDbAlignedDimension
 13
82.89295515080871
 23
253.5250738795246
 33
0.0
 14
92.10669088836638
 24
121.5250738795245
 34
0.0
 50
90.0
100
AcDbRotatedDimension
1001
ACAD
1000
DSTYLE
1002
{
1070
    41
1040
3.5
1070
    42
1040
1.0
1070
    43
1040
7.0
1070
    44
1040
1.0
1070
    73
1070
     0
1070
    74
1070
     0
1070
    77
1070
     1
1070
    78
1070
     8
1070
    79
1070
     2
1070
   140
1040
3.5
1070
   141
1040
1.5
1070
   146
1040
0.5
1070
   147
1040
1.5
1070
   172
1070
     1
1070
   178
1070
     1
1070
   179
1070
     2
1070
   271
1070
     2
1070
   272
1070
     2
1070
   284
1070
     8
1070
   285
1070
     8
1070
   286
1070
     8
1002
}
  0
DIMENSION
  5
7DA
330
1E
100
AcDbEntity
  8
BEM
100
AcDbDimension
  2
*D3
 10
138.9999999999999
 20
187.6201175613734
 30
0.0
 11
112.4999999999999
 21
190.8701175613733
 31
0.0
 70
    32
  1
%%c<>
 71
     5
 42
53.00000000000006
  3
Standard
100
AcDbAlignedDimension
 13
85.99999999999992
 23
205.5250738795245
 33
0.0
 14
138.9999999999999
 24
205.5250738795244
 34
0.0
100
AcDbRotatedDimension
1001
ACAD
1000
DSTYLE
1002
{
1070
    41
1040
3.5
1070
    42
1040
1.0
1070
    43
1040
7.0
1070
    44
1040
1.0
1070
    73
1070
     0
1070
    74
1070
     0
1070
    77
1070
     1
1070
    78
1070
     8
1070
    79
1070
     2
1070
   140
1040
3.5
1070
   141
1040
1.5
1070
   146
1040
0.5
1070
   147
1040
1.5
1070
   172
1070
     1
1070
   178
1070
     1
1070
   179
1070
     2
1070
   271
1070
     2
1070
   272
1070
     2
1070
   284
1070
     8
1070
   285
1070
     8
1070
   286
1070
     8
1002
}
  0
DIMENSION
  5
7F5
330
1E
100
AcDbEntity
  8
BEM
100
AcDbDimension
  2
*D4
 10
133.4999999999999
 20
108.7819943813596
 30
0.0
 11
112.5
 21
112.0319943813596
 31
0.0
 70
    32
  1
%%c<>
 71
     5
 42
42.0
  3
Standard
100
AcDbAlignedDimension
 13
91.49999999999996
 23
128.4595824651616
 33
0.0
 14
133.4999999999999
 24
128.4595824651621
 34
0.0
100
AcDbRotatedDimension
1001
ACAD
1000
DSTYLE
1002
{
1070
    41
1040
3.5
1070
    42
1040
1.0
1070
    43
1040
7.0
1070
    44
1040
1.0
1070
    73
1070
     0
1070
    74
1070
     0
1070
    77
1070
     1
1070
    78
1070
     8
1070
    79
1070
     2
1070
   140
1040
3.5
1070
   141
1040
1.5
1070
   146
1040
0.5
1070
   147
1040
1.5
1070
   172
1070
     1
1070
   178
1070
     1
1070
   179
1070
     2
1070
   271
1070
     2
1070
   272
1070
     2
1070
   284
1070
     8
1070
   285
1070
     8
1070
   286
1070
     8
1002
}
  0
LINE
  5
814
330
1E
100
AcDbEntity
  8
MITTEL
100
AcDbLine
 10
112.5
 20
185.3238613497368
 30
0.0
 11
112.5
 21
116.5250738795244
 31
0.0
  0
ENDSEC
  0
SECTION
  2
OBJECTS
  0
DICTIONARY
  5
C
330
0
100
AcDbDictionary
281
     1
  3
ACAD_COLOR
350
DF
  3
ACAD_GROUP
350
D
  3
ACAD_LAYOUT
350
19
  3
ACAD_MATERIAL
350
DE
  3
ACAD_MLINESTYLE
350
16
  3
ACAD_PLOTSETTINGS
350
18
  3
ACAD_PLOTSTYLENAME
350
E
  3
AcDbVariableDictionary
350
EA
  0
DICTIONARY
  5
A0
330
1E
100
AcDbDictionary
280
     1
281
     1
  3
ACAD_LAYOUTSELFREF
360
D4
  0
DICTIONARY
  5
A2
330
1A
100
AcDbDictionary
280
     1
281
     1
  3
ACAD_LAYOUTSELFREF
360
D3
  0
DICTIONARY
  5
DF
102
{ACAD_REACTORS
330
C
102
}
330
C
100
AcDbDictionary
281
     1
  0
DICTIONARY
  5
D
102
{ACAD_REACTORS
330
C
102
}
330
C
100
AcDbDictionary
281
     1
  0
DICTIONARY
  5
19
102
{ACAD_REACTORS
330
C
102
}
330
C
100
AcDbDictionary
281
     1
  3
Layout1
350
1D
  3
Model
350
21
  0
DICTIONARY
  5
DE
102
{ACAD_REACTORS
330
C
102
}
330
C
100
AcDbDictionary
281
     1
  0
DICTIONARY
  5
16
102
{ACAD_REACTORS
330
C
102
}
330
C
100
AcDbDictionary
281
     1
  3
Standard
350
17
  0
DICTIONARY
  5
18
102
{ACAD_REACTORS
330
C
102
}
330
C
100
AcDbDictionary
281
     1
  0
ACDBDICTIONARYWDFLT
  5
E
102
{ACAD_REACTORS
330
C
102
}
330
C
100
AcDbDictionary
281
     1
  3
Normal
350
F
100
AcDbDictionaryWithDefault
340
F
  0
DICTIONARY
  5
EA
102
{ACAD_REACTORS
330
C
102
}
330
C
100
AcDbDictionary
281
     1
  3
DIMASSOC
350
EB
  3
PROJECTNAME
350
EC
  0
XRECORD
  5
D4
102
{ACAD_REACTORS
330
A0
102
}
330
A0
100
AcDbXrecord
280
     1
340
1E
  0
XRECORD
  5
D3
102
{ACAD_REACTORS
330
A2
102
}
330
A2
100
AcDbXrecord
280
     1
340
1A
  0
LAYOUT
  5
1D
102
{ACAD_REACTORS
330
19
102
}
330
19
100
AcDbPlotSettings
  1

  2
\\NT_WORK01\HP LaserJet 5000 PCL 6
  4

  6

 40
0.0
 41
0.0
 42
0.0
 43
0.0
 44
0.0
 45
0.0
 46
0.0
 47
0.0
 48
0.0
 49
0.0
140
0.0
141
0.0
142
1.0
143
1.0
 70
   688
 72
     0
 73
     0
 74
     5
  7

 75
    16
147
1.0
 76
     0
 77
     2
 78
   300
148
0.0
149
0.0
100
AcDbLayout
  1
Layout1
 70
     0
 71
     1
 10
0.0
 20
0.0
 11
12.0
 21
9.0
 12
0.0
 22
0.0
 32
0.0
 14
1.000000000000000E+20
 24
1.000000000000000E+20
 34
1.000000000000000E+20
 15
-1.000000000000000E+20
 25
-1.000000000000000E+20
 35
-1.000000000000000E+20
146
0.0
 13
0.0
 23
0.0
 33
0.0
 16
1.0
 26
0.0
 36
0.0
 17
0.0
 27
1.0
 37
0.0
 76
     0
330
1A
  0
LAYOUT
  5
21
102
{ACAD_REACTORS
330
19
102
}
330
19
100
AcDbPlotSettings
  1

  2
\\NT_WORK01\HP LaserJet 5000 PCL 6
  4

  6

 40
0.0
 41
0.0
 42
0.0
 43
0.0
 44
0.0
 45
0.0
 46
0.0
 47
0.0
 48
0.0
 49
0.0
140
0.0
141
0.0
142
1.0
143
1.0
 70
  1712
 72
     0
 73
     0
 74
     0
  7

 75
     0
147
1.0
 76
     0
 77
     2
 78
   300
148
0.0
149
0.0
100
AcDbLayout
  1
Model
 70
     1
 71
     0
 10
0.0
 20
0.0
 11
12.0
 21
9.0
 12
0.0
 22
0.0
 32
0.0
 14
0.0
 24
0.0
 34
0.0
 15
0.0
 25
0.0
 35
0.0
146
0.0
 13
0.0
 23
0.0
 33
0.0
 16
1.0
 26
0.0
 36
0.0
 17
0.0
 27
1.0
 37
0.0
 76
     0
330
1E
  0
MLINESTYLE
  5
17
102
{ACAD_REACTORS
330
16
102
}
330
16
100
AcDbMlineStyle
  2
STANDARD
 70
     0
  3

 62
   256
 51
90.0
 52
90.0
 71
     2
 49
0.5
 62
   256
  6
BYLAYER
 49
-0.5
 62
   256
  6
BYLAYER
  0
ACDBPLACEHOLDER
  5
F
102
{ACAD_REACTORS
330
E
102
}
330
E
  0
DICTIONARYVAR
  5
EB
102
{ACAD_REACTORS
330
EA
102
}
330
EA
100
DictionaryVariables
280
     0
  1
1
  0
DICTIONARYVAR
  5
EC
102
{ACAD_REACTORS
330
EA
102
}
330
EA
100
DictionaryVariables
280
     0
  1

  0
ENDSEC
  0
EOF
