  0
SECTION
  2
HEADER
  9
$ACADVER
  1
AC1018
  9
$ACADMAINTVER
 70
     2
  9
$DWGCODEPAGE
  3
ANSI_1252
  9
$INSBASE
 10
0.0
 20
0.0
 30
0.0
  9
$EXTMIN
 10
-0.0362532231533805
 20
-0.0512671842573127
 30
-0.0000000349181948
  9
$EXTMAX
 10
594.0362587553784
 20
840.051275007606
 30
0.0000000814935746
  9
$LIMMIN
 10
0.0
 20
0.0
  9
$LIMMAX
 10
594.0
 20
840.0
  9
$ORTHOMODE
 70
     1
  9
$REGENMODE
 70
     1
  9
$FILLMODE
 70
     1
  9
$QTEXTMODE
 70
     0
  9
$MIRRTEXT
 70
     1
  9
$LTSCALE
 40
20.0
  9
$ATTMODE
 70
     1
  9
$TEXTSIZE
 40
3.5
  9
$TRACEWID
 40
1.0
  9
$TEXTSTYLE
  7
STANDARD
  9
$CLAYER
  8
VOLL
  9
$CELTYPE
  6
ByLayer
  9
$CECOLOR
 62
   256
  9
$CELTSCALE
 40
1.0
  9
$DISPSILH
 70
     0
  9
$DIMSCALE
 40
2.0
  9
$DIMASZ
 40
3.5
  9
$DIMEXO
 40
1.0
  9
$DIMDLI
 40
7.0
  9
$DIMRND
 40
0.0
  9
$DIMDLE
 40
0.0
  9
$DIMEXE
 40
1.0
  9
$DIMTP
 40
0.0
  9
$DIMTM
 40
0.0
  9
$DIMTXT
 40
3.5
  9
$DIMCEN
 40
1.5
  9
$DIMTSZ
 40
0.0
  9
$DIMTOL
 70
     0
  9
$DIMLIM
 70
     0
  9
$DIMTIH
 70
     0
  9
$DIMTOH
 70
     0
  9
$DIMSE1
 70
     0
  9
$DIMSE2
 70
     0
  9
$DIMTAD
 70
     1
  9
$DIMZIN
 70
     8
  9
$DIMBLK
  1

  9
$DIMASO
 70
     1
  9
$DIMSHO
 70
     0
  9
$DIMPOST
  1

  9
$DIMAPOST
  1

  9
$DIMALT
 70
     0
  9
$DIMALTD
 70
     2
  9
$DIMALTF
 40
25.4
  9
$DIMLFAC
 40
1.0
  9
$DIMTOFL
 70
     1
  9
$DIMTVP
 40
0.0
  9
$DIMTIX
 70
     0
  9
$DIMSOXD
 70
     0
  9
$DIMSAH
 70
     0
  9
$DIMBLK1
  1

  9
$DIMBLK2
  1

  9
$DIMSTYLE
  2
Standard
  9
$DIMCLRD
 70
     0
  9
$DIMCLRE
 70
     0
  9
$DIMCLRT
 70
     1
  9
$DIMTFAC
 40
0.5142857142857144
  9
$DIMGAP
 40
1.5
  9
$DIMJUST
 70
     0
  9
$DIMSD1
 70
     0
  9
$DIMSD2
 70
     0
  9
$DIMTOLJ
 70
     1
  9
$DIMTZIN
 70
     8
  9
$DIMALTZ
 70
     8
  9
$DIMALTTZ
 70
     8
  9
$DIMUPT
 70
     0
  9
$DIMDEC
 70
     2
  9
$DIMTDEC
 70
     2
  9
$DIMALTU
 70
     2
  9
$DIMALTTD
 70
     2
  9
$DIMTXSTY
  7
STANDARD
  9
$DIMAUNIT
 70
     0
  9
$DIMADEC
 70
     2
  9
$DIMALTRND
 40
0.0
  9
$DIMAZIN
 70
     2
  9
$DIMDSEP
 70
    46
  9
$DIMATFIT
 70
     3
  9
$DIMFRAC
 70
     0
  9
$DIMLDRBLK
  1

  9
$DIMLUNIT
 70
     2
  9
$DIMLWD
 70
    -2
  9
$DIMLWE
 70
    -2
  9
$DIMTMOVE
 70
     0
  9
$LUNITS
 70
     2
  9
$LUPREC
 70
     2
  9
$SKETCHINC
 40
1.0
  9
$FILLETRAD
 40
0.0
  9
$AUNITS
 70
     0
  9
$AUPREC
 70
     0
  9
$MENU
  1
ACAD
  9
$ELEVATION
 40
0.0
  9
$PELEVATION
 40
0.0
  9
$THICKNESS
 40
0.0
  9
$LIMCHECK
 70
     0
  9
$CHAMFERA
 40
0.0
  9
$CHAMFERB
 40
0.0
  9
$CHAMFERC
 40
0.0
  9
$CHAMFERD
 40
0.0
  9
$SKPOLY
 70
     0
  9
$TDCREATE
 40
2455397.867059838
  9
$TDUCREATE
 40
2455397.783726505
  9
$TDUPDATE
 40
2456157.315317083
  9
$TDUUPDATE
 40
2456157.231983751
  9
$TDINDWG
 40
0.1713597801
  9
$TDUSRTIMER
 40
0.1713597801
  9
$USRTIMER
 70
     1
  9
$ANGBASE
 50
0.0
  9
$ANGDIR
 70
     0
  9
$PDMODE
 70
     0
  9
$PDSIZE
 40
0.0
  9
$PLINEWID
 40
0.0
  9
$SPLFRAME
 70
     0
  9
$SPLINETYPE
 70
     6
  9
$SPLINESEGS
 70
     8
  9
$HANDSEED
  5
178B
  9
$SURFTAB1
 70
     6
  9
$SURFTAB2
 70
     6
  9
$SURFTYPE
 70
     6
  9
$SURFU
 70
     6
  9
$SURFV
 70
     6
  9
$UCSBASE
  2

  9
$UCSNAME
  2

  9
$UCSORG
 10
0.0
 20
0.0
 30
0.0
  9
$UCSXDIR
 10
1.0
 20
0.0
 30
0.0
  9
$UCSYDIR
 10
0.0
 20
1.0
 30
0.0
  9
$UCSORTHOREF
  2

  9
$UCSORTHOVIEW
 70
     0
  9
$UCSORGTOP
 10
0.0
 20
0.0
 30
0.0
  9
$UCSORGBOTTOM
 10
0.0
 20
0.0
 30
0.0
  9
$UCSORGLEFT
 10
0.0
 20
0.0
 30
0.0
  9
$UCSORGRIGHT
 10
0.0
 20
0.0
 30
0.0
  9
$UCSORGFRONT
 10
0.0
 20
0.0
 30
0.0
  9
$UCSORGBACK
 10
0.0
 20
0.0
 30
0.0
  9
$PUCSBASE
  2

  9
$PUCSNAME
  2

  9
$PUCSORG
 10
0.0
 20
0.0
 30
0.0
  9
$PUCSXDIR
 10
1.0
 20
0.0
 30
0.0
  9
$PUCSYDIR
 10
0.0
 20
1.0
 30
0.0
  9
$PUCSORTHOREF
  2

  9
$PUCSORTHOVIEW
 70
     0
  9
$PUCSORGTOP
 10
0.0
 20
0.0
 30
0.0
  9
$PUCSORGBOTTOM
 10
0.0
 20
0.0
 30
0.0
  9
$PUCSORGLEFT
 10
0.0
 20
0.0
 30
0.0
  9
$PUCSORGRIGHT
 10
0.0
 20
0.0
 30
0.0
  9
$PUCSORGFRONT
 10
0.0
 20
0.0
 30
0.0
  9
$PUCSORGBACK
 10
0.0
 20
0.0
 30
0.0
  9
$USERI1
 70
     0
  9
$USERI2
 70
     0
  9
$USERI3
 70
     0
  9
$USERI4
 70
     0
  9
$USERI5
 70
     0
  9
$USERR1
 40
0.0
  9
$USERR2
 40
0.0
  9
$USERR3
 40
0.0
  9
$USERR4
 40
0.0
  9
$USERR5
 40
0.0
  9
$WORLDVIEW
 70
     1
  9
$SHADEDGE
 70
     3
  9
$SHADEDIF
 70
    70
  9
$TILEMODE
 70
     1
  9
$MAXACTVP
 70
    16
  9
$PINSBASE
 10
0.0
 20
0.0
 30
0.0
  9
$PLIMCHECK
 70
     0
  9
$PEXTMIN
 10
1.000000000000000E+20
 20
1.000000000000000E+20
 30
1.000000000000000E+20
  9
$PEXTMAX
 10
-1.000000000000000E+20
 20
-1.000000000000000E+20
 30
-1.000000000000000E+20
  9
$PLIMMIN
 10
0.0
 20
0.0
  9
$PLIMMAX
 10
12.0
 20
9.0
  9
$UNITMODE
 70
     0
  9
$VISRETAIN
 70
     0
  9
$PLINEGEN
 70
     0
  9
$PSLTSCALE
 70
     0
  9
$TREEDEPTH
 70
  3020
  9
$CMLSTYLE
  2
Standard
  9
$CMLJUST
 70
     0
  9
$CMLSCALE
 40
1.0
  9
$PROXYGRAPHICS
 70
     1
  9
$MEASUREMENT
 70
     0
  9
$CELWEIGHT
370
    -1
  9
$ENDCAPS
280
     0
  9
$JOINSTYLE
280
     0
  9
$LWDISPLAY
290
     0
  9
$INSUNITS
 70
     0
  9
$HYPERLINKBASE
  1

  9
$STYLESHEET
  1
monochrome 1.ctb
  9
$XEDIT
290
     1
  9
$CEPSNTYPE
380
     0
  9
$PSTYLEMODE
290
     1
  9
$FINGERPRINTGUID
  2
{D68B0D0D-A558-11D7-B632-000102183313}
  9
$VERSIONGUID
  2
{42D2F1D5-D78E-4A0F-9594-C59D4E836D12}
  9
$EXTNAMES
290
     1
  9
$PSVPSCALE
 40
0.0
  9
$OLESTARTUP
290
     0
  9
$SORTENTS
280
   127
  9
$INDEXCTL
280
     0
  9
$HIDETEXT
280
     0
  9
$XCLIPFRAME
290
     0
  9
$HALOGAP
280
     0
  9
$OBSCOLOR
 70
   257
  9
$OBSLTYPE
280
     0
  9
$INTERSECTIONDISPLAY
280
     0
  9
$INTERSECTIONCOLOR
 70
   257
  9
$DIMASSOC
280
     1
  9
$PROJECTNAME
  1

  0
ENDSEC
  0
SECTION
  2
CLASSES
  0
CLASS
  1
ACDBDICTIONARYWDFLT
  2
AcDbDictionaryWithDefault
  3
ObjectDBX Classes
 90
        0
 91
        1
280
     0
281
     0
  0
CLASS
  1
DICTIONARYVAR
  2
AcDbDictionaryVar
  3
ObjectDBX Classes
 90
        0
 91
        2
280
     0
281
     0
  0
ENDSEC
  0
SECTION
  2
TABLES
  0
TABLE
  2
VPORT
  5
8
330
0
100
AcDbSymbolTable
 70
     3
  0
VPORT
  5
178A
330
8
100
AcDbSymbolTableRecord
100
AcDbViewportTableRecord
  2
*Active
 70
     0
 10
0.0
 20
0.0
 11
1.0
 21
1.0
 12
297.0
 22
420.0
 13
0.0
 23
0.0
 14
1.0
 24
1.0
 15
10.0
 25
10.0
 16
0.0
 26
0.0
 36
1.0
 17
0.0
 27
0.0
 37
0.0
 40
840.0
 41
1.404858299595141
 42
50.0
 43
0.0
 44
0.0
 50
0.0
 51
0.0
 71
     0
 72
  1500
 73
     1
 74
     0
 75
     0
 76
     0
 77
     0
 78
     0
281
     0
 65
     1
110
0.0
120
0.0
130
0.0
111
1.0
121
0.0
131
0.0
112
0.0
122
1.0
132
0.0
 79
     0
146
0.0
  0
ENDTAB
  0
TABLE
  2
LTYPE
  5
5
330
0
100
AcDbSymbolTable
 70
     2
  0
LTYPE
  5
13
330
5
100
AcDbSymbolTableRecord
100
AcDbLinetypeTableRecord
  2
ByBlock
 70
     0
  3

 72
    65
 73
     0
 40
0.0
  0
LTYPE
  5
14
330
5
100
AcDbSymbolTableRecord
100
AcDbLinetypeTableRecord
  2
ByLayer
 70
     0
  3

 72
    65
 73
     0
 40
0.0
  0
LTYPE
  5
15
330
5
100
AcDbSymbolTableRecord
100
AcDbLinetypeTableRecord
  2
Continuous
 70
     0
  3
Solid line
 72
    65
 73
     0
 40
0.0
  0
LTYPE
  5
25
330
5
100
AcDbSymbolTableRecord
100
AcDbLinetypeTableRecord
  2
STRICHPUNKT
 70
     0
  3
__ . __ . __ . __ . __ . __ . __ . __ . __ . __
 72
    65
 73
     4
 40
1.0
 49
0.5
 74
     0
 49
-0.25
 74
     0
 49
0.0
 74
     0
 49
-0.25
 74
     0
  0
ENDTAB
  0
TABLE
  2
LAYER
  5
2
330
0
100
AcDbSymbolTable
 70
     9
  0
LAYER
  5
10
330
2
100
AcDbSymbolTableRecord
100
AcDbLayerTableRecord
  2
0
 70
     0
 62
     7
  6
Continuous
370
    -3
390
F
  0
LAYER
  5
2B
330
2
100
AcDbSymbolTableRecord
100
AcDbLayerTableRecord
  2
VOLL
 70
     0
 62
     1
  6
Continuous
370
    -3
390
F
  0
LAYER
  5
2C
330
2
100
AcDbSymbolTableRecord
100
AcDbLayerTableRecord
  2
HILF
 70
     0
 62
     2
  6
Continuous
370
    -3
390
F
  0
LAYER
  5
2D
330
2
100
AcDbSymbolTableRecord
100
AcDbLayerTableRecord
  2
MITTEL
 70
     0
 62
     2
  6
STRICHPUNKT
370
    -3
390
F
  0
LAYER
  5
2F
330
2
100
AcDbSymbolTableRecord
100
AcDbLayerTableRecord
  2
BEM
 70
     0
 62
     7
  6
Continuous
370
    -3
390
F
  0
LAYER
  5
30
330
2
100
AcDbSymbolTableRecord
100
AcDbLayerTableRecord
  2
STEMPEL
 70
     0
 62
     3
  6
Continuous
370
    -3
390
F
  0
LAYER
  5
33
330
2
100
AcDbSymbolTableRecord
100
AcDbLayerTableRecord
  2
TEXT
 70
     0
 62
     7
  6
Continuous
370
    -3
390
F
  0
LAYER
  5
1AE
330
2
100
AcDbSymbolTableRecord
100
AcDbLayerTableRecord
  2
SCHRAFF
 70
     0
 62
     7
  6
Continuous
370
    -3
390
F
  0
LAYER
  5
7AB
330
2
100
AcDbSymbolTableRecord
100
AcDbLayerTableRecord
  2
DEFPOINTS
 70
     0
 62
     7
  6
Continuous
290
     0
370
    -3
390
F
  0
ENDTAB
  0
TABLE
  2
STYLE
  5
3
330
0
100
AcDbSymbolTable
 70
     2
  0
STYLE
  5
11
330
3
100
AcDbSymbolTableRecord
100
AcDbTextStyleTableRecord
  2
STANDARD
 70
     0
 40
0.0
 41
0.8
 50
0.0
 71
     0
 42
3.5
  3
simplex.shx
  4

  0
STYLE
  5
24
330
3
100
AcDbSymbolTableRecord
100
AcDbTextStyleTableRecord
  2
GREEKS
 70
     0
 40
0.0
 41
0.8
 50
0.0
 71
     0
 42
2.5
  3
SIMPLEX.shx
  4

  0
ENDTAB
  0
TABLE
  2
VIEW
  5
6
330
0
100
AcDbSymbolTable
 70
     0
  0
ENDTAB
  0
TABLE
  2
UCS
  5
7
330
0
100
AcDbSymbolTable
 70
     0
  0
ENDTAB
  0
TABLE
  2
APPID
  5
9
330
0
100
AcDbSymbolTable
 70
     1
  0
APPID
  5
12
330
9
100
AcDbSymbolTableRecord
100
AcDbRegAppTableRecord
  2
ACAD
 70
     0
  0
ENDTAB
  0
TABLE
  2
DIMSTYLE
  5
A
330
0
100
AcDbSymbolTable
 70
     1
100
AcDbDimStyleTable
 71
     1
340
A2
  0
DIMSTYLE
105
A2
102
{ACAD_REACTORS
330
10DF
330
1123
330
1129
330
112A
330
1574
330
15DF
330
15E0
330
15EE
330
16BB
102
}
330
A
100
AcDbSymbolTableRecord
100
AcDbDimStyleTableRecord
  2
Standard
 70
     0
340
11
  0
ENDTAB
  0
TABLE
  2
BLOCK_RECORD
  5
1
330
0
100
AcDbSymbolTable
 70
    11
  0
BLOCK_RECORD
  5
1E
102
{ACAD_XDICTIONARY
360
DB
102
}
330
1
100
AcDbSymbolTableRecord
100
AcDbBlockTableRecord
  2
*Model_Space
340
21
  0
BLOCK_RECORD
  5
1A
102
{ACAD_XDICTIONARY
360
DD
102
}
330
1
100
AcDbSymbolTableRecord
100
AcDbBlockTableRecord
  2
*Paper_Space
340
1D
  0
BLOCK_RECORD
  5
22
330
1
100
AcDbSymbolTableRecord
100
AcDbBlockTableRecord
  2
LOGO
340
0
102
{BLKREFS
331
56
102
}
  0
BLOCK_RECORD
  5
23
330
1
100
AcDbSymbolTableRecord
100
AcDbBlockTableRecord
  2
LORO
340
0
102
{BLKREFS
331
9B
102
}
  0
BLOCK_RECORD
  5
112C
330
1
100
AcDbSymbolTableRecord
100
AcDbBlockTableRecord
  2
*D2
340
0
  0
BLOCK_RECORD
  5
1152
330
1
100
AcDbSymbolTableRecord
100
AcDbBlockTableRecord
  2
*D3
340
0
  0
BLOCK_RECORD
  5
115E
330
1
100
AcDbSymbolTableRecord
100
AcDbBlockTableRecord
  2
*D4
340
0
  0
BLOCK_RECORD
  5
116A
330
1
100
AcDbSymbolTableRecord
100
AcDbBlockTableRecord
  2
*D5
340
0
  0
BLOCK_RECORD
  5
16D5
330
1
100
AcDbSymbolTableRecord
100
AcDbBlockTableRecord
  2
*D6
340
0
  0
BLOCK_RECORD
  5
16E1
330
1
100
AcDbSymbolTableRecord
100
AcDbBlockTableRecord
  2
*D7
340
0
  0
BLOCK_RECORD
  5
16ED
330
1
100
AcDbSymbolTableRecord
100
AcDbBlockTableRecord
  2
*D8
340
0
  0
BLOCK_RECORD
  5
16F9
330
1
100
AcDbSymbolTableRecord
100
AcDbBlockTableRecord
  2
*D9
340
0
  0
BLOCK_RECORD
  5
1705
330
1
100
AcDbSymbolTableRecord
100
AcDbBlockTableRecord
  2
*D10
340
0
  0
ENDTAB
  0
ENDSEC
  0
SECTION
  2
BLOCKS
  0
BLOCK
  5
37
330
1E
100
AcDbEntity
  8
0
100
AcDbBlockBegin
  2
*Model_Space
 70
     0
 10
0.0
 20
0.0
 30
0.0
  3
*Model_Space
  1

  0
ENDBLK
  5
38
330
1E
100
AcDbEntity
  8
0
100
AcDbBlockEnd
  0
BLOCK
  5
35
330
1A
100
AcDbEntity
 67
     1
  8
0
100
AcDbBlockBegin
  2
*Paper_Space
 70
     0
 10
0.0
 20
0.0
 30
0.0
  3
*Paper_Space
  1

  0
ENDBLK
  5
36
330
1A
100
AcDbEntity
 67
     1
  8
0
100
AcDbBlockEnd
  0
BLOCK
  5
39
330
22
100
AcDbEntity
  8
0
100
AcDbBlockBegin
  2
LOGO
 70
     0
 10
0.0
 20
0.0
 30
0.0
  3
LOGO
  1

  0
ARC
  5
3A
330
22
100
AcDbEntity
  8
0
100
AcDbCircle
 10
11.59973089678112
 20
-9.271599258481501
 30
0.0
 40
4.5
100
AcDbArc
 50
270.0
 51
231.0575587310159
  0
LINE
  5
3B
330
22
100
AcDbEntity
  8
0
100
AcDbLine
 10
3.599730896781125
 20
-4.771599258481529
 30
0.0
 11
3.599730896781153
 21
-11.77159925848133
 31
0.0
  0
LINE
  5
3C
330
22
100
AcDbEntity
  8
0
100
AcDbLine
 10
2.599730896781125
 20
-4.771599258481529
 30
0.0
 11
2.599730896781153
 21
-11.77159925848133
 31
0.0
  0
CIRCLE
  5
3D
330
22
100
AcDbEntity
  8
0
100
AcDbCircle
 10
11.59973089678112
 20
-9.271599258481501
 30
0.0
 40
3.5
  0
ARC
  5
3E
330
22
100
AcDbEntity
  8
0
100
AcDbCircle
 10
31.59973089678115
 20
-9.271599258481472
 30
0.0
 40
4.5
100
AcDbArc
 50
270.0
 51
231.0575587310182
  0
LINE
  5
3F
330
22
100
AcDbEntity
  8
0
100
AcDbLine
 10
17.59973089678112
 20
-4.771599258481472
 30
0.0
 11
17.59973089678115
 21
-13.77159925848147
 31
0.0
  0
ARC
  5
40
330
22
100
AcDbEntity
  8
0
100
AcDbCircle
 10
22.59973089678116
 20
-7.271599258481472
 30
0.0
 40
2.5
100
AcDbArc
 50
293.1161887722295
 51
90.0
  0
CIRCLE
  5
41
330
22
100
AcDbEntity
  8
0
100
AcDbCircle
 10
31.59973089678115
 20
-9.271599258481472
 30
0.0
 40
3.5
  0
ARC
  5
42
330
22
100
AcDbEntity
  8
0
100
AcDbCircle
 10
4.599730896781153
 20
-11.77159925848133
 30
0.0
 40
1.0
100
AcDbArc
 50
180.0
 51
270.0
  0
ARC
  5
43
330
22
100
AcDbEntity
  8
0
100
AcDbCircle
 10
4.599730896781153
 20
-11.77159925848133
 30
0.0
 40
2.0
100
AcDbArc
 50
179.9999999999992
 51
270.0
  0
LINE
  5
44
330
22
100
AcDbEntity
  8
0
100
AcDbLine
 10
11.59973089678115
 20
-13.77159925848144
 30
0.0
 11
4.599730896781153
 21
-13.77159925848147
 31
0.0
  0
LINE
  5
45
330
22
100
AcDbEntity
  8
0
100
AcDbLine
 10
8.771303772034769
 20
-12.77159925848136
 30
0.0
 11
4.599730896781153
 21
-12.77159925848133
 31
0.0
  0
LINE
  5
46
330
22
100
AcDbEntity
  8
0
100
AcDbLine
 10
31.59973089678115
 20
-13.77159925848147
 30
0.0
 11
23.6715276665056
 21
-13.77159925848144
 31
0.0
  0
LINE
  5
47
330
22
100
AcDbEntity
  8
0
100
AcDbLine
 10
23.56565672307022
 20
-9.51278021337896
 30
0.0
 11
24.4388546544846
 21
-12.77159925848144
 31
0.0
  0
LINE
  5
48
330
22
100
AcDbEntity
  8
0
100
AcDbLine
 10
22.59973089678116
 20
-9.771599258481472
 30
0.0
 11
18.59973089678112
 21
-9.771599258481472
 31
0.0
  0
LINE
  5
49
330
22
100
AcDbEntity
  8
0
100
AcDbLine
 10
18.59973089678115
 20
-13.77159925848144
 30
0.0
 11
17.59973089678115
 21
-13.77159925848144
 31
0.0
  0
LINE
  5
4A
330
22
100
AcDbEntity
  8
0
100
AcDbLine
 10
18.59973089678115
 20
-9.771599258481472
 30
0.0
 11
18.59973089678115
 21
-13.77159925848144
 31
0.0
  0
LINE
  5
4B
330
22
100
AcDbEntity
  8
0
100
AcDbLine
 10
22.59973089678116
 20
-9.771599258481472
 30
0.0
 11
23.67152766650562
 21
-13.77159925848147
 31
0.0
  0
ARC
  5
4C
330
22
100
AcDbEntity
  8
0
100
AcDbCircle
 10
22.59973089678116
 20
-7.271599258481472
 30
0.0
 40
2.5
100
AcDbArc
 50
270.0
 51
270.0000000000007
  0
LINE
  5
4D
330
22
100
AcDbEntity
  8
0
100
AcDbLine
 10
28.77130377203494
 20
-12.77159925848147
 30
0.0
 11
24.43885465448463
 21
-12.77159925848144
 31
0.0
  0
LINE
  5
4E
330
22
100
AcDbEntity
  8
0
100
AcDbLine
 10
3.599730896781125
 20
-4.771599258481472
 30
0.0
 11
2.599730896781125
 21
-4.771599258481472
 31
0.0
  0
LINE
  5
4F
330
22
100
AcDbEntity
  8
0
100
AcDbLine
 10
22.59973089678116
 20
-8.771599258481472
 30
0.0
 11
18.59973089678115
 21
-8.771599258481472
 31
0.0
  0
LINE
  5
50
330
22
100
AcDbEntity
  8
0
100
AcDbLine
 10
22.59973089678116
 20
-5.771599258481472
 30
0.0
 11
18.59973089678115
 21
-5.771599258481472
 31
0.0
  0
LINE
  5
51
330
22
100
AcDbEntity
  8
0
100
AcDbLine
 10
22.59973089678116
 20
-4.771599258481472
 30
0.0
 11
17.59973089678115
 21
-4.771599258481472
 31
0.0
  0
LINE
  5
52
330
22
100
AcDbEntity
  8
0
100
AcDbLine
 10
18.59973089678115
 20
-5.771599258481472
 30
0.0
 11
18.59973089678115
 21
-8.771599258481472
 31
0.0
  0
ARC
  5
53
330
22
100
AcDbEntity
  8
0
100
AcDbCircle
 10
22.59973089678116
 20
-7.271599258481472
 30
0.0
 40
1.5
100
AcDbArc
 50
270.0
 51
90.0
  0
ENDBLK
  5
54
330
22
100
AcDbEntity
  8
0
100
AcDbBlockEnd
  0
BLOCK
  5
55
330
23
100
AcDbEntity
  8
0
100
AcDbBlockBegin
  2
LORO
 70
     0
 10
0.0
 20
0.0
 30
0.0
  3
LORO
  1

  0
INSERT
  5
56
330
23
100
AcDbEntity
  8
STEMPEL
100
AcDbBlockReference
  2
LOGO
 10
-1.748032802467321
 20
3.771489518552062
 30
0.0
  0
ENDBLK
  5
57
330
23
100
AcDbEntity
  8
0
100
AcDbBlockEnd
  0
BLOCK
  5
1136
330
112C
100
AcDbEntity
  8
0
100
AcDbBlockBegin
  2
*D2
 70
     1
 10
0.0
 20
0.0
 30
0.0
  3
*D2
  1

  0
LINE
  5
13B3
330
112C
100
AcDbEntity
  8
BEM
 62
     0
370
    -2
100
AcDbLine
 10
155.6449217067874
 20
173.1535724442747
 30
0.0
 11
155.6449217067874
 21
142.8045905720857
 31
0.0
  0
LINE
  5
13B4
330
112C
100
AcDbEntity
  8
BEM
 62
     0
370
    -2
100
AcDbLine
 10
288.6449217067874
 20
173.1535724442734
 30
0.0
 11
288.6449217067874
 21
142.8045905720857
 31
0.0
  0
LINE
  5
13B5
330
112C
100
AcDbEntity
  8
BEM
 62
     0
370
    -2
100
AcDbLine
 10
162.6449217067874
 20
144.8045905720857
 30
0.0
 11
281.6449217067874
 21
144.8045905720857
 31
0.0
  0
SOLID
  5
13B6
330
112C
100
AcDbEntity
  8
BEM
 62
     0
100
AcDbTrace
 10
162.6449217067874
 20
145.9712572387524
 30
0.0
 11
162.6449217067874
 21
143.6379239054191
 31
0.0
 12
155.6449217067874
 22
144.8045905720857
 32
0.0
 13
155.6449217067874
 23
144.8045905720857
 33
0.0
  0
SOLID
  5
13B7
330
112C
100
AcDbEntity
  8
BEM
 62
     0
100
AcDbTrace
 10
281.6449217067874
 20
145.9712572387524
 30
0.0
 11
281.6449217067874
 21
143.6379239054191
 31
0.0
 12
288.6449217067874
 22
144.8045905720857
 32
0.0
 13
288.6449217067874
 23
144.8045905720857
 33
0.0
  0
MTEXT
  5
13B8
330
112C
100
AcDbEntity
  8
BEM
 62
     1
100
AcDbMText
 10
222.1449217067874
 20
151.3045905720858
 30
0.0
 40
7.0
 41
0.0
 71
     5
 72
     1
  1
\A1;%%c133
 73
     1
 44
1.0
  0
POINT
  5
13B9
330
112C
100
AcDbEntity
  8
DEFPOINTS
 62
     0
100
AcDbPoint
 10
155.6449217067874
 20
175.1535724442747
 30
0.0
  0
POINT
  5
13BA
330
112C
100
AcDbEntity
  8
DEFPOINTS
 62
     0
100
AcDbPoint
 10
288.6449217067874
 20
175.1535724442734
 30
0.0
  0
POINT
  5
13BB
330
112C
100
AcDbEntity
  8
DEFPOINTS
 62
     0
100
AcDbPoint
 10
288.6449217067874
 20
144.8045905720857
 30
0.0
  0
ENDBLK
  5
1137
330
112C
100
AcDbEntity
  8
0
100
AcDbBlockEnd
  0
BLOCK
  5
115C
330
1152
100
AcDbEntity
  8
0
100
AcDbBlockBegin
  2
*D3
 70
     1
 10
0.0
 20
0.0
 30
0.0
  3
*D3
  1

  0
LINE
  5
13AA
330
1152
100
AcDbEntity
  8
BEM
 62
     0
370
    -2
100
AcDbLine
 10
57.14492170678744
 20
481.2627248015459
 30
0.0
 11
57.14492170678744
 21
438.9747449228927
 31
0.0
  0
LINE
  5
13AB
330
1152
100
AcDbEntity
  8
BEM
 62
     0
370
    -2
100
AcDbLine
 10
387.1449217067874
 20
481.2627248015458
 30
0.0
 11
387.1449217067874
 21
438.9747449228927
 31
0.0
  0
LINE
  5
13AC
330
1152
100
AcDbEntity
  8
BEM
 62
     0
370
    -2
100
AcDbLine
 10
64.14492170678744
 20
440.9747449228928
 30
0.0
 11
380.1449217067874
 21
440.9747449228928
 31
0.0
  0
SOLID
  5
13AD
330
1152
100
AcDbEntity
  8
BEM
 62
     0
100
AcDbTrace
 10
64.14492170678744
 20
442.1414115895594
 30
0.0
 11
64.14492170678744
 21
439.8080782562261
 31
0.0
 12
57.14492170678744
 22
440.9747449228928
 32
0.0
 13
57.14492170678744
 23
440.9747449228928
 33
0.0
  0
SOLID
  5
13AE
330
1152
100
AcDbEntity
  8
BEM
 62
     0
100
AcDbTrace
 10
380.1449217067874
 20
442.1414115895594
 30
0.0
 11
380.1449217067874
 21
439.8080782562261
 31
0.0
 12
387.1449217067874
 22
440.9747449228928
 32
0.0
 13
387.1449217067874
 23
440.9747449228928
 33
0.0
  0
MTEXT
  5
13AF
330
1152
100
AcDbEntity
  8
BEM
 62
     1
100
AcDbMText
 10
222.1449217067875
 20
447.4747449228927
 30
0.0
 40
7.0
 41
0.0
 71
     5
 72
     1
  1
\A1;%%C330
 73
     1
 44
1.0
  0
POINT
  5
13B0
330
1152
100
AcDbEntity
  8
DEFPOINTS
 62
     0
100
AcDbPoint
 10
57.14492170678744
 20
483.262724801546
 30
0.0
  0
POINT
  5
13B1
330
1152
100
AcDbEntity
  8
DEFPOINTS
 62
     0
100
AcDbPoint
 10
387.1449217067874
 20
483.2627248015459
 30
0.0
  0
POINT
  5
13B2
330
1152
100
AcDbEntity
  8
DEFPOINTS
 62
     0
100
AcDbPoint
 10
387.1449217067874
 20
440.9747449228928
 30
0.0
  0
ENDBLK
  5
115D
330
1152
100
AcDbEntity
  8
0
100
AcDbBlockEnd
  0
BLOCK
  5
1168
330
115E
100
AcDbEntity
  8
0
100
AcDbBlockBegin
  2
*D4
 70
     1
 10
0.0
 20
0.0
 30
0.0
  3
*D4
  1

  0
LINE
  5
13A1
330
115E
100
AcDbEntity
  8
BEM
 62
     0
370
    -2
100
AcDbLine
 10
147.3864769093812
 20
565.2627248015457
 30
0.0
 11
40.28460539449334
 21
565.2627248015457
 31
0.0
  0
LINE
  5
13A2
330
115E
100
AcDbEntity
  8
BEM
 62
     0
370
    -2
100
AcDbLine
 10
55.14492170678733
 20
485.2627248015457
 30
0.0
 11
40.28460539449333
 21
485.2627248015457
 31
0.0
  0
LINE
  5
13A3
330
115E
100
AcDbEntity
  8
BEM
 62
     0
370
    -2
100
AcDbLine
 10
42.28460539449334
 20
558.2627248015458
 30
0.0
 11
42.28460539449332
 21
492.2627248015458
 31
0.0
  0
SOLID
  5
13A4
330
115E
100
AcDbEntity
  8
BEM
 62
     0
100
AcDbTrace
 10
41.11793872782667
 20
558.2627248015458
 30
0.0
 11
43.45127206116
 21
558.2627248015458
 31
0.0
 12
42.28460539449335
 22
565.2627248015457
 32
0.0
 13
42.28460539449335
 23
565.2627248015457
 33
0.0
  0
SOLID
  5
13A5
330
115E
100
AcDbEntity
  8
BEM
 62
     0
100
AcDbTrace
 10
41.11793872782666
 20
492.2627248015458
 30
0.0
 11
43.45127206115999
 21
492.2627248015458
 31
0.0
 12
42.28460539449332
 22
485.2627248015457
 32
0.0
 13
42.28460539449332
 23
485.2627248015457
 33
0.0
  0
MTEXT
  5
13A6
330
115E
100
AcDbEntity
  8
BEM
 62
     1
100
AcDbMText
 10
35.78460539449326
 20
525.2627248015458
 30
0.0
 40
7.0
 41
0.0
 71
     5
 72
     1
  1
\A1;80
 11
0.0000000000000001
 21
1.0
 31
0.0
 73
     1
 44
1.0
  0
POINT
  5
13A7
330
115E
100
AcDbEntity
  8
DEFPOINTS
 62
     0
100
AcDbPoint
 10
149.3864769093812
 20
565.2627248015457
 30
0.0
  0
POINT
  5
13A8
330
115E
100
AcDbEntity
  8
DEFPOINTS
 62
     0
100
AcDbPoint
 10
57.14492170678733
 20
485.2627248015457
 30
0.0
  0
POINT
  5
13A9
330
115E
100
AcDbEntity
  8
DEFPOINTS
 62
     0
100
AcDbPoint
 10
42.28460539449332
 20
485.2627248015457
 30
0.0
  0
ENDBLK
  5
1169
330
115E
100
AcDbEntity
  8
0
100
AcDbBlockEnd
  0
BLOCK
  5
1174
330
116A
100
AcDbEntity
  8
0
100
AcDbBlockBegin
  2
*D5
 70
     1
 10
0.0
 20
0.0
 30
0.0
  3
*D5
  1

  0
LINE
  5
1398
330
116A
100
AcDbEntity
  8
BEM
 62
     0
370
    -2
100
AcDbLine
 10
147.3864769093812
 20
565.2627248015457
 30
0.0
 11
26.60581472214652
 21
565.2627248015457
 31
0.0
  0
LINE
  5
1399
330
116A
100
AcDbEntity
  8
BEM
 62
     0
370
    -2
100
AcDbLine
 10
154.5102587481883
 20
165.2627248015458
 30
0.0
 11
26.60581472214643
 21
165.2627248015458
 31
0.0
  0
LINE
  5
139A
330
116A
100
AcDbEntity
  8
BEM
 62
     0
370
    -2
100
AcDbLine
 10
28.60581472214651
 20
558.2627248015458
 30
0.0
 11
28.60581472214642
 21
172.2627248015458
 31
0.0
  0
SOLID
  5
139B
330
116A
100
AcDbEntity
  8
BEM
 62
     0
100
AcDbTrace
 10
27.43914805547984
 20
558.2627248015458
 30
0.0
 11
29.77248138881318
 21
558.2627248015458
 31
0.0
 12
28.60581472214651
 22
565.2627248015457
 32
0.0
 13
28.60581472214651
 23
565.2627248015457
 33
0.0
  0
SOLID
  5
139C
330
116A
100
AcDbEntity
  8
BEM
 62
     0
100
AcDbTrace
 10
27.43914805547976
 20
172.2627248015458
 30
0.0
 11
29.77248138881309
 21
172.2627248015458
 31
0.0
 12
28.60581472214642
 22
165.2627248015458
 32
0.0
 13
28.60581472214642
 23
165.2627248015458
 33
0.0
  0
MTEXT
  5
139D
330
116A
100
AcDbEntity
  8
BEM
 62
     1
100
AcDbMText
 10
22.10581472214641
 20
365.2627248015458
 30
0.0
 40
7.0
 41
0.0
 71
     5
 72
     1
  1
\A1;400
 11
0.0000000000000001
 21
1.0
 31
0.0
 73
     1
 44
1.0
  0
POINT
  5
139E
330
116A
100
AcDbEntity
  8
DEFPOINTS
 62
     0
100
AcDbPoint
 10
149.3864769093812
 20
565.2627248015457
 30
0.0
  0
POINT
  5
139F
330
116A
100
AcDbEntity
  8
DEFPOINTS
 62
     0
100
AcDbPoint
 10
156.5102587481883
 20
165.2627248015458
 30
0.0
  0
POINT
  5
13A0
330
116A
100
AcDbEntity
  8
DEFPOINTS
 62
     0
100
AcDbPoint
 10
28.60581472214642
 20
165.2627248015458
 30
0.0
  0
ENDBLK
  5
1175
330
116A
100
AcDbEntity
  8
0
100
AcDbBlockEnd
  0
BLOCK
  5
16DF
330
16D5
100
AcDbEntity
  8
0
100
AcDbBlockBegin
  2
*D6
 70
     1
 10
0.0
 20
0.0
 30
0.0
  3
*D6
  1

  0
LINE
  5
1768
330
16D5
100
AcDbEntity
  8
BEM
 62
     0
370
    -2
100
AcDbLine
 10
112.1449217067876
 20
671.3883513992295
 30
0.0
 11
112.1449217067876
 21
707.1273777824946
 31
0.0
  0
LINE
  5
1769
330
16D5
100
AcDbEntity
  8
BEM
 62
     0
370
    -2
100
AcDbLine
 10
332.1449217067879
 20
671.3883513992295
 30
0.0
 11
332.1449217067879
 21
707.1273777824946
 31
0.0
  0
LINE
  5
176A
330
16D5
100
AcDbEntity
  8
BEM
 62
     0
370
    -2
100
AcDbLine
 10
119.1449217067876
 20
705.1273777824945
 30
0.0
 11
325.1449217067879
 21
705.1273777824945
 31
0.0
  0
SOLID
  5
176B
330
16D5
100
AcDbEntity
  8
BEM
 62
     0
100
AcDbTrace
 10
119.1449217067876
 20
706.2940444491612
 30
0.0
 11
119.1449217067876
 21
703.960711115828
 31
0.0
 12
112.1449217067876
 22
705.1273777824945
 32
0.0
 13
112.1449217067876
 23
705.1273777824945
 33
0.0
  0
SOLID
  5
176C
330
16D5
100
AcDbEntity
  8
BEM
 62
     0
100
AcDbTrace
 10
325.1449217067879
 20
706.2940444491612
 30
0.0
 11
325.1449217067879
 21
703.960711115828
 31
0.0
 12
332.1449217067879
 22
705.1273777824945
 32
0.0
 13
332.1449217067879
 23
705.1273777824945
 33
0.0
  0
MTEXT
  5
176D
330
16D5
100
AcDbEntity
  8
BEM
 62
     1
100
AcDbMText
 10
222.1449217067878
 20
711.6273777824946
 30
0.0
 40
7.0
 41
0.0
 71
     5
 72
     1
  1
\A1;%%c220
 73
     1
 44
1.0
  0
POINT
  5
176E
330
16D5
100
AcDbEntity
  8
DEFPOINTS
 62
     0
100
AcDbPoint
 10
112.1449217067876
 20
669.3883513992296
 30
0.0
  0
POINT
  5
176F
330
16D5
100
AcDbEntity
  8
DEFPOINTS
 62
     0
100
AcDbPoint
 10
332.1449217067879
 20
669.3883513992296
 30
0.0
  0
POINT
  5
1770
330
16D5
100
AcDbEntity
  8
DEFPOINTS
 62
     0
100
AcDbPoint
 10
332.1449217067879
 20
705.1273777824945
 30
0.0
  0
ENDBLK
  5
16E0
330
16D5
100
AcDbEntity
  8
0
100
AcDbBlockEnd
  0
BLOCK
  5
16EB
330
16E1
100
AcDbEntity
  8
0
100
AcDbBlockBegin
  2
*D7
 70
     1
 10
0.0
 20
0.0
 30
0.0
  3
*D7
  1

  0
LINE
  5
175F
330
16E1
100
AcDbEntity
  8
BEM
 62
     0
370
    -2
100
AcDbLine
 10
92.14492170678756
 20
602.3884093665462
 30
0.0
 11
92.14492170678758
 21
720.7135203032503
 31
0.0
  0
LINE
  5
1760
330
16E1
100
AcDbEntity
  8
BEM
 62
     0
370
    -2
100
AcDbLine
 10
352.1449217067876
 20
602.3884093665451
 30
0.0
 11
352.1449217067876
 21
720.7135203032503
 31
0.0
  0
LINE
  5
1761
330
16E1
100
AcDbEntity
  8
BEM
 62
     0
370
    -2
100
AcDbLine
 10
99.14492170678757
 20
718.7135203032503
 30
0.0
 11
345.1449217067875
 21
718.7135203032503
 31
0.0
  0
SOLID
  5
1762
330
16E1
100
AcDbEntity
  8
BEM
 62
     0
100
AcDbTrace
 10
99.14492170678757
 20
719.880186969917
 30
0.0
 11
99.14492170678757
 21
717.5468536365837
 31
0.0
 12
92.14492170678758
 22
718.7135203032503
 32
0.0
 13
92.14492170678758
 23
718.7135203032503
 33
0.0
  0
SOLID
  5
1763
330
16E1
100
AcDbEntity
  8
BEM
 62
     0
100
AcDbTrace
 10
345.1449217067875
 20
719.880186969917
 30
0.0
 11
345.1449217067875
 21
717.5468536365837
 31
0.0
 12
352.1449217067876
 22
718.7135203032503
 32
0.0
 13
352.1449217067876
 23
718.7135203032503
 33
0.0
  0
MTEXT
  5
1764
330
16E1
100
AcDbEntity
  8
BEM
 62
     1
100
AcDbMText
 10
222.1449217067875
 20
725.2135203032503
 30
0.0
 40
7.0
 41
0.0
 71
     5
 72
     1
  1
\A1;%%c260
 73
     1
 44
1.0
  0
POINT
  5
1765
330
16E1
100
AcDbEntity
  8
DEFPOINTS
 62
     0
100
AcDbPoint
 10
92.14492170678756
 20
600.3884093665463
 30
0.0
  0
POINT
  5
1766
330
16E1
100
AcDbEntity
  8
DEFPOINTS
 62
     0
100
AcDbPoint
 10
352.1449217067876
 20
600.3884093665451
 30
0.0
  0
POINT
  5
1767
330
16E1
100
AcDbEntity
  8
DEFPOINTS
 62
     0
100
AcDbPoint
 10
352.1449217067876
 20
718.7135203032503
 30
0.0
  0
ENDBLK
  5
16EC
330
16E1
100
AcDbEntity
  8
0
100
AcDbBlockEnd
  0
BLOCK
  5
16F7
330
16ED
100
AcDbEntity
  8
0
100
AcDbBlockBegin
  2
*D8
 70
     1
 10
0.0
 20
0.0
 30
0.0
  3
*D8
  1

  0
LINE
  5
1756
330
16ED
100
AcDbEntity
  8
BEM
 62
     0
370
    -2
100
AcDbLine
 10
87.14492170678752
 20
586.3884093665454
 30
0.0
 11
87.14492170678754
 21
733.9284166459997
 31
0.0
  0
LINE
  5
1757
330
16ED
100
AcDbEntity
  8
BEM
 62
     0
370
    -2
100
AcDbLine
 10
357.1449217067875
 20
586.3884093665456
 30
0.0
 11
357.1449217067875
 21
733.9284166459997
 31
0.0
  0
LINE
  5
1758
330
16ED
100
AcDbEntity
  8
BEM
 62
     0
370
    -2
100
AcDbLine
 10
94.14492170678753
 20
731.9284166459997
 30
0.0
 11
350.1449217067874
 21
731.9284166459997
 31
0.0
  0
SOLID
  5
1759
330
16ED
100
AcDbEntity
  8
BEM
 62
     0
100
AcDbTrace
 10
94.14492170678753
 20
733.0950833126664
 30
0.0
 11
94.14492170678753
 21
730.761749979333
 31
0.0
 12
87.14492170678754
 22
731.9284166459997
 32
0.0
 13
87.14492170678754
 23
731.9284166459997
 33
0.0
  0
SOLID
  5
175A
330
16ED
100
AcDbEntity
  8
BEM
 62
     0
100
AcDbTrace
 10
350.1449217067874
 20
733.0950833126664
 30
0.0
 11
350.1449217067874
 21
730.761749979333
 31
0.0
 12
357.1449217067875
 22
731.9284166459997
 32
0.0
 13
357.1449217067875
 23
731.9284166459997
 33
0.0
  0
MTEXT
  5
175B
330
16ED
100
AcDbEntity
  8
BEM
 62
     1
100
AcDbMText
 10
222.1449217067875
 20
738.4284166459997
 30
0.0
 40
7.0
 41
0.0
 71
     5
 72
     1
  1
\A1;%%c270
 73
     1
 44
1.0
  0
POINT
  5
175C
330
16ED
100
AcDbEntity
  8
DEFPOINTS
 62
     0
100
AcDbPoint
 10
87.14492170678752
 20
584.3884093665455
 30
0.0
  0
POINT
  5
175D
330
16ED
100
AcDbEntity
  8
DEFPOINTS
 62
     0
100
AcDbPoint
 10
357.1449217067875
 20
584.3884093665455
 30
0.0
  0
POINT
  5
175E
330
16ED
100
AcDbEntity
  8
DEFPOINTS
 62
     0
100
AcDbPoint
 10
357.1449217067875
 20
731.9284166459997
 30
0.0
  0
ENDBLK
  5
16F8
330
16ED
100
AcDbEntity
  8
0
100
AcDbBlockEnd
  0
BLOCK
  5
1703
330
16F9
100
AcDbEntity
  8
0
100
AcDbBlockBegin
  2
*D9
 70
     1
 10
0.0
 20
0.0
 30
0.0
  3
*D9
  1

  0
LINE
  5
174D
330
16F9
100
AcDbEntity
  8
BEM
 62
     0
370
    -2
100
AcDbLine
 10
90.14492170678767
 20
599.3884093665451
 30
0.0
 11
64.48366171171207
 21
599.3884093665451
 31
0.0
  0
LINE
  5
174E
330
16F9
100
AcDbEntity
  8
BEM
 62
     0
370
    -2
100
AcDbLine
 10
140.1449217067876
 20
689.3884093665443
 30
0.0
 11
64.4836617117121
 21
689.3884093665443
 31
0.0
  0
LINE
  5
174F
330
16F9
100
AcDbEntity
  8
BEM
 62
     0
370
    -2
100
AcDbLine
 10
66.48366171171208
 20
606.3884093665451
 30
0.0
 11
66.4836617117121
 21
682.3884093665443
 31
0.0
  0
SOLID
  5
1750
330
16F9
100
AcDbEntity
  8
BEM
 62
     0
100
AcDbTrace
 10
65.3169950450454
 20
606.3884093665451
 30
0.0
 11
67.65032837837875
 21
606.3884093665451
 31
0.0
 12
66.48366171171208
 22
599.3884093665451
 32
0.0
 13
66.48366171171208
 23
599.3884093665451
 33
0.0
  0
SOLID
  5
1751
330
16F9
100
AcDbEntity
  8
BEM
 62
     0
100
AcDbTrace
 10
65.31699504504543
 20
682.3884093665443
 30
0.0
 11
67.65032837837877
 21
682.3884093665443
 31
0.0
 12
66.4836617117121
 22
689.3884093665443
 32
0.0
 13
66.4836617117121
 23
689.3884093665443
 33
0.0
  0
MTEXT
  5
1752
330
16F9
100
AcDbEntity
  8
BEM
 62
     1
100
AcDbMText
 10
59.98366171171198
 20
644.3884093665446
 30
0.0
 40
7.0
 41
0.0
 71
     5
 72
     1
  1
\A1;90
 11
0.0000000000000001
 21
1.0
 31
0.0
 73
     1
 44
1.0
  0
POINT
  5
1753
330
16F9
100
AcDbEntity
  8
DEFPOINTS
 62
     0
100
AcDbPoint
 10
92.14492170678767
 20
599.3884093665451
 30
0.0
  0
POINT
  5
1754
330
16F9
100
AcDbEntity
  8
DEFPOINTS
 62
     0
100
AcDbPoint
 10
142.1449217067876
 20
689.3884093665443
 30
0.0
  0
POINT
  5
1755
330
16F9
100
AcDbEntity
  8
DEFPOINTS
 62
     0
100
AcDbPoint
 10
66.4836617117121
 20
689.3884093665443
 30
0.0
  0
ENDBLK
  5
1704
330
16F9
100
AcDbEntity
  8
0
100
AcDbBlockEnd
  0
BLOCK
  5
1711
330
1705
100
AcDbEntity
  8
0
100
AcDbBlockBegin
  2
*D10
 70
     1
 10
0.0
 20
0.0
 30
0.0
  3
*D10
  1

  0
LINE
  5
1742
330
1705
100
AcDbEntity
  8
BEM
 62
     0
370
    -2
100
AcDbLine
 10
90.14492170678744
 20
599.3884093665451
 30
0.0
 11
64.48366171171207
 21
599.3884093665451
 31
0.0
  0
LINE
  5
1743
330
1705
100
AcDbEntity
  8
BEM
 62
     0
370
    -2
100
AcDbLine
 10
85.14492170678749
 20
584.3884093665452
 30
0.0
 11
64.48366171171207
 21
584.3884093665452
 31
0.0
  0
LINE
  5
1744
330
1705
100
AcDbEntity
  8
BEM
 62
     0
370
    -2
100
AcDbLine
 10
66.48366171171208
 20
606.3884093665451
 30
0.0
 11
66.48366171171208
 21
613.3884093665451
 31
0.0
  0
LINE
  5
1745
330
1705
100
AcDbEntity
  8
BEM
 62
     0
370
    -2
100
AcDbLine
 10
66.48366171171208
 20
577.3884093665452
 30
0.0
 11
66.48366171171208
 21
570.3884093665452
 31
0.0
  0
LINE
  5
1746
330
1705
100
AcDbEntity
  8
BEM
 62
     0
370
    -2
100
AcDbLine
 10
66.48366171171208
 20
599.3884093665451
 30
0.0
 11
66.48366171171208
 21
584.3884093665452
 31
0.0
  0
SOLID
  5
1747
330
1705
100
AcDbEntity
  8
BEM
 62
     0
100
AcDbTrace
 10
65.3169950450454
 20
606.3884093665451
 30
0.0
 11
67.65032837837875
 21
606.3884093665451
 31
0.0
 12
66.48366171171208
 22
599.3884093665451
 32
0.0
 13
66.48366171171208
 23
599.3884093665451
 33
0.0
  0
SOLID
  5
1748
330
1705
100
AcDbEntity
  8
BEM
 62
     0
100
AcDbTrace
 10
65.3169950450454
 20
577.3884093665452
 30
0.0
 11
67.65032837837875
 21
577.3884093665452
 31
0.0
 12
66.48366171171208
 22
584.3884093665452
 32
0.0
 13
66.48366171171208
 23
584.3884093665452
 33
0.0
  0
MTEXT
  5
1749
330
1705
100
AcDbEntity
  8
BEM
 62
     1
100
AcDbMText
 10
59.98366171171198
 20
591.8884093665451
 30
0.0
 40
7.0
 41
0.0
 71
     5
 72
     1
  1
\A1;15
 11
0.0000000000000001
 21
1.0
 31
0.0
 73
     1
 44
1.0
  0
POINT
  5
174A
330
1705
100
AcDbEntity
  8
DEFPOINTS
 62
     0
100
AcDbPoint
 10
92.14492170678743
 20
599.3884093665451
 30
0.0
  0
POINT
  5
174B
330
1705
100
AcDbEntity
  8
DEFPOINTS
 62
     0
100
AcDbPoint
 10
87.14492170678751
 20
584.3884093665452
 30
0.0
  0
POINT
  5
174C
330
1705
100
AcDbEntity
  8
DEFPOINTS
 62
     0
100
AcDbPoint
 10
66.48366171171208
 20
584.3884093665452
 30
0.0
  0
ENDBLK
  5
1712
330
1705
100
AcDbEntity
  8
0
100
AcDbBlockEnd
  0
ENDSEC
  0
SECTION
  2
ENTITIES
  0
LINE
  5
58
330
1E
100
AcDbEntity
  8
STEMPEL
100
AcDbLine
 10
484.0
 20
830.0000000000002
 30
0.0
 11
484.0
 21
470.0000000000001
 31
0.0
  0
LINE
  5
59
330
1E
100
AcDbEntity
  8
STEMPEL
100
AcDbLine
 10
484.0
 20
470.0000000000001
 30
0.0
 11
584.0
 21
470.0000000000001
 31
0.0
  0
LINE
  5
5A
330
1E
100
AcDbEntity
  8
STEMPEL
100
AcDbLine
 10
484.0000000000001
 20
566.0000000000002
 30
0.0
 11
584.0000000000001
 21
566.0
 31
0.0
  0
LINE
  5
5B
330
1E
100
AcDbEntity
  8
STEMPEL
100
AcDbLine
 10
484.0
 20
650.0
 30
0.0
 11
584.0
 21
650.0
 31
0.0
  0
LINE
  5
5C
330
1E
100
AcDbEntity
  8
STEMPEL
100
AcDbLine
 10
484.0000000000003
 20
752.0000000000002
 30
0.0
 11
554.0
 21
752.0000000000002
 31
0.0
  0
LINE
  5
5D
330
1E
100
AcDbEntity
  8
STEMPEL
100
AcDbLine
 10
564.0
 20
566.0
 30
0.0
 11
564.0
 21
470.0000000000001
 31
0.0
  0
LINE
  5
5E
330
1E
100
AcDbEntity
  8
STEMPEL
100
AcDbLine
 10
554.0
 20
830.0000000000002
 30
0.0
 11
554.0
 21
566.0
 31
0.0
  0
LINE
  5
5F
330
1E
100
AcDbEntity
  8
STEMPEL
100
AcDbLine
 10
514.0
 20
830.0000000000002
 30
0.0
 11
514.0
 21
566.0000000000002
 31
0.0
  0
LINE
  5
60
330
1E
100
AcDbEntity
  8
VOLL
100
AcDbLine
 10
484.0
 20
484.0000000000001
 30
0.0
 11
584.0
 21
484.0
 31
0.0
  0
LINE
  5
61
330
1E
100
AcDbEntity
  8
VOLL
100
AcDbLine
 10
484.0000000000001
 20
524.0000000000001
 30
0.0
 11
584.0000000000001
 21
524.0
 31
0.0
  0
LINE
  5
62
330
1E
100
AcDbEntity
  8
VOLL
100
AcDbLine
 10
484.0000000000001
 20
544.0000000000002
 30
0.0
 11
584.0000000000001
 21
544.0
 31
0.0
  0
LINE
  5
63
330
1E
100
AcDbEntity
  8
VOLL
100
AcDbLine
 10
514.0
 20
584.0000000000002
 30
0.0
 11
554.0
 21
584.0000000000002
 31
0.0
  0
LINE
  5
64
330
1E
100
AcDbEntity
  8
VOLL
100
AcDbLine
 10
484.0000000000002
 20
610.0000000000002
 30
0.0
 11
554.0
 21
610.0
 31
0.0
  0
LINE
  5
65
330
1E
100
AcDbEntity
  8
HILF
100
AcDbLine
 10
494.0
 20
470.0000000000001
 30
0.0
 11
494.0
 21
566.0000000000002
 31
0.0
  0
LINE
  5
66
330
1E
100
AcDbEntity
  8
HILF
100
AcDbLine
 10
504.0
 20
470.0000000000001
 30
0.0
 11
504.0
 21
566.0000000000002
 31
0.0
  0
LINE
  5
67
330
1E
100
AcDbEntity
  8
HILF
100
AcDbLine
 10
514.0
 20
470.0000000000001
 30
0.0
 11
514.0
 21
566.0000000000002
 31
0.0
  0
LINE
  5
68
330
1E
100
AcDbEntity
  8
HILF
100
AcDbLine
 10
524.0
 20
470.0000000000001
 30
0.0
 11
524.0
 21
566.0000000000002
 31
0.0
  0
LINE
  5
69
330
1E
100
AcDbEntity
  8
HILF
100
AcDbLine
 10
534.0
 20
470.0000000000001
 30
0.0
 11
534.0
 21
566.0000000000002
 31
0.0
  0
LINE
  5
6A
330
1E
100
AcDbEntity
  8
HILF
100
AcDbLine
 10
544.0
 20
470.0000000000001
 30
0.0
 11
544.0
 21
566.0000000000002
 31
0.0
  0
LINE
  5
6B
330
1E
100
AcDbEntity
  8
HILF
100
AcDbLine
 10
554.0
 20
470.0000000000001
 30
0.0
 11
554.0
 21
566.0000000000002
 31
0.0
  0
LINE
  5
6C
330
1E
100
AcDbEntity
  8
HILF
100
AcDbLine
 10
524.0
 20
566.0000000000002
 30
0.0
 11
524.0
 21
650.0
 31
0.0
  0
LINE
  5
6D
330
1E
100
AcDbEntity
  8
HILF
100
AcDbLine
 10
534.0
 20
566.0000000000002
 30
0.0
 11
534.0
 21
650.0
 31
0.0
  0
LINE
  5
6E
330
1E
100
AcDbEntity
  8
HILF
100
AcDbLine
 10
544.0
 20
566.0000000000002
 30
0.0
 11
544.0
 21
650.0
 31
0.0
  0
LINE
  5
6F
330
1E
100
AcDbEntity
  8
HILF
100
AcDbLine
 10
509.9624175243587
 20
654.7736801096948
 30
0.0
 11
509.9624175243587
 21
746.6297842514811
 31
0.0
  0
LINE
  5
70
330
1E
100
AcDbEntity
  8
HILF
100
AcDbLine
 10
524.0
 20
654.7736801096948
 30
0.0
 11
524.0
 21
746.6297842514811
 31
0.0
  0
LINE
  5
71
330
1E
100
AcDbEntity
  8
HILF
100
AcDbLine
 10
534.0
 20
654.7736801096948
 30
0.0
 11
534.0
 21
746.6297842514811
 31
0.0
  0
LINE
  5
72
330
1E
100
AcDbEntity
  8
HILF
100
AcDbLine
 10
544.0
 20
654.7736801096948
 30
0.0
 11
544.0
 21
746.6297842514811
 31
0.0
  0
LINE
  5
73
330
1E
100
AcDbEntity
  8
VOLL
100
AcDbLine
 10
534.0
 20
752.0000000000002
 30
0.0
 11
534.0
 21
830.0000000000002
 31
0.0
  0
LINE
  5
74
330
1E
100
AcDbEntity
  8
HILF
100
AcDbLine
 10
510.2201636304418
 20
756.7238616296995
 30
0.0
 11
510.2201636304418
 21
824.858883932673
 31
0.0
  0
LINE
  5
75
330
1E
100
AcDbEntity
  8
HILF
100
AcDbLine
 10
579.1060174197169
 20
654.7736801096948
 30
0.0
 11
579.1060174197169
 21
824.858883932673
 31
0.0
  0
TEXT
  5
76
330
1E
100
AcDbEntity
  8
TEXT
100
AcDbText
 10
575.3261810501587
 20
492.3998239263297
 30
0.0
 40
4.0
  1
Änderung
 50
90.0
 41
0.8
  7
GREEKS
 72
     1
 11
575.3261810501587
 21
503.1426810691868
 31
0.0
100
AcDbText
  0
TEXT
  5
78
330
1E
100
AcDbEntity
  8
TEXT
100
AcDbText
 10
491.5379104912911
 20
573.5163572150376
 30
0.0
 40
5.0
  1
Maßstab
 50
90.0
 41
0.8
  7
GREEKS
100
AcDbText
  0
TEXT
  5
79
330
1E
100
AcDbEntity
  8
TEXT
100
AcDbText
 10
491.4510671988221
 20
654.8779403809009
 30
0.0
 40
5.0
  1
Benennung
 50
90.0
 41
0.8
  7
GREEKS
100
AcDbText
  0
TEXT
  5
7A
330
1E
100
AcDbEntity
  8
TEXT
100
AcDbText
 10
491.6867965462863
 20
756.1787549576343
 30
0.0
 40
5.0
  1
Zeichnungs Nr.
 50
90.0
 41
0.8
  7
GREEKS
100
AcDbText
  0
TEXT
  5
7B
330
1E
100
AcDbEntity
  8
TEXT
100
AcDbText
 10
563.1543942980694
 20
654.7422383911359
 30
0.0
 40
5.0
  1
Bauvorhaben
 50
90.0
 41
0.8
  7
GREEKS
100
AcDbText
  0
TEXT
  5
7C
330
1E
100
AcDbEntity
  8
TEXT
100
AcDbText
 10
520.8188176290003
 20
756.7238616296995
 30
0.0
 40
5.0
  1
Ersatz für:
 50
90.0
 41
0.8
  7
GREEKS
100
AcDbText
  0
TEXT
  5
7D
330
1E
100
AcDbEntity
  8
TEXT
100
AcDbText
 10
580.3453415397281
 20
478.2664110704577
 30
0.0
 40
4.0
  1
Index
 50
180.0
 41
0.8
  7
GREEKS
100
AcDbText
  0
TEXT
  5
7E
330
1E
100
AcDbEntity
  8
TEXT
100
AcDbText
 10
575.3284373066019
 20
529.8990113186978
 30
0.0
 40
4.0
  1
Tag
 50
90.0
 41
0.8
  7
GREEKS
 72
     1
 11
575.3284373066019
 21
533.6323446520311
 31
0.0
100
AcDbText
  0
TEXT
  5
7F
330
1E
100
AcDbEntity
  8
TEXT
100
AcDbText
 10
575.4067578303359
 20
548.9795678138292
 30
0.0
 40
4.0
  1
Name
 50
90.0
 41
0.8
  7
GREEKS
 72
     1
 11
575.4067578303359
 21
555.3033773376387
 31
0.0
100
AcDbText
  0
TEXT
  5
80
330
1E
100
AcDbEntity
  8
TEXT
100
AcDbText
 10
520.6811949877008
 20
592.3311673153651
 30
0.0
 40
4.0
  1
Tag
 50
90.0
 41
0.8
  7
GREEKS
100
AcDbText
  0
TEXT
  5
81
330
1E
100
AcDbEntity
  8
TEXT
100
AcDbText
 10
520.6903890808478
 20
622.4626584226296
 30
0.0
 40
4.0
  1
Name
 50
90.0
 41
0.8
  7
GREEKS
100
AcDbText
  0
TEXT
  5
82
330
1E
100
AcDbEntity
  8
TEXT
100
AcDbText
 10
530.3700963038204
 20
567.5836127167615
 30
0.0
 40
4.0
  1
Gez.
 50
90.0
 41
0.8
  7
GREEKS
100
AcDbText
  0
TEXT
  5
83
330
1E
100
AcDbEntity
  8
TEXT
100
AcDbText
 10
540.3107370857163
 20
567.5515086571672
 30
0.0
 40
4.0
  1
Gepr.
 50
90.0
 41
0.8
  7
GREEKS
100
AcDbText
  0
TEXT
  5
84
330
1E
100
AcDbEntity
  8
TEXT
100
AcDbText
 10
550.470536103502
 20
567.6006777387303
 30
0.0
 40
4.0
  1
Norm.
 50
90.0
 41
0.8
  7
GREEKS
100
AcDbText
  0
TEXT
  5
85
330
1E
100
AcDbEntity
  8
TEXT
100
AcDbText
 10
541.925838221214
 20
757.2400861497007
 30
0.0
 40
5.0
  1
ersetzt durch:
 50
90.0
 41
0.8
  7
GREEKS
100
AcDbText
  0
TEXT
  5
86
330
1E
100
AcDbEntity
  8
TEXT
100
AcDbText
 10
521.0331740347627
 20
568.8693027807324
 30
0.0
 40
4.0
  1
2012
 50
90.0
 41
0.8
  7
GREEKS
100
AcDbText
  0
LINE
  5
87
330
1E
100
AcDbEntity
  8
HILF
100
AcDbLine
 10
594.0
 20
-0.0000000000000568
 30
0.0
 11
594.0
 21
840.0
 31
0.0
  0
LINE
  5
88
330
1E
100
AcDbEntity
  8
HILF
100
AcDbLine
 10
594.0
 20
840.0
 30
0.0
 11
0.0
 21
840.0
 31
0.0
  0
LINE
  5
89
330
1E
100
AcDbEntity
  8
HILF
100
AcDbLine
 10
0.0
 20
840.0
 30
0.0
 11
0.0
 21
0.0
 31
0.0
  0
LINE
  5
8B
330
1E
100
AcDbEntity
  8
STEMPEL
100
AcDbLine
 10
10.0
 20
830.0
 30
0.0
 11
10.0
 21
39.99999999999995
 31
0.0
  0
LINE
  5
8D
330
1E
100
AcDbEntity
  8
STEMPEL
100
AcDbLine
 10
584.0
 20
39.99999999999995
 30
0.0
 11
584.0
 21
830.0
 31
0.0
  0
LINE
  5
8E
330
1E
100
AcDbEntity
  8
STEMPEL
100
AcDbLine
 10
584.0
 20
830.0
 30
0.0
 11
10.0
 21
830.0
 31
0.0
  0
TEXT
  5
8F
330
1E
100
AcDbEntity
  8
TEXT
 62
     1
100
AcDbText
 10
506.6265692434746
 20
655.0390572473189
 30
0.0
 40
7.0
  1
Hauptentwässerung
 50
90.0
 41
0.8
  7
GREEKS
100
AcDbText
  0
TEXT
  5
90
330
1E
100
AcDbEntity
  8
TEXT
 62
     1
100
AcDbText
 10
506.6265692434746
 20
767.7294755517469
 30
0.0
 40
7.0
  1
19515125W
 50
90.0
 41
0.8
  7
GREEKS
 72
     1
 11
506.6265692434746
 21
790.1294755517469
 31
0.0
100
AcDbText
  0
TEXT
  5
91
330
1E
100
AcDbEntity
  8
TEXT
100
AcDbText
 10
491.16010388621
 20
618.5090226415829
 30
0.0
 40
5.0
  1
Zul.Abw.
 50
90.0
 41
0.8
  7
GREEKS
100
AcDbText
  0
TEXT
  5
93
330
1E
100
AcDbEntity
  8
TEXT
100
AcDbText
 10
530.8491412387978
 20
590.4612856559488
 30
0.0
 40
4.0
  1
17.08.
 50
90.0
 41
0.8
  7
GREEKS
 72
     1
 11
530.8491412387978
 21
597.1660475607107
 31
0.0
100
AcDbText
  0
TEXT
  5
94
330
1E
100
AcDbEntity
  8
TEXT
100
AcDbText
 10
531.0570234483452
 20
624.0231753226609
 30
0.0
 40
4.0
  1
Koeh
 50
90.0
 41
0.8
  7
GREEKS
 72
     1
 11
531.0570234483452
 21
629.2803181798038
 31
0.0
100
AcDbText
  0
TEXT
  5
95
330
1E
100
AcDbEntity
  8
TEXT
100
AcDbText
 10
521.8997861689246
 20
654.3410940884991
 30
0.0
 40
5.0
  1
Dachdurchführung DN125
 50
90.0
 41
0.8
  7
GREEKS
100
AcDbText
  0
TEXT
  5
96
330
1E
100
AcDbEntity
  8
TEXT
100
AcDbText
 10
531.6544091479096
 20
654.3410940884991
 30
0.0
 40
5.0
  1
Freispiegelströmung
 50
90.0
 41
0.8
  7
GREEKS
100
AcDbText
  0
TEXT
  5
97
330
1E
100
AcDbEntity
  8
TEXT
100
AcDbText
 10
541.4090266215394
 20
654.3410940884991
 30
0.0
 40
5.0
  1
EDV-Art.Nr. 19515.125X
 50
90.0
 41
0.8
  7
GREEKS
100
AcDbText
  0
TEXT
  5
98
330
1E
100
AcDbEntity
  8
TEXT
100
AcDbText
 10
550.6887237520849
 20
654.1676050109347
 30
0.0
 40
4.0
  1
19515125XA.DWG
 50
90.0
 41
0.8
  7
GREEKS
100
AcDbText
  0
TEXT
  5
99
330
1E
100
AcDbEntity
  8
TEXT
 62
     1
100
AcDbText
 10
506.5292291158502
 20
582.703491203422
 30
0.0
 40
7.0
  1
1:2
 50
90.0
 41
0.8
  7
GREEKS
100
AcDbText
  0
TEXT
  5
9A
330
1E
100
AcDbEntity
  8
TEXT
100
AcDbText
 10
479.8856414948956
 20
470.0441139350127
 30
0.0
 40
5.0
  1
Erstellt mit AUTOCAD 2004
 50
90.0
 41
0.8
  7
GREEKS
100
AcDbText
  0
INSERT
  5
9B
330
1E
100
AcDbEntity
  8
HILF
100
AcDbBlockReference
  2
LORO
 10
557.0194069970104
 20
573.0624985962354
 30
0.0
 41
2.0
 42
2.0
 43
2.0
 50
90.0
  0
LINE
  5
9C
330
1E
100
AcDbEntity
  8
BEM
100
AcDbLine
 10
594.0
 20
455.9999999999999
 30
0.0
 11
584.0
 21
455.9999999999999
 31
0.0
  0
LINE
  5
13E
330
1E
100
AcDbEntity
  8
HILF
100
AcDbLine
 10
594.0
 20
-0.0000000000000568
 30
0.0
 11
0.0
 21
0.0
 31
0.0
  0
LINE
  5
13F
330
1E
100
AcDbEntity
  8
STEMPEL
100
AcDbLine
 10
584.0
 20
39.99999999999995
 30
0.0
 11
10.0
 21
39.99999999999995
 31
0.0
  0
LINE
  5
14A
330
1E
100
AcDbEntity
  8
HILF
100
AcDbLine
 10
297.0
 20
-0.0000000000000568
 30
0.0
 11
297.0
 21
39.99999999999995
 31
0.0
  0
TEXT
  5
15B
330
1E
100
AcDbEntity
  8
BEM
100
AcDbText
 10
583.8320989200114
 20
837.3022923857165
 30
0.0
 40
4.0
  1
Diese Zeichnung ist urheberrechtlich geschützt und bleibt unser Eigentum. Sie darf weder ganz noch teilweise verfielfältigt und nicht an Dritte weitergegeben werden.
 50
180.0
 41
0.8
  7
GREEKS
100
AcDbText
  0
LINE
  5
19C
330
1E
100
AcDbEntity
  8
BEM
100
AcDbLine
 10
0.0
 20
455.9999999999999
 30
0.0
 11
10.0
 21
455.9999999999999
 31
0.0
  0
LINE
  5
DFF
330
1E
100
AcDbEntity
  8
TEXT
 62
     2
100
AcDbLine
 10
297.2536264503382
 20
549.586984966301
 30
0.0
 11
360.5230182929562
 21
568.3069426035301
 31
0.0
  0
TEXT
  5
E02
330
1E
100
AcDbEntity
  8
TEXT
 62
     1
100
AcDbText
 10
362.6429112890016
 20
558.2794914929634
 30
0.0
 40
7.0
  1
EDV-Art.Nr. 00911.125X
 41
0.8
  7
GREEKS
100
AcDbText
  0
LINE
  5
E03
330
1E
100
AcDbEntity
  8
TEXT
 62
     2
100
AcDbLine
 10
360.5230182929562
 20
568.3069426035301
 30
0.0
 11
468.6337277341961
 21
568.3069426035301
 31
0.0
  0
TEXT
  5
E04
330
1E
100
AcDbEntity
  8
TEXT
 62
     1
100
AcDbText
 10
362.6429112890016
 20
571.6868480204266
 30
0.0
 40
7.0
  1
Dichelement DN125
 41
0.8
  7
GREEKS
100
AcDbText
  0
TEXT
  5
1002
330
1E
100
AcDbEntity
  8
TEXT
 62
     1
100
AcDbText
 10
372.6429112890016
 20
385.9927918468645
 30
0.0
 40
7.0
  1
Wanddurchführung DN125
 41
0.8
  7
GREEKS
100
AcDbText
  0
LINE
  5
1003
330
1E
100
AcDbEntity
  8
TEXT
 62
     2
100
AcDbLine
 10
370.5230182929561
 20
382.612886429968
 30
0.0
 11
482.2796018770181
 21
382.612886429968
 31
0.0
  0
TEXT
  5
1004
330
1E
100
AcDbEntity
  8
TEXT
 62
     1
100
AcDbText
 10
372.6429112890016
 20
372.5854353194013
 30
0.0
 40
7.0
  1
EDV-Art.Nr. 18130.125X
 41
0.8
  7
GREEKS
100
AcDbText
  0
LINE
  5
1005
330
1E
100
AcDbEntity
  8
TEXT
 62
     2
100
AcDbLine
 10
287.8180766937662
 20
365.6189014719855
 30
0.0
 11
370.5230182929561
 21
382.612886429968
 31
0.0
  0
DIMENSION
  5
10DF
330
1E
100
AcDbEntity
  8
BEM
100
AcDbDimension
  2
*D2
 10
288.6449217067874
 20
144.8045905720857
 30
0.0
 11
222.1449217067874
 21
151.3045905720858
 31
0.0
 70
    32
  1
%%c<>
 71
     5
 42
133.0
  3
Standard
100
AcDbAlignedDimension
 13
155.6449217067874
 23
175.1535724442747
 33
0.0
 14
288.6449217067874
 24
175.1535724442734
 34
0.0
100
AcDbRotatedDimension
1001
ACAD
1000
DSTYLE
1002
{
1070
    40
1040
2.0
1070
    41
1040
3.5
1070
    42
1040
1.0
1070
    43
1040
7.0
1070
    44
1040
1.0
1070
    73
1070
     0
1070
    74
1070
     0
1070
    77
1070
     1
1070
    78
1070
     8
1070
    79
1070
     2
1070
   140
1040
3.5
1070
   141
1040
1.5
1070
   146
1040
0.5142857142857144
1070
   147
1040
1.5
1070
   172
1070
     1
1070
   178
1070
     1
1070
   179
1070
     2
1070
   271
1070
     2
1070
   272
1070
     2
1070
   284
1070
     8
1070
   285
1070
     8
1070
   286
1070
     8
1002
}
  0
HATCH
  5
10E1
330
1E
100
AcDbEntity
  8
SCHRAFF
100
AcDbHatch
 10
0.0
 20
0.0
 30
0.0
210
0.0
220
0.0
230
1.0
  2
_USER
 70
     0
 71
     1
 91
        2
 92
        7
 72
     1
 73
     1
 93
        3
 10
292.6074674745006
 20
472.9449903784409
 42
0.0
 10
288.6449217067874
 20
472.3988850417362
 42
0.0
 10
288.6449217067874
 20
468.3988850417362
 42
0.4549196820787607
 97
        3
330
1126
330
10F1
330
10E3
 92
        7
 72
     1
 73
     1
 93
        3
 10
155.6449217067874
 20
472.3988850417363
 42
0.0
 10
151.6823759390741
 20
472.9449903784411
 42
0.4549196820787705
 10
155.6449217067874
 20
468.3988850417362
 42
0.0
 97
        3
330
1125
330
10E2
330
1114
 75
     0
 76
     0
 52
0.0
 41
0.1
 77
     0
 78
     1
 53
0.0
 43
12.69516782712708
 44
20.1745488972756
 45
0.0
 46
0.1
 79
     0
 47
0.1799874161914853
 98
        2
 10
291.155245981452
 20
470.740817641248
 10
154.4627074480804
 20
470.3808429763398
  0
ARC
  5
10E2
102
{ACAD_REACTORS
330
10E1
102
}
330
1E
100
AcDbEntity
  8
SCHRAFF
100
AcDbCircle
 10
155.6449217067874
 20
472.3988850417362
 30
0.0
 40
4.0
100
AcDbArc
 50
172.1531103342021
 51
270.0
  0
ARC
  5
10E3
102
{ACAD_REACTORS
330
10E1
102
}
330
1E
100
AcDbEntity
  8
SCHRAFF
100
AcDbCircle
 10
288.6449217067874
 20
472.3988850417362
 30
0.0
 40
4.0
100
AcDbArc
 50
270.0
 51
7.846889665797813
  0
HATCH
  5
10E4
330
1E
100
AcDbEntity
  8
SCHRAFF
100
AcDbHatch
 10
0.0
 20
0.0
 30
0.0
210
0.0
220
0.0
230
1.0
  2
_USER
 70
     0
 71
     1
 91
        2
 92
        7
 72
     0
 73
     1
 93
        6
 10
76.95396062576205
 20
485.2627248015459
 10
57.14492170678743
 20
485.2627248015459
 10
57.14492170678743
 20
483.2627248015459
 10
76.81679209885202
 20
483.2627248015458
 10
155.6449217067874
 20
472.3988850417362
 10
155.6449217067874
 20
474.4177891677615
 97
        6
330
111B
330
111C
330
111E
330
1125
330
1114
330
1128
 92
        7
 72
     0
 73
     1
 93
        6
 10
367.473051314724
 20
483.2627248015458
 10
387.1449217067874
 20
483.2627248015458
 10
387.1449217067875
 20
485.2627248015458
 10
367.3358827878134
 20
485.2627248015457
 10
288.6449217067875
 20
474.4177891677615
 10
288.6449217067875
 20
472.3988850417362
 97
        6
330
1120
330
111D
330
111F
330
1127
330
10F1
330
1126
 75
     0
 76
     0
 52
135.0
 41
2.0
 77
     0
 78
     1
 53
135.0
 43
12.69516782712708
 44
20.1745488972756
 45
-1.414213562373095
 46
-1.414213562373094
 79
     0
 47
0.6327249719148986
 98
        2
 10
142.7423294688597
 20
474.7075558227165
 10
338.3718240198373
 20
479.7693557620093
  0
HATCH
  5
10E5
330
1E
100
AcDbEntity
  8
SCHRAFF
100
AcDbHatch
 10
0.0
 20
0.0
 30
0.0
210
0.0
220
0.0
230
1.0
  2
_USER
 70
     0
 71
     0
 91
        2
 92
        7
 72
     1
 73
     1
 93
       23
 10
288.6449217067874
 20
482.7627248015458
 42
-0.1528962216020417
 10
290.4306359925017
 20
488.4658388810713
 42
0.1528962216020364
 10
293.6449217067874
 20
498.7314442242169
 42
0.0
 10
293.6449217067874
 20
522.2627248015458
 42
-0.1095494205537735
 10
295.3323320757998
 20
529.8718916107961
 42
0.1095494205537617
 10
298.1446579664795
 20
542.5537248015457
 42
0.0
 10
298.1449217067874
 20
542.5537248015457
 42
0.0
 10
298.1449217067874
 20
551.6603473570816
 42
0.1095178116832597
 10
295.334155317886
 20
564.3388952093046
 42
0.0
 10
294.9033665041936
 20
565.2627248015457
 42
0.0
 10
292.1449217067873
 20
565.2627248015457
 42
0.0
 10
293.0683858502955
 20
563.2823495549502
 42
-0.1095178116832363
 10
295.6449217067874
 20
551.6603473570816
 42
0.0
 10
295.6449217067874
 20
542.5537248015458
 42
-0.1102736034491354
 10
293.0335587240862
 20
530.8573258932859
 42
0.1085781327853511
 10
291.1449217067874
 20
522.2627248015458
 42
0.0
 10
291.1449217067874
 20
498.731444224217
 42
-0.1528962216020417
 10
288.3770645639302
 20
489.8916174009524
 42
0.1528962216020375
 10
286.1449217067874
 20
482.7627248015456
 42
0.0
 10
286.1449217067875
 20
175.2627248015442
 42
0.0
 10
285.2700350715283
 20
165.2627248015458
 42
0.0
 10
287.7795846653865
 20
165.2627248015458
 42
0.0
 10
288.6449217067875
 20
175.1535724442729
 42
0.0
 97
        0
 92
        7
 72
     1
 73
     1
 93
       23
 10
158.1449217067874
 20
482.7627248015458
 42
0.1528962216020391
 10
155.9127788496445
 20
489.8916174009526
 42
-0.1528962216020384
 10
153.1449217067874
 20
498.731444224217
 42
0.0
 10
153.1449217067874
 20
522.2627248015458
 42
0.1085781327852814
 10
151.256284689491
 20
530.8573258932807
 42
-0.1102736034491881
 10
148.6449217067874
 20
542.5537248015458
 42
0.0
 10
148.6449217067874
 20
551.6603473570815
 42
-0.1095178116832373
 10
151.2214575632792
 20
563.2823495549502
 42
0.0
 10
152.1449217067874
 20
565.2627248015459
 42
0.0
 10
149.3864769093811
 20
565.2627248015457
 42
0.0
 10
148.9556880956887
 20
564.3388952093046
 42
0.1095178116832587
 10
146.1449217067874
 20
551.6603473570817
 42
0.0
 10
146.1449217067874
 20
542.5537248015457
 42
0.0
 10
146.1451854470953
 20
542.5537248015457
 42
0.109549420553766
 10
148.9575113377751
 20
529.8718916107957
 42
-0.1095494205537672
 10
150.6449217067874
 20
522.2627248015458
 42
0.0
 10
150.6449217067874
 20
498.7314442242169
 42
0.1528962216020381
 10
153.859207421073
 20
488.4658388810712
 42
-0.1528962216020415
 10
155.6449217067874
 20
482.7627248015456
 42
0.0
 10
155.6449217067874
 20
175.1535724442748
 42
0.0
 10
156.5102587481882
 20
165.2627248015457
 42
0.0
 10
159.0198083420466
 20
165.2627248015458
 42
0.0
 10
158.1449217067874
 20
175.2627248015459
 42
0.0
 97
        0
 75
     0
 76
     0
 52
45.0
 41
2.0
 77
     0
 78
     1
 53
45.0
 43
12.69516782712708
 44
20.1745488972756
 45
-1.414213562373094
 46
1.414213562373095
 79
     0
 47
0.7140219677713067
 98
        2
 10
287.3529908189416
 20
454.3121521660837
 10
157.3229060012913
 20
450.0280198684408
  0
LINE
  5
10E6
330
1E
100
AcDbEntity
  8
MITTEL
100
AcDbLine
 10
222.1449217067874
 20
434.2536126510594
 30
0.0
 11
222.1449217067875
 21
160.262724801546
 31
0.0
  0
LINE
  5
10E7
330
1E
100
AcDbEntity
  8
STEMPEL
100
AcDbLine
 10
286.1449217067874
 20
175.262724801544
 30
0.0
 11
285.2700350715283
 21
165.2627248015458
 31
0.0
  0
LINE
  5
10E8
330
1E
100
AcDbEntity
  8
STEMPEL
100
AcDbLine
 10
288.6449217067874
 20
175.1535724442733
 30
0.0
 11
287.7795846653866
 21
165.2627248015458
 31
0.0
  0
LINE
  5
10E9
330
1E
100
AcDbEntity
  8
STEMPEL
100
AcDbLine
 10
155.6449217067874
 20
175.1535724442747
 30
0.0
 11
156.5102587481883
 21
165.2627248015458
 31
0.0
  0
LINE
  5
10EA
330
1E
100
AcDbEntity
  8
STEMPEL
100
AcDbLine
 10
158.1449217067874
 20
175.2627248015458
 30
0.0
 11
159.0198083420466
 21
165.2627248015458
 31
0.0
  0
LINE
  5
10EB
330
1E
100
AcDbEntity
  8
HILF
100
AcDbLine
 10
160.6544713006458
 20
175.2627248015458
 30
0.0
 11
283.6353721129291
 21
175.2627248015458
 31
0.0
  0
LINE
  5
10EC
330
1E
100
AcDbEntity
  8
HILF
  6
Continuous
100
AcDbLine
 10
283.945553401604
 20
485.7507963248817
 30
0.0
 11
160.3442900119707
 21
485.7507963248817
 31
0.0
  0
LINE
  5
10ED
330
1E
100
AcDbEntity
  8
HILF
  6
Continuous
100
AcDbLine
 10
287.4800992961364
 20
493.3529154822122
 30
0.0
 11
156.8097441174384
 21
493.3529154822122
 31
0.0
  0
LINE
  5
10EE
330
1E
100
AcDbEntity
  8
HILF
  6
Continuous
100
AcDbLine
 10
288.9774713279095
 20
526.1597356202517
 30
0.0
 11
155.3123720856652
 21
526.1597356202517
 31
0.0
  0
ARC
  5
10EF
330
1E
100
AcDbEntity
  8
STEMPEL
100
AcDbCircle
 10
268.1449217067874
 20
542.5537248015457
 30
0.0
 40
29.99973625969209
100
AcDbArc
 50
334.9928416634461
 51
0.0
  0
ARC
  5
10F0
330
1E
100
AcDbEntity
  8
STEMPEL
100
AcDbCircle
 10
268.1449217067874
 20
542.5537248015457
 30
0.0
 40
27.5
100
AcDbArc
 50
334.8288522569339
 51
0.0
  0
LINE
  5
10F1
102
{ACAD_REACTORS
330
10E4
330
10E1
102
}
330
1E
100
AcDbEntity
  8
STEMPEL
100
AcDbLine
 10
288.6449217067874
 20
482.7627248015458
 30
0.0
 11
288.6449217067874
 21
175.1535724442733
 31
0.0
  0
LINE
  5
10F2
330
1E
100
AcDbEntity
  8
STEMPEL
100
AcDbLine
 10
286.1449217067874
 20
482.7627248015458
 30
0.0
 11
286.1449217067874
 21
175.262724801544
 31
0.0
  0
LINE
  5
10F3
330
1E
100
AcDbEntity
  8
STEMPEL
100
AcDbLine
 10
293.6449217067874
 20
522.2627248015458
 30
0.0
 11
293.6449217067874
 21
498.7314442242169
 31
0.0
  0
LINE
  5
10F4
330
1E
100
AcDbEntity
  8
STEMPEL
100
AcDbLine
 10
291.1449217067874
 20
522.2627248015458
 30
0.0
 11
291.1449217067874
 21
498.731444224217
 31
0.0
  0
ARC
  5
10F5
330
1E
100
AcDbEntity
  8
STEMPEL
100
AcDbCircle
 10
275.6449217067874
 20
498.7314442242169
 30
0.0
 40
18.0
100
AcDbArc
 50
325.228055968051
 51
0.0
  0
ARC
  5
10F6
330
1E
100
AcDbEntity
  8
STEMPEL
100
AcDbCircle
 10
275.6449217067874
 20
498.731444224217
 30
0.0
 40
15.5
100
AcDbArc
 50
325.228055968051
 51
0.0
  0
ARC
  5
10F7
330
1E
100
AcDbEntity
  8
STEMPEL
100
AcDbCircle
 10
298.6449217067874
 20
482.7627248015458
 30
0.0
 40
10.0
100
AcDbArc
 50
145.2280559680509
 51
180.0
  0
ARC
  5
10F8
330
1E
100
AcDbEntity
  8
STEMPEL
100
AcDbCircle
 10
298.6449217067874
 20
482.7627248015458
 30
0.0
 40
12.5
100
AcDbArc
 50
145.2280559680509
 51
180.0
  0
ARC
  5
10F9
330
1E
100
AcDbEntity
  8
STEMPEL
100
AcDbCircle
 10
311.6449217067874
 20
522.2627248015458
 30
0.0
 40
18.0
100
AcDbArc
 50
154.992841663446
 51
180.0
  0
ARC
  5
10FA
330
1E
100
AcDbEntity
  8
STEMPEL
100
AcDbCircle
 10
311.6449217067874
 20
522.2627248015458
 30
0.0
 40
20.5
100
AcDbArc
 50
155.2128276928115
 51
180.0
  0
ARC
  5
10FB
330
1E
100
AcDbEntity
  8
STEMPEL
100
AcDbCircle
 10
268.1449217067874
 20
551.6603473570815
 30
0.0
 40
27.5
100
AcDbArc
 50
0.0
 51
24.99999999999935
  0
ARC
  5
10FC
330
1E
100
AcDbEntity
  8
STEMPEL
100
AcDbCircle
 10
268.1449217067874
 20
551.6603473570815
 30
0.0
 40
30.0
100
AcDbArc
 50
0.0
 51
25.00000000000368
  0
LINE
  5
10FD
330
1E
100
AcDbEntity
  8
STEMPEL
100
AcDbLine
 10
295.6449217067874
 20
551.6603473570815
 30
0.0
 11
295.6449217067874
 21
542.5537248015458
 31
0.0
  0
LINE
  5
10FE
330
1E
100
AcDbEntity
  8
STEMPEL
100
AcDbLine
 10
298.1449217067874
 20
551.6603473570816
 30
0.0
 11
298.1449217067874
 21
542.5537248015457
 31
0.0
  0
LINE
  5
10FF
330
1E
100
AcDbEntity
  8
STEMPEL
100
AcDbLine
 10
298.1446579664795
 20
542.5537248015457
 30
0.0
 11
298.1449217067874
 21
542.5537248015457
 31
0.0
  0
LINE
  5
1100
330
1E
100
AcDbEntity
  8
STEMPEL
100
AcDbLine
 10
292.1449217067874
 20
565.2627248015457
 30
0.0
 11
293.0683858502955
 21
563.2823495549502
 31
0.0
  0
LINE
  5
1101
330
1E
100
AcDbEntity
  8
STEMPEL
100
AcDbLine
 10
294.9033665041936
 20
565.2627248015457
 30
0.0
 11
295.334155317886
 21
564.3388952093046
 31
0.0
  0
POINT
  5
1102
330
1E
100
AcDbEntity
  8
STEMPEL
100
AcDbPoint
 10
292.1449217067874
 20
565.2627248015457
 30
0.0
  0
POINT
  5
1103
330
1E
100
AcDbEntity
  8
STEMPEL
100
AcDbPoint
 10
152.1449217067874
 20
565.2627248015457
 30
0.0
  0
LINE
  5
1104
330
1E
100
AcDbEntity
  8
STEMPEL
100
AcDbLine
 10
149.3864769093811
 20
565.2627248015457
 30
0.0
 11
148.9556880956887
 21
564.3388952093046
 31
0.0
  0
LINE
  5
1105
330
1E
100
AcDbEntity
  8
STEMPEL
100
AcDbLine
 10
152.1449217067874
 20
565.2627248015457
 30
0.0
 11
151.2214575632792
 21
563.2823495549502
 31
0.0
  0
LINE
  5
1106
330
1E
100
AcDbEntity
  8
STEMPEL
100
AcDbLine
 10
146.1451854470953
 20
542.5537248015457
 30
0.0
 11
146.1449217067874
 21
542.5537248015457
 31
0.0
  0
LINE
  5
1107
330
1E
100
AcDbEntity
  8
STEMPEL
100
AcDbLine
 10
146.1449217067874
 20
551.6603473570816
 30
0.0
 11
146.1449217067874
 21
542.5537248015457
 31
0.0
  0
LINE
  5
1108
330
1E
100
AcDbEntity
  8
STEMPEL
100
AcDbLine
 10
148.6449217067874
 20
551.6603473570815
 30
0.0
 11
148.6449217067874
 21
542.5537248015458
 31
0.0
  0
ARC
  5
1109
330
1E
100
AcDbEntity
  8
STEMPEL
100
AcDbCircle
 10
176.1449217067874
 20
551.6603473570815
 30
0.0
 40
30.0
100
AcDbArc
 50
154.9999999999963
 51
180.0
  0
ARC
  5
110A
330
1E
100
AcDbEntity
  8
STEMPEL
100
AcDbCircle
 10
176.1449217067874
 20
551.6603473570815
 30
0.0
 40
27.5
100
AcDbArc
 50
155.0000000000006
 51
180.0
  0
ARC
  5
110B
330
1E
100
AcDbEntity
  8
STEMPEL
100
AcDbCircle
 10
132.6449217067874
 20
522.2627248015458
 30
0.0
 40
20.5
100
AcDbArc
 50
0.0
 51
24.78717230718845
  0
ARC
  5
110C
330
1E
100
AcDbEntity
  8
STEMPEL
100
AcDbCircle
 10
132.6449217067874
 20
522.2627248015458
 30
0.0
 40
18.0
100
AcDbArc
 50
0.0
 51
25.00715833655394
  0
ARC
  5
110D
330
1E
100
AcDbEntity
  8
STEMPEL
100
AcDbCircle
 10
145.6449217067874
 20
482.7627248015458
 30
0.0
 40
12.5
100
AcDbArc
 50
0.0
 51
34.77194403194904
  0
ARC
  5
110E
330
1E
100
AcDbEntity
  8
STEMPEL
100
AcDbCircle
 10
145.6449217067874
 20
482.7627248015458
 30
0.0
 40
10.0
100
AcDbArc
 50
0.0
 51
34.77194403194904
  0
ARC
  5
110F
330
1E
100
AcDbEntity
  8
STEMPEL
100
AcDbCircle
 10
168.6449217067874
 20
498.731444224217
 30
0.0
 40
15.5
100
AcDbArc
 50
180.0
 51
214.7719440319491
  0
ARC
  5
1110
330
1E
100
AcDbEntity
  8
STEMPEL
100
AcDbCircle
 10
168.6449217067874
 20
498.7314442242169
 30
0.0
 40
18.0
100
AcDbArc
 50
180.0
 51
214.7719440319491
  0
LINE
  5
1111
330
1E
100
AcDbEntity
  8
STEMPEL
100
AcDbLine
 10
153.1449217067874
 20
522.2627248015458
 30
0.0
 11
153.1449217067874
 21
498.731444224217
 31
0.0
  0
LINE
  5
1112
330
1E
100
AcDbEntity
  8
STEMPEL
100
AcDbLine
 10
150.6449217067874
 20
522.2627248015458
 30
0.0
 11
150.6449217067874
 21
498.7314442242169
 31
0.0
  0
LINE
  5
1113
330
1E
100
AcDbEntity
  8
STEMPEL
100
AcDbLine
 10
158.1449217067874
 20
482.7627248015458
 30
0.0
 11
158.1449217067874
 21
175.2627248015458
 31
0.0
  0
LINE
  5
1114
102
{ACAD_REACTORS
330
10E4
330
10E1
102
}
330
1E
100
AcDbEntity
  8
STEMPEL
100
AcDbLine
 10
155.6449217067874
 20
482.7627248015458
 30
0.0
 11
155.6449217067874
 21
175.1535724442747
 31
0.0
  0
ARC
  5
1115
330
1E
100
AcDbEntity
  8
STEMPEL
100
AcDbCircle
 10
176.1449217067874
 20
542.5537248015457
 30
0.0
 40
27.5
100
AcDbArc
 50
180.0
 51
205.1711477430661
  0
ARC
  5
1116
330
1E
100
AcDbEntity
  8
STEMPEL
100
AcDbCircle
 10
176.1449217067874
 20
542.5537248015457
 30
0.0
 40
29.99973625969209
100
AcDbArc
 50
180.0
 51
205.0071583365539
  0
LINE
  5
1118
330
1E
100
AcDbEntity
  8
STEMPEL
100
AcDbLine
 10
156.5102587481883
 20
165.2627248015458
 30
0.0
 11
287.7795846653866
 21
165.2627248015458
 31
0.0
  0
LINE
  5
111B
102
{ACAD_REACTORS
330
10E4
102
}
330
1E
100
AcDbEntity
  8
STEMPEL
100
AcDbLine
 10
155.3273800723059
 20
485.2627248015458
 30
0.0
 11
57.14492170678744
 21
485.2627248015458
 31
0.0
  0
LINE
  5
111C
102
{ACAD_REACTORS
330
10E4
102
}
330
1E
100
AcDbEntity
  8
STEMPEL
100
AcDbLine
 10
57.14492170678744
 20
485.2627248015459
 30
0.0
 11
57.14492170678744
 21
483.262724801546
 31
0.0
  0
LINE
  5
111D
102
{ACAD_REACTORS
330
10E4
102
}
330
1E
100
AcDbEntity
  8
STEMPEL
100
AcDbLine
 10
387.1449217067874
 20
485.2627248015458
 30
0.0
 11
387.1449217067874
 21
483.262724801546
 31
0.0
  0
LINE
  5
111E
102
{ACAD_REACTORS
330
10E4
102
}
330
1E
100
AcDbEntity
  8
STEMPEL
100
AcDbLine
 10
76.81679209885169
 20
483.2627248015459
 30
0.0
 11
57.14492170678744
 21
483.262724801546
 31
0.0
  0
LINE
  5
111F
102
{ACAD_REACTORS
330
10E4
102
}
330
1E
100
AcDbEntity
  8
STEMPEL
100
AcDbLine
 10
288.9624633412688
 20
485.2627248015457
 30
0.0
 11
387.1449217067875
 21
485.2627248015458
 31
0.0
  0
LINE
  5
1120
102
{ACAD_REACTORS
330
10E4
102
}
330
1E
100
AcDbEntity
  8
STEMPEL
100
AcDbLine
 10
367.4730513147232
 20
483.2627248015458
 30
0.0
 11
387.1449217067874
 21
483.2627248015459
 31
0.0
  0
LINE
  5
1121
330
1E
100
AcDbEntity
  8
STEMPEL
100
AcDbLine
 10
387.1449217067875
 20
485.2627248015458
 30
0.0
 11
387.1449217067874
 21
483.2627248015459
 31
0.0
  0
DIMENSION
  5
1123
330
1E
100
AcDbEntity
  8
BEM
100
AcDbDimension
  2
*D3
 10
387.1449217067874
 20
440.9747449228928
 30
0.0
 11
222.1449217067875
 21
447.4747449228927
 31
0.0
 70
    32
  1
%%C<>
 71
     5
 42
330.0
  3
Standard
100
AcDbAlignedDimension
 13
57.14492170678744
 23
483.262724801546
 33
0.0
 14
387.1449217067874
 24
483.2627248015459
 34
0.0
100
AcDbRotatedDimension
1001
ACAD
1000
DSTYLE
1002
{
1070
    40
1040
2.0
1070
    41
1040
3.5
1070
    42
1040
1.0
1070
    43
1040
7.0
1070
    44
1040
1.0
1070
    73
1070
     0
1070
    74
1070
     0
1070
    77
1070
     1
1070
    78
1070
     8
1070
    79
1070
     2
1070
   140
1040
3.5
1070
   141
1040
1.5
1070
   146
1040
0.5142857142857144
1070
   147
1040
1.5
1070
   172
1070
     1
1070
   178
1070
     1
1070
   179
1070
     2
1070
   271
1070
     2
1070
   272
1070
     2
1070
   284
1070
     8
1070
   285
1070
     8
1070
   286
1070
     8
1002
}
  0
LINE
  5
1124
330
1E
100
AcDbEntity
  8
MITTEL
100
AcDbLine
 10
222.1449217067874
 20
695.8884093665451
 30
0.0
 11
222.1449217067874
 21
456.5543858100987
 31
0.0
  0
LINE
  5
1125
102
{ACAD_REACTORS
330
10E4
330
10E1
102
}
330
1E
100
AcDbEntity
  8
STEMPEL
100
AcDbLine
 10
155.6449217067874
 20
472.3988850417362
 30
0.0
 11
76.81679209885169
 21
483.2627248015459
 31
0.0
  0
LINE
  5
1126
102
{ACAD_REACTORS
330
10E4
330
10E1
102
}
330
1E
100
AcDbEntity
  8
STEMPEL
100
AcDbLine
 10
288.6449217067875
 20
472.3988850417362
 30
0.0
 11
367.4730513147232
 21
483.2627248015458
 31
0.0
  0
LINE
  5
1127
102
{ACAD_REACTORS
330
10E4
102
}
330
1E
100
AcDbEntity
  8
STEMPEL
100
AcDbLine
 10
288.6449217067875
 20
474.4177891677614
 30
0.0
 11
367.335882787813
 21
485.2627248015458
 31
0.0
  0
LINE
  5
1128
102
{ACAD_REACTORS
330
10E4
102
}
330
1E
100
AcDbEntity
  8
STEMPEL
100
AcDbLine
 10
155.6449217067874
 20
474.4177891677615
 30
0.0
 11
76.95396062576179
 21
485.2627248015458
 31
0.0
  0
DIMENSION
  5
1129
330
1E
100
AcDbEntity
  8
BEM
100
AcDbDimension
  2
*D4
 10
42.28460539449332
 20
485.2627248015457
 30
0.0
 11
35.78460539449326
 21
525.2627248015458
 31
0.0
 70
    32
 71
     5
 42
80.0
  3
Standard
100
AcDbAlignedDimension
 13
149.3864769093812
 23
565.2627248015457
 33
0.0
 14
57.14492170678733
 24
485.2627248015457
 34
0.0
 50
90.0
100
AcDbRotatedDimension
1001
ACAD
1000
DSTYLE
1002
{
1070
    40
1040
2.0
1070
    41
1040
3.5
1070
    42
1040
1.0
1070
    43
1040
7.0
1070
    44
1040
1.0
1070
    73
1070
     0
1070
    74
1070
     0
1070
    77
1070
     1
1070
    78
1070
     8
1070
    79
1070
     2
1070
   140
1040
3.5
1070
   141
1040
1.5
1070
   146
1040
0.5142857142857144
1070
   147
1040
1.5
1070
   172
1070
     1
1070
   178
1070
     1
1070
   179
1070
     2
1070
   271
1070
     2
1070
   272
1070
     2
1070
   284
1070
     8
1070
   285
1070
     8
1070
   286
1070
     8
1002
}
  0
DIMENSION
  5
112A
330
1E
100
AcDbEntity
  8
BEM
100
AcDbDimension
  2
*D5
 10
28.60581472214642
 20
165.2627248015458
 30
0.0
 11
22.10581472214641
 21
365.2627248015458
 31
0.0
 70
    32
 71
     5
 42
400.0
  3
Standard
100
AcDbAlignedDimension
 13
149.3864769093812
 23
565.2627248015457
 33
0.0
 14
156.5102587481883
 24
165.2627248015458
 34
0.0
 50
90.0
100
AcDbRotatedDimension
1001
ACAD
1000
DSTYLE
1002
{
1070
    40
1040
2.0
1070
    41
1040
3.5
1070
    42
1040
1.0
1070
    43
1040
7.0
1070
    44
1040
1.0
1070
    73
1070
     0
1070
    74
1070
     0
1070
    77
1070
     1
1070
    78
1070
     8
1070
    79
1070
     2
1070
   140
1040
3.5
1070
   141
1040
1.5
1070
   146
1040
0.5142857142857144
1070
   147
1040
1.5
1070
   172
1070
     1
1070
   178
1070
     1
1070
   179
1070
     2
1070
   271
1070
     2
1070
   272
1070
     2
1070
   284
1070
     8
1070
   285
1070
     8
1070
   286
1070
     8
1002
}
  0
TEXT
  5
112B
330
1E
100
AcDbEntity
  8
TEXT
 62
     1
100
AcDbText
 10
212.7811911005867
 20
298.4775884965743
 30
0.0
 40
7.0
  1
DN125
 50
90.0
 41
0.8
  7
GREEKS
100
AcDbText
  0
HATCH
  5
12F1
330
1E
100
AcDbEntity
  8
SCHRAFF
100
AcDbHatch
 10
0.0
 20
0.0
 30
0.0
210
0.0
220
0.0
230
1.0
  2
NET
 70
     0
 71
     0
 91
        2
 92
        7
 72
     1
 73
     1
 93
       14
 10
155.6449217067875
 20
565.2627248015459
 42
0.0
 10
154.3253541070379
 20
570.1874181278328
 42
0.3370502855478981
 10
151.6449217067875
 20
572.2626205672104
 42
0.3370502855478981
 10
148.9644893065371
 20
570.1874181278328
 42
0.0
 10
147.6449217067875
 20
565.2627248015457
 42
0.0
 10
152.1449217067877
 20
565.2627248015459
 42
0.0
 10
151.2214575632796
 20
563.2823495549508
 42
0.1095178116832411
 10
148.6449217067875
 20
551.6603473570816
 42
0.0
 10
148.6449217067875
 20
540.802971659379
 42
0.0
 10
150.6674844766764
 20
540.8029716593789
 42
0.0
 10
152.4449217067873
 20
545.2627248015456
 42
0.0
 10
152.9880674572953
 20
545.2627248015458
 42
0.0735555944209092
 10
153.8638859550467
 20
537.3512110558437
 42
0.0
 10
155.6449217067875
 20
537.3512110558437
 42
0.0
 97
        0
 92
        7
 72
     1
 73
     1
 93
       13
 10
288.6449217067875
 20
537.3512110558439
 42
0.0
 10
290.4259574585283
 20
537.3512110558437
 42
0.073555594420909
 10
291.3017759562797
 20
545.2627248015458
 42
0.0
 10
291.8449217067875
 20
545.2627248015456
 42
0.0
 10
293.6223589368985
 20
540.802971659379
 42
0.0
 10
295.6449217067874
 20
540.8029716593789
 42
0.0
 10
295.6449217067874
 20
551.6603473570815
 42
0.1300791237973221
 10
292.0452423711284
 20
565.2627248015459
 42
0.0
 10
296.6449217067875
 20
565.2627248015457
 42
0.0
 10
295.3253541070379
 20
570.1874181278328
 42
0.3370502855478953
 10
292.6449217067875
 20
572.2626205672104
 42
0.3370502855478953
 10
289.9644893065371
 20
570.1874181278328
 42
0.0
 10
288.6449217067875
 20
565.2627248015457
 42
0.0
 97
        0
 75
     0
 76
     1
 52
45.0
 41
20.0
 77
     0
 78
     2
 53
45.0
 43
525.9297046379757
 44
1.241181126767969
 45
-1.767766952966368
 46
1.767766952966368
 79
     0
 53
135.0
 43
525.9297046379757
 44
1.241181126767969
 45
-1.767766952966368
 46
-1.767766952966368
 79
     0
 47
0.2188138715901022
 98
        2
 10
153.9120883069086
 20
559.5900571079353
 10
291.8149778380781
 20
556.3078491867547
  0
LINE
  5
12F2
330
1E
100
AcDbEntity
  8
STEMPEL
100
AcDbLine
 10
288.6449217067875
 20
565.2627248015457
 30
0.0
 11
289.9644893065371
 21
570.1874181278328
 31
0.0
  0
LINE
  5
12F3
330
1E
100
AcDbEntity
  8
STEMPEL
100
AcDbLine
 10
296.6449217067875
 20
565.2627248015457
 30
0.0
 11
295.3253541070379
 21
570.1874181278328
 31
0.0
  0
ARC
  5
12F4
330
1E
100
AcDbEntity
  8
STEMPEL
100
AcDbCircle
 10
292.6207617934285
 20
569.4627248015458
 30
0.0
 40
2.799999999999999
100
AcDbArc
 50
15.00000000000116
 51
90.0
  0
ARC
  5
12F5
330
1E
100
AcDbEntity
  8
STEMPEL
100
AcDbCircle
 10
292.6690816201465
 20
569.4627248015458
 30
0.0
 40
2.799999999999999
100
AcDbArc
 50
90.0
 51
164.9999999999988
  0
LINE
  5
12FF
330
1E
100
AcDbEntity
  8
STEMPEL
100
AcDbLine
 10
280.4150674177167
 20
572.2627248015449
 30
0.0
 11
276.8269162951942
 21
572.2627248015449
 31
0.0
  0
LINE
  5
1308
330
1E
100
AcDbEntity
  8
STEMPEL
100
AcDbLine
 10
148.6449217067874
 20
540.802971659379
 30
0.0
 11
153.1914115275942
 21
540.802971659379
 31
0.0
  0
ARC
  5
1309
330
1E
100
AcDbEntity
  8
STEMPEL
100
AcDbCircle
 10
180.1700644678503
 20
544.267585519721
 30
0.0
 40
27.20020705200717
100
AcDbArc
 50
177.9033244789419
 51
194.7307208287747
  0
LINE
  5
130A
330
1E
100
AcDbEntity
  8
STEMPEL
100
AcDbLine
 10
150.6674844766764
 20
540.8029716593789
 30
0.0
 11
152.4449217067874
 21
545.2627248015458
 31
0.0
  0
LINE
  5
130B
330
1E
100
AcDbEntity
  8
STEMPEL
100
AcDbLine
 10
152.4449217067874
 20
545.2627248015458
 30
0.0
 11
152.9880674572953
 21
545.2627248015458
 31
0.0
  0
LINE
  5
130C
330
1E
100
AcDbEntity
  8
STEMPEL
100
AcDbLine
 10
155.6449217067875
 20
565.2627248015457
 30
0.0
 11
155.6449217067875
 21
537.3512110558437
 31
0.0
  0
LINE
  5
130D
330
1E
100
AcDbEntity
  8
STEMPEL
100
AcDbLine
 10
290.4259574585283
 20
537.3512110558437
 30
0.0
 11
288.1681193019929
 21
537.3512110558437
 31
0.0
  0
ARC
  5
130F
330
1E
100
AcDbEntity
  8
STEMPEL
100
AcDbCircle
 10
151.6207617934285
 20
569.4627248015458
 30
0.0
 40
2.799999999999999
100
AcDbArc
 50
15.00000000000116
 51
90.0
  0
ARC
  5
1310
330
1E
100
AcDbEntity
  8
STEMPEL
100
AcDbCircle
 10
151.6690816201464
 20
569.4627248015458
 30
0.0
 40
2.799999999999999
100
AcDbArc
 50
90.0
 51
164.9999999999988
  0
LINE
  5
1312
330
1E
100
AcDbEntity
  8
STEMPEL
100
AcDbLine
 10
147.6449217067875
 20
565.2627248015457
 30
0.0
 11
148.9644893065371
 21
570.1874181278328
 31
0.0
  0
LINE
  5
1313
330
1E
100
AcDbEntity
  8
STEMPEL
100
AcDbLine
 10
155.6449217067875
 20
565.2627248015457
 30
0.0
 11
154.3253541070379
 21
570.1874181278328
 31
0.0
  0
LINE
  5
1314
330
1E
100
AcDbEntity
  8
STEMPEL
100
AcDbLine
 10
147.6449217067874
 20
565.2627248015457
 30
0.0
 11
152.1449217067876
 21
565.2627248015457
 31
0.0
  0
LINE
  5
1315
330
1E
100
AcDbEntity
  8
STEMPEL
100
AcDbLine
 10
292.0452423711284
 20
565.2627248015459
 30
0.0
 11
296.6449217067875
 21
565.2627248015457
 31
0.0
  0
LINE
  5
1316
330
1E
100
AcDbEntity
  8
STEMPEL
100
AcDbLine
 10
293.6223589368985
 20
540.8029716593789
 30
0.0
 11
291.8449217067875
 21
545.2627248015458
 31
0.0
  0
ARC
  5
1317
330
1E
100
AcDbEntity
  8
STEMPEL
100
AcDbCircle
 10
264.1197789457247
 20
544.267585519721
 30
0.0
 40
27.20020705200717
100
AcDbArc
 50
345.2692791712252
 51
2.096675521058052
  0
LINE
  5
1318
330
1E
100
AcDbEntity
  8
STEMPEL
100
AcDbLine
 10
295.6449217067876
 20
540.802971659379
 30
0.0
 11
291.0984318859807
 21
540.802971659379
 31
0.0
  0
TEXT
  5
156E
330
1E
100
AcDbEntity
  8
TEXT
 62
     1
100
AcDbText
 10
372.2389001398796
 20
651.7408951225387
 30
0.0
 40
7.0
  1
EDV-Art.Nr. 21004.000X
 41
0.75
  7
GREEKS
100
AcDbText
  0
TEXT
  5
156F
330
1E
100
AcDbEntity
  8
TEXT
 62
     1
100
AcDbText
 10
372.2389001398796
 20
665.0174206729047
 30
0.0
 40
7.0
  1
Siebkorb
 41
0.8
  7
GREEKS
100
AcDbText
  0
LINE
  5
1570
330
1E
100
AcDbEntity
  8
TEXT
 62
     2
100
AcDbLine
 10
371.9735230022557
 20
661.6815723920206
 30
0.0
 11
470.75401546722
 21
661.6815723920206
 31
0.0
  0
LINE
  5
1571
330
1E
100
AcDbEntity
  8
STEMPEL
100
AcDbLine
 10
288.1449217067874
 20
599.3884093665452
 30
0.0
 11
278.1449217067875
 21
599.3884093665452
 31
0.0
  0
LINE
  5
1572
330
1E
100
AcDbEntity
  8
STEMPEL
100
AcDbLine
 10
278.1449217067875
 20
584.3884093665452
 30
0.0
 11
278.1449217067875
 21
599.3884093665452
 31
0.0
  0
LINE
  5
1573
330
1E
100
AcDbEntity
  8
STEMPEL
100
AcDbLine
 10
288.1449217067874
 20
584.3884093665452
 30
0.0
 11
288.1449217067874
 21
599.3884093665452
 31
0.0
  0
DIMENSION
  5
1574
330
1E
100
AcDbEntity
  8
BEM
100
AcDbDimension
  2
*D6
 10
332.1449217067879
 20
705.1273777824945
 30
0.0
 11
222.1449217067878
 21
711.6273777824946
 31
0.0
 70
    32
  1
%%c<>
 71
     5
 42
220.0000000000002
  3
Standard
100
AcDbAlignedDimension
 13
112.1449217067876
 23
669.3883513992296
 33
0.0
 14
332.1449217067879
 24
669.3883513992296
 34
0.0
100
AcDbRotatedDimension
1001
ACAD
1000
DSTYLE
1002
{
1070
    40
1040
2.0
1070
    41
1040
3.5
1070
    42
1040
1.0
1070
    43
1040
7.0
1070
    44
1040
1.0
1070
    73
1070
     0
1070
    74
1070
     0
1070
    77
1070
     1
1070
    78
1070
     8
1070
    79
1070
     2
1070
   140
1040
3.5
1070
   141
1040
1.5
1070
   146
1040
0.5142857142857144
1070
   147
1040
1.5
1070
   172
1070
     1
1070
   178
1070
     1
1070
   179
1070
     2
1070
   271
1070
     2
1070
   272
1070
     2
1070
   284
1070
     8
1070
   285
1070
     8
1070
   286
1070
     8
1002
}
  0
ARC
  5
1575
330
1E
100
AcDbEntity
  8
STEMPEL
100
AcDbCircle
 10
302.1449217067879
 20
683.3884093665447
 30
0.0
 40
6.0
100
AcDbArc
 50
90.0
 51
90.0
  0
ARC
  5
1576
330
1E
100
AcDbEntity
  8
STEMPEL
100
AcDbCircle
 10
302.1449217067879
 20
683.3884093665447
 30
0.0
 40
6.0
100
AcDbArc
 50
59.48712567238029
 51
90.0
  0
ARC
  5
1577
330
1E
100
AcDbEntity
  8
STEMPEL
100
AcDbCircle
 10
302.1449217067879
 20
683.3884093665447
 30
0.0
 40
5.0
100
AcDbArc
 50
59.46264995169811
 51
90.0
  0
ARC
  5
1578
330
1E
100
AcDbEntity
  8
STEMPEL
100
AcDbCircle
 10
326.1449217067877
 20
669.3883513992294
 30
0.0
 40
5.0
100
AcDbArc
 50
0.0
 51
59.74358352518112
  0
ARC
  5
1579
330
1E
100
AcDbEntity
  8
STEMPEL
100
AcDbCircle
 10
331.6560653110993
 20
678.9082463490067
 30
0.0
 40
5.0
100
AcDbArc
 50
239.7435628364698
 51
239.9329541615142
  0
ARC
  5
157A
330
1E
100
AcDbEntity
  8
STEMPEL
100
AcDbCircle
 10
326.1449217067877
 20
669.3883513992294
 30
0.0
 40
6.0
100
AcDbArc
 50
0.0
 51
59.74358352518112
  0
LINE
  5
157B
330
1E
100
AcDbEntity
  8
STEMPEL
100
AcDbLine
 10
329.1776163284956
 20
674.5654899265883
 30
0.0
 11
305.1913134530289
 21
688.5574999372769
 31
0.0
  0
LINE
  5
157C
330
1E
100
AcDbEntity
  8
STEMPEL
100
AcDbLine
 10
328.6642752749148
 20
673.7072468134256
 30
0.0
 11
304.6854213819638
 21
687.6948999796113
 31
0.0
  0
ELLIPSE
  5
157D
330
1E
100
AcDbEntity
  8
STEMPEL
100
AcDbEllipse
 10
277.0169318759088
 20
656.8884093665453
 30
0.0
 11
0.0000000000000334
 21
7.5
 31
0.0
210
0.0
220
0.0
230
-1.0
 40
0.8660254037843856
 41
4.712388980384689
 42
6.24459510668465
  0
ELLIPSE
  5
157E
330
1E
100
AcDbEntity
  8
STEMPEL
100
AcDbEllipse
 10
276.5157548804669
 20
656.8884093665453
 30
0.0
 11
0.0000000000000334
 21
7.5
 31
0.0
210
0.0
220
0.0
230
-1.0
 40
0.8660254037843856
 41
4.712388980384689
 42
7.853981633974482
  0
ELLIPSE
  5
157F
330
1E
100
AcDbEntity
  8
STEMPEL
100
AcDbEllipse
 10
277.0169318759087
 20
631.8884093665453
 30
0.0
 11
-0.0000000000000334
 21
-7.5
 31
0.0
210
0.0
220
0.0
230
1.0
 40
0.8660254037843856
 41
4.712388980384689
 42
6.24459510668465
  0
ELLIPSE
  5
1580
330
1E
100
AcDbEntity
  8
STEMPEL
100
AcDbEllipse
 10
276.5157548804668
 20
631.8884093665453
 30
0.0
 11
-0.0000000000000334
 21
-7.5
 31
0.0
210
0.0
220
0.0
230
1.0
 40
0.8660254037843856
 41
4.712388980384689
 42
7.853981633974482
  0
LINE
  5
1581
330
1E
100
AcDbEntity
  8
STEMPEL
100
AcDbLine
 10
270.521741347526
 20
656.8884093665453
 30
0.0
 11
270.5217413475259
 21
631.8884093665453
 31
0.0
  0
LINE
  5
1582
330
1E
100
AcDbEntity
  8
STEMPEL
100
AcDbLine
 10
283.0109454088498
 20
656.8884093665453
 30
0.0
 11
283.0109454088496
 21
631.8884093665469
 31
0.0
  0
LINE
  5
1583
330
1E
100
AcDbEntity
  8
STEMPEL
100
AcDbLine
 10
270.0205643520839
 20
656.8884093665453
 30
0.0
 11
270.0205643520838
 21
631.8884093665453
 31
0.0
  0
LWPOLYLINE
  5
1584
330
1E
100
AcDbEntity
  8
STEMPEL
100
AcDbPolyline
 90
        7
 70
   128
 43
0.0
 10
258.4305550302602
 20
600.3884093665454
 10
258.0799898158482
 20
600.9977472683861
 10
257.7793278369095
 20
601.7251775416753
 10
257.5366557749749
 20
602.5511350356191
 10
257.3585005999265
 20
603.4534045860814
 10
257.2496540189459
 20
604.4077185203246
 10
257.2130435975311
 20
605.3884093665458
  0
LWPOLYLINE
  5
1585
330
1E
100
AcDbEntity
  8
STEMPEL
100
AcDbPolyline
 90
       10
 70
   128
 43
0.0
 10
259.5518026590632
 20
599.3884093665453
 10
259.0790727013096
 20
599.4795628484721
 10
258.6207064041094
 20
599.7502536418299
 10
258.1906309954586
 20
600.1922569438387
 10
257.8019140990204
 20
600.7921427078315
 10
257.4663666809927
 20
601.5316837084262
 10
257.1941841798771
 20
602.3884093665456
 10
256.993636723239
 20
603.3362885065916
 10
256.8708178440666
 20
604.3465203005442
 10
256.8294593318541
 20
605.3884093665458
  0
LWPOLYLINE
  5
1586
330
1E
100
AcDbEntity
  8
STEMPEL
100
AcDbPolyline
 90
       10
 70
   128
 43
0.0
 10
273.4099956467341
 20
599.3884093665452
 10
272.9372656889805
 20
599.479562848472
 10
272.4788993917803
 20
599.7502536418299
 10
272.0488239831296
 20
600.1922569438386
 10
271.6601070866913
 20
600.7921427078315
 10
271.3245596686637
 20
601.5316837084262
 10
271.0523771675481
 20
602.3884093665454
 10
270.85182971091
 20
603.3362885065915
 10
270.7290108317375
 20
604.346520300544
 10
270.687652319525
 20
605.3884093665457
  0
LINE
  5
1587
330
1E
100
AcDbEntity
  8
STEMPEL
100
AcDbLine
 10
270.6876523195252
 20
611.8884093665434
 30
0.0
 11
270.687652319525
 21
605.3884093665468
 31
0.0
  0
LINE
  5
1588
330
1E
100
AcDbEntity
  8
STEMPEL
100
AcDbLine
 10
282.3925038530064
 20
611.8884093665433
 30
0.0
 11
282.3925038530063
 21
605.3884093665467
 31
0.0
  0
LINE
  5
1589
330
1E
100
AcDbEntity
  8
STEMPEL
100
AcDbLine
 10
283.0026983008687
 20
611.8884093665433
 30
0.0
 11
283.0026983008687
 21
605.3884093665467
 31
0.0
  0
LINE
  5
158A
330
1E
100
AcDbEntity
  8
STEMPEL
100
AcDbLine
 10
271.9051637522542
 20
600.3884093665452
 30
0.0
 11
258.4305550302598
 21
600.3884093665454
 31
0.0
  0
LWPOLYLINE
  5
158B
330
1E
100
AcDbEntity
  8
STEMPEL
100
AcDbPolyline
 90
        9
 70
   128
 43
0.0
 10
-263.9503479585016
 20
619.3855357895836
 10
-262.6261385081718
 20
619.2067028825358
 10
-261.3581591109857
 20
618.7564269652116
 10
-260.1934404229001
 20
618.0514092330724
 10
-259.1751830542934
 20
617.117799516689
 10
-258.3411552150312
 20
615.9902263577129
 10
-257.7222918528373
 20
614.7105126007611
 10
-257.3415472443631
 20
613.3261241412256
 10
-257.2130435975312
 20
611.8884093665451
210
0.0
220
0.0
230
-1.0
  0
LWPOLYLINE
  5
158C
330
1E
100
AcDbEntity
  8
STEMPEL
100
AcDbPolyline
 90
       18
 70
   128
 43
0.0
 10
-270.6876523195252
 20
611.8884093665434
 10
-270.5696712842441
 20
613.2665307501679
 10
-270.2197458810544
 20
614.5977218629476
 10
-269.6497923998726
 20
615.8366505881245
 10
-268.8792199229165
 20
616.9411266938936
 10
-267.934269371689
 20
617.8735385711465
 10
-266.8471199038689
 20
618.6021340517078
 10
-265.6547930906907
 20
619.1021016903411
 10
-264.3978921917389
 20
619.3564156887577
 10
-263.1192194596405
 20
619.3564156887577
 10
-261.8623185606887
 20
619.1021016903412
 10
-260.6699917475105
 20
618.6021340517079
 10
-259.5828422796904
 20
617.8735385711465
 10
-258.6378917284629
 20
616.9411266938936
 10
-257.8673192515068
 20
615.8366505881245
 10
-257.297365770325
 20
614.5977218629477
 10
-256.9474403671354
 20
613.266530750168
 10
-256.8294593318543
 20
611.8884093665435
210
0.0
220
0.0
230
-1.0
  0
LINE
  5
158D
330
1E
100
AcDbEntity
  8
STEMPEL
100
AcDbLine
 10
313.4360312331395
 20
631.8884093665452
 30
0.0
 11
313.4360312331397
 21
656.8884093665468
 31
0.0
  0
LINE
  5
158E
330
1E
100
AcDbEntity
  8
STEMPEL
100
AcDbLine
 10
312.5679672134508
 20
656.8884093665452
 30
0.0
 11
312.5679672134507
 21
631.8884093665468
 31
0.0
  0
LWPOLYLINE
  5
158F
330
1E
100
AcDbEntity
  8
STEMPEL
100
AcDbPolyline
 90
       10
 70
   128
 43
0.0
 10
297.9554070928993
 20
599.3884093665451
 10
297.3194027328984
 20
599.4795628484719
 10
296.7027230435422
 20
599.7502536418296
 10
296.1241055251372
 20
600.1922569438386
 10
295.6011311781853
 20
600.7921427078313
 10
295.1496903135808
 20
601.531683708426
 10
294.7834997335548
 20
602.3884093665453
 10
294.5136859535799
 20
603.3362885065915
 10
294.3484471288282
 20
604.3465203005439
 10
294.2928039573752
 20
605.3884093665455
  0
LINE
  5
1590
330
1E
100
AcDbEntity
  8
STEMPEL
100
AcDbLine
 10
294.2928039573753
 20
611.8884093665433
 30
0.0
 11
294.2928039573752
 21
605.3884093665467
 31
0.0
  0
LINE
  5
1591
330
1E
100
AcDbEntity
  8
STEMPEL
100
AcDbLine
 10
295.9308270334805
 20
600.3884093665451
 30
0.0
 11
284.6407213769735
 21
600.3884093665451
 31
0.0
  0
LWPOLYLINE
  5
1592
330
1E
100
AcDbEntity
  8
STEMPEL
100
AcDbPolyline
 90
        7
 70
   128
 43
0.0
 10
306.596572930066
 20
600.3884093665451
 10
306.0346439568018
 20
600.9977472683858
 10
305.5527060172147
 20
601.7251775416752
 10
305.1637214374649
 20
602.5511350356189
 10
304.8781524463584
 20
603.4534045860811
 10
304.7036797805625
 20
604.4077185203243
 10
304.6449961015475
 20
605.3884093665455
  0
LINE
  5
1593
330
1E
100
AcDbEntity
  8
STEMPEL
100
AcDbLine
 10
303.849775214727
 20
611.8884093665433
 30
0.0
 11
303.8497752147269
 21
605.3884093665467
 31
0.0
  0
LINE
  5
1594
330
1E
100
AcDbEntity
  8
STEMPEL
100
AcDbLine
 10
304.6449961015477
 20
611.8884093665433
 30
0.0
 11
304.6449961015476
 21
605.3884093665467
 31
0.0
  0
LINE
  5
1595
330
1E
100
AcDbEntity
  8
STEMPEL
100
AcDbLine
 10
312.9811966498589
 20
611.8884093665433
 30
0.0
 11
312.9811966498587
 21
605.3884093665467
 31
0.0
  0
LINE
  5
1596
330
1E
100
AcDbEntity
  8
STEMPEL
100
AcDbLine
 10
314.9327734783772
 20
600.388409366545
 30
0.0
 11
306.5965729300653
 21
600.3884093665451
 31
0.0
  0
LWPOLYLINE
  5
1597
330
1E
100
AcDbEntity
  8
STEMPEL
100
AcDbPolyline
 90
       10
 70
   128
 43
0.0
 10
308.2134813893328
 20
599.3884093665451
 10
307.4557317642386
 20
599.4795628484719
 10
306.721005978063
 20
599.7502536418296
 10
306.0316283020299
 20
600.1922569438384
 10
305.4085451279836
 20
600.7921427078313
 10
304.8706885228721
 20
601.531683708426
 10
304.4344009874731
 20
602.3884093665453
 10
304.1129388977779
 20
603.3362885065913
 10
303.9160697167138
 20
604.3465203005439
 10
303.849775214727
 20
605.3884093665455
  0
LWPOLYLINE
  5
1598
330
1E
100
AcDbEntity
  8
STEMPEL
100
AcDbPolyline
 90
       10
 70
   128
 43
0.0
 10
-309.2107068191138
 20
619.3884093665465
 10
-308.4178794732541
 20
619.274467514138
 10
-307.6491417851084
 20
618.9361040224406
 10
-306.9278514603308
 20
618.3835998949295
 10
-306.2759245404493
 20
617.6337426899383
 10
-305.7131694950337
 20
616.7093164391949
 10
-305.2566853513708
 20
615.6384093665455
 10
-304.920342149174
 20
614.453560441488
 10
-304.714359506444
 20
613.1907706990471
 10
-304.6449961015479
 20
611.8884093665449
210
0.0
220
0.0
230
-1.0
  0
LWPOLYLINE
  5
1599
330
1E
100
AcDbEntity
  8
STEMPEL
100
AcDbPolyline
 90
       18
 70
   128
 43
0.0
 10
-312.9811966498587
 20
611.8884093665433
 10
-312.9034567485987
 20
613.2665307501678
 10
-312.6728843839168
 20
614.5977218629475
 10
-312.2973314211517
 20
615.8366505881242
 10
-311.789586866024
 20
616.9411266938935
 10
-311.166941350386
 20
617.8735385711463
 10
-310.450598320492
 20
618.6021340517076
 10
-309.6649519790661
 20
619.102101690341
 10
-308.8367565699867
 20
619.3564156887576
 10
-307.994215294599
 20
619.3564156887576
 10
-307.1660198855196
 20
619.102101690341
 10
-306.3803735440936
 20
618.6021340517076
 10
-305.6640305141996
 20
617.8735385711463
 10
-305.0413849985617
 20
616.9411266938935
 10
-304.533640443434
 20
615.8366505881242
 10
-304.1580874806688
 20
614.5977218629475
 10
-303.927515115987
 20
613.2665307501678
 10
-303.8497752147269
 20
611.8884093665433
210
0.0
220
0.0
230
-1.0
  0
LWPOLYLINE
  5
159A
330
1E
100
AcDbEntity
  8
STEMPEL
100
AcDbPolyline
 90
        7
 70
   128
 43
0.0
 10
284.640721376974
 20
600.3884093665451
 10
284.1690757764072
 20
600.9977472683861
 10
283.7645693000244
 20
601.7251775416752
 10
283.4380816575353
 20
602.5511350356189
 10
283.1983941441271
 20
603.4534045860811
 10
283.0519534565011
 20
604.4077185203246
 10
283.0026983008687
 20
605.3884093665455
  0
LWPOLYLINE
  5
159B
330
1E
100
AcDbEntity
  8
STEMPEL
100
AcDbPolyline
 90
       10
 70
   128
 43
0.0
 10
286.0551069885304
 20
599.3884093665451
 10
285.4191026285295
 20
599.4795628484719
 10
284.8024229391734
 20
599.7502536418298
 10
284.2238054207683
 20
600.1922569438386
 10
283.7008310738164
 20
600.7921427078314
 10
283.249390209212
 20
601.5316837084261
 10
282.883199629186
 20
602.3884093665453
 10
282.6133858492111
 20
603.3362885065915
 10
282.4481470244594
 20
604.3465203005439
 10
282.3925038530063
 20
605.3884093665455
  0
LWPOLYLINE
  5
159C
330
1E
100
AcDbEntity
  8
STEMPEL
100
AcDbPolyline
 90
        9
 70
   128
 43
0.0
 10
-288.6477511291104
 20
619.3785434443671
 10
-287.5313434077392
 20
619.17123630796
 10
-286.466064155997
 20
618.7019815805061
 10
-285.4902291729587
 20
617.9876573433375
 10
-284.6389371401007
 20
617.0539562999413
 10
-283.9428071973643
 20
615.9344616647809
 10
-283.4268776386729
 20
614.6694392474421
 10
-283.109705338457
 20
613.3043891782328
 10
-283.0026983008689
 20
611.8884093665449
210
0.0
220
0.0
230
-1.0
  0
LWPOLYLINE
  5
159D
330
1E
100
AcDbEntity
  8
STEMPEL
100
AcDbPolyline
 90
       18
 70
   128
 43
0.0
 10
-294.2928039573754
 20
611.8884093665433
 10
-294.191491345571
 20
613.2665307501679
 10
-293.8910035896418
 20
614.5977218629475
 10
-293.4015734397206
 20
615.8366505881242
 10
-292.7398678525562
 20
616.9411266938936
 10
-291.9284204182911
 20
617.8735385711463
 10
-290.9948640060754
 20
618.6021340517076
 10
-289.9709897598492
 20
619.102101690341
 10
-288.8916644890665
 20
619.3564156887576
 10
-287.7936433213154
 20
619.3564156887577
 10
-286.7143180505327
 20
619.102101690341
 10
-285.6904438043065
 20
618.6021340517076
 10
-284.7568873920908
 20
617.8735385711465
 10
-283.9454399578258
 20
616.9411266938936
 10
-283.2837343706613
 20
615.8366505881243
 10
-282.7943042207401
 20
614.5977218629475
 10
-282.4938164648109
 20
613.2665307501679
 10
-282.3925038530065
 20
611.8884093665433
210
0.0
220
0.0
230
-1.0
  0
LINE
  5
159E
330
1E
100
AcDbEntity
  8
STEMPEL
100
AcDbLine
 10
332.1449217067879
 20
664.3884093665448
 30
0.0
 11
331.1449217067879
 21
664.3884093665448
 31
0.0
  0
LINE
  5
159F
330
1E
100
AcDbEntity
  8
STEMPEL
100
AcDbLine
 10
332.1449217067879
 20
624.3884093665448
 30
0.0
 11
331.1449217067877
 21
624.3884093665448
 31
0.0
  0
LINE
  5
15A0
330
1E
100
AcDbEntity
  8
STEMPEL
100
AcDbLine
 10
320.0679672134507
 20
656.8884093665452
 30
0.0
 11
320.0679672134506
 21
631.8884093665483
 31
0.0
  0
LWPOLYLINE
  5
15A1
330
1E
100
AcDbEntity
  8
STEMPEL
100
AcDbPolyline
 90
        7
 70
   128
 43
0.0
 10
322.8186218027165
 20
600.388409366545
 10
322.1985312796521
 20
600.9977472683858
 10
321.6667111328687
 20
601.7251775416751
 10
321.2374653331374
 20
602.5511350356188
 10
320.9223389853401
 20
603.453404586081
 10
320.7298078083742
 20
604.4077185203243
 10
320.6650501700479
 20
605.3884093665454
  0
LINE
  5
15A2
330
1E
100
AcDbEntity
  8
STEMPEL
100
AcDbLine
 10
319.7389958335406
 20
611.8884093665432
 30
0.0
 11
319.7389958335405
 21
605.3884093665466
 31
0.0
  0
LINE
  5
15A3
330
1E
100
AcDbEntity
  8
STEMPEL
100
AcDbLine
 10
320.6650501700479
 20
611.8884093665432
 30
0.0
 11
320.6650501700478
 21
605.3884093665466
 31
0.0
  0
LWPOLYLINE
  5
15A4
330
1E
100
AcDbEntity
  8
STEMPEL
100
AcDbPolyline
 90
        7
 70
   128
 43
0.0
 10
-330.4531773808711
 20
618.350463422383
 10
-330.3153483713008
 20
617.5983571854445
 10
-330.1964840943346
 20
616.6756435747296
 10
-330.1001360924334
 20
615.6098923248253
 10
-330.0291831448952
 20
614.4329469880042
 10
-329.9857452528873
 20
613.1799734816024
 10
-329.9711202959897
 20
611.8884093665431
210
0.0
220
0.0
230
-1.0
  0
LWPOLYLINE
  5
15A5
330
1E
100
AcDbEntity
  8
STEMPEL
100
AcDbPolyline
 90
        7
 70
   128
 43
0.0
 10
332.5915794796603
 20
600.3884093665454
 10
331.9148776045829
 20
600.9980100944044
 10
331.3153281809489
 20
601.7255691783161
 10
330.8090395077992
 20
602.5515390399963
 10
330.4096142157537
 20
603.4537280651993
 10
330.1277838004908
 20
604.4078968333931
 10
329.9711202959894
 20
605.3884093665454
  0
LWPOLYLINE
  5
15A6
330
1E
100
AcDbEntity
  8
STEMPEL
100
AcDbPolyline
 90
       10
 70
   128
 43
0.0
 10
330.2946118455922
 20
599.3884093665449
 10
329.4584325707506
 20
599.4795628484716
 10
328.647660180048
 20
599.7502536418295
 10
327.8869295823052
 20
600.1922569438383
 10
327.1993551917864
 20
600.7921427078311
 10
326.605828608418
 20
601.531683708426
 10
326.1243838370968
 20
602.3884093665452
 10
325.7696493335764
 20
603.3362885065912
 10
325.5524035262423
 20
604.3465203005438
 10
325.4792473190183
 20
605.3884093665454
  0
LINE
  5
15A7
330
1E
100
AcDbEntity
  8
STEMPEL
100
AcDbLine
 10
325.4792473190184
 20
611.8884093665432
 30
0.0
 11
325.4792473190183
 21
605.3884093665466
 31
0.0
  0
LINE
  5
15A8
330
1E
100
AcDbEntity
  8
STEMPEL
100
AcDbLine
 10
330.9352344657522
 20
611.8884093665431
 30
0.0
 11
330.9352344657521
 21
605.3884093665454
 31
0.0
  0
LINE
  5
15A9
330
1E
100
AcDbEntity
  8
STEMPEL
100
AcDbLine
 10
329.9711202959896
 20
611.8884093665431
 30
0.0
 11
329.9711202959894
 21
605.3884093665454
 31
0.0
  0
LINE
  5
15AA
330
1E
100
AcDbEntity
  8
STEMPEL
100
AcDbLine
 10
328.9773415824517
 20
611.8884093665431
 30
0.0
 11
328.9773415824516
 21
605.3884093665442
 31
0.0
  0
LWPOLYLINE
  5
15AB
330
1E
100
AcDbEntity
  8
STEMPEL
100
AcDbPolyline
 90
       10
 70
   128
 43
0.0
 10
324.5543603601145
 20
599.388409366545
 10
323.7181810852729
 20
599.4795628484718
 10
322.9074086945703
 20
599.7502536418296
 10
322.1466780968274
 20
600.1922569438383
 10
321.4591037063087
 20
600.7921427078313
 10
320.8655771229402
 20
601.531683708426
 10
320.384132351619
 20
602.3884093665452
 10
320.0293978480987
 20
603.3362885065912
 10
319.8121520407645
 20
604.3465203005438
 10
319.7389958335405
 20
605.3884093665454
  0
LINE
  5
15AC
330
1E
100
AcDbEntity
  8
STEMPEL
100
AcDbLine
 10
327.6328189516868
 20
600.3884093665448
 30
0.0
 11
322.8186218027154
 21
600.388409366545
 31
0.0
  0
LINE
  5
15AD
330
1E
100
AcDbEntity
  8
STEMPEL
100
AcDbLine
 10
333.5556936494227
 20
600.3884093665448
 30
0.0
 11
332.5915794796601
 21
600.3884093665448
 31
0.0
  0
LWPOLYLINE
  5
15AE
330
1E
100
AcDbEntity
  8
STEMPEL
100
AcDbPolyline
 90
       10
 70
   128
 43
0.0
 10
334.4833303134824
 20
599.3884093665449
 10
333.6252573172097
 20
599.4545365811176
 10
332.7724451175874
 20
599.7070903308479
 10
331.9516868106704
 20
600.1381360471654
 10
331.1887684442715
 20
600.7341314176053
 10
330.5076588887723
 20
601.476351849326
 10
329.9297567988265
 20
602.3414787461233
 10
329.4732183244203
 20
603.3023321168395
 10
329.1523866928228
 20
604.3287244985516
 10
328.9773415824516
 20
605.3884093665442
  0
LWPOLYLINE
  5
15AF
330
1E
100
AcDbEntity
  8
STEMPEL
100
AcDbPolyline
 90
       10
 70
   128
 43
0.0
 10
336.4412231967829
 20
599.388409366546
 10
335.5831502005102
 20
599.4545365811188
 10
334.7303380008879
 20
599.707090330849
 10
333.9095796939709
 20
600.1381360471665
 10
333.146661327572
 20
600.7341314176064
 10
332.4655517720727
 20
601.476351849327
 10
331.887649682127
 20
602.3414787461245
 10
331.4311112077208
 20
603.3023321168406
 10
331.1102795761232
 20
604.3287244985528
 10
330.9352344657521
 20
605.3884093665454
  0
ARC
  5
15B0
330
1E
100
AcDbEntity
  8
STEMPEL
100
AcDbCircle
 10
337.1449217067873
 20
605.3884093665454
 30
0.0
 40
5.0
100
AcDbArc
 50
180.0
 51
269.9999999999984
  0
ARC
  5
15B1
330
1E
100
AcDbEntity
  8
STEMPEL
100
AcDbCircle
 10
337.1449217067873
 20
605.3884093665454
 30
0.0
 40
6.0
100
AcDbArc
 50
180.0
 51
269.9999999999984
  0
LWPOLYLINE
  5
15B2
330
1E
100
AcDbEntity
  8
STEMPEL
100
AcDbPolyline
 90
       18
 70
   128
 43
0.0
 10
-325.4792473190184
 20
611.8884093665432
 10
-325.4303779741021
 20
613.2665307501676
 10
-325.285434126282
 20
614.5977218629474
 10
-325.0493516644548
 20
615.8366505881242
 10
-324.7301700937081
 20
616.9411266938935
 10
-324.3387587596178
 20
617.8735385711463
 10
-323.8884467057198
 20
618.6021340517076
 10
-323.3945687689204
 20
619.1021016903408
 10
-322.8739433700154
 20
619.3564156887576
 10
-322.3442997825436
 20
619.3564156887576
 10
-321.8236743836387
 20
619.1021016903408
 10
-321.3297964468392
 20
618.6021340517076
 10
-320.8794843929413
 20
617.8735385711463
 10
-320.4880730588509
 20
616.9411266938935
 10
-320.1688914881042
 20
615.8366505881242
 10
-319.932809026277
 20
614.5977218629474
 10
-319.7878651784569
 20
613.2665307501676
 10
-319.7389958335406
 20
611.8884093665432
210
0.0
220
0.0
230
-1.0
  0
LWPOLYLINE
  5
15B3
330
1E
100
AcDbEntity
  8
STEMPEL
100
AcDbPolyline
 90
        9
 70
   128
 43
0.0
 10
-323.0721487445315
 20
619.2901676112082
 10
-322.5830882012628
 20
618.9637347134508
 10
-322.1234752333618
 20
618.4184657001936
 10
-321.7075254297376
 20
617.6712254570657
 10
-321.348103900446
 20
616.7451257342881
 10
-321.0563273655585
 20
615.6688103123179
 10
-320.8412203208204
 20
614.4755690646871
 10
-320.7094359147129
 20
613.2023083196111
 10
-320.665050170048
 20
611.8884093665448
210
0.0
220
0.0
230
-1.0
  0
LWPOLYLINE
  5
15B4
330
1E
100
AcDbEntity
  8
STEMPEL
100
AcDbPolyline
 90
       18
 70
   128
 43
0.0
 10
-330.9352344657522
 20
611.8884093665431
 10
-330.9185660422755
 20
613.2665307501676
 10
-330.869128395015
 20
614.5977218629472
 10
-330.7886050637546
 20
615.8366505881241
 10
-330.6797381739629
 20
616.9411266938935
 10
-330.5462350570006
 20
617.8735385711462
 10
-330.3926420013965
 20
618.6021340517075
 10
-330.2241894344444
 20
619.1021016903407
 10
-330.0466138062755
 20
619.3564156887576
 10
-329.8659622419285
 20
619.3564156887576
 10
-329.6883866137595
 20
619.1021016903407
 10
-329.5199340468075
 20
618.6021340517075
 10
-329.3663409912034
 20
617.8735385711462
 10
-329.2328378742411
 20
616.9411266938935
 10
-329.1239709844494
 20
615.8366505881241
 10
-329.0434476531889
 20
614.5977218629472
 10
-328.9940100059285
 20
613.2665307501676
 10
-328.9773415824517
 20
611.8884093665431
210
0.0
220
0.0
230
-1.0
  0
LINE
  5
15B5
330
1E
100
AcDbEntity
  8
STEMPEL
100
AcDbLine
 10
352.1449217067876
 20
600.3884093665451
 30
0.0
 11
352.1449217067877
 21
599.3884093665449
 31
0.0
  0
LINE
  5
15B6
330
1E
100
AcDbEntity
  8
STEMPEL
100
AcDbLine
 10
352.1449217067874
 20
600.3884093665448
 30
0.0
 11
337.1449217067872
 21
600.3884093665454
 31
0.0
  0
LWPOLYLINE
  5
15B7
330
1E
100
AcDbEntity
  8
STEMPEL
100
AcDbPolyline
 90
       10
 70
   128
 43
0.0
 10
317.3449028244647
 20
599.388409366545
 10
316.5871531993705
 20
599.4795628484718
 10
315.8524274131949
 20
599.7502536418296
 10
315.1630497371618
 20
600.1922569438383
 10
314.5399665631154
 20
600.7921427078313
 10
314.0021099580039
 20
601.531683708426
 10
313.565822422605
 20
602.3884093665453
 10
313.2443603329097
 20
603.3362885065913
 10
313.0474911518457
 20
604.3465203005439
 10
312.9811966498589
 20
605.3884093665455
  0
ELLIPSE
  5
15B8
330
1E
100
AcDbEntity
  8
STEMPEL
100
AcDbEllipse
 10
316.3179672134507
 20
656.8884093665452
 30
0.0
 11
0.0000000000000334
 21
7.499999999999999
 31
0.0
210
0.0
220
0.0
230
-1.0
 40
0.4999999999999926
 41
4.712388980384689
 42
7.853981633974482
  0
ELLIPSE
  5
15B9
330
1E
100
AcDbEntity
  8
STEMPEL
100
AcDbEllipse
 10
317.1860312331397
 20
656.8884093665452
 30
0.0
 11
0.0000000000000334
 21
7.499999999999999
 31
0.0
210
0.0
220
0.0
230
-1.0
 40
0.4999999999999926
 41
4.712388980384689
 42
6.167183451052224
  0
ELLIPSE
  5
15BA
330
1E
100
AcDbEntity
  8
STEMPEL
100
AcDbEllipse
 10
317.1860312331395
 20
631.8884093665467
 30
0.0
 11
-0.0000000000000334
 21
-7.499999999999999
 31
0.0
210
0.0
220
0.0
230
1.0
 40
0.4999999999999926
 41
4.712388980384689
 42
6.167183451052224
  0
ELLIPSE
  5
15BB
330
1E
100
AcDbEntity
  8
STEMPEL
100
AcDbEllipse
 10
316.3179672134506
 20
631.8884093665467
 30
0.0
 11
-0.0000000000000334
 21
-7.499999999999999
 31
0.0
210
0.0
220
0.0
230
1.0
 40
0.4999999999999926
 41
4.712388980384689
 42
7.853981633974482
  0
LINE
  5
15BC
330
1E
100
AcDbEntity
  8
STEMPEL
100
AcDbLine
 10
332.1449217067878
 20
669.3883513992293
 30
0.0
 11
332.1449217067875
 21
605.3884093665454
 31
0.0
  0
LINE
  5
15BD
330
1E
100
AcDbEntity
  8
STEMPEL
100
AcDbLine
 10
331.1449217067877
 20
669.3883513992293
 30
0.0
 11
331.1449217067873
 21
605.3884093665454
 31
0.0
  0
LINE
  5
15BE
330
1E
100
AcDbEntity
  8
STEMPEL
100
AcDbLine
 10
302.1449217067879
 20
689.3884093665443
 30
0.0
 11
247.4065595344384
 21
689.3884093665449
 31
0.0
  0
LINE
  5
15BF
330
1E
100
AcDbEntity
  8
HILF
100
AcDbLine
 10
119.8185886492571
 20
672.3884093665486
 30
0.0
 11
324.9712547643185
 21
672.3884093665475
 31
0.0
  0
LINE
  5
15C0
330
1E
100
AcDbEntity
  8
STEMPEL
100
AcDbLine
 10
352.1449217067874
 20
599.3884093665449
 30
0.0
 11
92.14492170678733
 21
599.388409366546
 31
0.0
  0
LINE
  5
15C1
330
1E
100
AcDbEntity
  8
STEMPEL
100
AcDbLine
 10
302.1449217067879
 20
688.3884093665447
 30
0.0
 11
142.1449217067876
 21
688.3884093665458
 31
0.0
  0
HATCH
  5
15C2
330
1E
100
AcDbEntity
  8
SCHRAFF
100
AcDbHatch
 10
0.0
 20
0.0
 30
0.0
210
0.0
220
0.0
230
1.0
  2
ANSI31
 70
     0
 71
     0
 91
        5
 92
        7
 72
     1
 73
     1
 93
       39
 10
142.1449217067876
 20
689.3884093665458
 42
0.1316524975847141
 10
139.1449217068428
 20
688.5845617892837
 42
0.0
 10
115.1122270850777
 20
674.5654899265881
 42
0.2662608607102479
 10
112.1449217067875
 20
669.38835139923
 42
0.0
 10
112.1449217067875
 20
664.3884093665458
 42
0.0
 10
113.1449217067876
 20
664.3884093665458
 42
0.0
 10
113.1449217067876
 20
669.3883513992304
 42
-0.2667503951500742
 10
115.6255681386607
 20
673.7072468134267
 42
0.0
 10
139.6044220316117
 20
687.694899979612
 42
-0.1340385084111775
 10
142.1449217067876
 20
688.3884093665458
 42
0.0
 10
196.705407111731
 20
688.3884093665454
 42
0.2679491924311568
 10
198.8704706211923
 20
689.6384093665453
 42
-0.2679491924313146
 10
199.303483323085
 20
689.8884093665451
 42
0.0
 10
199.5034833230851
 20
689.8884093665451
 42
-0.2679491924310819
 10
199.9364960249773
 20
689.6384093665452
 42
0.2679491924311186
 10
202.1015595344384
 20
688.3884093665454
 42
0.0
 10
208.5554071117314
 20
688.3884093665454
 42
0.2679491924311333
 10
210.7204706211927
 20
689.6384093665452
 42
-0.2679491924311795
 10
211.153483323085
 20
689.8884093665452
 42
0.0
 10
211.353483323085
 20
689.8884093665452
 42
-0.3419987131196873
 10
211.8376062413609
 20
689.5134093665451
 42
0.359675761990544
 10
213.3843495924885
 20
688.3913811652164
 42
0.3596757619904921
 10
214.9310929436158
 20
689.5134093665451
 42
-0.3419987131195469
 10
215.4152158618915
 20
689.8884093665451
 42
0.0
 10
222.1449217067877
 20
689.8884093665451
 42
0.0
 10
222.1449217067878
 20
690.8884093665451
 42
0.0
 10
215.4152158618915
 20
690.8884093665451
 42
0.3419987131196276
 10
213.9628471070638
 20
689.7634093665451
 42
-0.3419987131196876
 10
213.4787241887879
 20
689.3884093665451
 42
0.0
 10
213.289974996189
 20
689.3884093665451
 42
-0.3419987131196593
 10
212.8058520779131
 20
689.7634093665451
 42
0.3607372083888518
 10
211.253483323085
 20
690.8850723212546
 42
0.2859076546238796
 10
209.8544452174082
 20
690.1384093665451
 42
-0.2679491924311347
 10
208.5554071117315
 20
689.3884093665451
 42
0.0
 10
202.1015595344374
 20
689.3884093665451
 42
-0.2679491924310867
 10
200.8025214287609
 20
690.1384093665448
 42
0.2859076546238621
 10
199.4034833230843
 20
690.8850723212548
 42
0.2859076546237983
 10
198.004445217408
 20
690.1384093665451
 42
-0.267949192431112
 10
196.7054071117314
 20
689.3884093665453
 42
0.0
 97
        0
 92
        7
 72
     1
 73
     1
 93
        8
 10
112.1449217067872
 20
605.3884093665463
 42
-0.4142135623730736
 10
107.1449217067875
 20
600.3884093665464
 42
0.0
 10
104.1449217067874
 20
600.3884093665463
 42
0.0
 10
104.1449217067874
 20
599.388409366546
 42
0.0
 10
107.1449217067873
 20
599.388409366546
 42
0.414213562373112
 10
113.1449217067873
 20
605.3884093665463
 42
0.0
 10
113.1449217067874
 20
624.3884093665458
 42
0.0
 10
112.1449217067873
 20
624.3884093665458
 42
0.0
 97
        0
 92
        7
 72
     0
 73
     1
 93
        4
 10
92.14492170678756
 20
600.388409366546
 10
92.14492170678742
 20
599.388409366546
 10
96.14492170678746
 20
599.388409366546
 10
96.14492170678744
 20
600.3884093665462
 97
        0
 92
        7
 72
     1
 73
     1
 93
        8
 10
352.1449217067878
 20
599.3884093665449
 42
0.0
 10
352.1449217067876
 20
600.3884093665448
 42
0.0
 10
337.1449217067872
 20
600.3884093665454
 42
-0.4142135623730833
 10
332.1449217067875
 20
605.3884093665454
 42
0.0
 10
332.1449217067877
 20
624.3884093665448
 42
0.0
 10
331.1449217067874
 20
624.3884093665449
 42
0.0
 10
331.1449217067873
 20
605.3884093665454
 42
0.4142135623731169
 10
337.1449217067873
 20
599.3884093665449
 42
0.0
 97
        0
 92
        7
 72
     1
 73
     1
 93
       40
 10
247.4065595344384
 20
689.3884093665449
 42
-0.2679491924311478
 10
246.1075214287617
 20
690.1384093665451
 42
0.2859076546238744
 10
244.708483323085
 20
690.8850723212546
 42
0.2859076546239183
 10
243.309445217408
 20
690.1384093665448
 42
-0.2679491924311158
 10
242.0104071117314
 20
689.3884093665449
 42
0.0
 10
239.9515595344387
 20
689.3884093665449
 42
-0.2679491924311457
 10
238.652521428762
 20
690.1384093665451
 42
0.2859076546238805
 10
237.2534833230853
 20
690.8850723212546
 42
0.2859076546238791
 10
235.8544452174085
 20
690.138409366545
 42
-0.2679491924311259
 10
234.5554071117319
 20
689.388409366545
 42
0.0
 10
228.1015595344378
 20
689.388409366545
 42
-0.2679491924311028
 10
226.8025214287612
 20
690.1384093665448
 42
0.2679491924311533
 10
225.5034833230844
 20
690.8884093665451
 42
0.0
 10
222.1449217067877
 20
690.8884093665451
 42
0.0
 10
222.1449217067877
 20
689.888409366545
 42
0.0
 10
225.5034833230851
 20
689.8884093665451
 42
-0.267949192431122
 10
225.9364960249773
 20
689.6384093665451
 42
0.267949192431119
 10
228.1015595344384
 20
688.3884093665451
 42
0.0
 10
234.555407111732
 20
688.3884093665451
 42
0.2679491924311053
 10
236.720470621193
 20
689.6384093665449
 42
-0.2679491924310267
 10
237.153483323085
 20
689.8884093665451
 42
0.0
 10
237.353483323085
 20
689.8884093665451
 42
-0.2679491924311632
 10
237.7864960249772
 20
689.638409366545
 42
0.2679491924311225
 10
239.9515595344384
 20
688.3884093665451
 42
0.0
 10
242.0104071117311
 20
688.3884093665451
 42
0.2679491924311512
 10
244.1754706211924
 20
689.6384093665451
 42
-0.2679491924312574
 10
244.6084833230849
 20
689.888409366545
 42
0.0
 10
244.8084833230849
 20
689.888409366545
 42
-0.2679491924311204
 10
245.2414960249772
 20
689.638409366545
 42
0.2679491924311204
 10
247.4065595344383
 20
688.388409366545
 42
0.0
 10
302.1449217067879
 20
688.3884093665447
 42
-0.1340385084113062
 10
304.6854213819638
 20
687.6948999796113
 42
0.0
 10
328.6642752749148
 20
673.7072468134256
 42
-0.2667503951500889
 10
331.1449217067877
 20
669.3883513992296
 42
0.0
 10
331.1449217067877
 20
664.3884093665449
 42
0.0
 10
332.1449217067878
 20
664.3884093665449
 42
0.0
 10
332.1449217067878
 20
669.3883513992293
 42
0.2662608607100668
 10
329.1776163285013
 20
674.565489926585
 42
0.0
 10
305.14492170671
 20
688.5845617892962
 42
0.1316524975835771
 10
302.1449217067879
 20
689.3884093665443
 42
0.0
 97
        0
 75
     0
 76
     1
 52
0.0
 41
20.0
 77
     0
 78
     1
 53
134.9999999999997
 43
460.5883932614607
 44
182.5620590180308
 45
1.767766952966376
 46
1.767766952966361
 79
     0
 47
0.2376111440341236
 98
        5
 10
160.0348440450616
 20
689.1832321494635
 10
112.3541297330699
 20
615.5189372710585
 10
93.82425383340075
 20
600.1710162394715
 10
345.2719308092674
 20
599.747275908345
 10
294.8536202118581
 20
689.089068429196
  0
ARC
  5
15C3
330
1E
100
AcDbEntity
  8
HILF
100
AcDbCircle
 10
283.1449217067874
 20
587.1471173393199
 30
0.0
 40
14.94074366520046
100
AcDbArc
 50
78.85962783889434
 51
88.1615375270559
  0
ARC
  5
15C4
330
1E
100
AcDbEntity
  8
HILF
100
AcDbCircle
 10
287.4750487257097
 20
598.2459360428415
 30
0.0
 40
3.841839622940954
100
AcDbArc
 50
67.9324721810082
 51
112.0675278189918
  0
ARC
  5
15C5
330
1E
100
AcDbEntity
  8
STEMPEL
100
AcDbCircle
 10
283.1449217067874
 20
586.7811499449093
 30
0.0
 40
20.20725942163691
100
AcDbArc
 50
81.78678929826174
 51
90.40326439207246
  0
LINE
  5
15C6
330
1E
100
AcDbEntity
  8
STEMPEL
100
AcDbLine
 10
288.1449217067874
 20
606.9884093665462
 30
0.0
 11
288.9184243986837
 21
606.7811499449093
 31
0.0
  0
ARC
  5
15C7
330
1E
100
AcDbEntity
  8
STEMPEL
100
AcDbCircle
 10
287.4750487257097
 20
601.858872228023
 30
0.0
 40
5.129537138523076
100
AcDbArc
 50
73.65710669401501
 51
106.342893305985
  0
LINE
  5
15C8
330
1E
100
AcDbEntity
  8
STEMPEL
100
AcDbLine
 10
289.6949217067874
 20
600.3884093665462
 30
0.0
 11
284.6407213769732
 21
600.3884093665462
 31
0.0
  0
LINE
  5
15C9
330
1E
100
AcDbEntity
  8
STEMPEL
100
AcDbLine
 10
286.0316730527356
 20
606.7811499449093
 30
0.0
 11
286.0316730527356
 21
601.8063290485455
 31
0.0
  0
LINE
  5
15CA
330
1E
100
AcDbEntity
  8
STEMPEL
100
AcDbLine
 10
288.9184243986837
 20
606.7811499449093
 30
0.0
 11
288.9184243986836
 21
601.8063290485455
 31
0.0
  0
LINE
  5
15CB
330
1E
100
AcDbEntity
  8
STEMPEL
100
AcDbLine
 10
288.1449217067874
 20
606.9884093665462
 30
0.0
 11
283.0026983008687
 21
606.9884093665462
 31
0.0
  0
LINE
  5
15CC
330
1E
100
AcDbEntity
  8
STEMPEL
100
AcDbLine
 10
289.8830327856165
 20
601.4552403079784
 30
0.0
 11
288.9184243986836
 21
601.8063290485455
 31
0.0
  0
ARC
  5
15CD
330
1E
100
AcDbEntity
  8
STEMPEL
100
AcDbCircle
 10
289.6949217067874
 20
600.9384093665461
 30
0.0
 40
0.5500000000000009
100
AcDbArc
 50
270.0
 51
69.99999999999935
  0
LINE
  5
15CE
330
1E
100
AcDbEntity
  8
STEMPEL
100
AcDbLine
 10
289.8830327856165
 20
601.4552403079784
 30
0.0
 11
283.9146749022472
 21
601.4552403079784
 31
0.0
  0
LINE
  5
15CF
330
1E
100
AcDbEntity
  8
MITTEL
100
AcDbLine
 10
283.1449217067874
 20
577.8884093665457
 30
0.0
 11
283.1449217067874
 21
611.9884093665461
 31
0.0
  0
HATCH
  5
15D0
330
1E
100
AcDbEntity
  8
SCHRAFF
100
AcDbHatch
 10
0.0
 20
0.0
 30
0.0
210
0.0
220
0.0
230
1.0
  2
_USER
 70
     0
 71
     0
 91
        2
 92
        7
 72
     0
 73
     1
 93
        6
 10
286.6449217067875
 20
542.8884093665447
 10
285.7700350715283
 20
532.8884093665456
 10
287.777674746615
 20
532.8884093665453
 10
288.6449217067875
 20
542.8010874807273
 10
288.6449217067879
 20
582.8884093665455
 10
286.6449217067879
 20
582.8884093665453
 97
        0
 92
        7
 72
     0
 73
     1
 93
        6
 10
157.6449217067874
 20
582.8884093665455
 10
155.6449217067875
 20
582.8884093665455
 10
155.6449217067874
 20
542.8010874807284
 10
156.51216866696
 20
532.8884093665456
 10
158.5198083420467
 20
532.8884093665456
 10
157.6449217067874
 20
542.8884093665454
 97
        0
 75
     0
 76
     0
 52
45.0
 41
2.0
 77
     0
 78
     1
 53
45.0
 43
-2.855078293212443
 44
59.46189673890614
 45
-1.414213562373094
 46
1.414213562373095
 79
     0
 47
0.2291050733570159
 98
        2
 10
287.5090323778784
 20
554.83029945719
 10
156.8716350656307
 20
557.350456233676
  0
LINE
  5
15D1
330
1E
100
AcDbEntity
  8
STEMPEL
100
AcDbLine
 10
288.6449217067879
 20
582.8884093665448
 30
0.0
 11
288.6449217067875
 21
537.3512110558437
 31
0.0
  0
LINE
  5
15D2
330
1E
100
AcDbEntity
  8
STEMPEL
100
AcDbLine
 10
357.1449217067875
 20
584.3884093665455
 30
0.0
 11
357.1449217067875
 21
582.8884093665453
 31
0.0
  0
ARC
  5
15D3
330
1E
100
AcDbEntity
  8
SCHRAFF
100
AcDbCircle
 10
287.6898657422408
 20
582.8884093665453
 30
0.0
 40
1.828088629478462
100
AcDbArc
 50
124.8622016819284
 51
235.1377983180716
  0
HATCH
  5
15D4
330
1E
100
AcDbEntity
  8
SCHRAFF
100
AcDbHatch
 10
0.0
 20
0.0
 30
0.0
210
0.0
220
0.0
230
1.0
  2
_USER
 70
     0
 71
     0
 91
        2
 92
        7
 72
     1
 73
     1
 93
        3
 10
286.6449217067879
 20
584.3884093665449
 42
0.2453357974240878
 10
285.8617771127626
 20
582.8884093665455
 42
0.0
 10
286.6449217067879
 20
582.8884093665455
 42
0.0
 97
        0
 92
        7
 72
     1
 73
     1
 93
        3
 10
286.6449217067879
 20
582.8884093665455
 42
0.0
 10
285.8617771127622
 20
582.8884093665455
 42
0.2453357974242125
 10
286.6449217067879
 20
581.3884093665453
 42
0.0
 97
        0
 75
     0
 76
     0
 52
0.0
 41
0.1
 77
     0
 78
     1
 53
0.0
 43
26.34492170678794
 44
69.46189673890557
 45
0.0
 46
0.1
 79
     0
 47
0.0937308931428171
 98
        2
 10
286.2936745198451
 20
583.3332657079989
 10
286.3874395356199
 20
582.4896871785122
  0
LINE
  5
15D5
330
1E
100
AcDbEntity
  8
STEMPEL
100
AcDbLine
 10
286.6449217067879
 20
584.3884093665447
 30
0.0
 11
286.6449217067879
 21
582.8884093665455
 31
0.0
  0
ARC
  5
15D6
330
1E
100
AcDbEntity
  8
SCHRAFF
100
AcDbCircle
 10
264.8837114935286
 20
582.8884093665453
 30
0.0
 40
5.0
100
AcDbArc
 50
342.5423968762808
 51
17.45760312371915
  0
ARC
  5
15D7
330
1E
100
AcDbEntity
  8
SCHRAFF
100
AcDbCircle
 10
259.8837114935285
 20
582.8884093665453
 30
0.0
 40
5.0
100
AcDbArc
 50
342.5423968762808
 51
17.45760312371915
  0
ARC
  5
15D8
330
1E
100
AcDbEntity
  8
SCHRAFF
100
AcDbCircle
 10
254.8837114935285
 20
582.8884093665453
 30
0.0
 40
5.0
100
AcDbArc
 50
342.5423968762808
 51
17.45760312371915
  0
LINE
  5
15D9
330
1E
100
AcDbEntity
  8
STEMPEL
100
AcDbLine
 10
275.0132200007668
 20
582.8884093665455
 30
0.0
 11
276.6455381906455
 21
573.1132662622971
 31
0.0
  0
LINE
  5
15DA
330
1E
100
AcDbEntity
  8
STEMPEL
100
AcDbLine
 10
273.4231959919254
 20
582.8884093665455
 30
0.0
 11
275.0064219054166
 21
573.1132662622971
 31
0.0
  0
LINE
  5
15DB
330
1E
100
AcDbEntity
  8
STEMPEL
100
AcDbLine
 10
281.667556894181
 20
582.8884093665455
 30
0.0
 11
280.6046289884052
 21
573.4260376744521
 31
0.0
  0
HATCH
  5
15DC
330
1E
100
AcDbEntity
  8
SCHRAFF
100
AcDbHatch
 10
0.0
 20
0.0
 30
0.0
210
0.0
220
0.0
230
1.0
  2
_USER
 70
     0
 71
     0
 91
        3
 92
        7
 72
     0
 73
     1
 93
        4
 10
286.6449217067879
 20
584.3884093665455
 10
286.6449217067879
 20
582.8884093665455
 10
357.1449217067875
 20
582.8884093665455
 10
357.1449217067875
 20
584.3884093665457
 97
        0
 92
        7
 72
     0
 73
     1
 93
        4
 10
100.1449217067875
 20
584.3884093665454
 10
100.1449217067875
 20
582.8884093665455
 10
157.6449217067874
 20
582.8884093665453
 10
157.6449217067874
 20
584.3884093665455
 97
        0
 92
        7
 72
     0
 73
     1
 93
        4
 10
100.1449217067875
 20
582.8884093665456
 10
100.1449217067875
 20
584.3884093665455
 10
87.14492170678752
 20
584.3884093665454
 10
87.14492170678752
 20
582.8884093665456
 97
        0
 75
     0
 76
     0
 52
135.0
 41
2.0
 77
     0
 78
     1
 53
135.0
 43
-2.855078293212443
 44
59.46189673890614
 45
-1.414213562373095
 46
-1.414213562373094
 79
     0
 47
0.4145230693519903
 98
        3
 10
317.6276694866311
 20
583.7942668014615
 10
141.4076228062036
 20
583.7942668014615
 10
96.21236403456084
 20
583.3797434981025
  0
LINE
  5
15DD
330
1E
100
AcDbEntity
  8
STEMPEL
100
AcDbLine
 10
357.1449217067875
 20
582.8884093665455
 30
0.0
 11
87.14492170678751
 21
582.8884093665455
 31
0.0
  0
LINE
  5
15DE
330
1E
100
AcDbEntity
  8
STEMPEL
100
AcDbLine
 10
357.1449217067875
 20
584.3884093665455
 30
0.0
 11
87.14492170678751
 21
584.3884093665455
 31
0.0
  0
DIMENSION
  5
15DF
330
1E
100
AcDbEntity
  8
BEM
100
AcDbDimension
  2
*D7
 10
352.1449217067876
 20
718.7135203032503
 30
0.0
 11
222.1449217067875
 21
725.2135203032503
 31
0.0
 70
    32
  1
%%c<>
 71
     5
 42
260.0
  3
Standard
100
AcDbAlignedDimension
 13
92.14492170678756
 23
600.3884093665463
 33
0.0
 14
352.1449217067876
 24
600.3884093665451
 34
0.0
100
AcDbRotatedDimension
1001
ACAD
1000
DSTYLE
1002
{
1070
    40
1040
2.0
1070
    41
1040
3.5
1070
    42
1040
1.0
1070
    43
1040
7.0
1070
    44
1040
1.0
1070
    73
1070
     0
1070
    74
1070
     0
1070
    77
1070
     1
1070
    78
1070
     8
1070
    79
1070
     2
1070
   140
1040
3.5
1070
   141
1040
1.5
1070
   146
1040
0.5142857142857144
1070
   147
1040
1.5
1070
   172
1070
     1
1070
   178
1070
     1
1070
   179
1070
     2
1070
   271
1070
     2
1070
   272
1070
     2
1070
   284
1070
     8
1070
   285
1070
     8
1070
   286
1070
     8
1002
}
  0
DIMENSION
  5
15E0
330
1E
100
AcDbEntity
  8
BEM
100
AcDbDimension
  2
*D8
 10
357.1449217067875
 20
731.9284166459997
 30
0.0
 11
222.1449217067875
 21
738.4284166459997
 31
0.0
 70
    32
  1
%%c<>
 71
     5
 42
269.9999999999999
  3
Standard
100
AcDbAlignedDimension
 13
87.14492170678752
 23
584.3884093665455
 33
0.0
 14
357.1449217067875
 24
584.3884093665455
 34
0.0
100
AcDbRotatedDimension
1001
ACAD
1000
DSTYLE
1002
{
1070
    40
1040
2.0
1070
    41
1040
3.5
1070
    42
1040
1.0
1070
    43
1040
7.0
1070
    44
1040
1.0
1070
    73
1070
     0
1070
    74
1070
     0
1070
    77
1070
     1
1070
    78
1070
     8
1070
    79
1070
     2
1070
   140
1040
3.5
1070
   141
1040
1.5
1070
   146
1040
0.5142857142857144
1070
   147
1040
1.5
1070
   172
1070
     1
1070
   178
1070
     1
1070
   179
1070
     2
1070
   271
1070
     2
1070
   272
1070
     2
1070
   284
1070
     8
1070
   285
1070
     8
1070
   286
1070
     8
1002
}
  0
LINE
  5
15E1
330
1E
100
AcDbEntity
  8
STEMPEL
100
AcDbLine
 10
286.6449217067875
 20
582.8884093665455
 30
0.0
 11
286.6449217067875
 21
542.8884093665455
 31
0.0
  0
LINE
  5
15E2
330
1E
100
AcDbEntity
  8
TEXT
 62
     2
100
AcDbLine
 10
331.5435844162643
 20
654.0621317593839
 30
0.0
 11
371.9735230022557
 21
661.6815723920206
 31
0.0
  0
LINE
  5
15E3
330
1E
100
AcDbEntity
  8
STEMPEL
100
AcDbLine
 10
102.1449217067875
 20
585.3884093665451
 30
0.0
 11
100.1449217067875
 21
584.8525109816828
 31
0.0
  0
LINE
  5
15E4
330
1E
100
AcDbEntity
  8
STEMPEL
100
AcDbLine
 10
98.14492170678747
 20
585.3884093665451
 30
0.0
 11
100.1449217067875
 21
584.8525109816828
 31
0.0
  0
LINE
  5
15E5
330
1E
100
AcDbEntity
  8
STEMPEL
100
AcDbLine
 10
102.1449217067875
 20
585.3884093665451
 30
0.0
 11
98.14492170678747
 21
585.3884093665451
 31
0.0
  0
LINE
  5
15E6
330
1E
100
AcDbEntity
  8
STEMPEL
100
AcDbLine
 10
98.14492170678747
 20
585.3884093665449
 30
0.0
 11
98.1449217067875
 21
588.3884093665459
 31
0.0
  0
LINE
  5
15E7
330
1E
100
AcDbEntity
  8
STEMPEL
100
AcDbLine
 10
102.1449217067875
 20
585.3884093665446
 30
0.0
 11
102.1449217067875
 21
588.3884093665459
 31
0.0
  0
LINE
  5
15E8
330
1E
100
AcDbEntity
  8
STEMPEL
100
AcDbLine
 10
103.1449217067874
 20
586.3884093665449
 30
0.0
 11
97.14492170678747
 21
586.3884093665451
 31
0.0
  0
LINE
  5
15E9
330
1E
100
AcDbEntity
  8
HILF
100
AcDbLine
 10
103.1449217067874
 20
586.3884093665451
 30
0.0
 11
103.1449217067874
 21
589.0019093665459
 31
0.0
  0
LINE
  5
15EA
330
1E
100
AcDbEntity
  8
HILF
100
AcDbLine
 10
97.14492170678747
 20
586.3884093665451
 30
0.0
 11
97.14492170678747
 21
589.0019093665459
 31
0.0
  0
LINE
  5
15EB
330
1E
100
AcDbEntity
  8
STEMPEL
100
AcDbLine
 10
105.1449217067874
 20
584.3884093665451
 30
0.0
 11
105.1449217067874
 21
599.3884093665451
 31
0.0
  0
LINE
  5
15EC
330
1E
100
AcDbEntity
  8
STEMPEL
100
AcDbLine
 10
95.14492170678748
 20
584.3884093665451
 30
0.0
 11
95.14492170678748
 21
599.3884093665451
 31
0.0
  0
LINE
  5
15ED
330
1E
100
AcDbEntity
  8
STEMPEL
100
AcDbLine
 10
105.1449217067874
 20
599.3884093665451
 30
0.0
 11
95.14492170678748
 21
599.3884093665451
 31
0.0
  0
DIMENSION
  5
15EE
330
1E
100
AcDbEntity
  8
BEM
100
AcDbDimension
  2
*D9
 10
66.4836617117121
 20
689.3884093665443
 30
0.0
 11
59.98366171171198
 21
644.3884093665446
 31
0.0
 70
    32
 71
     5
 42
89.9999999999992
  3
Standard
100
AcDbAlignedDimension
 13
92.14492170678767
 23
599.3884093665451
 33
0.0
 14
142.1449217067876
 24
689.3884093665443
 34
0.0
 50
90.0
100
AcDbRotatedDimension
1001
ACAD
1000
DSTYLE
1002
{
1070
    40
1040
2.0
1070
    41
1040
3.5
1070
    42
1040
1.0
1070
    43
1040
7.0
1070
    44
1040
1.0
1070
    73
1070
     0
1070
    74
1070
     0
1070
    77
1070
     1
1070
    78
1070
     8
1070
    79
1070
     2
1070
   140
1040
3.5
1070
   141
1040
1.5
1070
   146
1040
0.5142857142857144
1070
   147
1040
1.5
1070
   172
1070
     1
1070
   178
1070
     1
1070
   179
1070
     2
1070
   271
1070
     2
1070
   272
1070
     2
1070
   284
1070
     8
1070
   285
1070
     8
1070
   286
1070
     8
1002
}
  0
LINE
  5
15EF
330
1E
100
AcDbEntity
  8
STEMPEL
100
AcDbLine
 10
103.1449217067874
 20
589.0019093665459
 30
0.0
 11
103.1449217067874
 21
600.3884093665458
 31
0.0
  0
LINE
  5
15F0
330
1E
100
AcDbEntity
  8
STEMPEL
100
AcDbLine
 10
97.14492170678747
 20
600.3884093665458
 30
0.0
 11
97.14492170678747
 21
589.0019093665459
 31
0.0
  0
LINE
  5
15F1
330
1E
100
AcDbEntity
  8
STEMPEL
100
AcDbLine
 10
102.5314217067874
 20
588.3884093665458
 30
0.0
 11
103.1449217067874
 21
589.0019093665459
 31
0.0
  0
LINE
  5
15F2
330
1E
100
AcDbEntity
  8
STEMPEL
100
AcDbLine
 10
97.14492170678747
 20
589.0019093665459
 30
0.0
 11
97.75842170678746
 21
588.3884093665458
 31
0.0
  0
ARC
  5
15F3
330
1E
100
AcDbEntity
  8
STEMPEL
100
AcDbCircle
 10
93.59492170678747
 20
600.9384093665458
 30
0.0
 40
0.5500000000000003
100
AcDbArc
 50
110.0000000000006
 51
270.0
  0
ARC
  5
15F4
330
1E
100
AcDbEntity
  8
STEMPEL
100
AcDbCircle
 10
106.6949217067874
 20
600.9384093665458
 30
0.0
 40
0.5500000000000009
100
AcDbArc
 50
270.0
 51
69.99999999999935
  0
LINE
  5
15F5
330
1E
100
AcDbEntity
  8
STEMPEL
100
AcDbLine
 10
106.8830327856165
 20
601.4552403079781
 30
0.0
 11
105.9184243986837
 21
601.8063290485452
 31
0.0
  0
LINE
  5
15F6
330
1E
100
AcDbEntity
  8
STEMPEL
100
AcDbLine
 10
94.37141901489118
 20
601.8063290485452
 30
0.0
 11
93.40681062795832
 21
601.4552403079781
 31
0.0
  0
LINE
  5
15F7
330
1E
100
AcDbEntity
  8
STEMPEL
100
AcDbLine
 10
103.1449217067874
 20
589.0019093665459
 30
0.0
 11
97.14492170678747
 21
589.0019093665459
 31
0.0
  0
LINE
  5
15F8
330
1E
100
AcDbEntity
  8
STEMPEL
100
AcDbLine
 10
102.5314217067874
 20
588.3884093665458
 30
0.0
 11
97.75842170678746
 21
588.3884093665458
 31
0.0
  0
LINE
  5
15F9
330
1E
100
AcDbEntity
  8
STEMPEL
100
AcDbLine
 10
105.1449217067874
 20
606.9884093665458
 30
0.0
 11
95.14492170678748
 21
606.9884093665458
 31
0.0
  0
LINE
  5
15FA
330
1E
100
AcDbEntity
  8
STEMPEL
100
AcDbLine
 10
105.9184243986837
 20
606.7811499449089
 30
0.0
 11
105.9184243986837
 21
601.8063290485452
 31
0.0
  0
LINE
  5
15FB
330
1E
100
AcDbEntity
  8
STEMPEL
100
AcDbLine
 10
103.0316730527356
 20
606.7811499449089
 30
0.0
 11
103.0316730527356
 21
601.8063290485452
 31
0.0
  0
LINE
  5
15FC
330
1E
100
AcDbEntity
  8
STEMPEL
100
AcDbLine
 10
97.25817036083933
 20
606.7811499449089
 30
0.0
 11
97.25817036083933
 21
601.8063290485452
 31
0.0
  0
LINE
  5
15FD
330
1E
100
AcDbEntity
  8
STEMPEL
100
AcDbLine
 10
94.37141901489118
 20
606.7811499449089
 30
0.0
 11
94.37141901489118
 21
601.8063290485452
 31
0.0
  0
LINE
  5
15FE
330
1E
100
AcDbEntity
  8
STEMPEL
100
AcDbLine
 10
106.6949217067874
 20
600.3884093665458
 30
0.0
 11
93.59492170678747
 21
600.3884093665458
 31
0.0
  0
LINE
  5
15FF
330
1E
100
AcDbEntity
  8
STEMPEL
100
AcDbLine
 10
106.8830327856165
 20
601.4552403079781
 30
0.0
 11
93.40681062795832
 21
601.4552403079781
 31
0.0
  0
LINE
  5
1600
330
1E
100
AcDbEntity
  8
HILF
100
AcDbLine
 10
102.5314217067874
 20
597.3884093665458
 30
0.0
 11
102.5314217067874
 21
588.3884093665458
 31
0.0
  0
LINE
  5
1601
330
1E
100
AcDbEntity
  8
HILF
100
AcDbLine
 10
102.5314217067874
 20
597.3884093665458
 30
0.0
 11
103.1449217067874
 21
600.3884093665458
 31
0.0
  0
LINE
  5
1602
330
1E
100
AcDbEntity
  8
HILF
100
AcDbLine
 10
97.14492170678747
 20
597.3884093665458
 30
0.0
 11
103.1449217067874
 21
597.3884093665458
 31
0.0
  0
LINE
  5
1603
330
1E
100
AcDbEntity
  8
HILF
100
AcDbLine
 10
97.75842170678746
 20
597.3884093665458
 30
0.0
 11
97.75842170678746
 21
588.3884093665458
 31
0.0
  0
LINE
  5
1604
330
1E
100
AcDbEntity
  8
HILF
100
AcDbLine
 10
97.75842170678746
 20
597.3884093665458
 30
0.0
 11
97.14492170678747
 21
600.3884093665458
 31
0.0
  0
POINT
  5
1605
330
1E
100
AcDbEntity
  8
0
100
AcDbPoint
 10
100.1449217067874
 20
588.3884093665458
 30
0.0
210
-0.0000000000000002
220
-1.0
230
0.0
  0
ARC
  5
1606
330
1E
100
AcDbEntity
  8
STEMPEL
100
AcDbCircle
 10
104.4750487257096
 20
601.8588722280227
 30
0.0
 40
5.129537138523076
100
AcDbArc
 50
73.65710669401501
 51
106.342893305985
  0
LINE
  5
1607
330
1E
100
AcDbEntity
  8
STEMPEL
100
AcDbLine
 10
105.1449217067874
 20
606.9884093665458
 30
0.0
 11
105.9184243986837
 21
606.7811499449089
 31
0.0
  0
LINE
  5
1608
330
1E
100
AcDbEntity
  8
STEMPEL
100
AcDbLine
 10
95.14492170678748
 20
606.9884093665458
 30
0.0
 11
94.37141901489118
 21
606.7811499449089
 31
0.0
  0
ARC
  5
1609
330
1E
100
AcDbEntity
  8
STEMPEL
100
AcDbCircle
 10
95.81479468786525
 20
601.8588722280227
 30
0.0
 40
5.129537138523076
100
AcDbArc
 50
73.65710669401501
 51
106.342893305985
  0
ARC
  5
160A
330
1E
100
AcDbEntity
  8
STEMPEL
100
AcDbCircle
 10
100.1449217067875
 20
586.7811499449089
 30
0.0
 40
20.20725942163691
100
AcDbArc
 50
81.78678929826174
 51
98.21321070173826
  0
ARC
  5
160B
330
1E
100
AcDbEntity
  8
HILF
100
AcDbCircle
 10
104.4750487257096
 20
598.2459360428411
 30
0.0
 40
3.841839622940954
100
AcDbArc
 50
67.9324721810082
 51
112.0675278189918
  0
ARC
  5
160C
330
1E
100
AcDbEntity
  8
HILF
100
AcDbCircle
 10
95.81479468786525
 20
598.2471006047294
 30
0.0
 40
3.840760399790701
100
AcDbArc
 50
67.92594526324302
 51
112.0740547367569
  0
ARC
  5
160D
330
1E
100
AcDbEntity
  8
HILF
100
AcDbCircle
 10
100.1449217067875
 20
587.1471173393196
 30
0.0
 40
14.94074366520046
100
AcDbArc
 50
78.85962783889434
 51
101.1403721611056
  0
HATCH
  5
160E
330
1E
100
AcDbEntity
  8
SCHRAFF
100
AcDbHatch
 10
0.0
 20
0.0
 30
0.0
210
0.0
220
0.0
230
1.0
  2
_USER
 70
     0
 71
     0
 91
        4
 92
        7
 72
     0
 73
     1
 93
        9
 10
103.1449217067874
 20
589.0019093665459
 10
103.1449217067875
 20
586.3884093665449
 10
102.1449217067875
 20
586.3884093665449
 10
102.1449217067875
 20
585.3884093665451
 10
100.1449217067875
 20
584.8525109816828
 10
100.1449217067874
 20
584.3884093665451
 10
105.1449217067874
 20
584.3884093665451
 10
105.1449217067875
 20
599.3884093665456
 10
103.1449217067875
 20
599.3884093665455
 97
        0
 92
       23
 72
     0
 73
     1
 93
        5
 10
102.1449217067875
 20
586.3884093665449
 10
103.1449217067874
 20
586.3884093665449
 10
103.1449217067874
 20
589.0019093665459
 10
102.5314217067875
 20
588.3884093665458
 10
102.1449217067875
 20
588.3884093665458
 97
        0
 92
       22
 72
     0
 73
     1
 93
        5
 10
97.14492170678747
 20
586.3884093665451
 10
98.14492170678747
 20
586.3884093665451
 10
98.1449217067875
 20
588.3884093665459
 10
97.75842170678735
 20
588.3884093665458
 10
97.14492170678745
 20
589.0019093665457
 97
        0
 92
        7
 72
     0
 73
     1
 93
        9
 10
97.14492170678747
 20
589.0019093665459
 10
97.14492170678745
 20
599.3884093665457
 10
95.14492170678749
 20
599.3884093665457
 10
95.14492170678744
 20
584.3884093665452
 10
100.1449217067875
 20
584.3884093665454
 10
100.1449217067875
 20
584.8525109816828
 10
98.14492170678747
 20
585.3884093665453
 10
98.14492170678747
 20
586.388409366545
 10
97.14492170678747
 20
586.3884093665451
 97
        0
 75
     0
 76
     0
 52
45.0
 41
1.0
 77
     0
 78
     1
 53
45.0
 43
-50.10745062415685
 44
-6.767795551780864
 45
-0.7071067811865475
 46
0.7071067811865476
 79
     0
 47
0.0321819604051909
 98
        4
 10
104.1092329514706
 20
594.0937900821163
 10
102.4995487946151
 20
586.8206667406662
 10
97.63830495277652
 20
587.8183073539253
 10
96.93004370870292
 20
587.6573976406907
  0
ARC
  5
160F
330
1E
100
AcDbEntity
  8
STEMPEL
100
AcDbCircle
 10
112.633778102476
 20
678.9082463490077
 30
0.0
 40
5.0
100
AcDbArc
 50
300.0670458384858
 51
300.2564371635302
  0
ARC
  5
1610
330
1E
100
AcDbEntity
  8
STEMPEL
100
AcDbCircle
 10
118.1449217067879
 20
669.38835139923
 30
0.0
 40
6.000000000000454
100
AcDbArc
 50
120.2564164748189
 51
179.9999999999935
  0
ARC
  5
1611
330
1E
100
AcDbEntity
  8
STEMPEL
100
AcDbCircle
 10
118.1449217067881
 20
669.38835139923
 30
0.0
 40
5.000000000000511
100
AcDbArc
 50
120.2564164748189
 51
179.9999999999935
  0
LINE
  5
1612
330
1E
100
AcDbEntity
  8
STEMPEL
100
AcDbLine
 10
112.1449217067878
 20
664.3884093665458
 30
0.0
 11
113.1449217067878
 21
664.3884093665458
 31
0.0
  0
LINE
  5
1613
330
1E
100
AcDbEntity
  8
STEMPEL
100
AcDbLine
 10
112.1449217067876
 20
624.3884093665458
 30
0.0
 11
113.1449217067876
 21
624.3884093665458
 31
0.0
  0
LINE
  5
1614
330
1E
100
AcDbEntity
  8
STEMPEL
100
AcDbLine
 10
92.14492170678756
 20
600.3884093665463
 30
0.0
 11
92.14492170678743
 21
599.388409366546
 31
0.0
  0
LINE
  5
1615
330
1E
100
AcDbEntity
  8
STEMPEL
100
AcDbLine
 10
96.14492170678744
 20
600.388409366546
 30
0.0
 11
96.14492170678744
 21
599.388409366546
 31
0.0
  0
LINE
  5
1616
330
1E
100
AcDbEntity
  8
STEMPEL
100
AcDbLine
 10
104.1449217067874
 20
600.3884093665464
 30
0.0
 11
104.1449217067874
 21
599.388409366546
 31
0.0
  0
LWPOLYLINE
  5
1617
330
1E
100
AcDbEntity
  8
STEMPEL
100
AcDbPolyline
 90
        7
 70
   128
 43
0.0
 10
113.8366660327037
 20
618.3504634223838
 10
113.974495042274
 20
617.5983571854454
 10
114.0933593192402
 20
616.6756435747307
 10
114.1897073211414
 20
615.6098923248264
 10
114.2606602686795
 20
614.4329469880053
 10
114.3040981606875
 20
613.1799734816033
 10
114.3187231175851
 20
611.8884093665441
  0
LWPOLYLINE
  5
1618
330
1E
100
AcDbEntity
  8
STEMPEL
100
AcDbPolyline
 90
        7
 70
   128
 43
0.0
 10
-111.6982639339143
 20
600.3884093665464
 10
-112.3749658089917
 20
600.9980100944054
 10
-112.9745152326257
 20
601.725569178317
 10
-113.4808039057753
 20
602.5515390399974
 10
-113.8802291978209
 20
603.4537280652004
 10
-114.1620596130838
 20
604.407896833394
 10
-114.3187231175853
 20
605.3884093665463
210
0.0
220
0.0
230
-1.0
  0
LWPOLYLINE
  5
1619
330
1E
100
AcDbEntity
  8
STEMPEL
100
AcDbPolyline
 90
       10
 70
   128
 43
0.0
 10
-113.9952315679824
 20
599.3884093665459
 10
-114.831410842824
 20
599.4795628484727
 10
-115.6421832335266
 20
599.7502536418306
 10
-116.4029138312695
 20
600.1922569438392
 10
-117.0904882217882
 20
600.7921427078322
 10
-117.6840148051566
 20
601.5316837084269
 10
-118.1654595764779
 20
602.3884093665461
 10
-118.5201940799982
 20
603.3362885065921
 10
-118.7374398873324
 20
604.3465203005447
 10
-118.8105960945564
 20
605.3884093665463
210
0.0
220
0.0
230
-1.0
  0
LINE
  5
161A
330
1E
100
AcDbEntity
  8
STEMPEL
100
AcDbLine
 10
113.3546089478226
 20
611.8884093665441
 30
0.0
 11
113.3546089478225
 21
605.3884093665463
 31
0.0
  0
LINE
  5
161B
330
1E
100
AcDbEntity
  8
STEMPEL
100
AcDbLine
 10
118.8105960945564
 20
611.8884093665441
 30
0.0
 11
118.8105960945564
 21
605.3884093665475
 31
0.0
  0
LINE
  5
161C
330
1E
100
AcDbEntity
  8
STEMPEL
100
AcDbLine
 10
115.3125018311231
 20
611.8884093665441
 30
0.0
 11
115.312501831123
 21
605.3884093665452
 31
0.0
  0
LINE
  5
161D
330
1E
100
AcDbEntity
  8
STEMPEL
100
AcDbLine
 10
114.3187231175852
 20
611.8884093665441
 30
0.0
 11
114.3187231175852
 21
605.3884093665463
 31
0.0
  0
LINE
  5
161E
330
1E
100
AcDbEntity
  8
STEMPEL
100
AcDbLine
 10
110.7341497641519
 20
600.3884093665459
 30
0.0
 11
111.6982639339145
 21
600.3884093665459
 31
0.0
  0
ARC
  5
161F
330
1E
100
AcDbEntity
  8
STEMPEL
100
AcDbCircle
 10
107.1449217067873
 20
605.3884093665465
 30
0.0
 40
5.0
100
AcDbArc
 50
270.0000000000017
 51
0.0
  0
LWPOLYLINE
  5
1620
330
1E
100
AcDbEntity
  8
STEMPEL
100
AcDbPolyline
 90
       10
 70
   128
 43
0.0
 10
-107.8486202167917
 20
599.3884093665472
 10
-108.7066932130645
 20
599.4545365811197
 10
-109.5595054126867
 20
599.7070903308499
 10
-110.3802637196037
 20
600.1381360471675
 10
-111.1431820860028
 20
600.7341314176073
 10
-111.8242916415019
 20
601.476351849328
 10
-112.4021937314476
 20
602.3414787461255
 10
-112.8587322058538
 20
603.3023321168416
 10
-113.1795638374514
 20
604.3287244985537
 10
-113.3546089478225
 20
605.3884093665463
210
0.0
220
0.0
230
-1.0
  0
ARC
  5
1621
330
1E
100
AcDbEntity
  8
STEMPEL
100
AcDbCircle
 10
107.1449217067873
 20
605.3884093665465
 30
0.0
 40
6.0
100
AcDbArc
 50
270.0000000000017
 51
0.0
  0
LWPOLYLINE
  5
1622
330
1E
100
AcDbEntity
  8
STEMPEL
100
AcDbPolyline
 90
       10
 70
   128
 43
0.0
 10
-109.8065131000922
 20
599.388409366546
 10
-110.664586096365
 20
599.4545365811186
 10
-111.5173982959872
 20
599.7070903308488
 10
-112.3381566029042
 20
600.1381360471664
 10
-113.1010749693033
 20
600.7341314176062
 10
-113.7821845248024
 20
601.4763518493269
 10
-114.3600866147481
 20
602.3414787461243
 10
-114.8166250891543
 20
603.3023321168404
 10
-115.1374567207519
 20
604.3287244985527
 10
-115.312501831123
 20
605.3884093665452
210
0.0
220
0.0
230
-1.0
  0
LINE
  5
1623
330
1E
100
AcDbEntity
  8
STEMPEL
100
AcDbLine
 10
92.14492170678767
 20
600.388409366546
 30
0.0
 11
107.1449217067875
 21
600.3884093665464
 31
0.0
  0
LWPOLYLINE
  5
1624
330
1E
100
AcDbEntity
  8
STEMPEL
100
AcDbPolyline
 90
       18
 70
   128
 43
0.0
 10
113.3546089478226
 20
611.8884093665441
 10
113.3712773712995
 20
613.2665307501686
 10
113.4207150185598
 20
614.5977218629483
 10
113.5012383498202
 20
615.8366505881251
 10
113.6101052396119
 20
616.9411266938944
 10
113.7436083565742
 20
617.8735385711473
 10
113.8972014121783
 20
618.6021340517084
 10
114.0656539791304
 20
619.1021016903418
 10
114.2432296072993
 20
619.3564156887584
 10
114.4238811716463
 20
619.3564156887584
 10
114.6014567998153
 20
619.1021016903418
 10
114.7699093667673
 20
618.6021340517084
 10
114.9235024223715
 20
617.8735385711473
 10
115.0570055393338
 20
616.9411266938944
 10
115.1658724291254
 20
615.8366505881251
 10
115.2463957603859
 20
614.5977218629483
 10
115.2958334076462
 20
613.2665307501686
 10
115.3125018311231
 20
611.8884093665441
  0
LINE
  5
1625
330
1E
100
AcDbEntity
  8
STEMPEL
100
AcDbLine
 10
113.1449217067876
 20
669.3883513992304
 30
0.0
 11
113.1449217067873
 21
605.3884093665463
 31
0.0
  0
LINE
  5
1626
330
1E
100
AcDbEntity
  8
STEMPEL
100
AcDbLine
 10
112.1449217067875
 20
669.3883513992304
 30
0.0
 11
112.1449217067872
 21
605.3884093665463
 31
0.0
  0
ARC
  5
1627
330
1E
100
AcDbEntity
  8
STEMPEL
100
AcDbCircle
 10
142.1449217067875
 20
683.3884093665453
 30
0.0
 40
6.0
100
AcDbArc
 50
90.0
 51
90.0
  0
ARC
  5
1628
330
1E
100
AcDbEntity
  8
STEMPEL
100
AcDbCircle
 10
142.1449217067876
 20
683.388409366546
 30
0.0
 40
5.999999999999263
100
AcDbArc
 50
90.0
 51
120.5128743276239
  0
ARC
  5
1629
330
1E
100
AcDbEntity
  8
STEMPEL
100
AcDbCircle
 10
142.1449217067896
 20
683.3884093665408
 30
0.0
 40
5.000000000004884
100
AcDbArc
 50
90.00000000002442
 51
120.5373500482977
  0
ARC
  5
162A
330
1E
100
AcDbEntity
  8
STEMPEL
100
AcDbCircle
 10
199.5034833230851
 20
689.3884093665451
 30
0.0
 40
1.5
100
AcDbArc
 50
30.00000000000782
 51
90.0
  0
ARC
  5
162B
330
1E
100
AcDbEntity
  8
STEMPEL
100
AcDbCircle
 10
199.5034833230851
 20
689.3884093665451
 30
0.0
 40
0.5
100
AcDbArc
 50
30.00000000000782
 51
90.0
  0
LINE
  5
162C
330
1E
100
AcDbEntity
  8
STEMPEL
100
AcDbLine
 10
199.5034833230851
 20
689.8884093665451
 30
0.0
 11
199.303483323085
 21
689.8884093665451
 31
0.0
  0
ARC
  5
162D
330
1E
100
AcDbEntity
  8
STEMPEL
100
AcDbCircle
 10
199.303483323085
 20
689.3884093665451
 30
0.0
 40
0.5
100
AcDbArc
 50
90.0
 51
150.0000000000075
  0
ARC
  5
162E
330
1E
100
AcDbEntity
  8
STEMPEL
100
AcDbCircle
 10
199.303483323085
 20
689.3884093665451
 30
0.0
 40
1.5
100
AcDbArc
 50
90.0
 51
150.0000000000075
  0
ARC
  5
162F
330
1E
100
AcDbEntity
  8
STEMPEL
100
AcDbCircle
 10
196.705407111731
 20
690.8884093665451
 30
0.0
 40
1.5
100
AcDbArc
 50
270.0
 51
330.0000000000076
  0
ARC
  5
1630
330
1E
100
AcDbEntity
  8
STEMPEL
100
AcDbCircle
 10
196.705407111731
 20
690.8884093665451
 30
0.0
 40
2.5
100
AcDbArc
 50
270.0
 51
330.0000000000076
  0
LINE
  5
1631
330
1E
100
AcDbEntity
  8
STEMPEL
100
AcDbLine
 10
208.5554071117315
 20
689.3884093665453
 30
0.0
 11
202.1015595344374
 21
689.3884093665453
 31
0.0
  0
LINE
  5
1632
330
1E
100
AcDbEntity
  8
STEMPEL
100
AcDbLine
 10
208.5554071117315
 20
689.3884093665451
 30
0.0
 11
202.1015595344374
 21
689.3884093665451
 31
0.0
  0
ARC
  5
1633
330
1E
100
AcDbEntity
  8
STEMPEL
100
AcDbCircle
 10
211.153483323085
 20
689.3884093665451
 30
0.0
 40
1.5
100
AcDbArc
 50
90.0
 51
150.0000000000002
  0
ARC
  5
1634
330
1E
100
AcDbEntity
  8
STEMPEL
100
AcDbCircle
 10
211.353483323085
 20
689.3884093665451
 30
0.0
 40
1.5
100
AcDbArc
 50
14.47751218592986
 51
90.0
  0
ARC
  5
1635
330
1E
100
AcDbEntity
  8
STEMPEL
100
AcDbCircle
 10
213.289974996189
 20
689.8884093665451
 30
0.0
 40
0.5
100
AcDbArc
 50
194.4775121859299
 51
270.0
  0
LINE
  5
1636
330
1E
100
AcDbEntity
  8
STEMPEL
100
AcDbLine
 10
213.4787241887882
 20
689.3884093665451
 30
0.0
 11
213.289974996189
 21
689.3884093665451
 31
0.0
  0
ARC
  5
1637
330
1E
100
AcDbEntity
  8
STEMPEL
100
AcDbCircle
 10
211.353483323085
 20
689.3884093665451
 30
0.0
 40
0.5
100
AcDbArc
 50
14.47751218592986
 51
90.0
  0
LINE
  5
1638
330
1E
100
AcDbEntity
  8
STEMPEL
100
AcDbLine
 10
211.353483323085
 20
689.8884093665452
 30
0.0
 11
211.153483323085
 21
689.8884093665452
 31
0.0
  0
ARC
  5
1639
330
1E
100
AcDbEntity
  8
STEMPEL
100
AcDbCircle
 10
211.153483323085
 20
689.3884093665451
 30
0.0
 40
0.5
100
AcDbArc
 50
90.0
 51
150.0000000000002
  0
ARC
  5
163A
330
1E
100
AcDbEntity
  8
STEMPEL
100
AcDbCircle
 10
215.4152158618915
 20
689.3884093665451
 30
0.0
 40
0.5
100
AcDbArc
 50
90.0
 51
165.5224878140701
  0
ARC
  5
163B
330
1E
100
AcDbEntity
  8
STEMPEL
100
AcDbCircle
 10
215.4152158618915
 20
689.3884093665451
 30
0.0
 40
1.5
100
AcDbArc
 50
90.0
 51
165.5224878140701
  0
ARC
  5
163C
330
1E
100
AcDbEntity
  8
STEMPEL
100
AcDbCircle
 10
213.4787241887882
 20
689.8884093665451
 30
0.0
 40
0.5
100
AcDbArc
 50
270.0
 51
345.5224878140701
  0
ARC
  5
163D
330
1E
100
AcDbEntity
  8
STEMPEL
100
AcDbCircle
 10
208.5554071117315
 20
690.8884093665451
 30
0.0
 40
1.5
100
AcDbArc
 50
270.0
 51
330.0000000000003
  0
ARC
  5
163E
330
1E
100
AcDbEntity
  8
STEMPEL
100
AcDbCircle
 10
213.4787241887882
 20
689.8884093665451
 30
0.0
 40
1.5
100
AcDbArc
 50
270.0
 51
345.5224878140701
  0
ARC
  5
163F
330
1E
100
AcDbEntity
  8
STEMPEL
100
AcDbCircle
 10
213.289974996189
 20
689.8884093665451
 30
0.0
 40
1.5
100
AcDbArc
 50
194.4775121859299
 51
270.0
  0
ARC
  5
1640
330
1E
100
AcDbEntity
  8
STEMPEL
100
AcDbCircle
 10
208.5554071117315
 20
690.8884093665451
 30
0.0
 40
2.5
100
AcDbArc
 50
270.0
 51
330.0000000000003
  0
ARC
  5
1641
330
1E
100
AcDbEntity
  8
STEMPEL
100
AcDbCircle
 10
202.1015595344374
 20
690.8884093665451
 30
0.0
 40
1.5
100
AcDbArc
 50
210.0000000000078
 51
270.0
  0
ARC
  5
1642
330
1E
100
AcDbEntity
  8
STEMPEL
100
AcDbCircle
 10
202.1015595344374
 20
690.8884093665451
 30
0.0
 40
2.5
100
AcDbArc
 50
210.0000000000078
 51
270.0
  0
ARC
  5
1643
330
1E
100
AcDbEntity
  8
STEMPEL
100
AcDbCircle
 10
225.5034833230851
 20
689.3884093665451
 30
0.0
 40
0.5
100
AcDbArc
 50
29.99999999999973
 51
90.0
  0
ARC
  5
1644
330
1E
100
AcDbEntity
  8
STEMPEL
100
AcDbCircle
 10
228.1015595344378
 20
690.888409366545
 30
0.0
 40
1.5
100
AcDbArc
 50
210.000000000007
 51
270.0
  0
ARC
  5
1645
330
1E
100
AcDbEntity
  8
STEMPEL
100
AcDbCircle
 10
225.5034833230851
 20
689.3884093665451
 30
0.0
 40
1.5
100
AcDbArc
 50
29.99999999999973
 51
90.0
  0
ARC
  5
1646
330
1E
100
AcDbEntity
  8
STEMPEL
100
AcDbCircle
 10
228.1015595344378
 20
690.888409366545
 30
0.0
 40
2.5
100
AcDbArc
 50
210.000000000007
 51
270.0
  0
ARC
  5
1647
330
1E
100
AcDbEntity
  8
STEMPEL
100
AcDbCircle
 10
234.555407111732
 20
690.888409366545
 30
0.0
 40
1.5
100
AcDbArc
 50
270.0
 51
330.0000000000003
  0
ARC
  5
1648
330
1E
100
AcDbEntity
  8
STEMPEL
100
AcDbCircle
 10
237.353483323085
 20
689.3884093665451
 30
0.0
 40
0.5
100
AcDbArc
 50
29.99999999999246
 51
90.0
  0
LINE
  5
1649
330
1E
100
AcDbEntity
  8
STEMPEL
100
AcDbLine
 10
237.353483323085
 20
689.8884093665451
 30
0.0
 11
237.153483323085
 21
689.8884093665451
 31
0.0
  0
ARC
  5
164A
330
1E
100
AcDbEntity
  8
STEMPEL
100
AcDbCircle
 10
237.153483323085
 20
689.3884093665451
 30
0.0
 40
0.5
100
AcDbArc
 50
90.0
 51
149.9999999999994
  0
ARC
  5
164B
330
1E
100
AcDbEntity
  8
STEMPEL
100
AcDbCircle
 10
237.153483323085
 20
689.3884093665451
 30
0.0
 40
1.5
100
AcDbArc
 50
90.0
 51
149.9999999999994
  0
ARC
  5
164C
330
1E
100
AcDbEntity
  8
STEMPEL
100
AcDbCircle
 10
239.9515595344387
 20
690.8884093665449
 30
0.0
 40
1.5
100
AcDbArc
 50
209.9999999999925
 51
270.0
  0
LINE
  5
164D
330
1E
100
AcDbEntity
  8
STEMPEL
100
AcDbLine
 10
242.0104071117311
 20
689.3884093665449
 30
0.0
 11
239.9515595344387
 21
689.3884093665449
 31
0.0
  0
LINE
  5
164E
330
1E
100
AcDbEntity
  8
STEMPEL
100
AcDbLine
 10
242.0104071117311
 20
689.3884093665449
 30
0.0
 11
239.9515595344387
 21
689.3884093665449
 31
0.0
  0
ARC
  5
164F
330
1E
100
AcDbEntity
  8
STEMPEL
100
AcDbCircle
 10
237.353483323085
 20
689.3884093665451
 30
0.0
 40
1.5
100
AcDbArc
 50
29.99999999999246
 51
90.0
  0
ARC
  5
1650
330
1E
100
AcDbEntity
  8
STEMPEL
100
AcDbCircle
 10
244.8084833230849
 20
689.388409366545
 30
0.0
 40
0.5
100
AcDbArc
 50
29.99999999999973
 51
90.0
  0
LINE
  5
1651
330
1E
100
AcDbEntity
  8
STEMPEL
100
AcDbLine
 10
244.8084833230849
 20
689.888409366545
 30
0.0
 11
244.6084833230849
 21
689.888409366545
 31
0.0
  0
ARC
  5
1652
330
1E
100
AcDbEntity
  8
STEMPEL
100
AcDbCircle
 10
244.6084833230849
 20
689.388409366545
 30
0.0
 40
0.5
100
AcDbArc
 50
90.0
 51
150.0000000000002
  0
ARC
  5
1653
330
1E
100
AcDbEntity
  8
STEMPEL
100
AcDbCircle
 10
244.6084833230849
 20
689.388409366545
 30
0.0
 40
1.5
100
AcDbArc
 50
90.0
 51
150.0000000000075
  0
ARC
  5
1654
330
1E
100
AcDbEntity
  8
STEMPEL
100
AcDbCircle
 10
244.8084833230849
 20
689.388409366545
 30
0.0
 40
1.5
100
AcDbArc
 50
29.99999999999973
 51
90.0
  0
ARC
  5
1655
330
1E
100
AcDbEntity
  8
STEMPEL
100
AcDbCircle
 10
247.4065595344384
 20
690.888409366545
 30
0.0
 40
1.5
100
AcDbArc
 50
209.9999999999925
 51
270.0
  0
ARC
  5
1656
330
1E
100
AcDbEntity
  8
STEMPEL
100
AcDbCircle
 10
242.0104071117311
 20
690.8884093665449
 30
0.0
 40
1.5
100
AcDbArc
 50
270.0
 51
330.0000000000076
  0
ARC
  5
1657
330
1E
100
AcDbEntity
  8
STEMPEL
100
AcDbCircle
 10
247.4065595344384
 20
690.888409366545
 30
0.0
 40
2.5
100
AcDbArc
 50
209.9999999999997
 51
270.0
  0
ARC
  5
1658
330
1E
100
AcDbEntity
  8
STEMPEL
100
AcDbCircle
 10
242.0104071117311
 20
690.8884093665449
 30
0.0
 40
2.5
100
AcDbArc
 50
270.0
 51
330.0000000000076
  0
ARC
  5
1659
330
1E
100
AcDbEntity
  8
STEMPEL
100
AcDbCircle
 10
239.9515595344387
 20
690.8884093665449
 30
0.0
 40
2.5
100
AcDbArc
 50
209.9999999999925
 51
270.0
  0
ARC
  5
165A
330
1E
100
AcDbEntity
  8
STEMPEL
100
AcDbCircle
 10
234.555407111732
 20
690.888409366545
 30
0.0
 40
2.5
100
AcDbArc
 50
270.0
 51
330.0000000000003
  0
LINE
  5
165B
330
1E
100
AcDbEntity
  8
STEMPEL
100
AcDbLine
 10
234.555407111732
 20
689.388409366545
 30
0.0
 11
228.1015595344378
 21
689.388409366545
 31
0.0
  0
LINE
  5
165C
330
1E
100
AcDbEntity
  8
STEMPEL
100
AcDbLine
 10
234.555407111732
 20
689.388409366545
 30
0.0
 11
228.1015595344378
 21
689.388409366545
 31
0.0
  0
LINE
  5
165D
330
1E
100
AcDbEntity
  8
STEMPEL
100
AcDbLine
 10
225.5034833230851
 20
689.8884093665451
 30
0.0
 11
215.4152158618915
 21
689.8884093665451
 31
0.0
  0
LINE
  5
165E
330
1E
100
AcDbEntity
  8
STEMPEL
100
AcDbLine
 10
244.8084833230849
 20
690.888409366545
 30
0.0
 11
199.303483323085
 21
690.8884093665451
 31
0.0
  0
LINE
  5
165F
330
1E
100
AcDbEntity
  8
STEMPEL
100
AcDbLine
 10
196.705407111731
 20
689.3884093665453
 30
0.0
 11
142.1449217067876
 21
689.3884093665458
 31
0.0
  0
ELLIPSE
  5
1660
330
1E
100
AcDbEntity
  8
STEMPEL
100
AcDbEllipse
 10
127.1038121804357
 20
656.888409366546
 30
0.0
 11
0.0000000000000334
 21
7.499999999999999
 31
0.0
210
0.0
220
0.0
230
1.0
 40
0.4999999999999926
 41
4.712388980384689
 42
6.167183451052224
  0
ELLIPSE
  5
1661
330
1E
100
AcDbEntity
  8
STEMPEL
100
AcDbEllipse
 10
127.9718762001244
 20
656.888409366546
 30
0.0
 11
0.0000000000000334
 21
7.499999999999999
 31
0.0
210
0.0
220
0.0
230
1.0
 40
0.4999999999999926
 41
4.712388980384689
 42
7.853981633974482
  0
ELLIPSE
  5
1662
330
1E
100
AcDbEntity
  8
STEMPEL
100
AcDbEllipse
 10
127.1038121804355
 20
631.8884093665476
 30
0.0
 11
-0.0000000000000334
 21
-7.499999999999999
 31
0.0
210
0.0
220
0.0
230
-1.0
 40
0.4999999999999926
 41
4.712388980384689
 42
6.167183451052224
  0
ELLIPSE
  5
1663
330
1E
100
AcDbEntity
  8
STEMPEL
100
AcDbEllipse
 10
127.9718762001243
 20
631.8884093665476
 30
0.0
 11
-0.0000000000000334
 21
-7.499999999999999
 31
0.0
210
0.0
220
0.0
230
-1.0
 40
0.4999999999999926
 41
4.712388980384689
 42
7.853981633974482
  0
LINE
  5
1664
330
1E
100
AcDbEntity
  8
STEMPEL
100
AcDbLine
 10
124.2218762001245
 20
656.888409366546
 30
0.0
 11
124.2218762001244
 21
631.8884093665492
 31
0.0
  0
LINE
  5
1665
330
1E
100
AcDbEntity
  8
STEMPEL
100
AcDbLine
 10
131.7218762001244
 20
656.888409366546
 30
0.0
 11
131.7218762001243
 21
631.8884093665476
 31
0.0
  0
LINE
  5
1666
330
1E
100
AcDbEntity
  8
STEMPEL
100
AcDbLine
 10
130.8538121804353
 20
631.888409366546
 30
0.0
 11
130.8538121804354
 21
656.8884093665476
 31
0.0
  0
LWPOLYLINE
  5
1667
330
1E
100
AcDbEntity
  8
STEMPEL
100
AcDbPolyline
 90
        7
 70
   128
 43
0.0
 10
-121.4712216108582
 20
600.3884093665459
 10
-122.0913121339225
 20
600.9977472683868
 10
-122.623132280706
 20
601.725177541676
 10
-123.0523780804372
 20
602.5511350356196
 10
-123.3675044282345
 20
603.4534045860818
 10
-123.5600356052004
 20
604.4077185203251
 10
-123.6247932435267
 20
605.3884093665462
210
0.0
220
0.0
230
-1.0
  0
LWPOLYLINE
  5
1668
330
1E
100
AcDbEntity
  8
STEMPEL
100
AcDbPolyline
 90
       10
 70
   128
 43
0.0
 10
-119.7354830534602
 20
599.3884093665459
 10
-120.5716623283018
 20
599.4795628484727
 10
-121.3824347190044
 20
599.7502536418306
 10
-122.1431653167472
 20
600.1922569438392
 10
-122.830739707266
 20
600.7921427078321
 10
-123.4242662906344
 20
601.5316837084268
 10
-123.9057110619556
 20
602.388409366546
 10
-124.260445565476
 20
603.3362885065921
 10
-124.4776913728101
 20
604.3465203005446
 10
-124.5508475800341
 20
605.3884093665462
210
0.0
220
0.0
230
-1.0
  0
LINE
  5
1669
330
1E
100
AcDbEntity
  8
STEMPEL
100
AcDbLine
 10
123.6247932435269
 20
611.888409366544
 30
0.0
 11
123.6247932435269
 21
605.3884093665474
 31
0.0
  0
LINE
  5
166A
330
1E
100
AcDbEntity
  8
STEMPEL
100
AcDbLine
 10
124.5508475800342
 20
611.888409366544
 30
0.0
 11
124.5508475800341
 21
605.3884093665474
 31
0.0
  0
LINE
  5
166B
330
1E
100
AcDbEntity
  8
STEMPEL
100
AcDbLine
 10
131.3086467637159
 20
611.888409366544
 30
0.0
 11
131.3086467637159
 21
605.3884093665474
 31
0.0
  0
LWPOLYLINE
  5
166C
330
1E
100
AcDbEntity
  8
STEMPEL
100
AcDbPolyline
 90
       10
 70
   128
 43
0.0
 10
-126.94494058911
 20
599.3884093665458
 10
-127.7026902142042
 20
599.4795628484726
 10
-128.4374160003797
 20
599.7502536418304
 10
-129.1267936764129
 20
600.1922569438392
 10
-129.7498768504593
 20
600.7921427078321
 10
-130.2877334555707
 20
601.5316837084268
 10
-130.7240209909696
 20
602.388409366546
 10
-131.0454830806649
 20
603.3362885065921
 10
-131.242352261729
 20
604.3465203005446
 10
-131.3086467637158
 20
605.3884093665462
210
0.0
220
0.0
230
-1.0
  0
LWPOLYLINE
  5
166D
330
1E
100
AcDbEntity
  8
STEMPEL
100
AcDbPolyline
 90
        7
 70
   128
 43
0.0
 10
-137.6932704835087
 20
600.3884093665458
 10
-138.2551994567728
 20
600.9977472683866
 10
-138.7371373963599
 20
601.725177541676
 10
-139.1261219761098
 20
602.5511350356196
 10
-139.4116909672162
 20
603.4534045860818
 10
-139.5861636330121
 20
604.4077185203251
 10
-139.6448473120271
 20
605.3884093665462
210
0.0
220
0.0
230
-1.0
  0
LWPOLYLINE
  5
166E
330
1E
100
AcDbEntity
  8
STEMPEL
100
AcDbPolyline
 90
       10
 70
   128
 43
0.0
 10
-136.0763620242418
 20
599.3884093665458
 10
-136.834111649336
 20
599.4795628484726
 10
-137.5688374355116
 20
599.7502536418303
 10
-138.2582151115447
 20
600.1922569438392
 10
-138.8812982855912
 20
600.7921427078319
 10
-139.4191548907026
 20
601.5316837084267
 10
-139.8554424261015
 20
602.388409366546
 10
-140.1769045157968
 20
603.3362885065921
 10
-140.3737736968608
 20
604.3465203005446
 10
-140.4400681988476
 20
605.3884093665462
210
0.0
220
0.0
230
-1.0
  0
LINE
  5
166F
330
1E
100
AcDbEntity
  8
STEMPEL
100
AcDbLine
 10
139.6448473120271
 20
611.888409366544
 30
0.0
 11
139.644847312027
 21
605.3884093665474
 31
0.0
  0
LINE
  5
1670
330
1E
100
AcDbEntity
  8
STEMPEL
100
AcDbLine
 10
140.4400681988478
 20
611.888409366544
 30
0.0
 11
140.4400681988478
 21
605.3884093665474
 31
0.0
  0
LWPOLYLINE
  5
1671
330
1E
100
AcDbEntity
  8
STEMPEL
100
AcDbPolyline
 90
       10
 70
   128
 43
0.0
 10
-146.3344363206753
 20
599.3884093665458
 10
-146.9704406806763
 20
599.4795628484726
 10
-147.5871203700324
 20
599.7502536418303
 10
-148.1657378884375
 20
600.1922569438392
 10
-148.6887122353893
 20
600.7921427078319
 10
-149.1401530999938
 20
601.5316837084267
 10
-149.5063436800198
 20
602.388409366546
 10
-149.7761574599947
 20
603.336288506592
 10
-149.9413962847464
 20
604.3465203005446
 10
-149.9970394561995
 20
605.3884093665462
210
0.0
220
0.0
230
-1.0
  0
LINE
  5
1672
330
1E
100
AcDbEntity
  8
STEMPEL
100
AcDbLine
 10
149.9970394561995
 20
611.888409366544
 30
0.0
 11
149.9970394561995
 21
605.3884093665474
 31
0.0
  0
LINE
  5
1673
330
1E
100
AcDbEntity
  8
STEMPEL
100
AcDbLine
 10
129.3570699351974
 20
600.3884093665458
 30
0.0
 11
137.6932704835093
 21
600.3884093665458
 31
0.0
  0
LWPOLYLINE
  5
1674
330
1E
100
AcDbEntity
  8
STEMPEL
100
AcDbPolyline
 90
        9
 70
   128
 43
0.0
 10
121.2176946690432
 20
619.2901676112092
 10
121.706755212312
 20
618.9637347134517
 10
122.166368180213
 20
618.4184657001946
 10
122.5823179838372
 20
617.6712254570666
 10
122.9417395131288
 20
616.7451257342889
 10
123.2335160480163
 20
615.6688103123188
 10
123.4486230927545
 20
614.4755690646879
 10
123.5804074988619
 20
613.202308319612
 10
123.6247932435268
 20
611.8884093665456
  0
LWPOLYLINE
  5
1675
330
1E
100
AcDbEntity
  8
STEMPEL
100
AcDbPolyline
 90
       18
 70
   128
 43
0.0
 10
131.308646763716
 20
611.888409366544
 10
131.3863866649761
 20
613.2665307501686
 10
131.616959029658
 20
614.5977218629482
 10
131.9925119924231
 20
615.836650588125
 10
132.5002565475508
 20
616.9411266938944
 10
133.1229020631888
 20
617.8735385711471
 10
133.8392450930829
 20
618.6021340517084
 10
134.6248914345087
 20
619.1021016903416
 10
135.4530868435881
 20
619.3564156887584
 10
136.2956281189758
 20
619.3564156887584
 10
137.1238235280552
 20
619.1021016903416
 10
137.9094698694811
 20
618.6021340517084
 10
138.6258128993752
 20
617.873538571147
 10
139.2484584150131
 20
616.9411266938943
 10
139.7562029701408
 20
615.8366505881249
 10
140.131755932906
 20
614.5977218629482
 10
140.3623282975878
 20
613.2665307501686
 10
140.4400681988479
 20
611.888409366544
  0
LWPOLYLINE
  5
1676
330
1E
100
AcDbEntity
  8
STEMPEL
100
AcDbPolyline
 90
       10
 70
   128
 43
0.0
 10
135.079136594461
 20
619.3884093665472
 10
135.8719639403207
 20
619.2744675141386
 10
136.6407016284664
 20
618.9361040224414
 10
137.361991953244
 20
618.3835998949303
 10
138.0139188731255
 20
617.6337426899391
 10
138.5766739185411
 20
616.7093164391956
 10
139.033158062204
 20
615.6384093665463
 10
139.3695012644008
 20
614.4535604414886
 10
139.5754839071309
 20
613.1907706990477
 10
139.6448473120269
 20
611.8884093665456
  0
LINE
  5
1677
330
1E
100
AcDbEntity
  8
STEMPEL
100
AcDbLine
 10
161.2788980047256
 20
656.8884093665458
 30
0.0
 11
161.2788980047255
 21
631.8884093665474
 31
0.0
  0
LINE
  5
1678
330
1E
100
AcDbEntity
  8
STEMPEL
100
AcDbLine
 10
174.2692790614913
 20
656.8884093665458
 30
0.0
 11
174.2692790614912
 21
631.8884093665458
 31
0.0
  0
LINE
  5
1679
330
1E
100
AcDbEntity
  8
STEMPEL
100
AcDbLine
 10
173.7681020660494
 20
656.8884093665458
 30
0.0
 11
173.7681020660492
 21
631.8884093665458
 31
0.0
  0
ELLIPSE
  5
167A
330
1E
100
AcDbEntity
  8
STEMPEL
100
AcDbEllipse
 10
167.7740885331084
 20
656.8884093665458
 30
0.0
 11
0.0000000000000334
 21
7.5
 31
0.0
210
0.0
220
0.0
230
1.0
 40
0.8660254037843856
 41
4.712388980384689
 42
7.853981633974482
  0
ELLIPSE
  5
167B
330
1E
100
AcDbEntity
  8
STEMPEL
100
AcDbEllipse
 10
167.2729115376665
 20
656.8884093665458
 30
0.0
 11
0.0000000000000334
 21
7.5
 31
0.0
210
0.0
220
0.0
230
1.0
 40
0.8660254037843856
 41
4.712388980384689
 42
6.24459510668465
  0
ELLIPSE
  5
167C
330
1E
100
AcDbEntity
  8
STEMPEL
100
AcDbEllipse
 10
167.7740885331083
 20
631.8884093665458
 30
0.0
 11
-0.0000000000000334
 21
-7.5
 31
0.0
210
0.0
220
0.0
230
-1.0
 40
0.8660254037843856
 41
4.712388980384689
 42
7.853981633974482
  0
ELLIPSE
  5
167D
330
1E
100
AcDbEntity
  8
STEMPEL
100
AcDbEllipse
 10
167.2729115376664
 20
631.8884093665458
 30
0.0
 11
-0.0000000000000334
 21
-7.5
 31
0.0
210
0.0
220
0.0
230
-1.0
 40
0.8660254037843856
 41
4.712388980384689
 42
6.24459510668465
  0
LINE
  5
167E
330
1E
100
AcDbEntity
  8
STEMPEL
100
AcDbLine
 10
161.2871451127061
 20
611.8884093665439
 30
0.0
 11
161.287145112706
 21
605.3884093665473
 31
0.0
  0
LINE
  5
167F
330
1E
100
AcDbEntity
  8
STEMPEL
100
AcDbLine
 10
161.8973395605684
 20
611.8884093665439
 30
0.0
 11
161.8973395605683
 21
605.3884093665473
 31
0.0
  0
LWPOLYLINE
  5
1680
330
1E
100
AcDbEntity
  8
STEMPEL
100
AcDbPolyline
 90
        7
 70
   128
 43
0.0
 10
-159.6491220366006
 20
600.3884093665458
 10
-160.1207676371675
 20
600.9977472683866
 10
-160.5252741135503
 20
601.725177541676
 10
-160.8517617560393
 20
602.5511350356196
 10
-161.0914492694476
 20
603.4534045860818
 10
-161.2378899570736
 20
604.407718520325
 10
-161.287145112706
 20
605.3884093665462
210
0.0
220
0.0
230
-1.0
  0
LWPOLYLINE
  5
1681
330
1E
100
AcDbEntity
  8
STEMPEL
100
AcDbPolyline
 90
       10
 70
   128
 43
0.0
 10
-158.2347364250442
 20
599.3884093665458
 10
-158.8707407850451
 20
599.4795628484726
 10
-159.4874204744013
 20
599.7502536418303
 10
-160.0660379928063
 20
600.1922569438391
 10
-160.5890123397582
 20
600.7921427078319
 10
-161.0404532043627
 20
601.5316837084267
 10
-161.4066437843886
 20
602.3884093665459
 10
-161.6764575643636
 20
603.3362885065919
 10
-161.8416963891152
 20
604.3465203005445
 10
-161.8973395605683
 20
605.3884093665462
210
0.0
220
0.0
230
-1.0
  0
LWPOLYLINE
  5
1682
330
1E
100
AcDbEntity
  8
STEMPEL
100
AcDbPolyline
 90
       10
 70
   128
 43
0.0
 10
-170.8798477668405
 20
599.3884093665457
 10
-171.3525777245941
 20
599.4795628484724
 10
-171.8109440217943
 20
599.7502536418303
 10
-172.241019430445
 20
600.1922569438391
 10
-172.6297363268833
 20
600.7921427078319
 10
-172.965283744911
 20
601.5316837084267
 10
-173.2374662460266
 20
602.3884093665459
 10
-173.4380137026647
 20
603.3362885065919
 10
-173.5608325818371
 20
604.3465203005445
 10
-173.6021910940496
 20
605.3884093665462
210
0.0
220
0.0
230
-1.0
  0
LINE
  5
1683
330
1E
100
AcDbEntity
  8
STEMPEL
100
AcDbLine
 10
173.6021910940496
 20
611.8884093665439
 30
0.0
 11
173.6021910940496
 21
605.3884093665473
 31
0.0
  0
LWPOLYLINE
  5
1684
330
1E
100
AcDbEntity
  8
STEMPEL
100
AcDbPolyline
 90
        9
 70
   128
 43
0.0
 10
155.6420922844644
 20
619.3785434443676
 10
156.7585000058356
 20
619.1712363079605
 10
157.8237792575778
 20
618.7019815805067
 10
158.7996142406161
 20
617.9876573433382
 10
159.6509062734741
 20
617.0539562999417
 10
160.3470362162105
 20
615.9344616647813
 10
160.8629657749019
 20
614.6694392474427
 10
161.1801380751177
 20
613.3043891782334
 10
161.2871451127059
 20
611.8884093665455
  0
LINE
  5
1685
330
1E
100
AcDbEntity
  8
STEMPEL
100
AcDbLine
 10
148.3590163800941
 20
600.3884093665458
 30
0.0
 11
159.6491220366012
 21
600.3884093665458
 31
0.0
  0
LWPOLYLINE
  5
1686
330
1E
100
AcDbEntity
  8
STEMPEL
100
AcDbPolyline
 90
       18
 70
   128
 43
0.0
 10
149.9970394561994
 20
611.888409366544
 10
150.0983520680038
 20
613.2665307501684
 10
150.398839823933
 20
614.5977218629482
 10
150.8882699738542
 20
615.8366505881249
 10
151.5499755610186
 20
616.9411266938941
 10
152.3614229952837
 20
617.873538571147
 10
153.2949794074994
 20
618.6021340517084
 10
154.3188536537256
 20
619.1021016903416
 10
155.3981789245083
 20
619.3564156887582
 10
156.4962000922594
 20
619.3564156887582
 10
157.5755253630422
 20
619.1021016903416
 10
158.5993996092683
 20
618.6021340517084
 10
159.532956021484
 20
617.873538571147
 10
160.3444034557491
 20
616.9411266938941
 10
161.0061090429135
 20
615.8366505881249
 10
161.4955391928347
 20
614.597721862948
 10
161.7960269487639
 20
613.2665307501683
 10
161.8973395605683
 20
611.8884093665439
  0
LINE
  5
1687
330
1E
100
AcDbEntity
  8
STEMPEL
100
AcDbLine
 10
214.6449217067876
 20
656.8884093665456
 30
0.0
 11
214.6449217067874
 21
631.8884093665456
 31
0.0
  0
LWPOLYLINE
  5
1688
330
1E
100
AcDbEntity
  8
STEMPEL
100
AcDbPolyline
 90
        7
 70
   128
 43
0.0
 10
-185.8592883833144
 20
600.3884093665456
 10
-186.2098535977264
 20
600.9977472683865
 10
-186.5105155766651
 20
601.7251775416757
 10
-186.7531876385997
 20
602.5511350356193
 10
-186.9313428136482
 20
603.4534045860816
 10
-187.0401893946287
 20
604.4077185203247
 10
-187.0767998160435
 20
605.388409366546
210
0.0
220
0.0
230
-1.0
  0
LINE
  5
1689
330
1E
100
AcDbEntity
  8
STEMPEL
100
AcDbLine
 10
187.0767998160436
 20
611.8884093665437
 30
0.0
 11
187.0767998160435
 21
605.3884093665471
 31
0.0
  0
LINE
  5
168A
330
1E
100
AcDbEntity
  8
STEMPEL
100
AcDbLine
 10
187.4603840817206
 20
611.8884093665421
 30
0.0
 11
187.4603840817205
 21
605.3884093665471
 31
0.0
  0
LWPOLYLINE
  5
168B
330
1E
100
AcDbEntity
  8
STEMPEL
100
AcDbPolyline
 90
       10
 70
   128
 43
0.0
 10
-199.2038748659924
 20
599.3884093665456
 10
-199.4316274288609
 20
599.4795628484723
 10
-199.6524598453552
 20
599.7502536418301
 10
-199.8596622342464
 20
600.192256943839
 10
-200.0469388557976
 20
600.7921427078318
 10
-200.2085994046295
 20
601.5316837084265
 10
-200.3397319067702
 20
602.3884093665458
 10
-200.4363519674981
 20
603.3362885065918
 10
-200.4955238351602
 20
604.3465203005443
 10
-200.5154496025002
 20
605.388409366546
210
0.0
220
0.0
230
-1.0
  0
LINE
  5
168C
330
1E
100
AcDbEntity
  8
STEMPEL
100
AcDbLine
 10
200.5154496025002
 20
611.8884093665453
 30
0.0
 11
200.5154496025002
 21
605.3884093665471
 31
0.0
  0
LWPOLYLINE
  5
168D
330
1E
100
AcDbEntity
  8
STEMPEL
100
AcDbPolyline
 90
       10
 70
   128
 43
0.0
 10
-214.0755477866
 20
599.3884093665455
 10
-214.3033003494685
 20
599.4795628484722
 10
-214.5241327659627
 20
599.7502536418301
 10
-214.731335154854
 20
600.1922569438388
 10
-214.9186117764052
 20
600.7921427078318
 10
-215.0802723252371
 20
601.5316837084265
 10
-215.2114048273777
 20
602.3884093665457
 10
-215.3080248881057
 20
603.3362885065916
 10
-215.3671967557679
 20
604.3465203005442
 10
-215.3871225231078
 20
605.3884093665459
210
0.0
220
0.0
230
-1.0
  0
LWPOLYLINE
  5
168E
330
1E
100
AcDbEntity
  8
STEMPEL
100
AcDbPolyline
 90
        7
 70
   128
 43
0.0
 10
-214.6697145511643
 20
600.3884093665455
 10
-214.8386103969328
 20
600.9977472683863
 10
-214.9834637855054
 20
601.7251775416756
 10
-215.1003787030725
 20
602.5511350356192
 10
-215.1862105760902
 20
603.4534045860815
 10
-215.2386508485359
 20
604.4077185203247
 10
-215.2562890734212
 20
605.3884093665459
210
0.0
220
0.0
230
-1.0
  0
LINE
  5
168F
330
1E
100
AcDbEntity
  8
STEMPEL
100
AcDbLine
 10
215.2562890734214
 20
611.8884093665436
 30
0.0
 11
215.2562890734213
 21
605.388409366547
 31
0.0
  0
LINE
  5
1690
330
1E
100
AcDbEntity
  8
STEMPEL
100
AcDbLine
 10
215.3871225231079
 20
611.888409366542
 30
0.0
 11
215.3871225231078
 21
605.388409366547
 31
0.0
  0
LINE
  5
1691
330
1E
100
AcDbEntity
  8
STEMPEL
100
AcDbLine
 10
199.9288750802432
 20
600.3884093665456
 30
0.0
 11
214.6697145511646
 21
600.3884093665455
 31
0.0
  0
LWPOLYLINE
  5
1692
330
1E
100
AcDbEntity
  8
STEMPEL
100
AcDbPolyline
 90
       18
 70
   128
 43
0.0
 10
200.5154496025004
 20
611.8884093665437
 10
200.6420588486768
 20
613.2665307501683
 10
201.0175750611785
 20
614.597721862948
 10
201.6292104857708
 20
615.8366505881247
 10
202.4561366116452
 20
616.9411266938939
 10
203.4701934613735
 20
617.8735385711468
 10
204.6368485451652
 20
618.6021340517081
 10
205.9163728233905
 20
619.1021016903414
 10
207.2651936313746
 20
619.356415688758
 10
208.6373784942339
 20
619.356415688758
 10
209.986199302218
 20
619.1021016903414
 10
211.2657235804432
 20
618.6021340517081
 10
212.432378664235
 20
617.8735385711468
 10
213.4464355139633
 20
616.9411266938939
 10
214.2733616398376
 20
615.8366505881247
 10
214.88499706443
 20
614.5977218629479
 10
215.2605132769316
 20
613.2665307501682
 10
215.387122523108
 20
611.8884093665436
  0
LWPOLYLINE
  5
1693
330
1E
100
AcDbEntity
  8
STEMPEL
100
AcDbPolyline
 90
        9
 70
   128
 43
0.0
 10
207.8858693380607
 20
619.3881191263185
 10
209.3272093219385
 20
619.2328177323948
 10
210.7112902253881
 20
618.7984174853804
 10
211.9855148379201
 20
618.1014262651051
 10
213.1014606576499
 20
617.1683308136595
 10
214.016720021103
 20
616.0345901983159
 10
214.6965116598781
 20
614.7432883122466
 10
215.1150024425275
 20
613.343496620087
 10
215.2562890734214
 20
611.8884093665452
  0
LINE
  5
1694
330
1E
100
AcDbEntity
  8
STEMPEL
100
AcDbLine
 10
229.6449217067876
 20
656.888409366544
 30
0.0
 11
229.6449217067874
 21
631.888409366544
 31
0.0
  0
LWPOLYLINE
  5
1695
330
1E
100
AcDbEntity
  8
STEMPEL
100
AcDbPolyline
 90
        7
 70
   128
 43
0.0
 10
229.6201288624104
 20
600.3884093665454
 10
229.4512330166419
 20
600.9977472683863
 10
229.3063796280693
 20
601.7251775416755
 10
229.1894647105021
 20
602.5511350356191
 10
229.1036328374844
 20
603.4534045860814
 10
229.0511925650388
 20
604.4077185203247
 10
229.0335543401535
 20
605.3884093665458
  0
LWPOLYLINE
  5
1696
330
1E
100
AcDbEntity
  8
STEMPEL
100
AcDbPolyline
 90
       10
 70
   128
 43
0.0
 10
230.2142956269746
 20
599.3884093665453
 10
229.9865430641061
 20
599.4795628484721
 10
229.7657106476119
 20
599.7502536418299
 10
229.5585082587207
 20
600.1922569438388
 10
229.3712316371695
 20
600.7921427078316
 10
229.2095710883375
 20
601.5316837084263
 10
229.0784385861969
 20
602.3884093665456
 10
228.981818525469
 20
603.3362885065916
 10
228.9226466578067
 20
604.3465203005442
 10
228.9027208904668
 20
605.3884093665458
  0
LINE
  5
1697
330
1E
100
AcDbEntity
  8
STEMPEL
100
AcDbLine
 10
228.9027208904669
 20
611.8884093665419
 30
0.0
 11
228.9027208904668
 21
605.388409366547
 31
0.0
  0
LINE
  5
1698
330
1E
100
AcDbEntity
  8
STEMPEL
100
AcDbLine
 10
229.0335543401534
 20
611.8884093665435
 30
0.0
 11
229.0335543401533
 21
605.388409366547
 31
0.0
  0
LWPOLYLINE
  5
1699
330
1E
100
AcDbEntity
  8
STEMPEL
100
AcDbPolyline
 90
       10
 70
   128
 43
0.0
 10
245.0859685475822
 20
599.3884093665453
 10
244.8582159847136
 20
599.4795628484721
 10
244.6373835682194
 20
599.7502536418299
 10
244.4301811793283
 20
600.1922569438388
 10
244.2429045577771
 20
600.7921427078315
 10
244.0812440089451
 20
601.5316837084262
 10
243.9501115068045
 20
602.3884093665456
 10
243.8534914460766
 20
603.3362885065916
 10
243.7943195784143
 20
604.3465203005442
 10
243.7743938110744
 20
605.3884093665458
  0
LINE
  5
169A
330
1E
100
AcDbEntity
  8
STEMPEL
100
AcDbLine
 10
243.7743938110746
 20
611.8884093665451
 30
0.0
 11
243.7743938110745
 21
605.388409366547
 31
0.0
  0
LINE
  5
169B
330
1E
100
AcDbEntity
  8
STEMPEL
100
AcDbLine
 10
244.3609683333314
 20
600.3884093665454
 30
0.0
 11
229.62012886241
 21
600.3884093665454
 31
0.0
  0
LWPOLYLINE
  5
169C
330
1E
100
AcDbEntity
  8
STEMPEL
100
AcDbPolyline
 90
        9
 70
   128
 43
0.0
 10
-236.4039740755141
 20
619.3881191263183
 10
-234.9626340916362
 20
619.2328177323946
 10
-233.5785531881867
 20
618.7984174853803
 10
-232.3043285756547
 20
618.1014262651051
 10
-231.1883827559249
 20
617.1683308136594
 10
-230.2731233924718
 20
616.0345901983159
 10
-229.5933317536967
 20
614.7432883122466
 10
-229.1748409710473
 20
613.343496620087
 10
-229.0335543401534
 20
611.8884093665451
210
0.0
220
0.0
230
-1.0
  0
LWPOLYLINE
  5
169D
330
1E
100
AcDbEntity
  8
STEMPEL
100
AcDbPolyline
 90
       18
 70
   128
 43
0.0
 10
-243.7743938110743
 20
611.8884093665435
 10
-243.647784564898
 20
613.2665307501682
 10
-243.2722683523963
 20
614.5977218629477
 10
-242.6606329278039
 20
615.8366505881245
 10
-241.8337068019296
 20
616.9411266938937
 10
-240.8196499522013
 20
617.8735385711465
 10
-239.6529948684096
 20
618.6021340517079
 10
-238.3734705901843
 20
619.1021016903412
 10
-237.0246497822003
 20
619.356415688758
 10
-235.6524649193409
 20
619.356415688758
 10
-234.3036441113568
 20
619.1021016903412
 10
-233.0241198331315
 20
618.6021340517079
 10
-231.8574647493398
 20
617.8735385711466
 10
-230.8434078996115
 20
616.9411266938939
 10
-230.0164817737372
 20
615.8366505881246
 10
-229.4048463491448
 20
614.5977218629477
 10
-229.0293301366431
 20
613.2665307501682
 10
-228.9027208904667
 20
611.8884093665435
210
0.0
220
0.0
230
-1.0
  0
ARC
  5
169E
330
1E
100
AcDbEntity
  8
STEMPEL
100
AcDbCircle
 10
222.1449217067875
 20
656.8884093665456
 30
0.0
 40
7.5
100
AcDbArc
 50
359.999999999987
 51
179.9999999999739
  0
ARC
  5
169F
330
1E
100
AcDbEntity
  8
STEMPEL
100
AcDbCircle
 10
222.1449217067875
 20
631.8884093665456
 30
0.0
 40
7.5
100
AcDbArc
 50
180.000000000026
 51
0.0000000000130276
  0
LWPOLYLINE
  5
16A0
330
1E
100
AcDbEntity
  8
STEMPEL
100
AcDbPolyline
 90
       10
 70
   128
 43
0.0
 10
-184.7380407545115
 20
599.3884093665456
 10
-185.210770712265
 20
599.4795628484723
 10
-185.6691370094652
 20
599.7502536418302
 10
-186.099212418116
 20
600.1922569438391
 10
-186.4879293145542
 20
600.7921427078318
 10
-186.8234767325819
 20
601.5316837084265
 10
-187.0956592336975
 20
602.3884093665458
 10
-187.2962066903356
 20
603.3362885065919
 10
-187.419025569508
 20
604.3465203005443
 10
-187.4603840817205
 20
605.388409366546
210
0.0
220
0.0
230
-1.0
  0
LINE
  5
16A1
330
1E
100
AcDbEntity
  8
STEMPEL
100
AcDbLine
 10
172.3846796613205
 20
600.3884093665456
 30
0.0
 11
185.8592883833149
 21
600.3884093665456
 31
0.0
  0
LWPOLYLINE
  5
16A2
330
1E
100
AcDbEntity
  8
STEMPEL
100
AcDbPolyline
 90
        9
 70
   128
 43
0.0
 10
180.3394954550732
 20
619.3855357895841
 10
181.663704905403
 20
619.2067028825361
 10
182.9316843025891
 20
618.7564269652121
 10
184.0964029906747
 20
618.0514092330728
 10
185.1146603592814
 20
617.1177995166893
 10
185.9486881985436
 20
615.9902263577132
 10
186.5675515607375
 20
614.7105126007613
 10
186.9482961692117
 20
613.3261241412259
 10
187.0767998160436
 20
611.8884093665453
  0
LWPOLYLINE
  5
16A3
330
1E
100
AcDbEntity
  8
STEMPEL
100
AcDbPolyline
 90
       18
 70
   128
 43
0.0
 10
173.6021910940496
 20
611.8884093665439
 10
173.7201721293307
 20
613.2665307501683
 10
174.0700975325204
 20
614.597721862948
 10
174.6400510137022
 20
615.8366505881248
 10
175.4106234906583
 20
616.9411266938941
 10
176.3555740418858
 20
617.8735385711469
 10
177.4427235097058
 20
618.6021340517081
 10
178.6350503228841
 20
619.1021016903414
 10
179.8919512218359
 20
619.3564156887582
 10
181.1706239539343
 20
619.3564156887582
 10
182.4275248528861
 20
619.1021016903414
 10
183.6198516660644
 20
618.6021340517081
 10
184.7070011338844
 20
617.8735385711469
 10
185.6519516851119
 20
616.9411266938941
 10
186.422524162068
 20
615.8366505881248
 10
186.9924776432498
 20
614.597721862948
 10
187.3424030464395
 20
613.2665307501683
 10
187.4603840817206
 20
611.8884093665437
  0
LINE
  5
16A4
330
1E
100
AcDbEntity
  8
STEMPEL
100
AcDbLine
 10
115.6255681386605
 20
673.7072468134266
 30
0.0
 11
139.6044220316117
 21
687.694899979612
 31
0.0
  0
LINE
  5
16A5
330
1E
100
AcDbEntity
  8
STEMPEL
100
AcDbLine
 10
115.1122270850797
 20
674.5654899265892
 30
0.0
 11
139.0985299605467
 21
688.5574999372777
 31
0.0
  0
LINE
  5
16A6
330
1E
100
AcDbEntity
  8
STEMPEL
100
AcDbLine
 10
116.6570244618878
 20
600.3884093665459
 30
0.0
 11
121.4712216108592
 21
600.3884093665459
 31
0.0
  0
LWPOLYLINE
  5
16A7
330
1E
100
AcDbEntity
  8
STEMPEL
100
AcDbPolyline
 90
       18
 70
   128
 43
0.0
 10
118.8105960945564
 20
611.8884093665441
 10
118.8594654394727
 20
613.2665307501686
 10
119.0044092872928
 20
614.5977218629483
 10
119.24049174912
 20
615.8366505881251
 10
119.5596733198666
 20
616.9411266938944
 10
119.951084653957
 20
617.8735385711473
 10
120.401396707855
 20
618.6021340517084
 10
120.8952746446545
 20
619.1021016903418
 10
121.4159000435594
 20
619.3564156887584
 10
121.9455436310312
 20
619.3564156887584
 10
122.4661690299361
 20
619.1021016903418
 10
122.9600469667356
 20
618.6021340517084
 10
123.4103590206335
 20
617.8735385711471
 10
123.801770354724
 20
616.9411266938944
 10
124.1209519254706
 20
615.836650588125
 10
124.3570343872978
 20
614.5977218629482
 10
124.5019782351179
 20
613.2665307501686
 10
124.5508475800342
 20
611.888409366544
  0
LINE
  5
16A8
330
1E
100
AcDbEntity
  8
STEMPEL
100
AcDbLine
 10
256.8294593318543
 20
611.8884093665419
 30
0.0
 11
256.8294593318541
 21
605.388409366547
 31
0.0
  0
LINE
  5
16A9
330
1E
100
AcDbEntity
  8
STEMPEL
100
AcDbLine
 10
257.2130435975312
 20
611.8884093665435
 30
0.0
 11
257.2130435975311
 21
605.388409366547
 31
0.0
  0
ARC
  5
16AA
330
1E
100
AcDbEntity
  8
SCHRAFF
100
AcDbCircle
 10
244.8837114935285
 20
582.8884093665453
 30
0.0
 40
5.0
100
AcDbArc
 50
342.5423968762808
 51
17.45760312371915
  0
ARC
  5
16AB
330
1E
100
AcDbEntity
  8
SCHRAFF
100
AcDbCircle
 10
249.8837114935286
 20
582.8884093665453
 30
0.0
 40
5.0
100
AcDbArc
 50
342.5423968762808
 51
17.45760312371915
  0
ARC
  5
16AC
330
1E
100
AcDbEntity
  8
SCHRAFF
100
AcDbCircle
 10
239.8837114935286
 20
582.8884093665453
 30
0.0
 40
5.0
100
AcDbArc
 50
342.5423968762808
 51
17.45760312371915
  0
ARC
  5
16AD
330
1E
100
AcDbEntity
  8
SCHRAFF
100
AcDbCircle
 10
234.8837114935286
 20
582.8884093665453
 30
0.0
 40
5.0
100
AcDbArc
 50
342.5423968762808
 51
17.45760312371915
  0
ARC
  5
16AE
330
1E
100
AcDbEntity
  8
SCHRAFF
100
AcDbCircle
 10
229.8837114935286
 20
582.8884093665453
 30
0.0
 40
5.0
100
AcDbArc
 50
342.5423968762808
 51
17.45760312371915
  0
ARC
  5
16AF
330
1E
100
AcDbEntity
  8
SCHRAFF
100
AcDbCircle
 10
169.9494526682799
 20
582.8884093665453
 30
0.0
 40
5.0
100
AcDbArc
 50
342.5423968762808
 51
17.45760312371915
  0
ARC
  5
16B0
330
1E
100
AcDbEntity
  8
SCHRAFF
100
AcDbCircle
 10
174.9494526682799
 20
582.8884093665453
 30
0.0
 40
5.0
100
AcDbArc
 50
342.5423968762808
 51
17.45760312371915
  0
ARC
  5
16B1
330
1E
100
AcDbEntity
  8
SCHRAFF
100
AcDbCircle
 10
189.9494526682799
 20
582.8884093665453
 30
0.0
 40
5.0
100
AcDbArc
 50
342.5423968762808
 51
17.45760312371915
  0
ARC
  5
16B2
330
1E
100
AcDbEntity
  8
SCHRAFF
100
AcDbCircle
 10
184.9494526682799
 20
582.8884093665453
 30
0.0
 40
5.0
100
AcDbArc
 50
342.5423968762808
 51
17.45760312371915
  0
ARC
  5
16B3
330
1E
100
AcDbEntity
  8
SCHRAFF
100
AcDbCircle
 10
179.9494526682799
 20
582.8884093665453
 30
0.0
 40
5.0
100
AcDbArc
 50
342.5423968762808
 51
17.45760312371915
  0
ARC
  5
16B4
330
1E
100
AcDbEntity
  8
SCHRAFF
100
AcDbCircle
 10
194.9494526682799
 20
582.8884093665453
 30
0.0
 40
5.0
100
AcDbArc
 50
342.5423968762808
 51
17.45760312371915
  0
ARC
  5
16B5
330
1E
100
AcDbEntity
  8
SCHRAFF
100
AcDbCircle
 10
199.9494526682799
 20
582.8884093665453
 30
0.0
 40
5.0
100
AcDbArc
 50
342.5423968762808
 51
17.45760312371915
  0
ARC
  5
16B6
330
1E
100
AcDbEntity
  8
SCHRAFF
100
AcDbCircle
 10
204.9494526682799
 20
582.8884093665453
 30
0.0
 40
5.0
100
AcDbArc
 50
342.5423968762808
 51
17.45760312371915
  0
HATCH
  5
16B7
330
1E
100
AcDbEntity
  8
SCHRAFF
100
AcDbHatch
 10
0.0
 20
0.0
 30
0.0
210
0.0
220
0.0
230
1.0
  2
_USER
 70
     0
 71
     0
 91
        2
 92
        7
 72
     1
 73
     1
 93
        3
 10
157.6449217067871
 20
584.388409366545
 42
-0.2453357974240878
 10
158.4280663008124
 20
582.8884093665457
 42
0.0
 10
157.6449217067871
 20
582.8884093665457
 42
0.0
 97
        0
 92
        7
 72
     1
 73
     1
 93
        3
 10
157.6449217067871
 20
582.8884093665457
 42
0.0
 10
158.4280663008127
 20
582.8884093665457
 42
-0.2453357974242125
 10
157.6449217067871
 20
581.3884093665454
 42
0.0
 97
        0
 75
     0
 76
     0
 52
0.0
 41
0.1
 77
     0
 78
     1
 53
179.9999999999998
 43
417.9449217067854
 44
69.4618967389049
 45
0.0000000000000003
 46
0.1
 79
     0
 47
0.0937308931428171
 98
        2
 10
157.99616889373
 20
583.3332657079989
 10
157.9024038779551
 20
582.4896871785123
  0
ARC
  5
16B8
330
1E
100
AcDbEntity
  8
SCHRAFF
100
AcDbCircle
 10
156.5999776713342
 20
582.8884093665455
 30
0.0
 40
1.828088629478462
100
AcDbArc
 50
304.8622016819284
 51
55.13779831807161
  0
LINE
  5
16B9
330
1E
100
AcDbEntity
  8
STEMPEL
100
AcDbLine
 10
157.6449217067874
 20
584.3884093665455
 30
0.0
 11
157.6449217067874
 21
582.8884093665455
 31
0.0
  0
LINE
  5
16BA
330
1E
100
AcDbEntity
  8
STEMPEL
100
AcDbLine
 10
87.14492170678752
 20
584.3884093665455
 30
0.0
 11
87.14492170678751
 21
582.8884093665453
 31
0.0
  0
DIMENSION
  5
16BB
330
1E
100
AcDbEntity
  8
BEM
100
AcDbDimension
  2
*D10
 10
66.48366171171208
 20
584.3884093665452
 30
0.0
 11
59.98366171171198
 21
591.8884093665451
 31
0.0
 70
    32
 71
     5
 42
14.99999999999988
  3
Standard
100
AcDbAlignedDimension
 13
92.14492170678743
 23
599.3884093665451
 33
0.0
 14
87.14492170678751
 24
584.3884093665452
 34
0.0
 50
90.0
100
AcDbRotatedDimension
1001
ACAD
1000
DSTYLE
1002
{
1070
    40
1040
2.0
1070
    41
1040
3.5
1070
    42
1040
1.0
1070
    43
1040
7.0
1070
    44
1040
1.0
1070
    73
1070
     0
1070
    74
1070
     0
1070
    77
1070
     1
1070
    78
1070
     8
1070
    79
1070
     2
1070
   140
1040
3.5
1070
   141
1040
1.5
1070
   146
1040
0.5142857142857144
1070
   147
1040
1.5
1070
   172
1070
     1
1070
   178
1070
     1
1070
   179
1070
     2
1070
   271
1070
     2
1070
   272
1070
     2
1070
   284
1070
     8
1070
   285
1070
     8
1070
   286
1070
     8
1002
}
  0
LINE
  5
16BC
330
1E
100
AcDbEntity
  8
MITTEL
100
AcDbLine
 10
100.1449217067875
 20
577.8884093665453
 30
0.0
 11
100.1449217067875
 21
611.9884093665458
 31
0.0
  0
LINE
  5
16BE
330
1E
100
AcDbEntity
  8
STEMPEL
100
AcDbLine
 10
157.6449217067874
 20
582.8884093665455
 30
0.0
 11
157.6449217067874
 21
542.8884093665455
 31
0.0
  0
LINE
  5
16BF
330
1E
100
AcDbEntity
  8
STEMPEL
100
AcDbLine
 10
155.6449217067875
 20
582.8884093665455
 30
0.0
 11
155.6449217067874
 21
537.3512110558437
 31
0.0
  0
LINE
  5
16C0
330
1E
100
AcDbEntity
  8
STEMPEL
100
AcDbLine
 10
162.622286519394
 20
582.8884093665457
 30
0.0
 11
163.6852144251697
 21
573.4260376744522
 31
0.0
  0
LINE
  5
16C1
330
1E
100
AcDbEntity
  8
STEMPEL
100
AcDbLine
 10
170.8666474216496
 20
582.8884093665457
 30
0.0
 11
169.2834215081584
 21
573.1132662622973
 31
0.0
  0
LINE
  5
16C2
330
1E
100
AcDbEntity
  8
STEMPEL
100
AcDbLine
 10
169.2766234128082
 20
582.8884093665457
 30
0.0
 11
167.6443052229295
 21
573.1132662622973
 31
0.0
  0
ELLIPSE
  5
16C3
330
1E
100
AcDbEntity
  8
STEMPEL
100
AcDbEllipse
 10
166.2862831626911
 20
574.8884093665457
 30
0.0
 11
0.0000000000000166
 21
6.0
 31
0.0
210
0.0
220
0.0
230
-1.0
 40
0.4469911571673986
 41
3.141592653589793
 42
4.466180421600129
  0
ELLIPSE
  5
16C4
330
1E
100
AcDbEntity
  8
STEMPEL
100
AcDbEllipse
 10
166.2862831626911
 20
574.8884093665457
 30
0.0
 11
0.0000000000000166
 21
6.0
 31
0.0
210
0.0
220
0.0
230
-1.0
 40
0.5229336548626785
 41
1.871149077660318
 42
3.141592653589793
  0
ELLIPSE
  5
16C5
330
1E
100
AcDbEntity
  8
STEMPEL
100
AcDbEllipse
 10
164.5542323551222
 20
574.8884093665457
 30
0.0
 11
-0.0000000000000166
 21
-6.0
 31
0.0
210
0.0
220
0.0
230
-1.0
 40
0.5391486519126829
 41
5.01274173125013
 42
5.986102071232593
  0
LINE
  5
16C6
330
1E
100
AcDbEntity
  8
TEXT
 62
     2
100
AcDbLine
 10
370.5408633010064
 20
609.8965956542656
 30
0.0
 11
473.8142728369649
 21
609.8965956542656
 31
0.0
  0
TEXT
  5
16C7
330
1E
100
AcDbEntity
  8
TEXT
 62
     1
100
AcDbText
 10
370.8062404386304
 20
613.2324439351497
 30
0.0
 40
7.0
  1
Losflansch DN125
 41
0.8
  7
GREEKS
100
AcDbText
  0
TEXT
  5
16C8
330
1E
100
AcDbEntity
  8
TEXT
 62
     1
100
AcDbText
 10
370.8062404386304
 20
599.9559183847837
 30
0.0
 40
7.0
  1
EDV-Art.Nr. 17014.125X
 41
0.8
  7
GREEKS
100
AcDbText
  0
LINE
  5
16C9
330
1E
100
AcDbEntity
  8
STEMPEL
100
AcDbLine
 10
287.7776747466149
 20
532.8884093665456
 30
0.0
 11
156.51216866696
 21
532.8884093665456
 31
0.0
  0
LINE
  5
16CA
330
1E
100
AcDbEntity
  8
STEMPEL
100
AcDbLine
 10
155.6449217067874
 20
542.8010874807284
 30
0.0
 11
156.51216866696
 21
532.8884093665456
 31
0.0
  0
LINE
  5
16CB
330
1E
100
AcDbEntity
  8
STEMPEL
100
AcDbLine
 10
157.6449217067874
 20
542.8884093665455
 30
0.0
 11
158.5198083420467
 21
532.8884093665456
 31
0.0
  0
LINE
  5
16CC
330
1E
100
AcDbEntity
  8
HILF
100
AcDbLine
 10
284.637282031701
 20
542.8884093665455
 30
0.0
 11
159.6525613818741
 21
542.8884093665455
 31
0.0
  0
LINE
  5
16CD
330
1E
100
AcDbEntity
  8
STEMPEL
100
AcDbLine
 10
230.6449217067875
 20
582.8884093665455
 30
0.0
 11
227.9181299671033
 21
573.2543755899599
 31
0.0
  0
LINE
  5
16CE
330
1E
100
AcDbEntity
  8
STEMPEL
100
AcDbLine
 10
213.6449217067875
 20
582.8884093665455
 30
0.0
 11
216.3717134464718
 21
573.2543755899599
 31
0.0
  0
ARC
  5
16CF
330
1E
100
AcDbEntity
  8
STEMPEL
100
AcDbCircle
 10
222.1449217067875
 20
574.8884093665455
 30
0.0
 40
6.0
100
AcDbArc
 50
195.8034962890195
 51
344.1965037109804
  0
LINE
  5
16D0
330
1E
100
AcDbEntity
  8
STEMPEL
100
AcDbLine
 10
286.6449217067875
 20
542.8884093665449
 30
0.0
 11
285.7700350715282
 21
532.8884093665449
 31
0.0
  0
LINE
  5
16D1
330
1E
100
AcDbEntity
  8
STEMPEL
100
AcDbLine
 10
288.6449217067875
 20
542.8010874807277
 30
0.0
 11
287.777674746615
 21
532.8884093665456
 31
0.0
  0
ELLIPSE
  5
16D2
330
1E
100
AcDbEntity
  8
STEMPEL
100
AcDbEllipse
 10
279.7356110584528
 20
574.8884093665455
 30
0.0
 11
0.0
 21
-6.0
 31
0.0
210
0.0
220
0.0
230
1.0
 40
0.5391486519126829
 41
5.01274173125013
 42
5.986102071232593
  0
ELLIPSE
  5
16D3
330
1E
100
AcDbEntity
  8
STEMPEL
100
AcDbEllipse
 10
278.0035602508838
 20
574.8884093665455
 30
0.0
 11
0.0
 21
6.0
 31
0.0
210
0.0
220
0.0
230
1.0
 40
0.5229336548626785
 41
1.871149077660318
 42
3.141592653589793
  0
ELLIPSE
  5
16D4
330
1E
100
AcDbEntity
  8
STEMPEL
100
AcDbEllipse
 10
278.0035602508838
 20
574.8884093665455
 30
0.0
 11
0.0
 21
6.0
 31
0.0
210
0.0
220
0.0
230
1.0
 40
0.4469911571673986
 41
3.141592653589793
 42
4.466180421600129
  0
LINE
  5
1771
330
1E
100
AcDbEntity
  8
TEXT
 62
     2
100
AcDbLine
 10
331.5435844162643
 20
583.0457691975241
 30
0.0
 11
370.5408633010064
 21
609.8965956542656
 31
0.0
  0
LINE
  5
1773
330
1E
100
AcDbEntity
  8
STEMPEL
100
AcDbLine
 10
227.5398990529051
 20
572.2627248015457
 30
0.0
 11
216.7499443606699
 21
572.2627248015458
 31
0.0
  0
LINE
  5
1774
330
1E
100
AcDbEntity
  8
STEMPEL
100
AcDbLine
 10
167.4629271183811
 20
572.2627248015466
 30
0.0
 11
163.874775995858
 21
572.2627248015466
 31
0.0
  0
LINE
  5
1775
330
1E
100
AcDbEntity
  8
STEMPEL
100
AcDbLine
 10
156.121724111582
 20
537.3512110558437
 30
0.0
 11
153.8638859550467
 21
537.3512110558437
 31
0.0
  0
ENDSEC
  0
SECTION
  2
OBJECTS
  0
DICTIONARY
  5
C
330
0
100
AcDbDictionary
281
     1
  3
ACAD_COLOR
350
11A
  3
ACAD_GROUP
350
D
  3
ACAD_LAYOUT
350
19
  3
ACAD_MATERIAL
350
119
  3
ACAD_MLINESTYLE
350
16
  3
ACAD_PLOTSETTINGS
350
18
  3
ACAD_PLOTSTYLENAME
350
E
  3
AcDbVariableDictionary
350
125
  0
DICTIONARY
  5
DB
330
1E
100
AcDbDictionary
280
     1
281
     1
  3
ACAD_LAYOUTSELFREF
360
10F
  0
DICTIONARY
  5
DD
330
1A
100
AcDbDictionary
280
     1
281
     1
  3
ACAD_LAYOUTSELFREF
360
10E
  0
DICTIONARY
  5
11A
102
{ACAD_REACTORS
330
C
102
}
330
C
100
AcDbDictionary
281
     1
  0
DICTIONARY
  5
D
102
{ACAD_REACTORS
330
C
102
}
330
C
100
AcDbDictionary
281
     1
  0
DICTIONARY
  5
19
102
{ACAD_REACTORS
330
C
102
}
330
C
100
AcDbDictionary
281
     1
  3
Layout1
350
1D
  3
Model
350
21
  0
DICTIONARY
  5
119
102
{ACAD_REACTORS
330
C
102
}
330
C
100
AcDbDictionary
281
     1
  0
DICTIONARY
  5
16
102
{ACAD_REACTORS
330
C
102
}
330
C
100
AcDbDictionary
281
     1
  3
Standard
350
17
  0
DICTIONARY
  5
18
102
{ACAD_REACTORS
330
C
102
}
330
C
100
AcDbDictionary
281
     1
  0
ACDBDICTIONARYWDFLT
  5
E
102
{ACAD_REACTORS
330
C
102
}
330
C
100
AcDbDictionary
281
     1
  3
Normal
350
F
100
AcDbDictionaryWithDefault
340
F
  0
DICTIONARY
  5
125
102
{ACAD_REACTORS
330
C
102
}
330
C
100
AcDbDictionary
281
     1
  3
DIMASSOC
350
126
  3
PROJECTNAME
350
127
  0
XRECORD
  5
10F
102
{ACAD_REACTORS
330
DB
102
}
330
DB
100
AcDbXrecord
280
     1
340
1E
  0
XRECORD
  5
10E
102
{ACAD_REACTORS
330
DD
102
}
330
DD
100
AcDbXrecord
280
     1
340
1A
  0
LAYOUT
  5
1D
102
{ACAD_REACTORS
330
19
102
}
330
19
100
AcDbPlotSettings
  1

  2
\\NT_WORK01\HP LaserJet 5000 PCL 6
  4

  6

 40
0.0
 41
0.0
 42
0.0
 43
0.0
 44
0.0
 45
0.0
 46
0.0
 47
0.0
 48
0.0
 49
0.0
140
0.0
141
0.0
142
1.0
143
1.0
 70
   688
 72
     0
 73
     0
 74
     5
  7

 75
    16
147
1.0
 76
     0
 77
     2
 78
   300
148
0.0
149
0.0
100
AcDbLayout
  1
Layout1
 70
     0
 71
     1
 10
0.0
 20
0.0
 11
12.0
 21
9.0
 12
0.0
 22
0.0
 32
0.0
 14
1.000000000000000E+20
 24
1.000000000000000E+20
 34
1.000000000000000E+20
 15
-1.000000000000000E+20
 25
-1.000000000000000E+20
 35
-1.000000000000000E+20
146
0.0
 13
0.0
 23
0.0
 33
0.0
 16
1.0
 26
0.0
 36
0.0
 17
0.0
 27
1.0
 37
0.0
 76
     0
330
1A
  0
LAYOUT
  5
21
102
{ACAD_REACTORS
330
19
102
}
330
19
100
AcDbPlotSettings
  1

  2
none_device
  4
Letter_(8.50_x_11.00_Inches)
  6

 40
6.349999904632568
 41
6.349999904632568
 42
6.350006103515625
 43
6.350006103515625
 44
215.8999938964844
 45
279.3999938964844
 46
0.0
 47
0.0
 48
0.0
 49
0.0
140
0.0
141
0.0
142
1.0
143
1.0
 70
 11952
 72
     0
 73
     1
 74
     0
  7

 75
     0
147
1.0
 76
     0
 77
     2
 78
   300
148
3126.834080051068
149
2.634080051069576
100
AcDbLayout
  1
Model
 70
     1
 71
     0
 10
0.0
 20
0.0
 11
12.0
 21
9.0
 12
0.0
 22
0.0
 32
0.0
 14
0.0
 24
0.0
 34
0.0
 15
0.0
 25
0.0
 35
0.0
146
0.0
 13
0.0
 23
0.0
 33
0.0
 16
1.0
 26
0.0
 36
0.0
 17
0.0
 27
1.0
 37
0.0
 76
     0
330
1E
  0
MLINESTYLE
  5
17
102
{ACAD_REACTORS
330
16
102
}
330
16
100
AcDbMlineStyle
  2
STANDARD
 70
     0
  3

 62
   256
 51
90.0
 52
90.0
 71
     2
 49
0.5
 62
   256
  6
BYLAYER
 49
-0.5
 62
   256
  6
BYLAYER
  0
ACDBPLACEHOLDER
  5
F
102
{ACAD_REACTORS
330
E
102
}
330
E
  0
DICTIONARYVAR
  5
126
102
{ACAD_REACTORS
330
125
102
}
330
125
100
DictionaryVariables
280
     0
  1
1
  0
DICTIONARYVAR
  5
127
102
{ACAD_REACTORS
330
125
102
}
330
125
100
DictionaryVariables
280
     0
  1

  0
ENDSEC
  0
EOF
