  0
SECTION
  2
HEADER
  9
$ACADVER
  1
AC1018
  9
$ACADMAINTVER
 70
     2
  9
$DWGCODEPAGE
  3
ANSI_1252
  9
$INSBASE
 10
0.0
 20
0.0
 30
0.0
  9
$EXTMIN
 10
-0.0362532231533805
 20
-0.0512671842573127
 30
-0.0000000349181948
  9
$EXTMAX
 10
594.0362587553784
 20
840.051275007606
 30
0.0000000814935746
  9
$LIMMIN
 10
0.0
 20
0.0
  9
$LIMMAX
 10
594.0
 20
840.0
  9
$ORTHOMODE
 70
     1
  9
$REGENMODE
 70
     1
  9
$FILLMODE
 70
     1
  9
$QTEXTMODE
 70
     0
  9
$MIRRTEXT
 70
     1
  9
$LTSCALE
 40
20.0
  9
$ATTMODE
 70
     1
  9
$TEXTSIZE
 40
3.5
  9
$TRACEWID
 40
1.0
  9
$TEXTSTYLE
  7
STANDARD
  9
$CLAYER
  8
VOLL
  9
$CELTYPE
  6
ByLayer
  9
$CECOLOR
 62
   256
  9
$CELTSCALE
 40
1.0
  9
$DISPSILH
 70
     0
  9
$DIMSCALE
 40
2.0
  9
$DIMASZ
 40
3.5
  9
$DIMEXO
 40
1.0
  9
$DIMDLI
 40
7.0
  9
$DIMRND
 40
0.0
  9
$DIMDLE
 40
0.0
  9
$DIMEXE
 40
1.0
  9
$DIMTP
 40
0.0
  9
$DIMTM
 40
0.0
  9
$DIMTXT
 40
3.5
  9
$DIMCEN
 40
1.5
  9
$DIMTSZ
 40
0.0
  9
$DIMTOL
 70
     0
  9
$DIMLIM
 70
     0
  9
$DIMTIH
 70
     0
  9
$DIMTOH
 70
     0
  9
$DIMSE1
 70
     0
  9
$DIMSE2
 70
     0
  9
$DIMTAD
 70
     1
  9
$DIMZIN
 70
     8
  9
$DIMBLK
  1

  9
$DIMASO
 70
     1
  9
$DIMSHO
 70
     0
  9
$DIMPOST
  1

  9
$DIMAPOST
  1

  9
$DIMALT
 70
     0
  9
$DIMALTD
 70
     2
  9
$DIMALTF
 40
25.4
  9
$DIMLFAC
 40
1.0
  9
$DIMTOFL
 70
     1
  9
$DIMTVP
 40
0.0
  9
$DIMTIX
 70
     0
  9
$DIMSOXD
 70
     0
  9
$DIMSAH
 70
     0
  9
$DIMBLK1
  1

  9
$DIMBLK2
  1

  9
$DIMSTYLE
  2
Standard
  9
$DIMCLRD
 70
     0
  9
$DIMCLRE
 70
     0
  9
$DIMCLRT
 70
     1
  9
$DIMTFAC
 40
0.5142857142857144
  9
$DIMGAP
 40
1.5
  9
$DIMJUST
 70
     0
  9
$DIMSD1
 70
     0
  9
$DIMSD2
 70
     0
  9
$DIMTOLJ
 70
     1
  9
$DIMTZIN
 70
     8
  9
$DIMALTZ
 70
     8
  9
$DIMALTTZ
 70
     8
  9
$DIMUPT
 70
     0
  9
$DIMDEC
 70
     2
  9
$DIMTDEC
 70
     2
  9
$DIMALTU
 70
     2
  9
$DIMALTTD
 70
     2
  9
$DIMTXSTY
  7
STANDARD
  9
$DIMAUNIT
 70
     0
  9
$DIMADEC
 70
     2
  9
$DIMALTRND
 40
0.0
  9
$DIMAZIN
 70
     2
  9
$DIMDSEP
 70
    46
  9
$DIMATFIT
 70
     3
  9
$DIMFRAC
 70
     0
  9
$DIMLDRBLK
  1

  9
$DIMLUNIT
 70
     2
  9
$DIMLWD
 70
    -2
  9
$DIMLWE
 70
    -2
  9
$DIMTMOVE
 70
     0
  9
$LUNITS
 70
     2
  9
$LUPREC
 70
     2
  9
$SKETCHINC
 40
1.0
  9
$FILLETRAD
 40
0.0
  9
$AUNITS
 70
     0
  9
$AUPREC
 70
     0
  9
$MENU
  1
ACAD
  9
$ELEVATION
 40
0.0
  9
$PELEVATION
 40
0.0
  9
$THICKNESS
 40
0.0
  9
$LIMCHECK
 70
     0
  9
$CHAMFERA
 40
0.0
  9
$CHAMFERB
 40
0.0
  9
$CHAMFERC
 40
0.0
  9
$CHAMFERD
 40
0.0
  9
$SKPOLY
 70
     0
  9
$TDCREATE
 40
2455397.867059838
  9
$TDUCREATE
 40
2455397.783726505
  9
$TDUPDATE
 40
2456157.314365949
  9
$TDUUPDATE
 40
2456157.231032616
  9
$TDINDWG
 40
0.1452306597
  9
$TDUSRTIMER
 40
0.1452306597
  9
$USRTIMER
 70
     1
  9
$ANGBASE
 50
0.0
  9
$ANGDIR
 70
     0
  9
$PDMODE
 70
     0
  9
$PDSIZE
 40
0.0
  9
$PLINEWID
 40
0.0
  9
$SPLFRAME
 70
     0
  9
$SPLINETYPE
 70
     6
  9
$SPLINESEGS
 70
     8
  9
$HANDSEED
  5
144D
  9
$SURFTAB1
 70
     6
  9
$SURFTAB2
 70
     6
  9
$SURFTYPE
 70
     6
  9
$SURFU
 70
     6
  9
$SURFV
 70
     6
  9
$UCSBASE
  2

  9
$UCSNAME
  2

  9
$UCSORG
 10
0.0
 20
0.0
 30
0.0
  9
$UCSXDIR
 10
1.0
 20
0.0
 30
0.0
  9
$UCSYDIR
 10
0.0
 20
1.0
 30
0.0
  9
$UCSORTHOREF
  2

  9
$UCSORTHOVIEW
 70
     0
  9
$UCSORGTOP
 10
0.0
 20
0.0
 30
0.0
  9
$UCSORGBOTTOM
 10
0.0
 20
0.0
 30
0.0
  9
$UCSORGLEFT
 10
0.0
 20
0.0
 30
0.0
  9
$UCSORGRIGHT
 10
0.0
 20
0.0
 30
0.0
  9
$UCSORGFRONT
 10
0.0
 20
0.0
 30
0.0
  9
$UCSORGBACK
 10
0.0
 20
0.0
 30
0.0
  9
$PUCSBASE
  2

  9
$PUCSNAME
  2

  9
$PUCSORG
 10
0.0
 20
0.0
 30
0.0
  9
$PUCSXDIR
 10
1.0
 20
0.0
 30
0.0
  9
$PUCSYDIR
 10
0.0
 20
1.0
 30
0.0
  9
$PUCSORTHOREF
  2

  9
$PUCSORTHOVIEW
 70
     0
  9
$PUCSORGTOP
 10
0.0
 20
0.0
 30
0.0
  9
$PUCSORGBOTTOM
 10
0.0
 20
0.0
 30
0.0
  9
$PUCSORGLEFT
 10
0.0
 20
0.0
 30
0.0
  9
$PUCSORGRIGHT
 10
0.0
 20
0.0
 30
0.0
  9
$PUCSORGFRONT
 10
0.0
 20
0.0
 30
0.0
  9
$PUCSORGBACK
 10
0.0
 20
0.0
 30
0.0
  9
$USERI1
 70
     0
  9
$USERI2
 70
     0
  9
$USERI3
 70
     0
  9
$USERI4
 70
     0
  9
$USERI5
 70
     0
  9
$USERR1
 40
0.0
  9
$USERR2
 40
0.0
  9
$USERR3
 40
0.0
  9
$USERR4
 40
0.0
  9
$USERR5
 40
0.0
  9
$WORLDVIEW
 70
     1
  9
$SHADEDGE
 70
     3
  9
$SHADEDIF
 70
    70
  9
$TILEMODE
 70
     1
  9
$MAXACTVP
 70
    16
  9
$PINSBASE
 10
0.0
 20
0.0
 30
0.0
  9
$PLIMCHECK
 70
     0
  9
$PEXTMIN
 10
1.000000000000000E+20
 20
1.000000000000000E+20
 30
1.000000000000000E+20
  9
$PEXTMAX
 10
-1.000000000000000E+20
 20
-1.000000000000000E+20
 30
-1.000000000000000E+20
  9
$PLIMMIN
 10
0.0
 20
0.0
  9
$PLIMMAX
 10
12.0
 20
9.0
  9
$UNITMODE
 70
     0
  9
$VISRETAIN
 70
     0
  9
$PLINEGEN
 70
     0
  9
$PSLTSCALE
 70
     0
  9
$TREEDEPTH
 70
  3020
  9
$CMLSTYLE
  2
Standard
  9
$CMLJUST
 70
     0
  9
$CMLSCALE
 40
1.0
  9
$PROXYGRAPHICS
 70
     1
  9
$MEASUREMENT
 70
     0
  9
$CELWEIGHT
370
    -1
  9
$ENDCAPS
280
     0
  9
$JOINSTYLE
280
     0
  9
$LWDISPLAY
290
     0
  9
$INSUNITS
 70
     0
  9
$HYPERLINKBASE
  1

  9
$STYLESHEET
  1
monochrome 1.ctb
  9
$XEDIT
290
     1
  9
$CEPSNTYPE
380
     0
  9
$PSTYLEMODE
290
     1
  9
$FINGERPRINTGUID
  2
{D68B0D0D-A558-11D7-B632-000102183313}
  9
$VERSIONGUID
  2
{CE68C236-5946-4527-A86E-9D22F8335329}
  9
$EXTNAMES
290
     1
  9
$PSVPSCALE
 40
0.0
  9
$OLESTARTUP
290
     0
  9
$SORTENTS
280
   127
  9
$INDEXCTL
280
     0
  9
$HIDETEXT
280
     0
  9
$XCLIPFRAME
290
     0
  9
$HALOGAP
280
     0
  9
$OBSCOLOR
 70
   257
  9
$OBSLTYPE
280
     0
  9
$INTERSECTIONDISPLAY
280
     0
  9
$INTERSECTIONCOLOR
 70
   257
  9
$DIMASSOC
280
     1
  9
$PROJECTNAME
  1

  0
ENDSEC
  0
SECTION
  2
CLASSES
  0
CLASS
  1
ACDBDICTIONARYWDFLT
  2
AcDbDictionaryWithDefault
  3
ObjectDBX Classes
 90
        0
 91
        1
280
     0
281
     0
  0
CLASS
  1
DICTIONARYVAR
  2
AcDbDictionaryVar
  3
ObjectDBX Classes
 90
        0
 91
        2
280
     0
281
     0
  0
ENDSEC
  0
SECTION
  2
TABLES
  0
TABLE
  2
VPORT
  5
8
330
0
100
AcDbSymbolTable
 70
     3
  0
VPORT
  5
144C
330
8
100
AcDbSymbolTableRecord
100
AcDbViewportTableRecord
  2
*Active
 70
     0
 10
0.0
 20
0.0
 11
1.0
 21
1.0
 12
297.0
 22
420.0
 13
0.0
 23
0.0
 14
1.0
 24
1.0
 15
10.0
 25
10.0
 16
0.0
 26
0.0
 36
1.0
 17
0.0
 27
0.0
 37
0.0
 40
840.0
 41
1.404858299595141
 42
50.0
 43
0.0
 44
0.0
 50
0.0
 51
0.0
 71
     0
 72
  1500
 73
     1
 74
     0
 75
     0
 76
     0
 77
     0
 78
     0
281
     0
 65
     1
110
0.0
120
0.0
130
0.0
111
1.0
121
0.0
131
0.0
112
0.0
122
1.0
132
0.0
 79
     0
146
0.0
  0
ENDTAB
  0
TABLE
  2
LTYPE
  5
5
330
0
100
AcDbSymbolTable
 70
     2
  0
LTYPE
  5
13
330
5
100
AcDbSymbolTableRecord
100
AcDbLinetypeTableRecord
  2
ByBlock
 70
     0
  3

 72
    65
 73
     0
 40
0.0
  0
LTYPE
  5
14
330
5
100
AcDbSymbolTableRecord
100
AcDbLinetypeTableRecord
  2
ByLayer
 70
     0
  3

 72
    65
 73
     0
 40
0.0
  0
LTYPE
  5
15
330
5
100
AcDbSymbolTableRecord
100
AcDbLinetypeTableRecord
  2
Continuous
 70
     0
  3
Solid line
 72
    65
 73
     0
 40
0.0
  0
LTYPE
  5
25
330
5
100
AcDbSymbolTableRecord
100
AcDbLinetypeTableRecord
  2
STRICHPUNKT
 70
     0
  3
__ . __ . __ . __ . __ . __ . __ . __ . __ . __
 72
    65
 73
     4
 40
1.0
 49
0.5
 74
     0
 49
-0.25
 74
     0
 49
0.0
 74
     0
 49
-0.25
 74
     0
  0
ENDTAB
  0
TABLE
  2
LAYER
  5
2
330
0
100
AcDbSymbolTable
 70
     9
  0
LAYER
  5
10
330
2
100
AcDbSymbolTableRecord
100
AcDbLayerTableRecord
  2
0
 70
     0
 62
     7
  6
Continuous
370
    -3
390
F
  0
LAYER
  5
2B
330
2
100
AcDbSymbolTableRecord
100
AcDbLayerTableRecord
  2
VOLL
 70
     0
 62
     1
  6
Continuous
370
    -3
390
F
  0
LAYER
  5
2C
330
2
100
AcDbSymbolTableRecord
100
AcDbLayerTableRecord
  2
HILF
 70
     0
 62
     2
  6
Continuous
370
    -3
390
F
  0
LAYER
  5
2D
330
2
100
AcDbSymbolTableRecord
100
AcDbLayerTableRecord
  2
MITTEL
 70
     0
 62
     2
  6
STRICHPUNKT
370
    -3
390
F
  0
LAYER
  5
2F
330
2
100
AcDbSymbolTableRecord
100
AcDbLayerTableRecord
  2
BEM
 70
     0
 62
     7
  6
Continuous
370
    -3
390
F
  0
LAYER
  5
30
330
2
100
AcDbSymbolTableRecord
100
AcDbLayerTableRecord
  2
STEMPEL
 70
     0
 62
     3
  6
Continuous
370
    -3
390
F
  0
LAYER
  5
33
330
2
100
AcDbSymbolTableRecord
100
AcDbLayerTableRecord
  2
TEXT
 70
     0
 62
     7
  6
Continuous
370
    -3
390
F
  0
LAYER
  5
1AE
330
2
100
AcDbSymbolTableRecord
100
AcDbLayerTableRecord
  2
SCHRAFF
 70
     0
 62
     7
  6
Continuous
370
    -3
390
F
  0
LAYER
  5
7AB
330
2
100
AcDbSymbolTableRecord
100
AcDbLayerTableRecord
  2
DEFPOINTS
 70
     0
 62
     7
  6
Continuous
290
     0
370
    -3
390
F
  0
ENDTAB
  0
TABLE
  2
STYLE
  5
3
330
0
100
AcDbSymbolTable
 70
     2
  0
STYLE
  5
11
330
3
100
AcDbSymbolTableRecord
100
AcDbTextStyleTableRecord
  2
STANDARD
 70
     0
 40
0.0
 41
0.8
 50
0.0
 71
     0
 42
3.5
  3
simplex.shx
  4

  0
STYLE
  5
24
330
3
100
AcDbSymbolTableRecord
100
AcDbTextStyleTableRecord
  2
GREEKS
 70
     0
 40
0.0
 41
0.8
 50
0.0
 71
     0
 42
2.5
  3
SIMPLEX.shx
  4

  0
ENDTAB
  0
TABLE
  2
VIEW
  5
6
330
0
100
AcDbSymbolTable
 70
     0
  0
ENDTAB
  0
TABLE
  2
UCS
  5
7
330
0
100
AcDbSymbolTable
 70
     0
  0
ENDTAB
  0
TABLE
  2
APPID
  5
9
330
0
100
AcDbSymbolTable
 70
     1
  0
APPID
  5
12
330
9
100
AcDbSymbolTableRecord
100
AcDbRegAppTableRecord
  2
ACAD
 70
     0
  0
ENDTAB
  0
TABLE
  2
DIMSTYLE
  5
A
330
0
100
AcDbSymbolTable
 70
     1
100
AcDbDimStyleTable
 71
     1
340
A2
  0
DIMSTYLE
105
A2
102
{ACAD_REACTORS
330
F0C
330
F2A
330
F2D
330
F2E
330
11FC
330
122A
330
1249
330
133B
330
1427
102
}
330
A
100
AcDbSymbolTableRecord
100
AcDbDimStyleTableRecord
  2
Standard
 70
     0
340
11
  0
ENDTAB
  0
TABLE
  2
BLOCK_RECORD
  5
1
330
0
100
AcDbSymbolTable
 70
    11
  0
BLOCK_RECORD
  5
1E
102
{ACAD_XDICTIONARY
360
DB
102
}
330
1
100
AcDbSymbolTableRecord
100
AcDbBlockTableRecord
  2
*Model_Space
340
21
  0
BLOCK_RECORD
  5
1A
102
{ACAD_XDICTIONARY
360
DD
102
}
330
1
100
AcDbSymbolTableRecord
100
AcDbBlockTableRecord
  2
*Paper_Space
340
1D
  0
BLOCK_RECORD
  5
22
330
1
100
AcDbSymbolTableRecord
100
AcDbBlockTableRecord
  2
LOGO
340
0
102
{BLKREFS
331
56
102
}
  0
BLOCK_RECORD
  5
23
330
1
100
AcDbSymbolTableRecord
100
AcDbBlockTableRecord
  2
LORO
340
0
102
{BLKREFS
331
9B
102
}
  0
BLOCK_RECORD
  5
F54
330
1
100
AcDbSymbolTableRecord
100
AcDbBlockTableRecord
  2
*D2
340
0
  0
BLOCK_RECORD
  5
F60
330
1
100
AcDbSymbolTableRecord
100
AcDbBlockTableRecord
  2
*D3
340
0
  0
BLOCK_RECORD
  5
F6C
330
1
100
AcDbSymbolTableRecord
100
AcDbBlockTableRecord
  2
*D4
340
0
  0
BLOCK_RECORD
  5
F78
330
1
100
AcDbSymbolTableRecord
100
AcDbBlockTableRecord
  2
*D5
340
0
  0
BLOCK_RECORD
  5
1356
330
1
100
AcDbSymbolTableRecord
100
AcDbBlockTableRecord
  2
*D6
340
0
  0
BLOCK_RECORD
  5
1362
330
1
100
AcDbSymbolTableRecord
100
AcDbBlockTableRecord
  2
*D7
340
0
  0
BLOCK_RECORD
  5
136E
330
1
100
AcDbSymbolTableRecord
100
AcDbBlockTableRecord
  2
*D8
340
0
  0
BLOCK_RECORD
  5
137A
330
1
100
AcDbSymbolTableRecord
100
AcDbBlockTableRecord
  2
*D9
340
0
  0
BLOCK_RECORD
  5
1428
330
1
100
AcDbSymbolTableRecord
100
AcDbBlockTableRecord
  2
*D10
340
0
  0
ENDTAB
  0
ENDSEC
  0
SECTION
  2
BLOCKS
  0
BLOCK
  5
37
330
1E
100
AcDbEntity
  8
0
100
AcDbBlockBegin
  2
*Model_Space
 70
     0
 10
0.0
 20
0.0
 30
0.0
  3
*Model_Space
  1

  0
ENDBLK
  5
38
330
1E
100
AcDbEntity
  8
0
100
AcDbBlockEnd
  0
BLOCK
  5
35
330
1A
100
AcDbEntity
 67
     1
  8
0
100
AcDbBlockBegin
  2
*Paper_Space
 70
     0
 10
0.0
 20
0.0
 30
0.0
  3
*Paper_Space
  1

  0
ENDBLK
  5
36
330
1A
100
AcDbEntity
 67
     1
  8
0
100
AcDbBlockEnd
  0
BLOCK
  5
39
330
22
100
AcDbEntity
  8
0
100
AcDbBlockBegin
  2
LOGO
 70
     0
 10
0.0
 20
0.0
 30
0.0
  3
LOGO
  1

  0
ARC
  5
3A
330
22
100
AcDbEntity
  8
0
100
AcDbCircle
 10
11.59973089678112
 20
-9.271599258481501
 30
0.0
 40
4.5
100
AcDbArc
 50
270.0
 51
231.0575587310159
  0
LINE
  5
3B
330
22
100
AcDbEntity
  8
0
100
AcDbLine
 10
3.599730896781125
 20
-4.771599258481529
 30
0.0
 11
3.599730896781153
 21
-11.77159925848133
 31
0.0
  0
LINE
  5
3C
330
22
100
AcDbEntity
  8
0
100
AcDbLine
 10
2.599730896781125
 20
-4.771599258481529
 30
0.0
 11
2.599730896781153
 21
-11.77159925848133
 31
0.0
  0
CIRCLE
  5
3D
330
22
100
AcDbEntity
  8
0
100
AcDbCircle
 10
11.59973089678112
 20
-9.271599258481501
 30
0.0
 40
3.5
  0
ARC
  5
3E
330
22
100
AcDbEntity
  8
0
100
AcDbCircle
 10
31.59973089678115
 20
-9.271599258481472
 30
0.0
 40
4.5
100
AcDbArc
 50
270.0
 51
231.0575587310182
  0
LINE
  5
3F
330
22
100
AcDbEntity
  8
0
100
AcDbLine
 10
17.59973089678112
 20
-4.771599258481472
 30
0.0
 11
17.59973089678115
 21
-13.77159925848147
 31
0.0
  0
ARC
  5
40
330
22
100
AcDbEntity
  8
0
100
AcDbCircle
 10
22.59973089678116
 20
-7.271599258481472
 30
0.0
 40
2.5
100
AcDbArc
 50
293.1161887722295
 51
90.0
  0
CIRCLE
  5
41
330
22
100
AcDbEntity
  8
0
100
AcDbCircle
 10
31.59973089678115
 20
-9.271599258481472
 30
0.0
 40
3.5
  0
ARC
  5
42
330
22
100
AcDbEntity
  8
0
100
AcDbCircle
 10
4.599730896781153
 20
-11.77159925848133
 30
0.0
 40
1.0
100
AcDbArc
 50
180.0
 51
270.0
  0
ARC
  5
43
330
22
100
AcDbEntity
  8
0
100
AcDbCircle
 10
4.599730896781153
 20
-11.77159925848133
 30
0.0
 40
2.0
100
AcDbArc
 50
179.9999999999992
 51
270.0
  0
LINE
  5
44
330
22
100
AcDbEntity
  8
0
100
AcDbLine
 10
11.59973089678115
 20
-13.77159925848144
 30
0.0
 11
4.599730896781153
 21
-13.77159925848147
 31
0.0
  0
LINE
  5
45
330
22
100
AcDbEntity
  8
0
100
AcDbLine
 10
8.771303772034769
 20
-12.77159925848136
 30
0.0
 11
4.599730896781153
 21
-12.77159925848133
 31
0.0
  0
LINE
  5
46
330
22
100
AcDbEntity
  8
0
100
AcDbLine
 10
31.59973089678115
 20
-13.77159925848147
 30
0.0
 11
23.6715276665056
 21
-13.77159925848144
 31
0.0
  0
LINE
  5
47
330
22
100
AcDbEntity
  8
0
100
AcDbLine
 10
23.56565672307022
 20
-9.51278021337896
 30
0.0
 11
24.4388546544846
 21
-12.77159925848144
 31
0.0
  0
LINE
  5
48
330
22
100
AcDbEntity
  8
0
100
AcDbLine
 10
22.59973089678116
 20
-9.771599258481472
 30
0.0
 11
18.59973089678112
 21
-9.771599258481472
 31
0.0
  0
LINE
  5
49
330
22
100
AcDbEntity
  8
0
100
AcDbLine
 10
18.59973089678115
 20
-13.77159925848144
 30
0.0
 11
17.59973089678115
 21
-13.77159925848144
 31
0.0
  0
LINE
  5
4A
330
22
100
AcDbEntity
  8
0
100
AcDbLine
 10
18.59973089678115
 20
-9.771599258481472
 30
0.0
 11
18.59973089678115
 21
-13.77159925848144
 31
0.0
  0
LINE
  5
4B
330
22
100
AcDbEntity
  8
0
100
AcDbLine
 10
22.59973089678116
 20
-9.771599258481472
 30
0.0
 11
23.67152766650562
 21
-13.77159925848147
 31
0.0
  0
ARC
  5
4C
330
22
100
AcDbEntity
  8
0
100
AcDbCircle
 10
22.59973089678116
 20
-7.271599258481472
 30
0.0
 40
2.5
100
AcDbArc
 50
270.0
 51
270.0000000000007
  0
LINE
  5
4D
330
22
100
AcDbEntity
  8
0
100
AcDbLine
 10
28.77130377203494
 20
-12.77159925848147
 30
0.0
 11
24.43885465448463
 21
-12.77159925848144
 31
0.0
  0
LINE
  5
4E
330
22
100
AcDbEntity
  8
0
100
AcDbLine
 10
3.599730896781125
 20
-4.771599258481472
 30
0.0
 11
2.599730896781125
 21
-4.771599258481472
 31
0.0
  0
LINE
  5
4F
330
22
100
AcDbEntity
  8
0
100
AcDbLine
 10
22.59973089678116
 20
-8.771599258481472
 30
0.0
 11
18.59973089678115
 21
-8.771599258481472
 31
0.0
  0
LINE
  5
50
330
22
100
AcDbEntity
  8
0
100
AcDbLine
 10
22.59973089678116
 20
-5.771599258481472
 30
0.0
 11
18.59973089678115
 21
-5.771599258481472
 31
0.0
  0
LINE
  5
51
330
22
100
AcDbEntity
  8
0
100
AcDbLine
 10
22.59973089678116
 20
-4.771599258481472
 30
0.0
 11
17.59973089678115
 21
-4.771599258481472
 31
0.0
  0
LINE
  5
52
330
22
100
AcDbEntity
  8
0
100
AcDbLine
 10
18.59973089678115
 20
-5.771599258481472
 30
0.0
 11
18.59973089678115
 21
-8.771599258481472
 31
0.0
  0
ARC
  5
53
330
22
100
AcDbEntity
  8
0
100
AcDbCircle
 10
22.59973089678116
 20
-7.271599258481472
 30
0.0
 40
1.5
100
AcDbArc
 50
270.0
 51
90.0
  0
ENDBLK
  5
54
330
22
100
AcDbEntity
  8
0
100
AcDbBlockEnd
  0
BLOCK
  5
55
330
23
100
AcDbEntity
  8
0
100
AcDbBlockBegin
  2
LORO
 70
     0
 10
0.0
 20
0.0
 30
0.0
  3
LORO
  1

  0
INSERT
  5
56
330
23
100
AcDbEntity
  8
STEMPEL
100
AcDbBlockReference
  2
LOGO
 10
-1.748032802467321
 20
3.771489518552062
 30
0.0
  0
ENDBLK
  5
57
330
23
100
AcDbEntity
  8
0
100
AcDbBlockEnd
  0
BLOCK
  5
F5E
330
F54
100
AcDbEntity
  8
0
100
AcDbBlockBegin
  2
*D2
 70
     1
 10
0.0
 20
0.0
 30
0.0
  3
*D2
  1

  0
LINE
  5
1021
330
F54
100
AcDbEntity
  8
BEM
 62
     0
370
    -2
100
AcDbLine
 10
52.62578998455285
 20
480.0603595713285
 30
0.0
 11
52.62578998455285
 21
437.7723796926753
 31
0.0
  0
LINE
  5
1022
330
F54
100
AcDbEntity
  8
BEM
 62
     0
370
    -2
100
AcDbLine
 10
382.6257899845528
 20
480.0603595713284
 30
0.0
 11
382.6257899845528
 21
437.7723796926753
 31
0.0
  0
LINE
  5
1023
330
F54
100
AcDbEntity
  8
BEM
 62
     0
370
    -2
100
AcDbLine
 10
59.62578998455285
 20
439.7723796926753
 30
0.0
 11
375.6257899845528
 21
439.7723796926753
 31
0.0
  0
SOLID
  5
1024
330
F54
100
AcDbEntity
  8
BEM
 62
     0
100
AcDbTrace
 10
59.62578998455285
 20
440.939046359342
 30
0.0
 11
59.62578998455285
 21
438.6057130260087
 31
0.0
 12
52.62578998455285
 22
439.7723796926753
 32
0.0
 13
52.62578998455285
 23
439.7723796926753
 33
0.0
  0
SOLID
  5
1025
330
F54
100
AcDbEntity
  8
BEM
 62
     0
100
AcDbTrace
 10
375.6257899845528
 20
440.939046359342
 30
0.0
 11
375.6257899845528
 21
438.6057130260087
 31
0.0
 12
382.6257899845528
 22
439.7723796926753
 32
0.0
 13
382.6257899845528
 23
439.7723796926753
 33
0.0
  0
MTEXT
  5
1026
330
F54
100
AcDbEntity
  8
BEM
 62
     1
100
AcDbMText
 10
217.6257899845528
 20
446.2723796926753
 30
0.0
 40
7.0
 41
0.0
 71
     5
 72
     1
  1
\A1;%%C330
 73
     1
 44
1.0
  0
POINT
  5
1027
330
F54
100
AcDbEntity
  8
DEFPOINTS
 62
     0
100
AcDbPoint
 10
52.62578998455285
 20
482.0603595713286
 30
0.0
  0
POINT
  5
1028
330
F54
100
AcDbEntity
  8
DEFPOINTS
 62
     0
100
AcDbPoint
 10
382.6257899845528
 20
482.0603595713285
 30
0.0
  0
POINT
  5
1029
330
F54
100
AcDbEntity
  8
DEFPOINTS
 62
     0
100
AcDbPoint
 10
382.6257899845528
 20
439.7723796926753
 30
0.0
  0
ENDBLK
  5
F5F
330
F54
100
AcDbEntity
  8
0
100
AcDbBlockEnd
  0
BLOCK
  5
F6A
330
F60
100
AcDbEntity
  8
0
100
AcDbBlockBegin
  2
*D3
 70
     1
 10
0.0
 20
0.0
 30
0.0
  3
*D3
  1

  0
LINE
  5
1018
330
F60
100
AcDbEntity
  8
BEM
 62
     0
370
    -2
100
AcDbLine
 10
166.6257899845528
 20
174.0603595713281
 30
0.0
 11
166.6257899845528
 21
139.713081222793
 31
0.0
  0
LINE
  5
1019
330
F60
100
AcDbEntity
  8
BEM
 62
     0
370
    -2
100
AcDbLine
 10
268.6257899845529
 20
174.0603595713269
 30
0.0
 11
268.6257899845529
 21
139.713081222793
 31
0.0
  0
LINE
  5
101A
330
F60
100
AcDbEntity
  8
BEM
 62
     0
370
    -2
100
AcDbLine
 10
173.6257899845528
 20
141.713081222793
 30
0.0
 11
261.6257899845528
 21
141.713081222793
 31
0.0
  0
SOLID
  5
101B
330
F60
100
AcDbEntity
  8
BEM
 62
     0
100
AcDbTrace
 10
173.6257899845528
 20
142.8797478894596
 30
0.0
 11
173.6257899845528
 21
140.5464145561263
 31
0.0
 12
166.6257899845528
 22
141.713081222793
 32
0.0
 13
166.6257899845528
 23
141.713081222793
 33
0.0
  0
SOLID
  5
101C
330
F60
100
AcDbEntity
  8
BEM
 62
     0
100
AcDbTrace
 10
261.6257899845528
 20
142.8797478894596
 30
0.0
 11
261.6257899845528
 21
140.5464145561263
 31
0.0
 12
268.6257899845529
 22
141.713081222793
 32
0.0
 13
268.6257899845529
 23
141.713081222793
 33
0.0
  0
MTEXT
  5
101D
330
F60
100
AcDbEntity
  8
BEM
 62
     1
100
AcDbMText
 10
217.6257899845528
 20
148.213081222793
 30
0.0
 40
7.0
 41
0.0
 71
     5
 72
     1
  1
\A1;%%C102
 73
     1
 44
1.0
  0
POINT
  5
101E
330
F60
100
AcDbEntity
  8
DEFPOINTS
 62
     0
100
AcDbPoint
 10
166.6257899845528
 20
176.0603595713281
 30
0.0
  0
POINT
  5
101F
330
F60
100
AcDbEntity
  8
DEFPOINTS
 62
     0
100
AcDbPoint
 10
268.6257899845529
 20
176.0603595713269
 30
0.0
  0
POINT
  5
1020
330
F60
100
AcDbEntity
  8
DEFPOINTS
 62
     0
100
AcDbPoint
 10
268.6257899845529
 20
141.713081222793
 30
0.0
  0
ENDBLK
  5
F6B
330
F60
100
AcDbEntity
  8
0
100
AcDbBlockEnd
  0
BLOCK
  5
F76
330
F6C
100
AcDbEntity
  8
0
100
AcDbBlockBegin
  2
*D4
 70
     1
 10
0.0
 20
0.0
 30
0.0
  3
*D4
  1

  0
LINE
  5
100F
330
F6C
100
AcDbEntity
  8
BEM
 62
     0
370
    -2
100
AcDbLine
 10
159.9190341466279
 20
564.0603595713283
 30
0.0
 11
35.76547367225887
 21
564.0603595713283
 31
0.0
  0
LINE
  5
1010
330
F6C
100
AcDbEntity
  8
BEM
 62
     0
370
    -2
100
AcDbLine
 10
50.62578998455285
 20
484.0603595713284
 30
0.0
 11
35.76547367225885
 21
484.0603595713284
 31
0.0
  0
LINE
  5
1011
330
F6C
100
AcDbEntity
  8
BEM
 62
     0
370
    -2
100
AcDbLine
 10
37.76547367225886
 20
557.0603595713284
 30
0.0
 11
37.76547367225885
 21
491.0603595713284
 31
0.0
  0
SOLID
  5
1012
330
F6C
100
AcDbEntity
  8
BEM
 62
     0
100
AcDbTrace
 10
36.5988070055922
 20
557.0603595713284
 30
0.0
 11
38.93214033892553
 21
557.0603595713284
 31
0.0
 12
37.76547367225887
 22
564.0603595713283
 32
0.0
 13
37.76547367225887
 23
564.0603595713283
 33
0.0
  0
SOLID
  5
1013
330
F6C
100
AcDbEntity
  8
BEM
 62
     0
100
AcDbTrace
 10
36.59880700559219
 20
491.0603595713284
 30
0.0
 11
38.93214033892551
 21
491.0603595713284
 31
0.0
 12
37.76547367225885
 22
484.0603595713284
 32
0.0
 13
37.76547367225885
 23
484.0603595713284
 33
0.0
  0
MTEXT
  5
1014
330
F6C
100
AcDbEntity
  8
BEM
 62
     1
100
AcDbMText
 10
31.26547367225878
 20
524.0603595713284
 30
0.0
 40
7.0
 41
0.0
 71
     5
 72
     1
  1
\A1;80
 11
0.0000000000000001
 21
1.0
 31
0.0
 73
     1
 44
1.0
  0
POINT
  5
1015
330
F6C
100
AcDbEntity
  8
DEFPOINTS
 62
     0
100
AcDbPoint
 10
161.9190341466279
 20
564.0603595713283
 30
0.0
  0
POINT
  5
1016
330
F6C
100
AcDbEntity
  8
DEFPOINTS
 62
     0
100
AcDbPoint
 10
52.62578998455285
 20
484.0603595713284
 30
0.0
  0
POINT
  5
1017
330
F6C
100
AcDbEntity
  8
DEFPOINTS
 62
     0
100
AcDbPoint
 10
37.76547367225885
 20
484.0603595713284
 30
0.0
  0
ENDBLK
  5
F77
330
F6C
100
AcDbEntity
  8
0
100
AcDbBlockEnd
  0
BLOCK
  5
F82
330
F78
100
AcDbEntity
  8
0
100
AcDbBlockBegin
  2
*D5
 70
     1
 10
0.0
 20
0.0
 30
0.0
  3
*D5
  1

  0
LINE
  5
1006
330
F78
100
AcDbEntity
  8
BEM
 62
     0
370
    -2
100
AcDbLine
 10
159.9190341466279
 20
564.0603595713283
 30
0.0
 11
22.08668299991198
 21
564.0603595713283
 31
0.0
  0
LINE
  5
1007
330
F78
100
AcDbEntity
  8
BEM
 62
     0
370
    -2
100
AcDbLine
 10
165.6756539468639
 20
164.0603595713284
 30
0.0
 11
22.08668299991189
 21
164.0603595713284
 31
0.0
  0
LINE
  5
1008
330
F78
100
AcDbEntity
  8
BEM
 62
     0
370
    -2
100
AcDbLine
 10
24.08668299991198
 20
557.0603595713284
 30
0.0
 11
24.08668299991189
 21
171.0603595713284
 31
0.0
  0
SOLID
  5
1009
330
F78
100
AcDbEntity
  8
BEM
 62
     0
100
AcDbTrace
 10
22.92001633324531
 20
557.0603595713284
 30
0.0
 11
25.25334966657864
 21
557.0603595713284
 31
0.0
 12
24.08668299991198
 22
564.0603595713283
 32
0.0
 13
24.08668299991198
 23
564.0603595713283
 33
0.0
  0
SOLID
  5
100A
330
F78
100
AcDbEntity
  8
BEM
 62
     0
100
AcDbTrace
 10
22.92001633324522
 20
171.0603595713284
 30
0.0
 11
25.25334966657856
 21
171.0603595713284
 31
0.0
 12
24.08668299991189
 22
164.0603595713284
 32
0.0
 13
24.08668299991189
 23
164.0603595713284
 33
0.0
  0
MTEXT
  5
100B
330
F78
100
AcDbEntity
  8
BEM
 62
     1
100
AcDbMText
 10
17.58668299991187
 20
364.0603595713284
 30
0.0
 40
7.0
 41
0.0
 71
     5
 72
     1
  1
\A1;400
 11
0.0000000000000001
 21
1.0
 31
0.0
 73
     1
 44
1.0
  0
POINT
  5
100C
330
F78
100
AcDbEntity
  8
DEFPOINTS
 62
     0
100
AcDbPoint
 10
161.9190341466279
 20
564.0603595713283
 30
0.0
  0
POINT
  5
100D
330
F78
100
AcDbEntity
  8
DEFPOINTS
 62
     0
100
AcDbPoint
 10
167.6756539468639
 20
164.0603595713284
 30
0.0
  0
POINT
  5
100E
330
F78
100
AcDbEntity
  8
DEFPOINTS
 62
     0
100
AcDbPoint
 10
24.08668299991189
 20
164.0603595713284
 30
0.0
  0
ENDBLK
  5
F83
330
F78
100
AcDbEntity
  8
0
100
AcDbBlockEnd
  0
BLOCK
  5
1360
330
1356
100
AcDbEntity
  8
0
100
AcDbBlockBegin
  2
*D6
 70
     1
 10
0.0
 20
0.0
 30
0.0
  3
*D6
  1

  0
LINE
  5
13F1
330
1356
100
AcDbEntity
  8
BEM
 62
     0
370
    -2
100
AcDbLine
 10
107.6257899845531
 20
667.5603016040126
 30
0.0
 11
107.6257899845531
 21
703.2993279872775
 31
0.0
  0
LINE
  5
13F2
330
1356
100
AcDbEntity
  8
BEM
 62
     0
370
    -2
100
AcDbLine
 10
327.6257899845534
 20
667.5603016040126
 30
0.0
 11
327.6257899845534
 21
703.2993279872775
 31
0.0
  0
LINE
  5
13F3
330
1356
100
AcDbEntity
  8
BEM
 62
     0
370
    -2
100
AcDbLine
 10
114.6257899845531
 20
701.2993279872776
 30
0.0
 11
320.6257899845533
 21
701.2993279872776
 31
0.0
  0
SOLID
  5
13F4
330
1356
100
AcDbEntity
  8
BEM
 62
     0
100
AcDbTrace
 10
114.6257899845531
 20
702.4659946539442
 30
0.0
 11
114.6257899845531
 21
700.1326613206109
 31
0.0
 12
107.6257899845531
 22
701.2993279872776
 32
0.0
 13
107.6257899845531
 23
701.2993279872776
 33
0.0
  0
SOLID
  5
13F5
330
1356
100
AcDbEntity
  8
BEM
 62
     0
100
AcDbTrace
 10
320.6257899845533
 20
702.4659946539442
 30
0.0
 11
320.6257899845533
 21
700.1326613206109
 31
0.0
 12
327.6257899845534
 22
701.2993279872776
 32
0.0
 13
327.6257899845534
 23
701.2993279872776
 33
0.0
  0
MTEXT
  5
13F6
330
1356
100
AcDbEntity
  8
BEM
 62
     1
100
AcDbMText
 10
217.6257899845532
 20
707.7993279872775
 30
0.0
 40
7.0
 41
0.0
 71
     5
 72
     1
  1
\A1;%%c220
 73
     1
 44
1.0
  0
POINT
  5
13F7
330
1356
100
AcDbEntity
  8
DEFPOINTS
 62
     0
100
AcDbPoint
 10
107.6257899845531
 20
665.5603016040125
 30
0.0
  0
POINT
  5
13F8
330
1356
100
AcDbEntity
  8
DEFPOINTS
 62
     0
100
AcDbPoint
 10
327.6257899845534
 20
665.5603016040125
 30
0.0
  0
POINT
  5
13F9
330
1356
100
AcDbEntity
  8
DEFPOINTS
 62
     0
100
AcDbPoint
 10
327.6257899845534
 20
701.2993279872776
 30
0.0
  0
ENDBLK
  5
1361
330
1356
100
AcDbEntity
  8
0
100
AcDbBlockEnd
  0
BLOCK
  5
136C
330
1362
100
AcDbEntity
  8
0
100
AcDbBlockBegin
  2
*D7
 70
     1
 10
0.0
 20
0.0
 30
0.0
  3
*D7
  1

  0
LINE
  5
13E8
330
1362
100
AcDbEntity
  8
BEM
 62
     0
370
    -2
100
AcDbLine
 10
87.62578998455305
 20
598.560359571329
 30
0.0
 11
87.62578998455307
 21
717.6685487050016
 31
0.0
  0
LINE
  5
13E9
330
1362
100
AcDbEntity
  8
BEM
 62
     0
370
    -2
100
AcDbLine
 10
347.625789984553
 20
598.5603595713278
 30
0.0
 11
347.625789984553
 21
717.6685487050016
 31
0.0
  0
LINE
  5
13EA
330
1362
100
AcDbEntity
  8
BEM
 62
     0
370
    -2
100
AcDbLine
 10
94.62578998455306
 20
715.6685487050016
 30
0.0
 11
340.625789984553
 21
715.6685487050016
 31
0.0
  0
SOLID
  5
13EB
330
1362
100
AcDbEntity
  8
BEM
 62
     0
100
AcDbTrace
 10
94.62578998455306
 20
716.8352153716682
 30
0.0
 11
94.62578998455306
 21
714.501882038335
 31
0.0
 12
87.62578998455307
 22
715.6685487050016
 32
0.0
 13
87.62578998455307
 23
715.6685487050016
 33
0.0
  0
SOLID
  5
13EC
330
1362
100
AcDbEntity
  8
BEM
 62
     0
100
AcDbTrace
 10
340.625789984553
 20
716.8352153716682
 30
0.0
 11
340.625789984553
 21
714.501882038335
 31
0.0
 12
347.625789984553
 22
715.6685487050016
 32
0.0
 13
347.625789984553
 23
715.6685487050016
 33
0.0
  0
MTEXT
  5
13ED
330
1362
100
AcDbEntity
  8
BEM
 62
     1
100
AcDbMText
 10
217.6257899845531
 20
722.1685487050016
 30
0.0
 40
7.0
 41
0.0
 71
     5
 72
     1
  1
\A1;%%c260
 73
     1
 44
1.0
  0
POINT
  5
13EE
330
1362
100
AcDbEntity
  8
DEFPOINTS
 62
     0
100
AcDbPoint
 10
87.62578998455305
 20
596.560359571329
 30
0.0
  0
POINT
  5
13EF
330
1362
100
AcDbEntity
  8
DEFPOINTS
 62
     0
100
AcDbPoint
 10
347.625789984553
 20
596.5603595713279
 30
0.0
  0
POINT
  5
13F0
330
1362
100
AcDbEntity
  8
DEFPOINTS
 62
     0
100
AcDbPoint
 10
347.625789984553
 20
715.6685487050016
 30
0.0
  0
ENDBLK
  5
136D
330
1362
100
AcDbEntity
  8
0
100
AcDbBlockEnd
  0
BLOCK
  5
1378
330
136E
100
AcDbEntity
  8
0
100
AcDbBlockBegin
  2
*D8
 70
     1
 10
0.0
 20
0.0
 30
0.0
  3
*D8
  1

  0
LINE
  5
13DF
330
136E
100
AcDbEntity
  8
BEM
 62
     0
370
    -2
100
AcDbLine
 10
85.62578998455316
 20
595.5603595713281
 30
0.0
 11
59.96452998947758
 21
595.5603595713281
 31
0.0
  0
LINE
  5
13E0
330
136E
100
AcDbEntity
  8
BEM
 62
     0
370
    -2
100
AcDbLine
 10
135.6257899845531
 20
685.5603595713273
 30
0.0
 11
59.9645299894776
 21
685.5603595713273
 31
0.0
  0
LINE
  5
13E1
330
136E
100
AcDbEntity
  8
BEM
 62
     0
370
    -2
100
AcDbLine
 10
61.96452998947759
 20
602.5603595713281
 30
0.0
 11
61.96452998947759
 21
678.5603595713273
 31
0.0
  0
SOLID
  5
13E2
330
136E
100
AcDbEntity
  8
BEM
 62
     0
100
AcDbTrace
 10
60.79786332281091
 20
602.5603595713281
 30
0.0
 11
63.13119665614425
 21
602.5603595713281
 31
0.0
 12
61.96452998947759
 22
595.5603595713281
 32
0.0
 13
61.96452998947759
 23
595.5603595713281
 33
0.0
  0
SOLID
  5
13E3
330
136E
100
AcDbEntity
  8
BEM
 62
     0
100
AcDbTrace
 10
60.79786332281093
 20
678.5603595713273
 30
0.0
 11
63.13119665614426
 21
678.5603595713273
 31
0.0
 12
61.96452998947759
 22
685.5603595713273
 32
0.0
 13
61.96452998947759
 23
685.5603595713273
 33
0.0
  0
MTEXT
  5
13E4
330
136E
100
AcDbEntity
  8
BEM
 62
     1
100
AcDbMText
 10
55.46452998947749
 20
640.5603595713277
 30
0.0
 40
7.0
 41
0.0
 71
     5
 72
     1
  1
\A1;90
 11
0.0000000000000001
 21
1.0
 31
0.0
 73
     1
 44
1.0
  0
POINT
  5
13E5
330
136E
100
AcDbEntity
  8
DEFPOINTS
 62
     0
100
AcDbPoint
 10
87.62578998455316
 20
595.5603595713281
 30
0.0
  0
POINT
  5
13E6
330
136E
100
AcDbEntity
  8
DEFPOINTS
 62
     0
100
AcDbPoint
 10
137.6257899845531
 20
685.5603595713273
 30
0.0
  0
POINT
  5
13E7
330
136E
100
AcDbEntity
  8
DEFPOINTS
 62
     0
100
AcDbPoint
 10
61.96452998947759
 20
685.5603595713273
 30
0.0
  0
ENDBLK
  5
1379
330
136E
100
AcDbEntity
  8
0
100
AcDbBlockEnd
  0
BLOCK
  5
1386
330
137A
100
AcDbEntity
  8
0
100
AcDbBlockBegin
  2
*D9
 70
     1
 10
0.0
 20
0.0
 30
0.0
  3
*D9
  1

  0
LINE
  5
13D4
330
137A
100
AcDbEntity
  8
BEM
 62
     0
370
    -2
100
AcDbLine
 10
85.62578998455293
 20
595.5603595713281
 30
0.0
 11
59.96452998947757
 21
595.5603595713281
 31
0.0
  0
LINE
  5
13D5
330
137A
100
AcDbEntity
  8
BEM
 62
     0
370
    -2
100
AcDbLine
 10
80.62578998455299
 20
580.5603595713282
 30
0.0
 11
59.96452998947757
 21
580.5603595713282
 31
0.0
  0
LINE
  5
13D6
330
137A
100
AcDbEntity
  8
BEM
 62
     0
370
    -2
100
AcDbLine
 10
61.96452998947758
 20
602.5603595713281
 30
0.0
 11
61.96452998947758
 21
609.5603595713281
 31
0.0
  0
LINE
  5
13D7
330
137A
100
AcDbEntity
  8
BEM
 62
     0
370
    -2
100
AcDbLine
 10
61.96452998947757
 20
573.5603595713282
 30
0.0
 11
61.96452998947757
 21
566.5603595713283
 31
0.0
  0
LINE
  5
13D8
330
137A
100
AcDbEntity
  8
BEM
 62
     0
370
    -2
100
AcDbLine
 10
61.96452998947758
 20
595.5603595713281
 30
0.0
 11
61.96452998947757
 21
580.5603595713282
 31
0.0
  0
SOLID
  5
13D9
330
137A
100
AcDbEntity
  8
BEM
 62
     0
100
AcDbTrace
 10
60.79786332281091
 20
602.5603595713281
 30
0.0
 11
63.13119665614424
 21
602.5603595713281
 31
0.0
 12
61.96452998947758
 22
595.5603595713281
 32
0.0
 13
61.96452998947758
 23
595.5603595713281
 33
0.0
  0
SOLID
  5
13DA
330
137A
100
AcDbEntity
  8
BEM
 62
     0
100
AcDbTrace
 10
60.7978633228109
 20
573.5603595713282
 30
0.0
 11
63.13119665614423
 21
573.5603595713282
 31
0.0
 12
61.96452998947757
 22
580.5603595713282
 32
0.0
 13
61.96452998947757
 23
580.5603595713282
 33
0.0
  0
MTEXT
  5
13DB
330
137A
100
AcDbEntity
  8
BEM
 62
     1
100
AcDbMText
 10
55.46452998947748
 20
588.0603595713282
 30
0.0
 40
7.0
 41
0.0
 71
     5
 72
     1
  1
\A1;15
 11
0.0000000000000001
 21
1.0
 31
0.0
 73
     1
 44
1.0
  0
POINT
  5
13DC
330
137A
100
AcDbEntity
  8
DEFPOINTS
 62
     0
100
AcDbPoint
 10
87.62578998455294
 20
595.5603595713281
 30
0.0
  0
POINT
  5
13DD
330
137A
100
AcDbEntity
  8
DEFPOINTS
 62
     0
100
AcDbPoint
 10
82.625789984553
 20
580.5603595713282
 30
0.0
  0
POINT
  5
13DE
330
137A
100
AcDbEntity
  8
DEFPOINTS
 62
     0
100
AcDbPoint
 10
61.96452998947757
 20
580.5603595713282
 30
0.0
  0
ENDBLK
  5
1387
330
137A
100
AcDbEntity
  8
0
100
AcDbBlockEnd
  0
BLOCK
  5
1432
330
1428
100
AcDbEntity
  8
0
100
AcDbBlockBegin
  2
*D10
 70
     1
 10
0.0
 20
0.0
 30
0.0
  3
*D10
  1

  0
LINE
  5
143E
330
1428
100
AcDbEntity
  8
BEM
 62
     0
370
    -2
100
AcDbLine
 10
352.6257899845529
 20
582.5603595713289
 30
0.0
 11
352.6257899845529
 21
732.8055753268361
 31
0.0
  0
LINE
  5
143F
330
1428
100
AcDbEntity
  8
BEM
 62
     0
370
    -2
100
AcDbLine
 10
82.62578998455301
 20
582.5603595713284
 30
0.0
 11
82.62578998455303
 21
732.8055753268361
 31
0.0
  0
LINE
  5
1440
330
1428
100
AcDbEntity
  8
BEM
 62
     0
370
    -2
100
AcDbLine
 10
345.6257899845529
 20
730.805575326836
 30
0.0
 11
89.62578998455304
 21
730.805575326836
 31
0.0
  0
SOLID
  5
1441
330
1428
100
AcDbEntity
  8
BEM
 62
     0
100
AcDbTrace
 10
345.6257899845529
 20
731.9722419935027
 30
0.0
 11
345.6257899845529
 21
729.6389086601695
 31
0.0
 12
352.6257899845529
 22
730.805575326836
 32
0.0
 13
352.6257899845529
 23
730.805575326836
 33
0.0
  0
SOLID
  5
1442
330
1428
100
AcDbEntity
  8
BEM
 62
     0
100
AcDbTrace
 10
89.62578998455304
 20
731.9722419935027
 30
0.0
 11
89.62578998455304
 21
729.6389086601695
 31
0.0
 12
82.62578998455303
 22
730.805575326836
 32
0.0
 13
82.62578998455303
 23
730.805575326836
 33
0.0
  0
MTEXT
  5
1443
330
1428
100
AcDbEntity
  8
BEM
 62
     1
100
AcDbMText
 10
217.625789984553
 20
737.3055753268361
 30
0.0
 40
7.0
 41
0.0
 71
     5
 72
     1
  1
\A1;%%c270
 73
     1
 44
1.0
  0
POINT
  5
1444
330
1428
100
AcDbEntity
  8
DEFPOINTS
 62
     0
100
AcDbPoint
 10
352.6257899845529
 20
580.5603595713289
 30
0.0
  0
POINT
  5
1445
330
1428
100
AcDbEntity
  8
DEFPOINTS
 62
     0
100
AcDbPoint
 10
82.62578998455301
 20
580.5603595713283
 30
0.0
  0
POINT
  5
1446
330
1428
100
AcDbEntity
  8
DEFPOINTS
 62
     0
100
AcDbPoint
 10
82.62578998455303
 20
730.805575326836
 30
0.0
  0
ENDBLK
  5
1433
330
1428
100
AcDbEntity
  8
0
100
AcDbBlockEnd
  0
ENDSEC
  0
SECTION
  2
ENTITIES
  0
LINE
  5
58
330
1E
100
AcDbEntity
  8
STEMPEL
100
AcDbLine
 10
484.0
 20
830.0000000000002
 30
0.0
 11
484.0
 21
470.0000000000001
 31
0.0
  0
LINE
  5
59
330
1E
100
AcDbEntity
  8
STEMPEL
100
AcDbLine
 10
484.0
 20
470.0000000000001
 30
0.0
 11
584.0
 21
470.0000000000001
 31
0.0
  0
LINE
  5
5A
330
1E
100
AcDbEntity
  8
STEMPEL
100
AcDbLine
 10
484.0000000000001
 20
566.0000000000002
 30
0.0
 11
584.0000000000001
 21
566.0
 31
0.0
  0
LINE
  5
5B
330
1E
100
AcDbEntity
  8
STEMPEL
100
AcDbLine
 10
484.0
 20
650.0
 30
0.0
 11
584.0
 21
650.0
 31
0.0
  0
LINE
  5
5C
330
1E
100
AcDbEntity
  8
STEMPEL
100
AcDbLine
 10
484.0000000000003
 20
752.0000000000002
 30
0.0
 11
554.0
 21
752.0000000000002
 31
0.0
  0
LINE
  5
5D
330
1E
100
AcDbEntity
  8
STEMPEL
100
AcDbLine
 10
564.0
 20
566.0
 30
0.0
 11
564.0
 21
470.0000000000001
 31
0.0
  0
LINE
  5
5E
330
1E
100
AcDbEntity
  8
STEMPEL
100
AcDbLine
 10
554.0
 20
830.0000000000002
 30
0.0
 11
554.0
 21
566.0
 31
0.0
  0
LINE
  5
5F
330
1E
100
AcDbEntity
  8
STEMPEL
100
AcDbLine
 10
514.0
 20
830.0000000000002
 30
0.0
 11
514.0
 21
566.0000000000002
 31
0.0
  0
LINE
  5
60
330
1E
100
AcDbEntity
  8
VOLL
100
AcDbLine
 10
484.0
 20
484.0000000000001
 30
0.0
 11
584.0
 21
484.0
 31
0.0
  0
LINE
  5
61
330
1E
100
AcDbEntity
  8
VOLL
100
AcDbLine
 10
484.0000000000001
 20
524.0000000000001
 30
0.0
 11
584.0000000000001
 21
524.0
 31
0.0
  0
LINE
  5
62
330
1E
100
AcDbEntity
  8
VOLL
100
AcDbLine
 10
484.0000000000001
 20
544.0000000000002
 30
0.0
 11
584.0000000000001
 21
544.0
 31
0.0
  0
LINE
  5
63
330
1E
100
AcDbEntity
  8
VOLL
100
AcDbLine
 10
514.0
 20
584.0000000000002
 30
0.0
 11
554.0
 21
584.0000000000002
 31
0.0
  0
LINE
  5
64
330
1E
100
AcDbEntity
  8
VOLL
100
AcDbLine
 10
484.0000000000002
 20
610.0000000000002
 30
0.0
 11
554.0
 21
610.0
 31
0.0
  0
LINE
  5
65
330
1E
100
AcDbEntity
  8
HILF
100
AcDbLine
 10
494.0
 20
470.0000000000001
 30
0.0
 11
494.0
 21
566.0000000000002
 31
0.0
  0
LINE
  5
66
330
1E
100
AcDbEntity
  8
HILF
100
AcDbLine
 10
504.0
 20
470.0000000000001
 30
0.0
 11
504.0
 21
566.0000000000002
 31
0.0
  0
LINE
  5
67
330
1E
100
AcDbEntity
  8
HILF
100
AcDbLine
 10
514.0
 20
470.0000000000001
 30
0.0
 11
514.0
 21
566.0000000000002
 31
0.0
  0
LINE
  5
68
330
1E
100
AcDbEntity
  8
HILF
100
AcDbLine
 10
524.0
 20
470.0000000000001
 30
0.0
 11
524.0
 21
566.0000000000002
 31
0.0
  0
LINE
  5
69
330
1E
100
AcDbEntity
  8
HILF
100
AcDbLine
 10
534.0
 20
470.0000000000001
 30
0.0
 11
534.0
 21
566.0000000000002
 31
0.0
  0
LINE
  5
6A
330
1E
100
AcDbEntity
  8
HILF
100
AcDbLine
 10
544.0
 20
470.0000000000001
 30
0.0
 11
544.0
 21
566.0000000000002
 31
0.0
  0
LINE
  5
6B
330
1E
100
AcDbEntity
  8
HILF
100
AcDbLine
 10
554.0
 20
470.0000000000001
 30
0.0
 11
554.0
 21
566.0000000000002
 31
0.0
  0
LINE
  5
6C
330
1E
100
AcDbEntity
  8
HILF
100
AcDbLine
 10
524.0
 20
566.0000000000002
 30
0.0
 11
524.0
 21
650.0
 31
0.0
  0
LINE
  5
6D
330
1E
100
AcDbEntity
  8
HILF
100
AcDbLine
 10
534.0
 20
566.0000000000002
 30
0.0
 11
534.0
 21
650.0
 31
0.0
  0
LINE
  5
6E
330
1E
100
AcDbEntity
  8
HILF
100
AcDbLine
 10
544.0
 20
566.0000000000002
 30
0.0
 11
544.0
 21
650.0
 31
0.0
  0
LINE
  5
6F
330
1E
100
AcDbEntity
  8
HILF
100
AcDbLine
 10
509.9624175243587
 20
654.7736801096948
 30
0.0
 11
509.9624175243587
 21
746.6297842514811
 31
0.0
  0
LINE
  5
70
330
1E
100
AcDbEntity
  8
HILF
100
AcDbLine
 10
524.0
 20
654.7736801096948
 30
0.0
 11
524.0
 21
746.6297842514811
 31
0.0
  0
LINE
  5
71
330
1E
100
AcDbEntity
  8
HILF
100
AcDbLine
 10
534.0
 20
654.7736801096948
 30
0.0
 11
534.0
 21
746.6297842514811
 31
0.0
  0
LINE
  5
72
330
1E
100
AcDbEntity
  8
HILF
100
AcDbLine
 10
544.0
 20
654.7736801096948
 30
0.0
 11
544.0
 21
746.6297842514811
 31
0.0
  0
LINE
  5
73
330
1E
100
AcDbEntity
  8
VOLL
100
AcDbLine
 10
534.0
 20
752.0000000000002
 30
0.0
 11
534.0
 21
830.0000000000002
 31
0.0
  0
LINE
  5
74
330
1E
100
AcDbEntity
  8
HILF
100
AcDbLine
 10
510.2201636304418
 20
756.7238616296995
 30
0.0
 11
510.2201636304418
 21
824.858883932673
 31
0.0
  0
LINE
  5
75
330
1E
100
AcDbEntity
  8
HILF
100
AcDbLine
 10
579.1060174197169
 20
654.7736801096948
 30
0.0
 11
579.1060174197169
 21
824.858883932673
 31
0.0
  0
TEXT
  5
76
330
1E
100
AcDbEntity
  8
TEXT
100
AcDbText
 10
575.3261810501587
 20
492.3998239263297
 30
0.0
 40
4.0
  1
Änderung
 50
90.0
 41
0.8
  7
GREEKS
 72
     1
 11
575.3261810501587
 21
503.1426810691868
 31
0.0
100
AcDbText
  0
TEXT
  5
78
330
1E
100
AcDbEntity
  8
TEXT
100
AcDbText
 10
491.5379104912911
 20
573.5163572150376
 30
0.0
 40
5.0
  1
Maßstab
 50
90.0
 41
0.8
  7
GREEKS
100
AcDbText
  0
TEXT
  5
79
330
1E
100
AcDbEntity
  8
TEXT
100
AcDbText
 10
491.4510671988221
 20
654.8779403809009
 30
0.0
 40
5.0
  1
Benennung
 50
90.0
 41
0.8
  7
GREEKS
100
AcDbText
  0
TEXT
  5
7A
330
1E
100
AcDbEntity
  8
TEXT
100
AcDbText
 10
491.6867965462863
 20
756.1787549576343
 30
0.0
 40
5.0
  1
Zeichnungs Nr.
 50
90.0
 41
0.8
  7
GREEKS
100
AcDbText
  0
TEXT
  5
7B
330
1E
100
AcDbEntity
  8
TEXT
100
AcDbText
 10
563.1543942980694
 20
654.7422383911359
 30
0.0
 40
5.0
  1
Bauvorhaben
 50
90.0
 41
0.8
  7
GREEKS
100
AcDbText
  0
TEXT
  5
7C
330
1E
100
AcDbEntity
  8
TEXT
100
AcDbText
 10
520.8188176290003
 20
756.7238616296995
 30
0.0
 40
5.0
  1
Ersatz für:
 50
90.0
 41
0.8
  7
GREEKS
100
AcDbText
  0
TEXT
  5
7D
330
1E
100
AcDbEntity
  8
TEXT
100
AcDbText
 10
580.3453415397281
 20
478.2664110704577
 30
0.0
 40
4.0
  1
Index
 50
180.0
 41
0.8
  7
GREEKS
100
AcDbText
  0
TEXT
  5
7E
330
1E
100
AcDbEntity
  8
TEXT
100
AcDbText
 10
575.3284373066019
 20
529.8990113186978
 30
0.0
 40
4.0
  1
Tag
 50
90.0
 41
0.8
  7
GREEKS
 72
     1
 11
575.3284373066019
 21
533.6323446520311
 31
0.0
100
AcDbText
  0
TEXT
  5
7F
330
1E
100
AcDbEntity
  8
TEXT
100
AcDbText
 10
575.4067578303359
 20
548.9795678138292
 30
0.0
 40
4.0
  1
Name
 50
90.0
 41
0.8
  7
GREEKS
 72
     1
 11
575.4067578303359
 21
555.3033773376387
 31
0.0
100
AcDbText
  0
TEXT
  5
80
330
1E
100
AcDbEntity
  8
TEXT
100
AcDbText
 10
520.6811949877008
 20
592.3311673153651
 30
0.0
 40
4.0
  1
Tag
 50
90.0
 41
0.8
  7
GREEKS
100
AcDbText
  0
TEXT
  5
81
330
1E
100
AcDbEntity
  8
TEXT
100
AcDbText
 10
520.6903890808478
 20
622.4626584226296
 30
0.0
 40
4.0
  1
Name
 50
90.0
 41
0.8
  7
GREEKS
100
AcDbText
  0
TEXT
  5
82
330
1E
100
AcDbEntity
  8
TEXT
100
AcDbText
 10
530.3700963038204
 20
567.5836127167615
 30
0.0
 40
4.0
  1
Gez.
 50
90.0
 41
0.8
  7
GREEKS
100
AcDbText
  0
TEXT
  5
83
330
1E
100
AcDbEntity
  8
TEXT
100
AcDbText
 10
540.3107370857163
 20
567.5515086571672
 30
0.0
 40
4.0
  1
Gepr.
 50
90.0
 41
0.8
  7
GREEKS
100
AcDbText
  0
TEXT
  5
84
330
1E
100
AcDbEntity
  8
TEXT
100
AcDbText
 10
550.470536103502
 20
567.6006777387303
 30
0.0
 40
4.0
  1
Norm.
 50
90.0
 41
0.8
  7
GREEKS
100
AcDbText
  0
TEXT
  5
85
330
1E
100
AcDbEntity
  8
TEXT
100
AcDbText
 10
541.925838221214
 20
757.2400861497007
 30
0.0
 40
5.0
  1
ersetzt durch:
 50
90.0
 41
0.8
  7
GREEKS
100
AcDbText
  0
TEXT
  5
86
330
1E
100
AcDbEntity
  8
TEXT
100
AcDbText
 10
521.0331740347627
 20
568.8693027807324
 30
0.0
 40
4.0
  1
2012
 50
90.0
 41
0.8
  7
GREEKS
100
AcDbText
  0
LINE
  5
87
330
1E
100
AcDbEntity
  8
HILF
100
AcDbLine
 10
594.0
 20
-0.0000000000000568
 30
0.0
 11
594.0
 21
840.0
 31
0.0
  0
LINE
  5
88
330
1E
100
AcDbEntity
  8
HILF
100
AcDbLine
 10
594.0
 20
840.0
 30
0.0
 11
0.0
 21
840.0
 31
0.0
  0
LINE
  5
89
330
1E
100
AcDbEntity
  8
HILF
100
AcDbLine
 10
0.0
 20
840.0
 30
0.0
 11
0.0
 21
0.0
 31
0.0
  0
LINE
  5
8B
330
1E
100
AcDbEntity
  8
STEMPEL
100
AcDbLine
 10
10.0
 20
830.0
 30
0.0
 11
10.0
 21
39.99999999999995
 31
0.0
  0
LINE
  5
8D
330
1E
100
AcDbEntity
  8
STEMPEL
100
AcDbLine
 10
584.0
 20
39.99999999999995
 30
0.0
 11
584.0
 21
830.0
 31
0.0
  0
LINE
  5
8E
330
1E
100
AcDbEntity
  8
STEMPEL
100
AcDbLine
 10
584.0
 20
830.0
 30
0.0
 11
10.0
 21
830.0
 31
0.0
  0
TEXT
  5
8F
330
1E
100
AcDbEntity
  8
TEXT
 62
     1
100
AcDbText
 10
506.6265692434746
 20
655.0390572473189
 30
0.0
 40
7.0
  1
Hauptentwässerung
 50
90.0
 41
0.8
  7
GREEKS
100
AcDbText
  0
TEXT
  5
90
330
1E
100
AcDbEntity
  8
TEXT
 62
     1
100
AcDbText
 10
506.6265692434746
 20
767.7294755517469
 30
0.0
 40
7.0
  1
19515100W
 50
90.0
 41
0.8
  7
GREEKS
 72
     1
 11
506.6265692434746
 21
790.1294755517469
 31
0.0
100
AcDbText
  0
TEXT
  5
91
330
1E
100
AcDbEntity
  8
TEXT
100
AcDbText
 10
491.16010388621
 20
618.5090226415829
 30
0.0
 40
5.0
  1
Zul.Abw.
 50
90.0
 41
0.8
  7
GREEKS
100
AcDbText
  0
TEXT
  5
93
330
1E
100
AcDbEntity
  8
TEXT
100
AcDbText
 10
530.8491412387978
 20
590.4612856559488
 30
0.0
 40
4.0
  1
17.08.
 50
90.0
 41
0.8
  7
GREEKS
 72
     1
 11
530.8491412387978
 21
597.1660475607107
 31
0.0
100
AcDbText
  0
TEXT
  5
94
330
1E
100
AcDbEntity
  8
TEXT
100
AcDbText
 10
531.0570234483452
 20
624.0231753226609
 30
0.0
 40
4.0
  1
Koeh
 50
90.0
 41
0.8
  7
GREEKS
 72
     1
 11
531.0570234483452
 21
629.2803181798038
 31
0.0
100
AcDbText
  0
TEXT
  5
95
330
1E
100
AcDbEntity
  8
TEXT
100
AcDbText
 10
521.8997861689246
 20
654.3410940884991
 30
0.0
 40
5.0
  1
Dachdurchführung DN100
 50
90.0
 41
0.8
  7
GREEKS
100
AcDbText
  0
TEXT
  5
96
330
1E
100
AcDbEntity
  8
TEXT
100
AcDbText
 10
531.6544091479096
 20
654.3410940884991
 30
0.0
 40
5.0
  1
Freispiegelströmung
 50
90.0
 41
0.8
  7
GREEKS
100
AcDbText
  0
TEXT
  5
97
330
1E
100
AcDbEntity
  8
TEXT
100
AcDbText
 10
541.4090266215394
 20
654.3410940884991
 30
0.0
 40
5.0
  1
EDV-Art.Nr. 19515.100X
 50
90.0
 41
0.8
  7
GREEKS
100
AcDbText
  0
TEXT
  5
98
330
1E
100
AcDbEntity
  8
TEXT
100
AcDbText
 10
550.6887237520849
 20
654.1676050109347
 30
0.0
 40
4.0
  1
19515100W.DWG
 50
90.0
 41
0.8
  7
GREEKS
100
AcDbText
  0
TEXT
  5
99
330
1E
100
AcDbEntity
  8
TEXT
 62
     1
100
AcDbText
 10
506.5292291158502
 20
582.703491203422
 30
0.0
 40
7.0
  1
1:2
 50
90.0
 41
0.8
  7
GREEKS
100
AcDbText
  0
TEXT
  5
9A
330
1E
100
AcDbEntity
  8
TEXT
100
AcDbText
 10
479.8856414948956
 20
470.0441139350127
 30
0.0
 40
5.0
  1
Erstellt mit AUTOCAD 2004
 50
90.0
 41
0.8
  7
GREEKS
100
AcDbText
  0
INSERT
  5
9B
330
1E
100
AcDbEntity
  8
HILF
100
AcDbBlockReference
  2
LORO
 10
557.0194069970104
 20
573.0624985962354
 30
0.0
 41
2.0
 42
2.0
 43
2.0
 50
90.0
  0
LINE
  5
9C
330
1E
100
AcDbEntity
  8
BEM
100
AcDbLine
 10
594.0
 20
455.9999999999999
 30
0.0
 11
584.0
 21
455.9999999999999
 31
0.0
  0
LINE
  5
13E
330
1E
100
AcDbEntity
  8
HILF
100
AcDbLine
 10
594.0
 20
-0.0000000000000568
 30
0.0
 11
0.0
 21
0.0
 31
0.0
  0
LINE
  5
13F
330
1E
100
AcDbEntity
  8
STEMPEL
100
AcDbLine
 10
584.0
 20
39.99999999999995
 30
0.0
 11
10.0
 21
39.99999999999995
 31
0.0
  0
LINE
  5
14A
330
1E
100
AcDbEntity
  8
HILF
100
AcDbLine
 10
297.0
 20
-0.0000000000000568
 30
0.0
 11
297.0
 21
39.99999999999995
 31
0.0
  0
TEXT
  5
15B
330
1E
100
AcDbEntity
  8
BEM
100
AcDbText
 10
583.8320989200114
 20
837.3022923857165
 30
0.0
 40
4.0
  1
Diese Zeichnung ist urheberrechtlich geschützt und bleibt unser Eigentum. Sie darf weder ganz noch teilweise verfielfältigt und nicht an Dritte weitergegeben werden.
 50
180.0
 41
0.8
  7
GREEKS
100
AcDbText
  0
LINE
  5
19C
330
1E
100
AcDbEntity
  8
BEM
100
AcDbLine
 10
0.0
 20
455.9999999999999
 30
0.0
 11
10.0
 21
455.9999999999999
 31
0.0
  0
LINE
  5
D43
330
1E
100
AcDbEntity
  8
STEMPEL
100
AcDbLine
 10
166.6257899845527
 20
571.0603595713284
 30
0.0
 11
163.8135145095115
 21
571.0603595713284
 31
0.0
  0
LINE
  5
D44
330
1E
100
AcDbEntity
  8
STEMPEL
100
AcDbLine
 10
263.28373333475
 20
571.0603595713284
 30
0.0
 11
258.149364144853
 21
571.0603595713284
 31
0.0
  0
LINE
  5
D48
330
1E
100
AcDbEntity
  8
STEMPEL
100
AcDbLine
 10
164.1257899845528
 20
564.0603595713285
 30
0.0
 11
161.9190341466276
 21
564.0603595713285
 31
0.0
  0
ARC
  5
D4A
330
1E
100
AcDbEntity
  8
STEMPEL
100
AcDbCircle
 10
271.8757899845528
 20
564.1188803148691
 30
0.0
 40
4.0
100
AcDbArc
 50
0.0
 51
31.85429407935252
  0
LINE
  5
D4B
330
1E
100
AcDbEntity
  8
STEMPEL
100
AcDbLine
 10
275.8757899845528
 20
564.1188803148691
 30
0.0
 11
275.8757899845528
 21
564.0603595713282
 31
0.0
  0
POINT
  5
D4C
330
1E
100
AcDbEntity
  8
DEFPOINTS
  6
ByBlock
 62
     0
100
AcDbPoint
 10
275.8757899845528
 20
564.0603595713282
 30
0.0
  0
LINE
  5
D4D
330
1E
100
AcDbEntity
  8
STEMPEL
100
AcDbLine
 10
275.2733618351785
 20
566.2299240187831
 30
0.0
 11
272.7121549035788
 21
570.3520009602962
 31
0.0
  0
LINE
  5
D4E
330
1E
100
AcDbEntity
  8
STEMPEL
100
AcDbLine
 10
268.6257899845529
 20
564.8603595713284
 30
0.0
 11
269.9891767201606
 21
569.9485881389821
 31
0.0
  0
POINT
  5
D4F
330
1E
100
AcDbEntity
  8
DEFPOINTS
  6
ByBlock
 62
     0
100
AcDbPoint
 10
268.4257899845529
 20
564.8603595713284
 30
0.0
  0
ARC
  5
D50
330
1E
100
AcDbEntity
  8
STEMPEL
100
AcDbCircle
 10
271.4380654595942
 20
569.5603595713285
 30
0.0
 40
1.5
100
AcDbArc
 50
31.85429407935114
 51
164.9999999999984
  0
LINE
  5
D51
330
1E
100
AcDbEntity
  8
STEMPEL
100
AcDbLine
 10
268.4257899845529
 20
564.8603595713284
 30
0.0
 11
268.4257899845527
 21
542.8389700571247
 31
0.0
  0
LINE
  5
D52
330
1E
100
AcDbEntity
  8
STEMPEL
100
AcDbLine
 10
270.4076995924353
 20
546.0603595713284
 30
0.0
 11
274.6257899845526
 21
546.0603595713284
 31
0.0
  0
ARC
  5
D53
330
1E
100
AcDbEntity
  8
STEMPEL
100
AcDbCircle
 10
237.3208588006612
 20
549.0005221126113
 30
0.0
 40
33.21721826627526
100
AcDbArc
 50
349.3101398003331
 51
358.378114028084
  0
LINE
  5
D54
330
1E
100
AcDbEntity
  8
STEMPEL
100
AcDbLine
 10
270.5247694701187
 20
548.0603595713285
 30
0.0
 11
272.7253749081333
 21
548.0603595713285
 31
0.0
  0
LINE
  5
D55
330
1E
100
AcDbEntity
  8
STEMPEL
100
AcDbLine
 10
273.1266031689111
 20
546.0603595713283
 30
0.0
 11
272.7253749081333
 21
548.0603595713285
 31
0.0
  0
ARC
  5
D56
102
{ACAD_REACTORS
330
1417
102
}
330
1E
100
AcDbEntity
  8
STEMPEL
100
AcDbCircle
 10
163.8135145095115
 20
569.5603595713285
 30
0.0
 40
1.5
100
AcDbArc
 50
15.00000000000158
 51
148.1457059206488
  0
POINT
  5
D57
330
1E
100
AcDbEntity
  8
DEFPOINTS
  6
ByBlock
 62
     0
100
AcDbPoint
 10
166.8257899845528
 20
564.8603595713284
 30
0.0
  0
LINE
  5
D58
102
{ACAD_REACTORS
330
1417
102
}
330
1E
100
AcDbEntity
  8
STEMPEL
100
AcDbLine
 10
166.8257899845529
 20
564.1139494098141
 30
0.0
 11
165.262403248945
 21
569.9485881389823
 31
0.0
  0
LINE
  5
D59
102
{ACAD_REACTORS
330
1417
102
}
330
1E
100
AcDbEntity
  8
STEMPEL
100
AcDbLine
 10
159.978218133927
 20
566.2299240187833
 30
0.0
 11
162.5394250655267
 21
570.3520009602962
 31
0.0
  0
POINT
  5
D5A
330
1E
100
AcDbEntity
  8
DEFPOINTS
  6
ByBlock
 62
     0
100
AcDbPoint
 10
159.3757899845528
 20
564.0603595713285
 30
0.0
  0
LINE
  5
D5B
330
1E
100
AcDbEntity
  8
STEMPEL
100
AcDbLine
 10
159.3757899845528
 20
564.1188803148691
 30
0.0
 11
159.3757899845528
 21
564.0603595713285
 31
0.0
  0
ARC
  5
D5C
102
{ACAD_REACTORS
330
1417
102
}
330
1E
100
AcDbEntity
  8
STEMPEL
100
AcDbCircle
 10
163.3757899845528
 20
564.1188803148691
 30
0.0
 40
4.0
100
AcDbArc
 50
148.1457059206461
 51
180.0
  0
LINE
  5
D5D
102
{ACAD_REACTORS
330
1417
102
}
330
1E
100
AcDbEntity
  8
STEMPEL
100
AcDbLine
 10
162.1249768001945
 20
546.0603595713284
 30
0.0
 11
162.5262050609723
 21
548.0603595713285
 31
0.0
  0
LINE
  5
D5E
102
{ACAD_REACTORS
330
1417
102
}
330
1E
100
AcDbEntity
  8
STEMPEL
100
AcDbLine
 10
164.7268104989867
 20
548.0603595713285
 30
0.0
 11
162.5262050609723
 21
548.0603595713285
 31
0.0
  0
ARC
  5
D5F
102
{ACAD_REACTORS
330
1417
102
}
330
1E
100
AcDbEntity
  8
STEMPEL
100
AcDbCircle
 10
197.9307211684442
 20
549.0005221126113
 30
0.0
 40
33.21721826627526
100
AcDbArc
 50
181.621885971916
 51
190.6898601996669
  0
LINE
  5
D60
102
{ACAD_REACTORS
330
1417
102
}
330
1E
100
AcDbEntity
  8
STEMPEL
100
AcDbLine
 10
164.8438803766702
 20
546.0603595713287
 30
0.0
 11
160.6257899845528
 21
546.0603595713287
 31
0.0
  0
LINE
  5
D61
330
1E
100
AcDbEntity
  8
STEMPEL
100
AcDbLine
 10
166.8257899845528
 20
564.8603595713284
 30
0.0
 11
166.8257899845528
 21
542.8389700571249
 31
0.0
  0
LINE
  5
D62
330
1E
100
AcDbEntity
  8
STEMPEL
100
AcDbLine
 10
269.9616134735683
 20
542.8389700571249
 30
0.0
 11
268.2257899845529
 21
542.8389700571249
 31
0.0
  0
LINE
  5
D63
330
1E
100
AcDbEntity
  8
STEMPEL
100
AcDbLine
 10
271.4380654595942
 20
571.0603595713284
 30
0.0
 11
268.6257899845527
 21
571.0603595713284
 31
0.0
  0
LINE
  5
D68
102
{ACAD_REACTORS
330
1417
102
}
330
1E
100
AcDbEntity
  8
STEMPEL
100
AcDbLine
 10
159.3757899845528
 20
564.0603595713285
 30
0.0
 11
164.1257899845528
 21
564.0603595713285
 31
0.0
  0
LINE
  5
D69
330
1E
100
AcDbEntity
  8
STEMPEL
100
AcDbLine
 10
271.1257899845526
 20
564.0603595713287
 30
0.0
 11
275.8757899845528
 21
564.0603595713287
 31
0.0
  0
LINE
  5
DF4
330
1E
100
AcDbEntity
  8
STEMPEL
100
AcDbLine
 10
273.3325458224775
 20
564.0603595713285
 30
0.0
 11
271.1257899845527
 21
564.0603595713285
 31
0.0
  0
LINE
  5
DFE
330
1E
100
AcDbEntity
  8
MITTEL
100
AcDbLine
 10
217.625789984553
 20
692.060359571328
 30
0.0
 11
217.6257899845527
 21
452.7846410924246
 31
0.0
  0
LINE
  5
DFF
330
1E
100
AcDbEntity
  8
TEXT
 62
     2
100
AcDbLine
 10
270.5361010936108
 20
554.7589351710839
 30
0.0
 11
366.0038865707215
 21
573.478892808313
 31
0.0
  0
TEXT
  5
E02
330
1E
100
AcDbEntity
  8
TEXT
 62
     1
100
AcDbText
 10
368.123779566767
 20
563.4514416977463
 30
0.0
 40
7.0
  1
EDV-Art.Nr. 00911.100X
 41
0.8
  7
GREEKS
100
AcDbText
  0
LINE
  5
E03
330
1E
100
AcDbEntity
  8
TEXT
 62
     2
100
AcDbLine
 10
366.0038865707215
 20
573.478892808313
 30
0.0
 11
474.1145960119616
 21
573.478892808313
 31
0.0
  0
TEXT
  5
E04
330
1E
100
AcDbEntity
  8
TEXT
 62
     1
100
AcDbText
 10
368.123779566767
 20
576.8587982252094
 30
0.0
 40
7.0
  1
Dichelement DN100
 41
0.8
  7
GREEKS
100
AcDbText
  0
HATCH
  5
F00
330
1E
100
AcDbEntity
  8
SCHRAFF
100
AcDbHatch
 10
0.0
 20
0.0
 30
0.0
210
0.0
220
0.0
230
1.0
  2
_USER
 70
     0
 71
     1
 91
        2
 92
        7
 72
     1
 73
     1
 93
        3
 10
268.6257899845529
 20
466.0603595713284
 42
0.4549196820787568
 10
271.5976993103378
 20
469.4699385738569
 42
0.0
 10
268.6257899845529
 20
469.0603595713284
 42
0.0
 97
        3
330
F0F
330
F18
330
F45
 92
        7
 72
     1
 73
     1
 93
        3
 10
166.6257899845529
 20
466.0603595713284
 42
0.0
 10
166.6257899845529
 20
469.0603595713284
 42
0.0
 10
163.6538806587679
 20
469.4699385738569
 42
0.4549196820787595
 97
        3
330
F0E
330
F44
330
F1A
 75
     0
 76
     0
 52
0.0
 41
0.1
 77
     0
 78
     1
 53
0.0
 43
8.176036104892432
 44
18.97218366705817
 45
0.0
 46
0.1
 79
     0
 47
0.1702660399373653
 98
        2
 10
269.7101143308925
 20
467.5777165896037
 10
164.5928414953765
 20
467.9182491084239
  0
HATCH
  5
F01
330
1E
100
AcDbEntity
  8
SCHRAFF
100
AcDbHatch
 10
0.0
 20
0.0
 30
0.0
210
0.0
220
0.0
230
1.0
  2
_USER
 70
     0
 71
     0
 91
        2
 92
        7
 72
     0
 73
     1
 93
        6
 10
382.6257899845527
 20
484.0603595713283
 10
362.8167510655783
 20
484.0603595713282
 10
268.6257899845529
 20
471.0792636973535
 10
268.6257899845529
 20
469.0603595713283
 10
362.9539195924889
 20
482.0603595713286
 10
382.6257899845528
 20
482.0603595713285
 97
        0
 92
        7
 72
     0
 73
     1
 93
        6
 10
72.43482890352709
 20
484.0603595713284
 10
52.62578998455285
 20
484.0603595713284
 10
52.62578998455274
 20
482.0603595713286
 10
72.29766037661704
 20
482.0603595713285
 10
166.6257899845528
 20
469.0603595713284
 10
166.6257899845528
 20
471.0792636973537
 97
        0
 75
     0
 76
     0
 52
135.0
 41
2.0
 77
     0
 78
     1
 53
135.0
 43
8.176036104892432
 44
18.97218366705817
 45
-1.414213562373095
 46
-1.414213562373094
 79
     0
 47
0.7003023339780656
 98
        2
 10
373.1840513487733
 20
482.9412171217184
 10
65.56659398490239
 20
482.9412171217184
  0
HATCH
  5
F02
330
1E
100
AcDbEntity
  8
SCHRAFF
100
AcDbHatch
 10
0.0
 20
0.0
 30
0.0
210
0.0
220
0.0
230
1.0
  2
_USER
 70
     0
 71
     1
 91
        1
 92
       33
 93
       20
 72
     2
 10
158.6257899845528
 20
488.0263670514604
 40
8.0
 50
0.0
 51
34.30115275679106
 73
     1
 72
     2
 10
177.6257899845528
 20
500.9878484482761
 40
15.0
 50
180.0
 51
214.3011527567911
 73
     1
 72
     1
 10
158.6257899845528
 20
551.4556081087572
 11
158.6257899845528
 21
533.2933595713285
 72
     1
 10
162.6257899845528
 20
516.5603595713287
 11
162.6257899845528
 21
500.9878484482761
 72
     2
 10
183.6257899845528
 20
533.2933595713285
 40
24.99990931069965
 50
180.0
 51
206.8877706590205
 73
     1
 72
     2
 10
150.6257899845528
 20
516.5603595713285
 40
12.0
 50
0.0
 51
26.88777065901986
 73
     1
 72
     1
 10
161.9190341466279
 20
564.0603595713283
 11
160.9680953086367
 21
562.0210646522751
 72
     2
 10
183.6257899845528
 20
551.4556081087572
 40
25.0
 50
154.9999999999999
 51
180.0
 73
     1
 72
     1
 10
164.1257899845529
 20
564.0603595713283
 11
162.7807108827101
 21
561.1758281287936
 72
     2
 10
183.6257899845528
 20
551.4556081087572
 40
23.0
 50
154.9999999999999
 51
180.0
 73
     1
 72
     1
 10
160.6257899845528
 20
551.4556081087572
 11
160.6257899845528
 21
533.2933595713285
 72
     2
 10
183.6257899845528
 20
533.2933595713285
 40
22.99990931069965
 50
180.0
 51
206.8877706590205
 73
     1
 72
     2
 10
150.6257899845528
 20
516.5603595713285
 40
14.0
 50
0.0
 51
26.88777065901986
 73
     1
 72
     1
 10
164.6257899845528
 20
516.5603595713287
 11
164.6257899845528
 21
500.9878484482761
 72
     2
 10
177.6257899845528
 20
500.9878484482761
 40
13.0
 50
180.0
 51
214.3011527567911
 73
     1
 72
     2
 10
158.6257899845528
 20
488.0263670514604
 40
10.0
 50
0.0
 51
34.30115275679106
 73
     1
 72
     1
 10
166.6257899845528
 20
488.0263670514603
 11
166.6257899845531
 21
176.0603595713271
 72
     1
 10
168.6257899845528
 20
488.0263670514604
 11
168.6257899845531
 21
176.147681457144
 72
     1
 10
166.6257899845531
 20
176.0603595713271
 11
167.6756539468639
 21
164.0603595713284
 72
     1
 10
168.6257899845531
 20
176.147681457144
 11
169.6832936219506
 21
164.0603595713284
 97
       20
330
F12
330
F13
330
F24
330
F25
330
F26
330
F27
330
F28
330
F29
330
F31
330
F32
330
F33
330
F34
330
F35
330
F36
330
F37
330
F38
330
F1A
330
F39
330
F19
330
F42
 75
     0
 76
     0
 52
45.0
 41
2.0
 77
     0
 78
     1
 53
45.0
 43
8.176036104892432
 44
18.97218366705817
 45
-1.414213562373094
 46
1.414213562373095
 79
     0
 98
        1
 10
8.176036104892432
 20
18.97218366705817
  0
HATCH
  5
F03
330
1E
100
AcDbEntity
  8
SCHRAFF
100
AcDbHatch
 10
0.0
 20
0.0
 30
0.0
210
0.0
220
0.0
230
1.0
  2
_USER
 70
     0
 71
     1
 91
        1
 92
       33
 93
       20
 72
     1
 10
268.6257899845529
 20
176.060359571328
 11
267.5759260222418
 21
164.0603595713284
 72
     1
 10
266.6257899845529
 20
176.1476814571451
 11
265.5682863471551
 21
164.0603595713284
 72
     1
 10
268.6257899845529
 20
488.0263670514604
 11
268.6257899845529
 21
176.060359571328
 72
     1
 10
266.6257899845529
 20
488.0263670514603
 11
266.6257899845529
 21
176.1476814571451
 72
     2
 10
276.6257899845529
 20
488.0263670514604
 40
8.0
 50
145.6988472432083
 51
180.0
 73
     1
 72
     2
 10
257.6257899845529
 20
500.9878484482761
 40
15.0
 50
325.698847243209
 51
360.0
 73
     1
 72
     1
 10
276.6257899845529
 20
551.4556081087572
 11
276.6257899845529
 21
533.2933595713285
 72
     1
 10
272.6257899845529
 20
516.5603595713287
 11
272.6257899845529
 21
500.9878484482761
 72
     2
 10
251.6257899845529
 20
533.2933595713285
 40
24.99990931069965
 50
333.1122293409794
 51
360.0
 73
     1
 72
     2
 10
284.6257899845529
 20
516.5603595713285
 40
12.0
 50
153.1122293409801
 51
180.0
 73
     1
 72
     1
 10
273.3325458224777
 20
564.0603595713283
 11
274.283484660469
 21
562.0210646522751
 72
     2
 10
251.6257899845529
 20
551.4556081087572
 40
25.0
 50
0.0
 51
25.00000000000009
 73
     1
 72
     2
 10
251.6257899845529
 20
551.4556081087572
 40
23.0
 50
0.0
 51
25.00000000000083
 73
     1
 72
     1
 10
271.1257899845526
 20
564.0603595713285
 11
272.4708690863956
 21
561.1758281287937
 72
     2
 10
276.6257899845529
 20
488.0263670514604
 40
10.0
 50
145.6988472432089
 51
180.0
 73
     1
 72
     2
 10
257.6257899845529
 20
500.9878484482761
 40
13.0
 50
325.698847243209
 51
360.0
 73
     1
 72
     1
 10
270.6257899845529
 20
516.5603595713287
 11
270.6257899845529
 21
500.9878484482761
 72
     2
 10
284.6257899845529
 20
516.5603595713285
 40
14.0
 50
153.1122293409794
 51
180.0
 73
     1
 72
     2
 10
251.6257899845529
 20
533.2933595713285
 40
22.99990931069965
 50
333.1122293409794
 51
360.0
 73
     1
 72
     1
 10
274.6257899845529
 20
551.4556081087572
 11
274.6257899845529
 21
533.2933595713285
 97
       20
330
F17
330
F41
330
F18
330
F3A
330
F10
330
F11
330
F1E
330
F1F
330
F20
330
F21
330
F22
330
F23
330
F2F
330
F30
330
F3B
330
F3C
330
F3D
330
F3E
330
F3F
330
F40
 75
     0
 76
     0
 52
45.0
 41
2.0
 77
     0
 78
     1
 53
45.0
 43
8.176036104892432
 44
18.97218366705817
 45
-1.414213562373094
 46
1.414213562373095
 79
     0
 98
        1
 10
8.176036104892432
 20
18.97218366705817
  0
LINE
  5
F05
330
1E
100
AcDbEntity
  8
STEMPEL
100
AcDbLine
 10
166.6257899845528
 20
484.0603595713284
 30
0.0
 11
52.62578998455285
 21
484.0603595713284
 31
0.0
  0
LINE
  5
F06
330
1E
100
AcDbEntity
  8
STEMPEL
100
AcDbLine
 10
382.6257899845528
 20
484.0603595713284
 30
0.0
 11
382.6257899845528
 21
482.0603595713286
 31
0.0
  0
LINE
  5
F07
330
1E
100
AcDbEntity
  8
STEMPEL
100
AcDbLine
 10
72.29766037661704
 20
482.0603595713285
 30
0.0
 11
52.62578998455285
 21
482.0603595713286
 31
0.0
  0
LINE
  5
F08
330
1E
100
AcDbEntity
  8
STEMPEL
100
AcDbLine
 10
268.6257899845529
 20
484.0603595713283
 30
0.0
 11
382.6257899845529
 21
484.0603595713284
 31
0.0
  0
LINE
  5
F09
330
1E
100
AcDbEntity
  8
STEMPEL
100
AcDbLine
 10
362.9539195924885
 20
482.0603595713284
 30
0.0
 11
382.6257899845528
 21
482.0603595713285
 31
0.0
  0
LINE
  5
F0A
330
1E
100
AcDbEntity
  8
STEMPEL
100
AcDbLine
 10
382.6257899845529
 20
484.0603595713284
 30
0.0
 11
382.6257899845528
 21
482.0603595713285
 31
0.0
  0
DIMENSION
  5
F0C
330
1E
100
AcDbEntity
  8
BEM
100
AcDbDimension
  2
*D2
 10
382.6257899845528
 20
439.7723796926753
 30
0.0
 11
217.6257899845528
 21
446.2723796926753
 31
0.0
 70
    32
  1
%%C<>
 71
     5
 42
329.9999999999999
  3
Standard
100
AcDbAlignedDimension
 13
52.62578998455285
 23
482.0603595713286
 33
0.0
 14
382.6257899845528
 24
482.0603595713285
 34
0.0
100
AcDbRotatedDimension
1001
ACAD
1000
DSTYLE
1002
{
1070
    40
1040
2.0
1070
    41
1040
3.5
1070
    42
1040
1.0
1070
    43
1040
7.0
1070
    44
1040
1.0
1070
    73
1070
     0
1070
    74
1070
     0
1070
    77
1070
     1
1070
    78
1070
     8
1070
    79
1070
     2
1070
   140
1040
3.5
1070
   141
1040
1.5
1070
   146
1040
0.5142857142857144
1070
   147
1040
1.5
1070
   172
1070
     1
1070
   178
1070
     1
1070
   179
1070
     2
1070
   271
1070
     2
1070
   272
1070
     2
1070
   284
1070
     8
1070
   285
1070
     8
1070
   286
1070
     8
1002
}
  0
LINE
  5
F0E
102
{ACAD_REACTORS
330
F00
102
}
330
1E
100
AcDbEntity
  8
STEMPEL
100
AcDbLine
 10
166.6257899845528
 20
469.0603595713284
 30
0.0
 11
72.29766037661704
 21
482.0603595713285
 31
0.0
  0
LINE
  5
F0F
102
{ACAD_REACTORS
330
F00
102
}
330
1E
100
AcDbEntity
  8
STEMPEL
100
AcDbLine
 10
268.6257899845529
 20
469.0603595713284
 30
0.0
 11
362.9539195924885
 21
482.0603595713284
 31
0.0
  0
ARC
  5
F10
102
{ACAD_REACTORS
330
F03
102
}
330
1E
100
AcDbEntity
  8
STEMPEL
100
AcDbCircle
 10
276.6257899845529
 20
488.0263670514604
 30
0.0
 40
8.0
100
AcDbArc
 50
145.6988472432083
 51
180.0
  0
ARC
  5
F11
102
{ACAD_REACTORS
330
F03
102
}
330
1E
100
AcDbEntity
  8
STEMPEL
100
AcDbCircle
 10
257.6257899845529
 20
500.9878484482761
 30
0.0
 40
15.0
100
AcDbArc
 50
325.698847243209
 51
0.0
  0
ARC
  5
F12
102
{ACAD_REACTORS
330
F02
102
}
330
1E
100
AcDbEntity
  8
STEMPEL
100
AcDbCircle
 10
158.6257899845528
 20
488.0263670514604
 30
0.0
 40
8.0
100
AcDbArc
 50
0.0
 51
34.30115275679106
  0
ARC
  5
F13
102
{ACAD_REACTORS
330
F02
102
}
330
1E
100
AcDbEntity
  8
STEMPEL
100
AcDbCircle
 10
177.6257899845528
 20
500.9878484482761
 30
0.0
 40
15.0
100
AcDbArc
 50
180.0
 51
214.3011527567911
  0
LINE
  5
F14
330
1E
100
AcDbEntity
  8
HILF
  6
Continuous
100
AcDbLine
 10
264.6257899845529
 20
176.0603595713283
 30
0.0
 11
170.6257899845531
 21
176.0603595713283
 31
0.0
  0
LINE
  5
F15
330
1E
100
AcDbEntity
  8
STEMPEL
100
AcDbLine
 10
267.5759260222418
 20
164.0603595713284
 30
0.0
 11
167.6756539468639
 21
164.0603595713284
 31
0.0
  0
LINE
  5
F16
330
1E
100
AcDbEntity
  8
HILF
100
AcDbLine
 10
170.5023546791198
 20
489.7431113701538
 30
0.0
 11
264.7492252899859
 21
489.7431113701538
 31
0.0
  0
LINE
  5
F17
102
{ACAD_REACTORS
330
F03
102
}
330
1E
100
AcDbEntity
  8
STEMPEL
100
AcDbLine
 10
268.6257899845529
 20
176.060359571328
 30
0.0
 11
267.5759260222418
 21
164.0603595713284
 31
0.0
  0
LINE
  5
F18
102
{ACAD_REACTORS
330
F03
330
F00
102
}
330
1E
100
AcDbEntity
  8
STEMPEL
100
AcDbLine
 10
268.6257899845529
 20
488.0263670514604
 30
0.0
 11
268.6257899845529
 21
176.060359571328
 31
0.0
  0
LINE
  5
F19
102
{ACAD_REACTORS
330
F02
102
}
330
1E
100
AcDbEntity
  8
STEMPEL
100
AcDbLine
 10
166.6257899845531
 20
176.0603595713271
 30
0.0
 11
167.6756539468639
 21
164.0603595713284
 31
0.0
  0
LINE
  5
F1A
102
{ACAD_REACTORS
330
F02
330
F00
102
}
330
1E
100
AcDbEntity
  8
STEMPEL
100
AcDbLine
 10
166.6257899845528
 20
488.0263670514603
 30
0.0
 11
166.6257899845531
 21
176.0603595713271
 31
0.0
  0
LINE
  5
F1B
330
1E
100
AcDbEntity
  8
HILF
100
AcDbLine
 10
166.581416462482
 20
517.7511507775465
 30
0.0
 11
268.6701635066237
 21
517.7511507775466
 31
0.0
  0
LINE
  5
F1C
330
1E
100
AcDbEntity
  8
HILF
100
AcDbLine
 10
166.7630927527081
 20
499.2552755495868
 30
0.0
 11
268.4884872163976
 21
499.2552755495868
 31
0.0
  0
LINE
  5
F1E
102
{ACAD_REACTORS
330
F03
102
}
330
1E
100
AcDbEntity
  8
STEMPEL
100
AcDbLine
 10
276.6257899845529
 20
551.4556081087572
 30
0.0
 11
276.6257899845529
 21
533.2933595713285
 31
0.0
  0
LINE
  5
F1F
102
{ACAD_REACTORS
330
F03
102
}
330
1E
100
AcDbEntity
  8
STEMPEL
100
AcDbLine
 10
272.6257899845529
 20
516.5603595713287
 30
0.0
 11
272.6257899845529
 21
500.9878484482761
 31
0.0
  0
ARC
  5
F20
102
{ACAD_REACTORS
330
F03
102
}
330
1E
100
AcDbEntity
  8
STEMPEL
100
AcDbCircle
 10
251.6257899845529
 20
533.2933595713285
 30
0.0
 40
24.99990931069965
100
AcDbArc
 50
333.1122293409794
 51
0.0
  0
ARC
  5
F21
102
{ACAD_REACTORS
330
F03
102
}
330
1E
100
AcDbEntity
  8
STEMPEL
100
AcDbCircle
 10
284.6257899845529
 20
516.5603595713285
 30
0.0
 40
12.0
100
AcDbArc
 50
153.1122293409801
 51
180.0
  0
LINE
  5
F22
102
{ACAD_REACTORS
330
F03
102
}
330
1E
100
AcDbEntity
  8
STEMPEL
100
AcDbLine
 10
273.3325458224777
 20
564.0603595713283
 30
0.0
 11
274.283484660469
 21
562.0210646522751
 31
0.0
  0
ARC
  5
F23
102
{ACAD_REACTORS
330
F03
102
}
330
1E
100
AcDbEntity
  8
STEMPEL
100
AcDbCircle
 10
251.6257899845529
 20
551.4556081087572
 30
0.0
 40
25.0
100
AcDbArc
 50
0.0
 51
25.00000000000009
  0
LINE
  5
F24
102
{ACAD_REACTORS
330
F02
102
}
330
1E
100
AcDbEntity
  8
STEMPEL
100
AcDbLine
 10
158.6257899845528
 20
551.4556081087572
 30
0.0
 11
158.6257899845528
 21
533.2933595713285
 31
0.0
  0
LINE
  5
F25
102
{ACAD_REACTORS
330
F02
102
}
330
1E
100
AcDbEntity
  8
STEMPEL
100
AcDbLine
 10
162.6257899845528
 20
516.5603595713287
 30
0.0
 11
162.6257899845528
 21
500.9878484482761
 31
0.0
  0
ARC
  5
F26
102
{ACAD_REACTORS
330
F02
102
}
330
1E
100
AcDbEntity
  8
STEMPEL
100
AcDbCircle
 10
183.6257899845528
 20
533.2933595713285
 30
0.0
 40
24.99990931069965
100
AcDbArc
 50
180.0
 51
206.8877706590205
  0
ARC
  5
F27
102
{ACAD_REACTORS
330
F02
102
}
330
1E
100
AcDbEntity
  8
STEMPEL
100
AcDbCircle
 10
150.6257899845528
 20
516.5603595713285
 30
0.0
 40
12.0
100
AcDbArc
 50
0.0
 51
26.88777065901986
  0
LINE
  5
F28
102
{ACAD_REACTORS
330
F02
102
}
330
1E
100
AcDbEntity
  8
STEMPEL
100
AcDbLine
 10
161.9190341466279
 20
564.0603595713283
 30
0.0
 11
160.9680953086367
 21
562.0210646522751
 31
0.0
  0
ARC
  5
F29
102
{ACAD_REACTORS
330
F02
102
}
330
1E
100
AcDbEntity
  8
STEMPEL
100
AcDbCircle
 10
183.6257899845528
 20
551.4556081087572
 30
0.0
 40
25.0
100
AcDbArc
 50
154.9999999999999
 51
180.0
  0
DIMENSION
  5
F2A
330
1E
100
AcDbEntity
  8
BEM
100
AcDbDimension
  2
*D3
 10
268.6257899845529
 20
141.713081222793
 30
0.0
 11
217.6257899845528
 21
148.213081222793
 31
0.0
 70
    32
  1
%%C<>
 71
     5
 42
102.0
  3
Standard
100
AcDbAlignedDimension
 13
166.6257899845528
 23
176.0603595713281
 33
0.0
 14
268.6257899845529
 24
176.0603595713269
 34
0.0
 50
180.0
100
AcDbRotatedDimension
1001
ACAD
1000
DSTYLE
1002
{
1070
    40
1040
2.0
1070
    41
1040
3.5
1070
    42
1040
1.0
1070
    43
1040
7.0
1070
    44
1040
1.0
1070
    73
1070
     0
1070
    74
1070
     0
1070
    77
1070
     1
1070
    78
1070
     8
1070
    79
1070
     2
1070
   140
1040
3.5
1070
   141
1040
1.5
1070
   146
1040
0.5142857142857144
1070
   147
1040
1.5
1070
   172
1070
     1
1070
   178
1070
     1
1070
   179
1070
     2
1070
   271
1070
     2
1070
   272
1070
     2
1070
   284
1070
     8
1070
   285
1070
     8
1070
   286
1070
     8
1002
}
  0
LINE
  5
F2B
330
1E
100
AcDbEntity
  8
STEMPEL
100
AcDbLine
 10
268.6257899845529
 20
471.0792636973535
 30
0.0
 11
362.8167510655783
 21
484.0603595713284
 31
0.0
  0
LINE
  5
F2C
330
1E
100
AcDbEntity
  8
STEMPEL
100
AcDbLine
 10
166.6257899845528
 20
471.0792636973535
 30
0.0
 11
72.43482890352709
 21
484.0603595713284
 31
0.0
  0
DIMENSION
  5
F2D
330
1E
100
AcDbEntity
  8
BEM
100
AcDbDimension
  2
*D4
 10
37.76547367225885
 20
484.0603595713284
 30
0.0
 11
31.26547367225878
 21
524.0603595713284
 31
0.0
 70
    32
 71
     5
 42
79.99999999999994
  3
Standard
100
AcDbAlignedDimension
 13
161.9190341466279
 23
564.0603595713283
 33
0.0
 14
52.62578998455285
 24
484.0603595713284
 34
0.0
 50
90.0
100
AcDbRotatedDimension
1001
ACAD
1000
DSTYLE
1002
{
1070
    40
1040
2.0
1070
    41
1040
3.5
1070
    42
1040
1.0
1070
    43
1040
7.0
1070
    44
1040
1.0
1070
    73
1070
     0
1070
    74
1070
     0
1070
    77
1070
     1
1070
    78
1070
     8
1070
    79
1070
     2
1070
   140
1040
3.5
1070
   141
1040
1.5
1070
   146
1040
0.5142857142857144
1070
   147
1040
1.5
1070
   172
1070
     1
1070
   178
1070
     1
1070
   179
1070
     2
1070
   271
1070
     2
1070
   272
1070
     2
1070
   284
1070
     8
1070
   285
1070
     8
1070
   286
1070
     8
1002
}
  0
DIMENSION
  5
F2E
330
1E
100
AcDbEntity
  8
BEM
100
AcDbDimension
  2
*D5
 10
24.08668299991189
 20
164.0603595713284
 30
0.0
 11
17.58668299991187
 21
364.0603595713284
 31
0.0
 70
    32
 71
     5
 42
400.0
  3
Standard
100
AcDbAlignedDimension
 13
161.9190341466279
 23
564.0603595713283
 33
0.0
 14
167.6756539468639
 24
164.0603595713284
 34
0.0
 50
90.0
100
AcDbRotatedDimension
1001
ACAD
1000
DSTYLE
1002
{
1070
    40
1040
2.0
1070
    41
1040
3.5
1070
    42
1040
1.0
1070
    43
1040
7.0
1070
    44
1040
1.0
1070
    73
1070
     0
1070
    74
1070
     0
1070
    77
1070
     1
1070
    78
1070
     8
1070
    79
1070
     2
1070
   140
1040
3.5
1070
   141
1040
1.5
1070
   146
1040
0.5142857142857144
1070
   147
1040
1.5
1070
   172
1070
     1
1070
   178
1070
     1
1070
   179
1070
     2
1070
   271
1070
     2
1070
   272
1070
     2
1070
   284
1070
     8
1070
   285
1070
     8
1070
   286
1070
     8
1002
}
  0
ARC
  5
F2F
102
{ACAD_REACTORS
330
F03
102
}
330
1E
100
AcDbEntity
  8
STEMPEL
100
AcDbCircle
 10
251.6257899845529
 20
551.4556081087572
 30
0.0
 40
23.0
100
AcDbArc
 50
0.0
 51
25.00000000000083
  0
LINE
  5
F30
102
{ACAD_REACTORS
330
F03
102
}
330
1E
100
AcDbEntity
  8
STEMPEL
100
AcDbLine
 10
271.1257899845526
 20
564.0603595713285
 30
0.0
 11
272.4708690863956
 21
561.1758281287937
 31
0.0
  0
LINE
  5
F31
102
{ACAD_REACTORS
330
F02
330
1417
102
}
330
1E
100
AcDbEntity
  8
STEMPEL
100
AcDbLine
 10
164.1257899845529
 20
564.0603595713283
 30
0.0
 11
162.7807108827101
 21
561.1758281287936
 31
0.0
  0
ARC
  5
F32
102
{ACAD_REACTORS
330
F02
330
1417
102
}
330
1E
100
AcDbEntity
  8
STEMPEL
100
AcDbCircle
 10
183.6257899845528
 20
551.4556081087572
 30
0.0
 40
23.0
100
AcDbArc
 50
154.9999999999999
 51
180.0
  0
LINE
  5
F33
102
{ACAD_REACTORS
330
F02
330
1417
102
}
330
1E
100
AcDbEntity
  8
STEMPEL
100
AcDbLine
 10
160.6257899845528
 20
551.4556081087572
 30
0.0
 11
160.6257899845528
 21
533.2933595713285
 31
0.0
  0
ARC
  5
F34
102
{ACAD_REACTORS
330
F02
102
}
330
1E
100
AcDbEntity
  8
STEMPEL
100
AcDbCircle
 10
183.6257899845528
 20
533.2933595713285
 30
0.0
 40
22.99990931069965
100
AcDbArc
 50
180.0
 51
206.8877706590205
  0
ARC
  5
F35
102
{ACAD_REACTORS
330
F02
102
}
330
1E
100
AcDbEntity
  8
STEMPEL
100
AcDbCircle
 10
150.6257899845528
 20
516.5603595713285
 30
0.0
 40
14.0
100
AcDbArc
 50
0.0
 51
26.88777065901986
  0
LINE
  5
F36
102
{ACAD_REACTORS
330
F02
102
}
330
1E
100
AcDbEntity
  8
STEMPEL
100
AcDbLine
 10
164.6257899845528
 20
516.5603595713287
 30
0.0
 11
164.6257899845528
 21
500.9878484482761
 31
0.0
  0
ARC
  5
F37
102
{ACAD_REACTORS
330
F02
102
}
330
1E
100
AcDbEntity
  8
STEMPEL
100
AcDbCircle
 10
177.6257899845528
 20
500.9878484482761
 30
0.0
 40
13.0
100
AcDbArc
 50
180.0
 51
214.3011527567911
  0
ARC
  5
F38
102
{ACAD_REACTORS
330
F02
102
}
330
1E
100
AcDbEntity
  8
STEMPEL
100
AcDbCircle
 10
158.6257899845528
 20
488.0263670514604
 30
0.0
 40
10.0
100
AcDbArc
 50
0.0
 51
34.30115275679106
  0
LINE
  5
F39
102
{ACAD_REACTORS
330
F02
102
}
330
1E
100
AcDbEntity
  8
STEMPEL
100
AcDbLine
 10
168.6257899845528
 20
488.0263670514604
 30
0.0
 11
168.6257899845531
 21
176.147681457144
 31
0.0
  0
LINE
  5
F3A
102
{ACAD_REACTORS
330
F03
102
}
330
1E
100
AcDbEntity
  8
STEMPEL
100
AcDbLine
 10
266.6257899845529
 20
488.0263670514603
 30
0.0
 11
266.6257899845529
 21
176.1476814571451
 31
0.0
  0
ARC
  5
F3B
102
{ACAD_REACTORS
330
F03
102
}
330
1E
100
AcDbEntity
  8
STEMPEL
100
AcDbCircle
 10
276.6257899845529
 20
488.0263670514604
 30
0.0
 40
10.0
100
AcDbArc
 50
145.6988472432089
 51
180.0
  0
ARC
  5
F3C
102
{ACAD_REACTORS
330
F03
102
}
330
1E
100
AcDbEntity
  8
STEMPEL
100
AcDbCircle
 10
257.6257899845529
 20
500.9878484482761
 30
0.0
 40
13.0
100
AcDbArc
 50
325.698847243209
 51
0.0
  0
LINE
  5
F3D
102
{ACAD_REACTORS
330
F03
102
}
330
1E
100
AcDbEntity
  8
STEMPEL
100
AcDbLine
 10
270.6257899845529
 20
516.5603595713287
 30
0.0
 11
270.6257899845529
 21
500.9878484482761
 31
0.0
  0
ARC
  5
F3E
102
{ACAD_REACTORS
330
F03
102
}
330
1E
100
AcDbEntity
  8
STEMPEL
100
AcDbCircle
 10
284.6257899845529
 20
516.5603595713285
 30
0.0
 40
14.0
100
AcDbArc
 50
153.1122293409794
 51
180.0
  0
ARC
  5
F3F
102
{ACAD_REACTORS
330
F03
102
}
330
1E
100
AcDbEntity
  8
STEMPEL
100
AcDbCircle
 10
251.6257899845529
 20
533.2933595713285
 30
0.0
 40
22.99990931069965
100
AcDbArc
 50
333.1122293409794
 51
0.0
  0
LINE
  5
F40
102
{ACAD_REACTORS
330
F03
102
}
330
1E
100
AcDbEntity
  8
STEMPEL
100
AcDbLine
 10
274.6257899845529
 20
551.4556081087572
 30
0.0
 11
274.6257899845529
 21
533.2933595713285
 31
0.0
  0
LINE
  5
F41
102
{ACAD_REACTORS
330
F03
102
}
330
1E
100
AcDbEntity
  8
STEMPEL
100
AcDbLine
 10
266.6257899845529
 20
176.1476814571451
 30
0.0
 11
265.5682863471551
 21
164.0603595713284
 31
0.0
  0
LINE
  5
F42
102
{ACAD_REACTORS
330
F02
102
}
330
1E
100
AcDbEntity
  8
STEMPEL
100
AcDbLine
 10
168.6257899845531
 20
176.147681457144
 30
0.0
 11
169.6832936219506
 21
164.0603595713284
 31
0.0
  0
ARC
  5
F44
102
{ACAD_REACTORS
330
F00
102
}
330
1E
100
AcDbEntity
  8
SCHRAFF
100
AcDbCircle
 10
166.6257899845528
 20
469.0603595713284
 30
0.0
 40
3.0
100
AcDbArc
 50
172.1531103342026
 51
270.0
  0
ARC
  5
F45
102
{ACAD_REACTORS
330
F00
102
}
330
1E
100
AcDbEntity
  8
SCHRAFF
100
AcDbCircle
 10
268.6257899845529
 20
469.0603595713284
 30
0.0
 40
3.0
100
AcDbArc
 50
270.0
 51
7.846889665797368
  0
TEXT
  5
1002
330
1E
100
AcDbEntity
  8
TEXT
 62
     1
100
AcDbText
 10
368.1237795667669
 20
391.1647420516474
 30
0.0
 40
7.0
  1
Wanddurchführung DN100
 41
0.8
  7
GREEKS
100
AcDbText
  0
LINE
  5
1003
330
1E
100
AcDbEntity
  8
TEXT
 62
     2
100
AcDbLine
 10
366.0038865707215
 20
387.7848366347509
 30
0.0
 11
477.7604701547834
 21
387.7848366347509
 31
0.0
  0
TEXT
  5
1004
330
1E
100
AcDbEntity
  8
TEXT
 62
     1
100
AcDbText
 10
368.1237795667669
 20
377.7573855241842
 30
0.0
 40
7.0
  1
EDV-Art.Nr. 18130.100X
 41
0.8
  7
GREEKS
100
AcDbText
  0
LINE
  5
1005
330
1E
100
AcDbEntity
  8
TEXT
 62
     2
100
AcDbLine
 10
266.8018649358874
 20
370.7908516767684
 30
0.0
 11
366.0038865707215
 21
387.7848366347509
 31
0.0
  0
LINE
  5
103C
330
1E
100
AcDbEntity
  8
MITTEL
100
AcDbLine
 10
217.6257899845527
 20
437.5363074584986
 30
0.0
 11
217.6257899845523
 21
159.0603595713283
 31
0.0
  0
TEXT
  5
103E
330
1E
100
AcDbEntity
  8
TEXT
 62
     1
100
AcDbText
 10
204.7600613282558
 20
294.950167103339
 30
0.0
 40
7.0
  1
DN100
 50
90.0
 41
0.8
  7
GREEKS
100
AcDbText
  0
LINE
  5
11F6
330
1E
100
AcDbEntity
  8
TEXT
 62
     2
100
AcDbLine
 10
366.0038865707216
 20
608.5320065459953
 30
0.0
 11
469.27729610668
 21
608.5320065459953
 31
0.0
  0
TEXT
  5
11F7
330
1E
100
AcDbEntity
  8
TEXT
 62
     1
100
AcDbText
 10
366.2692637083456
 20
611.8678548268793
 30
0.0
 40
7.0
  1
Losflansch DN100
 41
0.8
  7
GREEKS
100
AcDbText
  0
TEXT
  5
11F8
330
1E
100
AcDbEntity
  8
TEXT
 62
     1
100
AcDbText
 10
366.2692637083456
 20
598.5913292765133
 30
0.0
 40
7.0
  1
EDV-Art.Nr. 17014.100X
 41
0.8
  7
GREEKS
100
AcDbText
  0
TEXT
  5
11F9
330
1E
100
AcDbEntity
  8
TEXT
 62
     1
100
AcDbText
 10
365.8778700928051
 20
664.6401319190371
 30
0.0
 40
7.0
  1
EDV-Art.Nr. 21004.000X
 41
0.8
  7
GREEKS
100
AcDbText
  0
TEXT
  5
11FA
330
1E
100
AcDbEntity
  8
TEXT
 62
     1
100
AcDbText
 10
365.8778700928051
 20
677.9166574694031
 30
0.0
 40
7.0
  1
Siebkorb
 41
0.8
  7
GREEKS
100
AcDbText
  0
LINE
  5
11FB
330
1E
100
AcDbEntity
  8
TEXT
 62
     2
100
AcDbLine
 10
365.6124929551812
 20
674.5808091885189
 30
0.0
 11
468.8859024911397
 21
674.5808091885189
 31
0.0
  0
DIMENSION
  5
11FC
330
1E
100
AcDbEntity
  8
BEM
100
AcDbDimension
  2
*D6
 10
327.6257899845534
 20
701.2993279872776
 30
0.0
 11
217.6257899845532
 21
707.7993279872775
 31
0.0
 70
    32
  1
%%c<>
 71
     5
 42
220.0000000000002
  3
Standard
100
AcDbAlignedDimension
 13
107.6257899845531
 23
665.5603016040125
 33
0.0
 14
327.6257899845534
 24
665.5603016040125
 34
0.0
100
AcDbRotatedDimension
1001
ACAD
1000
DSTYLE
1002
{
1070
    40
1040
2.0
1070
    41
1040
3.5
1070
    42
1040
1.0
1070
    43
1040
7.0
1070
    44
1040
1.0
1070
    73
1070
     0
1070
    74
1070
     0
1070
    77
1070
     1
1070
    78
1070
     8
1070
    79
1070
     2
1070
   140
1040
3.5
1070
   141
1040
1.5
1070
   146
1040
0.5142857142857144
1070
   147
1040
1.5
1070
   172
1070
     1
1070
   178
1070
     1
1070
   179
1070
     2
1070
   271
1070
     2
1070
   272
1070
     2
1070
   284
1070
     8
1070
   285
1070
     8
1070
   286
1070
     8
1002
}
  0
ARC
  5
11FD
330
1E
100
AcDbEntity
  8
STEMPEL
100
AcDbCircle
 10
321.6257899845532
 20
665.5603016040124
 30
0.0
 40
5.0
100
AcDbArc
 50
0.0
 51
59.74358352518112
  0
ARC
  5
11FE
330
1E
100
AcDbEntity
  8
STEMPEL
100
AcDbCircle
 10
327.1369335888648
 20
675.0801965537897
 30
0.0
 40
5.0
100
AcDbArc
 50
239.7435628364698
 51
239.9329541615142
  0
ARC
  5
11FF
330
1E
100
AcDbEntity
  8
STEMPEL
100
AcDbCircle
 10
321.6257899845532
 20
665.5603016040124
 30
0.0
 40
6.0
100
AcDbArc
 50
0.0
 51
59.74358352518112
  0
LINE
  5
1200
330
1E
100
AcDbEntity
  8
STEMPEL
100
AcDbLine
 10
324.6584846062611
 20
670.7374401313712
 30
0.0
 11
300.6721817307943
 21
684.7294501420599
 31
0.0
  0
LINE
  5
1201
330
1E
100
AcDbEntity
  8
STEMPEL
100
AcDbLine
 10
324.1451435526803
 20
669.8791970182086
 30
0.0
 11
300.1662896597292
 21
683.8668501843942
 31
0.0
  0
LINE
  5
1202
330
1E
100
AcDbEntity
  8
STEMPEL
100
AcDbLine
 10
308.916899510905
 20
628.0603595713282
 30
0.0
 11
308.9168995109051
 21
653.0603595713298
 31
0.0
  0
LINE
  5
1203
330
1E
100
AcDbEntity
  8
STEMPEL
100
AcDbLine
 10
308.0488354912163
 20
653.0603595713282
 30
0.0
 11
308.0488354912162
 21
628.0603595713298
 31
0.0
  0
LINE
  5
1204
330
1E
100
AcDbEntity
  8
STEMPEL
100
AcDbLine
 10
308.4620649276244
 20
608.0603595713263
 30
0.0
 11
308.4620649276242
 21
601.5603595713297
 31
0.0
  0
LINE
  5
1205
330
1E
100
AcDbEntity
  8
STEMPEL
100
AcDbLine
 10
310.4136417561427
 20
596.560359571328
 30
0.0
 11
302.0774412078308
 21
596.5603595713282
 31
0.0
  0
LWPOLYLINE
  5
1206
330
1E
100
AcDbEntity
  8
STEMPEL
100
AcDbPolyline
 90
       18
 70
   128
 43
0.0
 10
-308.4620649276242
 20
608.0603595713263
 10
-308.3843250263641
 20
609.4384809549508
 10
-308.1537526616823
 20
610.7696720677305
 10
-307.7781996989171
 20
612.0086007929073
 10
-307.2704551437894
 20
613.1130768986764
 10
-306.6478096281515
 20
614.0454887759293
 10
-305.9314665982575
 20
614.7740842564907
 10
-305.1458202568316
 20
615.2740518951239
 10
-304.3176248477521
 20
615.5283658935405
 10
-303.4750835723644
 20
615.5283658935405
 10
-302.6468881632851
 20
615.2740518951239
 10
-301.8612418218591
 20
614.7740842564907
 10
-301.1448987919651
 20
614.0454887759293
 10
-300.5222532763272
 20
613.1130768986764
 10
-300.0145087211994
 20
612.0086007929073
 10
-299.6389557584343
 20
610.7696720677305
 10
-299.4083833937525
 20
609.4384809549508
 10
-299.3306434924924
 20
608.0603595713263
210
0.0
220
0.0
230
-1.0
  0
LINE
  5
1207
330
1E
100
AcDbEntity
  8
STEMPEL
100
AcDbLine
 10
327.6257899845534
 20
660.5603595713278
 30
0.0
 11
326.6257899845534
 21
660.5603595713278
 31
0.0
  0
LINE
  5
1208
330
1E
100
AcDbEntity
  8
STEMPEL
100
AcDbLine
 10
327.6257899845534
 20
620.5603595713277
 30
0.0
 11
326.6257899845531
 21
620.5603595713277
 31
0.0
  0
LINE
  5
1209
330
1E
100
AcDbEntity
  8
STEMPEL
100
AcDbLine
 10
315.5488354912161
 20
653.0603595713281
 30
0.0
 11
315.5488354912161
 21
628.0603595713313
 31
0.0
  0
LWPOLYLINE
  5
120A
330
1E
100
AcDbEntity
  8
STEMPEL
100
AcDbPolyline
 90
        7
 70
   128
 43
0.0
 10
318.2994900804819
 20
596.560359571328
 10
317.6793995574175
 20
597.1696974731688
 10
317.1475794106342
 20
597.897127746458
 10
316.7183336109029
 20
598.7230852404017
 10
316.4032072631056
 20
599.6253547908641
 10
316.2106760861397
 20
600.5796687251073
 10
316.1459184478133
 20
601.5603595713285
  0
LINE
  5
120B
330
1E
100
AcDbEntity
  8
STEMPEL
100
AcDbLine
 10
315.2198641113061
 20
608.0603595713262
 30
0.0
 11
315.219864111306
 21
601.5603595713296
 31
0.0
  0
LINE
  5
120C
330
1E
100
AcDbEntity
  8
STEMPEL
100
AcDbLine
 10
316.1459184478133
 20
608.0603595713262
 30
0.0
 11
316.1459184478133
 21
601.5603595713296
 31
0.0
  0
LWPOLYLINE
  5
120D
330
1E
100
AcDbEntity
  8
STEMPEL
100
AcDbPolyline
 90
        7
 70
   128
 43
0.0
 10
-325.9340456586365
 20
614.5224136271659
 10
-325.7962166490663
 20
613.7703073902274
 10
-325.6773523721001
 20
612.8475937795126
 10
-325.5810043701989
 20
611.7818425296084
 10
-325.5100514226606
 20
610.6048971927872
 10
-325.4666135306528
 20
609.3519236863855
 10
-325.4519885737551
 20
608.060359571326
210
0.0
220
0.0
230
-1.0
  0
LWPOLYLINE
  5
120E
330
1E
100
AcDbEntity
  8
STEMPEL
100
AcDbPolyline
 90
        7
 70
   128
 43
0.0
 10
328.0724477574258
 20
596.5603595713283
 10
327.3957458823483
 20
597.1699602991874
 10
326.7961964587144
 20
597.8975193830991
 10
326.2899077855647
 20
598.7234892447793
 10
325.8904824935192
 20
599.6256782699823
 10
325.6086520782563
 20
600.5798470381761
 10
325.4519885737548
 20
601.5603595713283
  0
LWPOLYLINE
  5
120F
330
1E
100
AcDbEntity
  8
STEMPEL
100
AcDbPolyline
 90
       10
 70
   128
 43
0.0
 10
325.7754801233577
 20
595.5603595713279
 10
324.9393008485161
 20
595.6515130532546
 10
324.1285284578135
 20
595.9222038466125
 10
323.3677978600706
 20
596.3642071486214
 10
322.6802234695519
 20
596.9640929126142
 10
322.0866968861835
 20
597.703633913209
 10
321.6052521148622
 20
598.5603595713282
 10
321.2505176113419
 20
599.5082387113742
 10
321.0332718040077
 20
600.5184705053268
 10
320.9601155967837
 20
601.5603595713285
  0
LINE
  5
1210
330
1E
100
AcDbEntity
  8
STEMPEL
100
AcDbLine
 10
320.9601155967839
 20
608.0603595713262
 30
0.0
 11
320.9601155967837
 21
601.5603595713296
 31
0.0
  0
LINE
  5
1211
330
1E
100
AcDbEntity
  8
STEMPEL
100
AcDbLine
 10
326.4161027435177
 20
608.060359571326
 30
0.0
 11
326.4161027435175
 21
601.5603595713283
 31
0.0
  0
LINE
  5
1212
330
1E
100
AcDbEntity
  8
STEMPEL
100
AcDbLine
 10
325.4519885737551
 20
608.060359571326
 30
0.0
 11
325.4519885737549
 21
601.5603595713283
 31
0.0
  0
LINE
  5
1213
330
1E
100
AcDbEntity
  8
STEMPEL
100
AcDbLine
 10
324.4582098602172
 20
608.060359571326
 30
0.0
 11
324.4582098602171
 21
601.5603595713272
 31
0.0
  0
LWPOLYLINE
  5
1214
330
1E
100
AcDbEntity
  8
STEMPEL
100
AcDbPolyline
 90
       10
 70
   128
 43
0.0
 10
320.0352286378799
 20
595.560359571328
 10
319.1990493630383
 20
595.6515130532547
 10
318.3882769723358
 20
595.9222038466126
 10
317.6275463745929
 20
596.3642071486214
 10
316.9399719840741
 20
596.9640929126143
 10
316.3464454007057
 20
597.703633913209
 10
315.8650006293845
 20
598.5603595713282
 10
315.5102661258641
 20
599.5082387113742
 10
315.29302031853
 20
600.5184705053268
 10
315.219864111306
 20
601.5603595713285
  0
LINE
  5
1215
330
1E
100
AcDbEntity
  8
STEMPEL
100
AcDbLine
 10
323.1136872294523
 20
596.5603595713279
 30
0.0
 11
318.2994900804809
 21
596.560359571328
 31
0.0
  0
LINE
  5
1216
330
1E
100
AcDbEntity
  8
STEMPEL
100
AcDbLine
 10
329.0365619271882
 20
596.5603595713279
 30
0.0
 11
328.0724477574255
 21
596.5603595713279
 31
0.0
  0
LWPOLYLINE
  5
1217
330
1E
100
AcDbEntity
  8
STEMPEL
100
AcDbPolyline
 90
       10
 70
   128
 43
0.0
 10
329.9641985912479
 20
595.5603595713279
 10
329.1061255949752
 20
595.6264867859005
 10
328.2533133953529
 20
595.8790405356308
 10
327.4325550884359
 20
596.3100862519484
 10
326.669636722037
 20
596.9060816223883
 10
325.9885271665377
 20
597.6483020541089
 10
325.410625076592
 20
598.5134289509063
 10
324.9540866021858
 20
599.4742823216224
 10
324.6332549705882
 20
600.5006747033347
 10
324.4582098602171
 20
601.5603595713272
  0
LWPOLYLINE
  5
1218
330
1E
100
AcDbEntity
  8
STEMPEL
100
AcDbPolyline
 90
       10
 70
   128
 43
0.0
 10
331.9220914745484
 20
595.5603595713291
 10
331.0640184782756
 20
595.6264867859017
 10
330.2112062786534
 20
595.879040535632
 10
329.3904479717363
 20
596.3100862519495
 10
328.6275296053374
 20
596.9060816223894
 10
327.9464200498382
 20
597.6483020541101
 10
327.3685179598925
 20
598.5134289509074
 10
326.9119794854863
 20
599.4742823216236
 10
326.5911478538887
 20
600.5006747033357
 10
326.4161027435175
 20
601.5603595713283
  0
ARC
  5
1219
330
1E
100
AcDbEntity
  8
STEMPEL
100
AcDbCircle
 10
332.6257899845528
 20
601.5603595713283
 30
0.0
 40
5.0
100
AcDbArc
 50
180.0
 51
269.9999999999984
  0
ARC
  5
121A
330
1E
100
AcDbEntity
  8
STEMPEL
100
AcDbCircle
 10
332.6257899845528
 20
601.5603595713283
 30
0.0
 40
6.0
100
AcDbArc
 50
180.0
 51
269.9999999999984
  0
LWPOLYLINE
  5
121B
330
1E
100
AcDbEntity
  8
STEMPEL
100
AcDbPolyline
 90
       18
 70
   128
 43
0.0
 10
-320.9601155967839
 20
608.0603595713262
 10
-320.9112462518675
 20
609.4384809549507
 10
-320.7663024040475
 20
610.7696720677304
 10
-320.5302199422203
 20
612.0086007929073
 10
-320.2110383714735
 20
613.1130768986764
 10
-319.8196270373832
 20
614.0454887759293
 10
-319.3693149834853
 20
614.7740842564906
 10
-318.8754370466858
 20
615.2740518951238
 10
-318.3548116477809
 20
615.5283658935405
 10
-317.8251680603091
 20
615.5283658935405
 10
-317.3045426614041
 20
615.2740518951238
 10
-316.8106647246047
 20
614.7740842564906
 10
-316.3603526707067
 20
614.0454887759293
 10
-315.9689413366164
 20
613.1130768986764
 10
-315.6497597658697
 20
612.0086007929073
 10
-315.4136773040424
 20
610.7696720677304
 10
-315.2687334562224
 20
609.4384809549507
 10
-315.2198641113061
 20
608.0603595713262
210
0.0
220
0.0
230
-1.0
  0
LWPOLYLINE
  5
121C
330
1E
100
AcDbEntity
  8
STEMPEL
100
AcDbPolyline
 90
        9
 70
   128
 43
0.0
 10
-318.5530170222969
 20
615.4621178159913
 10
-318.0639564790283
 20
615.1356849182339
 10
-317.6043435111273
 20
614.5904159049766
 10
-317.1883937075031
 20
613.8431756618487
 10
-316.8289721782115
 20
612.9170759390712
 10
-316.537195643324
 20
611.8407605171008
 10
-316.3220885985858
 20
610.64751926947
 10
-316.1903041924783
 20
609.3742585243941
 10
-316.1459184478135
 20
608.0603595713277
210
0.0
220
0.0
230
-1.0
  0
LWPOLYLINE
  5
121D
330
1E
100
AcDbEntity
  8
STEMPEL
100
AcDbPolyline
 90
       18
 70
   128
 43
0.0
 10
-326.4161027435177
 20
608.060359571326
 10
-326.3994343200409
 20
609.4384809549507
 10
-326.3499966727805
 20
610.7696720677303
 10
-326.26947334152
 20
612.0086007929071
 10
-326.1606064517284
 20
613.1130768986764
 10
-326.0271033347661
 20
614.0454887759292
 10
-325.873510279162
 20
614.7740842564904
 10
-325.7050577122099
 20
615.2740518951238
 10
-325.527482084041
 20
615.5283658935405
 10
-325.3468305196939
 20
615.5283658935405
 10
-325.169254891525
 20
615.2740518951238
 10
-325.000802324573
 20
614.7740842564904
 10
-324.8472092689688
 20
614.0454887759292
 10
-324.7137061520065
 20
613.1130768986764
 10
-324.6048392622149
 20
612.0086007929071
 10
-324.5243159309544
 20
610.7696720677303
 10
-324.474878283694
 20
609.4384809549507
 10
-324.4582098602172
 20
608.060359571326
210
0.0
220
0.0
230
-1.0
  0
LINE
  5
121E
330
1E
100
AcDbEntity
  8
STEMPEL
100
AcDbLine
 10
347.625789984553
 20
596.5603595713282
 30
0.0
 11
347.6257899845531
 21
595.5603595713279
 31
0.0
  0
LINE
  5
121F
330
1E
100
AcDbEntity
  8
STEMPEL
100
AcDbLine
 10
347.6257899845529
 20
596.5603595713279
 30
0.0
 11
332.6257899845527
 21
596.5603595713283
 31
0.0
  0
LWPOLYLINE
  5
1220
330
1E
100
AcDbEntity
  8
STEMPEL
100
AcDbPolyline
 90
       10
 70
   128
 43
0.0
 10
312.8257711022301
 20
595.560359571328
 10
312.0680214771359
 20
595.6515130532547
 10
311.3332956909604
 20
595.9222038466126
 10
310.6439180149272
 20
596.3642071486214
 10
310.0208348408809
 20
596.9640929126143
 10
309.4829782357694
 20
597.703633913209
 10
309.0466907003705
 20
598.5603595713284
 10
308.7252286106752
 20
599.5082387113743
 10
308.5283594296111
 20
600.5184705053269
 10
308.4620649276244
 20
601.5603595713286
  0
ELLIPSE
  5
1221
330
1E
100
AcDbEntity
  8
STEMPEL
100
AcDbEllipse
 10
311.7988354912161
 20
653.0603595713281
 30
0.0
 11
0.0000000000000334
 21
7.499999999999999
 31
0.0
210
0.0
220
0.0
230
-1.0
 40
0.4999999999999926
 41
4.712388980384689
 42
7.853981633974482
  0
ELLIPSE
  5
1222
330
1E
100
AcDbEntity
  8
STEMPEL
100
AcDbEllipse
 10
312.6668995109051
 20
653.0603595713281
 30
0.0
 11
0.0000000000000334
 21
7.499999999999999
 31
0.0
210
0.0
220
0.0
230
-1.0
 40
0.4999999999999926
 41
4.712388980384689
 42
6.167183451052224
  0
ELLIPSE
  5
1223
330
1E
100
AcDbEntity
  8
STEMPEL
100
AcDbEllipse
 10
312.666899510905
 20
628.0603595713297
 30
0.0
 11
-0.0000000000000334
 21
-7.499999999999999
 31
0.0
210
0.0
220
0.0
230
1.0
 40
0.4999999999999926
 41
4.712388980384689
 42
6.167183451052224
  0
ELLIPSE
  5
1224
330
1E
100
AcDbEntity
  8
STEMPEL
100
AcDbEllipse
 10
311.798835491216
 20
628.0603595713297
 30
0.0
 11
-0.0000000000000334
 21
-7.499999999999999
 31
0.0
210
0.0
220
0.0
230
1.0
 40
0.4999999999999926
 41
4.712388980384689
 42
7.853981633974482
  0
LINE
  5
1225
330
1E
100
AcDbEntity
  8
STEMPEL
100
AcDbLine
 10
327.6257899845532
 20
665.5603016040124
 30
0.0
 11
327.6257899845529
 21
601.5603595713283
 31
0.0
  0
LINE
  5
1226
330
1E
100
AcDbEntity
  8
STEMPEL
100
AcDbLine
 10
326.6257899845531
 20
665.5603016040124
 30
0.0
 11
326.6257899845528
 21
601.5603595713283
 31
0.0
  0
LINE
  5
1227
330
1E
100
AcDbEntity
  8
HILF
100
AcDbLine
 10
115.2994569270226
 20
668.5603595713317
 30
0.0
 11
320.452123042084
 21
668.5603595713305
 31
0.0
  0
LINE
  5
1228
330
1E
100
AcDbEntity
  8
STEMPEL
100
AcDbLine
 10
347.6257899845529
 20
595.5603595713279
 30
0.0
 11
87.62578998455282
 21
595.5603595713291
 31
0.0
  0
HATCH
  5
1229
330
1E
100
AcDbEntity
  8
SCHRAFF
100
AcDbHatch
 10
0.0
 20
0.0
 30
0.0
210
0.0
220
0.0
230
1.0
  2
ANSI31
 70
     0
 71
     0
 91
        5
 92
        7
 72
     1
 73
     1
 93
       39
 10
137.6257899845531
 20
685.5603595713288
 42
0.1316524975847141
 10
134.6257899846083
 20
684.7565119940667
 42
0.0
 10
110.5930953628432
 20
670.7374401313711
 42
0.2662608607102479
 10
107.625789984553
 20
665.560301604013
 42
0.0
 10
107.625789984553
 20
660.5603595713288
 42
0.0
 10
108.6257899845531
 20
660.5603595713288
 42
0.0
 10
108.6257899845531
 20
665.5603016040133
 42
-0.2667503951500742
 10
111.1064364164262
 20
669.8791970182098
 42
0.0
 10
135.0852903093772
 20
683.866850184395
 42
-0.1340385084111775
 10
137.6257899845531
 20
684.5603595713288
 42
0.0
 10
192.1862753894965
 20
684.5603595713283
 42
0.2679491924311568
 10
194.3513388989578
 20
685.8103595713283
 42
-0.2679491924313146
 10
194.7843516008505
 20
686.0603595713281
 42
0.0
 10
194.9843516008506
 20
686.0603595713281
 42
-0.2679491924310819
 10
195.4173643027428
 20
685.8103595713282
 42
0.2679491924311186
 10
197.5824278122039
 20
684.5603595713283
 42
0.0
 10
204.0362753894969
 20
684.5603595713283
 42
0.2679491924311333
 10
206.2013388989581
 20
685.8103595713282
 42
-0.2679491924311795
 10
206.6343516008505
 20
686.0603595713282
 42
0.0
 10
206.8343516008505
 20
686.0603595713282
 42
-0.3419987131196873
 10
207.3184745191265
 20
685.6853595713281
 42
0.359675761990544
 10
208.865217870254
 20
684.5633313699994
 42
0.3596757619904921
 10
210.4119612213814
 20
685.6853595713281
 42
-0.3419987131195469
 10
210.896084139657
 20
686.0603595713281
 42
0.0
 10
217.6257899845532
 20
686.0603595713281
 42
0.0
 10
217.6257899845532
 20
687.0603595713281
 42
0.0
 10
210.896084139657
 20
687.0603595713281
 42
0.3419987131196276
 10
209.4437153848293
 20
685.9353595713281
 42
-0.3419987131196876
 10
208.9595924665534
 20
685.5603595713281
 42
0.0
 10
208.7708432739545
 20
685.5603595713281
 42
-0.3419987131196593
 10
208.2867203556786
 20
685.9353595713281
 42
0.3607372083888518
 10
206.7343516008505
 20
687.0570225260377
 42
0.2859076546238796
 10
205.3353134951737
 20
686.3103595713281
 42
-0.2679491924311347
 10
204.036275389497
 20
685.5603595713281
 42
0.0
 10
197.5824278122029
 20
685.5603595713281
 42
-0.2679491924310867
 10
196.2833897065264
 20
686.3103595713279
 42
0.2859076546238621
 10
194.8843516008498
 20
687.0570225260378
 42
0.2859076546237983
 10
193.4853134951735
 20
686.3103595713281
 42
-0.267949192431112
 10
192.1862753894969
 20
685.5603595713283
 42
0.0
 97
        0
 92
        7
 72
     1
 73
     1
 93
        8
 10
107.6257899845527
 20
601.5603595713294
 42
-0.4142135623730736
 10
102.625789984553
 20
596.5603595713294
 42
0.0
 10
99.62578998455294
 20
596.5603595713292
 42
0.0
 10
99.62578998455295
 20
595.5603595713291
 42
0.0
 10
102.6257899845528
 20
595.5603595713291
 42
0.414213562373112
 10
108.6257899845528
 20
601.5603595713294
 42
0.0
 10
108.6257899845529
 20
620.5603595713288
 42
0.0
 10
107.6257899845528
 20
620.5603595713288
 42
0.0
 97
        0
 92
        7
 72
     0
 73
     1
 93
        4
 10
87.62578998455305
 20
596.560359571329
 10
87.62578998455291
 20
595.5603595713291
 10
91.62578998455295
 20
595.5603595713291
 10
91.62578998455293
 20
596.5603595713291
 97
        0
 92
        7
 72
     1
 73
     1
 93
        8
 10
347.6257899845533
 20
595.5603595713279
 42
0.0
 10
347.625789984553
 20
596.5603595713279
 42
0.0
 10
332.6257899845527
 20
596.5603595713283
 42
-0.4142135623730833
 10
327.6257899845529
 20
601.5603595713283
 42
0.0
 10
327.6257899845532
 20
620.5603595713277
 42
0.0
 10
326.6257899845529
 20
620.5603595713279
 42
0.0
 10
326.6257899845528
 20
601.5603595713283
 42
0.4142135623731169
 10
332.6257899845528
 20
595.5603595713279
 42
0.0
 97
        0
 92
        7
 72
     1
 73
     1
 93
       40
 10
242.8874278122039
 20
685.5603595713279
 42
-0.2679491924311478
 10
241.5883897065272
 20
686.3103595713281
 42
0.2859076546238744
 10
240.1893516008505
 20
687.0570225260376
 42
0.2859076546239183
 10
238.7903134951735
 20
686.3103595713279
 42
-0.2679491924311158
 10
237.4912753894969
 20
685.5603595713279
 42
0.0
 10
235.4324278122042
 20
685.5603595713279
 42
-0.2679491924311457
 10
234.1333897065275
 20
686.3103595713281
 42
0.2859076546238805
 10
232.7343516008507
 20
687.0570225260377
 42
0.2859076546238791
 10
231.335313495174
 20
686.310359571328
 42
-0.2679491924311259
 10
230.0362753894973
 20
685.560359571328
 42
0.0
 10
223.5824278122033
 20
685.560359571328
 42
-0.2679491924311028
 10
222.2833897065267
 20
686.3103595713279
 42
0.2679491924311533
 10
220.98435160085
 20
687.0603595713281
 42
0.0
 10
217.6257899845532
 20
687.0603595713281
 42
0.0
 10
217.6257899845532
 20
686.060359571328
 42
0.0
 10
220.9843516008506
 20
686.0603595713281
 42
-0.267949192431122
 10
221.4173643027428
 20
685.8103595713281
 42
0.267949192431119
 10
223.5824278122039
 20
684.5603595713281
 42
0.0
 10
230.0362753894975
 20
684.5603595713281
 42
0.2679491924311053
 10
232.2013388989585
 20
685.8103595713279
 42
-0.2679491924310267
 10
232.6343516008505
 20
686.0603595713281
 42
0.0
 10
232.8343516008505
 20
686.0603595713281
 42
-0.2679491924311632
 10
233.2673643027427
 20
685.810359571328
 42
0.2679491924311225
 10
235.4324278122039
 20
684.5603595713281
 42
0.0
 10
237.4912753894966
 20
684.5603595713281
 42
0.2679491924311512
 10
239.6563388989578
 20
685.8103595713281
 42
-0.2679491924312574
 10
240.0893516008504
 20
686.060359571328
 42
0.0
 10
240.2893516008504
 20
686.060359571328
 42
-0.2679491924311204
 10
240.7223643027426
 20
685.810359571328
 42
0.2679491924311204
 10
242.8874278122037
 20
684.560359571328
 42
0.0
 10
297.6257899845533
 20
684.5603595713277
 42
-0.1340385084113062
 10
300.1662896597292
 20
683.8668501843942
 42
0.0
 10
324.1451435526803
 20
669.8791970182086
 42
-0.2667503951500889
 10
326.6257899845531
 20
665.5603016040125
 42
0.0
 10
326.6257899845531
 20
660.5603595713279
 42
0.0
 10
327.6257899845532
 20
660.5603595713279
 42
0.0
 10
327.6257899845532
 20
665.5603016040124
 42
0.2662608607100668
 10
324.6584846062668
 20
670.7374401313679
 42
0.0
 10
300.6257899844755
 20
684.7565119940792
 42
0.1316524975835771
 10
297.6257899845533
 20
685.5603595713273
 42
0.0
 97
        0
 75
     0
 76
     1
 52
0.0
 41
20.0
 77
     0
 78
     1
 53
134.9999999999997
 43
456.0692615392262
 44
178.7340092228138
 45
1.767766952966376
 46
1.767766952966361
 79
     0
 47
0.2376111440341236
 98
        5
 10
155.5157123228271
 20
685.3551823542464
 10
107.8349980108354
 20
611.6908874758415
 10
89.30512211116624
 20
596.3429664442545
 10
340.7527990870329
 20
595.919226113128
 10
290.3344884896235
 20
685.261018633979
  0
DIMENSION
  5
122A
330
1E
100
AcDbEntity
  8
BEM
100
AcDbDimension
  2
*D7
 10
347.625789984553
 20
715.6685487050016
 30
0.0
 11
217.6257899845531
 21
722.1685487050016
 31
0.0
 70
    32
  1
%%c<>
 71
     5
 42
260.0
  3
Standard
100
AcDbAlignedDimension
 13
87.62578998455305
 23
596.560359571329
 33
0.0
 14
347.625789984553
 24
596.5603595713279
 34
0.0
100
AcDbRotatedDimension
1001
ACAD
1000
DSTYLE
1002
{
1070
    40
1040
2.0
1070
    41
1040
3.5
1070
    42
1040
1.0
1070
    43
1040
7.0
1070
    44
1040
1.0
1070
    73
1070
     0
1070
    74
1070
     0
1070
    77
1070
     1
1070
    78
1070
     8
1070
    79
1070
     2
1070
   140
1040
3.5
1070
   141
1040
1.5
1070
   146
1040
0.5142857142857144
1070
   147
1040
1.5
1070
   172
1070
     1
1070
   178
1070
     1
1070
   179
1070
     2
1070
   271
1070
     2
1070
   272
1070
     2
1070
   284
1070
     8
1070
   285
1070
     8
1070
   286
1070
     8
1002
}
  0
LINE
  5
122B
330
1E
100
AcDbEntity
  8
TEXT
 62
     2
100
AcDbLine
 10
327.261909173925
 20
647.2065708787687
 30
0.0
 11
365.6124929551812
 21
674.5808091885189
 31
0.0
  0
LINE
  5
122C
330
1E
100
AcDbEntity
  8
TEXT
 62
     2
100
AcDbLine
 10
349.6173958776878
 20
579.8666691468297
 30
0.0
 11
366.0038865707216
 21
608.5320065459953
 31
0.0
  0
LINE
  5
122D
330
1E
100
AcDbEntity
  8
STEMPEL
100
AcDbLine
 10
352.6257899845528
 20
580.5603595713289
 30
0.0
 11
82.62578998455301
 21
580.5603595713283
 31
0.0
  0
LWPOLYLINE
  5
122E
330
1E
100
AcDbEntity
  8
STEMPEL
100
AcDbPolyline
 90
       10
 70
   128
 43
0.0
 10
293.4362753706647
 20
595.5603595713281
 10
292.8002710106639
 20
595.6515130532549
 10
292.1835913213077
 20
595.9222038466126
 10
291.6049738029026
 20
596.3642071486216
 10
291.0819994559508
 20
596.9640929126143
 10
290.6305585913463
 20
597.703633913209
 10
290.2643680113203
 20
598.5603595713284
 10
289.9945542313454
 20
599.5082387113744
 10
289.8293154065937
 20
600.5184705053269
 10
289.7736722351406
 20
601.5603595713286
  0
LINE
  5
122F
330
1E
100
AcDbEntity
  8
STEMPEL
100
AcDbLine
 10
289.7736722351407
 20
608.0603595713263
 30
0.0
 11
289.7736722351406
 21
601.5603595713297
 31
0.0
  0
LINE
  5
1230
330
1E
100
AcDbEntity
  8
STEMPEL
100
AcDbLine
 10
291.411695311246
 20
596.5603595713282
 30
0.0
 11
280.1215896547389
 21
596.5603595713282
 31
0.0
  0
LWPOLYLINE
  5
1231
330
1E
100
AcDbEntity
  8
STEMPEL
100
AcDbPolyline
 90
        7
 70
   128
 43
0.0
 10
302.0774412078314
 20
596.5603595713282
 10
301.5155122345673
 20
597.1696974731688
 10
301.0335742949802
 20
597.8971277464583
 10
300.6445897152303
 20
598.7230852404019
 10
300.3590207241238
 20
599.6253547908642
 10
300.184548058328
 20
600.5796687251073
 10
300.125864379313
 20
601.5603595713286
  0
LINE
  5
1232
330
1E
100
AcDbEntity
  8
STEMPEL
100
AcDbLine
 10
299.3306434924925
 20
608.0603595713263
 30
0.0
 11
299.3306434924924
 21
601.5603595713297
 31
0.0
  0
LINE
  5
1233
330
1E
100
AcDbEntity
  8
STEMPEL
100
AcDbLine
 10
300.1258643793132
 20
608.0603595713263
 30
0.0
 11
300.1258643793131
 21
601.5603595713297
 31
0.0
  0
LWPOLYLINE
  5
1234
330
1E
100
AcDbEntity
  8
STEMPEL
100
AcDbPolyline
 90
       10
 70
   128
 43
0.0
 10
303.6943496670982
 20
595.5603595713281
 10
302.936600042004
 20
595.6515130532549
 10
302.2018742558285
 20
595.9222038466126
 10
301.5124965797954
 20
596.3642071486215
 10
300.8894134057491
 20
596.9640929126143
 10
300.3515568006375
 20
597.703633913209
 10
299.9152692652386
 20
598.5603595713284
 10
299.5938071755433
 20
599.5082387113743
 10
299.3969379944793
 20
600.5184705053269
 10
299.3306434924925
 20
601.5603595713286
  0
LWPOLYLINE
  5
1235
330
1E
100
AcDbEntity
  8
STEMPEL
100
AcDbPolyline
 90
       10
 70
   128
 43
0.0
 10
-304.6915750968793
 20
615.5603595713294
 10
-303.8987477510196
 20
615.4464177189209
 10
-303.1300100628739
 20
615.1080542272236
 10
-302.4087197380963
 20
614.5555500997126
 10
-301.7567928182148
 20
613.8056928947213
 10
-301.1940377727992
 20
612.8812666439779
 10
-300.7375536291363
 20
611.8103595713286
 10
-300.4012104269395
 20
610.6255106462709
 10
-300.1952277842094
 20
609.3627209038301
 10
-300.1258643793133
 20
608.0603595713279
210
0.0
220
0.0
230
-1.0
  0
LWPOLYLINE
  5
1236
330
1E
100
AcDbEntity
  8
STEMPEL
100
AcDbPolyline
 90
       18
 70
   128
 43
0.0
 10
-289.7736722351408
 20
608.0603595713263
 10
-289.6723596233365
 20
609.4384809549509
 10
-289.3718718674072
 20
610.7696720677305
 10
-288.8824417174861
 20
612.0086007929073
 10
-288.2207361303216
 20
613.1130768986765
 10
-287.4092886960566
 20
614.0454887759293
 10
-286.4757322838408
 20
614.7740842564907
 10
-285.4518580376147
 20
615.2740518951239
 10
-284.372532766832
 20
615.5283658935407
 10
-283.2745115990809
 20
615.5283658935408
 10
-282.1951863282981
 20
615.2740518951239
 10
-281.171312082072
 20
614.7740842564907
 10
-280.2377556698563
 20
614.0454887759294
 10
-279.4263082355912
 20
613.1130768986767
 10
-278.7646026484268
 20
612.0086007929073
 10
-278.2751724985056
 20
610.7696720677305
 10
-277.9746847425764
 20
609.4384809549509
 10
-277.873372130772
 20
608.0603595713263
210
0.0
220
0.0
230
-1.0
  0
LINE
  5
1237
330
1E
100
AcDbEntity
  8
STEMPEL
100
AcDbLine
 10
352.6257899845529
 20
580.5603595713286
 30
0.0
 11
352.6257899845529
 21
579.0603595713283
 31
0.0
  0
HATCH
  5
1238
330
1E
100
AcDbEntity
  8
SCHRAFF
100
AcDbHatch
 10
0.0
 20
0.0
 30
0.0
210
0.0
220
0.0
230
1.0
  2
_USER
 70
     0
 71
     0
 91
        4
 92
        7
 72
     0
 73
     1
 93
        4
 10
278.625789984553
 20
580.5603595713287
 10
278.625789984553
 20
579.0603595713287
 10
352.6257899845529
 20
579.0603595713284
 10
352.6257899845529
 20
580.5603595713287
 97
        0
 92
        7
 72
     0
 73
     1
 93
        4
 10
278.625789984553
 20
579.0603595713288
 10
278.625789984553
 20
580.5603595713287
 10
267.2257899845531
 20
580.5603595713287
 10
267.2257899845531
 20
579.0603595713287
 97
        0
 92
        7
 72
     0
 73
     1
 93
        4
 10
168.0257899845529
 20
579.0603595713288
 10
168.0257899845529
 20
580.5603595713285
 10
95.62578998455299
 20
580.5603595713285
 10
95.62578998455299
 20
579.0603595713291
 97
        0
 92
        7
 72
     0
 73
     1
 93
        4
 10
95.62578998455299
 20
579.0603595713291
 10
95.62578998455299
 20
580.5603595713285
 10
82.62578998455301
 20
580.5603595713283
 10
82.62578998455301
 20
579.0603595713291
 97
        0
 75
     0
 76
     0
 52
135.0
 41
2.0
 77
     0
 78
     1
 53
135.0
 43
-7.374210015446948
 44
55.63384694368915
 45
-1.414213562373095
 46
-1.414213562373094
 79
     0
 47
0.2802701113960166
 98
        4
 10
312.7286977161994
 20
579.9106565598335
 10
271.2345623940951
 20
579.6303866234246
 10
159.3686163291821
 20
579.6303866234246
 10
90.39863652306948
 20
579.6303866234246
  0
LINE
  5
1239
330
1E
100
AcDbEntity
  8
STEMPEL
100
AcDbLine
 10
352.6257899845528
 20
579.0603595713289
 30
0.0
 11
82.62578998455301
 21
579.0603595713283
 31
0.0
  0
LINE
  5
123A
330
1E
100
AcDbEntity
  8
STEMPEL
100
AcDbLine
 10
283.625789984553
 20
595.5603595713283
 30
0.0
 11
273.625789984553
 21
595.5603595713283
 31
0.0
  0
LINE
  5
123B
330
1E
100
AcDbEntity
  8
STEMPEL
100
AcDbLine
 10
273.625789984553
 20
580.5603595713282
 30
0.0
 11
273.625789984553
 21
595.5603595713283
 31
0.0
  0
LINE
  5
123C
330
1E
100
AcDbEntity
  8
STEMPEL
100
AcDbLine
 10
283.625789984553
 20
580.5603595713282
 30
0.0
 11
283.625789984553
 21
595.5603595713283
 31
0.0
  0
LINE
  5
123D
330
1E
100
AcDbEntity
  8
MITTEL
100
AcDbLine
 10
95.62578998455297
 20
574.0603595713284
 30
0.0
 11
95.62578998455299
 21
608.1603595713288
 31
0.0
  0
LINE
  5
123E
330
1E
100
AcDbEntity
  8
STEMPEL
100
AcDbLine
 10
97.62578998455296
 20
581.5603595713281
 30
0.0
 11
95.62578998455297
 21
581.0244611864658
 31
0.0
  0
LINE
  5
123F
330
1E
100
AcDbEntity
  8
STEMPEL
100
AcDbLine
 10
93.62578998455296
 20
581.5603595713281
 30
0.0
 11
95.62578998455297
 21
581.0244611864658
 31
0.0
  0
LINE
  5
1240
330
1E
100
AcDbEntity
  8
STEMPEL
100
AcDbLine
 10
97.62578998455296
 20
581.5603595713281
 30
0.0
 11
93.62578998455296
 21
581.5603595713281
 31
0.0
  0
LINE
  5
1241
330
1E
100
AcDbEntity
  8
STEMPEL
100
AcDbLine
 10
93.62578998455296
 20
581.5603595713279
 30
0.0
 11
93.62578998455299
 21
584.5603595713289
 31
0.0
  0
LINE
  5
1242
330
1E
100
AcDbEntity
  8
STEMPEL
100
AcDbLine
 10
97.62578998455296
 20
581.5603595713277
 30
0.0
 11
97.625789984553
 21
584.5603595713289
 31
0.0
  0
LINE
  5
1243
330
1E
100
AcDbEntity
  8
STEMPEL
100
AcDbLine
 10
98.62578998455298
 20
582.5603595713279
 30
0.0
 11
92.62578998455296
 21
582.5603595713281
 31
0.0
  0
LINE
  5
1244
330
1E
100
AcDbEntity
  8
HILF
100
AcDbLine
 10
98.62578998455298
 20
582.5603595713281
 30
0.0
 11
98.62578998455298
 21
585.1738595713288
 31
0.0
  0
LINE
  5
1245
330
1E
100
AcDbEntity
  8
HILF
100
AcDbLine
 10
92.62578998455296
 20
582.5603595713281
 30
0.0
 11
92.62578998455296
 21
585.1738595713288
 31
0.0
  0
LINE
  5
1246
330
1E
100
AcDbEntity
  8
STEMPEL
100
AcDbLine
 10
100.6257899845529
 20
580.5603595713281
 30
0.0
 11
100.6257899845529
 21
595.5603595713281
 31
0.0
  0
LINE
  5
1247
330
1E
100
AcDbEntity
  8
STEMPEL
100
AcDbLine
 10
90.62578998455297
 20
580.5603595713281
 30
0.0
 11
90.62578998455297
 21
595.5603595713281
 31
0.0
  0
LINE
  5
1248
330
1E
100
AcDbEntity
  8
STEMPEL
100
AcDbLine
 10
100.6257899845529
 20
595.5603595713281
 30
0.0
 11
90.62578998455297
 21
595.5603595713281
 31
0.0
  0
DIMENSION
  5
1249
330
1E
100
AcDbEntity
  8
BEM
100
AcDbDimension
  2
*D8
 10
61.96452998947759
 20
685.5603595713273
 30
0.0
 11
55.46452998947749
 21
640.5603595713277
 31
0.0
 70
    32
 71
     5
 42
89.9999999999992
  3
Standard
100
AcDbAlignedDimension
 13
87.62578998455316
 23
595.5603595713281
 33
0.0
 14
137.6257899845531
 24
685.5603595713273
 34
0.0
 50
90.0
100
AcDbRotatedDimension
1001
ACAD
1000
DSTYLE
1002
{
1070
    40
1040
2.0
1070
    41
1040
3.5
1070
    42
1040
1.0
1070
    43
1040
7.0
1070
    44
1040
1.0
1070
    73
1070
     0
1070
    74
1070
     0
1070
    77
1070
     1
1070
    78
1070
     8
1070
    79
1070
     2
1070
   140
1040
3.5
1070
   141
1040
1.5
1070
   146
1040
0.5142857142857144
1070
   147
1040
1.5
1070
   172
1070
     1
1070
   178
1070
     1
1070
   179
1070
     2
1070
   271
1070
     2
1070
   272
1070
     2
1070
   284
1070
     8
1070
   285
1070
     8
1070
   286
1070
     8
1002
}
  0
LINE
  5
124A
330
1E
100
AcDbEntity
  8
STEMPEL
100
AcDbLine
 10
98.62578998455294
 20
585.1738595713288
 30
0.0
 11
98.62578998455298
 21
596.5603595713288
 31
0.0
  0
LINE
  5
124B
330
1E
100
AcDbEntity
  8
STEMPEL
100
AcDbLine
 10
92.62578998455296
 20
596.5603595713288
 30
0.0
 11
92.62578998455296
 21
585.1738595713288
 31
0.0
  0
LINE
  5
124C
330
1E
100
AcDbEntity
  8
STEMPEL
100
AcDbLine
 10
98.01228998455295
 20
584.5603595713288
 30
0.0
 11
98.62578998455294
 21
585.1738595713288
 31
0.0
  0
LINE
  5
124D
330
1E
100
AcDbEntity
  8
STEMPEL
100
AcDbLine
 10
92.62578998455296
 20
585.1738595713288
 30
0.0
 11
93.23928998455295
 21
584.5603595713288
 31
0.0
  0
ARC
  5
124E
330
1E
100
AcDbEntity
  8
STEMPEL
100
AcDbCircle
 10
89.07578998455296
 20
597.1103595713287
 30
0.0
 40
0.5500000000000003
100
AcDbArc
 50
110.0000000000006
 51
270.0
  0
ARC
  5
124F
330
1E
100
AcDbEntity
  8
STEMPEL
100
AcDbCircle
 10
102.1757899845529
 20
597.1103595713287
 30
0.0
 40
0.5500000000000009
100
AcDbArc
 50
270.0
 51
69.99999999999935
  0
LINE
  5
1250
330
1E
100
AcDbEntity
  8
STEMPEL
100
AcDbLine
 10
102.363901063382
 20
597.627190512761
 30
0.0
 11
101.3992926764492
 21
597.9782792533281
 31
0.0
  0
LINE
  5
1251
330
1E
100
AcDbEntity
  8
STEMPEL
100
AcDbLine
 10
89.85228729265669
 20
597.9782792533281
 30
0.0
 11
88.88767890572381
 21
597.627190512761
 31
0.0
  0
LINE
  5
1252
330
1E
100
AcDbEntity
  8
STEMPEL
100
AcDbLine
 10
98.62578998455298
 20
585.1738595713288
 30
0.0
 11
92.62578998455296
 21
585.1738595713288
 31
0.0
  0
LINE
  5
1253
330
1E
100
AcDbEntity
  8
STEMPEL
100
AcDbLine
 10
98.01228998455295
 20
584.5603595713288
 30
0.0
 11
93.23928998455295
 21
584.5603595713288
 31
0.0
  0
LINE
  5
1254
330
1E
100
AcDbEntity
  8
STEMPEL
100
AcDbLine
 10
100.6257899845529
 20
603.1603595713288
 30
0.0
 11
90.62578998455297
 21
603.1603595713288
 31
0.0
  0
LINE
  5
1255
330
1E
100
AcDbEntity
  8
STEMPEL
100
AcDbLine
 10
101.3992926764492
 20
602.953100149692
 30
0.0
 11
101.3992926764492
 21
597.9782792533281
 31
0.0
  0
LINE
  5
1256
330
1E
100
AcDbEntity
  8
STEMPEL
100
AcDbLine
 10
98.51254133050108
 20
602.953100149692
 30
0.0
 11
98.51254133050108
 21
597.9782792533281
 31
0.0
  0
LINE
  5
1257
330
1E
100
AcDbEntity
  8
STEMPEL
100
AcDbLine
 10
92.73903863860482
 20
602.953100149692
 30
0.0
 11
92.73903863860482
 21
597.9782792533281
 31
0.0
  0
LINE
  5
1258
330
1E
100
AcDbEntity
  8
STEMPEL
100
AcDbLine
 10
89.85228729265669
 20
602.953100149692
 30
0.0
 11
89.85228729265669
 21
597.9782792533281
 31
0.0
  0
LINE
  5
1259
330
1E
100
AcDbEntity
  8
STEMPEL
100
AcDbLine
 10
102.1757899845529
 20
596.5603595713288
 30
0.0
 11
89.07578998455296
 21
596.5603595713288
 31
0.0
  0
LINE
  5
125A
330
1E
100
AcDbEntity
  8
STEMPEL
100
AcDbLine
 10
102.363901063382
 20
597.627190512761
 30
0.0
 11
88.88767890572381
 21
597.627190512761
 31
0.0
  0
LINE
  5
125B
330
1E
100
AcDbEntity
  8
HILF
100
AcDbLine
 10
98.01228998455295
 20
593.5603595713287
 30
0.0
 11
98.01228998455295
 21
584.5603595713288
 31
0.0
  0
LINE
  5
125C
330
1E
100
AcDbEntity
  8
HILF
100
AcDbLine
 10
98.01228998455295
 20
593.5603595713287
 30
0.0
 11
98.62578998455298
 21
596.5603595713288
 31
0.0
  0
LINE
  5
125D
330
1E
100
AcDbEntity
  8
HILF
100
AcDbLine
 10
92.62578998455296
 20
593.5603595713287
 30
0.0
 11
98.62578998455294
 21
593.5603595713287
 31
0.0
  0
LINE
  5
125E
330
1E
100
AcDbEntity
  8
HILF
100
AcDbLine
 10
93.23928998455295
 20
593.5603595713287
 30
0.0
 11
93.23928998455295
 21
584.5603595713288
 31
0.0
  0
LINE
  5
125F
330
1E
100
AcDbEntity
  8
HILF
100
AcDbLine
 10
93.23928998455295
 20
593.5603595713287
 30
0.0
 11
92.62578998455296
 21
596.5603595713288
 31
0.0
  0
POINT
  5
1260
330
1E
100
AcDbEntity
  8
0
100
AcDbPoint
 10
95.62578998455293
 20
584.5603595713288
 30
0.0
210
-0.0000000000000002
220
-1.0
230
0.0
  0
ARC
  5
1261
330
1E
100
AcDbEntity
  8
STEMPEL
100
AcDbCircle
 10
99.95591700347516
 20
598.0308224328057
 30
0.0
 40
5.129537138523076
100
AcDbArc
 50
73.65710669401501
 51
106.342893305985
  0
LINE
  5
1262
330
1E
100
AcDbEntity
  8
STEMPEL
100
AcDbLine
 10
100.6257899845529
 20
603.1603595713288
 30
0.0
 11
101.3992926764492
 21
602.953100149692
 31
0.0
  0
LINE
  5
1263
330
1E
100
AcDbEntity
  8
STEMPEL
100
AcDbLine
 10
90.62578998455297
 20
603.1603595713288
 30
0.0
 11
89.85228729265669
 21
602.953100149692
 31
0.0
  0
ARC
  5
1264
330
1E
100
AcDbEntity
  8
STEMPEL
100
AcDbCircle
 10
91.29566296563075
 20
598.0308224328057
 30
0.0
 40
5.129537138523076
100
AcDbArc
 50
73.65710669401501
 51
106.342893305985
  0
ARC
  5
1265
330
1E
100
AcDbEntity
  8
STEMPEL
100
AcDbCircle
 10
95.62578998455297
 20
582.953100149692
 30
0.0
 40
20.20725942163691
100
AcDbArc
 50
81.78678929826174
 51
98.21321070173826
  0
ARC
  5
1266
330
1E
100
AcDbEntity
  8
HILF
100
AcDbCircle
 10
99.95591700347516
 20
594.4178862476242
 30
0.0
 40
3.841839622940954
100
AcDbArc
 50
67.9324721810082
 51
112.0675278189918
  0
ARC
  5
1267
330
1E
100
AcDbEntity
  8
HILF
100
AcDbCircle
 10
91.29566296563075
 20
594.4190508095124
 30
0.0
 40
3.840760399790701
100
AcDbArc
 50
67.92594526324302
 51
112.0740547367569
  0
ARC
  5
1268
330
1E
100
AcDbEntity
  8
HILF
100
AcDbCircle
 10
95.62578998455297
 20
583.3190675441025
 30
0.0
 40
14.94074366520046
100
AcDbArc
 50
78.85962783889434
 51
101.1403721611056
  0
HATCH
  5
1269
330
1E
100
AcDbEntity
  8
SCHRAFF
100
AcDbHatch
 10
0.0
 20
0.0
 30
0.0
210
0.0
220
0.0
230
1.0
  2
_USER
 70
     0
 71
     0
 91
        4
 92
        7
 72
     0
 73
     1
 93
        9
 10
98.62578998455294
 20
585.1738595713288
 10
98.62578998455299
 20
582.5603595713279
 10
97.62578998455296
 20
582.5603595713279
 10
97.62578998455296
 20
581.5603595713281
 10
95.62578998455297
 20
581.0244611864658
 10
95.62578998455293
 20
580.5603595713281
 10
100.6257899845529
 20
580.5603595713281
 10
100.625789984553
 20
595.5603595713285
 10
98.62578998455299
 20
595.5603595713284
 97
        0
 92
       23
 72
     0
 73
     1
 93
        5
 10
97.62578998455305
 20
582.5603595713279
 10
98.62578998455298
 20
582.5603595713279
 10
98.62578998455298
 20
585.1738595713288
 10
98.012289984553
 20
584.5603595713288
 10
97.62578998455305
 20
584.5603595713288
 97
        0
 92
       22
 72
     0
 73
     1
 93
        5
 10
92.62578998455296
 20
582.5603595713281
 10
93.62578998455296
 20
582.5603595713281
 10
93.62578998455299
 20
584.5603595713289
 10
93.23928998455285
 20
584.5603595713288
 10
92.62578998455294
 20
585.1738595713287
 97
        0
 92
        7
 72
     0
 73
     1
 93
        9
 10
92.62578998455296
 20
585.1738595713288
 10
92.62578998455294
 20
595.5603595713287
 10
90.62578998455299
 20
595.5603595713287
 10
90.62578998455293
 20
580.5603595713282
 10
95.62578998455297
 20
580.5603595713283
 10
95.62578998455299
 20
581.0244611864658
 10
93.62578998455296
 20
581.5603595713282
 10
93.62578998455296
 20
582.560359571328
 10
92.62578998455296
 20
582.5603595713281
 97
        0
 75
     0
 76
     0
 52
45.0
 41
1.0
 77
     0
 78
     1
 53
45.0
 43
-54.62658234639133
 44
-10.59584534699786
 45
-0.7071067811865475
 46
0.7071067811865476
 79
     0
 47
0.0321819604051909
 98
        4
 10
99.59010122923615
 20
590.2657402868993
 10
97.98041707238059
 20
582.9926169454491
 10
93.11917323054201
 20
583.9902575587083
 10
92.41091198646842
 20
583.8293478454737
  0
ARC
  5
126A
330
1E
100
AcDbEntity
  8
STEMPEL
100
AcDbCircle
 10
108.1146463802415
 20
675.0801965537907
 30
0.0
 40
5.0
100
AcDbArc
 50
300.0670458384858
 51
300.2564371635302
  0
ARC
  5
126B
330
1E
100
AcDbEntity
  8
STEMPEL
100
AcDbCircle
 10
113.6257899845534
 20
665.560301604013
 30
0.0
 40
6.000000000000454
100
AcDbArc
 50
120.2564164748189
 51
179.9999999999935
  0
ARC
  5
126C
330
1E
100
AcDbEntity
  8
STEMPEL
100
AcDbCircle
 10
113.6257899845536
 20
665.560301604013
 30
0.0
 40
5.000000000000511
100
AcDbArc
 50
120.2564164748189
 51
179.9999999999935
  0
LINE
  5
126D
330
1E
100
AcDbEntity
  8
STEMPEL
100
AcDbLine
 10
107.6257899845533
 20
660.5603595713288
 30
0.0
 11
108.6257899845533
 21
660.5603595713288
 31
0.0
  0
LINE
  5
126E
330
1E
100
AcDbEntity
  8
STEMPEL
100
AcDbLine
 10
107.6257899845531
 20
620.5603595713288
 30
0.0
 11
108.6257899845531
 21
620.5603595713288
 31
0.0
  0
LINE
  5
126F
330
1E
100
AcDbEntity
  8
STEMPEL
100
AcDbLine
 10
87.62578998455305
 20
596.5603595713292
 30
0.0
 11
87.62578998455294
 21
595.5603595713291
 31
0.0
  0
LINE
  5
1270
330
1E
100
AcDbEntity
  8
STEMPEL
100
AcDbLine
 10
91.62578998455293
 20
596.560359571329
 30
0.0
 11
91.62578998455293
 21
595.5603595713291
 31
0.0
  0
LINE
  5
1271
330
1E
100
AcDbEntity
  8
STEMPEL
100
AcDbLine
 10
99.62578998455294
 20
596.5603595713295
 30
0.0
 11
99.62578998455294
 21
595.5603595713291
 31
0.0
  0
LWPOLYLINE
  5
1272
330
1E
100
AcDbEntity
  8
STEMPEL
100
AcDbPolyline
 90
        7
 70
   128
 43
0.0
 10
109.3175343104692
 20
614.5224136271669
 10
109.4553633200395
 20
613.7703073902283
 10
109.5742275970057
 20
612.8475937795136
 10
109.6705755989069
 20
611.7818425296094
 10
109.741528546445
 20
610.6048971927882
 10
109.784966438453
 20
609.3519236863864
 10
109.7995913953506
 20
608.0603595713271
  0
LWPOLYLINE
  5
1273
330
1E
100
AcDbEntity
  8
STEMPEL
100
AcDbPolyline
 90
        7
 70
   128
 43
0.0
 10
-107.1791322116798
 20
596.5603595713294
 10
-107.8558340867572
 20
597.1699602991884
 10
-108.4553835103912
 20
597.8975193831001
 10
-108.9616721835408
 20
598.7234892447803
 10
-109.3610974755864
 20
599.6256782699833
 10
-109.6429278908493
 20
600.579847038177
 10
-109.7995913953508
 20
601.5603595713294
210
0.0
220
0.0
230
-1.0
  0
LWPOLYLINE
  5
1274
330
1E
100
AcDbEntity
  8
STEMPEL
100
AcDbPolyline
 90
       10
 70
   128
 43
0.0
 10
-109.4760998457479
 20
595.5603595713289
 10
-110.3122791205895
 20
595.6515130532557
 10
-111.1230515112921
 20
595.9222038466135
 10
-111.883782109035
 20
596.3642071486223
 10
-112.5713564995537
 20
596.9640929126152
 10
-113.1648830829221
 20
597.7036339132099
 10
-113.6463278542434
 20
598.5603595713292
 10
-114.0010623577637
 20
599.5082387113751
 10
-114.2183081650979
 20
600.5184705053277
 10
-114.2914643723219
 20
601.5603595713294
210
0.0
220
0.0
230
-1.0
  0
LINE
  5
1275
330
1E
100
AcDbEntity
  8
STEMPEL
100
AcDbLine
 10
108.8354772255881
 20
608.0603595713271
 30
0.0
 11
108.835477225588
 21
601.5603595713294
 31
0.0
  0
LINE
  5
1276
330
1E
100
AcDbEntity
  8
STEMPEL
100
AcDbLine
 10
114.2914643723219
 20
608.0603595713271
 30
0.0
 11
114.2914643723219
 21
601.5603595713305
 31
0.0
  0
LINE
  5
1277
330
1E
100
AcDbEntity
  8
STEMPEL
100
AcDbLine
 10
110.7933701088886
 20
608.0603595713271
 30
0.0
 11
110.7933701088885
 21
601.5603595713282
 31
0.0
  0
LINE
  5
1278
330
1E
100
AcDbEntity
  8
STEMPEL
100
AcDbLine
 10
109.7995913953507
 20
608.0603595713271
 30
0.0
 11
109.7995913953507
 21
601.5603595713294
 31
0.0
  0
LINE
  5
1279
330
1E
100
AcDbEntity
  8
STEMPEL
100
AcDbLine
 10
106.2150180419174
 20
596.5603595713289
 30
0.0
 11
107.17913221168
 21
596.5603595713289
 31
0.0
  0
ARC
  5
127A
330
1E
100
AcDbEntity
  8
STEMPEL
100
AcDbCircle
 10
102.6257899845528
 20
601.5603595713295
 30
0.0
 40
5.0
100
AcDbArc
 50
270.0000000000017
 51
0.0
  0
LWPOLYLINE
  5
127B
330
1E
100
AcDbEntity
  8
STEMPEL
100
AcDbPolyline
 90
       10
 70
   128
 43
0.0
 10
-103.3294884945572
 20
595.5603595713301
 10
-104.18756149083
 20
595.6264867859028
 10
-105.0403736904522
 20
595.8790405356329
 10
-105.8611319973692
 20
596.3100862519505
 10
-106.6240503637683
 20
596.9060816223904
 10
-107.3051599192674
 20
597.648302054111
 10
-107.8830620092131
 20
598.5134289509085
 10
-108.3396004836193
 20
599.4742823216246
 10
-108.6604321152169
 20
600.5006747033368
 10
-108.835477225588
 20
601.5603595713294
210
0.0
220
0.0
230
-1.0
  0
ARC
  5
127C
330
1E
100
AcDbEntity
  8
STEMPEL
100
AcDbCircle
 10
102.6257899845528
 20
601.5603595713295
 30
0.0
 40
6.0
100
AcDbArc
 50
270.0000000000017
 51
0.0
  0
LWPOLYLINE
  5
127D
330
1E
100
AcDbEntity
  8
STEMPEL
100
AcDbPolyline
 90
       10
 70
   128
 43
0.0
 10
-105.2873813778577
 20
595.5603595713291
 10
-106.1454543741304
 20
595.6264867859016
 10
-106.9982665737527
 20
595.8790405356317
 10
-107.8190248806697
 20
596.3100862519494
 10
-108.5819432470688
 20
596.9060816223892
 10
-109.2630528025679
 20
597.6483020541098
 10
-109.8409548925136
 20
598.5134289509074
 10
-110.2974933669198
 20
599.4742823216235
 10
-110.6183249985174
 20
600.5006747033356
 10
-110.7933701088885
 20
601.5603595713282
210
0.0
220
0.0
230
-1.0
  0
LINE
  5
127E
330
1E
100
AcDbEntity
  8
STEMPEL
100
AcDbLine
 10
87.62578998455316
 20
596.560359571329
 30
0.0
 11
102.625789984553
 21
596.5603595713294
 31
0.0
  0
LWPOLYLINE
  5
127F
330
1E
100
AcDbEntity
  8
STEMPEL
100
AcDbPolyline
 90
       18
 70
   128
 43
0.0
 10
108.8354772255881
 20
608.0603595713271
 10
108.8521456490649
 20
609.4384809549516
 10
108.9015832963253
 20
610.7696720677313
 10
108.9821066275857
 20
612.0086007929081
 10
109.0909735173774
 20
613.1130768986773
 10
109.2244766343397
 20
614.0454887759302
 10
109.3780696899438
 20
614.7740842564915
 10
109.5465222568959
 20
615.2740518951247
 10
109.7240978850648
 20
615.5283658935415
 10
109.9047494494118
 20
615.5283658935415
 10
110.0823250775808
 20
615.2740518951247
 10
110.2507776445328
 20
614.7740842564915
 10
110.404370700137
 20
614.0454887759302
 10
110.5378738170992
 20
613.1130768986773
 10
110.6467407068909
 20
612.0086007929081
 10
110.7272640381514
 20
610.7696720677313
 10
110.7767016854117
 20
609.4384809549516
 10
110.7933701088886
 20
608.0603595713271
  0
LINE
  5
1280
330
1E
100
AcDbEntity
  8
STEMPEL
100
AcDbLine
 10
108.6257899845531
 20
665.5603016040133
 30
0.0
 11
108.6257899845528
 21
601.5603595713294
 31
0.0
  0
LINE
  5
1281
330
1E
100
AcDbEntity
  8
STEMPEL
100
AcDbLine
 10
107.625789984553
 20
665.5603016040133
 30
0.0
 11
107.6257899845527
 21
601.5603595713294
 31
0.0
  0
ARC
  5
1282
330
1E
100
AcDbEntity
  8
STEMPEL
100
AcDbCircle
 10
137.625789984553
 20
679.5603595713283
 30
0.0
 40
6.0
100
AcDbArc
 50
90.0
 51
90.0
  0
ARC
  5
1283
330
1E
100
AcDbEntity
  8
STEMPEL
100
AcDbCircle
 10
137.6257899845531
 20
679.560359571329
 30
0.0
 40
5.999999999999263
100
AcDbArc
 50
90.0
 51
120.5128743276239
  0
ARC
  5
1284
330
1E
100
AcDbEntity
  8
STEMPEL
100
AcDbCircle
 10
137.6257899845551
 20
679.5603595713238
 30
0.0
 40
5.000000000004884
100
AcDbArc
 50
90.00000000002442
 51
120.5373500482977
  0
ARC
  5
1285
330
1E
100
AcDbEntity
  8
STEMPEL
100
AcDbCircle
 10
194.9843516008506
 20
685.5603595713281
 30
0.0
 40
1.5
100
AcDbArc
 50
30.00000000000782
 51
90.0
  0
ARC
  5
1286
330
1E
100
AcDbEntity
  8
STEMPEL
100
AcDbCircle
 10
194.9843516008506
 20
685.5603595713281
 30
0.0
 40
0.5
100
AcDbArc
 50
30.00000000000782
 51
90.0
  0
LINE
  5
1287
330
1E
100
AcDbEntity
  8
STEMPEL
100
AcDbLine
 10
194.9843516008506
 20
686.0603595713281
 30
0.0
 11
194.7843516008505
 21
686.0603595713281
 31
0.0
  0
ARC
  5
1288
330
1E
100
AcDbEntity
  8
STEMPEL
100
AcDbCircle
 10
194.7843516008505
 20
685.5603595713281
 30
0.0
 40
0.5
100
AcDbArc
 50
90.0
 51
150.0000000000075
  0
ARC
  5
1289
330
1E
100
AcDbEntity
  8
STEMPEL
100
AcDbCircle
 10
194.7843516008505
 20
685.5603595713281
 30
0.0
 40
1.5
100
AcDbArc
 50
90.0
 51
150.0000000000075
  0
ARC
  5
128A
330
1E
100
AcDbEntity
  8
STEMPEL
100
AcDbCircle
 10
192.1862753894965
 20
687.0603595713281
 30
0.0
 40
1.5
100
AcDbArc
 50
270.0
 51
330.0000000000076
  0
ARC
  5
128B
330
1E
100
AcDbEntity
  8
STEMPEL
100
AcDbCircle
 10
192.1862753894965
 20
687.0603595713281
 30
0.0
 40
2.5
100
AcDbArc
 50
270.0
 51
330.0000000000076
  0
LINE
  5
128C
330
1E
100
AcDbEntity
  8
STEMPEL
100
AcDbLine
 10
204.036275389497
 20
685.5603595713282
 30
0.0
 11
197.5824278122029
 21
685.5603595713282
 31
0.0
  0
LINE
  5
128D
330
1E
100
AcDbEntity
  8
STEMPEL
100
AcDbLine
 10
204.036275389497
 20
685.5603595713281
 30
0.0
 11
197.5824278122029
 21
685.5603595713281
 31
0.0
  0
ARC
  5
128E
330
1E
100
AcDbEntity
  8
STEMPEL
100
AcDbCircle
 10
206.6343516008505
 20
685.5603595713281
 30
0.0
 40
1.5
100
AcDbArc
 50
90.0
 51
150.0000000000002
  0
ARC
  5
128F
330
1E
100
AcDbEntity
  8
STEMPEL
100
AcDbCircle
 10
206.8343516008505
 20
685.5603595713281
 30
0.0
 40
1.5
100
AcDbArc
 50
14.47751218592986
 51
90.0
  0
ARC
  5
1290
330
1E
100
AcDbEntity
  8
STEMPEL
100
AcDbCircle
 10
208.7708432739545
 20
686.0603595713281
 30
0.0
 40
0.5
100
AcDbArc
 50
194.4775121859299
 51
270.0
  0
LINE
  5
1291
330
1E
100
AcDbEntity
  8
STEMPEL
100
AcDbLine
 10
208.9595924665537
 20
685.5603595713281
 30
0.0
 11
208.7708432739545
 21
685.5603595713281
 31
0.0
  0
ARC
  5
1292
330
1E
100
AcDbEntity
  8
STEMPEL
100
AcDbCircle
 10
206.8343516008505
 20
685.5603595713281
 30
0.0
 40
0.5
100
AcDbArc
 50
14.47751218592986
 51
90.0
  0
LINE
  5
1293
330
1E
100
AcDbEntity
  8
STEMPEL
100
AcDbLine
 10
206.8343516008505
 20
686.0603595713282
 30
0.0
 11
206.6343516008505
 21
686.0603595713282
 31
0.0
  0
ARC
  5
1294
330
1E
100
AcDbEntity
  8
STEMPEL
100
AcDbCircle
 10
206.6343516008505
 20
685.5603595713281
 30
0.0
 40
0.5
100
AcDbArc
 50
90.0
 51
150.0000000000002
  0
ARC
  5
1295
330
1E
100
AcDbEntity
  8
STEMPEL
100
AcDbCircle
 10
210.896084139657
 20
685.5603595713281
 30
0.0
 40
0.5
100
AcDbArc
 50
90.0
 51
165.5224878140701
  0
ARC
  5
1296
330
1E
100
AcDbEntity
  8
STEMPEL
100
AcDbCircle
 10
210.896084139657
 20
685.5603595713281
 30
0.0
 40
1.5
100
AcDbArc
 50
90.0
 51
165.5224878140701
  0
ARC
  5
1297
330
1E
100
AcDbEntity
  8
STEMPEL
100
AcDbCircle
 10
208.9595924665537
 20
686.0603595713281
 30
0.0
 40
0.5
100
AcDbArc
 50
270.0
 51
345.5224878140701
  0
ARC
  5
1298
330
1E
100
AcDbEntity
  8
STEMPEL
100
AcDbCircle
 10
204.036275389497
 20
687.0603595713281
 30
0.0
 40
1.5
100
AcDbArc
 50
270.0
 51
330.0000000000003
  0
ARC
  5
1299
330
1E
100
AcDbEntity
  8
STEMPEL
100
AcDbCircle
 10
208.9595924665537
 20
686.0603595713281
 30
0.0
 40
1.5
100
AcDbArc
 50
270.0
 51
345.5224878140701
  0
ARC
  5
129A
330
1E
100
AcDbEntity
  8
STEMPEL
100
AcDbCircle
 10
208.7708432739545
 20
686.0603595713281
 30
0.0
 40
1.5
100
AcDbArc
 50
194.4775121859299
 51
270.0
  0
ARC
  5
129B
330
1E
100
AcDbEntity
  8
STEMPEL
100
AcDbCircle
 10
204.036275389497
 20
687.0603595713281
 30
0.0
 40
2.5
100
AcDbArc
 50
270.0
 51
330.0000000000003
  0
ARC
  5
129C
330
1E
100
AcDbEntity
  8
STEMPEL
100
AcDbCircle
 10
197.5824278122029
 20
687.0603595713281
 30
0.0
 40
1.5
100
AcDbArc
 50
210.0000000000078
 51
270.0
  0
ARC
  5
129D
330
1E
100
AcDbEntity
  8
STEMPEL
100
AcDbCircle
 10
197.5824278122029
 20
687.0603595713281
 30
0.0
 40
2.5
100
AcDbArc
 50
210.0000000000078
 51
270.0
  0
ARC
  5
129E
330
1E
100
AcDbEntity
  8
STEMPEL
100
AcDbCircle
 10
220.9843516008506
 20
685.5603595713281
 30
0.0
 40
0.5
100
AcDbArc
 50
30.00000000000055
 51
90.0
  0
ARC
  5
129F
330
1E
100
AcDbEntity
  8
STEMPEL
100
AcDbCircle
 10
223.5824278122033
 20
687.060359571328
 30
0.0
 40
1.5
100
AcDbArc
 50
210.000000000007
 51
270.0
  0
ARC
  5
12A0
330
1E
100
AcDbEntity
  8
STEMPEL
100
AcDbCircle
 10
220.9843516008506
 20
685.5603595713281
 30
0.0
 40
1.5
100
AcDbArc
 50
30.00000000000055
 51
90.0
  0
ARC
  5
12A1
330
1E
100
AcDbEntity
  8
STEMPEL
100
AcDbCircle
 10
223.5824278122033
 20
687.060359571328
 30
0.0
 40
2.5
100
AcDbArc
 50
210.000000000007
 51
270.0
  0
ARC
  5
12A2
330
1E
100
AcDbEntity
  8
STEMPEL
100
AcDbCircle
 10
230.0362753894976
 20
687.060359571328
 30
0.0
 40
1.5
100
AcDbArc
 50
270.0
 51
329.9999999999995
  0
ARC
  5
12A3
330
1E
100
AcDbEntity
  8
STEMPEL
100
AcDbCircle
 10
232.8343516008505
 20
685.5603595713281
 30
0.0
 40
0.5
100
AcDbArc
 50
29.99999999999246
 51
90.0
  0
LINE
  5
12A4
330
1E
100
AcDbEntity
  8
STEMPEL
100
AcDbLine
 10
232.8343516008505
 20
686.0603595713281
 30
0.0
 11
232.6343516008505
 21
686.0603595713281
 31
0.0
  0
ARC
  5
12A5
330
1E
100
AcDbEntity
  8
STEMPEL
100
AcDbCircle
 10
232.6343516008505
 20
685.5603595713281
 30
0.0
 40
0.5
100
AcDbArc
 50
90.0
 51
149.9999999999994
  0
ARC
  5
12A6
330
1E
100
AcDbEntity
  8
STEMPEL
100
AcDbCircle
 10
232.6343516008505
 20
685.5603595713281
 30
0.0
 40
1.5
100
AcDbArc
 50
90.0
 51
149.9999999999994
  0
ARC
  5
12A7
330
1E
100
AcDbEntity
  8
STEMPEL
100
AcDbCircle
 10
235.4324278122042
 20
687.0603595713279
 30
0.0
 40
1.5
100
AcDbArc
 50
209.9999999999925
 51
270.0
  0
LINE
  5
12A8
330
1E
100
AcDbEntity
  8
STEMPEL
100
AcDbLine
 10
237.4912753894966
 20
685.5603595713279
 30
0.0
 11
235.4324278122042
 21
685.5603595713279
 31
0.0
  0
LINE
  5
12A9
330
1E
100
AcDbEntity
  8
STEMPEL
100
AcDbLine
 10
237.4912753894966
 20
685.5603595713279
 30
0.0
 11
235.4324278122042
 21
685.5603595713279
 31
0.0
  0
ARC
  5
12AA
330
1E
100
AcDbEntity
  8
STEMPEL
100
AcDbCircle
 10
232.8343516008505
 20
685.5603595713281
 30
0.0
 40
1.5
100
AcDbArc
 50
29.99999999999246
 51
90.0
  0
ARC
  5
12AB
330
1E
100
AcDbEntity
  8
STEMPEL
100
AcDbCircle
 10
240.2893516008504
 20
685.560359571328
 30
0.0
 40
0.5
100
AcDbArc
 50
29.99999999999973
 51
90.0
  0
LINE
  5
12AC
330
1E
100
AcDbEntity
  8
STEMPEL
100
AcDbLine
 10
240.2893516008504
 20
686.060359571328
 30
0.0
 11
240.0893516008504
 21
686.060359571328
 31
0.0
  0
ARC
  5
12AD
330
1E
100
AcDbEntity
  8
STEMPEL
100
AcDbCircle
 10
240.0893516008504
 20
685.560359571328
 30
0.0
 40
0.5
100
AcDbArc
 50
90.0
 51
150.0000000000002
  0
ARC
  5
12AE
330
1E
100
AcDbEntity
  8
STEMPEL
100
AcDbCircle
 10
240.0893516008504
 20
685.560359571328
 30
0.0
 40
1.5
100
AcDbArc
 50
90.0
 51
150.0000000000075
  0
ARC
  5
12AF
330
1E
100
AcDbEntity
  8
STEMPEL
100
AcDbCircle
 10
240.2893516008504
 20
685.560359571328
 30
0.0
 40
1.5
100
AcDbArc
 50
29.99999999999973
 51
90.0
  0
ARC
  5
12B0
330
1E
100
AcDbEntity
  8
STEMPEL
100
AcDbCircle
 10
242.8874278122039
 20
687.060359571328
 30
0.0
 40
1.5
100
AcDbArc
 50
209.9999999999925
 51
270.0
  0
ARC
  5
12B1
330
1E
100
AcDbEntity
  8
STEMPEL
100
AcDbCircle
 10
237.4912753894966
 20
687.0603595713279
 30
0.0
 40
1.5
100
AcDbArc
 50
270.0
 51
330.0000000000076
  0
ARC
  5
12B2
330
1E
100
AcDbEntity
  8
STEMPEL
100
AcDbCircle
 10
242.8874278122039
 20
687.060359571328
 30
0.0
 40
2.5
100
AcDbArc
 50
209.9999999999997
 51
270.0
  0
ARC
  5
12B3
330
1E
100
AcDbEntity
  8
STEMPEL
100
AcDbCircle
 10
237.4912753894966
 20
687.0603595713279
 30
0.0
 40
2.5
100
AcDbArc
 50
270.0
 51
330.0000000000076
  0
ARC
  5
12B4
330
1E
100
AcDbEntity
  8
STEMPEL
100
AcDbCircle
 10
235.4324278122042
 20
687.0603595713279
 30
0.0
 40
2.5
100
AcDbArc
 50
209.9999999999925
 51
270.0
  0
ARC
  5
12B5
330
1E
100
AcDbEntity
  8
STEMPEL
100
AcDbCircle
 10
230.0362753894976
 20
687.060359571328
 30
0.0
 40
2.5
100
AcDbArc
 50
270.0
 51
329.9999999999995
  0
LINE
  5
12B6
330
1E
100
AcDbEntity
  8
STEMPEL
100
AcDbLine
 10
230.0362753894976
 20
685.560359571328
 30
0.0
 11
223.5824278122033
 21
685.560359571328
 31
0.0
  0
LINE
  5
12B7
330
1E
100
AcDbEntity
  8
STEMPEL
100
AcDbLine
 10
230.0362753894976
 20
685.560359571328
 30
0.0
 11
223.5824278122033
 21
685.560359571328
 31
0.0
  0
LINE
  5
12B8
330
1E
100
AcDbEntity
  8
STEMPEL
100
AcDbLine
 10
220.9843516008506
 20
686.0603595713281
 30
0.0
 11
210.896084139657
 21
686.0603595713281
 31
0.0
  0
LINE
  5
12B9
330
1E
100
AcDbEntity
  8
STEMPEL
100
AcDbLine
 10
240.2893516008504
 20
687.060359571328
 30
0.0
 11
194.7843516008505
 21
687.0603595713281
 31
0.0
  0
LINE
  5
12BA
330
1E
100
AcDbEntity
  8
STEMPEL
100
AcDbLine
 10
192.1862753894965
 20
685.5603595713283
 30
0.0
 11
137.6257899845531
 21
685.5603595713288
 31
0.0
  0
ELLIPSE
  5
12BB
330
1E
100
AcDbEntity
  8
STEMPEL
100
AcDbEllipse
 10
122.5846804582012
 20
653.060359571329
 30
0.0
 11
0.0000000000000334
 21
7.499999999999999
 31
0.0
210
0.0
220
0.0
230
1.0
 40
0.4999999999999926
 41
4.712388980384689
 42
6.167183451052224
  0
ELLIPSE
  5
12BC
330
1E
100
AcDbEntity
  8
STEMPEL
100
AcDbEllipse
 10
123.4527444778899
 20
653.060359571329
 30
0.0
 11
0.0000000000000334
 21
7.499999999999999
 31
0.0
210
0.0
220
0.0
230
1.0
 40
0.4999999999999926
 41
4.712388980384689
 42
7.853981633974482
  0
ELLIPSE
  5
12BD
330
1E
100
AcDbEntity
  8
STEMPEL
100
AcDbEllipse
 10
122.584680458201
 20
628.0603595713306
 30
0.0
 11
-0.0000000000000334
 21
-7.499999999999999
 31
0.0
210
0.0
220
0.0
230
-1.0
 40
0.4999999999999926
 41
4.712388980384689
 42
6.167183451052224
  0
ELLIPSE
  5
12BE
330
1E
100
AcDbEntity
  8
STEMPEL
100
AcDbEllipse
 10
123.4527444778898
 20
628.0603595713306
 30
0.0
 11
-0.0000000000000334
 21
-7.499999999999999
 31
0.0
210
0.0
220
0.0
230
-1.0
 40
0.4999999999999926
 41
4.712388980384689
 42
7.853981633974482
  0
LINE
  5
12BF
330
1E
100
AcDbEntity
  8
STEMPEL
100
AcDbLine
 10
119.70274447789
 20
653.060359571329
 30
0.0
 11
119.7027444778899
 21
628.0603595713322
 31
0.0
  0
LINE
  5
12C0
330
1E
100
AcDbEntity
  8
STEMPEL
100
AcDbLine
 10
127.2027444778899
 20
653.060359571329
 30
0.0
 11
127.2027444778898
 21
628.0603595713306
 31
0.0
  0
LINE
  5
12C1
330
1E
100
AcDbEntity
  8
STEMPEL
100
AcDbLine
 10
126.3346804582008
 20
628.060359571329
 30
0.0
 11
126.3346804582009
 21
653.0603595713306
 31
0.0
  0
LWPOLYLINE
  5
12C2
330
1E
100
AcDbEntity
  8
STEMPEL
100
AcDbPolyline
 90
        7
 70
   128
 43
0.0
 10
-116.9520898886237
 20
596.5603595713289
 10
-117.5721804116879
 20
597.1696974731697
 10
-118.1040005584715
 20
597.8971277464589
 10
-118.5332463582027
 20
598.7230852404025
 10
-118.848372706
 20
599.6253547908649
 10
-119.0409038829659
 20
600.5796687251081
 10
-119.1056615212922
 20
601.5603595713293
210
0.0
220
0.0
230
-1.0
  0
LWPOLYLINE
  5
12C3
330
1E
100
AcDbEntity
  8
STEMPEL
100
AcDbPolyline
 90
       10
 70
   128
 43
0.0
 10
-115.2163513312257
 20
595.5603595713289
 10
-116.0525306060673
 20
595.6515130532557
 10
-116.8633029967699
 20
595.9222038466135
 10
-117.6240335945127
 20
596.3642071486223
 10
-118.3116079850315
 20
596.9640929126151
 10
-118.9051345683999
 20
597.7036339132098
 10
-119.3865793397211
 20
598.560359571329
 10
-119.7413138432415
 20
599.5082387113751
 10
-119.9585596505756
 20
600.5184705053276
 10
-120.0317158577996
 20
601.5603595713293
210
0.0
220
0.0
230
-1.0
  0
LINE
  5
12C4
330
1E
100
AcDbEntity
  8
STEMPEL
100
AcDbLine
 10
119.1056615212924
 20
608.060359571327
 30
0.0
 11
119.1056615212924
 21
601.5603595713304
 31
0.0
  0
LINE
  5
12C5
330
1E
100
AcDbEntity
  8
STEMPEL
100
AcDbLine
 10
120.0317158577997
 20
608.060359571327
 30
0.0
 11
120.0317158577996
 21
601.5603595713304
 31
0.0
  0
LINE
  5
12C6
330
1E
100
AcDbEntity
  8
STEMPEL
100
AcDbLine
 10
126.7895150414814
 20
608.060359571327
 30
0.0
 11
126.7895150414814
 21
601.5603595713304
 31
0.0
  0
LWPOLYLINE
  5
12C7
330
1E
100
AcDbEntity
  8
STEMPEL
100
AcDbPolyline
 90
       10
 70
   128
 43
0.0
 10
-122.4258088668755
 20
595.5603595713288
 10
-123.1835584919697
 20
595.6515130532555
 10
-123.9182842781452
 20
595.9222038466134
 10
-124.6076619541784
 20
596.3642071486223
 10
-125.2307451282248
 20
596.9640929126151
 10
-125.7686017333362
 20
597.7036339132098
 10
-126.2048892687351
 20
598.560359571329
 10
-126.5263513584304
 20
599.5082387113751
 10
-126.7232205394944
 20
600.5184705053276
 10
-126.7895150414813
 20
601.5603595713293
210
0.0
220
0.0
230
-1.0
  0
LWPOLYLINE
  5
12C8
330
1E
100
AcDbEntity
  8
STEMPEL
100
AcDbPolyline
 90
        7
 70
   128
 43
0.0
 10
-133.1741387612741
 20
596.5603595713288
 10
-133.7360677345383
 20
597.1696974731696
 10
-134.2180056741254
 20
597.8971277464589
 10
-134.6069902538753
 20
598.7230852404025
 10
-134.8925592449817
 20
599.6253547908649
 10
-135.0670319107776
 20
600.5796687251081
 10
-135.1257155897926
 20
601.5603595713293
210
0.0
220
0.0
230
-1.0
  0
LWPOLYLINE
  5
12C9
330
1E
100
AcDbEntity
  8
STEMPEL
100
AcDbPolyline
 90
       10
 70
   128
 43
0.0
 10
-131.5572303020073
 20
595.5603595713288
 10
-132.3149799271015
 20
595.6515130532555
 10
-133.0497057132771
 20
595.9222038466133
 10
-133.7390833893102
 20
596.3642071486223
 10
-134.3621665633567
 20
596.964092912615
 10
-134.9000231684681
 20
597.7036339132097
 10
-135.336310703867
 20
598.560359571329
 10
-135.6577727935623
 20
599.5082387113751
 10
-135.8546419746263
 20
600.5184705053276
 10
-135.9209364766131
 20
601.5603595713293
210
0.0
220
0.0
230
-1.0
  0
LINE
  5
12CA
330
1E
100
AcDbEntity
  8
STEMPEL
100
AcDbLine
 10
135.1257155897926
 20
608.060359571327
 30
0.0
 11
135.1257155897925
 21
601.5603595713304
 31
0.0
  0
LINE
  5
12CB
330
1E
100
AcDbEntity
  8
STEMPEL
100
AcDbLine
 10
135.9209364766133
 20
608.060359571327
 30
0.0
 11
135.9209364766132
 21
601.5603595713304
 31
0.0
  0
LWPOLYLINE
  5
12CC
330
1E
100
AcDbEntity
  8
STEMPEL
100
AcDbPolyline
 90
       10
 70
   128
 43
0.0
 10
-141.8153045984408
 20
595.5603595713288
 10
-142.4513089584418
 20
595.6515130532555
 10
-143.0679886477979
 20
595.9222038466133
 10
-143.646606166203
 20
596.3642071486223
 10
-144.1695805131548
 20
596.964092912615
 10
-144.6210213777593
 20
597.7036339132097
 10
-144.9872119577853
 20
598.560359571329
 10
-145.2570257377602
 20
599.508238711375
 10
-145.4222645625119
 20
600.5184705053276
 10
-145.477907733965
 20
601.5603595713293
210
0.0
220
0.0
230
-1.0
  0
LINE
  5
12CD
330
1E
100
AcDbEntity
  8
STEMPEL
100
AcDbLine
 10
145.477907733965
 20
608.060359571327
 30
0.0
 11
145.477907733965
 21
601.5603595713304
 31
0.0
  0
LINE
  5
12CE
330
1E
100
AcDbEntity
  8
STEMPEL
100
AcDbLine
 10
124.8379382129629
 20
596.5603595713288
 30
0.0
 11
133.1741387612748
 21
596.5603595713288
 31
0.0
  0
LWPOLYLINE
  5
12CF
330
1E
100
AcDbEntity
  8
STEMPEL
100
AcDbPolyline
 90
        9
 70
   128
 43
0.0
 10
116.6985629468087
 20
615.4621178159922
 10
117.1876234900775
 20
615.1356849182348
 10
117.6472364579785
 20
614.5904159049775
 10
118.0631862616027
 20
613.8431756618496
 10
118.4226077908943
 20
612.917075939072
 10
118.7143843257818
 20
611.8407605171017
 10
118.92949137052
 20
610.6475192694708
 10
119.0612757766274
 20
609.374258524395
 10
119.1056615212923
 20
608.0603595713285
  0
LWPOLYLINE
  5
12D0
330
1E
100
AcDbEntity
  8
STEMPEL
100
AcDbPolyline
 90
       18
 70
   128
 43
0.0
 10
126.7895150414815
 20
608.060359571327
 10
126.8672549427416
 20
609.4384809549516
 10
127.0978273074235
 20
610.7696720677312
 10
127.4733802701886
 20
612.0086007929081
 10
127.9811248253163
 20
613.1130768986773
 10
128.6037703409543
 20
614.0454887759301
 10
129.3201133708484
 20
614.7740842564914
 10
130.1057597122742
 20
615.2740518951246
 10
130.9339551213536
 20
615.5283658935415
 10
131.7764963967413
 20
615.5283658935413
 10
132.6046918058207
 20
615.2740518951246
 10
133.3903381472466
 20
614.7740842564914
 10
134.1066811771407
 20
614.04548877593
 10
134.7293266927786
 20
613.1130768986772
 10
135.2370712479063
 20
612.0086007929079
 10
135.6126242106715
 20
610.7696720677312
 10
135.8431965753533
 20
609.4384809549516
 10
135.9209364766134
 20
608.060359571327
  0
LWPOLYLINE
  5
12D1
330
1E
100
AcDbEntity
  8
STEMPEL
100
AcDbPolyline
 90
       10
 70
   128
 43
0.0
 10
130.5600048722265
 20
615.5603595713301
 10
131.3528322180862
 20
615.4464177189217
 10
132.1215699062319
 20
615.1080542272244
 10
132.8428602310095
 20
614.5555500997133
 10
133.494787150891
 20
613.8056928947221
 10
134.0575421963066
 20
612.8812666439785
 10
134.5140263399695
 20
611.8103595713294
 10
134.8503695421663
 20
610.6255106462716
 10
135.0563521848963
 20
609.3627209038308
 10
135.1257155897924
 20
608.0603595713285
  0
LINE
  5
12D2
330
1E
100
AcDbEntity
  8
STEMPEL
100
AcDbLine
 10
156.7597662824911
 20
653.0603595713288
 30
0.0
 11
156.7597662824909
 21
628.0603595713304
 31
0.0
  0
LINE
  5
12D3
330
1E
100
AcDbEntity
  8
STEMPEL
100
AcDbLine
 10
169.7501473392568
 20
653.0603595713288
 30
0.0
 11
169.7501473392567
 21
628.0603595713288
 31
0.0
  0
LINE
  5
12D4
330
1E
100
AcDbEntity
  8
STEMPEL
100
AcDbLine
 10
169.2489703438148
 20
653.0603595713288
 30
0.0
 11
169.2489703438147
 21
628.0603595713288
 31
0.0
  0
ELLIPSE
  5
12D5
330
1E
100
AcDbEntity
  8
STEMPEL
100
AcDbEllipse
 10
163.2549568108739
 20
653.0603595713288
 30
0.0
 11
0.0000000000000334
 21
7.5
 31
0.0
210
0.0
220
0.0
230
1.0
 40
0.8660254037843856
 41
4.712388980384689
 42
7.853981633974482
  0
ELLIPSE
  5
12D6
330
1E
100
AcDbEntity
  8
STEMPEL
100
AcDbEllipse
 10
162.753779815432
 20
653.0603595713288
 30
0.0
 11
0.0000000000000334
 21
7.5
 31
0.0
210
0.0
220
0.0
230
1.0
 40
0.8660254037843856
 41
4.712388980384689
 42
6.24459510668465
  0
ELLIPSE
  5
12D7
330
1E
100
AcDbEntity
  8
STEMPEL
100
AcDbEllipse
 10
163.2549568108738
 20
628.0603595713288
 30
0.0
 11
-0.0000000000000334
 21
-7.5
 31
0.0
210
0.0
220
0.0
230
-1.0
 40
0.8660254037843856
 41
4.712388980384689
 42
7.853981633974482
  0
ELLIPSE
  5
12D8
330
1E
100
AcDbEntity
  8
STEMPEL
100
AcDbEllipse
 10
162.7537798154319
 20
628.0603595713288
 30
0.0
 11
-0.0000000000000334
 21
-7.5
 31
0.0
210
0.0
220
0.0
230
-1.0
 40
0.8660254037843856
 41
4.712388980384689
 42
6.24459510668465
  0
LINE
  5
12D9
330
1E
100
AcDbEntity
  8
STEMPEL
100
AcDbLine
 10
156.7680133904715
 20
608.0603595713268
 30
0.0
 11
156.7680133904715
 21
601.5603595713303
 31
0.0
  0
LINE
  5
12DA
330
1E
100
AcDbEntity
  8
STEMPEL
100
AcDbLine
 10
157.3782078383339
 20
608.0603595713268
 30
0.0
 11
157.3782078383338
 21
601.5603595713303
 31
0.0
  0
LWPOLYLINE
  5
12DB
330
1E
100
AcDbEntity
  8
STEMPEL
100
AcDbPolyline
 90
        7
 70
   128
 43
0.0
 10
-155.1299903143661
 20
596.5603595713288
 10
-155.601635914933
 20
597.1696974731696
 10
-156.0061423913158
 20
597.8971277464589
 10
-156.3326300338048
 20
598.7230852404025
 10
-156.5723175472131
 20
599.6253547908647
 10
-156.7187582348391
 20
600.579668725108
 10
-156.7680133904715
 20
601.5603595713291
210
0.0
220
0.0
230
-1.0
  0
LWPOLYLINE
  5
12DC
330
1E
100
AcDbEntity
  8
STEMPEL
100
AcDbPolyline
 90
       10
 70
   128
 43
0.0
 10
-153.7156047028097
 20
595.5603595713288
 10
-154.3516090628106
 20
595.6515130532555
 10
-154.9682887521668
 20
595.9222038466133
 10
-155.5469062705718
 20
596.3642071486222
 10
-156.0698806175237
 20
596.964092912615
 10
-156.5213214821282
 20
597.7036339132097
 10
-156.8875120621541
 20
598.5603595713289
 10
-157.1573258421291
 20
599.5082387113749
 10
-157.3225646668807
 20
600.5184705053275
 10
-157.3782078383338
 20
601.5603595713291
210
0.0
220
0.0
230
-1.0
  0
LWPOLYLINE
  5
12DD
330
1E
100
AcDbEntity
  8
STEMPEL
100
AcDbPolyline
 90
       10
 70
   128
 43
0.0
 10
-166.360716044606
 20
595.5603595713287
 10
-166.8334460023596
 20
595.6515130532554
 10
-167.2918122995598
 20
595.9222038466133
 10
-167.7218877082105
 20
596.364207148622
 10
-168.1106046046488
 20
596.964092912615
 10
-168.4461520226765
 20
597.7036339132097
 10
-168.7183345237921
 20
598.5603595713289
 10
-168.9188819804302
 20
599.5082387113749
 10
-169.0417008596026
 20
600.5184705053275
 10
-169.0830593718151
 20
601.5603595713291
210
0.0
220
0.0
230
-1.0
  0
LINE
  5
12DE
330
1E
100
AcDbEntity
  8
STEMPEL
100
AcDbLine
 10
169.0830593718151
 20
608.0603595713268
 30
0.0
 11
169.0830593718151
 21
601.5603595713303
 31
0.0
  0
LWPOLYLINE
  5
12DF
330
1E
100
AcDbEntity
  8
STEMPEL
100
AcDbPolyline
 90
        9
 70
   128
 43
0.0
 10
151.1229605622299
 20
615.5504936491507
 10
152.239368283601
 20
615.3431865127434
 10
153.3046475353433
 20
614.8739317852897
 10
154.2804825183816
 20
614.1596075481212
 10
155.1317745512396
 20
613.2259065047247
 10
155.827904493976
 20
612.1064118695643
 10
156.3438340526674
 20
610.8413894522257
 10
156.6610063528832
 20
609.4763393830163
 10
156.7680133904714
 20
608.0603595713284
  0
LINE
  5
12E0
330
1E
100
AcDbEntity
  8
STEMPEL
100
AcDbLine
 10
143.8398846578596
 20
596.5603595713288
 30
0.0
 11
155.1299903143667
 21
596.5603595713288
 31
0.0
  0
LWPOLYLINE
  5
12E1
330
1E
100
AcDbEntity
  8
STEMPEL
100
AcDbPolyline
 90
       18
 70
   128
 43
0.0
 10
145.4779077339649
 20
608.060359571327
 10
145.5792203457693
 20
609.4384809549515
 10
145.8797081016985
 20
610.7696720677312
 10
146.3691382516197
 20
612.0086007929079
 10
147.0308438387841
 20
613.1130768986771
 10
147.8422912730492
 20
614.04548877593
 10
148.7758476852649
 20
614.7740842564914
 10
149.799721931491
 20
615.2740518951246
 10
150.8790472022738
 20
615.5283658935412
 10
151.9770683700249
 20
615.5283658935412
 10
153.0563936408077
 20
615.2740518951246
 10
154.0802678870338
 20
614.7740842564914
 10
155.0138242992495
 20
614.04548877593
 10
155.8252717335146
 20
613.1130768986771
 10
156.486977320679
 20
612.0086007929079
 10
156.9764074706002
 20
610.7696720677311
 10
157.2768952265294
 20
609.4384809549514
 10
157.3782078383338
 20
608.0603595713268
  0
LINE
  5
12E2
330
1E
100
AcDbEntity
  8
STEMPEL
100
AcDbLine
 10
210.125789984553
 20
653.0603595713285
 30
0.0
 11
210.125789984553
 21
628.0603595713285
 31
0.0
  0
LWPOLYLINE
  5
12E3
330
1E
100
AcDbEntity
  8
STEMPEL
100
AcDbPolyline
 90
        7
 70
   128
 43
0.0
 10
-181.3401566610799
 20
596.5603595713286
 10
-181.6907218754919
 20
597.1696974731695
 10
-181.9913838544306
 20
597.8971277464587
 10
-182.2340559163652
 20
598.7230852404024
 10
-182.4122110914137
 20
599.6253547908646
 10
-182.5210576723942
 20
600.5796687251078
 10
-182.557668093809
 20
601.560359571329
210
0.0
220
0.0
230
-1.0
  0
LINE
  5
12E4
330
1E
100
AcDbEntity
  8
STEMPEL
100
AcDbLine
 10
182.5576680938091
 20
608.0603595713268
 30
0.0
 11
182.557668093809
 21
601.5603595713302
 31
0.0
  0
LINE
  5
12E5
330
1E
100
AcDbEntity
  8
STEMPEL
100
AcDbLine
 10
182.9412523594861
 20
608.0603595713252
 30
0.0
 11
182.941252359486
 21
601.5603595713302
 31
0.0
  0
LWPOLYLINE
  5
12E6
330
1E
100
AcDbEntity
  8
STEMPEL
100
AcDbPolyline
 90
       10
 70
   128
 43
0.0
 10
-194.6847431437579
 20
595.5603595713285
 10
-194.9124957066264
 20
595.6515130532554
 10
-195.1333281231207
 20
595.9222038466131
 10
-195.3405305120119
 20
596.3642071486219
 10
-195.527807133563
 20
596.9640929126147
 10
-195.689467682395
 20
597.7036339132094
 10
-195.8206001845356
 20
598.5603595713288
 10
-195.9172202452635
 20
599.5082387113748
 10
-195.9763921129257
 20
600.5184705053274
 10
-195.9963178802657
 20
601.560359571329
210
0.0
220
0.0
230
-1.0
  0
LINE
  5
12E7
330
1E
100
AcDbEntity
  8
STEMPEL
100
AcDbLine
 10
195.9963178802657
 20
608.0603595713284
 30
0.0
 11
195.9963178802656
 21
601.5603595713302
 31
0.0
  0
LWPOLYLINE
  5
12E8
330
1E
100
AcDbEntity
  8
STEMPEL
100
AcDbPolyline
 90
       10
 70
   128
 43
0.0
 10
-209.5564160643655
 20
595.5603595713284
 10
-209.784168627234
 20
595.6515130532552
 10
-210.0050010437282
 20
595.9222038466131
 10
-210.2122034326195
 20
596.3642071486218
 10
-210.3994800541706
 20
596.9640929126147
 10
-210.5611406030026
 20
597.7036339132094
 10
-210.6922731051433
 20
598.5603595713286
 10
-210.7888931658711
 20
599.5082387113747
 10
-210.8480650335334
 20
600.5184705053273
 10
-210.8679908008733
 20
601.5603595713289
210
0.0
220
0.0
230
-1.0
  0
LWPOLYLINE
  5
12E9
330
1E
100
AcDbEntity
  8
STEMPEL
100
AcDbPolyline
 90
        7
 70
   128
 43
0.0
 10
-210.1505828289298
 20
596.5603595713284
 10
-210.3194786746983
 20
597.1696974731693
 10
-210.4643320632709
 20
597.8971277464586
 10
-210.581246980838
 20
598.7230852404023
 10
-210.6670788538557
 20
599.6253547908645
 10
-210.7195191263014
 20
600.5796687251078
 10
-210.7371573511867
 20
601.5603595713289
210
0.0
220
0.0
230
-1.0
  0
LINE
  5
12EA
330
1E
100
AcDbEntity
  8
STEMPEL
100
AcDbLine
 10
210.7371573511869
 20
608.0603595713267
 30
0.0
 11
210.7371573511868
 21
601.5603595713301
 31
0.0
  0
LINE
  5
12EB
330
1E
100
AcDbEntity
  8
STEMPEL
100
AcDbLine
 10
210.8679908008734
 20
608.0603595713251
 30
0.0
 11
210.8679908008733
 21
601.5603595713301
 31
0.0
  0
LINE
  5
12EC
330
1E
100
AcDbEntity
  8
STEMPEL
100
AcDbLine
 10
195.4097433580087
 20
596.5603595713286
 30
0.0
 11
210.1505828289301
 21
596.5603595713284
 31
0.0
  0
LWPOLYLINE
  5
12ED
330
1E
100
AcDbEntity
  8
STEMPEL
100
AcDbPolyline
 90
       18
 70
   128
 43
0.0
 10
195.9963178802659
 20
608.0603595713268
 10
196.1229271264423
 20
609.4384809549512
 10
196.498443338944
 20
610.769672067731
 10
197.1100787635363
 20
612.0086007929077
 10
197.9370048894107
 20
613.1130768986769
 10
198.9510617391389
 20
614.0454887759298
 10
200.1177168229307
 20
614.7740842564911
 10
201.397241101156
 20
615.2740518951244
 10
202.7460619091401
 20
615.528365893541
 10
204.1182467719994
 20
615.528365893541
 10
205.4670675799835
 20
615.2740518951244
 10
206.7465918582088
 20
614.7740842564911
 10
207.9132469420005
 20
614.0454887759298
 10
208.9273037917287
 20
613.1130768986769
 10
209.7542299176031
 20
612.0086007929077
 10
210.3658653421955
 20
610.7696720677308
 10
210.7413815546971
 20
609.4384809549511
 10
210.8679908008735
 20
608.0603595713267
  0
LWPOLYLINE
  5
12EE
330
1E
100
AcDbEntity
  8
STEMPEL
100
AcDbPolyline
 90
        9
 70
   128
 43
0.0
 10
203.3667376158263
 20
615.5600693311015
 10
204.808077599704
 20
615.4047679371777
 10
206.1921585031536
 20
614.9703676901634
 10
207.4663831156855
 20
614.2733764698881
 10
208.5823289354154
 20
613.3402810184425
 10
209.4975882988685
 20
612.206540403099
 10
210.1773799376436
 20
610.9152385170297
 10
210.595870720293
 20
609.5154468248701
 10
210.7371573511869
 20
608.0603595713283
  0
LINE
  5
12EF
330
1E
100
AcDbEntity
  8
STEMPEL
100
AcDbLine
 10
225.125789984553
 20
653.0603595713269
 30
0.0
 11
225.1257899845529
 21
628.0603595713269
 31
0.0
  0
LWPOLYLINE
  5
12F0
330
1E
100
AcDbEntity
  8
STEMPEL
100
AcDbPolyline
 90
        7
 70
   128
 43
0.0
 10
225.1009971401758
 20
596.5603595713283
 10
224.9321012944074
 20
597.1696974731693
 10
224.7872479058347
 20
597.8971277464585
 10
224.6703329882676
 20
598.7230852404021
 10
224.5845011152499
 20
599.6253547908644
 10
224.5320608428043
 20
600.5796687251078
 10
224.5144226179189
 20
601.5603595713288
  0
LWPOLYLINE
  5
12F1
330
1E
100
AcDbEntity
  8
STEMPEL
100
AcDbPolyline
 90
       10
 70
   128
 43
0.0
 10
225.6951639047401
 20
595.5603595713284
 10
225.4674113418716
 20
595.6515130532551
 10
225.2465789253774
 20
595.922203846613
 10
225.0393765364862
 20
596.3642071486218
 10
224.852099914935
 20
596.9640929126146
 10
224.6904393661031
 20
597.7036339132093
 10
224.5593068639624
 20
598.5603595713286
 10
224.4626868032345
 20
599.5082387113747
 10
224.4035149355723
 20
600.5184705053271
 10
224.3835891682323
 20
601.5603595713288
  0
LINE
  5
12F2
330
1E
100
AcDbEntity
  8
STEMPEL
100
AcDbLine
 10
224.3835891682323
 20
608.0603595713249
 30
0.0
 11
224.3835891682323
 21
601.5603595713299
 31
0.0
  0
LINE
  5
12F3
330
1E
100
AcDbEntity
  8
STEMPEL
100
AcDbLine
 10
224.5144226179188
 20
608.0603595713265
 30
0.0
 11
224.5144226179188
 21
601.5603595713299
 31
0.0
  0
LWPOLYLINE
  5
12F4
330
1E
100
AcDbEntity
  8
STEMPEL
100
AcDbPolyline
 90
       10
 70
   128
 43
0.0
 10
240.5668368253477
 20
595.5603595713284
 10
240.3390842624791
 20
595.6515130532551
 10
240.1182518459849
 20
595.9222038466129
 10
239.9110494570937
 20
596.3642071486218
 10
239.7237728355426
 20
596.9640929126145
 10
239.5621122867106
 20
597.7036339132093
 10
239.43097978457
 20
598.5603595713286
 10
239.3343597238421
 20
599.5082387113747
 10
239.2751878561798
 20
600.5184705053271
 10
239.2552620888399
 20
601.5603595713288
  0
LINE
  5
12F5
330
1E
100
AcDbEntity
  8
STEMPEL
100
AcDbLine
 10
239.25526208884
 20
608.0603595713281
 30
0.0
 11
239.25526208884
 21
601.5603595713299
 31
0.0
  0
LINE
  5
12F6
330
1E
100
AcDbEntity
  8
STEMPEL
100
AcDbLine
 10
239.8418366110969
 20
596.5603595713283
 30
0.0
 11
225.1009971401755
 21
596.5603595713283
 31
0.0
  0
LWPOLYLINE
  5
12F7
330
1E
100
AcDbEntity
  8
STEMPEL
100
AcDbPolyline
 90
        9
 70
   128
 43
0.0
 10
-231.8848423532795
 20
615.5600693311013
 10
-230.4435023694017
 20
615.4047679371776
 10
-229.0594214659522
 20
614.9703676901633
 10
-227.7851968534202
 20
614.2733764698881
 10
-226.6692510336904
 20
613.3402810184423
 10
-225.7539916702373
 20
612.206540403099
 10
-225.0742000314622
 20
610.9152385170296
 10
-224.6557092488128
 20
609.5154468248701
 10
-224.5144226179188
 20
608.0603595713281
210
0.0
220
0.0
230
-1.0
  0
LWPOLYLINE
  5
12F8
330
1E
100
AcDbEntity
  8
STEMPEL
100
AcDbPolyline
 90
       18
 70
   128
 43
0.0
 10
-239.2552620888398
 20
608.0603595713265
 10
-239.1286528426634
 20
609.4384809549511
 10
-238.7531366301618
 20
610.7696720677307
 10
-238.1415012055694
 20
612.0086007929074
 10
-237.314575079695
 20
613.1130768986768
 10
-236.3005182299668
 20
614.0454887759296
 10
-235.1338631461751
 20
614.7740842564909
 10
-233.8543388679498
 20
615.2740518951242
 10
-232.5055180599657
 20
615.528365893541
 10
-231.1333331971064
 20
615.528365893541
 10
-229.7845123891223
 20
615.2740518951242
 10
-228.504988110897
 20
614.7740842564909
 10
-227.3383330271053
 20
614.0454887759297
 10
-226.324276177377
 20
613.1130768986769
 10
-225.4973500515026
 20
612.0086007929075
 10
-224.8857146269103
 20
610.7696720677307
 10
-224.5101984144086
 20
609.4384809549511
 10
-224.3835891682322
 20
608.0603595713265
210
0.0
220
0.0
230
-1.0
  0
ARC
  5
12F9
330
1E
100
AcDbEntity
  8
STEMPEL
100
AcDbCircle
 10
217.6257899845531
 20
653.0603595713285
 30
0.0
 40
7.5
100
AcDbArc
 50
359.999999999987
 51
179.9999999999739
  0
ARC
  5
12FA
330
1E
100
AcDbEntity
  8
STEMPEL
100
AcDbCircle
 10
217.6257899845531
 20
628.0603595713285
 30
0.0
 40
7.5
100
AcDbArc
 50
180.000000000026
 51
0.0000000000130276
  0
LWPOLYLINE
  5
12FB
330
1E
100
AcDbEntity
  8
STEMPEL
100
AcDbPolyline
 90
       10
 70
   128
 43
0.0
 10
-180.2189090322769
 20
595.5603595713285
 10
-180.6916389900305
 20
595.6515130532554
 10
-181.1500052872307
 20
595.9222038466132
 10
-181.5800806958815
 20
596.364207148622
 10
-181.9687975923197
 20
596.9640929126147
 10
-182.3043450103474
 20
597.7036339132094
 10
-182.576527511463
 20
598.5603595713288
 10
-182.7770749681011
 20
599.5082387113749
 10
-182.8998938472735
 20
600.5184705053274
 10
-182.941252359486
 20
601.560359571329
210
0.0
220
0.0
230
-1.0
  0
LINE
  5
12FC
330
1E
100
AcDbEntity
  8
STEMPEL
100
AcDbLine
 10
167.865547939086
 20
596.5603595713287
 30
0.0
 11
181.3401566610804
 21
596.5603595713286
 31
0.0
  0
LWPOLYLINE
  5
12FD
330
1E
100
AcDbEntity
  8
STEMPEL
100
AcDbPolyline
 90
        9
 70
   128
 43
0.0
 10
175.8203637328387
 20
615.557485994367
 10
177.1445731831685
 20
615.378653087319
 10
178.4125525803546
 20
614.928377169995
 10
179.5772712684402
 20
614.2233594378558
 10
180.5955286370469
 20
613.2897497214722
 10
181.4295564763091
 20
612.1621765624962
 10
182.048419838503
 20
610.8824628055444
 10
182.4291644469772
 20
609.4980743460089
 10
182.5576680938091
 20
608.0603595713284
  0
LWPOLYLINE
  5
12FE
330
1E
100
AcDbEntity
  8
STEMPEL
100
AcDbPolyline
 90
       18
 70
   128
 43
0.0
 10
169.0830593718151
 20
608.0603595713268
 10
169.2010404070962
 20
609.4384809549514
 10
169.5509658102859
 20
610.769672067731
 10
170.1209192914677
 20
612.0086007929078
 10
170.8914917684237
 20
613.1130768986771
 10
171.8364423196513
 20
614.0454887759299
 10
172.9235917874713
 20
614.7740842564911
 10
174.1159186006496
 20
615.2740518951244
 10
175.3728194996014
 20
615.5283658935412
 10
176.6514922316998
 20
615.5283658935412
 10
177.9083931306516
 20
615.2740518951244
 10
179.1007199438299
 20
614.7740842564911
 10
180.1878694116499
 20
614.0454887759299
 10
181.1328199628774
 20
613.1130768986771
 10
181.9033924398335
 20
612.0086007929078
 10
182.4733459210153
 20
610.769672067731
 10
182.8232713242049
 20
609.4384809549514
 10
182.9412523594861
 20
608.0603595713268
  0
LINE
  5
12FF
330
1E
100
AcDbEntity
  8
STEMPEL
100
AcDbLine
 10
111.106436416426
 20
669.8791970182096
 30
0.0
 11
135.0852903093772
 21
683.866850184395
 31
0.0
  0
LINE
  5
1300
330
1E
100
AcDbEntity
  8
STEMPEL
100
AcDbLine
 10
110.5930953628452
 20
670.7374401313723
 30
0.0
 11
134.5793982383121
 21
684.7294501420607
 31
0.0
  0
LINE
  5
1301
330
1E
100
AcDbEntity
  8
STEMPEL
100
AcDbLine
 10
112.1378927396533
 20
596.5603595713289
 30
0.0
 11
116.9520898886247
 21
596.5603595713289
 31
0.0
  0
LWPOLYLINE
  5
1302
330
1E
100
AcDbEntity
  8
STEMPEL
100
AcDbPolyline
 90
       18
 70
   128
 43
0.0
 10
114.2914643723219
 20
608.0603595713271
 10
114.3403337172382
 20
609.4384809549516
 10
114.4852775650583
 20
610.7696720677313
 10
114.7213600268855
 20
612.0086007929081
 10
115.0405415976321
 20
613.1130768986773
 10
115.4319529317225
 20
614.0454887759302
 10
115.8822649856205
 20
614.7740842564915
 10
116.37614292242
 20
615.2740518951247
 10
116.8967683213249
 20
615.5283658935415
 10
117.4264119087967
 20
615.5283658935415
 10
117.9470373077016
 20
615.2740518951247
 10
118.4409152445011
 20
614.7740842564914
 10
118.891227298399
 20
614.0454887759301
 10
119.2826386324895
 20
613.1130768986773
 10
119.6018202032361
 20
612.0086007929081
 10
119.8379026650633
 20
610.7696720677312
 10
119.9828465128834
 20
609.4384809549516
 10
120.0317158577997
 20
608.060359571327
  0
ARC
  5
1303
330
1E
100
AcDbEntity
  8
STEMPEL
100
AcDbCircle
 10
297.6257899845533
 20
679.5603595713276
 30
0.0
 40
6.0
100
AcDbArc
 50
90.0
 51
90.0
  0
ARC
  5
1304
330
1E
100
AcDbEntity
  8
STEMPEL
100
AcDbCircle
 10
297.6257899845533
 20
679.5603595713276
 30
0.0
 40
6.0
100
AcDbArc
 50
59.48712567238029
 51
90.0
  0
ARC
  5
1305
330
1E
100
AcDbEntity
  8
STEMPEL
100
AcDbCircle
 10
297.6257899845533
 20
679.5603595713276
 30
0.0
 40
5.0
100
AcDbArc
 50
59.46264995169811
 51
90.0
  0
ELLIPSE
  5
1306
330
1E
100
AcDbEntity
  8
STEMPEL
100
AcDbEllipse
 10
272.4978001536743
 20
653.0603595713284
 30
0.0
 11
0.0000000000000334
 21
7.5
 31
0.0
210
0.0
220
0.0
230
-1.0
 40
0.8660254037843856
 41
4.712388980384689
 42
6.24459510668465
  0
ELLIPSE
  5
1307
330
1E
100
AcDbEntity
  8
STEMPEL
100
AcDbEllipse
 10
271.9966231582323
 20
653.0603595713284
 30
0.0
 11
0.0000000000000334
 21
7.5
 31
0.0
210
0.0
220
0.0
230
-1.0
 40
0.8660254037843856
 41
4.712388980384689
 42
7.853981633974482
  0
ELLIPSE
  5
1308
330
1E
100
AcDbEntity
  8
STEMPEL
100
AcDbEllipse
 10
272.4978001536742
 20
628.0603595713284
 30
0.0
 11
-0.0000000000000334
 21
-7.5
 31
0.0
210
0.0
220
0.0
230
1.0
 40
0.8660254037843856
 41
4.712388980384689
 42
6.24459510668465
  0
ELLIPSE
  5
1309
330
1E
100
AcDbEntity
  8
STEMPEL
100
AcDbEllipse
 10
271.9966231582322
 20
628.0603595713284
 30
0.0
 11
-0.0000000000000334
 21
-7.5
 31
0.0
210
0.0
220
0.0
230
1.0
 40
0.8660254037843856
 41
4.712388980384689
 42
7.853981633974482
  0
LINE
  5
130A
330
1E
100
AcDbEntity
  8
STEMPEL
100
AcDbLine
 10
266.0026096252914
 20
653.0603595713284
 30
0.0
 11
266.0026096252913
 21
628.0603595713284
 31
0.0
  0
LINE
  5
130B
330
1E
100
AcDbEntity
  8
STEMPEL
100
AcDbLine
 10
278.4918136866152
 20
653.0603595713284
 30
0.0
 11
278.4918136866151
 21
628.06035957133
 31
0.0
  0
LINE
  5
130C
330
1E
100
AcDbEntity
  8
STEMPEL
100
AcDbLine
 10
265.5014326298494
 20
653.0603595713284
 30
0.0
 11
265.5014326298493
 21
628.0603595713284
 31
0.0
  0
LWPOLYLINE
  5
130D
330
1E
100
AcDbEntity
  8
STEMPEL
100
AcDbPolyline
 90
        7
 70
   128
 43
0.0
 10
253.9114233080257
 20
596.5603595713283
 10
253.5608580936137
 20
597.1696974731691
 10
253.260196114675
 20
597.8971277464584
 10
253.0175240527404
 20
598.7230852404021
 10
252.8393688776919
 20
599.6253547908644
 10
252.7305222967114
 20
600.5796687251075
 10
252.6939118752966
 20
601.5603595713288
  0
LINE
  5
130E
330
1E
100
AcDbEntity
  8
STEMPEL
100
AcDbLine
 10
252.3103276096197
 20
608.0603595713249
 30
0.0
 11
252.3103276096196
 21
601.5603595713299
 31
0.0
  0
LINE
  5
130F
330
1E
100
AcDbEntity
  8
STEMPEL
100
AcDbLine
 10
252.6939118752967
 20
608.0603595713265
 30
0.0
 11
252.6939118752966
 21
601.5603595713299
 31
0.0
  0
LWPOLYLINE
  5
1310
330
1E
100
AcDbEntity
  8
STEMPEL
100
AcDbPolyline
 90
       10
 70
   128
 43
0.0
 10
255.0326709368286
 20
595.5603595713284
 10
254.5599409790751
 20
595.6515130532551
 10
254.1015746818749
 20
595.9222038466129
 10
253.6714992732241
 20
596.3642071486217
 10
253.2827823767858
 20
596.9640929126145
 10
252.9472349587582
 20
597.7036339132093
 10
252.6750524576426
 20
598.5603595713286
 10
252.4745050010045
 20
599.5082387113746
 10
252.3516861218321
 20
600.5184705053271
 10
252.3103276096196
 20
601.5603595713288
  0
LWPOLYLINE
  5
1311
330
1E
100
AcDbEntity
  8
STEMPEL
100
AcDbPolyline
 90
       10
 70
   128
 43
0.0
 10
268.8908639244996
 20
595.5603595713283
 10
268.418133966746
 20
595.651513053255
 10
267.9597676695458
 20
595.9222038466129
 10
267.529692260895
 20
596.3642071486216
 10
267.1409753644568
 20
596.9640929126145
 10
266.8054279464291
 20
597.7036339132093
 10
266.5332454453135
 20
598.5603595713285
 10
266.3326979886754
 20
599.5082387113744
 10
266.209879109503
 20
600.518470505327
 10
266.1685205972905
 20
601.5603595713287
  0
LINE
  5
1312
330
1E
100
AcDbEntity
  8
STEMPEL
100
AcDbLine
 10
266.1685205972907
 20
608.0603595713264
 30
0.0
 11
266.1685205972905
 21
601.5603595713298
 31
0.0
  0
LINE
  5
1313
330
1E
100
AcDbEntity
  8
STEMPEL
100
AcDbLine
 10
277.8733721307719
 20
608.0603595713263
 30
0.0
 11
277.8733721307718
 21
601.5603595713297
 31
0.0
  0
LINE
  5
1314
330
1E
100
AcDbEntity
  8
STEMPEL
100
AcDbLine
 10
278.4835665786342
 20
608.0603595713263
 30
0.0
 11
278.4835665786341
 21
601.5603595713297
 31
0.0
  0
LINE
  5
1315
330
1E
100
AcDbEntity
  8
STEMPEL
100
AcDbLine
 10
267.3860320300196
 20
596.5603595713282
 30
0.0
 11
253.9114233080252
 21
596.5603595713283
 31
0.0
  0
LWPOLYLINE
  5
1316
330
1E
100
AcDbEntity
  8
STEMPEL
100
AcDbPolyline
 90
        9
 70
   128
 43
0.0
 10
-259.4312162362671
 20
615.5574859943666
 10
-258.1070067859372
 20
615.3786530873189
 10
-256.8390273887512
 20
614.9283771699946
 10
-255.6743087006656
 20
614.2233594378555
 10
-254.6560513320589
 20
613.289749721472
 10
-253.8220234927966
 20
612.1621765624959
 10
-253.2031601306027
 20
610.8824628055441
 10
-252.8224155221285
 20
609.4980743460086
 10
-252.6939118752967
 20
608.0603595713281
210
0.0
220
0.0
230
-1.0
  0
LWPOLYLINE
  5
1317
330
1E
100
AcDbEntity
  8
STEMPEL
100
AcDbPolyline
 90
       18
 70
   128
 43
0.0
 10
-266.1685205972907
 20
608.0603595713264
 10
-266.0505395620095
 20
609.4384809549509
 10
-265.7006141588198
 20
610.7696720677306
 10
-265.1306606776381
 20
612.0086007929074
 10
-264.360088200682
 20
613.1130768986767
 10
-263.4151376494545
 20
614.0454887759296
 10
-262.3279881816344
 20
614.7740842564908
 10
-261.1356613684562
 20
615.274051895124
 10
-259.8787604695043
 20
615.5283658935408
 10
-258.600087737406
 20
615.5283658935408
 10
-257.3431868384542
 20
615.2740518951242
 10
-256.150860025276
 20
614.7740842564909
 10
-255.0637105574558
 20
614.0454887759296
 10
-254.1187600062283
 20
613.1130768986767
 10
-253.3481875292722
 20
612.0086007929074
 10
-252.7782340480905
 20
610.7696720677307
 10
-252.4283086449008
 20
609.438480954951
 10
-252.3103276096197
 20
608.0603595713265
210
0.0
220
0.0
230
-1.0
  0
LWPOLYLINE
  5
1318
330
1E
100
AcDbEntity
  8
STEMPEL
100
AcDbPolyline
 90
        7
 70
   128
 43
0.0
 10
280.1215896547395
 20
596.5603595713282
 10
279.6499440541726
 20
597.1696974731691
 10
279.2454375777898
 20
597.8971277464583
 10
278.9189499353008
 20
598.7230852404019
 10
278.6792624218926
 20
599.6253547908642
 10
278.5328217342665
 20
600.5796687251075
 10
278.4835665786341
 20
601.5603595713286
  0
LWPOLYLINE
  5
1319
330
1E
100
AcDbEntity
  8
STEMPEL
100
AcDbPolyline
 90
       10
 70
   128
 43
0.0
 10
281.5359752662959
 20
595.5603595713281
 10
280.899970906295
 20
595.6515130532549
 10
280.2832912169388
 20
595.9222038466127
 10
279.7046736985338
 20
596.3642071486216
 10
279.1816993515819
 20
596.9640929126144
 10
278.7302584869774
 20
597.7036339132091
 10
278.3640679069514
 20
598.5603595713284
 10
278.0942541269765
 20
599.5082387113744
 10
277.9290153022249
 20
600.5184705053269
 10
277.8733721307718
 20
601.5603595713286
  0
LWPOLYLINE
  5
131A
330
1E
100
AcDbEntity
  8
STEMPEL
100
AcDbPolyline
 90
        9
 70
   128
 43
0.0
 10
-284.1286194068759
 20
615.55049364915
 10
-283.0122116855047
 20
615.343186512743
 10
-281.9469324337624
 20
614.8739317852892
 10
-280.9710974507241
 20
614.1596075481206
 10
-280.1198054178662
 20
613.2259065047243
 10
-279.4236754751298
 20
612.1064118695638
 10
-278.9077459164384
 20
610.8413894522251
 10
-278.5905736162225
 20
609.4763393830159
 10
-278.4835665786344
 20
608.0603595713279
210
0.0
220
0.0
230
-1.0
  0
LINE
  5
131B
330
1E
100
AcDbEntity
  8
STEMPEL
100
AcDbLine
 10
297.6257899845533
 20
685.5603595713273
 30
0.0
 11
242.8874278122039
 21
685.5603595713279
 31
0.0
  0
LINE
  5
131C
330
1E
100
AcDbEntity
  8
STEMPEL
100
AcDbLine
 10
297.6257899845533
 20
684.5603595713277
 30
0.0
 11
137.6257899845531
 21
684.5603595713288
 31
0.0
  0
ARC
  5
131D
330
1E
100
AcDbEntity
  8
HILF
100
AcDbCircle
 10
278.6257899845529
 20
583.3190675441029
 30
0.0
 40
14.94074366520046
100
AcDbArc
 50
78.85962783889434
 51
88.1615375270559
  0
ARC
  5
131E
330
1E
100
AcDbEntity
  8
HILF
100
AcDbCircle
 10
282.9559170034751
 20
594.4178862476245
 30
0.0
 40
3.841839622940954
100
AcDbArc
 50
67.9324721810082
 51
112.0675278189918
  0
ARC
  5
131F
330
1E
100
AcDbEntity
  8
STEMPEL
100
AcDbCircle
 10
278.6257899845529
 20
582.9531001496923
 30
0.0
 40
20.20725942163691
100
AcDbArc
 50
81.78678929826174
 51
90.40326439207246
  0
LINE
  5
1320
330
1E
100
AcDbEntity
  8
STEMPEL
100
AcDbLine
 10
283.6257899845529
 20
603.1603595713292
 30
0.0
 11
284.3992926764492
 21
602.9531001496923
 31
0.0
  0
ARC
  5
1321
330
1E
100
AcDbEntity
  8
STEMPEL
100
AcDbCircle
 10
282.9559170034751
 20
598.030822432806
 30
0.0
 40
5.129537138523076
100
AcDbArc
 50
73.65710669401501
 51
106.342893305985
  0
LINE
  5
1322
330
1E
100
AcDbEntity
  8
STEMPEL
100
AcDbLine
 10
285.1757899845529
 20
596.5603595713291
 30
0.0
 11
280.1215896547386
 21
596.5603595713291
 31
0.0
  0
LINE
  5
1323
330
1E
100
AcDbEntity
  8
STEMPEL
100
AcDbLine
 10
281.5125413305011
 20
602.9531001496923
 30
0.0
 11
281.5125413305011
 21
597.9782792533285
 31
0.0
  0
LINE
  5
1324
330
1E
100
AcDbEntity
  8
STEMPEL
100
AcDbLine
 10
284.3992926764492
 20
602.9531001496923
 30
0.0
 11
284.3992926764491
 21
597.9782792533285
 31
0.0
  0
LINE
  5
1325
330
1E
100
AcDbEntity
  8
STEMPEL
100
AcDbLine
 10
283.6257899845529
 20
603.1603595713292
 30
0.0
 11
278.4835665786342
 21
603.1603595713292
 31
0.0
  0
LINE
  5
1326
330
1E
100
AcDbEntity
  8
STEMPEL
100
AcDbLine
 10
285.363901063382
 20
597.6271905127614
 30
0.0
 11
284.3992926764491
 21
597.9782792533285
 31
0.0
  0
ARC
  5
1327
330
1E
100
AcDbEntity
  8
STEMPEL
100
AcDbCircle
 10
285.1757899845529
 20
597.1103595713291
 30
0.0
 40
0.5500000000000009
100
AcDbArc
 50
270.0
 51
69.99999999999935
  0
LINE
  5
1328
330
1E
100
AcDbEntity
  8
STEMPEL
100
AcDbLine
 10
285.363901063382
 20
597.6271905127614
 30
0.0
 11
279.3955431800127
 21
597.6271905127614
 31
0.0
  0
LINE
  5
1329
330
1E
100
AcDbEntity
  8
MITTEL
100
AcDbLine
 10
278.6257899845529
 20
574.0603595713287
 30
0.0
 11
278.6257899845529
 21
608.1603595713292
 31
0.0
  0
ARC
  5
132A
330
1E
100
AcDbEntity
  8
SCHRAFF
100
AcDbCircle
 10
268.2707340200059
 20
579.0603595713284
 30
0.0
 40
1.828088629478462
100
AcDbArc
 50
124.8622016819284
 51
235.1377983180716
  0
HATCH
  5
132B
330
1E
100
AcDbEntity
  8
SCHRAFF
100
AcDbHatch
 10
0.0
 20
0.0
 30
0.0
210
0.0
220
0.0
230
1.0
  2
_USER
 70
     0
 71
     0
 91
        2
 92
        7
 72
     1
 73
     1
 93
        3
 10
267.2257899845531
 20
580.560359571328
 42
0.2453357974240878
 10
266.4426453905277
 20
579.0603595713285
 42
0.0
 10
267.2257899845531
 20
579.0603595713285
 42
0.0
 97
        0
 92
        7
 72
     1
 73
     1
 93
        3
 10
267.2257899845531
 20
579.0603595713285
 42
0.0
 10
266.4426453905274
 20
579.0603595713285
 42
0.2453357974242125
 10
267.2257899845531
 20
577.5603595713285
 42
0.0
 97
        0
 75
     0
 76
     0
 52
0.0
 41
0.1
 77
     0
 78
     1
 53
0.0
 43
6.925789984553119
 44
65.6338469436887
 45
0.0
 46
0.1
 79
     0
 47
0.0937308931428171
 98
        2
 10
266.8745427976102
 20
579.5052159127819
 10
266.968307813385
 20
578.6616373832953
  0
ARC
  5
132C
330
1E
100
AcDbEntity
  8
SCHRAFF
100
AcDbCircle
 10
249.828868834212
 20
579.0603595713285
 30
0.0
 40
5.0
100
AcDbArc
 50
342.5423968762808
 51
17.45760312371915
  0
ARC
  5
132D
330
1E
100
AcDbEntity
  8
SCHRAFF
100
AcDbCircle
 10
239.828868834212
 20
579.0603595713285
 30
0.0
 40
5.0
100
AcDbArc
 50
342.5423968762808
 51
17.45760312371915
  0
ARC
  5
132E
330
1E
100
AcDbEntity
  8
SCHRAFF
100
AcDbCircle
 10
244.828868834212
 20
579.0603595713285
 30
0.0
 40
5.0
100
AcDbArc
 50
342.5423968762808
 51
17.45760312371915
  0
ARC
  5
132F
330
1E
100
AcDbEntity
  8
SCHRAFF
100
AcDbCircle
 10
234.828868834212
 20
579.0603595713285
 30
0.0
 40
5.0
100
AcDbArc
 50
342.5423968762808
 51
17.45760312371915
  0
ARC
  5
1330
330
1E
100
AcDbEntity
  8
SCHRAFF
100
AcDbCircle
 10
229.828868834212
 20
579.0603595713285
 30
0.0
 40
5.0
100
AcDbArc
 50
342.5423968762808
 51
17.45760312371915
  0
ARC
  5
1331
330
1E
100
AcDbEntity
  8
SCHRAFF
100
AcDbCircle
 10
224.828868834212
 20
579.0603595713285
 30
0.0
 40
5.0
100
AcDbArc
 50
342.5423968762808
 51
17.45760312371915
  0
ARC
  5
1332
330
1E
100
AcDbEntity
  8
SCHRAFF
100
AcDbCircle
 10
201.0999586669022
 20
579.0603595713285
 30
0.0
 40
5.0
100
AcDbArc
 50
342.5423968762808
 51
17.45760312371915
  0
ARC
  5
1333
330
1E
100
AcDbEntity
  8
SCHRAFF
100
AcDbCircle
 10
186.0999586669022
 20
579.0603595713285
 30
0.0
 40
5.0
100
AcDbArc
 50
342.5423968762808
 51
17.45760312371915
  0
ARC
  5
1334
330
1E
100
AcDbEntity
  8
SCHRAFF
100
AcDbCircle
 10
181.0999586669022
 20
579.0603595713285
 30
0.0
 40
5.0
100
AcDbArc
 50
342.5423968762808
 51
17.45760312371915
  0
ARC
  5
1335
330
1E
100
AcDbEntity
  8
SCHRAFF
100
AcDbCircle
 10
176.0999586669022
 20
579.0603595713285
 30
0.0
 40
5.0
100
AcDbArc
 50
342.5423968762808
 51
17.45760312371915
  0
ARC
  5
1336
330
1E
100
AcDbEntity
  8
SCHRAFF
100
AcDbCircle
 10
191.0999586669022
 20
579.0603595713285
 30
0.0
 40
5.0
100
AcDbArc
 50
342.5423968762808
 51
17.45760312371915
  0
ARC
  5
1337
330
1E
100
AcDbEntity
  8
SCHRAFF
100
AcDbCircle
 10
196.0999586669022
 20
579.0603595713285
 30
0.0
 40
5.0
100
AcDbArc
 50
342.5423968762808
 51
17.45760312371915
  0
HATCH
  5
1338
330
1E
100
AcDbEntity
  8
SCHRAFF
100
AcDbHatch
 10
0.0
 20
0.0
 30
0.0
210
0.0
220
0.0
230
1.0
  2
_USER
 70
     0
 71
     0
 91
        2
 92
        7
 72
     1
 73
     1
 93
        3
 10
168.0257899845529
 20
580.5603595713282
 42
-0.2453357974240878
 10
168.8089345785782
 20
579.0603595713287
 42
0.0
 10
168.0257899845529
 20
579.0603595713287
 42
0.0
 97
        0
 92
        7
 72
     1
 73
     1
 93
        3
 10
168.0257899845529
 20
579.0603595713287
 42
0.0
 10
168.8089345785785
 20
579.0603595713287
 42
-0.2453357974242125
 10
168.0257899845528
 20
577.5603595713286
 42
0.0
 97
        0
 75
     0
 76
     0
 52
0.0
 41
0.1
 77
     0
 78
     1
 53
179.9999999999998
 43
428.3257899845513
 44
65.63384694368813
 45
0.0000000000000003
 46
0.1
 79
     0
 47
0.0937308931428171
 98
        2
 10
168.3770371714957
 20
579.5052159127822
 10
168.2832721557209
 20
578.6616373832955
  0
ARC
  5
1339
330
1E
100
AcDbEntity
  8
SCHRAFF
100
AcDbCircle
 10
166.9808459491001
 20
579.0603595713287
 30
0.0
 40
1.828088629478462
100
AcDbArc
 50
304.8622016819284
 51
55.13779831807161
  0
LINE
  5
133A
330
1E
100
AcDbEntity
  8
STEMPEL
100
AcDbLine
 10
82.62578998455301
 20
580.5603595713286
 30
0.0
 11
82.625789984553
 21
579.0603595713283
 31
0.0
  0
DIMENSION
  5
133B
330
1E
100
AcDbEntity
  8
BEM
100
AcDbDimension
  2
*D9
 10
61.96452998947757
 20
580.5603595713282
 30
0.0
 11
55.46452998947748
 21
588.0603595713282
 31
0.0
 70
    32
 71
     5
 42
14.99999999999988
  3
Standard
100
AcDbAlignedDimension
 13
87.62578998455294
 23
595.5603595713281
 33
0.0
 14
82.625789984553
 24
580.5603595713282
 34
0.0
 50
90.0
100
AcDbRotatedDimension
1001
ACAD
1000
DSTYLE
1002
{
1070
    40
1040
2.0
1070
    41
1040
3.5
1070
    42
1040
1.0
1070
    43
1040
7.0
1070
    44
1040
1.0
1070
    73
1070
     0
1070
    74
1070
     0
1070
    77
1070
     1
1070
    78
1070
     8
1070
    79
1070
     2
1070
   140
1040
3.5
1070
   141
1040
1.5
1070
   146
1040
0.5142857142857144
1070
   147
1040
1.5
1070
   172
1070
     1
1070
   178
1070
     1
1070
   179
1070
     2
1070
   271
1070
     2
1070
   272
1070
     2
1070
   284
1070
     8
1070
   285
1070
     8
1070
   286
1070
     8
1002
}
  0
LINE
  5
133C
330
1E
100
AcDbEntity
  8
STEMPEL
100
AcDbLine
 10
171.1268944034102
 20
579.0603595713287
 30
0.0
 11
172.1150120454172
 21
569.6603712662063
 31
0.0
  0
LINE
  5
133D
330
1E
100
AcDbEntity
  8
STEMPEL
100
AcDbLine
 10
179.4261070018354
 20
579.0603595713287
 30
0.0
 11
177.7494242645396
 21
569.2454498557126
 31
0.0
  0
LINE
  5
133E
330
1E
100
AcDbEntity
  8
STEMPEL
100
AcDbLine
 10
178.5019211232213
 20
579.0603595713287
 30
0.0
 11
176.7846734809908
 21
569.2454498557126
 31
0.0
  0
ELLIPSE
  5
133F
330
1E
100
AcDbEntity
  8
STEMPEL
100
AcDbEllipse
 10
174.6709299568448
 20
571.0603595713287
 30
0.0
 11
0.0000000000000166
 21
6.0
 31
0.0
210
0.0
220
0.0
230
-1.0
 40
0.4380784772424609
 41
3.141592653589793
 42
4.476886748139611
  0
ELLIPSE
  5
1340
330
1E
100
AcDbEntity
  8
STEMPEL
100
AcDbEllipse
 10
174.6709299568448
 20
571.0603595713287
 30
0.0
 11
0.0000000000000166
 21
6.0
 31
0.0
210
0.0
220
0.0
230
-1.0
 40
0.5382994755134405
 41
1.878094989772521
 42
3.141592653589793
  0
ELLIPSE
  5
1341
330
1E
100
AcDbEntity
  8
STEMPEL
100
AcDbEllipse
 10
173.6316994723035
 20
571.0603595713287
 30
0.0
 11
0.0000000000000166
 21
6.0
 31
0.0
210
0.0
220
0.0
230
-1.0
 40
0.5513228499210167
 41
1.878094989772523
 42
2.965625447397827
  0
LINE
  5
1342
330
1E
100
AcDbEntity
  8
STEMPEL
100
AcDbLine
 10
226.125789984553
 20
579.0603595713287
 30
0.0
 11
223.3989982448687
 21
569.4263257947432
 31
0.0
  0
LINE
  5
1343
330
1E
100
AcDbEntity
  8
STEMPEL
100
AcDbLine
 10
209.125789984553
 20
579.0603595713287
 30
0.0
 11
211.8525817242373
 21
569.4263257947432
 31
0.0
  0
ARC
  5
1344
330
1E
100
AcDbEntity
  8
STEMPEL
100
AcDbCircle
 10
217.625789984553
 20
571.0603595713287
 30
0.0
 40
6.0
100
AcDbArc
 50
195.8034962890195
 51
344.1965037109804
  0
ELLIPSE
  5
1345
330
1E
100
AcDbEntity
  8
STEMPEL
100
AcDbEllipse
 10
261.6198804968024
 20
571.0603595713286
 30
0.0
 11
0.0
 21
6.0
 31
0.0
210
0.0
220
0.0
230
1.0
 40
0.5513228499210167
 41
1.878094989772523
 42
2.965625447397827
  0
ELLIPSE
  5
1346
330
1E
100
AcDbEntity
  8
STEMPEL
100
AcDbEllipse
 10
260.5806500122612
 20
571.0603595713286
 30
0.0
 11
0.0
 21
6.0
 31
0.0
210
0.0
220
0.0
230
1.0
 40
0.5382994755134405
 41
1.878094989772521
 42
3.141592653589793
  0
ELLIPSE
  5
1347
330
1E
100
AcDbEntity
  8
STEMPEL
100
AcDbEllipse
 10
260.5806500122612
 20
571.0603595713286
 30
0.0
 11
0.0
 21
6.0
 31
0.0
210
0.0
220
0.0
230
1.0
 40
0.4380784772424609
 41
3.141592653589793
 42
4.476886748139611
  0
LINE
  5
1348
330
1E
100
AcDbEntity
  8
STEMPEL
100
AcDbLine
 10
256.7496588458847
 20
579.0603595713287
 30
0.0
 11
258.4669064881151
 21
569.2454498557125
 31
0.0
  0
LINE
  5
1349
330
1E
100
AcDbEntity
  8
STEMPEL
100
AcDbLine
 10
255.8254729672705
 20
579.0603595713287
 30
0.0
 11
257.5021557045663
 21
569.2454498557126
 31
0.0
  0
LINE
  5
134A
330
1E
100
AcDbEntity
  8
STEMPEL
100
AcDbLine
 10
264.1246855656957
 20
579.0603595713285
 30
0.0
 11
263.1365679236887
 21
569.6603712662062
 31
0.0
  0
HATCH
  5
134B
330
1E
100
AcDbEntity
  8
SCHRAFF
100
AcDbHatch
 10
0.0
 20
0.0
 30
0.0
210
0.0
220
0.0
230
1.0
  2
_USER
 70
     0
 71
     0
 91
        2
 92
        7
 72
     0
 73
     1
 93
        6
 10
268.425789984553
 20
579.0603595713287
 10
267.2257899845531
 20
579.0603595713285
 10
267.2257899845529
 20
539.060359571328
 10
266.3509033492935
 20
529.0603595713284
 10
267.5554871543457
 20
529.0603595713285
 10
268.4257899845529
 20
539.0079664398383
 97
        0
 92
        7
 72
     0
 73
     1
 93
        6
 10
166.825789984553
 20
539.0079664398384
 10
167.69609281476
 20
529.0603595713285
 10
168.9006766198122
 20
529.0603595713283
 10
168.0257899845529
 20
539.060359571328
 10
168.0257899845529
 20
579.0603595713288
 10
166.8257899845529
 20
579.0603595713288
 97
        0
 75
     0
 76
     0
 52
45.0
 41
2.0
 77
     0
 78
     1
 53
45.0
 43
-7.374210015446948
 44
50.63384694368915
 45
-1.414213562373094
 46
1.414213562373095
 79
     0
 47
0.2802701113960166
 98
        2
 10
268.1505384097141
 20
569.3052536822281
 10
167.2188591985158
 20
567.9039040001823
  0
LINE
  5
134C
330
1E
100
AcDbEntity
  8
STEMPEL
100
AcDbLine
 10
268.425789984553
 20
579.0603595713285
 30
0.0
 11
268.4257899845529
 21
539.0079664398382
 31
0.0
  0
LINE
  5
134D
330
1E
100
AcDbEntity
  8
STEMPEL
100
AcDbLine
 10
267.2257899845531
 20
580.5603595713282
 30
0.0
 11
267.2257899845529
 21
539.0603595713283
 31
0.0
  0
LINE
  5
134E
330
1E
100
AcDbEntity
  8
STEMPEL
100
AcDbLine
 10
168.0257899845529
 20
580.5603595713285
 30
0.0
 11
168.0257899845529
 21
539.0603595713286
 31
0.0
  0
LINE
  5
134F
102
{ACAD_REACTORS
330
1417
102
}
330
1E
100
AcDbEntity
  8
STEMPEL
100
AcDbLine
 10
166.8257899845529
 20
579.0603595713288
 30
0.0
 11
166.8257899845529
 21
539.0079664398384
 31
0.0
  0
LINE
  5
1350
330
1E
100
AcDbEntity
  8
STEMPEL
100
AcDbLine
 10
267.2257899845529
 20
539.0603595713283
 30
0.0
 11
266.3509033492937
 21
529.0603595713283
 31
0.0
  0
LINE
  5
1351
330
1E
100
AcDbEntity
  8
STEMPEL
100
AcDbLine
 10
268.4257899845529
 20
539.0079664398382
 30
0.0
 11
267.5554871543457
 21
529.0603595713284
 31
0.0
  0
LINE
  5
1352
330
1E
100
AcDbEntity
  8
STEMPEL
100
AcDbLine
 10
267.5554871543457
 20
529.0603595713284
 30
0.0
 11
167.6960928147601
 21
529.0603595713284
 31
0.0
  0
LINE
  5
1353
330
1E
100
AcDbEntity
  8
HILF
100
AcDbLine
 10
266.0212061795009
 20
539.0603595713286
 30
0.0
 11
169.2303737896049
 21
539.0603595713286
 31
0.0
  0
LINE
  5
1354
330
1E
100
AcDbEntity
  8
STEMPEL
100
AcDbLine
 10
166.8257899845529
 20
539.0079664398384
 30
0.0
 11
167.6960928147601
 21
529.0603595713284
 31
0.0
  0
LINE
  5
1355
330
1E
100
AcDbEntity
  8
STEMPEL
100
AcDbLine
 10
168.0257899845529
 20
539.0603595713286
 30
0.0
 11
168.9006766198122
 21
529.0603595713285
 31
0.0
  0
LINE
  5
13FC
102
{ACAD_REACTORS
330
1417
102
}
330
1E
100
AcDbEntity
  8
STEMPEL
100
AcDbLine
 10
167.0257899845529
 20
542.8389700571249
 30
0.0
 11
165.2899664955372
 21
542.8389700571249
 31
0.0
  0
LINE
  5
13FD
330
1E
100
AcDbEntity
  8
STEMPEL
100
AcDbLine
 10
223.861490894125
 20
571.0603595713284
 30
0.0
 11
211.390089074981
 21
571.0603595713284
 31
0.0
  0
LINE
  5
13FE
330
1E
100
AcDbEntity
  8
STEMPEL
100
AcDbLine
 10
177.1022158242529
 20
571.0603595713283
 30
0.0
 11
171.9678466343559
 21
571.0603595713283
 31
0.0
  0
HATCH
  5
1417
330
1E
100
AcDbEntity
  8
SCHRAFF
100
AcDbHatch
 10
0.0
 20
0.0
 30
0.0
210
0.0
220
0.0
230
1.0
  2
NET
 70
     0
 71
     1
 91
        1
 92
        7
 72
     1
 73
     1
 93
       14
 10
160.6257899845528
 20
551.4556081087571
 42
0.0
 10
160.6257899845528
 20
546.0603595713287
 42
0.0
 10
162.1249768001946
 20
546.0603595713287
 42
0.0
 10
162.5262050609723
 20
548.0603595713285
 42
0.0
 10
164.7268104989867
 20
548.0603595713285
 42
0.0395871618533297
 10
165.2899664955372
 20
542.8389700571249
 42
0.0
 10
166.8257899845529
 20
542.8389700571248
 42
0.0
 10
166.8257899845529
 20
564.1139494098142
 42
0.0
 10
165.262403248945
 20
569.9485881389823
 42
0.6565381519876248
 10
162.5394250655267
 20
570.3520009602962
 42
0.0
 10
159.978218133927
 20
566.2299240187833
 42
0.1436237563963175
 10
159.3762180921404
 20
564.0603595713285
 42
0.0
 10
164.125789984553
 20
564.0603595713285
 42
0.0
 10
162.7807108827101
 20
561.1758281287936
 42
0.109517811683246
 97
       14
330
D58
330
D56
330
D59
330
D5C
330
D68
330
F31
330
F32
330
F33
330
D60
330
D5D
330
D5E
330
D5F
330
13FC
330
134F
 75
     0
 76
     1
 52
45.0
 41
20.0
 77
     0
 78
     2
 53
45.0
 43
0.0
 44
0.0
 45
-1.767766952966368
 46
1.767766952966368
 79
     0
 53
135.0
 43
0.0
 44
0.0
 45
-1.767766952966368
 46
-1.767766952966368
 79
     0
 47
0.1639434224318557
 98
        1
 10
163.3624411296532
 20
556.6399573969099
  0
HATCH
  5
1418
330
1E
100
AcDbEntity
  8
SCHRAFF
100
AcDbHatch
 10
0.0
 20
0.0
 30
0.0
210
0.0
220
0.0
230
1.0
  2
NET
 70
     0
 71
     0
 91
        1
 92
        7
 72
     1
 73
     1
 93
       14
 10
274.6257899845527
 20
551.455608108757
 42
0.0
 10
274.6257899845527
 20
546.0603595713286
 42
0.0
 10
273.126603168911
 20
546.0603595713286
 42
0.0
 10
272.7253749081333
 20
548.0603595713283
 42
0.0
 10
270.5247694701188
 20
548.0603595713283
 42
-0.0395871618533297
 10
269.9616134735684
 20
542.8389700571248
 42
0.0
 10
268.4257899845526
 20
542.8389700571247
 42
0.0
 10
268.4257899845527
 20
564.1139494098141
 42
0.0
 10
269.9891767201606
 20
569.9485881389822
 42
-0.6565381519876248
 10
272.7121549035789
 20
570.3520009602961
 42
0.0
 10
275.2733618351786
 20
566.2299240187832
 42
-0.1436237563963175
 10
275.8753618769652
 20
564.0603595713283
 42
0.0
 10
271.1257899845526
 20
564.0603595713283
 42
0.0
 10
272.4708690863955
 20
561.1758281287934
 42
-0.109517811683246
 97
        0
 75
     0
 76
     1
 52
45.0
 41
20.0
 77
     0
 78
     2
 53
134.9999999999998
 43
435.251579969104
 44
-0.0000000000005684
 45
1.767766952966373
 46
1.767766952966363
 79
     0
 53
44.99999999999985
 43
435.251579969104
 44
-0.0000000000005684
 45
1.767766952966363
 46
-1.767766952966373
 79
     0
 47
0.1639434224318557
 98
        1
 10
271.8891388394524
 20
556.6399573969098
  0
DIMENSION
  5
1427
330
1E
100
AcDbEntity
  8
BEM
100
AcDbDimension
  2
*D10
 10
82.62578998455303
 20
730.805575326836
 30
0.0
 11
217.625789984553
 21
737.3055753268361
 31
0.0
 70
    32
  1
%%c<>
 71
     5
 42
269.9999999999999
  3
Standard
100
AcDbAlignedDimension
 13
352.6257899845529
 23
580.5603595713289
 33
0.0
 14
82.62578998455301
 24
580.5603595713283
 34
0.0
100
AcDbRotatedDimension
1001
ACAD
1000
DSTYLE
1002
{
1070
    40
1040
2.0
1070
    41
1040
3.5
1070
    42
1040
1.0
1070
    43
1040
7.0
1070
    44
1040
1.0
1070
    73
1070
     0
1070
    74
1070
     0
1070
    77
1070
     1
1070
    78
1070
     8
1070
    79
1070
     2
1070
   140
1040
3.5
1070
   141
1040
1.5
1070
   146
1040
0.5142857142857144
1070
   147
1040
1.5
1070
   172
1070
     1
1070
   178
1070
     1
1070
   179
1070
     2
1070
   271
1070
     2
1070
   272
1070
     2
1070
   284
1070
     8
1070
   285
1070
     8
1070
   286
1070
     8
1002
}
  0
ENDSEC
  0
SECTION
  2
OBJECTS
  0
DICTIONARY
  5
C
330
0
100
AcDbDictionary
281
     1
  3
ACAD_COLOR
350
11A
  3
ACAD_GROUP
350
D
  3
ACAD_LAYOUT
350
19
  3
ACAD_MATERIAL
350
119
  3
ACAD_MLINESTYLE
350
16
  3
ACAD_PLOTSETTINGS
350
18
  3
ACAD_PLOTSTYLENAME
350
E
  3
AcDbVariableDictionary
350
125
  0
DICTIONARY
  5
DB
330
1E
100
AcDbDictionary
280
     1
281
     1
  3
ACAD_LAYOUTSELFREF
360
10F
  0
DICTIONARY
  5
DD
330
1A
100
AcDbDictionary
280
     1
281
     1
  3
ACAD_LAYOUTSELFREF
360
10E
  0
DICTIONARY
  5
11A
102
{ACAD_REACTORS
330
C
102
}
330
C
100
AcDbDictionary
281
     1
  0
DICTIONARY
  5
D
102
{ACAD_REACTORS
330
C
102
}
330
C
100
AcDbDictionary
281
     1
  0
DICTIONARY
  5
19
102
{ACAD_REACTORS
330
C
102
}
330
C
100
AcDbDictionary
281
     1
  3
Layout1
350
1D
  3
Model
350
21
  0
DICTIONARY
  5
119
102
{ACAD_REACTORS
330
C
102
}
330
C
100
AcDbDictionary
281
     1
  0
DICTIONARY
  5
16
102
{ACAD_REACTORS
330
C
102
}
330
C
100
AcDbDictionary
281
     1
  3
Standard
350
17
  0
DICTIONARY
  5
18
102
{ACAD_REACTORS
330
C
102
}
330
C
100
AcDbDictionary
281
     1
  0
ACDBDICTIONARYWDFLT
  5
E
102
{ACAD_REACTORS
330
C
102
}
330
C
100
AcDbDictionary
281
     1
  3
Normal
350
F
100
AcDbDictionaryWithDefault
340
F
  0
DICTIONARY
  5
125
102
{ACAD_REACTORS
330
C
102
}
330
C
100
AcDbDictionary
281
     1
  3
DIMASSOC
350
126
  3
PROJECTNAME
350
127
  0
XRECORD
  5
10F
102
{ACAD_REACTORS
330
DB
102
}
330
DB
100
AcDbXrecord
280
     1
340
1E
  0
XRECORD
  5
10E
102
{ACAD_REACTORS
330
DD
102
}
330
DD
100
AcDbXrecord
280
     1
340
1A
  0
LAYOUT
  5
1D
102
{ACAD_REACTORS
330
19
102
}
330
19
100
AcDbPlotSettings
  1

  2
\\NT_WORK01\HP LaserJet 5000 PCL 6
  4

  6

 40
0.0
 41
0.0
 42
0.0
 43
0.0
 44
0.0
 45
0.0
 46
0.0
 47
0.0
 48
0.0
 49
0.0
140
0.0
141
0.0
142
1.0
143
1.0
 70
   688
 72
     0
 73
     0
 74
     5
  7

 75
    16
147
1.0
 76
     0
 77
     2
 78
   300
148
0.0
149
0.0
100
AcDbLayout
  1
Layout1
 70
     0
 71
     1
 10
0.0
 20
0.0
 11
12.0
 21
9.0
 12
0.0
 22
0.0
 32
0.0
 14
1.000000000000000E+20
 24
1.000000000000000E+20
 34
1.000000000000000E+20
 15
-1.000000000000000E+20
 25
-1.000000000000000E+20
 35
-1.000000000000000E+20
146
0.0
 13
0.0
 23
0.0
 33
0.0
 16
1.0
 26
0.0
 36
0.0
 17
0.0
 27
1.0
 37
0.0
 76
     0
330
1A
  0
LAYOUT
  5
21
102
{ACAD_REACTORS
330
19
102
}
330
19
100
AcDbPlotSettings
  1

  2
none_device
  4
Letter_(8.50_x_11.00_Inches)
  6

 40
6.349999904632568
 41
6.349999904632568
 42
6.350006103515625
 43
6.350006103515625
 44
215.8999938964844
 45
279.3999938964844
 46
0.0
 47
0.0
 48
0.0
 49
0.0
140
0.0
141
0.0
142
1.0
143
1.0
 70
 11952
 72
     0
 73
     1
 74
     0
  7

 75
     0
147
1.0
 76
     0
 77
     2
 78
   300
148
3126.834080051068
149
2.634080051069576
100
AcDbLayout
  1
Model
 70
     1
 71
     0
 10
0.0
 20
0.0
 11
12.0
 21
9.0
 12
0.0
 22
0.0
 32
0.0
 14
0.0
 24
0.0
 34
0.0
 15
0.0
 25
0.0
 35
0.0
146
0.0
 13
0.0
 23
0.0
 33
0.0
 16
1.0
 26
0.0
 36
0.0
 17
0.0
 27
1.0
 37
0.0
 76
     0
330
1E
  0
MLINESTYLE
  5
17
102
{ACAD_REACTORS
330
16
102
}
330
16
100
AcDbMlineStyle
  2
STANDARD
 70
     0
  3

 62
   256
 51
90.0
 52
90.0
 71
     2
 49
0.5
 62
   256
  6
BYLAYER
 49
-0.5
 62
   256
  6
BYLAYER
  0
ACDBPLACEHOLDER
  5
F
102
{ACAD_REACTORS
330
E
102
}
330
E
  0
DICTIONARYVAR
  5
126
102
{ACAD_REACTORS
330
125
102
}
330
125
100
DictionaryVariables
280
     0
  1
1
  0
DICTIONARYVAR
  5
127
102
{ACAD_REACTORS
330
125
102
}
330
125
100
DictionaryVariables
280
     0
  1

  0
ENDSEC
  0
EOF
