  0
SECTION
  2
HEADER
  9
$ACADVER
  1
AC1018
  9
$ACADMAINTVER
 70
     2
  9
$DWGCODEPAGE
  3
ANSI_1252
  9
$INSBASE
 10
0.0
 20
0.0
 30
0.0
  9
$EXTMIN
 10
-0.0362532231533805
 20
-0.0512671842573127
 30
-0.0000000349181948
  9
$EXTMAX
 10
594.0362587553784
 20
840.051275007606
 30
0.0000000814935746
  9
$LIMMIN
 10
0.0
 20
0.0
  9
$LIMMAX
 10
594.0
 20
840.0
  9
$ORTHOMODE
 70
     1
  9
$REGENMODE
 70
     1
  9
$FILLMODE
 70
     1
  9
$QTEXTMODE
 70
     0
  9
$MIRRTEXT
 70
     1
  9
$LTSCALE
 40
20.0
  9
$ATTMODE
 70
     1
  9
$TEXTSIZE
 40
3.5
  9
$TRACEWID
 40
1.0
  9
$TEXTSTYLE
  7
STANDARD
  9
$CLAYER
  8
VOLL
  9
$CELTYPE
  6
ByLayer
  9
$CECOLOR
 62
   256
  9
$CELTSCALE
 40
1.0
  9
$DISPSILH
 70
     0
  9
$DIMSCALE
 40
2.0
  9
$DIMASZ
 40
3.5
  9
$DIMEXO
 40
1.0
  9
$DIMDLI
 40
7.0
  9
$DIMRND
 40
0.0
  9
$DIMDLE
 40
0.0
  9
$DIMEXE
 40
1.0
  9
$DIMTP
 40
0.0
  9
$DIMTM
 40
0.0
  9
$DIMTXT
 40
3.5
  9
$DIMCEN
 40
1.5
  9
$DIMTSZ
 40
0.0
  9
$DIMTOL
 70
     0
  9
$DIMLIM
 70
     0
  9
$DIMTIH
 70
     0
  9
$DIMTOH
 70
     0
  9
$DIMSE1
 70
     0
  9
$DIMSE2
 70
     0
  9
$DIMTAD
 70
     1
  9
$DIMZIN
 70
     8
  9
$DIMBLK
  1

  9
$DIMASO
 70
     1
  9
$DIMSHO
 70
     0
  9
$DIMPOST
  1

  9
$DIMAPOST
  1

  9
$DIMALT
 70
     0
  9
$DIMALTD
 70
     2
  9
$DIMALTF
 40
25.4
  9
$DIMLFAC
 40
1.0
  9
$DIMTOFL
 70
     1
  9
$DIMTVP
 40
0.0
  9
$DIMTIX
 70
     0
  9
$DIMSOXD
 70
     0
  9
$DIMSAH
 70
     0
  9
$DIMBLK1
  1

  9
$DIMBLK2
  1

  9
$DIMSTYLE
  2
Standard
  9
$DIMCLRD
 70
     0
  9
$DIMCLRE
 70
     0
  9
$DIMCLRT
 70
     1
  9
$DIMTFAC
 40
0.5142857142857144
  9
$DIMGAP
 40
1.5
  9
$DIMJUST
 70
     0
  9
$DIMSD1
 70
     0
  9
$DIMSD2
 70
     0
  9
$DIMTOLJ
 70
     1
  9
$DIMTZIN
 70
     8
  9
$DIMALTZ
 70
     8
  9
$DIMALTTZ
 70
     8
  9
$DIMUPT
 70
     0
  9
$DIMDEC
 70
     2
  9
$DIMTDEC
 70
     2
  9
$DIMALTU
 70
     2
  9
$DIMALTTD
 70
     2
  9
$DIMTXSTY
  7
STANDARD
  9
$DIMAUNIT
 70
     0
  9
$DIMADEC
 70
     2
  9
$DIMALTRND
 40
0.0
  9
$DIMAZIN
 70
     2
  9
$DIMDSEP
 70
    46
  9
$DIMATFIT
 70
     3
  9
$DIMFRAC
 70
     0
  9
$DIMLDRBLK
  1

  9
$DIMLUNIT
 70
     2
  9
$DIMLWD
 70
    -2
  9
$DIMLWE
 70
    -2
  9
$DIMTMOVE
 70
     0
  9
$LUNITS
 70
     2
  9
$LUPREC
 70
     2
  9
$SKETCHINC
 40
1.0
  9
$FILLETRAD
 40
0.0
  9
$AUNITS
 70
     0
  9
$AUPREC
 70
     0
  9
$MENU
  1
ACAD
  9
$ELEVATION
 40
0.0
  9
$PELEVATION
 40
0.0
  9
$THICKNESS
 40
0.0
  9
$LIMCHECK
 70
     0
  9
$CHAMFERA
 40
0.0
  9
$CHAMFERB
 40
0.0
  9
$CHAMFERC
 40
0.0
  9
$CHAMFERD
 40
0.0
  9
$SKPOLY
 70
     0
  9
$TDCREATE
 40
2455397.867059838
  9
$TDUCREATE
 40
2455397.783726505
  9
$TDUPDATE
 40
2456157.313135753
  9
$TDUUPDATE
 40
2456157.229802419
  9
$TDINDWG
 40
0.1281091782
  9
$TDUSRTIMER
 40
0.1281091782
  9
$USRTIMER
 70
     1
  9
$ANGBASE
 50
0.0
  9
$ANGDIR
 70
     0
  9
$PDMODE
 70
     0
  9
$PDSIZE
 40
0.0
  9
$PLINEWID
 40
0.0
  9
$SPLFRAME
 70
     0
  9
$SPLINETYPE
 70
     6
  9
$SPLINESEGS
 70
     8
  9
$HANDSEED
  5
FF7
  9
$SURFTAB1
 70
     6
  9
$SURFTAB2
 70
     6
  9
$SURFTYPE
 70
     6
  9
$SURFU
 70
     6
  9
$SURFV
 70
     6
  9
$UCSBASE
  2

  9
$UCSNAME
  2

  9
$UCSORG
 10
0.0
 20
0.0
 30
0.0
  9
$UCSXDIR
 10
1.0
 20
0.0
 30
0.0
  9
$UCSYDIR
 10
0.0
 20
1.0
 30
0.0
  9
$UCSORTHOREF
  2

  9
$UCSORTHOVIEW
 70
     0
  9
$UCSORGTOP
 10
0.0
 20
0.0
 30
0.0
  9
$UCSORGBOTTOM
 10
0.0
 20
0.0
 30
0.0
  9
$UCSORGLEFT
 10
0.0
 20
0.0
 30
0.0
  9
$UCSORGRIGHT
 10
0.0
 20
0.0
 30
0.0
  9
$UCSORGFRONT
 10
0.0
 20
0.0
 30
0.0
  9
$UCSORGBACK
 10
0.0
 20
0.0
 30
0.0
  9
$PUCSBASE
  2

  9
$PUCSNAME
  2

  9
$PUCSORG
 10
0.0
 20
0.0
 30
0.0
  9
$PUCSXDIR
 10
1.0
 20
0.0
 30
0.0
  9
$PUCSYDIR
 10
0.0
 20
1.0
 30
0.0
  9
$PUCSORTHOREF
  2

  9
$PUCSORTHOVIEW
 70
     0
  9
$PUCSORGTOP
 10
0.0
 20
0.0
 30
0.0
  9
$PUCSORGBOTTOM
 10
0.0
 20
0.0
 30
0.0
  9
$PUCSORGLEFT
 10
0.0
 20
0.0
 30
0.0
  9
$PUCSORGRIGHT
 10
0.0
 20
0.0
 30
0.0
  9
$PUCSORGFRONT
 10
0.0
 20
0.0
 30
0.0
  9
$PUCSORGBACK
 10
0.0
 20
0.0
 30
0.0
  9
$USERI1
 70
     0
  9
$USERI2
 70
     0
  9
$USERI3
 70
     0
  9
$USERI4
 70
     0
  9
$USERI5
 70
     0
  9
$USERR1
 40
0.0
  9
$USERR2
 40
0.0
  9
$USERR3
 40
0.0
  9
$USERR4
 40
0.0
  9
$USERR5
 40
0.0
  9
$WORLDVIEW
 70
     1
  9
$SHADEDGE
 70
     3
  9
$SHADEDIF
 70
    70
  9
$TILEMODE
 70
     1
  9
$MAXACTVP
 70
    16
  9
$PINSBASE
 10
0.0
 20
0.0
 30
0.0
  9
$PLIMCHECK
 70
     0
  9
$PEXTMIN
 10
1.000000000000000E+20
 20
1.000000000000000E+20
 30
1.000000000000000E+20
  9
$PEXTMAX
 10
-1.000000000000000E+20
 20
-1.000000000000000E+20
 30
-1.000000000000000E+20
  9
$PLIMMIN
 10
0.0
 20
0.0
  9
$PLIMMAX
 10
12.0
 20
9.0
  9
$UNITMODE
 70
     0
  9
$VISRETAIN
 70
     0
  9
$PLINEGEN
 70
     0
  9
$PSLTSCALE
 70
     0
  9
$TREEDEPTH
 70
  3020
  9
$CMLSTYLE
  2
Standard
  9
$CMLJUST
 70
     0
  9
$CMLSCALE
 40
1.0
  9
$PROXYGRAPHICS
 70
     1
  9
$MEASUREMENT
 70
     0
  9
$CELWEIGHT
370
    -1
  9
$ENDCAPS
280
     0
  9
$JOINSTYLE
280
     0
  9
$LWDISPLAY
290
     0
  9
$INSUNITS
 70
     0
  9
$HYPERLINKBASE
  1

  9
$STYLESHEET
  1
monochrome 1.ctb
  9
$XEDIT
290
     1
  9
$CEPSNTYPE
380
     0
  9
$PSTYLEMODE
290
     1
  9
$FINGERPRINTGUID
  2
{D68B0D0D-A558-11D7-B632-000102183313}
  9
$VERSIONGUID
  2
{A93B22A3-7B10-4410-9C23-2C2FCFD595D1}
  9
$EXTNAMES
290
     1
  9
$PSVPSCALE
 40
0.0
  9
$OLESTARTUP
290
     0
  9
$SORTENTS
280
   127
  9
$INDEXCTL
280
     0
  9
$HIDETEXT
280
     0
  9
$XCLIPFRAME
290
     0
  9
$HALOGAP
280
     0
  9
$OBSCOLOR
 70
   257
  9
$OBSLTYPE
280
     0
  9
$INTERSECTIONDISPLAY
280
     0
  9
$INTERSECTIONCOLOR
 70
   257
  9
$DIMASSOC
280
     1
  9
$PROJECTNAME
  1

  0
ENDSEC
  0
SECTION
  2
CLASSES
  0
CLASS
  1
ACDBDICTIONARYWDFLT
  2
AcDbDictionaryWithDefault
  3
ObjectDBX Classes
 90
        0
 91
        1
280
     0
281
     0
  0
CLASS
  1
DICTIONARYVAR
  2
AcDbDictionaryVar
  3
ObjectDBX Classes
 90
        0
 91
        2
280
     0
281
     0
  0
ENDSEC
  0
SECTION
  2
TABLES
  0
TABLE
  2
VPORT
  5
8
330
0
100
AcDbSymbolTable
 70
     3
  0
VPORT
  5
FF6
330
8
100
AcDbSymbolTableRecord
100
AcDbViewportTableRecord
  2
*Active
 70
     0
 10
0.0
 20
0.0
 11
1.0
 21
1.0
 12
297.0
 22
420.0
 13
0.0
 23
0.0
 14
1.0
 24
1.0
 15
10.0
 25
10.0
 16
0.0
 26
0.0
 36
1.0
 17
0.0
 27
0.0
 37
0.0
 40
840.0
 41
1.404858299595141
 42
50.0
 43
0.0
 44
0.0
 50
0.0
 51
0.0
 71
     0
 72
  1500
 73
     1
 74
     0
 75
     0
 76
     0
 77
     0
 78
     0
281
     0
 65
     1
110
0.0
120
0.0
130
0.0
111
1.0
121
0.0
131
0.0
112
0.0
122
1.0
132
0.0
 79
     0
146
0.0
  0
ENDTAB
  0
TABLE
  2
LTYPE
  5
5
330
0
100
AcDbSymbolTable
 70
     2
  0
LTYPE
  5
13
330
5
100
AcDbSymbolTableRecord
100
AcDbLinetypeTableRecord
  2
ByBlock
 70
     0
  3

 72
    65
 73
     0
 40
0.0
  0
LTYPE
  5
14
330
5
100
AcDbSymbolTableRecord
100
AcDbLinetypeTableRecord
  2
ByLayer
 70
     0
  3

 72
    65
 73
     0
 40
0.0
  0
LTYPE
  5
15
330
5
100
AcDbSymbolTableRecord
100
AcDbLinetypeTableRecord
  2
Continuous
 70
     0
  3
Solid line
 72
    65
 73
     0
 40
0.0
  0
LTYPE
  5
25
330
5
100
AcDbSymbolTableRecord
100
AcDbLinetypeTableRecord
  2
STRICHPUNKT
 70
     0
  3
__ . __ . __ . __ . __ . __ . __ . __ . __ . __
 72
    65
 73
     4
 40
1.0
 49
0.5
 74
     0
 49
-0.25
 74
     0
 49
0.0
 74
     0
 49
-0.25
 74
     0
  0
ENDTAB
  0
TABLE
  2
LAYER
  5
2
330
0
100
AcDbSymbolTable
 70
     9
  0
LAYER
  5
10
330
2
100
AcDbSymbolTableRecord
100
AcDbLayerTableRecord
  2
0
 70
     0
 62
     7
  6
Continuous
370
    -3
390
F
  0
LAYER
  5
2B
330
2
100
AcDbSymbolTableRecord
100
AcDbLayerTableRecord
  2
VOLL
 70
     0
 62
     1
  6
Continuous
370
    -3
390
F
  0
LAYER
  5
2C
330
2
100
AcDbSymbolTableRecord
100
AcDbLayerTableRecord
  2
HILF
 70
     0
 62
     2
  6
Continuous
370
    -3
390
F
  0
LAYER
  5
2D
330
2
100
AcDbSymbolTableRecord
100
AcDbLayerTableRecord
  2
MITTEL
 70
     0
 62
     2
  6
STRICHPUNKT
370
    -3
390
F
  0
LAYER
  5
2F
330
2
100
AcDbSymbolTableRecord
100
AcDbLayerTableRecord
  2
BEM
 70
     0
 62
     7
  6
Continuous
370
    -3
390
F
  0
LAYER
  5
30
330
2
100
AcDbSymbolTableRecord
100
AcDbLayerTableRecord
  2
STEMPEL
 70
     0
 62
     3
  6
Continuous
370
    -3
390
F
  0
LAYER
  5
33
330
2
100
AcDbSymbolTableRecord
100
AcDbLayerTableRecord
  2
TEXT
 70
     0
 62
     7
  6
Continuous
370
    -3
390
F
  0
LAYER
  5
1AE
330
2
100
AcDbSymbolTableRecord
100
AcDbLayerTableRecord
  2
SCHRAFF
 70
     0
 62
     7
  6
Continuous
370
    -3
390
F
  0
LAYER
  5
7AB
330
2
100
AcDbSymbolTableRecord
100
AcDbLayerTableRecord
  2
DEFPOINTS
 70
     0
 62
     7
  6
Continuous
290
     0
370
    -3
390
F
  0
ENDTAB
  0
TABLE
  2
STYLE
  5
3
330
0
100
AcDbSymbolTable
 70
     2
  0
STYLE
  5
11
330
3
100
AcDbSymbolTableRecord
100
AcDbTextStyleTableRecord
  2
STANDARD
 70
     0
 40
0.0
 41
0.8
 50
0.0
 71
     0
 42
3.5
  3
simplex.shx
  4

  0
STYLE
  5
24
330
3
100
AcDbSymbolTableRecord
100
AcDbTextStyleTableRecord
  2
GREEKS
 70
     0
 40
0.0
 41
0.8
 50
0.0
 71
     0
 42
2.5
  3
SIMPLEX.shx
  4

  0
ENDTAB
  0
TABLE
  2
VIEW
  5
6
330
0
100
AcDbSymbolTable
 70
     0
  0
ENDTAB
  0
TABLE
  2
UCS
  5
7
330
0
100
AcDbSymbolTable
 70
     0
  0
ENDTAB
  0
TABLE
  2
APPID
  5
9
330
0
100
AcDbSymbolTable
 70
     1
  0
APPID
  5
12
330
9
100
AcDbSymbolTableRecord
100
AcDbRegAppTableRecord
  2
ACAD
 70
     0
  0
ENDTAB
  0
TABLE
  2
DIMSTYLE
  5
A
330
0
100
AcDbSymbolTable
 70
     1
100
AcDbDimStyleTable
 71
     1
340
A2
  0
DIMSTYLE
105
A2
102
{ACAD_REACTORS
330
A74
330
A8E
330
A8F
330
A90
330
E18
330
E19
330
F28
330
F29
102
}
330
A
100
AcDbSymbolTableRecord
100
AcDbDimStyleTableRecord
  2
Standard
 70
     0
340
11
  0
ENDTAB
  0
TABLE
  2
BLOCK_RECORD
  5
1
330
0
100
AcDbSymbolTable
 70
    10
  0
BLOCK_RECORD
  5
1E
102
{ACAD_XDICTIONARY
360
DB
102
}
330
1
100
AcDbSymbolTableRecord
100
AcDbBlockTableRecord
  2
*Model_Space
340
21
  0
BLOCK_RECORD
  5
1A
102
{ACAD_XDICTIONARY
360
DD
102
}
330
1
100
AcDbSymbolTableRecord
100
AcDbBlockTableRecord
  2
*Paper_Space
340
1D
  0
BLOCK_RECORD
  5
22
330
1
100
AcDbSymbolTableRecord
100
AcDbBlockTableRecord
  2
LOGO
340
0
102
{BLKREFS
331
56
102
}
  0
BLOCK_RECORD
  5
23
330
1
100
AcDbSymbolTableRecord
100
AcDbBlockTableRecord
  2
LORO
340
0
102
{BLKREFS
331
9B
102
}
  0
BLOCK_RECORD
  5
AB8
330
1
100
AcDbSymbolTableRecord
100
AcDbBlockTableRecord
  2
*D2
340
0
  0
BLOCK_RECORD
  5
AC4
330
1
100
AcDbSymbolTableRecord
100
AcDbBlockTableRecord
  2
*D3
340
0
  0
BLOCK_RECORD
  5
AD0
330
1
100
AcDbSymbolTableRecord
100
AcDbBlockTableRecord
  2
*D4
340
0
  0
BLOCK_RECORD
  5
ADC
330
1
100
AcDbSymbolTableRecord
100
AcDbBlockTableRecord
  2
*D5
340
0
  0
BLOCK_RECORD
  5
F44
330
1
100
AcDbSymbolTableRecord
100
AcDbBlockTableRecord
  2
*D6
340
0
  0
BLOCK_RECORD
  5
F50
330
1
100
AcDbSymbolTableRecord
100
AcDbBlockTableRecord
  2
*D7
340
0
  0
BLOCK_RECORD
  5
F5C
330
1
100
AcDbSymbolTableRecord
100
AcDbBlockTableRecord
  2
*D8
340
0
  0
BLOCK_RECORD
  5
F6A
330
1
100
AcDbSymbolTableRecord
100
AcDbBlockTableRecord
  2
*D9
340
0
  0
ENDTAB
  0
ENDSEC
  0
SECTION
  2
BLOCKS
  0
BLOCK
  5
37
330
1E
100
AcDbEntity
  8
0
100
AcDbBlockBegin
  2
*Model_Space
 70
     0
 10
0.0
 20
0.0
 30
0.0
  3
*Model_Space
  1

  0
ENDBLK
  5
38
330
1E
100
AcDbEntity
  8
0
100
AcDbBlockEnd
  0
BLOCK
  5
35
330
1A
100
AcDbEntity
 67
     1
  8
0
100
AcDbBlockBegin
  2
*Paper_Space
 70
     0
 10
0.0
 20
0.0
 30
0.0
  3
*Paper_Space
  1

  0
ENDBLK
  5
36
330
1A
100
AcDbEntity
 67
     1
  8
0
100
AcDbBlockEnd
  0
BLOCK
  5
39
330
22
100
AcDbEntity
  8
0
100
AcDbBlockBegin
  2
LOGO
 70
     0
 10
0.0
 20
0.0
 30
0.0
  3
LOGO
  1

  0
ARC
  5
3A
330
22
100
AcDbEntity
  8
0
100
AcDbCircle
 10
11.59973089678112
 20
-9.271599258481501
 30
0.0
 40
4.5
100
AcDbArc
 50
270.0
 51
231.0575587310159
  0
LINE
  5
3B
330
22
100
AcDbEntity
  8
0
100
AcDbLine
 10
3.599730896781125
 20
-4.771599258481529
 30
0.0
 11
3.599730896781153
 21
-11.77159925848133
 31
0.0
  0
LINE
  5
3C
330
22
100
AcDbEntity
  8
0
100
AcDbLine
 10
2.599730896781125
 20
-4.771599258481529
 30
0.0
 11
2.599730896781153
 21
-11.77159925848133
 31
0.0
  0
CIRCLE
  5
3D
330
22
100
AcDbEntity
  8
0
100
AcDbCircle
 10
11.59973089678112
 20
-9.271599258481501
 30
0.0
 40
3.5
  0
ARC
  5
3E
330
22
100
AcDbEntity
  8
0
100
AcDbCircle
 10
31.59973089678115
 20
-9.271599258481472
 30
0.0
 40
4.5
100
AcDbArc
 50
270.0
 51
231.0575587310182
  0
LINE
  5
3F
330
22
100
AcDbEntity
  8
0
100
AcDbLine
 10
17.59973089678112
 20
-4.771599258481472
 30
0.0
 11
17.59973089678115
 21
-13.77159925848147
 31
0.0
  0
ARC
  5
40
330
22
100
AcDbEntity
  8
0
100
AcDbCircle
 10
22.59973089678116
 20
-7.271599258481472
 30
0.0
 40
2.5
100
AcDbArc
 50
293.1161887722295
 51
90.0
  0
CIRCLE
  5
41
330
22
100
AcDbEntity
  8
0
100
AcDbCircle
 10
31.59973089678115
 20
-9.271599258481472
 30
0.0
 40
3.5
  0
ARC
  5
42
330
22
100
AcDbEntity
  8
0
100
AcDbCircle
 10
4.599730896781153
 20
-11.77159925848133
 30
0.0
 40
1.0
100
AcDbArc
 50
180.0
 51
270.0
  0
ARC
  5
43
330
22
100
AcDbEntity
  8
0
100
AcDbCircle
 10
4.599730896781153
 20
-11.77159925848133
 30
0.0
 40
2.0
100
AcDbArc
 50
179.9999999999992
 51
270.0
  0
LINE
  5
44
330
22
100
AcDbEntity
  8
0
100
AcDbLine
 10
11.59973089678115
 20
-13.77159925848144
 30
0.0
 11
4.599730896781153
 21
-13.77159925848147
 31
0.0
  0
LINE
  5
45
330
22
100
AcDbEntity
  8
0
100
AcDbLine
 10
8.771303772034769
 20
-12.77159925848136
 30
0.0
 11
4.599730896781153
 21
-12.77159925848133
 31
0.0
  0
LINE
  5
46
330
22
100
AcDbEntity
  8
0
100
AcDbLine
 10
31.59973089678115
 20
-13.77159925848147
 30
0.0
 11
23.6715276665056
 21
-13.77159925848144
 31
0.0
  0
LINE
  5
47
330
22
100
AcDbEntity
  8
0
100
AcDbLine
 10
23.56565672307022
 20
-9.51278021337896
 30
0.0
 11
24.4388546544846
 21
-12.77159925848144
 31
0.0
  0
LINE
  5
48
330
22
100
AcDbEntity
  8
0
100
AcDbLine
 10
22.59973089678116
 20
-9.771599258481472
 30
0.0
 11
18.59973089678112
 21
-9.771599258481472
 31
0.0
  0
LINE
  5
49
330
22
100
AcDbEntity
  8
0
100
AcDbLine
 10
18.59973089678115
 20
-13.77159925848144
 30
0.0
 11
17.59973089678115
 21
-13.77159925848144
 31
0.0
  0
LINE
  5
4A
330
22
100
AcDbEntity
  8
0
100
AcDbLine
 10
18.59973089678115
 20
-9.771599258481472
 30
0.0
 11
18.59973089678115
 21
-13.77159925848144
 31
0.0
  0
LINE
  5
4B
330
22
100
AcDbEntity
  8
0
100
AcDbLine
 10
22.59973089678116
 20
-9.771599258481472
 30
0.0
 11
23.67152766650562
 21
-13.77159925848147
 31
0.0
  0
ARC
  5
4C
330
22
100
AcDbEntity
  8
0
100
AcDbCircle
 10
22.59973089678116
 20
-7.271599258481472
 30
0.0
 40
2.5
100
AcDbArc
 50
270.0
 51
270.0000000000007
  0
LINE
  5
4D
330
22
100
AcDbEntity
  8
0
100
AcDbLine
 10
28.77130377203494
 20
-12.77159925848147
 30
0.0
 11
24.43885465448463
 21
-12.77159925848144
 31
0.0
  0
LINE
  5
4E
330
22
100
AcDbEntity
  8
0
100
AcDbLine
 10
3.599730896781125
 20
-4.771599258481472
 30
0.0
 11
2.599730896781125
 21
-4.771599258481472
 31
0.0
  0
LINE
  5
4F
330
22
100
AcDbEntity
  8
0
100
AcDbLine
 10
22.59973089678116
 20
-8.771599258481472
 30
0.0
 11
18.59973089678115
 21
-8.771599258481472
 31
0.0
  0
LINE
  5
50
330
22
100
AcDbEntity
  8
0
100
AcDbLine
 10
22.59973089678116
 20
-5.771599258481472
 30
0.0
 11
18.59973089678115
 21
-5.771599258481472
 31
0.0
  0
LINE
  5
51
330
22
100
AcDbEntity
  8
0
100
AcDbLine
 10
22.59973089678116
 20
-4.771599258481472
 30
0.0
 11
17.59973089678115
 21
-4.771599258481472
 31
0.0
  0
LINE
  5
52
330
22
100
AcDbEntity
  8
0
100
AcDbLine
 10
18.59973089678115
 20
-5.771599258481472
 30
0.0
 11
18.59973089678115
 21
-8.771599258481472
 31
0.0
  0
ARC
  5
53
330
22
100
AcDbEntity
  8
0
100
AcDbCircle
 10
22.59973089678116
 20
-7.271599258481472
 30
0.0
 40
1.5
100
AcDbArc
 50
270.0
 51
90.0
  0
ENDBLK
  5
54
330
22
100
AcDbEntity
  8
0
100
AcDbBlockEnd
  0
BLOCK
  5
55
330
23
100
AcDbEntity
  8
0
100
AcDbBlockBegin
  2
LORO
 70
     0
 10
0.0
 20
0.0
 30
0.0
  3
LORO
  1

  0
INSERT
  5
56
330
23
100
AcDbEntity
  8
STEMPEL
100
AcDbBlockReference
  2
LOGO
 10
-1.748032802467321
 20
3.771489518552062
 30
0.0
  0
ENDBLK
  5
57
330
23
100
AcDbEntity
  8
0
100
AcDbBlockEnd
  0
BLOCK
  5
AC2
330
AB8
100
AcDbEntity
  8
0
100
AcDbBlockBegin
  2
*D2
 70
     1
 10
0.0
 20
0.0
 30
0.0
  3
*D2
  1

  0
LINE
  5
C45
330
AB8
100
AcDbEntity
  8
BEM
 62
     0
370
    -2
100
AcDbLine
 10
53.69845619016127
 20
483.8297962968285
 30
0.0
 11
53.69845619016127
 21
441.5418164181753
 31
0.0
  0
LINE
  5
C46
330
AB8
100
AcDbEntity
  8
BEM
 62
     0
370
    -2
100
AcDbLine
 10
383.6984561901612
 20
483.8297962968284
 30
0.0
 11
383.6984561901612
 21
441.5418164181753
 31
0.0
  0
LINE
  5
C47
330
AB8
100
AcDbEntity
  8
BEM
 62
     0
370
    -2
100
AcDbLine
 10
60.69845619016127
 20
443.5418164181753
 30
0.0
 11
376.6984561901613
 21
443.5418164181753
 31
0.0
  0
SOLID
  5
C48
330
AB8
100
AcDbEntity
  8
BEM
 62
     0
100
AcDbTrace
 10
60.69845619016127
 20
444.708483084842
 30
0.0
 11
60.69845619016127
 21
442.3751497515087
 31
0.0
 12
53.69845619016127
 22
443.5418164181753
 32
0.0
 13
53.69845619016127
 23
443.5418164181753
 33
0.0
  0
SOLID
  5
C49
330
AB8
100
AcDbEntity
  8
BEM
 62
     0
100
AcDbTrace
 10
376.6984561901613
 20
444.708483084842
 30
0.0
 11
376.6984561901613
 21
442.3751497515087
 31
0.0
 12
383.6984561901612
 22
443.5418164181753
 32
0.0
 13
383.6984561901612
 23
443.5418164181753
 33
0.0
  0
MTEXT
  5
C4A
330
AB8
100
AcDbEntity
  8
BEM
 62
     1
100
AcDbMText
 10
218.6984561901613
 20
450.0418164181753
 30
0.0
 40
7.0
 41
0.0
 71
     5
 72
     1
  1
\A1;%%C330
 73
     1
 44
1.0
  0
POINT
  5
C4B
330
AB8
100
AcDbEntity
  8
DEFPOINTS
 62
     0
100
AcDbPoint
 10
53.69845619016127
 20
485.8297962968285
 30
0.0
  0
POINT
  5
C4C
330
AB8
100
AcDbEntity
  8
DEFPOINTS
 62
     0
100
AcDbPoint
 10
383.6984561901612
 20
485.8297962968284
 30
0.0
  0
POINT
  5
C4D
330
AB8
100
AcDbEntity
  8
DEFPOINTS
 62
     0
100
AcDbPoint
 10
383.6984561901612
 20
443.5418164181753
 30
0.0
  0
ENDBLK
  5
AC3
330
AB8
100
AcDbEntity
  8
0
100
AcDbBlockEnd
  0
BLOCK
  5
ACE
330
AC4
100
AcDbEntity
  8
0
100
AcDbBlockBegin
  2
*D3
 70
     1
 10
0.0
 20
0.0
 30
0.0
  3
*D3
  1

  0
LINE
  5
C3C
330
AC4
100
AcDbEntity
  8
BEM
 62
     0
370
    -2
100
AcDbLine
 10
182.1984561901616
 20
173.8297962968279
 30
0.0
 11
182.1984561901616
 21
145.9839490704539
 31
0.0
  0
LINE
  5
C3D
330
AC4
100
AcDbEntity
  8
BEM
 62
     0
370
    -2
100
AcDbLine
 10
255.1984561901613
 20
173.8297962968329
 30
0.0
 11
255.1984561901613
 21
145.9839490704539
 31
0.0
  0
LINE
  5
C3E
330
AC4
100
AcDbEntity
  8
BEM
 62
     0
370
    -2
100
AcDbLine
 10
189.1984561901616
 20
147.9839490704539
 30
0.0
 11
248.1984561901613
 21
147.9839490704539
 31
0.0
  0
SOLID
  5
C3F
330
AC4
100
AcDbEntity
  8
BEM
 62
     0
100
AcDbTrace
 10
189.1984561901616
 20
149.1506157371205
 30
0.0
 11
189.1984561901616
 21
146.8172824037872
 31
0.0
 12
182.1984561901616
 22
147.9839490704539
 32
0.0
 13
182.1984561901616
 23
147.9839490704539
 33
0.0
  0
SOLID
  5
C40
330
AC4
100
AcDbEntity
  8
BEM
 62
     0
100
AcDbTrace
 10
248.1984561901613
 20
149.1506157371205
 30
0.0
 11
248.1984561901613
 21
146.8172824037872
 31
0.0
 12
255.1984561901613
 22
147.9839490704539
 32
0.0
 13
255.1984561901613
 23
147.9839490704539
 33
0.0
  0
MTEXT
  5
C41
330
AC4
100
AcDbEntity
  8
BEM
 62
     1
100
AcDbMText
 10
218.6984561901615
 20
154.4839490704539
 30
0.0
 40
7.0
 41
0.0
 71
     5
 72
     1
  1
\A1;%%C73
 73
     1
 44
1.0
  0
POINT
  5
C42
330
AC4
100
AcDbEntity
  8
DEFPOINTS
 62
     0
100
AcDbPoint
 10
182.1984561901616
 20
175.8297962968279
 30
0.0
  0
POINT
  5
C43
330
AC4
100
AcDbEntity
  8
DEFPOINTS
 62
     0
100
AcDbPoint
 10
255.1984561901613
 20
175.8297962968329
 30
0.0
  0
POINT
  5
C44
330
AC4
100
AcDbEntity
  8
DEFPOINTS
 62
     0
100
AcDbPoint
 10
255.1984561901613
 20
147.9839490704539
 30
0.0
  0
ENDBLK
  5
ACF
330
AC4
100
AcDbEntity
  8
0
100
AcDbBlockEnd
  0
BLOCK
  5
ADA
330
AD0
100
AcDbEntity
  8
0
100
AcDbBlockBegin
  2
*D4
 70
     1
 10
0.0
 20
0.0
 30
0.0
  3
*D4
  1

  0
LINE
  5
C33
330
AD0
100
AcDbEntity
  8
BEM
 62
     0
370
    -2
100
AcDbLine
 10
176.9330588618858
 20
567.8297962968283
 30
0.0
 11
36.92497917639351
 21
567.8297962968283
 31
0.0
  0
LINE
  5
C34
330
AD0
100
AcDbEntity
  8
BEM
 62
     0
370
    -2
100
AcDbLine
 10
51.69845619016121
 20
487.8297962968284
 30
0.0
 11
36.92497917639349
 21
487.8297962968284
 31
0.0
  0
LINE
  5
C35
330
AD0
100
AcDbEntity
  8
BEM
 62
     0
370
    -2
100
AcDbLine
 10
38.92497917639352
 20
560.8297962968284
 30
0.0
 11
38.92497917639349
 21
494.8297962968283
 31
0.0
  0
SOLID
  5
C36
330
AD0
100
AcDbEntity
  8
BEM
 62
     0
100
AcDbTrace
 10
37.75831250972685
 20
560.8297962968284
 30
0.0
 11
40.09164584306017
 21
560.8297962968284
 31
0.0
 12
38.92497917639352
 22
567.8297962968283
 32
0.0
 13
38.92497917639352
 23
567.8297962968283
 33
0.0
  0
SOLID
  5
C37
330
AD0
100
AcDbEntity
  8
BEM
 62
     0
100
AcDbTrace
 10
37.75831250972683
 20
494.8297962968283
 30
0.0
 11
40.09164584306016
 21
494.8297962968283
 31
0.0
 12
38.92497917639349
 22
487.8297962968284
 32
0.0
 13
38.92497917639349
 23
487.8297962968284
 33
0.0
  0
MTEXT
  5
C38
330
AD0
100
AcDbEntity
  8
BEM
 62
     1
100
AcDbMText
 10
32.42497917639342
 20
527.8297962968284
 30
0.0
 40
7.0
 41
0.0
 71
     5
 72
     1
  1
\A1;80
 11
0.0000000000000001
 21
1.0
 31
0.0
 73
     1
 44
1.0
  0
POINT
  5
C39
330
AD0
100
AcDbEntity
  8
DEFPOINTS
 62
     0
100
AcDbPoint
 10
178.9330588618858
 20
567.8297962968283
 30
0.0
  0
POINT
  5
C3A
330
AD0
100
AcDbEntity
  8
DEFPOINTS
 62
     0
100
AcDbPoint
 10
53.69845619016121
 20
487.8297962968284
 30
0.0
  0
POINT
  5
C3B
330
AD0
100
AcDbEntity
  8
DEFPOINTS
 62
     0
100
AcDbPoint
 10
38.92497917639349
 20
487.8297962968284
 30
0.0
  0
ENDBLK
  5
ADB
330
AD0
100
AcDbEntity
  8
0
100
AcDbBlockEnd
  0
BLOCK
  5
AE6
330
ADC
100
AcDbEntity
  8
0
100
AcDbBlockBegin
  2
*D5
 70
     1
 10
0.0
 20
0.0
 30
0.0
  3
*D5
  1

  0
LINE
  5
C2A
330
ADC
100
AcDbEntity
  8
BEM
 62
     0
370
    -2
100
AcDbLine
 10
176.9330588618858
 20
567.8297962968283
 30
0.0
 11
24.5359108250672
 21
567.8297962968283
 31
0.0
  0
LINE
  5
C2B
330
ADC
100
AcDbEntity
  8
BEM
 62
     0
370
    -2
100
AcDbLine
 10
180.8983654983689
 20
167.8297962968283
 30
0.0
 11
24.53591082506711
 21
167.8297962968284
 31
0.0
  0
LINE
  5
C2C
330
ADC
100
AcDbEntity
  8
BEM
 62
     0
370
    -2
100
AcDbLine
 10
26.5359108250672
 20
560.8297962968284
 30
0.0
 11
26.53591082506711
 21
174.8297962968284
 31
0.0
  0
SOLID
  5
C2D
330
ADC
100
AcDbEntity
  8
BEM
 62
     0
100
AcDbTrace
 10
25.36924415840053
 20
560.8297962968284
 30
0.0
 11
27.70257749173386
 21
560.8297962968284
 31
0.0
 12
26.5359108250672
 22
567.8297962968283
 32
0.0
 13
26.5359108250672
 23
567.8297962968283
 33
0.0
  0
SOLID
  5
C2E
330
ADC
100
AcDbEntity
  8
BEM
 62
     0
100
AcDbTrace
 10
25.36924415840044
 20
174.8297962968284
 30
0.0
 11
27.70257749173378
 21
174.8297962968284
 31
0.0
 12
26.53591082506711
 22
167.8297962968284
 32
0.0
 13
26.53591082506711
 23
167.8297962968284
 33
0.0
  0
MTEXT
  5
C2F
330
ADC
100
AcDbEntity
  8
BEM
 62
     1
100
AcDbMText
 10
20.03591082506709
 20
367.8297962968283
 30
0.0
 40
7.0
 41
0.0
 71
     5
 72
     1
  1
\A1;400
 11
0.0000000000000001
 21
1.0
 31
0.0
 73
     1
 44
1.0
  0
POINT
  5
C30
330
ADC
100
AcDbEntity
  8
DEFPOINTS
 62
     0
100
AcDbPoint
 10
178.9330588618858
 20
567.8297962968283
 30
0.0
  0
POINT
  5
C31
330
ADC
100
AcDbEntity
  8
DEFPOINTS
 62
     0
100
AcDbPoint
 10
182.8983654983689
 20
167.8297962968283
 30
0.0
  0
POINT
  5
C32
330
ADC
100
AcDbEntity
  8
DEFPOINTS
 62
     0
100
AcDbPoint
 10
26.53591082506711
 20
167.8297962968284
 30
0.0
  0
ENDBLK
  5
AE7
330
ADC
100
AcDbEntity
  8
0
100
AcDbBlockEnd
  0
BLOCK
  5
F4E
330
F44
100
AcDbEntity
  8
0
100
AcDbBlockBegin
  2
*D6
 70
     1
 10
0.0
 20
0.0
 30
0.0
  3
*D6
  1

  0
LINE
  5
FCB
330
F44
100
AcDbEntity
  8
BEM
 62
     0
370
    -2
100
AcDbLine
 10
108.6984561901613
 20
664.3297383295127
 30
0.0
 11
108.6984561901613
 21
694.5673705025678
 31
0.0
  0
LINE
  5
FCC
330
F44
100
AcDbEntity
  8
BEM
 62
     0
370
    -2
100
AcDbLine
 10
328.6984561901615
 20
664.3297383295118
 30
0.0
 11
328.6984561901615
 21
694.5673705025678
 31
0.0
  0
LINE
  5
FCD
330
F44
100
AcDbEntity
  8
BEM
 62
     0
370
    -2
100
AcDbLine
 10
115.6984561901613
 20
692.5673705025679
 30
0.0
 11
321.6984561901615
 21
692.5673705025679
 31
0.0
  0
SOLID
  5
FCE
330
F44
100
AcDbEntity
  8
BEM
 62
     0
100
AcDbTrace
 10
115.6984561901613
 20
693.7340371692345
 30
0.0
 11
115.6984561901613
 21
691.4007038359012
 31
0.0
 12
108.6984561901613
 22
692.5673705025679
 32
0.0
 13
108.6984561901613
 23
692.5673705025679
 33
0.0
  0
SOLID
  5
FCF
330
F44
100
AcDbEntity
  8
BEM
 62
     0
100
AcDbTrace
 10
321.6984561901615
 20
693.7340371692345
 30
0.0
 11
321.6984561901615
 21
691.4007038359012
 31
0.0
 12
328.6984561901615
 22
692.5673705025679
 32
0.0
 13
328.6984561901615
 23
692.5673705025679
 33
0.0
  0
MTEXT
  5
FD0
330
F44
100
AcDbEntity
  8
BEM
 62
     1
100
AcDbMText
 10
218.6984561901614
 20
699.0673705025678
 30
0.0
 40
7.0
 41
0.0
 71
     5
 72
     1
  1
\A1;%%c220
 73
     1
 44
1.0
  0
POINT
  5
FD1
330
F44
100
AcDbEntity
  8
DEFPOINTS
 62
     0
100
AcDbPoint
 10
108.6984561901613
 20
662.3297383295128
 30
0.0
  0
POINT
  5
FD2
330
F44
100
AcDbEntity
  8
DEFPOINTS
 62
     0
100
AcDbPoint
 10
328.6984561901615
 20
662.3297383295119
 30
0.0
  0
POINT
  5
FD3
330
F44
100
AcDbEntity
  8
DEFPOINTS
 62
     0
100
AcDbPoint
 10
328.6984561901615
 20
692.5673705025679
 30
0.0
  0
ENDBLK
  5
F4F
330
F44
100
AcDbEntity
  8
0
100
AcDbBlockEnd
  0
BLOCK
  5
F5A
330
F50
100
AcDbEntity
  8
0
100
AcDbBlockBegin
  2
*D7
 70
     1
 10
0.0
 20
0.0
 30
0.0
  3
*D7
  1

  0
LINE
  5
FC2
330
F50
100
AcDbEntity
  8
BEM
 62
     0
370
    -2
100
AcDbLine
 10
88.69845619016141
 20
595.3297962968283
 30
0.0
 11
88.69845619016142
 21
709.5805037099544
 31
0.0
  0
LINE
  5
FC3
330
F50
100
AcDbEntity
  8
BEM
 62
     0
370
    -2
100
AcDbLine
 10
348.6984561901613
 20
595.3297962968272
 30
0.0
 11
348.6984561901613
 21
709.5805037099544
 31
0.0
  0
LINE
  5
FC4
330
F50
100
AcDbEntity
  8
BEM
 62
     0
370
    -2
100
AcDbLine
 10
95.6984561901614
 20
707.5805037099544
 30
0.0
 11
341.6984561901613
 21
707.5805037099544
 31
0.0
  0
SOLID
  5
FC5
330
F50
100
AcDbEntity
  8
BEM
 62
     0
100
AcDbTrace
 10
95.6984561901614
 20
708.747170376621
 30
0.0
 11
95.6984561901614
 21
706.4138370432877
 31
0.0
 12
88.69845619016141
 22
707.5805037099544
 32
0.0
 13
88.69845619016141
 23
707.5805037099544
 33
0.0
  0
SOLID
  5
FC6
330
F50
100
AcDbEntity
  8
BEM
 62
     0
100
AcDbTrace
 10
341.6984561901613
 20
708.747170376621
 30
0.0
 11
341.6984561901613
 21
706.4138370432877
 31
0.0
 12
348.6984561901613
 22
707.5805037099544
 32
0.0
 13
348.6984561901613
 23
707.5805037099544
 33
0.0
  0
MTEXT
  5
FC7
330
F50
100
AcDbEntity
  8
BEM
 62
     1
100
AcDbMText
 10
218.6984561901614
 20
714.0805037099544
 30
0.0
 40
7.0
 41
0.0
 71
     5
 72
     1
  1
\A1;%%c260
 73
     1
 44
1.0
  0
POINT
  5
FC8
330
F50
100
AcDbEntity
  8
DEFPOINTS
 62
     0
100
AcDbPoint
 10
88.69845619016141
 20
593.3297962968283
 30
0.0
  0
POINT
  5
FC9
330
F50
100
AcDbEntity
  8
DEFPOINTS
 62
     0
100
AcDbPoint
 10
348.6984561901613
 20
593.3297962968272
 30
0.0
  0
POINT
  5
FCA
330
F50
100
AcDbEntity
  8
DEFPOINTS
 62
     0
100
AcDbPoint
 10
348.6984561901613
 20
707.5805037099544
 30
0.0
  0
ENDBLK
  5
F5B
330
F50
100
AcDbEntity
  8
0
100
AcDbBlockEnd
  0
BLOCK
  5
F68
330
F5C
100
AcDbEntity
  8
0
100
AcDbBlockBegin
  2
*D8
 70
     1
 10
0.0
 20
0.0
 30
0.0
  3
*D8
  1

  0
LINE
  5
FE6
330
F5C
100
AcDbEntity
  8
BEM
 62
     0
370
    -2
100
AcDbLine
 10
81.69845619016134
 20
577.3297962968284
 30
0.0
 11
68.34611144246221
 21
577.3297962968284
 31
0.0
  0
LINE
  5
FE7
330
F5C
100
AcDbEntity
  8
BEM
 62
     0
370
    -2
100
AcDbLine
 10
86.69845619016129
 20
592.3297962968283
 30
0.0
 11
68.34611144246221
 21
592.3297962968283
 31
0.0
  0
LINE
  5
FE8
330
F5C
100
AcDbEntity
  8
BEM
 62
     0
370
    -2
100
AcDbLine
 10
70.34611144246222
 20
570.3297962968283
 30
0.0
 11
70.34611144246222
 21
563.3297962968283
 31
0.0
  0
LINE
  5
FE9
330
F5C
100
AcDbEntity
  8
BEM
 62
     0
370
    -2
100
AcDbLine
 10
70.34611144246222
 20
599.3297962968283
 30
0.0
 11
70.34611144246222
 21
606.3297962968284
 31
0.0
  0
LINE
  5
FEA
330
F5C
100
AcDbEntity
  8
BEM
 62
     0
370
    -2
100
AcDbLine
 10
70.34611144246222
 20
577.3297962968284
 30
0.0
 11
70.34611144246222
 21
592.3297962968283
 31
0.0
  0
SOLID
  5
FEB
330
F5C
100
AcDbEntity
  8
BEM
 62
     0
100
AcDbTrace
 10
69.17944477579554
 20
570.3297962968283
 30
0.0
 11
71.51277810912889
 21
570.3297962968283
 31
0.0
 12
70.34611144246222
 22
577.3297962968284
 32
0.0
 13
70.34611144246222
 23
577.3297962968284
 33
0.0
  0
SOLID
  5
FEC
330
F5C
100
AcDbEntity
  8
BEM
 62
     0
100
AcDbTrace
 10
69.17944477579554
 20
599.3297962968283
 30
0.0
 11
71.51277810912889
 21
599.3297962968283
 31
0.0
 12
70.34611144246222
 22
592.3297962968283
 32
0.0
 13
70.34611144246222
 23
592.3297962968283
 33
0.0
  0
MTEXT
  5
FED
330
F5C
100
AcDbEntity
  8
BEM
 62
     1
100
AcDbMText
 10
63.84611144246212
 20
584.8297962968283
 30
0.0
 40
7.0
 41
0.0
 71
     5
 72
     1
  1
\A1;15
 11
0.0000000000000001
 21
1.0
 31
0.0
 73
     1
 44
1.0
  0
POINT
  5
FEE
330
F5C
100
AcDbEntity
  8
DEFPOINTS
 62
     0
100
AcDbPoint
 10
83.69845619016135
 20
577.3297962968284
 30
0.0
  0
POINT
  5
FEF
330
F5C
100
AcDbEntity
  8
DEFPOINTS
 62
     0
100
AcDbPoint
 10
88.6984561901613
 20
592.3297962968283
 30
0.0
  0
POINT
  5
FF0
330
F5C
100
AcDbEntity
  8
DEFPOINTS
 62
     0
100
AcDbPoint
 10
70.34611144246222
 20
592.3297962968283
 30
0.0
  0
ENDBLK
  5
F69
330
F5C
100
AcDbEntity
  8
0
100
AcDbBlockEnd
  0
BLOCK
  5
F74
330
F6A
100
AcDbEntity
  8
0
100
AcDbBlockBegin
  2
*D9
 70
     1
 10
0.0
 20
0.0
 30
0.0
  3
*D9
  1

  0
LINE
  5
FD4
330
F6A
100
AcDbEntity
  8
BEM
 62
     0
370
    -2
100
AcDbLine
 10
86.69845619016129
 20
592.3297962968283
 30
0.0
 11
68.34611144246224
 21
592.3297962968283
 31
0.0
  0
LINE
  5
FD5
330
F6A
100
AcDbEntity
  8
BEM
 62
     0
370
    -2
100
AcDbLine
 10
136.6984561901616
 20
682.3297962968277
 30
0.0
 11
68.34611144246228
 21
682.3297962968277
 31
0.0
  0
LINE
  5
FD6
330
F6A
100
AcDbEntity
  8
BEM
 62
     0
370
    -2
100
AcDbLine
 10
70.34611144246224
 20
599.3297962968283
 30
0.0
 11
70.34611144246227
 21
675.3297962968278
 31
0.0
  0
SOLID
  5
FD7
330
F6A
100
AcDbEntity
  8
BEM
 62
     0
100
AcDbTrace
 10
69.17944477579557
 20
599.3297962968283
 30
0.0
 11
71.51277810912891
 21
599.3297962968283
 31
0.0
 12
70.34611144246224
 22
592.3297962968283
 32
0.0
 13
70.34611144246224
 23
592.3297962968283
 33
0.0
  0
SOLID
  5
FD8
330
F6A
100
AcDbEntity
  8
BEM
 62
     0
100
AcDbTrace
 10
69.1794447757956
 20
675.3297962968278
 30
0.0
 11
71.51277810912894
 21
675.3297962968278
 31
0.0
 12
70.34611144246227
 22
682.3297962968277
 32
0.0
 13
70.34611144246227
 23
682.3297962968277
 33
0.0
  0
MTEXT
  5
FD9
330
F6A
100
AcDbEntity
  8
BEM
 62
     1
100
AcDbMText
 10
63.84611144246215
 20
637.3297962968281
 30
0.0
 40
7.0
 41
0.0
 71
     5
 72
     1
  1
\A1;90
 11
0.0000000000000001
 21
1.0
 31
0.0
 73
     1
 44
1.0
  0
POINT
  5
FDA
330
F6A
100
AcDbEntity
  8
DEFPOINTS
 62
     0
100
AcDbPoint
 10
88.6984561901613
 20
592.3297962968283
 30
0.0
  0
POINT
  5
FDB
330
F6A
100
AcDbEntity
  8
DEFPOINTS
 62
     0
100
AcDbPoint
 10
138.6984561901616
 20
682.3297962968277
 30
0.0
  0
POINT
  5
FDC
330
F6A
100
AcDbEntity
  8
DEFPOINTS
 62
     0
100
AcDbPoint
 10
70.34611144246227
 20
682.3297962968277
 30
0.0
  0
ENDBLK
  5
F75
330
F6A
100
AcDbEntity
  8
0
100
AcDbBlockEnd
  0
ENDSEC
  0
SECTION
  2
ENTITIES
  0
LINE
  5
58
330
1E
100
AcDbEntity
  8
STEMPEL
100
AcDbLine
 10
484.0
 20
830.0000000000002
 30
0.0
 11
484.0
 21
470.0000000000001
 31
0.0
  0
LINE
  5
59
330
1E
100
AcDbEntity
  8
STEMPEL
100
AcDbLine
 10
484.0
 20
470.0000000000001
 30
0.0
 11
584.0
 21
470.0000000000001
 31
0.0
  0
LINE
  5
5A
330
1E
100
AcDbEntity
  8
STEMPEL
100
AcDbLine
 10
484.0000000000001
 20
566.0000000000002
 30
0.0
 11
584.0000000000001
 21
566.0
 31
0.0
  0
LINE
  5
5B
330
1E
100
AcDbEntity
  8
STEMPEL
100
AcDbLine
 10
484.0
 20
650.0
 30
0.0
 11
584.0
 21
650.0
 31
0.0
  0
LINE
  5
5C
330
1E
100
AcDbEntity
  8
STEMPEL
100
AcDbLine
 10
484.0000000000003
 20
752.0000000000002
 30
0.0
 11
554.0
 21
752.0000000000002
 31
0.0
  0
LINE
  5
5D
330
1E
100
AcDbEntity
  8
STEMPEL
100
AcDbLine
 10
564.0
 20
566.0
 30
0.0
 11
564.0
 21
470.0000000000001
 31
0.0
  0
LINE
  5
5E
330
1E
100
AcDbEntity
  8
STEMPEL
100
AcDbLine
 10
554.0
 20
830.0000000000002
 30
0.0
 11
554.0
 21
566.0
 31
0.0
  0
LINE
  5
5F
330
1E
100
AcDbEntity
  8
STEMPEL
100
AcDbLine
 10
514.0
 20
830.0000000000002
 30
0.0
 11
514.0
 21
566.0000000000002
 31
0.0
  0
LINE
  5
60
330
1E
100
AcDbEntity
  8
VOLL
100
AcDbLine
 10
484.0
 20
484.0000000000001
 30
0.0
 11
584.0
 21
484.0
 31
0.0
  0
LINE
  5
61
330
1E
100
AcDbEntity
  8
VOLL
100
AcDbLine
 10
484.0000000000001
 20
524.0000000000001
 30
0.0
 11
584.0000000000001
 21
524.0
 31
0.0
  0
LINE
  5
62
330
1E
100
AcDbEntity
  8
VOLL
100
AcDbLine
 10
484.0000000000001
 20
544.0000000000002
 30
0.0
 11
584.0000000000001
 21
544.0
 31
0.0
  0
LINE
  5
63
330
1E
100
AcDbEntity
  8
VOLL
100
AcDbLine
 10
514.0
 20
584.0000000000002
 30
0.0
 11
554.0
 21
584.0000000000002
 31
0.0
  0
LINE
  5
64
330
1E
100
AcDbEntity
  8
VOLL
100
AcDbLine
 10
484.0000000000002
 20
610.0000000000002
 30
0.0
 11
554.0
 21
610.0
 31
0.0
  0
LINE
  5
65
330
1E
100
AcDbEntity
  8
HILF
100
AcDbLine
 10
494.0
 20
470.0000000000001
 30
0.0
 11
494.0
 21
566.0000000000002
 31
0.0
  0
LINE
  5
66
330
1E
100
AcDbEntity
  8
HILF
100
AcDbLine
 10
504.0
 20
470.0000000000001
 30
0.0
 11
504.0
 21
566.0000000000002
 31
0.0
  0
LINE
  5
67
330
1E
100
AcDbEntity
  8
HILF
100
AcDbLine
 10
514.0
 20
470.0000000000001
 30
0.0
 11
514.0
 21
566.0000000000002
 31
0.0
  0
LINE
  5
68
330
1E
100
AcDbEntity
  8
HILF
100
AcDbLine
 10
524.0
 20
470.0000000000001
 30
0.0
 11
524.0
 21
566.0000000000002
 31
0.0
  0
LINE
  5
69
330
1E
100
AcDbEntity
  8
HILF
100
AcDbLine
 10
534.0
 20
470.0000000000001
 30
0.0
 11
534.0
 21
566.0000000000002
 31
0.0
  0
LINE
  5
6A
330
1E
100
AcDbEntity
  8
HILF
100
AcDbLine
 10
544.0
 20
470.0000000000001
 30
0.0
 11
544.0
 21
566.0000000000002
 31
0.0
  0
LINE
  5
6B
330
1E
100
AcDbEntity
  8
HILF
100
AcDbLine
 10
554.0
 20
470.0000000000001
 30
0.0
 11
554.0
 21
566.0000000000002
 31
0.0
  0
LINE
  5
6C
330
1E
100
AcDbEntity
  8
HILF
100
AcDbLine
 10
524.0
 20
566.0000000000002
 30
0.0
 11
524.0
 21
650.0
 31
0.0
  0
LINE
  5
6D
330
1E
100
AcDbEntity
  8
HILF
100
AcDbLine
 10
534.0
 20
566.0000000000002
 30
0.0
 11
534.0
 21
650.0
 31
0.0
  0
LINE
  5
6E
330
1E
100
AcDbEntity
  8
HILF
100
AcDbLine
 10
544.0
 20
566.0000000000002
 30
0.0
 11
544.0
 21
650.0
 31
0.0
  0
LINE
  5
6F
330
1E
100
AcDbEntity
  8
HILF
100
AcDbLine
 10
509.9624175243587
 20
654.7736801096948
 30
0.0
 11
509.9624175243587
 21
746.6297842514811
 31
0.0
  0
LINE
  5
70
330
1E
100
AcDbEntity
  8
HILF
100
AcDbLine
 10
524.0
 20
654.7736801096948
 30
0.0
 11
524.0
 21
746.6297842514811
 31
0.0
  0
LINE
  5
71
330
1E
100
AcDbEntity
  8
HILF
100
AcDbLine
 10
534.0
 20
654.7736801096948
 30
0.0
 11
534.0
 21
746.6297842514811
 31
0.0
  0
LINE
  5
72
330
1E
100
AcDbEntity
  8
HILF
100
AcDbLine
 10
544.0
 20
654.7736801096948
 30
0.0
 11
544.0
 21
746.6297842514811
 31
0.0
  0
LINE
  5
73
330
1E
100
AcDbEntity
  8
VOLL
100
AcDbLine
 10
534.0
 20
752.0000000000002
 30
0.0
 11
534.0
 21
830.0000000000002
 31
0.0
  0
LINE
  5
74
330
1E
100
AcDbEntity
  8
HILF
100
AcDbLine
 10
510.2201636304418
 20
756.7238616296995
 30
0.0
 11
510.2201636304418
 21
824.858883932673
 31
0.0
  0
LINE
  5
75
330
1E
100
AcDbEntity
  8
HILF
100
AcDbLine
 10
579.1060174197169
 20
654.7736801096948
 30
0.0
 11
579.1060174197169
 21
824.858883932673
 31
0.0
  0
TEXT
  5
76
330
1E
100
AcDbEntity
  8
TEXT
100
AcDbText
 10
575.3261810501587
 20
492.3998239263297
 30
0.0
 40
4.0
  1
Änderung
 50
90.0
 41
0.8
  7
GREEKS
 72
     1
 11
575.3261810501587
 21
503.1426810691868
 31
0.0
100
AcDbText
  0
TEXT
  5
78
330
1E
100
AcDbEntity
  8
TEXT
100
AcDbText
 10
491.5379104912911
 20
573.5163572150376
 30
0.0
 40
5.0
  1
Maßstab
 50
90.0
 41
0.8
  7
GREEKS
100
AcDbText
  0
TEXT
  5
79
330
1E
100
AcDbEntity
  8
TEXT
100
AcDbText
 10
491.4510671988221
 20
654.8779403809009
 30
0.0
 40
5.0
  1
Benennung
 50
90.0
 41
0.8
  7
GREEKS
100
AcDbText
  0
TEXT
  5
7A
330
1E
100
AcDbEntity
  8
TEXT
100
AcDbText
 10
491.6867965462863
 20
756.1787549576343
 30
0.0
 40
5.0
  1
Zeichnungs Nr.
 50
90.0
 41
0.8
  7
GREEKS
100
AcDbText
  0
TEXT
  5
7B
330
1E
100
AcDbEntity
  8
TEXT
100
AcDbText
 10
563.1543942980694
 20
654.7422383911359
 30
0.0
 40
5.0
  1
Bauvorhaben
 50
90.0
 41
0.8
  7
GREEKS
100
AcDbText
  0
TEXT
  5
7C
330
1E
100
AcDbEntity
  8
TEXT
100
AcDbText
 10
520.8188176290003
 20
756.7238616296995
 30
0.0
 40
5.0
  1
Ersatz für:
 50
90.0
 41
0.8
  7
GREEKS
100
AcDbText
  0
TEXT
  5
7D
330
1E
100
AcDbEntity
  8
TEXT
100
AcDbText
 10
580.3453415397281
 20
478.2664110704577
 30
0.0
 40
4.0
  1
Index
 50
180.0
 41
0.8
  7
GREEKS
100
AcDbText
  0
TEXT
  5
7E
330
1E
100
AcDbEntity
  8
TEXT
100
AcDbText
 10
575.3284373066019
 20
529.8990113186978
 30
0.0
 40
4.0
  1
Tag
 50
90.0
 41
0.8
  7
GREEKS
 72
     1
 11
575.3284373066019
 21
533.6323446520311
 31
0.0
100
AcDbText
  0
TEXT
  5
7F
330
1E
100
AcDbEntity
  8
TEXT
100
AcDbText
 10
575.4067578303359
 20
548.9795678138292
 30
0.0
 40
4.0
  1
Name
 50
90.0
 41
0.8
  7
GREEKS
 72
     1
 11
575.4067578303359
 21
555.3033773376387
 31
0.0
100
AcDbText
  0
TEXT
  5
80
330
1E
100
AcDbEntity
  8
TEXT
100
AcDbText
 10
520.6811949877008
 20
592.3311673153651
 30
0.0
 40
4.0
  1
Tag
 50
90.0
 41
0.8
  7
GREEKS
100
AcDbText
  0
TEXT
  5
81
330
1E
100
AcDbEntity
  8
TEXT
100
AcDbText
 10
520.6903890808478
 20
622.4626584226296
 30
0.0
 40
4.0
  1
Name
 50
90.0
 41
0.8
  7
GREEKS
100
AcDbText
  0
TEXT
  5
82
330
1E
100
AcDbEntity
  8
TEXT
100
AcDbText
 10
530.3700963038204
 20
567.5836127167615
 30
0.0
 40
4.0
  1
Gez.
 50
90.0
 41
0.8
  7
GREEKS
100
AcDbText
  0
TEXT
  5
83
330
1E
100
AcDbEntity
  8
TEXT
100
AcDbText
 10
540.3107370857163
 20
567.5515086571672
 30
0.0
 40
4.0
  1
Gepr.
 50
90.0
 41
0.8
  7
GREEKS
100
AcDbText
  0
TEXT
  5
84
330
1E
100
AcDbEntity
  8
TEXT
100
AcDbText
 10
550.470536103502
 20
567.6006777387303
 30
0.0
 40
4.0
  1
Norm.
 50
90.0
 41
0.8
  7
GREEKS
100
AcDbText
  0
TEXT
  5
85
330
1E
100
AcDbEntity
  8
TEXT
100
AcDbText
 10
541.925838221214
 20
757.2400861497007
 30
0.0
 40
5.0
  1
ersetzt durch:
 50
90.0
 41
0.8
  7
GREEKS
100
AcDbText
  0
TEXT
  5
86
330
1E
100
AcDbEntity
  8
TEXT
100
AcDbText
 10
521.0331740347627
 20
568.8693027807324
 30
0.0
 40
4.0
  1
2012
 50
90.0
 41
0.8
  7
GREEKS
100
AcDbText
  0
LINE
  5
87
330
1E
100
AcDbEntity
  8
HILF
100
AcDbLine
 10
594.0
 20
-0.0000000000000568
 30
0.0
 11
594.0
 21
840.0
 31
0.0
  0
LINE
  5
88
330
1E
100
AcDbEntity
  8
HILF
100
AcDbLine
 10
594.0
 20
840.0
 30
0.0
 11
0.0
 21
840.0
 31
0.0
  0
LINE
  5
89
330
1E
100
AcDbEntity
  8
HILF
100
AcDbLine
 10
0.0
 20
840.0
 30
0.0
 11
0.0
 21
0.0
 31
0.0
  0
LINE
  5
8B
330
1E
100
AcDbEntity
  8
STEMPEL
100
AcDbLine
 10
10.0
 20
830.0
 30
0.0
 11
10.0
 21
39.99999999999995
 31
0.0
  0
LINE
  5
8D
330
1E
100
AcDbEntity
  8
STEMPEL
100
AcDbLine
 10
584.0
 20
39.99999999999995
 30
0.0
 11
584.0
 21
830.0
 31
0.0
  0
LINE
  5
8E
330
1E
100
AcDbEntity
  8
STEMPEL
100
AcDbLine
 10
584.0
 20
830.0
 30
0.0
 11
10.0
 21
830.0
 31
0.0
  0
TEXT
  5
8F
330
1E
100
AcDbEntity
  8
TEXT
 62
     1
100
AcDbText
 10
506.6265692434746
 20
655.0390572473189
 30
0.0
 40
7.0
  1
Hauptentwässerung
 50
90.0
 41
0.8
  7
GREEKS
100
AcDbText
  0
TEXT
  5
90
330
1E
100
AcDbEntity
  8
TEXT
 62
     1
100
AcDbText
 10
506.6265692434746
 20
767.1961422184136
 30
0.0
 40
7.0
  1
19515070W
 50
90.0
 41
0.8
  7
GREEKS
 72
     1
 11
506.6265692434746
 21
790.1294755517469
 31
0.0
100
AcDbText
  0
TEXT
  5
91
330
1E
100
AcDbEntity
  8
TEXT
100
AcDbText
 10
491.16010388621
 20
618.5090226415829
 30
0.0
 40
5.0
  1
Zul.Abw.
 50
90.0
 41
0.8
  7
GREEKS
100
AcDbText
  0
TEXT
  5
93
330
1E
100
AcDbEntity
  8
TEXT
100
AcDbText
 10
530.8491412387978
 20
590.4612856559488
 30
0.0
 40
4.0
  1
10.04.
 50
90.0
 41
0.8
  7
GREEKS
 72
     1
 11
530.8491412387978
 21
597.1660475607107
 31
0.0
100
AcDbText
  0
TEXT
  5
94
330
1E
100
AcDbEntity
  8
TEXT
100
AcDbText
 10
531.0570234483452
 20
624.0231753226609
 30
0.0
 40
4.0
  1
Koeh
 50
90.0
 41
0.8
  7
GREEKS
 72
     1
 11
531.0570234483452
 21
629.2803181798038
 31
0.0
100
AcDbText
  0
TEXT
  5
95
330
1E
100
AcDbEntity
  8
TEXT
100
AcDbText
 10
521.8997861689246
 20
654.3410940884991
 30
0.0
 40
5.0
  1
Dachdurchführung DN70
 50
90.0
 41
0.8
  7
GREEKS
100
AcDbText
  0
TEXT
  5
96
330
1E
100
AcDbEntity
  8
TEXT
100
AcDbText
 10
531.6544091479096
 20
654.3410940884991
 30
0.0
 40
5.0
  1
Freispiegelströmung
 50
90.0
 41
0.8
  7
GREEKS
100
AcDbText
  0
TEXT
  5
97
330
1E
100
AcDbEntity
  8
TEXT
100
AcDbText
 10
541.4090266215394
 20
654.3410940884991
 30
0.0
 40
5.0
  1
EDV-Art.Nr. 19515.070X
 50
90.0
 41
0.8
  7
GREEKS
100
AcDbText
  0
TEXT
  5
98
330
1E
100
AcDbEntity
  8
TEXT
100
AcDbText
 10
550.6887237520849
 20
654.1676050109347
 30
0.0
 40
4.0
  1
19515070W.DWG
 50
90.0
 41
0.8
  7
GREEKS
100
AcDbText
  0
TEXT
  5
99
330
1E
100
AcDbEntity
  8
TEXT
 62
     1
100
AcDbText
 10
506.5292291158502
 20
582.703491203422
 30
0.0
 40
7.0
  1
1:2
 50
90.0
 41
0.8
  7
GREEKS
100
AcDbText
  0
TEXT
  5
9A
330
1E
100
AcDbEntity
  8
TEXT
100
AcDbText
 10
479.8856414948956
 20
470.0441139350127
 30
0.0
 40
5.0
  1
Erstellt mit AUTOCAD 2004
 50
90.0
 41
0.8
  7
GREEKS
100
AcDbText
  0
INSERT
  5
9B
330
1E
100
AcDbEntity
  8
HILF
100
AcDbBlockReference
  2
LORO
 10
557.0194069970104
 20
573.0624985962354
 30
0.0
 41
2.0
 42
2.0
 43
2.0
 50
90.0
  0
LINE
  5
9C
330
1E
100
AcDbEntity
  8
BEM
100
AcDbLine
 10
594.0
 20
455.9999999999999
 30
0.0
 11
584.0
 21
455.9999999999999
 31
0.0
  0
LINE
  5
13E
330
1E
100
AcDbEntity
  8
HILF
100
AcDbLine
 10
594.0
 20
-0.0000000000000568
 30
0.0
 11
0.0
 21
0.0
 31
0.0
  0
LINE
  5
13F
330
1E
100
AcDbEntity
  8
STEMPEL
100
AcDbLine
 10
584.0
 20
39.99999999999995
 30
0.0
 11
10.0
 21
39.99999999999995
 31
0.0
  0
LINE
  5
14A
330
1E
100
AcDbEntity
  8
HILF
100
AcDbLine
 10
297.0
 20
-0.0000000000000568
 30
0.0
 11
297.0
 21
39.99999999999995
 31
0.0
  0
TEXT
  5
15B
330
1E
100
AcDbEntity
  8
BEM
100
AcDbText
 10
583.8320989200114
 20
837.3022923857165
 30
0.0
 40
4.0
  1
Diese Zeichnung ist urheberrechtlich geschützt und bleibt unser Eigentum. Sie darf weder ganz noch teilweise verfielfältigt und nicht an Dritte weitergegeben werden.
 50
180.0
 41
0.8
  7
GREEKS
100
AcDbText
  0
LINE
  5
19C
330
1E
100
AcDbEntity
  8
BEM
100
AcDbLine
 10
0.0
 20
455.9999999999999
 30
0.0
 11
10.0
 21
455.9999999999999
 31
0.0
  0
TEXT
  5
9CD
330
1E
100
AcDbEntity
  8
TEXT
 62
     1
100
AcDbText
 10
206.561120711157
 20
301.483488299823
 30
0.0
 40
7.0
  1
DN70
 50
90.0
 41
0.8
  7
GREEKS
100
AcDbText
  0
HATCH
  5
A68
330
1E
100
AcDbEntity
  8
SCHRAFF
100
AcDbHatch
 10
0.0
 20
0.0
 30
0.0
210
0.0
220
0.0
230
1.0
  2
_USER
 70
     0
 71
     0
 91
        2
 92
        7
 72
     1
 73
     1
 93
       20
 10
255.1984561901613
 20
507.5231966322596
 42
-0.1420008527982431
 10
256.4384561901615
 20
511.8013270650542
 42
0.1420008527982299
 10
258.2984561901613
 20
518.2185227142456
 42
0.0
 10
258.2984561901613
 20
534.8297962968283
 42
-0.0926930603363587
 10
259.1092951986031
 20
539.166001585441
 42
0.092004438419132
 10
260.7984561901613
 20
548.1315162486435
 42
0.0
 10
260.7984561901613
 20
557.2808738897099
 42
0.109333224602072
 10
258.4638535184368
 20
567.8297962968283
 42
0.0
 10
256.6857785663922
 20
567.8297962968283
 42
-0.1174534402570124
 10
259.1984561901613
 20
557.2808738897099
 42
0.0
 10
259.1984561901613
 20
548.2658552627506
 42
-0.0934049271926765
 10
257.6174070663953
 20
539.7441622905891
 42
0.0926930603363542
 10
256.6984561901613
 20
534.8297962968283
 42
0.0
 10
256.6984561901613
 20
518.2185227142456
 42
-0.142000852798243
 10
255.086456190161
 20
512.6569531516127
 42
0.1420008527982146
 10
253.5984561901613
 20
507.5231966322601
 42
0.0
 10
253.5984561901613
 20
175.8996538054868
 42
0.0
 10
252.8924351418842
 20
167.8297962968283
 42
0.0
 10
254.4985468819537
 20
167.8297962968283
 42
0.0
 10
255.1984561901614
 20
175.8297962968328
 42
0.0
 97
        0
 92
        7
 72
     1
 73
     1
 93
       20
 10
183.7984561901613
 20
507.5231966322596
 42
0.1420008527982346
 10
182.3104561901614
 20
512.6569531516129
 42
-0.1420008527982351
 10
180.6984561901614
 20
518.2185227142456
 42
0.0
 10
180.6984561901614
 20
534.8297962968283
 42
0.0926930603363564
 10
179.7795053139274
 20
539.7441622905891
 42
-0.0934049271926655
 10
178.1984561901614
 20
548.2658552627497
 42
0.0
 10
178.1984561901614
 20
557.2808738897099
 42
-0.1174534402570127
 10
180.7111338139305
 20
567.8297962968283
 42
0.0
 10
178.9330588618861
 20
567.8297962968283
 42
0.1093332246020758
 10
176.5984561901614
 20
557.2808738897097
 42
0.0
 10
176.5984561901614
 20
548.1315162486342
 42
0.0920044384190406
 10
178.2876171817196
 20
539.1660015854409
 42
-0.0926930603363561
 10
179.0984561901614
 20
534.8297962968283
 42
0.0
 10
179.0984561901614
 20
518.2185227142456
 42
0.142000852798235
 10
180.9584561901614
 20
511.801327065054
 42
-0.1420008527982236
 10
182.1984561901613
 20
507.52319663226
 42
0.0
 10
182.1984561901617
 20
175.8297962968278
 42
0.0
 10
182.8983654983691
 20
167.8297962968283
 42
0.0
 10
184.5044772384385
 20
167.8297962968283
 42
0.0
 10
183.7984561901618
 20
175.8996538054814
 42
0.0
 97
        0
 75
     0
 76
     0
 52
45.0
 41
2.0
 77
     0
 78
     1
 53
45.0
 43
9.248702310500902
 44
22.74162039255816
 45
-1.414213562373094
 46
1.414213562373095
 79
     0
 47
0.7208491013423246
 98
        2
 10
254.4244947739981
 20
410.9941025282551
 10
183.0175516887011
 20
419.6442909986276
  0
HATCH
  5
A69
330
1E
100
AcDbEntity
  8
SCHRAFF
100
AcDbHatch
 10
0.0
 20
0.0
 30
0.0
210
0.0
220
0.0
230
1.0
  2
_USER
 70
     0
 71
     0
 91
        2
 92
        7
 72
     0
 73
     1
 93
        6
 10
383.6984561901613
 20
485.8297962968285
 10
383.6984561901614
 20
487.8297962968284
 10
363.9075545091145
 20
487.8297962968284
 10
255.1984561901613
 20
474.8440151092103
 10
255.1984561901613
 20
472.8297962968283
 10
364.0265857980976
 20
485.8297962968284
 97
        0
 92
        7
 72
     0
 73
     1
 93
        6
 10
73.37032658222511
 20
485.8297962968284
 10
182.1984561901613
 20
472.8297962968285
 10
182.1984561901613
 20
474.8440151092103
 10
73.48935787120797
 20
487.8297962968284
 10
53.69845619016127
 20
487.8297962968284
 10
53.69845619016127
 20
485.8297962968285
 97
        0
 75
     0
 76
     0
 52
135.0
 41
2.0
 77
     0
 78
     1
 53
135.0
 43
9.248702310500902
 44
22.74162039255816
 45
-1.414213562373095
 46
-1.414213562373094
 79
     0
 47
0.5551190115819712
 98
        2
 10
371.7854817162606
 20
486.4971851797963
 10
66.84202042999368
 20
486.4971851797963
  0
HATCH
  5
A6A
330
1E
100
AcDbEntity
  8
SCHRAFF
100
AcDbHatch
 10
0.0
 20
0.0
 30
0.0
210
0.0
220
0.0
230
1.0
  2
_USER
 70
     0
 71
     1
 91
        2
 92
        7
 72
     1
 73
     1
 93
        3
 10
258.1772785321613
 20
473.1856297618112
 42
0.0
 10
255.1984561901614
 20
472.8297962968285
 42
0.0
 10
255.1984561901614
 20
469.8297962968283
 42
0.449480521305088
 97
        3
330
AA4
330
A7C
330
AA9
 92
        7
 72
     1
 73
     1
 93
        3
 10
182.1984561901613
 20
472.8297962968285
 42
0.0
 10
179.2196338481614
 20
473.1856297618113
 42
0.4494805213050944
 10
182.1984561901613
 20
469.8297962968283
 42
0.0
 97
        3
330
AA3
330
AA8
330
A85
 75
     0
 76
     0
 52
0.0
 41
0.1
 77
     0
 78
     1
 53
0.0
 43
9.248702310500902
 44
22.74162039255816
 45
0.0
 46
0.1
 79
     0
 47
0.346996681991019
 98
        2
 10
256.2028831656485
 20
471.0429586827581
 10
181.2065621500796
 20
471.3899554615059
  0
LINE
  5
A6B
330
1E
100
AcDbEntity
  8
MITTEL
100
AcDbLine
 10
218.6984561901613
 20
688.8297962968274
 30
0.0
 11
218.6984561901613
 21
456.1981495128009
 31
0.0
  0
LINE
  5
A6C
330
1E
100
AcDbEntity
  8
STEMPEL
100
AcDbLine
 10
182.1984561901613
 20
487.8297962968284
 30
0.0
 11
53.69845619016127
 21
487.8297962968284
 31
0.0
  0
LINE
  5
A6D
330
1E
100
AcDbEntity
  8
STEMPEL
100
AcDbLine
 10
53.69845619016127
 20
487.8297962968285
 30
0.0
 11
53.69845619016127
 21
485.8297962968285
 31
0.0
  0
LINE
  5
A6E
330
1E
100
AcDbEntity
  8
STEMPEL
100
AcDbLine
 10
383.6984561901612
 20
487.8297962968284
 30
0.0
 11
383.6984561901612
 21
485.8297962968285
 31
0.0
  0
LINE
  5
A6F
330
1E
100
AcDbEntity
  8
STEMPEL
100
AcDbLine
 10
73.37032658222551
 20
485.8297962968284
 30
0.0
 11
53.69845619016127
 21
485.8297962968285
 31
0.0
  0
LINE
  5
A70
330
1E
100
AcDbEntity
  8
STEMPEL
100
AcDbLine
 10
255.1984561901613
 20
487.8297962968284
 30
0.0
 11
383.6984561901613
 21
487.8297962968284
 31
0.0
  0
LINE
  5
A71
330
1E
100
AcDbEntity
  8
STEMPEL
100
AcDbLine
 10
364.026585798097
 20
485.8297962968284
 30
0.0
 11
383.6984561901612
 21
485.8297962968284
 31
0.0
  0
LINE
  5
A72
330
1E
100
AcDbEntity
  8
STEMPEL
100
AcDbLine
 10
383.6984561901613
 20
487.8297962968284
 30
0.0
 11
383.6984561901612
 21
485.8297962968284
 31
0.0
  0
DIMENSION
  5
A74
330
1E
100
AcDbEntity
  8
BEM
100
AcDbDimension
  2
*D2
 10
383.6984561901612
 20
443.5418164181753
 30
0.0
 11
218.6984561901613
 21
450.0418164181753
 31
0.0
 70
    32
  1
%%C<>
 71
     5
 42
330.0
  3
Standard
100
AcDbAlignedDimension
 13
53.69845619016127
 23
485.8297962968285
 33
0.0
 14
383.6984561901612
 24
485.8297962968284
 34
0.0
100
AcDbRotatedDimension
1001
ACAD
1000
DSTYLE
1002
{
1070
    40
1040
2.0
1070
    41
1040
3.5
1070
    42
1040
1.0
1070
    43
1040
7.0
1070
    44
1040
1.0
1070
    73
1070
     0
1070
    74
1070
     0
1070
    77
1070
     1
1070
    78
1070
     8
1070
    79
1070
     2
1070
   140
1040
3.5
1070
   141
1040
1.5
1070
   146
1040
0.5142857142857144
1070
   147
1040
1.5
1070
   172
1070
     1
1070
   178
1070
     1
1070
   179
1070
     2
1070
   271
1070
     2
1070
   272
1070
     2
1070
   284
1070
     8
1070
   285
1070
     8
1070
   286
1070
     8
1002
}
  0
LINE
  5
A75
330
1E
100
AcDbEntity
  8
MITTEL
100
AcDbLine
 10
218.6984561901613
 20
440.0540588797729
 30
0.0
 11
218.6984561901613
 21
162.8297962968286
 31
0.0
  0
LINE
  5
A76
330
1E
100
AcDbEntity
  8
HILF
100
AcDbLine
 10
251.9984561901614
 20
175.8297962968283
 30
0.0
 11
185.3984561901618
 21
175.8297962968283
 31
0.0
  0
LINE
  5
A77
330
1E
100
AcDbEntity
  8
STEMPEL
100
AcDbLine
 10
254.4985468819537
 20
167.8297962968283
 30
0.0
 11
182.8983654983691
 21
167.8297962968283
 31
0.0
  0
LINE
  5
A78
330
1E
100
AcDbEntity
  8
HILF
100
AcDbLine
 10
252.1542178543299
 20
509.3845938443967
 30
0.0
 11
185.2426945259926
 21
509.3845938443971
 31
0.0
  0
LINE
  5
A79
330
1E
100
AcDbEntity
  8
HILF
100
AcDbLine
 10
254.6333115103114
 20
515.3953707891507
 30
0.0
 11
182.7636008700114
 21
515.3953707891507
 31
0.0
  0
LINE
  5
A7A
330
1E
100
AcDbEntity
  8
HILF
100
AcDbLine
 10
255.2745006283081
 20
537.1364734037204
 30
0.0
 11
182.1224117520146
 21
537.1364734037204
 31
0.0
  0
LINE
  5
A7B
330
1E
100
AcDbEntity
  8
STEMPEL
100
AcDbLine
 10
258.4638535184367
 20
567.8297962968283
 30
0.0
 11
256.6857785663922
 21
567.8297962968283
 31
0.0
  0
LINE
  5
A7C
102
{ACAD_REACTORS
330
A6A
102
}
330
1E
100
AcDbEntity
  8
STEMPEL
100
AcDbLine
 10
255.1984561901613
 20
507.5231966322596
 30
0.0
 11
255.1984561901613
 21
175.8297962968329
 31
0.0
  0
LINE
  5
A7D
330
1E
100
AcDbEntity
  8
STEMPEL
100
AcDbLine
 10
255.1984561901613
 20
175.8297962968329
 30
0.0
 11
254.4985468819537
 21
167.8297962968283
 31
0.0
  0
ARC
  5
A7E
330
1E
100
AcDbEntity
  8
STEMPEL
100
AcDbCircle
 10
246.2984561901613
 20
518.2185227142456
 30
0.0
 40
12.0
100
AcDbArc
 50
327.6719358778347
 51
0.0
  0
ARC
  5
A7F
330
1E
100
AcDbEntity
  8
STEMPEL
100
AcDbCircle
 10
263.1984561901613
 20
507.5231966322596
 30
0.0
 40
8.0
100
AcDbArc
 50
147.6719358778346
 51
180.0
  0
ARC
  5
A80
330
1E
100
AcDbEntity
  8
STEMPEL
100
AcDbCircle
 10
235.7984561901613
 20
548.1997962968282
 30
0.0
 40
25.00009324312574
100
AcDbArc
 50
338.8168456069649
 51
0.1564859543343451
  0
LINE
  5
A81
330
1E
100
AcDbEntity
  8
STEMPEL
100
AcDbLine
 10
258.2984561901613
 20
534.8297962968283
 30
0.0
 11
258.2984561901613
 21
518.2185227142456
 31
0.0
  0
ARC
  5
A82
330
1E
100
AcDbEntity
  8
STEMPEL
100
AcDbCircle
 10
270.2984561901613
 20
534.8297962968283
 30
0.0
 40
12.0
100
AcDbArc
 50
158.8168456069649
 51
180.0
  0
ARC
  5
A83
330
1E
100
AcDbEntity
  8
STEMPEL
100
AcDbCircle
 10
235.7984561901613
 20
557.2808738897099
 30
0.0
 40
25.0
100
AcDbArc
 50
0.0
 51
24.95819631230951
  0
LINE
  5
A84
330
1E
100
AcDbEntity
  8
STEMPEL
100
AcDbLine
 10
260.7984561901613
 20
557.2808738897099
 30
0.0
 11
260.7984561901613
 21
548.1315162486346
 31
0.0
  0
LINE
  5
A85
102
{ACAD_REACTORS
330
A6A
102
}
330
1E
100
AcDbEntity
  8
STEMPEL
100
AcDbLine
 10
182.1984561901613
 20
507.5231966322596
 30
0.0
 11
182.1984561901617
 21
175.8297962968279
 31
0.0
  0
LINE
  5
A86
330
1E
100
AcDbEntity
  8
STEMPEL
100
AcDbLine
 10
182.1984561901617
 20
175.8297962968279
 30
0.0
 11
182.8983654983691
 21
167.8297962968283
 31
0.0
  0
ARC
  5
A87
330
1E
100
AcDbEntity
  8
STEMPEL
100
AcDbCircle
 10
191.0984561901614
 20
518.2185227142456
 30
0.0
 40
12.0
100
AcDbArc
 50
180.0
 51
212.3280641221653
  0
ARC
  5
A88
330
1E
100
AcDbEntity
  8
STEMPEL
100
AcDbCircle
 10
174.1984561901613
 20
507.5231966322596
 30
0.0
 40
8.0
100
AcDbArc
 50
0.0
 51
32.32806412216532
  0
ARC
  5
A89
330
1E
100
AcDbEntity
  8
STEMPEL
100
AcDbCircle
 10
201.5984561901614
 20
548.1997962968282
 30
0.0
 40
25.00009324312574
100
AcDbArc
 50
179.8435140456656
 51
201.1831543930351
  0
LINE
  5
A8A
330
1E
100
AcDbEntity
  8
STEMPEL
100
AcDbLine
 10
179.0984561901614
 20
534.8297962968283
 30
0.0
 11
179.0984561901614
 21
518.2185227142456
 31
0.0
  0
ARC
  5
A8B
330
1E
100
AcDbEntity
  8
STEMPEL
100
AcDbCircle
 10
167.0984561901614
 20
534.8297962968283
 30
0.0
 40
12.0
100
AcDbArc
 50
0.0
 51
21.18315439303506
  0
ARC
  5
A8C
330
1E
100
AcDbEntity
  8
STEMPEL
100
AcDbCircle
 10
201.5984561901614
 20
557.2808738897099
 30
0.0
 40
25.0
100
AcDbArc
 50
155.0418036876905
 51
180.0
  0
LINE
  5
A8D
330
1E
100
AcDbEntity
  8
STEMPEL
100
AcDbLine
 10
176.5984561901614
 20
557.2808738897099
 30
0.0
 11
176.5984561901614
 21
548.1315162486346
 31
0.0
  0
DIMENSION
  5
A8E
330
1E
100
AcDbEntity
  8
BEM
100
AcDbDimension
  2
*D3
 10
255.1984561901613
 20
147.9839490704539
 30
0.0
 11
218.6984561901615
 21
154.4839490704539
 31
0.0
 70
    32
  1
%%C<>
 71
     5
 42
72.99999999999966
  3
Standard
100
AcDbAlignedDimension
 13
182.1984561901616
 23
175.8297962968279
 33
0.0
 14
255.1984561901613
 24
175.8297962968329
 34
0.0
 50
180.0
100
AcDbRotatedDimension
1001
ACAD
1000
DSTYLE
1002
{
1070
    40
1040
2.0
1070
    41
1040
3.5
1070
    42
1040
1.0
1070
    43
1040
7.0
1070
    44
1040
1.0
1070
    73
1070
     0
1070
    74
1070
     0
1070
    77
1070
     1
1070
    78
1070
     8
1070
    79
1070
     2
1070
   140
1040
3.5
1070
   141
1040
1.5
1070
   146
1040
0.5142857142857144
1070
   147
1040
1.5
1070
   172
1070
     1
1070
   178
1070
     1
1070
   179
1070
     2
1070
   271
1070
     2
1070
   272
1070
     2
1070
   284
1070
     8
1070
   285
1070
     8
1070
   286
1070
     8
1002
}
  0
DIMENSION
  5
A8F
330
1E
100
AcDbEntity
  8
BEM
100
AcDbDimension
  2
*D4
 10
38.92497917639349
 20
487.8297962968284
 30
0.0
 11
32.42497917639342
 21
527.8297962968284
 31
0.0
 70
    32
 71
     5
 42
79.99999999999994
  3
Standard
100
AcDbAlignedDimension
 13
178.9330588618858
 23
567.8297962968283
 33
0.0
 14
53.69845619016121
 24
487.8297962968284
 34
0.0
 50
90.0
100
AcDbRotatedDimension
1001
ACAD
1000
DSTYLE
1002
{
1070
    40
1040
2.0
1070
    41
1040
3.5
1070
    42
1040
1.0
1070
    43
1040
7.0
1070
    44
1040
1.0
1070
    73
1070
     0
1070
    74
1070
     0
1070
    77
1070
     1
1070
    78
1070
     8
1070
    79
1070
     2
1070
   140
1040
3.5
1070
   141
1040
1.5
1070
   146
1040
0.5142857142857144
1070
   147
1040
1.5
1070
   172
1070
     1
1070
   178
1070
     1
1070
   179
1070
     2
1070
   271
1070
     2
1070
   272
1070
     2
1070
   284
1070
     8
1070
   285
1070
     8
1070
   286
1070
     8
1002
}
  0
DIMENSION
  5
A90
330
1E
100
AcDbEntity
  8
BEM
100
AcDbDimension
  2
*D5
 10
26.53591082506711
 20
167.8297962968284
 30
0.0
 11
20.03591082506709
 21
367.8297962968283
 31
0.0
 70
    32
 71
     5
 42
400.0
  3
Standard
100
AcDbAlignedDimension
 13
178.9330588618858
 23
567.8297962968283
 33
0.0
 14
182.8983654983689
 24
167.8297962968283
 34
0.0
 50
90.0
100
AcDbRotatedDimension
1001
ACAD
1000
DSTYLE
1002
{
1070
    40
1040
2.0
1070
    41
1040
3.5
1070
    42
1040
1.0
1070
    43
1040
7.0
1070
    44
1040
1.0
1070
    73
1070
     0
1070
    74
1070
     0
1070
    77
1070
     1
1070
    78
1070
     8
1070
    79
1070
     2
1070
   140
1040
3.5
1070
   141
1040
1.5
1070
   146
1040
0.5142857142857144
1070
   147
1040
1.5
1070
   172
1070
     1
1070
   178
1070
     1
1070
   179
1070
     2
1070
   271
1070
     2
1070
   272
1070
     2
1070
   284
1070
     8
1070
   285
1070
     8
1070
   286
1070
     8
1002
}
  0
ARC
  5
A91
330
1E
100
AcDbEntity
  8
STEMPEL
100
AcDbCircle
 10
201.5984561901614
 20
557.2808738897099
 30
0.0
 40
23.4
100
AcDbArc
 50
153.2044220687672
 51
180.0
  0
LINE
  5
A92
330
1E
100
AcDbEntity
  8
STEMPEL
100
AcDbLine
 10
178.1984561901614
 20
557.2808738897099
 30
0.0
 11
178.1984561901614
 21
548.1315162486346
 31
0.0
  0
ARC
  5
A93
330
1E
100
AcDbEntity
  8
STEMPEL
100
AcDbCircle
 10
201.5984561901614
 20
548.1997962968282
 30
0.0
 40
23.40009324312573
100
AcDbArc
 50
179.8435140456656
 51
201.1831543930351
  0
ARC
  5
A94
330
1E
100
AcDbEntity
  8
STEMPEL
100
AcDbCircle
 10
167.0984561901614
 20
534.8297962968283
 30
0.0
 40
13.6
100
AcDbArc
 50
0.0
 51
21.18315439303506
  0
LINE
  5
A95
330
1E
100
AcDbEntity
  8
STEMPEL
100
AcDbLine
 10
180.6984561901614
 20
534.8297962968283
 30
0.0
 11
180.6984561901614
 21
518.2185227142456
 31
0.0
  0
ARC
  5
A96
330
1E
100
AcDbEntity
  8
STEMPEL
100
AcDbCircle
 10
191.0984561901614
 20
518.2185227142456
 30
0.0
 40
10.4
100
AcDbArc
 50
180.0
 51
212.3280641221653
  0
ARC
  5
A97
330
1E
100
AcDbEntity
  8
STEMPEL
100
AcDbCircle
 10
174.1984561901613
 20
507.5231966322596
 30
0.0
 40
9.599999999999999
100
AcDbArc
 50
0.0
 51
32.32806412216532
  0
LINE
  5
A98
330
1E
100
AcDbEntity
  8
STEMPEL
100
AcDbLine
 10
183.7984561901613
 20
507.5231966322596
 30
0.0
 11
183.7984561901618
 21
175.8996538054815
 31
0.0
  0
ARC
  5
A99
330
1E
100
AcDbEntity
  8
STEMPEL
100
AcDbCircle
 10
235.7984561901613
 20
557.2808738897099
 30
0.0
 40
23.4
100
AcDbArc
 50
0.0
 51
26.79557793123424
  0
LINE
  5
A9A
330
1E
100
AcDbEntity
  8
STEMPEL
100
AcDbLine
 10
259.1984561901613
 20
557.2808738897099
 30
0.0
 11
259.1984561901613
 21
548.1315162486346
 31
0.0
  0
ARC
  5
A9B
330
1E
100
AcDbEntity
  8
STEMPEL
100
AcDbCircle
 10
235.7984561901613
 20
548.1997962968282
 30
0.0
 40
23.40009324312573
100
AcDbArc
 50
338.8168456069649
 51
0.1564859543343451
  0
ARC
  5
A9C
330
1E
100
AcDbEntity
  8
STEMPEL
100
AcDbCircle
 10
270.2984561901613
 20
534.8297962968283
 30
0.0
 40
13.6
100
AcDbArc
 50
158.8168456069649
 51
180.0
  0
LINE
  5
A9D
330
1E
100
AcDbEntity
  8
STEMPEL
100
AcDbLine
 10
256.6984561901613
 20
534.8297962968283
 30
0.0
 11
256.6984561901613
 21
518.2185227142456
 31
0.0
  0
ARC
  5
A9E
330
1E
100
AcDbEntity
  8
STEMPEL
100
AcDbCircle
 10
246.2984561901613
 20
518.2185227142456
 30
0.0
 40
10.4
100
AcDbArc
 50
327.6719358778347
 51
0.0
  0
ARC
  5
A9F
330
1E
100
AcDbEntity
  8
STEMPEL
100
AcDbCircle
 10
263.1984561901613
 20
507.5231966322596
 30
0.0
 40
9.599999999999999
100
AcDbArc
 50
147.6719358778346
 51
180.0
  0
LINE
  5
AA0
330
1E
100
AcDbEntity
  8
STEMPEL
100
AcDbLine
 10
253.5984561901613
 20
507.5231966322596
 30
0.0
 11
253.5984561901613
 21
175.8996538054868
 31
0.0
  0
LINE
  5
AA1
330
1E
100
AcDbEntity
  8
STEMPEL
100
AcDbLine
 10
183.7984561901618
 20
175.8996538054815
 30
0.0
 11
184.5044772384385
 21
167.8297962968283
 31
0.0
  0
LINE
  5
AA2
330
1E
100
AcDbEntity
  8
STEMPEL
100
AcDbLine
 10
253.5984561901613
 20
175.8996538054868
 30
0.0
 11
252.8924351418843
 21
167.8297962968283
 31
0.0
  0
LINE
  5
AA3
102
{ACAD_REACTORS
330
A6A
102
}
330
1E
100
AcDbEntity
  8
STEMPEL
100
AcDbLine
 10
182.1984561901613
 20
472.8297962968284
 30
0.0
 11
73.37032658222551
 21
485.8297962968284
 31
0.0
  0
LINE
  5
AA4
102
{ACAD_REACTORS
330
A6A
102
}
330
1E
100
AcDbEntity
  8
STEMPEL
100
AcDbLine
 10
255.1984561901613
 20
472.8297962968284
 30
0.0
 11
364.026585798097
 21
485.8297962968284
 31
0.0
  0
LINE
  5
AA5
330
1E
100
AcDbEntity
  8
STEMPEL
100
AcDbLine
 10
255.1984561901613
 20
474.8440151092103
 30
0.0
 11
363.9075545091145
 21
487.8297962968284
 31
0.0
  0
LINE
  5
AA6
330
1E
100
AcDbEntity
  8
STEMPEL
100
AcDbLine
 10
182.1984561901613
 20
474.8440151092103
 30
0.0
 11
73.48935787120797
 21
487.8297962968284
 31
0.0
  0
ARC
  5
AA8
102
{ACAD_REACTORS
330
A6A
102
}
330
1E
100
AcDbEntity
  8
SCHRAFF
100
AcDbCircle
 10
182.1984561901613
 20
472.8297962968284
 30
0.0
 40
3.0
100
AcDbArc
 50
173.1880448309132
 51
270.0
  0
ARC
  5
AA9
102
{ACAD_REACTORS
330
A6A
102
}
330
1E
100
AcDbEntity
  8
SCHRAFF
100
AcDbCircle
 10
255.1984561901613
 20
472.8297962968284
 30
0.0
 40
3.0
100
AcDbArc
 50
270.0
 51
6.811955169086803
  0
TEXT
  5
B41
330
1E
100
AcDbEntity
  8
TEXT
 62
     1
100
AcDbText
 10
369.1964457723755
 20
553.4888276066685
 30
0.0
 40
7.0
  1
EDV-Art.Nr. 00911.070X
 41
0.8
  7
GREEKS
100
AcDbText
  0
LINE
  5
B42
330
1E
100
AcDbEntity
  8
TEXT
 62
     2
100
AcDbLine
 10
256.900563792607
 20
569.3451968124145
 30
0.0
 11
367.0765527763301
 21
563.5162787172353
 31
0.0
  0
LINE
  5
B43
330
1E
100
AcDbEntity
  8
TEXT
 62
     2
100
AcDbLine
 10
367.0765527763301
 20
563.5162787172353
 30
0.0
 11
475.1872622175701
 21
563.5162787172353
 31
0.0
  0
TEXT
  5
B44
330
1E
100
AcDbEntity
  8
TEXT
 62
     1
100
AcDbText
 10
369.1964457723755
 20
566.8961841341317
 30
0.0
 40
7.0
  1
Dichelement DN70
 41
0.8
  7
GREEKS
100
AcDbText
  0
LINE
  5
BC9
330
1E
100
AcDbEntity
  8
STEMPEL
100
AcDbLine
 10
185.1300206262569
 20
572.8297962968282
 30
0.0
 11
191.6422821099574
 21
572.8297962968282
 31
0.0
  0
LINE
  5
BCE
330
1E
100
AcDbEntity
  8
STEMPEL
100
AcDbLine
 10
256.6857785663918
 20
567.8297962968285
 30
0.0
 11
260.4984561901612
 21
567.8297962968285
 31
0.0
  0
LINE
  5
BCF
330
1E
100
AcDbEntity
  8
STEMPEL
100
AcDbLine
 10
260.4984561901613
 20
567.8297962968283
 30
0.0
 11
257.9666294229387
 21
572.3208811936607
 31
0.0
  0
LINE
  5
BD0
330
1E
100
AcDbEntity
  8
STEMPEL
100
AcDbLine
 10
255.1984561901612
 20
572.8297962968283
 30
0.0
 11
257.0955177055893
 21
572.8297962968283
 31
0.0
  0
ARC
  5
BD1
330
1E
100
AcDbEntity
  8
STEMPEL
100
AcDbCircle
 10
257.0955177055893
 20
571.8297962968283
 30
0.0
 40
1.0
100
AcDbArc
 50
29.411913665529
 51
169.9999999999981
  0
LINE
  5
BD2
330
1E
100
AcDbEntity
  8
STEMPEL
100
AcDbLine
 10
255.1984561901613
 20
566.8297962968283
 30
0.0
 11
256.1107099525771
 21
572.0034444744952
 31
0.0
  0
HATCH
  5
BD3
330
1E
100
AcDbEntity
  8
SCHRAFF
100
AcDbHatch
 10
0.0
 20
0.0
 30
0.0
210
0.0
220
0.0
230
1.0
  2
NET
 70
     0
 71
     0
 91
        2
 92
        7
 72
     1
 73
     1
 93
       12
 10
255.1984561901611
 20
548.9350316821692
 42
0.0
 10
256.1719017798444
 20
548.9350316821692
 42
0.0284043890759212
 10
256.8326953182379
 20
554.0032656845843
 42
-0.8145244257889123
 10
258.3741219943303
 20
554.357236249427
 42
0.0
 10
258.491873372508
 20
552.8297962968281
 42
0.0
 10
259.1984561901613
 20
552.8297962968284
 42
0.0
 10
259.1984561901613
 20
557.2808738897097
 42
0.1174534402570162
 10
256.685778566392
 20
567.8297962968283
 42
0.0
 10
260.4984561901613
 20
567.8297962968283
 42
0.0
 10
257.9666294229387
 20
572.3208811936607
 42
0.7040385315424552
 10
256.1107099525771
 20
572.0034444744952
 42
0.0
 10
255.1984561901613
 20
566.8297962968283
 42
0.0
 97
        0
 92
        7
 72
     1
 73
     1
 93
       12
 10
182.1984561901612
 20
566.8297962968283
 42
0.0
 10
181.2862024277454
 20
572.0034444744952
 42
0.704038531542393
 10
179.4302829573839
 20
572.3208811936607
 42
0.0
 10
176.8984561901612
 20
567.8297962968283
 42
0.0
 10
180.7111338139304
 20
567.8297962968283
 42
0.1174534402570161
 10
178.1984561901611
 20
557.2808738897097
 42
0.0
 10
178.1984561901611
 20
552.8297962968284
 42
0.0
 10
178.9050390078145
 20
552.8297962968284
 42
0.0
 10
179.0227903859922
 20
554.3572362494272
 42
-0.814524425789534
 10
180.5642170620846
 20
554.0032656845835
 42
0.0284043890759152
 10
181.2250106004781
 20
548.9350316821694
 42
0.0
 10
182.1984561901612
 20
548.9350316821694
 42
0.0
 97
        0
 75
     0
 76
     1
 52
45.0
 41
15.0
 77
     0
 78
     2
 53
45.0
 43
-34.50944169511468
 44
166.6416655728954
 45
-1.325825214724776
 46
1.325825214724776
 79
     0
 53
135.0
 43
-34.50944169511468
 44
166.6416655728954
 45
-1.325825214724776
 46
-1.325825214724776
 79
     0
 47
0.1498518399897213
 98
        2
 10
256.1187113089632
 20
558.4937856052913
 10
180.4160008861291
 20
560.1421558765125
  0
ARC
  5
BD4
330
1E
100
AcDbEntity
  8
STEMPEL
100
AcDbCircle
 10
257.0955177055893
 20
571.8297962968283
 30
0.0
 40
1.0
100
AcDbArc
 50
29.411913665529
 51
90.0
  0
LINE
  5
BD5
330
1E
100
AcDbEntity
  8
STEMPEL
100
AcDbLine
 10
255.1984561901612
 20
548.9350316821694
 30
0.0
 11
256.1719017798444
 21
548.9350316821692
 31
0.0
  0
LINE
  5
BD6
330
1E
100
AcDbEntity
  8
STEMPEL
100
AcDbLine
 10
258.491873372508
 20
552.8297962968282
 30
0.0
 11
256.7316036297565
 21
552.8297962968282
 31
0.0
  0
ARC
  5
BD7
330
1E
100
AcDbEntity
  8
STEMPEL
100
AcDbCircle
 10
257.639972562655
 20
554.0210270476738
 30
0.0
 40
0.8074726096733382
100
AcDbArc
 50
24.60576449669313
 51
181.2603934940303
  0
LINE
  5
BD8
330
1E
100
AcDbEntity
  8
STEMPEL
100
AcDbLine
 10
259.1984561901614
 20
552.8297962968282
 30
0.0
 11
258.491873372508
 21
552.8297962968282
 31
0.0
  0
LINE
  5
BD9
330
1E
100
AcDbEntity
  8
STEMPEL
100
AcDbLine
 10
258.491873372508
 20
552.8297962968282
 30
0.0
 11
258.3741219943303
 21
554.357236249427
 31
0.0
  0
ARC
  5
BDA
330
1E
100
AcDbEntity
  8
STEMPEL
100
AcDbCircle
 10
211.9304465506017
 20
557.280402027395
 30
0.0
 40
45.02167885585847
100
AcDbArc
 50
349.3176813110439
 51
355.8257378886755
  0
LINE
  5
BDB
330
1E
100
AcDbEntity
  8
STEMPEL
100
AcDbLine
 10
180.7111338139304
 20
567.8297962968283
 30
0.0
 11
176.8984561901613
 21
567.8297962968283
 31
0.0
  0
ARC
  5
BDC
330
1E
100
AcDbEntity
  8
STEMPEL
100
AcDbCircle
 10
180.3013946747332
 20
571.8297962968283
 30
0.0
 40
1.0
100
AcDbArc
 50
10.00000000000181
 51
150.588086334471
  0
LINE
  5
BDD
330
1E
100
AcDbEntity
  8
STEMPEL
100
AcDbLine
 10
176.8984561901613
 20
567.8297962968283
 30
0.0
 11
179.430282957384
 21
572.3208811936607
 31
0.0
  0
ARC
  5
BDE
330
1E
100
AcDbEntity
  8
STEMPEL
100
AcDbCircle
 10
180.3013946747332
 20
571.8297962968283
 30
0.0
 40
1.0
100
AcDbArc
 50
90.0
 51
150.588086334471
  0
LINE
  5
BDF
330
1E
100
AcDbEntity
  8
STEMPEL
100
AcDbLine
 10
180.3013946747332
 20
572.8297962968283
 30
0.0
 11
182.1984561901612
 21
572.8297962968283
 31
0.0
  0
LINE
  5
BE0
330
1E
100
AcDbEntity
  8
STEMPEL
100
AcDbLine
 10
182.1984561901612
 20
566.8297962968283
 30
0.0
 11
181.2862024277454
 21
572.0034444744952
 31
0.0
  0
LINE
  5
BE1
330
1E
100
AcDbEntity
  8
STEMPEL
100
AcDbLine
 10
181.2250106004781
 20
548.9350316821694
 30
0.0
 11
182.1984561901613
 21
548.9350316821695
 31
0.0
  0
ARC
  5
BE2
330
1E
100
AcDbEntity
  8
STEMPEL
100
AcDbCircle
 10
225.4664658297208
 20
557.280402027395
 30
0.0
 40
45.02167885585847
100
AcDbArc
 50
184.1742621113243
 51
190.6823186889559
  0
LINE
  5
BE3
330
1E
100
AcDbEntity
  8
STEMPEL
100
AcDbLine
 10
178.9050390078145
 20
552.8297962968284
 30
0.0
 11
179.0227903859922
 21
554.3572362494272
 31
0.0
  0
LINE
  5
BE4
330
1E
100
AcDbEntity
  8
STEMPEL
100
AcDbLine
 10
178.1984561901611
 20
552.8297962968284
 30
0.0
 11
178.9050390078145
 21
552.8297962968284
 31
0.0
  0
ARC
  5
BE5
330
1E
100
AcDbEntity
  8
STEMPEL
100
AcDbCircle
 10
179.7569398176675
 20
554.0210270476738
 30
0.0
 40
0.8074726096733382
100
AcDbArc
 50
358.7396065059696
 51
155.3942355033067
  0
LINE
  5
BE6
330
1E
100
AcDbEntity
  8
STEMPEL
100
AcDbLine
 10
178.9050390078145
 20
552.8297962968284
 30
0.0
 11
180.665308750566
 21
552.8297962968284
 31
0.0
  0
LINE
  5
C13
330
1E
100
AcDbEntity
  8
STEMPEL
100
AcDbLine
 10
180.7111338139305
 20
567.8297962968283
 30
0.0
 11
178.9330588618861
 21
567.8297962968283
 31
0.0
  0
LINE
  5
C14
330
1E
100
AcDbEntity
  8
TEXT
 62
     2
100
AcDbLine
 10
254.9221333435303
 20
374.9454691913743
 30
0.0
 11
367.0765527763301
 21
391.9394541493568
 31
0.0
  0
TEXT
  5
C15
330
1E
100
AcDbEntity
  8
TEXT
 62
     1
100
AcDbText
 10
369.1964457723755
 20
381.9120030387901
 30
0.0
 40
7.0
  1
EDV-Art.Nr. 18130.070X
 41
0.8
  7
GREEKS
100
AcDbText
  0
LINE
  5
C16
330
1E
100
AcDbEntity
  8
TEXT
 62
     2
100
AcDbLine
 10
367.0765527763301
 20
391.9394541493568
 30
0.0
 11
473.4704831074418
 21
391.9394541493568
 31
0.0
  0
TEXT
  5
C17
330
1E
100
AcDbEntity
  8
TEXT
 62
     1
100
AcDbText
 10
369.1964457723755
 20
395.3193595662533
 30
0.0
 40
7.0
  1
Wanddurchführung DN70
 41
0.8
  7
GREEKS
100
AcDbText
  0
TEXT
  5
DE9
330
1E
100
AcDbEntity
  8
TEXT
 62
     1
100
AcDbText
 10
368.8050521568351
 20
635.9472362541985
 30
0.0
 40
7.0
  1
EDV-Art.Nr. 21004.000X
 41
0.8
  7
GREEKS
100
AcDbText
  0
LINE
  5
DEA
330
1E
100
AcDbEntity
  8
TEXT
 62
     2
100
AcDbLine
 10
366.6851591607897
 20
645.9746873647652
 30
0.0
 11
474.7958686020296
 21
645.9746873647652
 31
0.0
  0
TEXT
  5
DEB
330
1E
100
AcDbEntity
  8
TEXT
 62
     1
100
AcDbText
 10
368.8050521568351
 20
649.3545927816617
 30
0.0
 40
7.0
  1
Siebkorb
 41
0.8
  7
GREEKS
100
AcDbText
  0
TEXT
  5
DEC
330
1E
100
AcDbEntity
  8
TEXT
 62
     1
100
AcDbText
 10
369.1964457723756
 20
603.6728209947205
 30
0.0
 40
7.0
  1
Losflansch DN70
 41
0.8
  7
GREEKS
100
AcDbText
  0
LINE
  5
DED
330
1E
100
AcDbEntity
  8
TEXT
 62
     2
100
AcDbLine
 10
367.0765527763301
 20
600.292915577824
 30
0.0
 11
475.18726221757
 21
600.292915577824
 31
0.0
  0
TEXT
  5
DEE
330
1E
100
AcDbEntity
  8
TEXT
 62
     1
100
AcDbText
 10
369.1964457723756
 20
590.2654644672573
 30
0.0
 40
7.0
  1
EDV-Art.Nr. 17014.070X
 41
0.8
  7
GREEKS
100
AcDbText
  0
ARC
  5
DEF
330
1E
100
AcDbEntity
  8
STEMPEL
100
AcDbCircle
 10
322.6984561901613
 20
662.3297383295119
 30
0.0
 40
5.0
100
AcDbArc
 50
0.0
 51
59.74358352518112
  0
ARC
  5
DF0
330
1E
100
AcDbEntity
  8
STEMPEL
100
AcDbCircle
 10
328.2095997944732
 20
671.8496332792892
 30
0.0
 40
5.0
100
AcDbArc
 50
239.7435628364698
 51
239.9329541615142
  0
ARC
  5
DF1
330
1E
100
AcDbEntity
  8
STEMPEL
100
AcDbCircle
 10
322.6984561901613
 20
662.3297383295119
 30
0.0
 40
6.0
100
AcDbArc
 50
0.0
 51
59.74358352518112
  0
LINE
  5
DF2
330
1E
100
AcDbEntity
  8
STEMPEL
100
AcDbLine
 10
325.7311508118694
 20
667.5068768568707
 30
0.0
 11
301.7448479364025
 21
681.4988868675593
 31
0.0
  0
LINE
  5
DF3
330
1E
100
AcDbEntity
  8
STEMPEL
100
AcDbLine
 10
325.2178097582885
 20
666.6486337437081
 30
0.0
 11
301.2389558653374
 21
680.6362869098936
 31
0.0
  0
LINE
  5
DF4
330
1E
100
AcDbEntity
  8
STEMPEL
100
AcDbLine
 10
311.486307961751
 20
593.3297962968274
 30
0.0
 11
303.1501074134392
 21
593.3297962968274
 31
0.0
  0
LINE
  5
DF5
330
1E
100
AcDbEntity
  8
STEMPEL
100
AcDbLine
 10
328.6984561901615
 20
657.3297962968272
 30
0.0
 11
327.6984561901616
 21
657.3297962968272
 31
0.0
  0
LINE
  5
DF6
330
1E
100
AcDbEntity
  8
STEMPEL
100
AcDbLine
 10
328.6984561901618
 20
617.3297962968271
 30
0.0
 11
327.6984561901616
 21
617.3297962968271
 31
0.0
  0
LINE
  5
DF7
330
1E
100
AcDbEntity
  8
STEMPEL
100
AcDbLine
 10
316.6215016968245
 20
649.8297962968276
 30
0.0
 11
316.6215016968245
 21
624.8297962968306
 31
0.0
  0
LWPOLYLINE
  5
DF8
330
1E
100
AcDbEntity
  8
STEMPEL
100
AcDbPolyline
 90
        7
 70
   128
 43
0.0
 10
319.3721562860903
 20
593.3297962968273
 10
318.7520657630259
 20
593.9391341986682
 10
318.2202456162424
 20
594.6665644719574
 10
317.7909998165112
 20
595.4925219659011
 10
317.4758734687139
 20
596.3947915163633
 10
317.2833422917481
 20
597.3491054506066
 10
317.2185846534217
 20
598.3297962968277
  0
LINE
  5
DF9
330
1E
100
AcDbEntity
  8
STEMPEL
100
AcDbLine
 10
316.2925303169143
 20
604.8297962968255
 30
0.0
 11
316.2925303169143
 21
598.3297962968289
 31
0.0
  0
LINE
  5
DFA
330
1E
100
AcDbEntity
  8
STEMPEL
100
AcDbLine
 10
317.2185846534217
 20
604.8297962968255
 30
0.0
 11
317.2185846534217
 21
598.3297962968289
 31
0.0
  0
LWPOLYLINE
  5
DFB
330
1E
100
AcDbEntity
  8
STEMPEL
100
AcDbPolyline
 90
        7
 70
   128
 43
0.0
 10
-327.0067118642448
 20
611.2918503526652
 10
-326.8688828546745
 20
610.5397441157268
 10
-326.7500185777083
 20
609.6170305050119
 10
-326.6536705758071
 20
608.5512792551077
 10
-326.582717628269
 20
607.3743339182865
 10
-326.539279736261
 20
606.1213604118847
 10
-326.5246547793633
 20
604.8297962968254
210
0.0
220
0.0
230
-1.0
  0
LWPOLYLINE
  5
DFC
330
1E
100
AcDbEntity
  8
STEMPEL
100
AcDbPolyline
 90
        7
 70
   128
 43
0.0
 10
329.1451139630342
 20
593.3297962968277
 10
328.4684120879567
 20
593.9393970246867
 10
327.8688626643227
 20
594.6669561085984
 10
327.3625739911731
 20
595.4929259702786
 10
326.9631486991275
 20
596.3951149954816
 10
326.6813182838646
 20
597.3492837636754
 10
326.5246547793631
 20
598.3297962968276
  0
LWPOLYLINE
  5
DFD
330
1E
100
AcDbEntity
  8
STEMPEL
100
AcDbPolyline
 90
       10
 70
   128
 43
0.0
 10
326.8481463289661
 20
592.3297962968272
 10
326.0119670541244
 20
592.4209497787541
 10
325.2011946634218
 20
592.691640572112
 10
324.440464065679
 20
593.1336438741206
 10
323.7528896751603
 20
593.7335296381136
 10
323.1593630917919
 20
594.4730706387083
 10
322.6779183204706
 20
595.3297962968275
 10
322.3231838169502
 20
596.2776754368735
 10
322.105938009616
 20
597.2879072308261
 10
322.032781802392
 20
598.3297962968277
  0
LINE
  5
DFE
330
1E
100
AcDbEntity
  8
STEMPEL
100
AcDbLine
 10
322.032781802392
 20
604.8297962968255
 30
0.0
 11
322.032781802392
 21
598.3297962968289
 31
0.0
  0
LINE
  5
DFF
330
1E
100
AcDbEntity
  8
STEMPEL
100
AcDbLine
 10
327.4887689491259
 20
604.8297962968254
 30
0.0
 11
327.4887689491259
 21
598.3297962968276
 31
0.0
  0
LINE
  5
E00
330
1E
100
AcDbEntity
  8
STEMPEL
100
AcDbLine
 10
326.5246547793633
 20
604.8297962968254
 30
0.0
 11
326.5246547793633
 21
598.3297962968276
 31
0.0
  0
LINE
  5
E01
330
1E
100
AcDbEntity
  8
STEMPEL
100
AcDbLine
 10
325.5308760658254
 20
604.8297962968255
 30
0.0
 11
325.5308760658254
 21
598.3297962968266
 31
0.0
  0
LWPOLYLINE
  5
E02
330
1E
100
AcDbEntity
  8
STEMPEL
100
AcDbPolyline
 90
       10
 70
   128
 43
0.0
 10
321.1078948434884
 20
592.3297962968273
 10
320.2717155686467
 20
592.4209497787541
 10
319.460943177944
 20
592.691640572112
 10
318.7002125802012
 20
593.1336438741206
 10
318.0126381896826
 20
593.7335296381136
 10
317.4191116063141
 20
594.4730706387083
 10
316.9376668349928
 20
595.3297962968275
 10
316.5829323314724
 20
596.2776754368735
 10
316.3656865241383
 20
597.2879072308261
 10
316.2925303169143
 20
598.3297962968277
  0
LINE
  5
E03
330
1E
100
AcDbEntity
  8
STEMPEL
100
AcDbLine
 10
324.1863534350607
 20
593.3297962968273
 30
0.0
 11
319.3721562860892
 21
593.3297962968273
 31
0.0
  0
LINE
  5
E04
330
1E
100
AcDbEntity
  8
STEMPEL
100
AcDbLine
 10
330.1092281327965
 20
593.3297962968272
 30
0.0
 11
329.145113963034
 21
593.3297962968272
 31
0.0
  0
LWPOLYLINE
  5
E05
330
1E
100
AcDbEntity
  8
STEMPEL
100
AcDbPolyline
 90
       10
 70
   128
 43
0.0
 10
331.0368647968562
 20
592.3297962968272
 10
330.1787918005834
 20
592.3959235113999
 10
329.3259796009613
 20
592.6484772611302
 10
328.5052212940443
 20
593.0795229774477
 10
327.7423029276454
 20
593.6755183478876
 10
327.0611933721462
 20
594.4177387796083
 10
326.4832912822003
 20
595.2828656764056
 10
326.0267528077941
 20
596.2437190471218
 10
325.7059211761966
 20
597.270111428834
 10
325.5308760658254
 20
598.3297962968266
  0
LWPOLYLINE
  5
E06
330
1E
100
AcDbEntity
  8
STEMPEL
100
AcDbPolyline
 90
       10
 70
   128
 43
0.0
 10
332.9947576801567
 20
592.3297962968283
 10
332.1366846838839
 20
592.395923511401
 10
331.2838724842618
 20
592.6484772611313
 10
330.4631141773448
 20
593.0795229774488
 10
329.7001958109458
 20
593.6755183478887
 10
329.0190862554466
 20
594.4177387796094
 10
328.4411841655008
 20
595.2828656764068
 10
327.9846456910946
 20
596.2437190471229
 10
327.6638140594971
 20
597.2701114288351
 10
327.4887689491259
 20
598.3297962968276
  0
ARC
  5
E07
330
1E
100
AcDbEntity
  8
STEMPEL
100
AcDbCircle
 10
333.6984561901611
 20
598.3297962968276
 30
0.0
 40
5.0
100
AcDbArc
 50
180.0
 51
270.0
  0
ARC
  5
E08
330
1E
100
AcDbEntity
  8
STEMPEL
100
AcDbCircle
 10
333.6984561901611
 20
598.3297962968276
 30
0.0
 40
6.0
100
AcDbArc
 50
180.0
 51
270.0
  0
LWPOLYLINE
  5
E09
330
1E
100
AcDbEntity
  8
STEMPEL
100
AcDbPolyline
 90
       18
 70
   128
 43
0.0
 10
-322.032781802392
 20
604.8297962968255
 10
-321.9839124574757
 20
606.20791768045
 10
-321.8389686096557
 20
607.5391087932297
 10
-321.6028861478285
 20
608.7780375184065
 10
-321.2837045770819
 20
609.8825136241758
 10
-320.8922932429914
 20
610.8149255014287
 10
-320.4419811890935
 20
611.5435209819898
 10
-319.948103252294
 20
612.0434886206232
 10
-319.4274778533891
 20
612.2978026190398
 10
-318.8978342659173
 20
612.2978026190398
 10
-318.3772088670123
 20
612.0434886206232
 10
-317.8833309302129
 20
611.5435209819898
 10
-317.4330188763149
 20
610.8149255014287
 10
-317.0416075422247
 20
609.8825136241758
 10
-316.7224259714779
 20
608.7780375184065
 10
-316.4863435096506
 20
607.5391087932297
 10
-316.3413996618306
 20
606.20791768045
 10
-316.2925303169143
 20
604.8297962968255
210
0.0
220
0.0
230
-1.0
  0
LWPOLYLINE
  5
E0A
330
1E
100
AcDbEntity
  8
STEMPEL
100
AcDbPolyline
 90
        9
 70
   128
 43
0.0
 10
-319.6256832279053
 20
612.2315545414906
 10
-319.1366226846365
 20
611.9051216437331
 10
-318.6770097167355
 20
611.359852630476
 10
-318.2610599131113
 20
610.612612387348
 10
-317.9016383838198
 20
609.6865126645704
 10
-317.6098618489323
 20
608.6101972426002
 10
-317.394754804194
 20
607.4169559949694
 10
-317.2629703980865
 20
606.1436952498934
 10
-317.2185846534217
 20
604.8297962968271
210
0.0
220
0.0
230
-1.0
  0
LWPOLYLINE
  5
E0B
330
1E
100
AcDbEntity
  8
STEMPEL
100
AcDbPolyline
 90
       18
 70
   128
 43
0.0
 10
-327.4887689491259
 20
604.8297962968254
 10
-327.4721005256493
 20
606.20791768045
 10
-327.4226628783888
 20
607.5391087932295
 10
-327.3421395471282
 20
608.7780375184064
 10
-327.2332726573365
 20
609.8825136241758
 10
-327.0997695403744
 20
610.8149255014285
 10
-326.9461764847701
 20
611.5435209819898
 10
-326.7777239178181
 20
612.043488620623
 10
-326.6001482896493
 20
612.2978026190398
 10
-326.4194967253022
 20
612.2978026190398
 10
-326.2419210971332
 20
612.043488620623
 10
-326.0734685301811
 20
611.5435209819898
 10
-325.9198754745771
 20
610.8149255014287
 10
-325.7863723576147
 20
609.8825136241758
 10
-325.6775054678231
 20
608.7780375184065
 10
-325.5969821365627
 20
607.5391087932297
 10
-325.5475444893022
 20
606.20791768045
 10
-325.5308760658254
 20
604.8297962968255
210
0.0
220
0.0
230
-1.0
  0
LINE
  5
E0C
330
1E
100
AcDbEntity
  8
STEMPEL
100
AcDbLine
 10
348.6984561901613
 20
593.3297962968274
 30
0.0
 11
348.6984561901615
 21
592.3297962968272
 31
0.0
  0
LINE
  5
E0D
330
1E
100
AcDbEntity
  8
STEMPEL
100
AcDbLine
 10
348.6984561901613
 20
593.3297962968272
 30
0.0
 11
333.6984561901611
 21
593.3297962968277
 31
0.0
  0
LWPOLYLINE
  5
E0E
330
1E
100
AcDbEntity
  8
STEMPEL
100
AcDbPolyline
 90
       10
 70
   128
 43
0.0
 10
313.8984373078386
 20
592.3297962968273
 10
313.1406876827443
 20
592.4209497787542
 10
312.4059618965687
 20
592.691640572112
 10
311.7165842205356
 20
593.1336438741208
 10
311.0935010464893
 20
593.7335296381136
 10
310.5556444413778
 20
594.4730706387083
 10
310.1193569059788
 20
595.3297962968276
 10
309.7978948162836
 20
596.2776754368737
 10
309.6010256352195
 20
597.2879072308262
 10
309.5347311332328
 20
598.3297962968279
  0
ELLIPSE
  5
E0F
330
1E
100
AcDbEntity
  8
STEMPEL
100
AcDbEllipse
 10
312.8715016968245
 20
649.8297962968276
 30
0.0
 11
0.0000000000000334
 21
7.499999999999999
 31
0.0
210
0.0
220
0.0
230
-1.0
 40
0.4999999999999926
 41
4.712388980384689
 42
7.853981633974482
  0
ELLIPSE
  5
E10
330
1E
100
AcDbEntity
  8
STEMPEL
100
AcDbEllipse
 10
313.7395657165134
 20
649.8297962968276
 30
0.0
 11
0.0000000000000334
 21
7.499999999999999
 31
0.0
210
0.0
220
0.0
230
-1.0
 40
0.4999999999999926
 41
4.712388980384689
 42
6.167183451052224
  0
ELLIPSE
  5
E11
330
1E
100
AcDbEntity
  8
STEMPEL
100
AcDbEllipse
 10
313.7395657165134
 20
624.829796296829
 30
0.0
 11
-0.0000000000000334
 21
-7.499999999999999
 31
0.0
210
0.0
220
0.0
230
1.0
 40
0.4999999999999926
 41
4.712388980384689
 42
6.167183451052224
  0
ELLIPSE
  5
E12
330
1E
100
AcDbEntity
  8
STEMPEL
100
AcDbEllipse
 10
312.8715016968245
 20
624.8297962968291
 30
0.0
 11
-0.0000000000000334
 21
-7.499999999999999
 31
0.0
210
0.0
220
0.0
230
1.0
 40
0.4999999999999926
 41
4.712388980384689
 42
7.853981633974482
  0
LINE
  5
E13
330
1E
100
AcDbEntity
  8
STEMPEL
100
AcDbLine
 10
328.6984561901615
 20
662.3297383295119
 30
0.0
 11
328.6984561901613
 21
598.3297962968276
 31
0.0
  0
LINE
  5
E14
330
1E
100
AcDbEntity
  8
STEMPEL
100
AcDbLine
 10
327.6984561901613
 20
662.3297383295119
 30
0.0
 11
327.6984561901611
 21
598.3297962968276
 31
0.0
  0
LINE
  5
E15
330
1E
100
AcDbEntity
  8
HILF
100
AcDbLine
 10
116.3721231326309
 20
665.329796296831
 30
0.0
 11
321.5247892476923
 21
665.32979629683
 31
0.0
  0
LINE
  5
E16
330
1E
100
AcDbEntity
  8
STEMPEL
100
AcDbLine
 10
348.6984561901613
 20
592.3297962968272
 30
0.0
 11
99.6984561901613
 21
592.3297962968283
 31
0.0
  0
HATCH
  5
E17
330
1E
100
AcDbEntity
  8
SCHRAFF
100
AcDbHatch
 10
0.0
 20
0.0
 30
0.0
210
0.0
220
0.0
230
1.0
  2
ANSI31
 70
     0
 71
     0
 91
        5
 92
        7
 72
     1
 73
     1
 93
       39
 10
138.6984561901616
 20
682.3297962968281
 42
0.0
 10
193.2589415951049
 20
682.3297962968276
 42
0.2679491924311848
 10
194.5579797007818
 20
683.0797962968277
 42
-0.2859076546239628
 10
195.9570178064591
 20
683.826459251537
 42
-0.2859076546237491
 10
197.3560559121352
 20
683.0797962968274
 42
0.2679491924311245
 10
198.6550940178117
 20
682.3297962968275
 42
0.0
 10
205.1089415951053
 20
682.3297962968275
 42
0.2679491924311449
 10
206.4079797007821
 20
683.0797962968274
 42
-0.2859076546238214
 10
207.8070178064584
 20
683.8264592515372
 42
-0.3607372083888889
 10
209.3593865612866
 20
682.7047962968274
 42
0.3419987131196436
 10
209.8435094795625
 20
682.3297962968275
 42
0.0
 10
210.032258672162
 20
682.3297962968275
 42
0.341998713119513
 10
210.5163815904375
 20
682.7047962968274
 42
-0.3419987131196436
 10
211.9687503452654
 20
683.8297962968274
 42
0.0
 10
218.6984561901616
 20
683.8297962968274
 42
0.0
 10
218.6984561901616
 20
682.8297962968274
 42
0.0
 10
211.9687503452654
 20
682.8297962968276
 42
0.3419987131195064
 10
211.4846274269897
 20
682.4547962968274
 42
-0.3596757619904947
 10
209.9378840758623
 20
681.3327680954987
 42
-0.3596757619905158
 10
208.3911407247349
 20
682.4547962968274
 42
0.3419987131196715
 10
207.907017806459
 20
682.8297962968276
 42
0.0
 10
207.7070178064587
 20
682.8297962968276
 42
0.267949192431149
 10
207.2740051045665
 20
682.5797962968277
 42
-0.2679491924311241
 10
205.1089415951053
 20
681.3297962968277
 42
0.0
 10
198.6550940178113
 20
681.3297962968277
 42
-0.2679491924310771
 10
196.4900305083504
 20
682.5797962968272
 42
0.2679491924312612
 10
196.0570178064581
 20
682.8297962968274
 42
0.0
 10
195.8570178064588
 20
682.8297962968274
 42
0.2679491924313018
 10
195.4240051045663
 20
682.5797962968277
 42
-0.2679491924311406
 10
193.2589415951049
 20
681.3297962968277
 42
0.0
 10
138.6984561901636
 20
681.3297962968281
 42
0.1340385084113211
 10
136.157956514985
 20
680.6362869098941
 42
0.0
 10
112.1791026220345
 20
666.6486337437093
 42
0.2667503951500854
 10
109.6984561901614
 20
662.3297383295125
 42
0.0
 10
109.6984561901614
 20
657.3297962968281
 42
0.0
 10
108.6984561901614
 20
657.3297962968281
 42
0.0
 10
108.6984561901613
 20
662.3297383295123
 42
-0.2662608607120724
 10
111.6657615684867
 20
667.506876856891
 42
0.0
 10
135.6984561902132
 20
681.5259487195642
 42
-0.1316524975848892
 97
        0
 92
        7
 72
     1
 73
     1
 93
        8
 10
108.6984561901613
 20
617.3297962968281
 42
0.0
 10
109.6984561901613
 20
617.3297962968281
 42
0.0
 10
109.6984561901612
 20
598.3297962968286
 42
-0.4142135623731166
 10
103.6984561901612
 20
592.3297962968283
 42
0.0
 10
100.6984561901612
 20
592.3297962968283
 42
0.0
 10
100.6984561901613
 20
593.3297962968286
 42
0.0
 10
103.6984561901614
 20
593.3297962968286
 42
0.4142135623730752
 10
108.698456190161
 20
598.3297962968286
 42
0.0
 97
        0
 92
        7
 72
     0
 73
     1
 93
        4
 10
88.69845619016141
 20
593.3297962968283
 10
92.69845619016129
 20
593.3297962968285
 10
92.69845619016118
 20
592.3297962968283
 10
88.6984561901613
 20
592.3297962968283
 97
        0
 92
        7
 72
     1
 73
     1
 93
        8
 10
327.6984561901611
 20
598.3297962968276
 42
0.0
 10
327.6984561901613
 20
617.3297962968271
 42
0.0
 10
328.6984561901613
 20
617.3297962968271
 42
0.0
 10
328.6984561901613
 20
598.3297962968276
 42
0.4142135623730909
 10
333.6984561901611
 20
593.3297962968277
 42
0.0
 10
348.6984561901613
 20
593.3297962968272
 42
0.0
 10
348.6984561901615
 20
592.3297962968272
 42
0.0
 10
333.6984561901611
 20
592.3297962968272
 42
-0.4142135623731175
 97
        0
 92
        7
 72
     1
 73
     1
 93
       40
 10
241.7950305083512
 20
682.5797962968274
 42
0.2679491924310875
 10
241.3620178064589
 20
682.8297962968274
 42
0.0
 10
241.1620178064586
 20
682.8297962968274
 42
0.2679491924312574
 10
240.7290051045662
 20
682.5797962968277
 42
-0.267949192431145
 10
238.563941595105
 20
681.3297962968274
 42
0.0
 10
236.5050940178126
 20
681.3297962968274
 42
-0.2679491924311416
 10
234.3400305083513
 20
682.5797962968277
 42
0.2679491924310647
 10
233.9070178064592
 20
682.8297962968274
 42
0.0
 10
233.7070178064587
 20
682.8297962968274
 42
0.267949192430994
 10
233.2740051045669
 20
682.5797962968274
 42
-0.2679491924311175
 10
231.1089415951058
 20
681.3297962968274
 42
0.0
 10
224.6550940178115
 20
681.3297962968274
 42
-0.2679491924310871
 10
222.4900305083507
 20
682.5797962968272
 42
0.2679491924312534
 10
222.0570178064584
 20
682.8297962968274
 42
0.0
 10
218.6984561901616
 20
682.8297962968274
 42
0.0
 10
218.6984561901616
 20
683.8297962968274
 42
0.0
 10
222.0570178064588
 20
683.8297962968274
 42
-0.2679491924310706
 10
223.3560559121352
 20
683.0797962968274
 42
0.2679491924311357
 10
224.655094017812
 20
682.3297962968275
 42
0.0
 10
231.1089415951058
 20
682.3297962968275
 42
0.2679491924310962
 10
232.4079797007823
 20
683.0797962968274
 42
-0.2859076546238522
 10
233.8070178064588
 20
683.826459251537
 42
-0.2859076546238809
 10
235.2060559121358
 20
683.0797962968274
 42
0.2679491924311237
 10
236.5050940178123
 20
682.3297962968275
 42
0.0
 10
238.5639415951048
 20
682.3297962968275
 42
0.2679491924311723
 10
239.8629797007818
 20
683.0797962968274
 42
-0.2859076546238861
 10
241.2620178064585
 20
683.826459251537
 42
-0.2859076546239122
 10
242.6610559121355
 20
683.0797962968274
 42
0.267949192431137
 10
243.9600940178121
 20
682.3297962968272
 42
0.0
 10
298.6984561901616
 20
682.3297962968267
 42
-0.1316524975836561
 10
301.6984561900854
 20
681.5259487195776
 42
0.0
 10
325.7311508118662
 20
667.5068768568726
 42
-0.2662608607105233
 10
328.6984561901615
 20
662.3297383295119
 42
0.0
 10
328.6984561901615
 20
657.3297962968272
 42
0.0
 10
327.6984561901613
 20
657.3297962968272
 42
0.0
 10
327.6984561901613
 20
662.3297383295119
 42
0.2667503951500889
 10
325.2178097582885
 20
666.6486337437081
 42
0.0
 10
301.2389558653477
 20
680.6362869098875
 42
0.1340385084119114
 10
298.6984561901616
 20
681.3297962968269
 42
0.0
 10
243.9600940178123
 20
681.3297962968272
 42
-0.2679491924311331
 97
        0
 75
     0
 76
     1
 52
0.0
 41
20.0
 77
     0
 78
     1
 53
134.9999999999997
 43
457.1419277448344
 44
175.5034459483131
 45
1.767766952966376
 46
1.767766952966361
 79
     0
 47
0.2376111440341236
 98
        5
 10
156.5883785284355
 20
682.1246190797458
 10
108.9076642164437
 20
608.4603242013408
 10
90.3777883167746
 20
593.1124031697538
 10
341.8254652926412
 20
592.6886628386273
 10
291.4071546952318
 20
682.0304553594785
  0
DIMENSION
  5
E18
330
1E
100
AcDbEntity
  8
BEM
100
AcDbDimension
  2
*D6
 10
328.6984561901615
 20
692.5673705025679
 30
0.0
 11
218.6984561901614
 21
699.0673705025678
 31
0.0
 70
    32
  1
%%c<>
 71
     5
 42
220.0000000000002
  3
Standard
100
AcDbAlignedDimension
 13
108.6984561901613
 23
662.3297383295128
 33
0.0
 14
328.6984561901615
 24
662.3297383295119
 34
0.0
100
AcDbRotatedDimension
1001
ACAD
1000
DSTYLE
1002
{
1070
    40
1040
2.0
1070
    41
1040
3.5
1070
    42
1040
1.0
1070
    43
1040
7.0
1070
    44
1040
1.0
1070
    73
1070
     0
1070
    74
1070
     0
1070
    77
1070
     1
1070
    78
1070
     8
1070
    79
1070
     2
1070
   140
1040
3.5
1070
   141
1040
1.5
1070
   146
1040
0.5142857142857144
1070
   147
1040
1.5
1070
   172
1070
     1
1070
   178
1070
     1
1070
   179
1070
     2
1070
   271
1070
     2
1070
   272
1070
     2
1070
   284
1070
     8
1070
   285
1070
     8
1070
   286
1070
     8
1002
}
  0
DIMENSION
  5
E19
330
1E
100
AcDbEntity
  8
BEM
100
AcDbDimension
  2
*D7
 10
348.6984561901613
 20
707.5805037099544
 30
0.0
 11
218.6984561901614
 21
714.0805037099544
 31
0.0
 70
    32
  1
%%c<>
 71
     5
 42
259.9999999999999
  3
Standard
100
AcDbAlignedDimension
 13
88.69845619016141
 23
593.3297962968283
 33
0.0
 14
348.6984561901613
 24
593.3297962968272
 34
0.0
100
AcDbRotatedDimension
1001
ACAD
1000
DSTYLE
1002
{
1070
    40
1040
2.0
1070
    41
1040
3.5
1070
    42
1040
1.0
1070
    43
1040
7.0
1070
    44
1040
1.0
1070
    73
1070
     0
1070
    74
1070
     0
1070
    77
1070
     1
1070
    78
1070
     8
1070
    79
1070
     2
1070
   140
1040
3.5
1070
   141
1040
1.5
1070
   146
1040
0.5142857142857144
1070
   147
1040
1.5
1070
   172
1070
     1
1070
   178
1070
     1
1070
   179
1070
     2
1070
   271
1070
     2
1070
   272
1070
     2
1070
   284
1070
     8
1070
   285
1070
     8
1070
   286
1070
     8
1002
}
  0
LINE
  5
E1A
330
1E
100
AcDbEntity
  8
TEXT
 62
     2
100
AcDbLine
 10
328.3482949876435
 20
640.3967000711596
 30
0.0
 11
366.6851591607897
 21
645.9746873647652
 31
0.0
  0
LINE
  5
E1B
330
1E
100
AcDbEntity
  8
TEXT
 62
     2
100
AcDbLine
 10
326.1597415026259
 20
576.7742959866954
 30
0.0
 11
367.0765527763301
 21
600.292915577824
 31
0.0
  0
HATCH
  5
E1C
330
1E
100
AcDbEntity
  8
SCHRAFF
100
AcDbHatch
 10
0.0
 20
0.0
 30
0.0
210
0.0
220
0.0
230
1.0
  2
_USER
 70
     0
 71
     0
 91
        4
 92
        7
 72
     0
 73
     1
 93
        4
 10
328.8000809863788
 20
575.829796296829
 10
328.8000809863788
 20
577.3297962968288
 10
279.6984561901613
 20
577.3297962968288
 10
279.6984561901612
 20
575.8297962968287
 97
        0
 92
        7
 72
     0
 73
     1
 93
        4
 10
253.9984561901613
 20
577.3297962968288
 10
253.9984561901613
 20
575.8297962968287
 10
279.6984561901613
 20
575.829796296829
 10
279.6984561901613
 20
577.3297962968288
 97
        0
 92
        7
 72
     0
 73
     1
 93
        4
 10
183.3984561901613
 20
575.8297962968286
 10
183.3984561901612
 20
577.3297962968285
 10
96.69845619016124
 20
577.3297962968284
 10
96.69845619016124
 20
575.8297962968283
 97
        0
 92
        7
 72
     0
 73
     1
 93
        4
 10
96.69845619016129
 20
575.8297962968283
 10
96.69845619016129
 20
577.3297962968285
 10
83.6984561901613
 20
577.3297962968284
 10
83.6984561901613
 20
575.8297962968283
 97
        0
 75
     0
 76
     0
 52
135.0
 41
2.0
 77
     0
 78
     1
 53
135.0
 43
-6.301543809838648
 44
62.40328366918896
 45
-1.414213562373095
 46
-1.414213562373094
 79
     0
 47
0.3414825388743071
 98
        4
 10
307.3981332005933
 20
576.3746179719101
 10
265.3814437392993
 20
576.7161008267271
 10
176.9072768237606
 20
576.3746179719101
 10
91.50750267792503
 20
576.033135117093
  0
LINE
  5
E1D
330
1E
100
AcDbEntity
  8
STEMPEL
100
AcDbLine
 10
284.6984561901613
 20
592.3297962968283
 30
0.0
 11
274.6984561901613
 21
592.3297962968283
 31
0.0
  0
LINE
  5
E1E
330
1E
100
AcDbEntity
  8
STEMPEL
100
AcDbLine
 10
274.6984561901613
 20
577.3297962968284
 30
0.0
 11
274.6984561901613
 21
592.3297962968283
 31
0.0
  0
LINE
  5
E1F
330
1E
100
AcDbEntity
  8
STEMPEL
100
AcDbLine
 10
284.6984561901613
 20
577.3297962968284
 30
0.0
 11
284.6984561901613
 21
592.3297962968283
 31
0.0
  0
LINE
  5
E20
330
1E
100
AcDbEntity
  8
MITTEL
100
AcDbLine
 10
279.6984561901613
 20
570.8297962968286
 30
0.0
 11
279.6984561901613
 21
597.3297962968283
 31
0.0
  0
LINE
  5
E21
102
{ACAD_REACTORS
330
E7B
102
}
330
1E
100
AcDbEntity
  8
STEMPEL
100
AcDbLine
 10
328.7000809863788
 20
575.829796296829
 30
0.0
 11
83.6984561901613
 21
575.8297962968283
 31
0.0
  0
LINE
  5
E22
330
1E
100
AcDbEntity
  8
STEMPEL
100
AcDbLine
 10
328.7000809863788
 20
577.3297962968288
 30
0.0
 11
328.7000809863788
 21
575.8297962968286
 31
0.0
  0
LINE
  5
E23
330
1E
100
AcDbEntity
  8
STEMPEL
100
AcDbLine
 10
328.7000809863788
 20
577.3297962968288
 30
0.0
 11
83.69845619016135
 21
577.3297962968284
 31
0.0
  0
ELLIPSE
  5
E24
330
1E
100
AcDbEntity
  8
STEMPEL
100
AcDbEllipse
 10
273.5704663592826
 20
649.8297962968276
 30
0.0
 11
0.0000000000000334
 21
7.5
 31
0.0
210
0.0
220
0.0
230
-1.0
 40
0.8660254037843856
 41
4.712388980384689
 42
6.24459510668465
  0
ELLIPSE
  5
E25
330
1E
100
AcDbEntity
  8
STEMPEL
100
AcDbEllipse
 10
273.0692893638407
 20
649.8297962968276
 30
0.0
 11
0.0000000000000334
 21
7.5
 31
0.0
210
0.0
220
0.0
230
-1.0
 40
0.8660254037843856
 41
4.712388980384689
 42
7.853981633974482
  0
ELLIPSE
  5
E26
330
1E
100
AcDbEntity
  8
STEMPEL
100
AcDbEllipse
 10
273.5704663592826
 20
624.8297962968276
 30
0.0
 11
-0.0000000000000334
 21
-7.5
 31
0.0
210
0.0
220
0.0
230
1.0
 40
0.8660254037843856
 41
4.712388980384689
 42
6.24459510668465
  0
ELLIPSE
  5
E27
330
1E
100
AcDbEntity
  8
STEMPEL
100
AcDbEllipse
 10
273.0692893638407
 20
624.8297962968276
 30
0.0
 11
-0.0000000000000334
 21
-7.5
 31
0.0
210
0.0
220
0.0
230
1.0
 40
0.8660254037843856
 41
4.712388980384689
 42
7.853981633974482
  0
LINE
  5
E28
330
1E
100
AcDbEntity
  8
STEMPEL
100
AcDbLine
 10
267.0752758308997
 20
649.8297962968279
 30
0.0
 11
267.0752758308997
 21
624.8297962968276
 31
0.0
  0
LINE
  5
E29
330
1E
100
AcDbEntity
  8
STEMPEL
100
AcDbLine
 10
279.5644798922235
 20
649.8297962968276
 30
0.0
 11
279.5644798922235
 21
624.8297962968292
 31
0.0
  0
LINE
  5
E2A
330
1E
100
AcDbEntity
  8
STEMPEL
100
AcDbLine
 10
266.5740988354578
 20
649.8297962968279
 30
0.0
 11
266.5740988354575
 21
624.8297962968276
 31
0.0
  0
LWPOLYLINE
  5
E2B
330
1E
100
AcDbEntity
  8
STEMPEL
100
AcDbPolyline
 90
       10
 70
   128
 43
0.0
 10
269.963530130108
 20
592.3297962968275
 10
269.4908001723543
 20
592.4209497787543
 10
269.0324338751541
 20
592.6916405721121
 10
268.6023584665033
 20
593.1336438741209
 10
268.2136415700652
 20
593.7335296381138
 10
267.8780941520374
 20
594.4730706387085
 10
267.6059116509218
 20
595.3297962968277
 10
267.4053641942837
 20
596.2776754368737
 10
267.2825453151113
 20
597.2879072308264
 10
267.2411868028989
 20
598.329796296828
  0
LINE
  5
E2C
330
1E
100
AcDbEntity
  8
STEMPEL
100
AcDbLine
 10
267.2411868028989
 20
604.8297962968257
 30
0.0
 11
267.2411868028989
 21
598.3297962968292
 31
0.0
  0
LINE
  5
E2D
330
1E
100
AcDbEntity
  8
STEMPEL
100
AcDbLine
 10
278.9460383363801
 20
604.8297962968256
 30
0.0
 11
278.9460383363801
 21
598.329796296829
 31
0.0
  0
LINE
  5
E2E
330
1E
100
AcDbEntity
  8
STEMPEL
100
AcDbLine
 10
279.5562327842424
 20
604.8297962968256
 30
0.0
 11
279.5562327842424
 21
598.329796296829
 31
0.0
  0
LINE
  5
E2F
330
1E
100
AcDbEntity
  8
STEMPEL
100
AcDbLine
 10
268.4586982356279
 20
593.3297962968275
 30
0.0
 11
254.9840895136336
 21
593.3297962968277
 31
0.0
  0
LWPOLYLINE
  5
E30
330
1E
100
AcDbEntity
  8
STEMPEL
100
AcDbPolyline
 90
       18
 70
   128
 43
0.0
 10
-267.2411868028989
 20
604.8297962968257
 10
-267.1232057676177
 20
606.2079176804502
 10
-266.773280364428
 20
607.5391087932299
 10
-266.2033268832463
 20
608.7780375184068
 10
-265.4327544062903
 20
609.8825136241759
 10
-264.4878038550628
 20
610.8149255014288
 10
-263.4006543872426
 20
611.5435209819901
 10
-262.2083275740645
 20
612.0434886206234
 10
-260.9514266751125
 20
612.2978026190401
 10
-259.6727539430142
 20
612.2978026190401
 10
-258.4158530440625
 20
612.0434886206234
 10
-257.2235262308843
 20
611.5435209819902
 10
-256.1363767630642
 20
610.8149255014288
 10
-255.1914262118367
 20
609.8825136241759
 10
-254.4208537348805
 20
608.7780375184068
 10
-253.8509002536987
 20
607.5391087932301
 10
-253.500974850509
 20
606.2079176804503
 10
-253.3829938152281
 20
604.8297962968258
210
0.0
220
0.0
230
-1.0
  0
LINE
  5
E31
330
1E
100
AcDbEntity
  8
STEMPEL
100
AcDbLine
 10
309.9895657165134
 20
624.8297962968275
 30
0.0
 11
309.9895657165134
 21
649.8297962968292
 31
0.0
  0
LINE
  5
E32
330
1E
100
AcDbEntity
  8
STEMPEL
100
AcDbLine
 10
309.1215016968247
 20
649.8297962968276
 30
0.0
 11
309.1215016968245
 21
624.8297962968291
 31
0.0
  0
LWPOLYLINE
  5
E33
330
1E
100
AcDbEntity
  8
STEMPEL
100
AcDbPolyline
 90
       10
 70
   128
 43
0.0
 10
294.5089415762732
 20
592.3297962968274
 10
293.8729372162722
 20
592.4209497787542
 10
293.256257526916
 20
592.691640572112
 10
292.6776400085109
 20
593.1336438741209
 10
292.1546656615592
 20
593.7335296381136
 10
291.7032247969546
 20
594.4730706387083
 10
291.3370342169287
 20
595.3297962968276
 10
291.0672204369537
 20
596.2776754368737
 10
290.901981612202
 20
597.2879072308262
 10
290.8463384407489
 20
598.3297962968279
  0
LINE
  5
E34
330
1E
100
AcDbEntity
  8
STEMPEL
100
AcDbLine
 10
290.8463384407489
 20
604.8297962968256
 30
0.0
 11
290.8463384407489
 21
598.329796296829
 31
0.0
  0
LINE
  5
E35
330
1E
100
AcDbEntity
  8
STEMPEL
100
AcDbLine
 10
292.4843615168543
 20
593.3297962968274
 30
0.0
 11
281.1942558603473
 21
593.3297962968274
 31
0.0
  0
LWPOLYLINE
  5
E36
330
1E
100
AcDbEntity
  8
STEMPEL
100
AcDbPolyline
 90
        7
 70
   128
 43
0.0
 10
303.1501074134399
 20
593.3297962968274
 10
302.5881784401756
 20
593.9391341986682
 10
302.1062405005884
 20
594.6665644719575
 10
301.7172559208386
 20
595.4925219659012
 10
301.4316869297322
 20
596.3947915163635
 10
301.2572142639363
 20
597.3491054506066
 10
301.1985305849214
 20
598.3297962968279
  0
LINE
  5
E37
330
1E
100
AcDbEntity
  8
STEMPEL
100
AcDbLine
 10
300.4033096981006
 20
604.8297962968256
 30
0.0
 11
300.4033096981006
 21
598.329796296829
 31
0.0
  0
LINE
  5
E38
330
1E
100
AcDbEntity
  8
STEMPEL
100
AcDbLine
 10
301.1985305849214
 20
604.8297962968256
 30
0.0
 11
301.1985305849214
 21
598.329796296829
 31
0.0
  0
LINE
  5
E39
330
1E
100
AcDbEntity
  8
STEMPEL
100
AcDbLine
 10
309.5347311332325
 20
604.8297962968256
 30
0.0
 11
309.5347311332325
 21
598.329796296829
 31
0.0
  0
LWPOLYLINE
  5
E3A
330
1E
100
AcDbEntity
  8
STEMPEL
100
AcDbPolyline
 90
       10
 70
   128
 43
0.0
 10
304.7670158727067
 20
592.3297962968274
 10
304.0092662476125
 20
592.4209497787542
 10
303.2745404614368
 20
592.691640572112
 10
302.5851627854038
 20
593.1336438741208
 10
301.9620796113575
 20
593.7335296381136
 10
301.424223006246
 20
594.4730706387083
 10
300.9879354708469
 20
595.3297962968276
 10
300.6664733811517
 20
596.2776754368737
 10
300.4696042000876
 20
597.2879072308262
 10
300.4033096981009
 20
598.3297962968279
  0
LWPOLYLINE
  5
E3B
330
1E
100
AcDbEntity
  8
STEMPEL
100
AcDbPolyline
 90
       10
 70
   128
 43
0.0
 10
-305.7642413024876
 20
612.3297962968288
 10
-304.9714139566279
 20
612.2158544444203
 10
-304.202676268482
 20
611.8774909527229
 10
-303.4813859437045
 20
611.3249868252118
 10
-302.8294590238231
 20
610.5751296202206
 10
-302.2667039784074
 20
609.6507033694772
 10
-301.8102198347444
 20
608.5797962968278
 10
-301.4738766325477
 20
607.3949473717703
 10
-301.2678939898176
 20
606.1321576293294
 10
-301.1985305849216
 20
604.8297962968272
210
0.0
220
0.0
230
-1.0
  0
LWPOLYLINE
  5
E3C
330
1E
100
AcDbEntity
  8
STEMPEL
100
AcDbPolyline
 90
       18
 70
   128
 43
0.0
 10
-309.5347311332325
 20
604.8297962968256
 10
-309.4569912319723
 20
606.2079176804501
 10
-309.2264188672905
 20
607.5391087932298
 10
-308.8508659045253
 20
608.7780375184065
 10
-308.3431213493977
 20
609.8825136241758
 10
-307.7204758337598
 20
610.8149255014287
 10
-307.0041328038658
 20
611.5435209819899
 10
-306.2184864624398
 20
612.0434886206233
 10
-305.3902910533604
 20
612.2978026190398
 10
-304.5477497779728
 20
612.2978026190398
 10
-303.7195543688933
 20
612.0434886206233
 10
-302.9339080274674
 20
611.5435209819899
 10
-302.2175649975734
 20
610.8149255014287
 10
-301.5949194819354
 20
609.8825136241758
 10
-301.0871749268076
 20
608.7780375184065
 10
-300.7116219640425
 20
607.5391087932298
 10
-300.4810495993606
 20
606.2079176804502
 10
-300.4033096981006
 20
604.8297962968256
210
0.0
220
0.0
230
-1.0
  0
LWPOLYLINE
  5
E3D
330
1E
100
AcDbEntity
  8
STEMPEL
100
AcDbPolyline
 90
        7
 70
   128
 43
0.0
 10
281.1942558603478
 20
593.3297962968274
 10
280.7226102597811
 20
593.9391341986683
 10
280.3181037833981
 20
594.6665644719575
 10
279.9916161409092
 20
595.4925219659012
 10
279.751928627501
 20
596.3947915163635
 10
279.6054879398748
 20
597.3491054506069
 10
279.5562327842424
 20
598.3297962968279
  0
LWPOLYLINE
  5
E3E
330
1E
100
AcDbEntity
  8
STEMPEL
100
AcDbPolyline
 90
       10
 70
   128
 43
0.0
 10
282.6086414719043
 20
592.3297962968274
 10
281.9726371119034
 20
592.4209497787542
 10
281.3559574225471
 20
592.691640572112
 10
280.7773399041421
 20
593.1336438741209
 10
280.2543655571903
 20
593.7335296381137
 10
279.8029246925858
 20
594.4730706387084
 10
279.4367341125599
 20
595.3297962968276
 10
279.1669203325848
 20
596.2776754368737
 10
279.0016815078331
 20
597.2879072308262
 10
278.9460383363801
 20
598.3297962968279
  0
LWPOLYLINE
  5
E3F
330
1E
100
AcDbEntity
  8
STEMPEL
100
AcDbPolyline
 90
        9
 70
   128
 43
0.0
 10
-285.201285612484
 20
612.3199303746494
 10
-284.0848778911129
 20
612.1126232382423
 10
-283.0195986393708
 20
611.6433685107884
 10
-282.0437636563324
 20
610.9290442736198
 10
-281.1924716234744
 20
609.9953432302235
 10
-280.496341680738
 20
608.8758485950632
 10
-279.9804121220466
 20
607.6108261777244
 10
-279.6632398218307
 20
606.2457761085152
 10
-279.5562327842426
 20
604.8297962968272
210
0.0
220
0.0
230
-1.0
  0
LWPOLYLINE
  5
E40
330
1E
100
AcDbEntity
  8
STEMPEL
100
AcDbPolyline
 90
       18
 70
   128
 43
0.0
 10
-290.8463384407491
 20
604.8297962968256
 10
-290.7450258289448
 20
606.2079176804502
 10
-290.4445380730156
 20
607.5391087932298
 10
-289.9551079230944
 20
608.7780375184065
 10
-289.2934023359298
 20
609.8825136241758
 10
-288.4819549016647
 20
610.8149255014287
 10
-287.548398489449
 20
611.5435209819899
 10
-286.5245242432229
 20
612.0434886206233
 10
-285.4451989724402
 20
612.2978026190401
 10
-284.3471778046892
 20
612.2978026190401
 10
-283.2678525339063
 20
612.0434886206233
 10
-282.2439782876802
 20
611.5435209819899
 10
-281.3104218754645
 20
610.8149255014287
 10
-280.4989744411994
 20
609.8825136241759
 10
-279.8372688540351
 20
608.7780375184067
 10
-279.3478387041139
 20
607.5391087932298
 10
-279.0473509481846
 20
606.2079176804502
 10
-278.9460383363803
 20
604.8297962968256
210
0.0
220
0.0
230
-1.0
  0
ARC
  5
E41
330
1E
100
AcDbEntity
  8
HILF
100
AcDbCircle
 10
279.6984561901613
 20
580.0885042696029
 30
0.0
 40
14.94074366520046
100
AcDbArc
 50
78.85962783889434
 51
88.16153752705751
  0
ARC
  5
E42
330
1E
100
AcDbEntity
  8
HILF
100
AcDbCircle
 10
284.0285832090835
 20
591.1873229731245
 30
0.0
 40
3.841839622940954
100
AcDbArc
 50
67.9324721810082
 51
112.0675278189918
  0
ARC
  5
E43
330
1E
100
AcDbEntity
  8
STEMPEL
100
AcDbCircle
 10
279.6984561901613
 20
579.7225368751922
 30
0.0
 40
20.20725942163691
100
AcDbArc
 50
81.78678929826011
 51
90.40326439207246
  0
LINE
  5
E44
330
1E
100
AcDbEntity
  8
STEMPEL
100
AcDbLine
 10
284.6984561901613
 20
599.9297962968292
 30
0.0
 11
285.4719588820576
 21
599.7225368751921
 31
0.0
  0
ARC
  5
E45
330
1E
100
AcDbEntity
  8
STEMPEL
100
AcDbCircle
 10
284.0285832090835
 20
594.800259158306
 30
0.0
 40
5.129537138523076
100
AcDbArc
 50
73.65710669401657
 51
106.3428933059834
  0
LINE
  5
E46
330
1E
100
AcDbEntity
  8
STEMPEL
100
AcDbLine
 10
286.4365672689904
 20
594.3966272382612
 30
0.0
 11
280.4682093856207
 21
594.3966272382612
 31
0.0
  0
LINE
  5
E47
330
1E
100
AcDbEntity
  8
STEMPEL
100
AcDbLine
 10
286.2484561901613
 20
593.329796296829
 30
0.0
 11
281.1942558603465
 21
593.329796296829
 31
0.0
  0
LINE
  5
E48
330
1E
100
AcDbEntity
  8
STEMPEL
100
AcDbLine
 10
282.5852075361094
 20
599.7225368751921
 30
0.0
 11
282.5852075361094
 21
594.7477159788284
 31
0.0
  0
LINE
  5
E49
330
1E
100
AcDbEntity
  8
STEMPEL
100
AcDbLine
 10
285.4719588820576
 20
599.7225368751921
 30
0.0
 11
285.4719588820576
 21
594.7477159788284
 31
0.0
  0
LINE
  5
E4A
330
1E
100
AcDbEntity
  8
STEMPEL
100
AcDbLine
 10
284.6984561901613
 20
599.9297962968292
 30
0.0
 11
279.5562327842424
 21
599.9297962968292
 31
0.0
  0
LINE
  5
E4B
330
1E
100
AcDbEntity
  8
STEMPEL
100
AcDbLine
 10
286.4365672689904
 20
594.3966272382612
 30
0.0
 11
285.4719588820576
 21
594.7477159788284
 31
0.0
  0
ARC
  5
E4C
330
1E
100
AcDbEntity
  8
STEMPEL
100
AcDbCircle
 10
286.2484561901613
 20
593.879796296829
 30
0.0
 40
0.5500000000000009
100
AcDbArc
 50
270.0
 51
69.99999999999935
  0
LINE
  5
E4D
330
1E
100
AcDbEntity
  8
STEMPEL
100
AcDbLine
 10
211.1984561901614
 20
649.8297962968281
 30
0.0
 11
211.1984561901614
 21
624.829796296828
 31
0.0
  0
LINE
  5
E4E
330
1E
100
AcDbEntity
  8
STEMPEL
100
AcDbLine
 10
184.0139185650944
 20
604.8297962968245
 30
0.0
 11
184.0139185650944
 21
598.3297962968294
 31
0.0
  0
LWPOLYLINE
  5
E4F
330
1E
100
AcDbEntity
  8
STEMPEL
100
AcDbPolyline
 90
       10
 70
   128
 43
0.0
 10
-195.7574093493663
 20
592.3297962968279
 10
-195.9851619122348
 20
592.4209497787546
 10
-196.205994328729
 20
592.6916405721124
 10
-196.4131967176202
 20
593.1336438741213
 10
-196.6004733391715
 20
593.733529638114
 10
-196.7621338880033
 20
594.4730706387088
 10
-196.8932663901439
 20
595.3297962968281
 10
-196.9898864508719
 20
596.2776754368742
 10
-197.049058318534
 20
597.2879072308266
 10
-197.068984085874
 20
598.3297962968284
210
0.0
220
0.0
230
-1.0
  0
LINE
  5
E50
330
1E
100
AcDbEntity
  8
STEMPEL
100
AcDbLine
 10
197.068984085874
 20
604.8297962968277
 30
0.0
 11
197.068984085874
 21
598.3297962968294
 31
0.0
  0
LWPOLYLINE
  5
E51
330
1E
100
AcDbEntity
  8
STEMPEL
100
AcDbPolyline
 90
       10
 70
   128
 43
0.0
 10
-210.6290822699739
 20
592.3297962968279
 10
-210.8568348328425
 20
592.4209497787546
 10
-211.0776672493367
 20
592.6916405721124
 10
-211.2848696382278
 20
593.1336438741213
 10
-211.4721462597791
 20
593.733529638114
 10
-211.6338068086109
 20
594.4730706387088
 10
-211.7649393107515
 20
595.329796296828
 10
-211.8615593714794
 20
596.2776754368739
 10
-211.9207312391418
 20
597.2879072308265
 10
-211.9406570064816
 20
598.3297962968282
210
0.0
220
0.0
230
-1.0
  0
LWPOLYLINE
  5
E52
330
1E
100
AcDbEntity
  8
STEMPEL
100
AcDbPolyline
 90
        7
 70
   128
 43
0.0
 10
-211.2232490345382
 20
593.3297962968278
 10
-211.3921448803067
 20
593.9391341986686
 10
-211.5369982688792
 20
594.6665644719579
 10
-211.6539131864463
 20
595.4925219659015
 10
-211.739745059464
 20
596.3947915163638
 10
-211.7921853319097
 20
597.349105450607
 10
-211.809823556795
 20
598.3297962968282
210
0.0
220
0.0
230
-1.0
  0
LINE
  5
E53
330
1E
100
AcDbEntity
  8
STEMPEL
100
AcDbLine
 10
211.8098235567952
 20
604.8297962968259
 30
0.0
 11
211.8098235567952
 21
598.3297962968293
 31
0.0
  0
LINE
  5
E54
330
1E
100
AcDbEntity
  8
STEMPEL
100
AcDbLine
 10
211.9406570064816
 20
604.8297962968243
 30
0.0
 11
211.9406570064816
 21
598.3297962968293
 31
0.0
  0
LINE
  5
E55
330
1E
100
AcDbEntity
  8
STEMPEL
100
AcDbLine
 10
196.482409563617
 20
593.3297962968278
 30
0.0
 11
211.2232490345384
 21
593.3297962968278
 31
0.0
  0
LWPOLYLINE
  5
E56
330
1E
100
AcDbEntity
  8
STEMPEL
100
AcDbPolyline
 90
       18
 70
   128
 43
0.0
 10
197.0689840858743
 20
604.8297962968261
 10
197.1955933320505
 20
606.2079176804506
 10
197.5711095445522
 20
607.5391087932302
 10
198.1827449691446
 20
608.778037518407
 10
199.009671095019
 20
609.8825136241762
 10
200.0237279447472
 20
610.8149255014291
 10
201.1903830285389
 20
611.5435209819905
 10
202.4699073067643
 20
612.0434886206237
 10
203.8187281147485
 20
612.2978026190403
 10
205.1909129776077
 20
612.2978026190403
 10
206.5397337855918
 20
612.0434886206237
 10
207.819258063817
 20
611.5435209819905
 10
208.9859131476087
 20
610.8149255014291
 10
209.9999699973371
 20
609.8825136241762
 10
210.8268961232114
 20
608.778037518407
 10
211.4385315478037
 20
607.5391087932302
 10
211.8140477603054
 20
606.2079176804505
 10
211.9406570064819
 20
604.8297962968259
  0
LWPOLYLINE
  5
E57
330
1E
100
AcDbEntity
  8
STEMPEL
100
AcDbPolyline
 90
        9
 70
   128
 43
0.0
 10
204.4394038214346
 20
612.3295060566008
 10
205.8807438053123
 20
612.1742046626771
 10
207.2648247087618
 20
611.7398044156628
 10
208.5390493212938
 20
611.0428131953876
 10
209.6549951410236
 20
610.1097177439419
 10
210.5702545044767
 20
608.9759771285984
 10
211.2500461432519
 20
607.6846752425289
 10
211.6685369259012
 20
606.2848835503693
 10
211.8098235567952
 20
604.8297962968275
  0
LINE
  5
E58
330
1E
100
AcDbEntity
  8
STEMPEL
100
AcDbLine
 10
226.1984561901614
 20
649.8297962968263
 30
0.0
 11
226.1984561901614
 21
624.8297962968263
 31
0.0
  0
LWPOLYLINE
  5
E59
330
1E
100
AcDbEntity
  8
STEMPEL
100
AcDbPolyline
 90
        7
 70
   128
 43
0.0
 10
226.1736633457843
 20
593.3297962968277
 10
226.0047675000158
 20
593.9391341986686
 10
225.859914111443
 20
594.6665644719578
 10
225.7429991938759
 20
595.4925219659014
 10
225.6571673208582
 20
596.3947915163637
 10
225.6047270484126
 20
597.349105450607
 10
225.5870888235272
 20
598.3297962968281
  0
LWPOLYLINE
  5
E5A
330
1E
100
AcDbEntity
  8
STEMPEL
100
AcDbPolyline
 90
       10
 70
   128
 43
0.0
 10
226.7678301103486
 20
592.3297962968276
 10
226.54007754748
 20
592.4209497787544
 10
226.3192451309858
 20
592.6916405721122
 10
226.1120427420945
 20
593.1336438741211
 10
225.9247661205434
 20
593.733529638114
 10
225.7631055717113
 20
594.4730706387087
 10
225.6319730695707
 20
595.3297962968279
 10
225.5353530088428
 20
596.2776754368739
 10
225.4761811411807
 20
597.2879072308264
 10
225.4562553738406
 20
598.3297962968281
  0
LINE
  5
E5B
330
1E
100
AcDbEntity
  8
STEMPEL
100
AcDbLine
 10
225.4562553738406
 20
604.8297962968242
 30
0.0
 11
225.4562553738406
 21
598.3297962968292
 31
0.0
  0
LINE
  5
E5C
330
1E
100
AcDbEntity
  8
STEMPEL
100
AcDbLine
 10
225.5870888235272
 20
604.8297962968258
 30
0.0
 11
225.5870888235272
 21
598.3297962968292
 31
0.0
  0
LWPOLYLINE
  5
E5D
330
1E
100
AcDbEntity
  8
STEMPEL
100
AcDbPolyline
 90
       10
 70
   128
 43
0.0
 10
241.6395030309562
 20
592.3297962968276
 10
241.4117504680876
 20
592.4209497787544
 10
241.1909180515934
 20
592.6916405721121
 10
240.9837156627021
 20
593.1336438741211
 10
240.796439041151
 20
593.7335296381138
 10
240.6347784923189
 20
594.4730706387085
 10
240.5036459901783
 20
595.3297962968279
 10
240.4070259294504
 20
596.2776754368739
 10
240.3478540617882
 20
597.2879072308264
 10
240.3279282944482
 20
598.3297962968281
  0
LINE
  5
E5E
330
1E
100
AcDbEntity
  8
STEMPEL
100
AcDbLine
 10
240.3279282944484
 20
604.8297962968274
 30
0.0
 11
240.3279282944484
 21
598.3297962968292
 31
0.0
  0
LINE
  5
E5F
330
1E
100
AcDbEntity
  8
STEMPEL
100
AcDbLine
 10
240.9145028167052
 20
593.3297962968277
 30
0.0
 11
226.1736633457838
 21
593.3297962968277
 31
0.0
  0
LWPOLYLINE
  5
E60
330
1E
100
AcDbEntity
  8
STEMPEL
100
AcDbPolyline
 90
        9
 70
   128
 43
0.0
 10
-232.9575085588879
 20
612.3295060566006
 10
-231.51616857501
 20
612.174204662677
 10
-230.1320876715604
 20
611.7398044156626
 10
-228.8578630590285
 20
611.0428131953874
 10
-227.7419172392986
 20
610.1097177439417
 10
-226.8266578758455
 20
608.9759771285983
 10
-226.1468662370706
 20
607.6846752425288
 10
-225.728375454421
 20
606.2848835503693
 10
-225.5870888235272
 20
604.8297962968274
210
0.0
220
0.0
230
-1.0
  0
LWPOLYLINE
  5
E61
330
1E
100
AcDbEntity
  8
STEMPEL
100
AcDbPolyline
 90
       18
 70
   128
 43
0.0
 10
-240.3279282944482
 20
604.8297962968258
 10
-240.2013190482717
 20
606.2079176804505
 10
-239.82580283577
 20
607.5391087932301
 10
-239.2141674111777
 20
608.7780375184068
 10
-238.3872412853034
 20
609.8825136241761
 10
-237.373184435575
 20
610.8149255014288
 10
-236.2065293517833
 20
611.5435209819902
 10
-234.9270050735582
 20
612.0434886206234
 10
-233.5781842655741
 20
612.2978026190403
 10
-232.2059994027148
 20
612.2978026190403
 10
-230.8571785947306
 20
612.0434886206234
 10
-229.5776543165052
 20
611.5435209819902
 10
-228.4109992327135
 20
610.8149255014289
 10
-227.3969423829854
 20
609.8825136241762
 10
-226.5700162571109
 20
608.7780375184069
 10
-225.9583808325186
 20
607.5391087932301
 10
-225.5828646200169
 20
606.2079176804505
 10
-225.4562553738406
 20
604.8297962968258
210
0.0
220
0.0
230
-1.0
  0
ARC
  5
E62
330
1E
100
AcDbEntity
  8
STEMPEL
100
AcDbCircle
 10
218.6984561901613
 20
649.8297962968279
 30
0.0
 40
7.5
100
AcDbArc
 50
359.999999999987
 51
179.9999999999739
  0
ARC
  5
E63
330
1E
100
AcDbEntity
  8
STEMPEL
100
AcDbCircle
 10
218.6984561901613
 20
624.8297962968279
 30
0.0
 40
7.5
100
AcDbArc
 50
180.000000000026
 51
0.0000000000130276
  0
LWPOLYLINE
  5
E64
330
1E
100
AcDbEntity
  8
STEMPEL
100
AcDbPolyline
 90
        7
 70
   128
 43
0.0
 10
254.984089513634
 20
593.3297962968277
 10
254.6335242992221
 20
593.9391341986683
 10
254.3328623202834
 20
594.6665644719577
 10
254.0901902583487
 20
595.4925219659014
 10
253.9120350833003
 20
596.3947915163637
 10
253.8031885023197
 20
597.3491054506069
 10
253.766578080905
 20
598.3297962968281
  0
LINE
  5
E65
330
1E
100
AcDbEntity
  8
STEMPEL
100
AcDbLine
 10
253.3829938152281
 20
604.8297962968242
 30
0.0
 11
253.3829938152281
 21
598.3297962968292
 31
0.0
  0
LINE
  5
E66
330
1E
100
AcDbEntity
  8
STEMPEL
100
AcDbLine
 10
253.766578080905
 20
604.8297962968258
 30
0.0
 11
253.766578080905
 21
598.3297962968292
 31
0.0
  0
LWPOLYLINE
  5
E67
330
1E
100
AcDbEntity
  8
STEMPEL
100
AcDbPolyline
 90
       10
 70
   128
 43
0.0
 10
256.1053371424371
 20
592.3297962968276
 10
255.6326071846834
 20
592.4209497787544
 10
255.1742408874832
 20
592.6916405721121
 10
254.7441654788324
 20
593.133643874121
 10
254.3554485823943
 20
593.7335296381138
 10
254.0199011643665
 20
594.4730706387085
 10
253.7477186632509
 20
595.3297962968279
 10
253.5471712066128
 20
596.2776754368738
 10
253.4243523274404
 20
597.2879072308264
 10
253.3829938152281
 20
598.3297962968281
  0
LWPOLYLINE
  5
E68
330
1E
100
AcDbEntity
  8
STEMPEL
100
AcDbPolyline
 90
        9
 70
   128
 43
0.0
 10
-260.5038824418752
 20
612.3269227198659
 10
-259.1796729915454
 20
612.1480898128181
 10
-257.9116935943594
 20
611.6978138954939
 10
-256.7469749062738
 20
610.9927961633547
 10
-255.7287175376671
 20
610.0591864469713
 10
-254.8946896984048
 20
608.9316132879952
 10
-254.2758263362109
 20
607.6518995310435
 10
-253.8950817277369
 20
606.2675110715079
 10
-253.766578080905
 20
604.8297962968274
210
0.0
220
0.0
230
-1.0
  0
ARC
  5
E69
330
1E
100
AcDbEntity
  8
SCHRAFF
100
AcDbCircle
 10
226.4372459769024
 20
575.8297962968286
 30
0.0
 40
5.0
100
AcDbArc
 50
342.5423968762808
 51
17.45760312371915
  0
ARC
  5
E6A
330
1E
100
AcDbEntity
  8
SCHRAFF
100
AcDbCircle
 10
231.4372459769023
 20
575.8297962968286
 30
0.0
 40
5.0
100
AcDbArc
 50
342.5423968762808
 51
17.45760312371915
  0
ARC
  5
E6B
330
1E
100
AcDbEntity
  8
SCHRAFF
100
AcDbCircle
 10
236.4372459769024
 20
575.8297962968286
 30
0.0
 40
5.0
100
AcDbArc
 50
342.5423968762808
 51
17.45760312371915
  0
ARC
  5
E6C
330
1E
100
AcDbEntity
  8
SCHRAFF
100
AcDbCircle
 10
201.5029871516537
 20
575.8297962968286
 30
0.0
 40
5.0
100
AcDbArc
 50
342.5423968762808
 51
17.45760312371915
  0
ARC
  5
E6D
330
1E
100
AcDbEntity
  8
SCHRAFF
100
AcDbCircle
 10
196.5029871516536
 20
575.8297962968286
 30
0.0
 40
5.0
100
AcDbArc
 50
342.5423968762808
 51
17.45760312371915
  0
ARC
  5
E6E
330
1E
100
AcDbEntity
  8
SCHRAFF
100
AcDbCircle
 10
191.5029871516536
 20
575.8297962968286
 30
0.0
 40
5.0
100
AcDbArc
 50
342.5423968762808
 51
17.45760312371915
  0
ARC
  5
E6F
330
1E
100
AcDbEntity
  8
SCHRAFF
100
AcDbCircle
 10
182.3535121547084
 20
575.8297962968287
 30
0.0
 40
1.828088629478462
100
AcDbArc
 50
304.8622016819284
 51
55.13779831807161
  0
HATCH
  5
E70
330
1E
100
AcDbEntity
  8
SCHRAFF
100
AcDbHatch
 10
0.0
 20
0.0
 30
0.0
210
0.0
220
0.0
230
1.0
  2
_USER
 70
     0
 71
     0
 91
        2
 92
        7
 72
     1
 73
     1
 93
        3
 10
183.3984561901613
 20
577.3297962968284
 42
-0.2453357974240878
 10
184.1816007841866
 20
575.829796296829
 42
0.0
 10
183.3984561901614
 20
575.829796296829
 42
0.0
 97
        0
 92
        7
 72
     1
 73
     1
 93
        3
 10
183.3984561901613
 20
575.829796296829
 42
0.0
 10
184.1816007841869
 20
575.829796296829
 42
-0.2453357974242125
 10
183.3984561901613
 20
574.3297962968288
 42
0.0
 97
        0
 75
     0
 76
     0
 52
0.0
 41
0.1
 77
     0
 78
     1
 53
179.9999999999998
 43
443.6984561901597
 44
62.40328366918834
 45
0.0000000000000003
 46
0.1
 79
     0
 47
0.0937308931428171
 98
        2
 10
183.7497033771041
 20
576.2746526382823
 10
183.6559383613293
 20
575.4310741087956
  0
HATCH
  5
E71
330
1E
100
AcDbEntity
  8
SCHRAFF
100
AcDbHatch
 10
0.0
 20
0.0
 30
0.0
210
0.0
220
0.0
230
1.0
  2
_USER
 70
     0
 71
     0
 91
        2
 92
        7
 72
     1
 73
     1
 93
        3
 10
253.9984561901613
 20
577.3297962968284
 42
0.2453357974240914
 10
253.215311596136
 20
575.8297962968287
 42
0.0
 10
253.9984561901613
 20
575.8297962968287
 42
0.0
 97
        0
 92
        7
 72
     1
 73
     1
 93
        3
 10
253.9984561901613
 20
575.8297962968289
 42
0.0
 10
253.2153115961357
 20
575.8297962968289
 42
0.2453357974242161
 10
253.9984561901613
 20
574.3297962968288
 42
0.0
 97
        0
 75
     0
 76
     0
 52
0.0
 41
0.1
 77
     0
 78
     1
 53
0.0
 43
-6.301543809838648
 44
62.40328366918896
 45
0.0
 46
0.1
 79
     0
 47
0.0937308931428171
 98
        2
 10
253.6472090032185
 20
576.2746526382823
 10
253.7409740189933
 20
575.4310741087956
  0
ARC
  5
E72
330
1E
100
AcDbEntity
  8
SCHRAFF
100
AcDbCircle
 10
255.0434002256141
 20
575.8297962968287
 30
0.0
 40
1.828088629478462
100
AcDbArc
 50
124.8622016819284
 51
235.1377983180716
  0
LINE
  5
E73
330
1E
100
AcDbEntity
  8
STEMPEL
100
AcDbLine
 10
184.8579880774182
 20
575.829796296829
 30
0.0
 11
185.6997470319279
 21
566.5468010291297
 31
0.0
  0
LINE
  5
E74
330
1E
100
AcDbEntity
  8
STEMPEL
100
AcDbLine
 10
193.0785360226237
 20
575.8297962968287
 30
0.0
 11
191.2782479390642
 21
565.9514169206842
 31
0.0
  0
LINE
  5
E75
330
1E
100
AcDbEntity
  8
STEMPEL
100
AcDbLine
 10
192.2076038922823
 20
575.8297962968287
 30
0.0
 11
190.3461162138144
 21
565.951416920684
 31
0.0
  0
LINE
  5
E76
330
1E
100
AcDbEntity
  8
STEMPEL
100
AcDbLine
 10
245.1893084880401
 20
575.8297962968287
 30
0.0
 11
247.0507961665081
 21
565.9514169206838
 31
0.0
  0
LINE
  5
E77
330
1E
100
AcDbEntity
  8
STEMPEL
100
AcDbLine
 10
244.3183763576989
 20
575.8297962968287
 30
0.0
 11
246.1186644412583
 21
565.9514169206841
 31
0.0
  0
LINE
  5
E78
330
1E
100
AcDbEntity
  8
STEMPEL
100
AcDbLine
 10
252.5389243029044
 20
575.8297962968287
 30
0.0
 11
251.6971653483945
 21
566.5468010291296
 31
0.0
  0
LINE
  5
E79
330
1E
100
AcDbEntity
  8
STEMPEL
100
AcDbLine
 10
210.1984561901613
 20
575.8297962968287
 30
0.0
 11
212.9252479298456
 21
566.1957625202433
 31
0.0
  0
LINE
  5
E7A
330
1E
100
AcDbEntity
  8
STEMPEL
100
AcDbLine
 10
227.1984561901613
 20
575.8297962968287
 30
0.0
 11
224.471664450477
 21
566.1957625202433
 31
0.0
  0
HATCH
  5
E7B
330
1E
100
AcDbEntity
  8
SCHRAFF
100
AcDbHatch
 10
0.0
 20
0.0
 30
0.0
210
0.0
220
0.0
230
1.0
  2
_USER
 70
     0
 71
     1
 91
        2
 92
        7
 72
     0
 73
     1
 93
        6
 10
253.9984561901613
 20
540.8297962968298
 10
253.5610128725317
 20
535.8297962968284
 10
254.7655966775836
 20
535.8297962968284
 10
255.1984561901611
 20
540.7774031653384
 10
255.1984561901613
 20
575.8297962968287
 10
253.9984561901613
 20
575.8297962968287
 97
        6
330
E21
330
E7D
330
F37
330
F3A
330
F38
330
E7E
 92
        7
 72
     0
 73
     1
 93
        6
 10
183.3984561901613
 20
575.8297962968287
 10
182.1984561901612
 20
575.8297962968286
 10
182.1984561901612
 20
540.7774031653376
 10
182.6313157027388
 20
535.8297962968284
 10
183.8358995077909
 20
535.8297962968284
 10
183.3984561901611
 20
540.8297962968287
 97
        6
330
E21
330
E7F
330
F3B
330
F3A
330
F3C
330
E7C
 75
     0
 76
     0
 52
45.0
 41
2.0
 77
     0
 78
     1
 53
45.0
 43
-6.301543809838648
 44
62.40328366918896
 45
-1.414213562373094
 46
1.414213562373095
 79
     0
 47
0.2778527412201284
 98
        2
 10
254.5827188926387
 20
567.700900625196
 10
183.1501901860615
 20
568.256606064537
  0
LINE
  5
E7C
102
{ACAD_REACTORS
330
E7B
102
}
330
1E
100
AcDbEntity
  8
STEMPEL
100
AcDbLine
 10
183.3984561901613
 20
577.3297962968284
 30
0.0
 11
183.3984561901612
 21
540.8297962968283
 31
0.0
  0
LINE
  5
E7D
102
{ACAD_REACTORS
330
E7B
102
}
330
1E
100
AcDbEntity
  8
STEMPEL
100
AcDbLine
 10
253.9984561901613
 20
577.3297962968284
 30
0.0
 11
253.9984561901613
 21
540.8297962968283
 31
0.0
  0
LINE
  5
E7E
102
{ACAD_REACTORS
330
E7B
102
}
330
1E
100
AcDbEntity
  8
STEMPEL
100
AcDbLine
 10
255.1984561901614
 20
575.8297962968286
 30
0.0
 11
255.1984561901611
 21
540.7774031653389
 31
0.0
  0
LINE
  5
E7F
102
{ACAD_REACTORS
330
E7B
102
}
330
1E
100
AcDbEntity
  8
STEMPEL
100
AcDbLine
 10
182.1984561901612
 20
575.8297962968283
 30
0.0
 11
182.1984561901612
 21
540.7774031653379
 31
0.0
  0
LINE
  5
E80
330
1E
100
AcDbEntity
  8
MITTEL
100
AcDbLine
 10
96.69845619016129
 20
570.8297962968286
 30
0.0
 11
96.69845619016129
 21
597.3297962968283
 31
0.0
  0
LINE
  5
E81
330
1E
100
AcDbEntity
  8
STEMPEL
100
AcDbLine
 10
101.6984561901613
 20
577.3297962968284
 30
0.0
 11
101.6984561901613
 21
592.3297962968283
 31
0.0
  0
LINE
  5
E82
330
1E
100
AcDbEntity
  8
STEMPEL
100
AcDbLine
 10
91.69845619016129
 20
577.3297962968284
 30
0.0
 11
91.69845619016129
 21
592.3297962968283
 31
0.0
  0
LINE
  5
E83
330
1E
100
AcDbEntity
  8
STEMPEL
100
AcDbLine
 10
101.6984561901613
 20
592.3297962968283
 30
0.0
 11
99.6984561901613
 21
592.3297962968282
 31
0.0
  0
ARC
  5
E84
330
1E
100
AcDbEntity
  8
STEMPEL
100
AcDbCircle
 10
109.1873125858498
 20
671.8496332792901
 30
0.0
 40
5.0
100
AcDbArc
 50
300.0670458384858
 51
300.2564371635302
  0
ARC
  5
E85
330
1E
100
AcDbEntity
  8
STEMPEL
100
AcDbCircle
 10
114.6984561901617
 20
662.3297383295123
 30
0.0
 40
6.000000000000454
100
AcDbArc
 50
120.2564164748189
 51
179.9999999999935
  0
ARC
  5
E86
330
1E
100
AcDbEntity
  8
STEMPEL
100
AcDbCircle
 10
114.6984561901618
 20
662.3297383295125
 30
0.0
 40
5.000000000000511
100
AcDbArc
 50
120.2564164748189
 51
179.9999999999935
  0
LINE
  5
E87
330
1E
100
AcDbEntity
  8
STEMPEL
100
AcDbLine
 10
108.6984561901616
 20
657.3297962968281
 30
0.0
 11
109.6984561901616
 21
657.3297962968281
 31
0.0
  0
LINE
  5
E88
330
1E
100
AcDbEntity
  8
STEMPEL
100
AcDbLine
 10
108.6984561901615
 20
617.3297962968281
 30
0.0
 11
109.6984561901615
 21
617.3297962968281
 31
0.0
  0
LINE
  5
E89
330
1E
100
AcDbEntity
  8
STEMPEL
100
AcDbLine
 10
88.69845619016141
 20
593.3297962968286
 30
0.0
 11
88.6984561901613
 21
592.3297962968283
 31
0.0
  0
LINE
  5
E8A
330
1E
100
AcDbEntity
  8
STEMPEL
100
AcDbLine
 10
92.69845619016129
 20
593.3297962968283
 30
0.0
 11
92.69845619016129
 21
592.3297962968283
 31
0.0
  0
LINE
  5
E8B
330
1E
100
AcDbEntity
  8
STEMPEL
100
AcDbLine
 10
100.6984561901613
 20
593.3297962968288
 30
0.0
 11
100.6984561901613
 21
592.3297962968283
 31
0.0
  0
LWPOLYLINE
  5
E8C
330
1E
100
AcDbEntity
  8
STEMPEL
100
AcDbPolyline
 90
        7
 70
   128
 43
0.0
 10
110.3902005160775
 20
611.2918503526661
 10
110.5280295256478
 20
610.5397441157276
 10
110.646893802614
 20
609.6170305050129
 10
110.7432418045152
 20
608.5512792551087
 10
110.8141947520533
 20
607.3743339182875
 10
110.8576326440613
 20
606.1213604118856
 10
110.8722576009589
 20
604.8297962968264
  0
LWPOLYLINE
  5
E8D
330
1E
100
AcDbEntity
  8
STEMPEL
100
AcDbPolyline
 90
        7
 70
   128
 43
0.0
 10
-108.2517984172882
 20
593.3297962968288
 10
-108.9285002923655
 20
593.9393970246879
 10
-109.5280497159995
 20
594.6669561085993
 10
-110.0343383891491
 20
595.4929259702796
 10
-110.4337636811948
 20
596.3951149954827
 10
-110.7155940964577
 20
597.3492837636763
 10
-110.8722576009591
 20
598.3297962968286
210
0.0
220
0.0
230
-1.0
  0
LWPOLYLINE
  5
E8E
330
1E
100
AcDbEntity
  8
STEMPEL
100
AcDbPolyline
 90
       10
 70
   128
 43
0.0
 10
-110.5487660513563
 20
592.3297962968282
 10
-111.3849453261979
 20
592.420949778755
 10
-112.1957177169004
 20
592.6916405721128
 10
-112.9564483146433
 20
593.1336438741216
 10
-113.6440227051621
 20
593.7335296381145
 10
-114.2375492885305
 20
594.4730706387092
 10
-114.7189940598517
 20
595.3297962968284
 10
-115.0737285633721
 20
596.2776754368745
 10
-115.2909743707063
 20
597.287907230827
 10
-115.3641305779302
 20
598.3297962968286
210
0.0
220
0.0
230
-1.0
  0
LINE
  5
E8F
330
1E
100
AcDbEntity
  8
STEMPEL
100
AcDbLine
 10
109.9081434311964
 20
604.8297962968264
 30
0.0
 11
109.9081434311964
 21
598.3297962968286
 31
0.0
  0
LINE
  5
E90
330
1E
100
AcDbEntity
  8
STEMPEL
100
AcDbLine
 10
115.3641305779302
 20
604.8297962968264
 30
0.0
 11
115.3641305779302
 21
598.3297962968298
 31
0.0
  0
LINE
  5
E91
330
1E
100
AcDbEntity
  8
STEMPEL
100
AcDbLine
 10
111.8660363144968
 20
604.8297962968264
 30
0.0
 11
111.8660363144968
 21
598.3297962968276
 31
0.0
  0
LINE
  5
E92
330
1E
100
AcDbEntity
  8
STEMPEL
100
AcDbLine
 10
110.872257600959
 20
604.8297962968264
 30
0.0
 11
110.872257600959
 21
598.3297962968286
 31
0.0
  0
LINE
  5
E93
330
1E
100
AcDbEntity
  8
STEMPEL
100
AcDbLine
 10
107.2876842475258
 20
593.3297962968283
 30
0.0
 11
108.2517984172884
 21
593.3297962968283
 31
0.0
  0
ARC
  5
E94
330
1E
100
AcDbEntity
  8
STEMPEL
100
AcDbCircle
 10
103.6984561901612
 20
598.3297962968288
 30
0.0
 40
5.0
100
AcDbArc
 50
270.0
 51
0.0
  0
LWPOLYLINE
  5
E95
330
1E
100
AcDbEntity
  8
STEMPEL
100
AcDbPolyline
 90
       10
 70
   128
 43
0.0
 10
-104.4021547001656
 20
592.3297962968295
 10
-105.2602276964383
 20
592.395923511402
 10
-106.1130398960606
 20
592.6484772611322
 10
-106.9337982029776
 20
593.0795229774498
 10
-107.6967165693766
 20
593.6755183478898
 10
-108.3778261248758
 20
594.4177387796104
 10
-108.9557282148215
 20
595.2828656764079
 10
-109.4122666892277
 20
596.2437190471239
 10
-109.7330983208253
 20
597.2701114288361
 10
-109.9081434311964
 20
598.3297962968286
210
0.0
220
0.0
230
-1.0
  0
ARC
  5
E96
330
1E
100
AcDbEntity
  8
STEMPEL
100
AcDbCircle
 10
103.6984561901612
 20
598.3297962968288
 30
0.0
 40
6.0
100
AcDbArc
 50
270.0
 51
0.0
  0
LWPOLYLINE
  5
E97
330
1E
100
AcDbEntity
  8
STEMPEL
100
AcDbPolyline
 90
       10
 70
   128
 43
0.0
 10
-106.360047583466
 20
592.3297962968283
 10
-107.2181205797388
 20
592.395923511401
 10
-108.0709327793611
 20
592.6484772611311
 10
-108.8916910862781
 20
593.0795229774487
 10
-109.6546094526771
 20
593.6755183478886
 10
-110.3357190081762
 20
594.4177387796091
 10
-110.9136210981219
 20
595.2828656764067
 10
-111.3701595725282
 20
596.2437190471227
 10
-111.6909912041258
 20
597.270111428835
 10
-111.8660363144968
 20
598.3297962968276
210
0.0
220
0.0
230
-1.0
  0
LINE
  5
E98
330
1E
100
AcDbEntity
  8
STEMPEL
100
AcDbLine
 10
88.69845619016151
 20
593.3297962968283
 30
0.0
 11
103.6984561901614
 21
593.3297962968286
 31
0.0
  0
LWPOLYLINE
  5
E99
330
1E
100
AcDbEntity
  8
STEMPEL
100
AcDbPolyline
 90
       18
 70
   128
 43
0.0
 10
109.9081434311964
 20
604.8297962968264
 10
109.9248118546732
 20
606.2079176804509
 10
109.9742495019336
 20
607.5391087932306
 10
110.054772833194
 20
608.7780375184074
 10
110.1636397229857
 20
609.8825136241766
 10
110.297142839948
 20
610.8149255014295
 10
110.4507358955521
 20
611.5435209819907
 10
110.6191884625042
 20
612.0434886206241
 10
110.7967640906731
 20
612.2978026190407
 10
110.9774156550201
 20
612.2978026190407
 10
111.1549912831891
 20
612.0434886206241
 10
111.3234438501411
 20
611.5435209819907
 10
111.4770369057453
 20
610.8149255014295
 10
111.6105400227075
 20
609.8825136241766
 10
111.7194069124992
 20
608.7780375184074
 10
111.7999302437597
 20
607.5391087932306
 10
111.84936789102
 20
606.2079176804509
 10
111.8660363144968
 20
604.8297962968264
  0
LINE
  5
E9A
330
1E
100
AcDbEntity
  8
STEMPEL
100
AcDbLine
 10
109.6984561901614
 20
662.3297383295128
 30
0.0
 11
109.6984561901612
 21
598.3297962968286
 31
0.0
  0
LINE
  5
E9B
330
1E
100
AcDbEntity
  8
STEMPEL
100
AcDbLine
 10
108.6984561901613
 20
662.3297383295128
 30
0.0
 11
108.698456190161
 21
598.3297962968288
 31
0.0
  0
ARC
  5
E9C
330
1E
100
AcDbEntity
  8
STEMPEL
100
AcDbCircle
 10
138.6984561901613
 20
676.3297962968279
 30
0.0
 40
6.0
100
AcDbArc
 50
90.0
 51
90.0
  0
ARC
  5
E9D
330
1E
100
AcDbEntity
  8
STEMPEL
100
AcDbCircle
 10
138.6984561901616
 20
676.3297962968286
 30
0.0
 40
5.999999999999263
100
AcDbArc
 50
90.0
 51
120.5128743276239
  0
ARC
  5
E9E
330
1E
100
AcDbEntity
  8
STEMPEL
100
AcDbCircle
 10
138.6984561901636
 20
676.3297962968233
 30
0.0
 40
5.000000000004884
100
AcDbArc
 50
90.00000000002605
 51
120.5373500482887
  0
ARC
  5
E9F
330
1E
100
AcDbEntity
  8
STEMPEL
100
AcDbCircle
 10
196.0570178064588
 20
682.3297962968275
 30
0.0
 40
1.5
100
AcDbArc
 50
30.000000000007
 51
90.0
  0
ARC
  5
EA0
330
1E
100
AcDbEntity
  8
STEMPEL
100
AcDbCircle
 10
196.0570178064588
 20
682.3297962968275
 30
0.0
 40
0.5
100
AcDbArc
 50
30.000000000007
 51
90.0
  0
LINE
  5
EA1
330
1E
100
AcDbEntity
  8
STEMPEL
100
AcDbLine
 10
196.0570178064588
 20
682.8297962968274
 30
0.0
 11
195.8570178064588
 21
682.8297962968274
 31
0.0
  0
ARC
  5
EA2
330
1E
100
AcDbEntity
  8
STEMPEL
100
AcDbCircle
 10
195.8570178064588
 20
682.3297962968275
 30
0.0
 40
0.5
100
AcDbArc
 50
90.0
 51
150.0000000000075
  0
ARC
  5
EA3
330
1E
100
AcDbEntity
  8
STEMPEL
100
AcDbCircle
 10
195.8570178064588
 20
682.3297962968275
 30
0.0
 40
1.5
100
AcDbArc
 50
90.0
 51
150.0000000000075
  0
ARC
  5
EA4
330
1E
100
AcDbEntity
  8
STEMPEL
100
AcDbCircle
 10
193.2589415951047
 20
683.8297962968274
 30
0.0
 40
1.5
100
AcDbArc
 50
270.0
 51
330.0000000000076
  0
ARC
  5
EA5
330
1E
100
AcDbEntity
  8
STEMPEL
100
AcDbCircle
 10
193.2589415951047
 20
683.8297962968274
 30
0.0
 40
2.5
100
AcDbArc
 50
270.0
 51
330.0000000000076
  0
LINE
  5
EA6
330
1E
100
AcDbEntity
  8
STEMPEL
100
AcDbLine
 10
205.1089415951053
 20
682.3297962968276
 30
0.0
 11
198.6550940178113
 21
682.3297962968276
 31
0.0
  0
LINE
  5
EA7
330
1E
100
AcDbEntity
  8
STEMPEL
100
AcDbLine
 10
205.1089415951053
 20
682.3297962968275
 30
0.0
 11
198.6550940178113
 21
682.3297962968275
 31
0.0
  0
ARC
  5
EA8
330
1E
100
AcDbEntity
  8
STEMPEL
100
AcDbCircle
 10
207.7070178064587
 20
682.3297962968275
 30
0.0
 40
1.5
100
AcDbArc
 50
90.0
 51
150.0000000000002
  0
ARC
  5
EA9
330
1E
100
AcDbEntity
  8
STEMPEL
100
AcDbCircle
 10
207.9070178064588
 20
682.3297962968275
 30
0.0
 40
1.5
100
AcDbArc
 50
14.47751218592986
 51
90.0
  0
ARC
  5
EAA
330
1E
100
AcDbEntity
  8
STEMPEL
100
AcDbCircle
 10
209.8435094795628
 20
682.8297962968274
 30
0.0
 40
0.5
100
AcDbArc
 50
194.4775121859299
 51
270.0
  0
LINE
  5
EAB
330
1E
100
AcDbEntity
  8
STEMPEL
100
AcDbLine
 10
210.032258672162
 20
682.3297962968275
 30
0.0
 11
209.8435094795628
 21
682.3297962968275
 31
0.0
  0
ARC
  5
EAC
330
1E
100
AcDbEntity
  8
STEMPEL
100
AcDbCircle
 10
207.9070178064588
 20
682.3297962968275
 30
0.0
 40
0.5
100
AcDbArc
 50
14.47751218592986
 51
90.0
  0
LINE
  5
EAD
330
1E
100
AcDbEntity
  8
STEMPEL
100
AcDbLine
 10
207.9070178064588
 20
682.8297962968276
 30
0.0
 11
207.7070178064587
 21
682.8297962968276
 31
0.0
  0
ARC
  5
EAE
330
1E
100
AcDbEntity
  8
STEMPEL
100
AcDbCircle
 10
207.7070178064587
 20
682.3297962968275
 30
0.0
 40
0.5
100
AcDbArc
 50
90.0
 51
150.0000000000002
  0
ARC
  5
EAF
330
1E
100
AcDbEntity
  8
STEMPEL
100
AcDbCircle
 10
211.9687503452654
 20
682.3297962968275
 30
0.0
 40
0.5
100
AcDbArc
 50
90.0
 51
165.5224878140701
  0
ARC
  5
EB0
330
1E
100
AcDbEntity
  8
STEMPEL
100
AcDbCircle
 10
211.9687503452654
 20
682.3297962968275
 30
0.0
 40
1.5
100
AcDbArc
 50
90.0
 51
165.5224878140701
  0
ARC
  5
EB1
330
1E
100
AcDbEntity
  8
STEMPEL
100
AcDbCircle
 10
210.032258672162
 20
682.8297962968274
 30
0.0
 40
0.5
100
AcDbArc
 50
270.0
 51
345.5224878140701
  0
ARC
  5
EB2
330
1E
100
AcDbEntity
  8
STEMPEL
100
AcDbCircle
 10
205.1089415951053
 20
683.8297962968274
 30
0.0
 40
1.5
100
AcDbArc
 50
270.0
 51
330.0000000000003
  0
ARC
  5
EB3
330
1E
100
AcDbEntity
  8
STEMPEL
100
AcDbCircle
 10
210.032258672162
 20
682.8297962968274
 30
0.0
 40
1.5
100
AcDbArc
 50
270.0
 51
345.5224878140701
  0
ARC
  5
EB4
330
1E
100
AcDbEntity
  8
STEMPEL
100
AcDbCircle
 10
209.8435094795628
 20
682.8297962968274
 30
0.0
 40
1.5
100
AcDbArc
 50
194.4775121859299
 51
270.0
  0
ARC
  5
EB5
330
1E
100
AcDbEntity
  8
STEMPEL
100
AcDbCircle
 10
205.1089415951053
 20
683.8297962968274
 30
0.0
 40
2.5
100
AcDbArc
 50
270.0
 51
330.0000000000003
  0
ARC
  5
EB6
330
1E
100
AcDbEntity
  8
STEMPEL
100
AcDbCircle
 10
198.6550940178113
 20
683.8297962968274
 30
0.0
 40
1.5
100
AcDbArc
 50
210.000000000007
 51
270.0
  0
ARC
  5
EB7
330
1E
100
AcDbEntity
  8
STEMPEL
100
AcDbCircle
 10
198.6550940178113
 20
683.8297962968274
 30
0.0
 40
2.5
100
AcDbArc
 50
210.000000000007
 51
270.0
  0
ARC
  5
EB8
330
1E
100
AcDbEntity
  8
STEMPEL
100
AcDbCircle
 10
222.0570178064588
 20
682.3297962968275
 30
0.0
 40
0.5
100
AcDbArc
 50
29.99999999999973
 51
90.0
  0
ARC
  5
EB9
330
1E
100
AcDbEntity
  8
STEMPEL
100
AcDbCircle
 10
224.6550940178115
 20
683.8297962968274
 30
0.0
 40
1.5
100
AcDbArc
 50
209.9999999999997
 51
270.0
  0
ARC
  5
EBA
330
1E
100
AcDbEntity
  8
STEMPEL
100
AcDbCircle
 10
222.0570178064588
 20
682.3297962968275
 30
0.0
 40
1.5
100
AcDbArc
 50
29.99999999999973
 51
90.0
  0
ARC
  5
EBB
330
1E
100
AcDbEntity
  8
STEMPEL
100
AcDbCircle
 10
224.6550940178115
 20
683.8297962968274
 30
0.0
 40
2.5
100
AcDbArc
 50
209.9999999999997
 51
270.0
  0
ARC
  5
EBC
330
1E
100
AcDbEntity
  8
STEMPEL
100
AcDbCircle
 10
231.1089415951058
 20
683.8297962968274
 30
0.0
 40
1.5
100
AcDbArc
 50
270.0
 51
330.0000000000003
  0
ARC
  5
EBD
330
1E
100
AcDbEntity
  8
STEMPEL
100
AcDbCircle
 10
233.9070178064587
 20
682.3297962968275
 30
0.0
 40
0.5
100
AcDbArc
 50
29.99999999999973
 51
90.0
  0
LINE
  5
EBE
330
1E
100
AcDbEntity
  8
STEMPEL
100
AcDbLine
 10
233.9070178064587
 20
682.8297962968274
 30
0.0
 11
233.7070178064587
 21
682.8297962968274
 31
0.0
  0
ARC
  5
EBF
330
1E
100
AcDbEntity
  8
STEMPEL
100
AcDbCircle
 10
233.7070178064587
 20
682.3297962968275
 30
0.0
 40
0.5
100
AcDbArc
 50
90.0
 51
149.9999999999994
  0
ARC
  5
EC0
330
1E
100
AcDbEntity
  8
STEMPEL
100
AcDbCircle
 10
233.7070178064587
 20
682.3297962968275
 30
0.0
 40
1.5
100
AcDbArc
 50
90.0
 51
149.9999999999994
  0
ARC
  5
EC1
330
1E
100
AcDbEntity
  8
STEMPEL
100
AcDbCircle
 10
236.5050940178126
 20
683.8297962968274
 30
0.0
 40
1.5
100
AcDbArc
 50
209.9999999999997
 51
270.0
  0
LINE
  5
EC2
330
1E
100
AcDbEntity
  8
STEMPEL
100
AcDbLine
 10
238.5639415951048
 20
682.3297962968275
 30
0.0
 11
236.5050940178126
 21
682.3297962968275
 31
0.0
  0
LINE
  5
EC3
330
1E
100
AcDbEntity
  8
STEMPEL
100
AcDbLine
 10
238.5639415951048
 20
682.3297962968275
 30
0.0
 11
236.5050940178126
 21
682.3297962968275
 31
0.0
  0
ARC
  5
EC4
330
1E
100
AcDbEntity
  8
STEMPEL
100
AcDbCircle
 10
233.9070178064587
 20
682.3297962968275
 30
0.0
 40
1.5
100
AcDbArc
 50
29.99999999999973
 51
90.0
  0
ARC
  5
EC5
330
1E
100
AcDbEntity
  8
STEMPEL
100
AcDbCircle
 10
241.3620178064587
 20
682.3297962968275
 30
0.0
 40
0.5
100
AcDbArc
 50
29.99999999999973
 51
90.0
  0
LINE
  5
EC6
330
1E
100
AcDbEntity
  8
STEMPEL
100
AcDbLine
 10
241.3620178064587
 20
682.8297962968274
 30
0.0
 11
241.1620178064586
 21
682.8297962968274
 31
0.0
  0
ARC
  5
EC7
330
1E
100
AcDbEntity
  8
STEMPEL
100
AcDbCircle
 10
241.1620178064586
 20
682.3297962968275
 30
0.0
 40
0.5
100
AcDbArc
 50
90.0
 51
149.9999999999994
  0
ARC
  5
EC8
330
1E
100
AcDbEntity
  8
STEMPEL
100
AcDbCircle
 10
241.1620178064586
 20
682.3297962968275
 30
0.0
 40
1.5
100
AcDbArc
 50
90.0
 51
150.0000000000075
  0
ARC
  5
EC9
330
1E
100
AcDbEntity
  8
STEMPEL
100
AcDbCircle
 10
241.3620178064587
 20
682.3297962968275
 30
0.0
 40
1.5
100
AcDbArc
 50
29.99999999999973
 51
90.0
  0
ARC
  5
ECA
330
1E
100
AcDbEntity
  8
STEMPEL
100
AcDbCircle
 10
243.9600940178123
 20
683.8297962968272
 30
0.0
 40
1.5
100
AcDbArc
 50
209.9999999999997
 51
270.0
  0
ARC
  5
ECB
330
1E
100
AcDbEntity
  8
STEMPEL
100
AcDbCircle
 10
238.5639415951048
 20
683.8297962968274
 30
0.0
 40
1.5
100
AcDbArc
 50
270.0
 51
330.0000000000003
  0
ARC
  5
ECC
330
1E
100
AcDbEntity
  8
STEMPEL
100
AcDbCircle
 10
243.9600940178123
 20
683.8297962968272
 30
0.0
 40
2.5
100
AcDbArc
 50
209.9999999999997
 51
270.0
  0
ARC
  5
ECD
330
1E
100
AcDbEntity
  8
STEMPEL
100
AcDbCircle
 10
238.5639415951048
 20
683.8297962968274
 30
0.0
 40
2.5
100
AcDbArc
 50
270.0
 51
330.0000000000076
  0
ARC
  5
ECE
330
1E
100
AcDbEntity
  8
STEMPEL
100
AcDbCircle
 10
236.5050940178126
 20
683.8297962968274
 30
0.0
 40
2.5
100
AcDbArc
 50
209.9999999999997
 51
270.0
  0
ARC
  5
ECF
330
1E
100
AcDbEntity
  8
STEMPEL
100
AcDbCircle
 10
231.1089415951058
 20
683.8297962968274
 30
0.0
 40
2.5
100
AcDbArc
 50
270.0
 51
330.0000000000003
  0
LINE
  5
ED0
330
1E
100
AcDbEntity
  8
STEMPEL
100
AcDbLine
 10
231.1089415951058
 20
682.3297962968275
 30
0.0
 11
224.6550940178115
 21
682.3297962968275
 31
0.0
  0
LINE
  5
ED1
330
1E
100
AcDbEntity
  8
STEMPEL
100
AcDbLine
 10
231.1089415951058
 20
682.3297962968275
 30
0.0
 11
224.6550940178115
 21
682.3297962968275
 31
0.0
  0
LINE
  5
ED2
330
1E
100
AcDbEntity
  8
STEMPEL
100
AcDbLine
 10
222.0570178064588
 20
682.8297962968274
 30
0.0
 11
211.9687503452654
 21
682.8297962968276
 31
0.0
  0
LINE
  5
ED3
330
1E
100
AcDbEntity
  8
STEMPEL
100
AcDbLine
 10
241.3620178064587
 20
683.8297962968274
 30
0.0
 11
195.8570178064588
 21
683.8297962968274
 31
0.0
  0
LINE
  5
ED4
330
1E
100
AcDbEntity
  8
STEMPEL
100
AcDbLine
 10
193.2589415951047
 20
682.3297962968276
 30
0.0
 11
138.6984561901613
 21
682.3297962968281
 31
0.0
  0
ELLIPSE
  5
ED5
330
1E
100
AcDbEntity
  8
STEMPEL
100
AcDbEllipse
 10
123.6573466638094
 20
649.8297962968283
 30
0.0
 11
0.0000000000000334
 21
7.499999999999999
 31
0.0
210
0.0
220
0.0
230
1.0
 40
0.4999999999999926
 41
4.712388980384689
 42
6.167183451052224
  0
ELLIPSE
  5
ED6
330
1E
100
AcDbEntity
  8
STEMPEL
100
AcDbEllipse
 10
124.5254106834982
 20
649.8297962968283
 30
0.0
 11
0.0000000000000334
 21
7.499999999999999
 31
0.0
210
0.0
220
0.0
230
1.0
 40
0.4999999999999926
 41
4.712388980384689
 42
7.853981633974482
  0
ELLIPSE
  5
ED7
330
1E
100
AcDbEntity
  8
STEMPEL
100
AcDbEllipse
 10
123.6573466638094
 20
624.8297962968299
 30
0.0
 11
-0.0000000000000334
 21
-7.499999999999999
 31
0.0
210
0.0
220
0.0
230
-1.0
 40
0.4999999999999926
 41
4.712388980384689
 42
6.167183451052224
  0
ELLIPSE
  5
ED8
330
1E
100
AcDbEntity
  8
STEMPEL
100
AcDbEllipse
 10
124.5254106834982
 20
624.8297962968299
 30
0.0
 11
-0.0000000000000334
 21
-7.499999999999999
 31
0.0
210
0.0
220
0.0
230
-1.0
 40
0.4999999999999926
 41
4.712388980384689
 42
7.853981633974482
  0
LINE
  5
ED9
330
1E
100
AcDbEntity
  8
STEMPEL
100
AcDbLine
 10
120.7754106834984
 20
649.8297962968283
 30
0.0
 11
120.7754106834982
 21
624.8297962968315
 31
0.0
  0
LINE
  5
EDA
330
1E
100
AcDbEntity
  8
STEMPEL
100
AcDbLine
 10
128.2754106834982
 20
649.8297962968283
 30
0.0
 11
128.2754106834982
 21
624.8297962968299
 31
0.0
  0
LINE
  5
EDB
330
1E
100
AcDbEntity
  8
STEMPEL
100
AcDbLine
 10
127.4073466638092
 20
624.8297962968283
 30
0.0
 11
127.4073466638092
 21
649.8297962968299
 31
0.0
  0
LWPOLYLINE
  5
EDC
330
1E
100
AcDbEntity
  8
STEMPEL
100
AcDbPolyline
 90
        7
 70
   128
 43
0.0
 10
-118.024756094232
 20
593.3297962968282
 10
-118.6448466172963
 20
593.9391341986691
 10
-119.1766667640798
 20
594.6665644719582
 10
-119.6059125638111
 20
595.492521965902
 10
-119.9210389116084
 20
596.3947915163642
 10
-120.1135700885743
 20
597.3491054506076
 10
-120.1783277269006
 20
598.3297962968286
210
0.0
220
0.0
230
-1.0
  0
LWPOLYLINE
  5
EDD
330
1E
100
AcDbEntity
  8
STEMPEL
100
AcDbPolyline
 90
       10
 70
   128
 43
0.0
 10
-116.289017536834
 20
592.3297962968282
 10
-117.1251968116756
 20
592.420949778755
 10
-117.9359692023782
 20
592.6916405721128
 10
-118.696699800121
 20
593.1336438741216
 10
-119.3842741906398
 20
593.7335296381145
 10
-119.9778007740083
 20
594.4730706387092
 10
-120.4592455453294
 20
595.3297962968284
 10
-120.8139800488498
 20
596.2776754368745
 10
-121.0312258561839
 20
597.287907230827
 10
-121.1043820634079
 20
598.3297962968286
210
0.0
220
0.0
230
-1.0
  0
LINE
  5
EDE
330
1E
100
AcDbEntity
  8
STEMPEL
100
AcDbLine
 10
120.1783277269007
 20
604.8297962968264
 30
0.0
 11
120.1783277269007
 21
598.3297962968298
 31
0.0
  0
LINE
  5
EDF
330
1E
100
AcDbEntity
  8
STEMPEL
100
AcDbLine
 10
121.1043820634079
 20
604.8297962968264
 30
0.0
 11
121.1043820634079
 21
598.3297962968298
 31
0.0
  0
LINE
  5
EE0
330
1E
100
AcDbEntity
  8
STEMPEL
100
AcDbLine
 10
127.8621812470897
 20
604.8297962968263
 30
0.0
 11
127.8621812470897
 21
598.3297962968297
 31
0.0
  0
LWPOLYLINE
  5
EE1
330
1E
100
AcDbEntity
  8
STEMPEL
100
AcDbPolyline
 90
       10
 70
   128
 43
0.0
 10
-123.4984750724839
 20
592.3297962968281
 10
-124.2562246975781
 20
592.4209497787549
 10
-124.9909504837535
 20
592.6916405721128
 10
-125.6803281597868
 20
593.1336438741216
 10
-126.3034113338331
 20
593.7335296381144
 10
-126.8412679389446
 20
594.4730706387091
 10
-127.2775554743434
 20
595.3297962968283
 10
-127.5990175640388
 20
596.2776754368745
 10
-127.7958867451027
 20
597.2879072308269
 10
-127.8621812470897
 20
598.3297962968285
210
0.0
220
0.0
230
-1.0
  0
LWPOLYLINE
  5
EE2
330
1E
100
AcDbEntity
  8
STEMPEL
100
AcDbPolyline
 90
        7
 70
   128
 43
0.0
 10
-134.2468049668826
 20
593.3297962968281
 10
-134.8087339401466
 20
593.9391341986691
 10
-135.2906718797337
 20
594.6665644719582
 10
-135.6796564594836
 20
595.4925219659019
 10
-135.96522545059
 20
596.3947915163641
 10
-136.1396981163859
 20
597.3491054506074
 10
-136.198381795401
 20
598.3297962968285
210
0.0
220
0.0
230
-1.0
  0
LWPOLYLINE
  5
EE3
330
1E
100
AcDbEntity
  8
STEMPEL
100
AcDbPolyline
 90
       10
 70
   128
 43
0.0
 10
-132.6298965076157
 20
592.3297962968281
 10
-133.38764613271
 20
592.4209497787549
 10
-134.1223719188854
 20
592.6916405721128
 10
-134.8117495949186
 20
593.1336438741216
 10
-135.4348327689649
 20
593.7335296381142
 10
-135.9726893740765
 20
594.473070638709
 10
-136.4089769094753
 20
595.3297962968283
 10
-136.7304389991707
 20
596.2776754368745
 10
-136.9273081802346
 20
597.2879072308269
 10
-136.9936026822215
 20
598.3297962968285
210
0.0
220
0.0
230
-1.0
  0
LINE
  5
EE4
330
1E
100
AcDbEntity
  8
STEMPEL
100
AcDbLine
 10
136.1983817954008
 20
604.8297962968263
 30
0.0
 11
136.1983817954008
 21
598.3297962968297
 31
0.0
  0
LINE
  5
EE5
330
1E
100
AcDbEntity
  8
STEMPEL
100
AcDbLine
 10
136.9936026822215
 20
604.8297962968263
 30
0.0
 11
136.9936026822215
 21
598.3297962968297
 31
0.0
  0
LWPOLYLINE
  5
EE6
330
1E
100
AcDbEntity
  8
STEMPEL
100
AcDbPolyline
 90
       10
 70
   128
 43
0.0
 10
-142.8879708040492
 20
592.3297962968281
 10
-143.5239751640502
 20
592.4209497787549
 10
-144.1406548534062
 20
592.6916405721126
 10
-144.7192723718113
 20
593.1336438741216
 10
-145.2422467187632
 20
593.7335296381142
 10
-145.6936875833676
 20
594.473070638709
 10
-146.0598781633937
 20
595.3297962968283
 10
-146.3296919433685
 20
596.2776754368745
 10
-146.4949307681202
 20
597.2879072308269
 10
-146.5505739395733
 20
598.3297962968285
210
0.0
220
0.0
230
-1.0
  0
LINE
  5
EE7
330
1E
100
AcDbEntity
  8
STEMPEL
100
AcDbLine
 10
146.5505739395733
 20
604.8297962968263
 30
0.0
 11
146.5505739395733
 21
598.3297962968297
 31
0.0
  0
LINE
  5
EE8
330
1E
100
AcDbEntity
  8
STEMPEL
100
AcDbLine
 10
125.9106044185712
 20
593.3297962968281
 30
0.0
 11
134.2468049668833
 21
593.3297962968281
 31
0.0
  0
LWPOLYLINE
  5
EE9
330
1E
100
AcDbEntity
  8
STEMPEL
100
AcDbPolyline
 90
        9
 70
   128
 43
0.0
 10
117.771229152417
 20
612.2315545414915
 10
118.2602896956858
 20
611.9051216437341
 10
118.7199026635868
 20
611.3598526304769
 10
119.135852467211
 20
610.6126123873488
 10
119.4952739965026
 20
609.6865126645714
 10
119.7870505313901
 20
608.6101972426011
 10
120.0021575761282
 20
607.4169559949702
 10
120.1339419822357
 20
606.1436952498943
 10
120.1783277269006
 20
604.829796296828
  0
LWPOLYLINE
  5
EEA
330
1E
100
AcDbEntity
  8
STEMPEL
100
AcDbPolyline
 90
       18
 70
   128
 43
0.0
 10
127.8621812470899
 20
604.8297962968263
 10
127.9399211483499
 20
606.2079176804509
 10
128.1704935130317
 20
607.5391087932305
 10
128.5460464757969
 20
608.7780375184073
 10
129.0537910309247
 20
609.8825136241766
 10
129.6764365465626
 20
610.8149255014295
 10
130.3927795764566
 20
611.5435209819906
 10
131.1784259178826
 20
612.043488620624
 10
132.006621326962
 20
612.2978026190407
 10
132.8491626023497
 20
612.2978026190407
 10
133.6773580114291
 20
612.043488620624
 10
134.4630043528548
 20
611.5435209819906
 10
135.179347382749
 20
610.8149255014293
 10
135.801992898387
 20
609.8825136241766
 10
136.3097374535146
 20
608.7780375184072
 10
136.6852904162797
 20
607.5391087932305
 10
136.9158627809616
 20
606.2079176804509
 10
136.9936026822218
 20
604.8297962968263
  0
LWPOLYLINE
  5
EEB
330
1E
100
AcDbEntity
  8
STEMPEL
100
AcDbPolyline
 90
       10
 70
   128
 43
0.0
 10
131.6326710778349
 20
612.3297962968295
 10
132.4254984236945
 20
612.2158544444211
 10
133.1942361118402
 20
611.8774909527237
 10
133.9155264366177
 20
611.3249868252125
 10
134.5674533564993
 20
610.5751296202215
 10
135.1302084019148
 20
609.6507033694779
 10
135.5866925455778
 20
608.5797962968286
 10
135.9230357477745
 20
607.394947371771
 10
136.1290183905046
 20
606.1321576293301
 10
136.1983817954008
 20
604.8297962968279
  0
LINE
  5
EEC
330
1E
100
AcDbEntity
  8
STEMPEL
100
AcDbLine
 10
157.8324324880994
 20
649.8297962968283
 30
0.0
 11
157.8324324880994
 21
624.8297962968298
 31
0.0
  0
LINE
  5
EED
330
1E
100
AcDbEntity
  8
STEMPEL
100
AcDbLine
 10
170.8228135448651
 20
649.8297962968281
 30
0.0
 11
170.8228135448651
 21
624.8297962968281
 31
0.0
  0
LINE
  5
EEE
330
1E
100
AcDbEntity
  8
STEMPEL
100
AcDbLine
 10
170.3216365494232
 20
649.8297962968281
 30
0.0
 11
170.3216365494232
 21
624.8297962968281
 31
0.0
  0
ELLIPSE
  5
EEF
330
1E
100
AcDbEntity
  8
STEMPEL
100
AcDbEllipse
 10
164.3276230164822
 20
649.8297962968283
 30
0.0
 11
0.0000000000000334
 21
7.5
 31
0.0
210
0.0
220
0.0
230
1.0
 40
0.8660254037843856
 41
4.712388980384689
 42
7.853981633974482
  0
ELLIPSE
  5
EF0
330
1E
100
AcDbEntity
  8
STEMPEL
100
AcDbEllipse
 10
163.8264460210403
 20
649.8297962968283
 30
0.0
 11
0.0000000000000334
 21
7.5
 31
0.0
210
0.0
220
0.0
230
1.0
 40
0.8660254037843856
 41
4.712388980384689
 42
6.24459510668465
  0
ELLIPSE
  5
EF1
330
1E
100
AcDbEntity
  8
STEMPEL
100
AcDbEllipse
 10
164.3276230164822
 20
624.8297962968281
 30
0.0
 11
-0.0000000000000334
 21
-7.5
 31
0.0
210
0.0
220
0.0
230
-1.0
 40
0.8660254037843856
 41
4.712388980384689
 42
7.853981633974482
  0
ELLIPSE
  5
EF2
330
1E
100
AcDbEntity
  8
STEMPEL
100
AcDbEllipse
 10
163.8264460210403
 20
624.8297962968281
 30
0.0
 11
-0.0000000000000334
 21
-7.5
 31
0.0
210
0.0
220
0.0
230
-1.0
 40
0.8660254037843856
 41
4.712388980384689
 42
6.24459510668465
  0
LINE
  5
EF3
330
1E
100
AcDbEntity
  8
STEMPEL
100
AcDbLine
 10
157.8406795960798
 20
604.8297962968263
 30
0.0
 11
157.8406795960798
 21
598.3297962968297
 31
0.0
  0
LINE
  5
EF4
330
1E
100
AcDbEntity
  8
STEMPEL
100
AcDbLine
 10
158.4508740439421
 20
604.8297962968263
 30
0.0
 11
158.4508740439421
 21
598.3297962968297
 31
0.0
  0
LWPOLYLINE
  5
EF5
330
1E
100
AcDbEntity
  8
STEMPEL
100
AcDbPolyline
 90
        7
 70
   128
 43
0.0
 10
-156.2026565199744
 20
593.3297962968281
 10
-156.6743021205414
 20
593.939134198669
 10
-157.0788085969241
 20
594.6665644719582
 10
-157.4052962394133
 20
595.4925219659019
 10
-157.6449837528214
 20
596.3947915163641
 10
-157.7914244404474
 20
597.3491054506073
 10
-157.8406795960798
 20
598.3297962968285
210
0.0
220
0.0
230
-1.0
  0
LWPOLYLINE
  5
EF6
330
1E
100
AcDbEntity
  8
STEMPEL
100
AcDbPolyline
 90
       10
 70
   128
 43
0.0
 10
-154.7882709084181
 20
592.3297962968281
 10
-155.424275268419
 20
592.4209497787549
 10
-156.0409549577751
 20
592.6916405721126
 10
-156.6195724761801
 20
593.1336438741214
 10
-157.1425468231321
 20
593.7335296381142
 10
-157.5939876877364
 20
594.473070638709
 10
-157.9601782677626
 20
595.3297962968283
 10
-158.2299920477374
 20
596.2776754368743
 10
-158.3952308724891
 20
597.2879072308269
 10
-158.4508740439421
 20
598.3297962968285
210
0.0
220
0.0
230
-1.0
  0
LWPOLYLINE
  5
EF7
330
1E
100
AcDbEntity
  8
STEMPEL
100
AcDbPolyline
 90
       10
 70
   128
 43
0.0
 10
-167.4333822502144
 20
592.329796296828
 10
-167.9061122079679
 20
592.4209497787548
 10
-168.3644785051681
 20
592.6916405721126
 10
-168.7945539138189
 20
593.1336438741213
 10
-169.1832708102572
 20
593.7335296381142
 10
-169.5188182282848
 20
594.473070638709
 10
-169.7910007294004
 20
595.3297962968282
 10
-169.9915481860385
 20
596.2776754368742
 10
-170.1143670652109
 20
597.2879072308268
 10
-170.1557255774235
 20
598.3297962968284
210
0.0
220
0.0
230
-1.0
  0
LINE
  5
EF8
330
1E
100
AcDbEntity
  8
STEMPEL
100
AcDbLine
 10
170.1557255774235
 20
604.8297962968262
 30
0.0
 11
170.1557255774235
 21
598.3297962968296
 31
0.0
  0
LWPOLYLINE
  5
EF9
330
1E
100
AcDbEntity
  8
STEMPEL
100
AcDbPolyline
 90
        9
 70
   128
 43
0.0
 10
152.1956267678381
 20
612.3199303746499
 10
153.3120344892093
 20
612.1126232382428
 10
154.3773137409516
 20
611.6433685107891
 10
155.35314872399
 20
610.9290442736205
 10
156.2044407568478
 20
609.9953432302241
 10
156.9005706995842
 20
608.8758485950636
 10
157.4165002582756
 20
607.610826177725
 10
157.7336725584914
 20
606.2457761085156
 10
157.8406795960798
 20
604.8297962968279
  0
LINE
  5
EFA
330
1E
100
AcDbEntity
  8
STEMPEL
100
AcDbLine
 10
144.9125508634679
 20
593.3297962968281
 30
0.0
 11
156.2026565199751
 21
593.3297962968281
 31
0.0
  0
LWPOLYLINE
  5
EFB
330
1E
100
AcDbEntity
  8
STEMPEL
100
AcDbPolyline
 90
       18
 70
   128
 43
0.0
 10
146.5505739395733
 20
604.8297962968263
 10
146.6518865513776
 20
606.2079176804509
 10
146.9523743073068
 20
607.5391087932305
 10
147.441804457228
 20
608.7780375184072
 10
148.1035100443923
 20
609.8825136241764
 10
148.9149574786575
 20
610.8149255014293
 10
149.8485138908732
 20
611.5435209819906
 10
150.8723881370993
 20
612.043488620624
 10
151.9517134078822
 20
612.2978026190406
 10
153.0497345756332
 20
612.2978026190406
 10
154.1290598464159
 20
612.043488620624
 10
155.152934092642
 20
611.5435209819906
 10
156.0864905048577
 20
610.8149255014293
 10
156.8979379391228
 20
609.8825136241764
 10
157.5596435262873
 20
608.7780375184072
 10
158.0490736762086
 20
607.5391087932305
 10
158.3495614321378
 20
606.2079176804508
 10
158.4508740439421
 20
604.8297962968263
  0
LWPOLYLINE
  5
EFC
330
1E
100
AcDbEntity
  8
STEMPEL
100
AcDbPolyline
 90
        7
 70
   128
 43
0.0
 10
-182.4128228666882
 20
593.3297962968278
 10
-182.7633880811002
 20
593.9391341986688
 10
-183.0640500600389
 20
594.666564471958
 10
-183.3067221219735
 20
595.4925219659016
 10
-183.484877297022
 20
596.394791516364
 10
-183.5937238780025
 20
597.3491054506072
 10
-183.6303342994174
 20
598.3297962968284
210
0.0
220
0.0
230
-1.0
  0
LINE
  5
EFD
330
1E
100
AcDbEntity
  8
STEMPEL
100
AcDbLine
 10
183.6303342994174
 20
604.8297962968261
 30
0.0
 11
183.6303342994174
 21
598.3297962968294
 31
0.0
  0
LWPOLYLINE
  5
EFE
330
1E
100
AcDbEntity
  8
STEMPEL
100
AcDbPolyline
 90
       10
 70
   128
 43
0.0
 10
-181.2915752378854
 20
592.3297962968279
 10
-181.7643051956388
 20
592.4209497787546
 10
-182.222671492839
 20
592.6916405721125
 10
-182.6527469014898
 20
593.1336438741213
 10
-183.0414637979282
 20
593.7335296381141
 10
-183.3770112159557
 20
594.4730706387089
 10
-183.6491937170713
 20
595.3297962968281
 10
-183.8497411737094
 20
596.2776754368742
 10
-183.9725600528818
 20
597.2879072308266
 10
-184.0139185650944
 20
598.3297962968284
210
0.0
220
0.0
230
-1.0
  0
LINE
  5
EFF
330
1E
100
AcDbEntity
  8
STEMPEL
100
AcDbLine
 10
168.9382141446943
 20
593.329796296828
 30
0.0
 11
182.4128228666887
 21
593.3297962968278
 31
0.0
  0
LWPOLYLINE
  5
F00
330
1E
100
AcDbEntity
  8
STEMPEL
100
AcDbPolyline
 90
        9
 70
   128
 43
0.0
 10
176.893029938447
 20
612.3269227198663
 10
178.2172393887768
 20
612.1480898128184
 10
179.4852187859629
 20
611.6978138954944
 10
180.6499374740486
 20
610.9927961633551
 10
181.6681948426551
 20
610.0591864469715
 10
182.5022226819174
 20
608.9316132879956
 10
183.1210860441113
 20
607.6518995310436
 10
183.5018306525856
 20
606.2675110715083
 10
183.6303342994174
 20
604.8297962968277
  0
LWPOLYLINE
  5
F01
330
1E
100
AcDbEntity
  8
STEMPEL
100
AcDbPolyline
 90
       18
 70
   128
 43
0.0
 10
170.1557255774235
 20
604.8297962968262
 10
170.2737066127045
 20
606.2079176804506
 10
170.6236320158941
 20
607.5391087932303
 10
171.1935854970759
 20
608.7780375184072
 10
171.9641579740321
 20
609.8825136241764
 10
172.9091085252596
 20
610.8149255014293
 10
173.9962579930796
 20
611.5435209819905
 10
175.188584806258
 20
612.0434886206237
 10
176.4454857052097
 20
612.2978026190406
 10
177.724158437308
 20
612.2978026190406
 10
178.9810593362599
 20
612.0434886206237
 10
180.1733861494381
 20
611.5435209819905
 10
181.2605356172582
 20
610.8149255014292
 10
182.2054861684858
 20
609.8825136241764
 10
182.9760586454417
 20
608.7780375184071
 10
183.5460121266235
 20
607.5391087932302
 10
183.8959375298132
 20
606.2079176804506
 10
184.0139185650944
 20
604.8297962968261
  0
LINE
  5
F02
330
1E
100
AcDbEntity
  8
STEMPEL
100
AcDbLine
 10
112.1791026220342
 20
666.648633743709
 30
0.0
 11
136.1579565149855
 21
680.6362869098943
 31
0.0
  0
LINE
  5
F03
330
1E
100
AcDbEntity
  8
STEMPEL
100
AcDbLine
 10
111.6657615684534
 20
667.5068768568717
 30
0.0
 11
135.6520644439204
 21
681.49888686756
 31
0.0
  0
LINE
  5
F04
330
1E
100
AcDbEntity
  8
STEMPEL
100
AcDbLine
 10
113.2105589452617
 20
593.3297962968282
 30
0.0
 11
118.0247560942331
 21
593.3297962968282
 31
0.0
  0
LWPOLYLINE
  5
F05
330
1E
100
AcDbEntity
  8
STEMPEL
100
AcDbPolyline
 90
       18
 70
   128
 43
0.0
 10
115.3641305779302
 20
604.8297962968264
 10
115.4129999228465
 20
606.2079176804509
 10
115.5579437706666
 20
607.5391087932306
 10
115.7940262324938
 20
608.7780375184074
 10
116.1132078032404
 20
609.8825136241766
 10
116.5046191373309
 20
610.8149255014295
 10
116.9549311912288
 20
611.5435209819907
 10
117.4488091280283
 20
612.0434886206241
 10
117.9694345269332
 20
612.2978026190407
 10
118.499078114405
 20
612.2978026190407
 10
119.0197035133099
 20
612.0434886206241
 10
119.5135814501094
 20
611.5435209819907
 10
119.9638935040073
 20
610.8149255014295
 10
120.3553048380978
 20
609.8825136241766
 10
120.6744864088444
 20
608.7780375184074
 10
120.9105688706716
 20
607.5391087932306
 10
121.0555127184916
 20
606.2079176804509
 10
121.1043820634079
 20
604.8297962968264
  0
ARC
  5
F06
330
1E
100
AcDbEntity
  8
STEMPEL
100
AcDbCircle
 10
298.6984561901616
 20
676.329796296827
 30
0.0
 40
6.0
100
AcDbArc
 50
90.0
 51
90.0
  0
ARC
  5
F07
330
1E
100
AcDbEntity
  8
STEMPEL
100
AcDbCircle
 10
298.6984561901616
 20
676.329796296827
 30
0.0
 40
6.0
100
AcDbArc
 50
59.48712567238029
 51
90.0
  0
ARC
  5
F08
330
1E
100
AcDbEntity
  8
STEMPEL
100
AcDbCircle
 10
298.6984561901616
 20
676.329796296827
 30
0.0
 40
5.0
100
AcDbArc
 50
59.46264995170093
 51
90.0
  0
LINE
  5
F09
330
1E
100
AcDbEntity
  8
STEMPEL
100
AcDbLine
 10
298.6984561901616
 20
682.3297962968267
 30
0.0
 11
243.9600940178123
 21
682.3297962968272
 31
0.0
  0
LINE
  5
F0A
330
1E
100
AcDbEntity
  8
STEMPEL
100
AcDbLine
 10
298.6984561901616
 20
681.3297962968269
 30
0.0
 11
138.6984561901613
 21
681.3297962968281
 31
0.0
  0
LINE
  5
F0B
330
1E
100
AcDbEntity
  8
STEMPEL
100
AcDbLine
 10
99.6984561901613
 20
581.9432962968285
 30
0.0
 11
99.6984561901613
 21
593.3297962968286
 31
0.0
  0
LINE
  5
F0C
330
1E
100
AcDbEntity
  8
STEMPEL
100
AcDbLine
 10
93.6984561901613
 20
593.3297962968286
 30
0.0
 11
93.6984561901613
 21
581.9432962968285
 31
0.0
  0
ARC
  5
F0D
330
1E
100
AcDbEntity
  8
STEMPEL
100
AcDbCircle
 10
90.14845619016128
 20
593.8797962968285
 30
0.0
 40
0.5500000000000003
100
AcDbArc
 50
110.0000000000006
 51
270.0
  0
ARC
  5
F0E
330
1E
100
AcDbEntity
  8
STEMPEL
100
AcDbCircle
 10
103.2484561901613
 20
593.8797962968285
 30
0.0
 40
0.5500000000000009
100
AcDbArc
 50
270.0
 51
69.99999999999935
  0
LINE
  5
F0F
330
1E
100
AcDbEntity
  8
STEMPEL
100
AcDbLine
 10
103.4365672689904
 20
594.3966272382608
 30
0.0
 11
102.4719588820575
 21
594.7477159788279
 31
0.0
  0
LINE
  5
F10
330
1E
100
AcDbEntity
  8
STEMPEL
100
AcDbLine
 10
90.92495349826501
 20
594.7477159788279
 30
0.0
 11
89.9603451113322
 21
594.3966272382608
 31
0.0
  0
LINE
  5
F11
330
1E
100
AcDbEntity
  8
STEMPEL
100
AcDbLine
 10
101.6984561901613
 20
599.9297962968284
 30
0.0
 11
91.69845619016129
 21
599.9297962968284
 31
0.0
  0
LINE
  5
F12
330
1E
100
AcDbEntity
  8
STEMPEL
100
AcDbLine
 10
102.4719588820576
 20
599.7225368751916
 30
0.0
 11
102.4719588820575
 21
594.7477159788279
 31
0.0
  0
LINE
  5
F13
330
1E
100
AcDbEntity
  8
STEMPEL
100
AcDbLine
 10
99.58520753610944
 20
599.7225368751916
 30
0.0
 11
99.58520753610944
 21
594.7477159788279
 31
0.0
  0
LINE
  5
F14
330
1E
100
AcDbEntity
  8
STEMPEL
100
AcDbLine
 10
93.81170484421316
 20
599.7225368751916
 30
0.0
 11
93.81170484421316
 21
594.7477159788279
 31
0.0
  0
LINE
  5
F15
330
1E
100
AcDbEntity
  8
STEMPEL
100
AcDbLine
 10
90.92495349826501
 20
599.7225368751916
 30
0.0
 11
90.92495349826501
 21
594.7477159788279
 31
0.0
  0
LINE
  5
F16
330
1E
100
AcDbEntity
  8
STEMPEL
100
AcDbLine
 10
103.2484561901613
 20
593.3297962968286
 30
0.0
 11
90.14845619016128
 21
593.3297962968286
 31
0.0
  0
LINE
  5
F17
330
1E
100
AcDbEntity
  8
STEMPEL
100
AcDbLine
 10
103.4365672689904
 20
594.3966272382608
 30
0.0
 11
89.9603451113322
 21
594.3966272382608
 31
0.0
  0
LINE
  5
F18
330
1E
100
AcDbEntity
  8
HILF
100
AcDbLine
 10
99.08495619016131
 20
590.3297962968285
 30
0.0
 11
99.08495619016131
 21
581.3297962968285
 31
0.0
  0
LINE
  5
F19
330
1E
100
AcDbEntity
  8
HILF
100
AcDbLine
 10
99.08495619016131
 20
590.3297962968285
 30
0.0
 11
99.6984561901613
 21
593.3297962968286
 31
0.0
  0
LINE
  5
F1A
330
1E
100
AcDbEntity
  8
HILF
100
AcDbLine
 10
93.6984561901613
 20
590.3297962968285
 30
0.0
 11
99.6984561901613
 21
590.3297962968285
 31
0.0
  0
LINE
  5
F1B
330
1E
100
AcDbEntity
  8
HILF
100
AcDbLine
 10
94.31195619016127
 20
590.3297962968285
 30
0.0
 11
94.31195619016127
 21
581.3297962968285
 31
0.0
  0
LINE
  5
F1C
330
1E
100
AcDbEntity
  8
HILF
100
AcDbLine
 10
94.31195619016127
 20
590.3297962968285
 30
0.0
 11
93.6984561901613
 21
593.3297962968286
 31
0.0
  0
ARC
  5
F1D
330
1E
100
AcDbEntity
  8
STEMPEL
100
AcDbCircle
 10
101.0285832090835
 20
594.8002591583054
 30
0.0
 40
5.129537138523076
100
AcDbArc
 50
73.65710669401657
 51
106.3428933059834
  0
LINE
  5
F1E
330
1E
100
AcDbEntity
  8
STEMPEL
100
AcDbLine
 10
101.6984561901613
 20
599.9297962968284
 30
0.0
 11
102.4719588820576
 21
599.7225368751916
 31
0.0
  0
LINE
  5
F1F
330
1E
100
AcDbEntity
  8
STEMPEL
100
AcDbLine
 10
91.69845619016129
 20
599.9297962968284
 30
0.0
 11
90.92495349826501
 21
599.7225368751916
 31
0.0
  0
ARC
  5
F20
330
1E
100
AcDbEntity
  8
STEMPEL
100
AcDbCircle
 10
92.36832917123908
 20
594.8002591583054
 30
0.0
 40
5.129537138523076
100
AcDbArc
 50
73.65710669401657
 51
106.3428933059834
  0
ARC
  5
F21
330
1E
100
AcDbEntity
  8
STEMPEL
100
AcDbCircle
 10
96.69845619016129
 20
579.7225368751916
 30
0.0
 40
20.20725942163691
100
AcDbArc
 50
81.78678929826011
 51
98.21321070173988
  0
ARC
  5
F22
330
1E
100
AcDbEntity
  8
HILF
100
AcDbCircle
 10
101.0285832090835
 20
591.1873229731238
 30
0.0
 40
3.841839622940954
100
AcDbArc
 50
67.9324721810082
 51
112.0675278189918
  0
ARC
  5
F23
330
1E
100
AcDbEntity
  8
HILF
100
AcDbCircle
 10
92.36832917123908
 20
591.1884875350121
 30
0.0
 40
3.840760399790701
100
AcDbArc
 50
67.92594526323454
 51
112.0740547367654
  0
ARC
  5
F24
330
1E
100
AcDbEntity
  8
HILF
100
AcDbCircle
 10
96.69845619016129
 20
580.0885042696023
 30
0.0
 40
14.94074366520046
100
AcDbArc
 50
78.85962783889434
 51
101.1403721611056
  0
LINE
  5
F25
330
1E
100
AcDbEntity
  8
STEMPEL
100
AcDbLine
 10
93.6984561901613
 20
592.3297962968283
 30
0.0
 11
88.69845619016118
 21
592.3297962968283
 31
0.0
  0
LINE
  5
F26
330
1E
100
AcDbEntity
  8
STEMPEL
100
AcDbLine
 10
93.69845619016123
 20
592.3297962968282
 30
0.0
 11
91.69845619016129
 21
592.3297962968283
 31
0.0
  0
HATCH
  5
F27
330
1E
100
AcDbEntity
  8
SCHRAFF
100
AcDbHatch
 10
0.0
 20
0.0
 30
0.0
210
0.0
220
0.0
230
1.0
  2
_USER
 70
     0
 71
     0
 91
        4
 92
        7
 72
     0
 73
     1
 93
        9
 10
101.6984561901613
 20
592.3297962968283
 10
99.69845619016135
 20
592.3297962968283
 10
99.6984561901613
 20
581.9432962968285
 10
99.6984561901613
 20
579.5399484612187
 10
98.6984561901613
 20
579.5399484612187
 10
98.69845619016135
 20
578.268765298957
 10
96.69845619016124
 20
577.7328669140947
 10
96.69845619016118
 20
577.3297962968284
 10
101.6984561901613
 20
577.3297962968285
 97
        0
 92
       23
 72
     0
 73
     1
 93
        5
 10
99.69845619016119
 20
581.9432962968284
 10
99.08495619016131
 20
581.3297962968285
 10
98.69845619016135
 20
581.3297962968285
 10
98.69845619016135
 20
579.5399484612187
 10
99.69845619016135
 20
579.5399484612187
 97
        0
 92
        7
 72
     0
 73
     1
 93
        9
 10
94.6984561901613
 20
579.5399484612189
 10
93.6984561901613
 20
579.5399484612189
 10
93.69845619016123
 20
581.9432962968285
 10
93.6984561901613
 20
592.3297962968283
 10
91.69845619016129
 20
592.3297962968283
 10
91.69845619016134
 20
577.3297962968284
 10
96.69845619016136
 20
577.3297962968285
 10
96.69845619016129
 20
577.7328669140947
 10
94.69845619016124
 20
578.268765298957
 97
        0
 92
       23
 72
     0
 73
     1
 93
        5
 10
94.69845619016153
 20
581.3297962968285
 10
94.31195619016122
 20
581.3297962968285
 10
93.6984561901613
 20
581.9432962968285
 10
93.69845619016123
 20
579.5399484612188
 10
94.6984561901613
 20
579.5399484612187
 97
        0
 75
     0
 76
     0
 52
45.0
 41
1.0
 77
     0
 78
     1
 53
45.0
 43
-391.5551676322725
 44
238.6363442051783
 45
-0.7071067811865475
 46
0.7071067811865476
 79
     0
 47
0.0420521955660228
 98
        4
 10
101.6476988495238
 20
587.3687948406957
 10
99.41806554667577
 20
580.4722345231352
 10
93.82294984763623
 20
578.5378332710699
 10
94.20156700256942
 20
580.177868811547
  0
DIMENSION
  5
F28
330
1E
100
AcDbEntity
  8
BEM
100
AcDbDimension
  2
*D8
 10
70.34611144246222
 20
592.3297962968283
 30
0.0
 11
63.84611144246212
 21
584.8297962968283
 31
0.0
 70
    32
 71
     5
 42
15.0
  3
Standard
100
AcDbAlignedDimension
 13
83.69845619016135
 23
577.3297962968284
 33
0.0
 14
88.6984561901613
 24
592.3297962968283
 34
0.0
 50
90.0
100
AcDbRotatedDimension
1001
ACAD
1000
DSTYLE
1002
{
1070
    40
1040
2.0
1070
    41
1040
3.5
1070
    42
1040
1.0
1070
    43
1040
7.0
1070
    44
1040
1.0
1070
    73
1070
     0
1070
    74
1070
     0
1070
    77
1070
     1
1070
    78
1070
     8
1070
    79
1070
     2
1070
   140
1040
3.5
1070
   141
1040
1.5
1070
   146
1040
0.5142857142857144
1070
   147
1040
1.5
1070
   172
1070
     1
1070
   178
1070
     1
1070
   179
1070
     2
1070
   271
1070
     2
1070
   272
1070
     2
1070
   284
1070
     8
1070
   285
1070
     8
1070
   286
1070
     8
1002
}
  0
DIMENSION
  5
F29
330
1E
100
AcDbEntity
  8
BEM
100
AcDbDimension
  2
*D9
 10
70.34611144246227
 20
682.3297962968277
 30
0.0
 11
63.84611144246215
 21
637.3297962968281
 31
0.0
 70
    32
 71
     5
 42
89.99999999999943
  3
Standard
100
AcDbAlignedDimension
 13
88.6984561901613
 23
592.3297962968283
 33
0.0
 14
138.6984561901616
 24
682.3297962968277
 34
0.0
 50
90.0
100
AcDbRotatedDimension
1001
ACAD
1000
DSTYLE
1002
{
1070
   279
1070
     1
1070
    40
1040
2.0
1070
    41
1040
3.5
1070
    42
1040
1.0
1070
    43
1040
7.0
1070
    44
1040
1.0
1070
    73
1070
     0
1070
    74
1070
     0
1070
    77
1070
     1
1070
    78
1070
     8
1070
    79
1070
     2
1070
   140
1040
3.5
1070
   141
1040
1.5
1070
   146
1040
0.5142857142857144
1070
   147
1040
1.5
1070
   172
1070
     1
1070
   178
1070
     1
1070
   179
1070
     2
1070
   271
1070
     2
1070
   272
1070
     2
1070
   284
1070
     8
1070
   285
1070
     8
1070
   286
1070
     8
1002
}
  0
LINE
  5
F2A
330
1E
100
AcDbEntity
  8
STEMPEL
100
AcDbLine
 10
98.6984561901613
 20
578.268765298957
 30
0.0
 11
96.69845619016129
 21
577.7328669140947
 31
0.0
  0
LINE
  5
F2B
330
1E
100
AcDbEntity
  8
STEMPEL
100
AcDbLine
 10
94.6984561901613
 20
578.268765298957
 30
0.0
 11
96.69845619016129
 21
577.7328669140947
 31
0.0
  0
LINE
  5
F2C
330
1E
100
AcDbEntity
  8
STEMPEL
100
AcDbLine
 10
98.6984561901613
 20
578.268765298957
 30
0.0
 11
94.6984561901613
 21
578.268765298957
 31
0.0
  0
LINE
  5
F2D
330
1E
100
AcDbEntity
  8
STEMPEL
100
AcDbLine
 10
94.6984561901613
 20
578.2687652989568
 30
0.0
 11
94.69845619016135
 21
581.3297962968285
 31
0.0
  0
LINE
  5
F2E
330
1E
100
AcDbEntity
  8
STEMPEL
100
AcDbLine
 10
98.6984561901613
 20
578.2687652989566
 30
0.0
 11
98.69845619016135
 21
581.3297962968285
 31
0.0
  0
LINE
  5
F2F
330
1E
100
AcDbEntity
  8
STEMPEL
100
AcDbLine
 10
99.6984561901613
 20
579.5399484612187
 30
0.0
 11
93.6984561901613
 21
579.5399484612189
 31
0.0
  0
LINE
  5
F30
330
1E
100
AcDbEntity
  8
HILF
100
AcDbLine
 10
99.6984561901613
 20
579.5399484612189
 30
0.0
 11
99.69845619016124
 21
581.9432962968285
 31
0.0
  0
LINE
  5
F31
330
1E
100
AcDbEntity
  8
HILF
100
AcDbLine
 10
93.6984561901613
 20
579.5399484612189
 30
0.0
 11
93.69845619016123
 21
581.9432962968285
 31
0.0
  0
LINE
  5
F32
330
1E
100
AcDbEntity
  8
STEMPEL
100
AcDbLine
 10
83.69845619016135
 20
577.3297962968284
 30
0.0
 11
83.6984561901613
 21
575.8297962968281
 31
0.0
  0
LINE
  5
F33
330
1E
100
AcDbEntity
  8
STEMPEL
100
AcDbLine
 10
99.08495619016131
 20
581.3297962968285
 30
0.0
 11
99.6984561901613
 21
581.9432962968285
 31
0.0
  0
LINE
  5
F34
330
1E
100
AcDbEntity
  8
STEMPEL
100
AcDbLine
 10
93.6984561901613
 20
581.9432962968285
 30
0.0
 11
94.31195619016127
 21
581.3297962968285
 31
0.0
  0
LINE
  5
F35
330
1E
100
AcDbEntity
  8
STEMPEL
100
AcDbLine
 10
99.69845619016124
 20
581.9432962968285
 30
0.0
 11
93.69845619016123
 21
581.9432962968285
 31
0.0
  0
LINE
  5
F36
330
1E
100
AcDbEntity
  8
STEMPEL
100
AcDbLine
 10
99.08495619016131
 20
581.3297962968285
 30
0.0
 11
94.31195619016127
 21
581.3297962968285
 31
0.0
  0
LINE
  5
F37
102
{ACAD_REACTORS
330
E7B
102
}
330
1E
100
AcDbEntity
  8
STEMPEL
100
AcDbLine
 10
253.9984561901612
 20
540.8297962968283
 30
0.0
 11
253.5610128725316
 21
535.8297962968284
 31
0.0
  0
LINE
  5
F38
102
{ACAD_REACTORS
330
E7B
102
}
330
1E
100
AcDbEntity
  8
STEMPEL
100
AcDbLine
 10
255.1984561901611
 20
540.7774031653389
 30
0.0
 11
254.7655966775836
 21
535.8297962968284
 31
0.0
  0
LINE
  5
F39
330
1E
100
AcDbEntity
  8
HILF
100
AcDbLine
 10
252.7938723851092
 20
540.8297962968283
 30
0.0
 11
184.6030399952132
 21
540.8297962968283
 31
0.0
  0
LINE
  5
F3A
102
{ACAD_REACTORS
330
E7B
102
}
330
1E
100
AcDbEntity
  8
STEMPEL
100
AcDbLine
 10
254.7655966775836
 20
535.8297962968284
 30
0.0
 11
182.6313157027388
 21
535.8297962968284
 31
0.0
  0
LINE
  5
F3B
102
{ACAD_REACTORS
330
E7B
102
}
330
1E
100
AcDbEntity
  8
STEMPEL
100
AcDbLine
 10
182.1984561901612
 20
540.7774031653379
 30
0.0
 11
182.6313157027388
 21
535.8297962968284
 31
0.0
  0
LINE
  5
F3C
102
{ACAD_REACTORS
330
E7B
102
}
330
1E
100
AcDbEntity
  8
STEMPEL
100
AcDbLine
 10
183.3984561901612
 20
540.8297962968283
 30
0.0
 11
183.8358995077908
 21
535.8297962968284
 31
0.0
  0
ELLIPSE
  5
F3D
330
1E
100
AcDbEntity
  8
STEMPEL
100
AcDbEllipse
 10
250.3083834282933
 20
567.8297962968287
 30
0.0
 11
0.0
 21
6.0
 31
0.0
210
0.0
220
0.0
230
1.0
 40
0.5716676357068783
 41
1.889213012932743
 42
2.964997179685858
  0
ELLIPSE
  5
F3E
330
1E
100
AcDbEntity
  8
STEMPEL
100
AcDbEllipse
 10
249.2691529437521
 20
567.8297962968287
 30
0.0
 11
0.0
 21
5.999999999999943
 31
0.0
210
0.0
220
0.0
230
1.0
 40
0.5528730833000856
 41
1.889213012932703
 42
3.141592653589793
  0
ELLIPSE
  5
F3F
330
1E
100
AcDbEntity
  8
STEMPEL
100
AcDbEllipse
 10
249.2691529437521
 20
567.8297962968287
 30
0.0
 11
0.0
 21
5.999999999999943
 31
0.0
210
0.0
220
0.0
230
1.0
 40
0.4142502043711471
 41
3.141592653589793
 42
4.496892404783716
  0
ARC
  5
F40
330
1E
100
AcDbEntity
  8
STEMPEL
100
AcDbCircle
 10
218.6984561901613
 20
567.8297962968287
 30
0.0
 40
6.0
100
AcDbArc
 50
195.8034962890195
 51
344.1965037109804
  0
ELLIPSE
  5
F41
330
1E
100
AcDbEntity
  8
STEMPEL
100
AcDbEllipse
 10
188.1277594365705
 20
567.829796296829
 30
0.0
 11
0.0000000000000199
 21
5.999999999999943
 31
0.0
210
0.0
220
0.0
230
-1.0
 40
0.4142502043711471
 41
3.141592653589793
 42
4.496892404783716
  0
ELLIPSE
  5
F42
330
1E
100
AcDbEntity
  8
STEMPEL
100
AcDbEllipse
 10
188.1277594365705
 20
567.829796296829
 30
0.0
 11
0.0000000000000199
 21
5.999999999999943
 31
0.0
210
0.0
220
0.0
230
-1.0
 40
0.5528730833000856
 41
1.889213012932703
 42
3.141592653589793
  0
ELLIPSE
  5
F43
330
1E
100
AcDbEntity
  8
STEMPEL
100
AcDbEllipse
 10
187.0885289520293
 20
567.829796296829
 30
0.0
 11
0.0000000000000199
 21
6.0
 31
0.0
210
0.0
220
0.0
230
-1.0
 40
0.5716676357068783
 41
1.889213012932743
 42
2.964997179685858
  0
LINE
  5
FDE
330
1E
100
AcDbEntity
  8
STEMPEL
100
AcDbLine
 10
245.7546302703651
 20
572.8297962968285
 30
0.0
 11
252.2668917540657
 21
572.8297962968285
 31
0.0
  0
LINE
  5
FDF
330
1E
100
AcDbEntity
  8
STEMPEL
100
AcDbLine
 10
211.047568349072
 20
572.8297962968281
 30
0.0
 11
226.3493440312507
 21
572.8297962968282
 31
0.0
  0
ENDSEC
  0
SECTION
  2
OBJECTS
  0
DICTIONARY
  5
C
330
0
100
AcDbDictionary
281
     1
  3
ACAD_COLOR
350
11A
  3
ACAD_GROUP
350
D
  3
ACAD_LAYOUT
350
19
  3
ACAD_MATERIAL
350
119
  3
ACAD_MLINESTYLE
350
16
  3
ACAD_PLOTSETTINGS
350
18
  3
ACAD_PLOTSTYLENAME
350
E
  3
AcDbVariableDictionary
350
125
  0
DICTIONARY
  5
DB
330
1E
100
AcDbDictionary
280
     1
281
     1
  3
ACAD_LAYOUTSELFREF
360
10F
  0
DICTIONARY
  5
DD
330
1A
100
AcDbDictionary
280
     1
281
     1
  3
ACAD_LAYOUTSELFREF
360
10E
  0
DICTIONARY
  5
11A
102
{ACAD_REACTORS
330
C
102
}
330
C
100
AcDbDictionary
281
     1
  0
DICTIONARY
  5
D
102
{ACAD_REACTORS
330
C
102
}
330
C
100
AcDbDictionary
281
     1
  0
DICTIONARY
  5
19
102
{ACAD_REACTORS
330
C
102
}
330
C
100
AcDbDictionary
281
     1
  3
Layout1
350
1D
  3
Model
350
21
  0
DICTIONARY
  5
119
102
{ACAD_REACTORS
330
C
102
}
330
C
100
AcDbDictionary
281
     1
  0
DICTIONARY
  5
16
102
{ACAD_REACTORS
330
C
102
}
330
C
100
AcDbDictionary
281
     1
  3
Standard
350
17
  0
DICTIONARY
  5
18
102
{ACAD_REACTORS
330
C
102
}
330
C
100
AcDbDictionary
281
     1
  0
ACDBDICTIONARYWDFLT
  5
E
102
{ACAD_REACTORS
330
C
102
}
330
C
100
AcDbDictionary
281
     1
  3
Normal
350
F
100
AcDbDictionaryWithDefault
340
F
  0
DICTIONARY
  5
125
102
{ACAD_REACTORS
330
C
102
}
330
C
100
AcDbDictionary
281
     1
  3
DIMASSOC
350
126
  3
PROJECTNAME
350
127
  0
XRECORD
  5
10F
102
{ACAD_REACTORS
330
DB
102
}
330
DB
100
AcDbXrecord
280
     1
340
1E
  0
XRECORD
  5
10E
102
{ACAD_REACTORS
330
DD
102
}
330
DD
100
AcDbXrecord
280
     1
340
1A
  0
LAYOUT
  5
1D
102
{ACAD_REACTORS
330
19
102
}
330
19
100
AcDbPlotSettings
  1

  2
\\NT_WORK01\HP LaserJet 5000 PCL 6
  4

  6

 40
0.0
 41
0.0
 42
0.0
 43
0.0
 44
0.0
 45
0.0
 46
0.0
 47
0.0
 48
0.0
 49
0.0
140
0.0
141
0.0
142
1.0
143
1.0
 70
   688
 72
     0
 73
     0
 74
     5
  7

 75
    16
147
1.0
 76
     0
 77
     2
 78
   300
148
0.0
149
0.0
100
AcDbLayout
  1
Layout1
 70
     0
 71
     1
 10
0.0
 20
0.0
 11
12.0
 21
9.0
 12
0.0
 22
0.0
 32
0.0
 14
1.000000000000000E+20
 24
1.000000000000000E+20
 34
1.000000000000000E+20
 15
-1.000000000000000E+20
 25
-1.000000000000000E+20
 35
-1.000000000000000E+20
146
0.0
 13
0.0
 23
0.0
 33
0.0
 16
1.0
 26
0.0
 36
0.0
 17
0.0
 27
1.0
 37
0.0
 76
     0
330
1A
  0
LAYOUT
  5
21
102
{ACAD_REACTORS
330
19
102
}
330
19
100
AcDbPlotSettings
  1

  2
none_device
  4
Letter_(8.50_x_11.00_Inches)
  6

 40
6.349999904632568
 41
6.349999904632568
 42
6.350006103515625
 43
6.350006103515625
 44
215.8999938964844
 45
279.3999938964844
 46
0.0
 47
0.0
 48
0.0
 49
0.0
140
0.0
141
0.0
142
1.0
143
1.0
 70
 11952
 72
     0
 73
     1
 74
     0
  7

 75
     0
147
1.0
 76
     0
 77
     2
 78
   300
148
3124.2
149
0.0
100
AcDbLayout
  1
Model
 70
     1
 71
     0
 10
0.0
 20
0.0
 11
12.0
 21
9.0
 12
0.0
 22
0.0
 32
0.0
 14
0.0
 24
0.0
 34
0.0
 15
0.0
 25
0.0
 35
0.0
146
0.0
 13
0.0
 23
0.0
 33
0.0
 16
1.0
 26
0.0
 36
0.0
 17
0.0
 27
1.0
 37
0.0
 76
     0
330
1E
  0
MLINESTYLE
  5
17
102
{ACAD_REACTORS
330
16
102
}
330
16
100
AcDbMlineStyle
  2
STANDARD
 70
     0
  3

 62
   256
 51
90.0
 52
90.0
 71
     2
 49
0.5
 62
   256
  6
BYLAYER
 49
-0.5
 62
   256
  6
BYLAYER
  0
ACDBPLACEHOLDER
  5
F
102
{ACAD_REACTORS
330
E
102
}
330
E
  0
DICTIONARYVAR
  5
126
102
{ACAD_REACTORS
330
125
102
}
330
125
100
DictionaryVariables
280
     0
  1
1
  0
DICTIONARYVAR
  5
127
102
{ACAD_REACTORS
330
125
102
}
330
125
100
DictionaryVariables
280
     0
  1

  0
ENDSEC
  0
EOF
