  0
SECTION
  2
HEADER
  9
$ACADVER
  1
AC1018
  9
$ACADMAINTVER
 70
     2
  9
$DWGCODEPAGE
  3
ANSI_1252
  9
$INSBASE
 10
0.0
 20
0.0
 30
0.0
  9
$EXTMIN
 10
-0.0181260584133725
 20
-0.0256328098773793
 30
-0.0015258207003583
  9
$EXTMAX
 10
594.0181288244414
 20
840.0256367214323
 30
0.0000000349246037
  9
$LIMMIN
 10
0.0
 20
0.0
  9
$LIMMAX
 10
594.0
 20
840.0
  9
$ORTHOMODE
 70
     1
  9
$REGENMODE
 70
     1
  9
$FILLMODE
 70
     1
  9
$QTEXTMODE
 70
     0
  9
$MIRRTEXT
 70
     1
  9
$LTSCALE
 40
20.0
  9
$ATTMODE
 70
     1
  9
$TEXTSIZE
 40
3.5
  9
$TRACEWID
 40
1.0
  9
$TEXTSTYLE
  7
STANDARD
  9
$CLAYER
  8
VOLL
  9
$CELTYPE
  6
ByLayer
  9
$CECOLOR
 62
   256
  9
$CELTSCALE
 40
1.0
  9
$DISPSILH
 70
     0
  9
$DIMSCALE
 40
2.0
  9
$DIMASZ
 40
3.5
  9
$DIMEXO
 40
1.0
  9
$DIMDLI
 40
7.0
  9
$DIMRND
 40
0.0
  9
$DIMDLE
 40
0.0
  9
$DIMEXE
 40
1.0
  9
$DIMTP
 40
0.0
  9
$DIMTM
 40
0.0
  9
$DIMTXT
 40
3.5
  9
$DIMCEN
 40
1.5
  9
$DIMTSZ
 40
0.0
  9
$DIMTOL
 70
     0
  9
$DIMLIM
 70
     0
  9
$DIMTIH
 70
     0
  9
$DIMTOH
 70
     0
  9
$DIMSE1
 70
     0
  9
$DIMSE2
 70
     0
  9
$DIMTAD
 70
     1
  9
$DIMZIN
 70
     8
  9
$DIMBLK
  1

  9
$DIMASO
 70
     1
  9
$DIMSHO
 70
     0
  9
$DIMPOST
  1

  9
$DIMAPOST
  1

  9
$DIMALT
 70
     0
  9
$DIMALTD
 70
     2
  9
$DIMALTF
 40
25.4
  9
$DIMLFAC
 40
1.0
  9
$DIMTOFL
 70
     1
  9
$DIMTVP
 40
0.0
  9
$DIMTIX
 70
     0
  9
$DIMSOXD
 70
     0
  9
$DIMSAH
 70
     0
  9
$DIMBLK1
  1

  9
$DIMBLK2
  1

  9
$DIMSTYLE
  2
Standard
  9
$DIMCLRD
 70
     0
  9
$DIMCLRE
 70
     0
  9
$DIMCLRT
 70
     1
  9
$DIMTFAC
 40
0.5142857142857144
  9
$DIMGAP
 40
1.5
  9
$DIMJUST
 70
     0
  9
$DIMSD1
 70
     0
  9
$DIMSD2
 70
     0
  9
$DIMTOLJ
 70
     1
  9
$DIMTZIN
 70
     8
  9
$DIMALTZ
 70
     8
  9
$DIMALTTZ
 70
     8
  9
$DIMUPT
 70
     0
  9
$DIMDEC
 70
     2
  9
$DIMTDEC
 70
     2
  9
$DIMALTU
 70
     2
  9
$DIMALTTD
 70
     2
  9
$DIMTXSTY
  7
STANDARD
  9
$DIMAUNIT
 70
     0
  9
$DIMADEC
 70
     2
  9
$DIMALTRND
 40
0.0
  9
$DIMAZIN
 70
     2
  9
$DIMDSEP
 70
    46
  9
$DIMATFIT
 70
     3
  9
$DIMFRAC
 70
     0
  9
$DIMLDRBLK
  1

  9
$DIMLUNIT
 70
     2
  9
$DIMLWD
 70
    -2
  9
$DIMLWE
 70
    -2
  9
$DIMTMOVE
 70
     0
  9
$LUNITS
 70
     2
  9
$LUPREC
 70
     2
  9
$SKETCHINC
 40
1.0
  9
$FILLETRAD
 40
0.0
  9
$AUNITS
 70
     0
  9
$AUPREC
 70
     0
  9
$MENU
  1
ACAD
  9
$ELEVATION
 40
0.0
  9
$PELEVATION
 40
0.0
  9
$THICKNESS
 40
0.0
  9
$LIMCHECK
 70
     0
  9
$CHAMFERA
 40
0.0
  9
$CHAMFERB
 40
0.0
  9
$CHAMFERC
 40
0.0
  9
$CHAMFERD
 40
0.0
  9
$SKPOLY
 70
     0
  9
$TDCREATE
 40
2455397.867059838
  9
$TDUCREATE
 40
2455397.783726505
  9
$TDUPDATE
 40
2456157.312035069
  9
$TDUUPDATE
 40
2456157.228701736
  9
$TDINDWG
 40
0.2076575579
  9
$TDUSRTIMER
 40
0.2076575579
  9
$USRTIMER
 70
     1
  9
$ANGBASE
 50
0.0
  9
$ANGDIR
 70
     0
  9
$PDMODE
 70
     0
  9
$PDSIZE
 40
0.0
  9
$PLINEWID
 40
0.0
  9
$SPLFRAME
 70
     0
  9
$SPLINETYPE
 70
     6
  9
$SPLINESEGS
 70
     8
  9
$HANDSEED
  5
2B08
  9
$SURFTAB1
 70
     6
  9
$SURFTAB2
 70
     6
  9
$SURFTYPE
 70
     6
  9
$SURFU
 70
     6
  9
$SURFV
 70
     6
  9
$UCSBASE
  2

  9
$UCSNAME
  2

  9
$UCSORG
 10
0.0
 20
0.0
 30
0.0
  9
$UCSXDIR
 10
1.0
 20
0.0
 30
0.0
  9
$UCSYDIR
 10
0.0
 20
1.0
 30
0.0
  9
$UCSORTHOREF
  2

  9
$UCSORTHOVIEW
 70
     0
  9
$UCSORGTOP
 10
0.0
 20
0.0
 30
0.0
  9
$UCSORGBOTTOM
 10
0.0
 20
0.0
 30
0.0
  9
$UCSORGLEFT
 10
0.0
 20
0.0
 30
0.0
  9
$UCSORGRIGHT
 10
0.0
 20
0.0
 30
0.0
  9
$UCSORGFRONT
 10
0.0
 20
0.0
 30
0.0
  9
$UCSORGBACK
 10
0.0
 20
0.0
 30
0.0
  9
$PUCSBASE
  2

  9
$PUCSNAME
  2

  9
$PUCSORG
 10
0.0
 20
0.0
 30
0.0
  9
$PUCSXDIR
 10
1.0
 20
0.0
 30
0.0
  9
$PUCSYDIR
 10
0.0
 20
1.0
 30
0.0
  9
$PUCSORTHOREF
  2

  9
$PUCSORTHOVIEW
 70
     0
  9
$PUCSORGTOP
 10
0.0
 20
0.0
 30
0.0
  9
$PUCSORGBOTTOM
 10
0.0
 20
0.0
 30
0.0
  9
$PUCSORGLEFT
 10
0.0
 20
0.0
 30
0.0
  9
$PUCSORGRIGHT
 10
0.0
 20
0.0
 30
0.0
  9
$PUCSORGFRONT
 10
0.0
 20
0.0
 30
0.0
  9
$PUCSORGBACK
 10
0.0
 20
0.0
 30
0.0
  9
$USERI1
 70
     0
  9
$USERI2
 70
     0
  9
$USERI3
 70
     0
  9
$USERI4
 70
     0
  9
$USERI5
 70
     0
  9
$USERR1
 40
0.0
  9
$USERR2
 40
0.0
  9
$USERR3
 40
0.0
  9
$USERR4
 40
0.0
  9
$USERR5
 40
0.0
  9
$WORLDVIEW
 70
     1
  9
$SHADEDGE
 70
     3
  9
$SHADEDIF
 70
    70
  9
$TILEMODE
 70
     1
  9
$MAXACTVP
 70
    16
  9
$PINSBASE
 10
0.0
 20
0.0
 30
0.0
  9
$PLIMCHECK
 70
     0
  9
$PEXTMIN
 10
1.000000000000000E+20
 20
1.000000000000000E+20
 30
1.000000000000000E+20
  9
$PEXTMAX
 10
-1.000000000000000E+20
 20
-1.000000000000000E+20
 30
-1.000000000000000E+20
  9
$PLIMMIN
 10
0.0
 20
0.0
  9
$PLIMMAX
 10
12.0
 20
9.0
  9
$UNITMODE
 70
     0
  9
$VISRETAIN
 70
     0
  9
$PLINEGEN
 70
     0
  9
$PSLTSCALE
 70
     0
  9
$TREEDEPTH
 70
  3020
  9
$CMLSTYLE
  2
Standard
  9
$CMLJUST
 70
     0
  9
$CMLSCALE
 40
1.0
  9
$PROXYGRAPHICS
 70
     1
  9
$MEASUREMENT
 70
     0
  9
$CELWEIGHT
370
    -1
  9
$ENDCAPS
280
     0
  9
$JOINSTYLE
280
     0
  9
$LWDISPLAY
290
     0
  9
$INSUNITS
 70
     0
  9
$HYPERLINKBASE
  1

  9
$STYLESHEET
  1
monochrome 1.ctb
  9
$XEDIT
290
     1
  9
$CEPSNTYPE
380
     0
  9
$PSTYLEMODE
290
     1
  9
$FINGERPRINTGUID
  2
{D68B0D0D-A558-11D7-B632-000102183313}
  9
$VERSIONGUID
  2
{943E751B-82E9-470F-92C4-61C044B16689}
  9
$EXTNAMES
290
     1
  9
$PSVPSCALE
 40
0.0
  9
$OLESTARTUP
290
     0
  9
$SORTENTS
280
   127
  9
$INDEXCTL
280
     0
  9
$HIDETEXT
280
     0
  9
$XCLIPFRAME
290
     0
  9
$HALOGAP
280
     0
  9
$OBSCOLOR
 70
   257
  9
$OBSLTYPE
280
     0
  9
$INTERSECTIONDISPLAY
280
     0
  9
$INTERSECTIONCOLOR
 70
   257
  9
$DIMASSOC
280
     1
  9
$PROJECTNAME
  1

  0
ENDSEC
  0
SECTION
  2
CLASSES
  0
CLASS
  1
ACDBDICTIONARYWDFLT
  2
AcDbDictionaryWithDefault
  3
ObjectDBX Classes
 90
        0
 91
        1
280
     0
281
     0
  0
CLASS
  1
DICTIONARYVAR
  2
AcDbDictionaryVar
  3
ObjectDBX Classes
 90
        0
 91
        2
280
     0
281
     0
  0
ENDSEC
  0
SECTION
  2
TABLES
  0
TABLE
  2
VPORT
  5
8
330
0
100
AcDbSymbolTable
 70
     3
  0
VPORT
  5
2B07
330
8
100
AcDbSymbolTableRecord
100
AcDbViewportTableRecord
  2
*Active
 70
     0
 10
0.0
 20
0.0
 11
1.0
 21
1.0
 12
297.0
 22
420.0
 13
0.0
 23
0.0
 14
1.0
 24
1.0
 15
10.0
 25
10.0
 16
0.0
 26
0.0
 36
1.0
 17
0.0
 27
0.0
 37
0.0
 40
840.0
 41
1.404858299595141
 42
50.0
 43
0.0
 44
0.0
 50
0.0
 51
0.0
 71
     0
 72
  1500
 73
     1
 74
     0
 75
     0
 76
     0
 77
     0
 78
     0
281
     0
 65
     1
110
0.0
120
0.0
130
0.0
111
1.0
121
0.0
131
0.0
112
0.0
122
1.0
132
0.0
 79
     0
146
0.0
  0
ENDTAB
  0
TABLE
  2
LTYPE
  5
5
330
0
100
AcDbSymbolTable
 70
     2
  0
LTYPE
  5
13
330
5
100
AcDbSymbolTableRecord
100
AcDbLinetypeTableRecord
  2
ByBlock
 70
     0
  3

 72
    65
 73
     0
 40
0.0
  0
LTYPE
  5
14
330
5
100
AcDbSymbolTableRecord
100
AcDbLinetypeTableRecord
  2
ByLayer
 70
     0
  3

 72
    65
 73
     0
 40
0.0
  0
LTYPE
  5
15
330
5
100
AcDbSymbolTableRecord
100
AcDbLinetypeTableRecord
  2
Continuous
 70
     0
  3
Solid line
 72
    65
 73
     0
 40
0.0
  0
LTYPE
  5
25
330
5
100
AcDbSymbolTableRecord
100
AcDbLinetypeTableRecord
  2
STRICHPUNKT
 70
     0
  3
__ . __ . __ . __ . __ . __ . __ . __ . __ . __
 72
    65
 73
     4
 40
1.0
 49
0.5
 74
     0
 49
-0.25
 74
     0
 49
0.0
 74
     0
 49
-0.25
 74
     0
  0
ENDTAB
  0
TABLE
  2
LAYER
  5
2
330
0
100
AcDbSymbolTable
 70
     9
  0
LAYER
  5
10
330
2
100
AcDbSymbolTableRecord
100
AcDbLayerTableRecord
  2
0
 70
     0
 62
     7
  6
Continuous
370
    -3
390
F
  0
LAYER
  5
2B
330
2
100
AcDbSymbolTableRecord
100
AcDbLayerTableRecord
  2
VOLL
 70
     0
 62
     1
  6
Continuous
370
    -3
390
F
  0
LAYER
  5
2C
330
2
100
AcDbSymbolTableRecord
100
AcDbLayerTableRecord
  2
HILF
 70
     0
 62
     2
  6
Continuous
370
    -3
390
F
  0
LAYER
  5
2D
330
2
100
AcDbSymbolTableRecord
100
AcDbLayerTableRecord
  2
MITTEL
 70
     0
 62
     2
  6
STRICHPUNKT
370
    -3
390
F
  0
LAYER
  5
2F
330
2
100
AcDbSymbolTableRecord
100
AcDbLayerTableRecord
  2
BEM
 70
     0
 62
     7
  6
Continuous
370
    -3
390
F
  0
LAYER
  5
30
330
2
100
AcDbSymbolTableRecord
100
AcDbLayerTableRecord
  2
STEMPEL
 70
     0
 62
     3
  6
Continuous
370
    -3
390
F
  0
LAYER
  5
33
330
2
100
AcDbSymbolTableRecord
100
AcDbLayerTableRecord
  2
TEXT
 70
     0
 62
     7
  6
Continuous
370
    -3
390
F
  0
LAYER
  5
1AE
330
2
100
AcDbSymbolTableRecord
100
AcDbLayerTableRecord
  2
SCHRAFF
 70
     0
 62
     7
  6
Continuous
370
    -3
390
F
  0
LAYER
  5
7AB
330
2
100
AcDbSymbolTableRecord
100
AcDbLayerTableRecord
  2
DEFPOINTS
 70
     0
 62
     7
  6
Continuous
290
     0
370
    -3
390
F
  0
ENDTAB
  0
TABLE
  2
STYLE
  5
3
330
0
100
AcDbSymbolTable
 70
     2
  0
STYLE
  5
11
330
3
100
AcDbSymbolTableRecord
100
AcDbTextStyleTableRecord
  2
STANDARD
 70
     0
 40
0.0
 41
0.8
 50
0.0
 71
     0
 42
3.5
  3
simplex.shx
  4

  0
STYLE
  5
24
330
3
100
AcDbSymbolTableRecord
100
AcDbTextStyleTableRecord
  2
GREEKS
 70
     0
 40
0.0
 41
0.8
 50
0.0
 71
     0
 42
2.5
  3
SIMPLEX.shx
  4

  0
ENDTAB
  0
TABLE
  2
VIEW
  5
6
330
0
100
AcDbSymbolTable
 70
     0
  0
ENDTAB
  0
TABLE
  2
UCS
  5
7
330
0
100
AcDbSymbolTable
 70
     0
  0
ENDTAB
  0
TABLE
  2
APPID
  5
9
330
0
100
AcDbSymbolTable
 70
     1
  0
APPID
  5
12
330
9
100
AcDbSymbolTableRecord
100
AcDbRegAppTableRecord
  2
ACAD
 70
     0
  0
ENDTAB
  0
TABLE
  2
DIMSTYLE
  5
A
330
0
100
AcDbSymbolTable
 70
     1
100
AcDbDimStyleTable
 71
     1
340
A2
  0
DIMSTYLE
105
A2
102
{ACAD_REACTORS
330
1BFC
330
1A96
330
1A95
330
1A6C
330
1A4F
330
1A4E
330
25DB
330
2A42
330
2A43
330
2A44
330
28F5
330
28F6
102
}
330
A
100
AcDbSymbolTableRecord
100
AcDbDimStyleTableRecord
  2
Standard
 70
     0
340
11
  0
ENDTAB
  0
TABLE
  2
BLOCK_RECORD
  5
1
330
0
100
AcDbSymbolTable
 70
    14
  0
BLOCK_RECORD
  5
1E
102
{ACAD_XDICTIONARY
360
DB
102
}
330
1
100
AcDbSymbolTableRecord
100
AcDbBlockTableRecord
  2
*Model_Space
340
21
  0
BLOCK_RECORD
  5
1A
102
{ACAD_XDICTIONARY
360
DD
102
}
330
1
100
AcDbSymbolTableRecord
100
AcDbBlockTableRecord
  2
*Paper_Space
340
1D
  0
BLOCK_RECORD
  5
22
330
1
100
AcDbSymbolTableRecord
100
AcDbBlockTableRecord
  2
LOGO
340
0
102
{BLKREFS
331
56
102
}
  0
BLOCK_RECORD
  5
23
330
1
100
AcDbSymbolTableRecord
100
AcDbBlockTableRecord
  2
LORO
340
0
102
{BLKREFS
331
9B
102
}
  0
BLOCK_RECORD
  5
1ADE
330
1
100
AcDbSymbolTableRecord
100
AcDbBlockTableRecord
  2
*D2
340
0
  0
BLOCK_RECORD
  5
1AEA
330
1
100
AcDbSymbolTableRecord
100
AcDbBlockTableRecord
  2
*D3
340
0
  0
BLOCK_RECORD
  5
1B03
330
1
100
AcDbSymbolTableRecord
100
AcDbBlockTableRecord
  2
*D4
340
0
  0
BLOCK_RECORD
  5
1B29
330
1
100
AcDbSymbolTableRecord
100
AcDbBlockTableRecord
  2
*D5
340
0
  0
BLOCK_RECORD
  5
1B35
330
1
100
AcDbSymbolTableRecord
100
AcDbBlockTableRecord
  2
*D6
340
0
  0
BLOCK_RECORD
  5
1BFD
330
1
100
AcDbSymbolTableRecord
100
AcDbBlockTableRecord
  2
*D7
340
0
  0
BLOCK_RECORD
  5
25DC
330
1
100
AcDbSymbolTableRecord
100
AcDbBlockTableRecord
  2
*D8
340
0
  0
BLOCK_RECORD
  5
2A5A
330
1
100
AcDbSymbolTableRecord
100
AcDbBlockTableRecord
  2
*D9
340
0
  0
BLOCK_RECORD
  5
2A68
330
1
100
AcDbSymbolTableRecord
100
AcDbBlockTableRecord
  2
*D10
340
0
  0
BLOCK_RECORD
  5
2A74
330
1
100
AcDbSymbolTableRecord
100
AcDbBlockTableRecord
  2
*D11
340
0
  0
BLOCK_RECORD
  5
2A80
330
1
100
AcDbSymbolTableRecord
100
AcDbBlockTableRecord
  2
*D12
340
0
  0
BLOCK_RECORD
  5
2A8C
330
1
100
AcDbSymbolTableRecord
100
AcDbBlockTableRecord
  2
*D13
340
0
  0
ENDTAB
  0
ENDSEC
  0
SECTION
  2
BLOCKS
  0
BLOCK
  5
37
330
1E
100
AcDbEntity
  8
0
100
AcDbBlockBegin
  2
*Model_Space
 70
     0
 10
0.0
 20
0.0
 30
0.0
  3
*Model_Space
  1

  0
ENDBLK
  5
38
330
1E
100
AcDbEntity
  8
0
100
AcDbBlockEnd
  0
BLOCK
  5
35
330
1A
100
AcDbEntity
 67
     1
  8
0
100
AcDbBlockBegin
  2
*Paper_Space
 70
     0
 10
0.0
 20
0.0
 30
0.0
  3
*Paper_Space
  1

  0
ENDBLK
  5
36
330
1A
100
AcDbEntity
 67
     1
  8
0
100
AcDbBlockEnd
  0
BLOCK
  5
39
330
22
100
AcDbEntity
  8
0
100
AcDbBlockBegin
  2
LOGO
 70
     0
 10
0.0
 20
0.0
 30
0.0
  3
LOGO
  1

  0
ARC
  5
3A
330
22
100
AcDbEntity
  8
0
100
AcDbCircle
 10
11.59973089678112
 20
-9.271599258481501
 30
0.0
 40
4.5
100
AcDbArc
 50
270.0
 51
231.0575587310159
  0
LINE
  5
3B
330
22
100
AcDbEntity
  8
0
100
AcDbLine
 10
3.599730896781125
 20
-4.771599258481529
 30
0.0
 11
3.599730896781153
 21
-11.77159925848133
 31
0.0
  0
LINE
  5
3C
330
22
100
AcDbEntity
  8
0
100
AcDbLine
 10
2.599730896781125
 20
-4.771599258481529
 30
0.0
 11
2.599730896781153
 21
-11.77159925848133
 31
0.0
  0
CIRCLE
  5
3D
330
22
100
AcDbEntity
  8
0
100
AcDbCircle
 10
11.59973089678112
 20
-9.271599258481501
 30
0.0
 40
3.5
  0
ARC
  5
3E
330
22
100
AcDbEntity
  8
0
100
AcDbCircle
 10
31.59973089678115
 20
-9.271599258481472
 30
0.0
 40
4.5
100
AcDbArc
 50
270.0
 51
231.0575587310182
  0
LINE
  5
3F
330
22
100
AcDbEntity
  8
0
100
AcDbLine
 10
17.59973089678112
 20
-4.771599258481472
 30
0.0
 11
17.59973089678115
 21
-13.77159925848147
 31
0.0
  0
ARC
  5
40
330
22
100
AcDbEntity
  8
0
100
AcDbCircle
 10
22.59973089678116
 20
-7.271599258481472
 30
0.0
 40
2.5
100
AcDbArc
 50
293.1161887722295
 51
90.0
  0
CIRCLE
  5
41
330
22
100
AcDbEntity
  8
0
100
AcDbCircle
 10
31.59973089678115
 20
-9.271599258481472
 30
0.0
 40
3.5
  0
ARC
  5
42
330
22
100
AcDbEntity
  8
0
100
AcDbCircle
 10
4.599730896781153
 20
-11.77159925848133
 30
0.0
 40
1.0
100
AcDbArc
 50
180.0
 51
270.0
  0
ARC
  5
43
330
22
100
AcDbEntity
  8
0
100
AcDbCircle
 10
4.599730896781153
 20
-11.77159925848133
 30
0.0
 40
2.0
100
AcDbArc
 50
179.9999999999992
 51
270.0
  0
LINE
  5
44
330
22
100
AcDbEntity
  8
0
100
AcDbLine
 10
11.59973089678115
 20
-13.77159925848144
 30
0.0
 11
4.599730896781153
 21
-13.77159925848147
 31
0.0
  0
LINE
  5
45
330
22
100
AcDbEntity
  8
0
100
AcDbLine
 10
8.771303772034769
 20
-12.77159925848136
 30
0.0
 11
4.599730896781153
 21
-12.77159925848133
 31
0.0
  0
LINE
  5
46
330
22
100
AcDbEntity
  8
0
100
AcDbLine
 10
31.59973089678115
 20
-13.77159925848147
 30
0.0
 11
23.6715276665056
 21
-13.77159925848144
 31
0.0
  0
LINE
  5
47
330
22
100
AcDbEntity
  8
0
100
AcDbLine
 10
23.56565672307022
 20
-9.51278021337896
 30
0.0
 11
24.4388546544846
 21
-12.77159925848144
 31
0.0
  0
LINE
  5
48
330
22
100
AcDbEntity
  8
0
100
AcDbLine
 10
22.59973089678116
 20
-9.771599258481472
 30
0.0
 11
18.59973089678112
 21
-9.771599258481472
 31
0.0
  0
LINE
  5
49
330
22
100
AcDbEntity
  8
0
100
AcDbLine
 10
18.59973089678115
 20
-13.77159925848144
 30
0.0
 11
17.59973089678115
 21
-13.77159925848144
 31
0.0
  0
LINE
  5
4A
330
22
100
AcDbEntity
  8
0
100
AcDbLine
 10
18.59973089678115
 20
-9.771599258481472
 30
0.0
 11
18.59973089678115
 21
-13.77159925848144
 31
0.0
  0
LINE
  5
4B
330
22
100
AcDbEntity
  8
0
100
AcDbLine
 10
22.59973089678116
 20
-9.771599258481472
 30
0.0
 11
23.67152766650562
 21
-13.77159925848147
 31
0.0
  0
ARC
  5
4C
330
22
100
AcDbEntity
  8
0
100
AcDbCircle
 10
22.59973089678116
 20
-7.271599258481472
 30
0.0
 40
2.5
100
AcDbArc
 50
270.0
 51
270.0000000000007
  0
LINE
  5
4D
330
22
100
AcDbEntity
  8
0
100
AcDbLine
 10
28.77130377203494
 20
-12.77159925848147
 30
0.0
 11
24.43885465448463
 21
-12.77159925848144
 31
0.0
  0
LINE
  5
4E
330
22
100
AcDbEntity
  8
0
100
AcDbLine
 10
3.599730896781125
 20
-4.771599258481472
 30
0.0
 11
2.599730896781125
 21
-4.771599258481472
 31
0.0
  0
LINE
  5
4F
330
22
100
AcDbEntity
  8
0
100
AcDbLine
 10
22.59973089678116
 20
-8.771599258481472
 30
0.0
 11
18.59973089678115
 21
-8.771599258481472
 31
0.0
  0
LINE
  5
50
330
22
100
AcDbEntity
  8
0
100
AcDbLine
 10
22.59973089678116
 20
-5.771599258481472
 30
0.0
 11
18.59973089678115
 21
-5.771599258481472
 31
0.0
  0
LINE
  5
51
330
22
100
AcDbEntity
  8
0
100
AcDbLine
 10
22.59973089678116
 20
-4.771599258481472
 30
0.0
 11
17.59973089678115
 21
-4.771599258481472
 31
0.0
  0
LINE
  5
52
330
22
100
AcDbEntity
  8
0
100
AcDbLine
 10
18.59973089678115
 20
-5.771599258481472
 30
0.0
 11
18.59973089678115
 21
-8.771599258481472
 31
0.0
  0
ARC
  5
53
330
22
100
AcDbEntity
  8
0
100
AcDbCircle
 10
22.59973089678116
 20
-7.271599258481472
 30
0.0
 40
1.5
100
AcDbArc
 50
270.0
 51
90.0
  0
ENDBLK
  5
54
330
22
100
AcDbEntity
  8
0
100
AcDbBlockEnd
  0
BLOCK
  5
55
330
23
100
AcDbEntity
  8
0
100
AcDbBlockBegin
  2
LORO
 70
     0
 10
0.0
 20
0.0
 30
0.0
  3
LORO
  1

  0
INSERT
  5
56
330
23
100
AcDbEntity
  8
STEMPEL
100
AcDbBlockReference
  2
LOGO
 10
-1.748032802467321
 20
3.771489518552062
 30
0.0
  0
ENDBLK
  5
57
330
23
100
AcDbEntity
  8
0
100
AcDbBlockEnd
  0
BLOCK
  5
1AE8
330
1ADE
100
AcDbEntity
  8
0
100
AcDbBlockBegin
  2
*D2
 70
     1
 10
0.0
 20
0.0
 30
0.0
  3
*D2
  1

  0
LINE
  5
2685
330
1ADE
100
AcDbEntity
  8
BEM
 62
     0
370
    -2
100
AcDbLine
 10
131.8709886414847
 20
312.0215436747781
 30
0.0
 11
131.8709886414847
 21
135.0192160062187
 31
0.0
  0
LINE
  5
2686
330
1ADE
100
AcDbEntity
  8
BEM
 62
     0
370
    -2
100
AcDbLine
 10
350.8709886414846
 20
312.0215436747782
 30
0.0
 11
350.8709886414846
 21
135.0192160062187
 31
0.0
  0
LINE
  5
2687
330
1ADE
100
AcDbEntity
  8
BEM
 62
     0
370
    -2
100
AcDbLine
 10
138.8709886414847
 20
137.0192160062187
 30
0.0
 11
343.8709886414846
 21
137.0192160062187
 31
0.0
  0
SOLID
  5
2688
330
1ADE
100
AcDbEntity
  8
BEM
 62
     0
100
AcDbTrace
 10
138.8709886414847
 20
138.1858826728854
 30
0.0
 11
138.8709886414847
 21
135.8525493395521
 31
0.0
 12
131.8709886414847
 22
137.0192160062187
 32
0.0
 13
131.8709886414847
 23
137.0192160062187
 33
0.0
  0
SOLID
  5
2689
330
1ADE
100
AcDbEntity
  8
BEM
 62
     0
100
AcDbTrace
 10
343.8709886414846
 20
138.1858826728854
 30
0.0
 11
343.8709886414846
 21
135.8525493395521
 31
0.0
 12
350.8709886414846
 22
137.0192160062187
 32
0.0
 13
350.8709886414846
 23
137.0192160062187
 33
0.0
  0
MTEXT
  5
268A
330
1ADE
100
AcDbEntity
  8
BEM
 62
     1
100
AcDbMText
 10
241.3709886414846
 20
143.5192160062187
 30
0.0
 40
7.0
 41
0.0
 71
     5
 72
     1
  1
\A1;%%c219
 73
     1
 44
1.0
  0
POINT
  5
268B
330
1ADE
100
AcDbEntity
  8
DEFPOINTS
 62
     0
100
AcDbPoint
 10
131.8709886414847
 20
314.0215436747781
 30
0.0
  0
POINT
  5
268C
330
1ADE
100
AcDbEntity
  8
DEFPOINTS
 62
     0
100
AcDbPoint
 10
350.8709886414846
 20
314.0215436747782
 30
0.0
  0
POINT
  5
268D
330
1ADE
100
AcDbEntity
  8
DEFPOINTS
 62
     0
100
AcDbPoint
 10
350.8709886414846
 20
137.0192160062187
 30
0.0
  0
ENDBLK
  5
1AE9
330
1ADE
100
AcDbEntity
  8
0
100
AcDbBlockEnd
  0
BLOCK
  5
1AF4
330
1AEA
100
AcDbEntity
  8
0
100
AcDbBlockBegin
  2
*D3
 70
     1
 10
0.0
 20
0.0
 30
0.0
  3
*D3
  1

  0
LINE
  5
267C
330
1AEA
100
AcDbEntity
  8
BEM
 62
     0
370
    -2
100
AcDbLine
 10
406.3709886414845
 20
403.021543674778
 30
0.0
 11
406.3709886414845
 21
119.198698274817
 31
0.0
  0
LINE
  5
267D
330
1AEA
100
AcDbEntity
  8
BEM
 62
     0
370
    -2
100
AcDbLine
 10
76.37098864148476
 20
402.021543674778
 30
0.0
 11
76.37098864148474
 21
119.198698274817
 31
0.0
  0
LINE
  5
267E
330
1AEA
100
AcDbEntity
  8
BEM
 62
     0
370
    -2
100
AcDbLine
 10
399.3709886414846
 20
121.198698274817
 30
0.0
 11
83.37098864148474
 21
121.198698274817
 31
0.0
  0
SOLID
  5
267F
330
1AEA
100
AcDbEntity
  8
BEM
 62
     0
100
AcDbTrace
 10
399.3709886414846
 20
122.3653649414837
 30
0.0
 11
399.3709886414846
 21
120.0320316081503
 31
0.0
 12
406.3709886414845
 22
121.198698274817
 32
0.0
 13
406.3709886414845
 23
121.198698274817
 33
0.0
  0
SOLID
  5
2680
330
1AEA
100
AcDbEntity
  8
BEM
 62
     0
100
AcDbTrace
 10
83.37098864148474
 20
122.3653649414837
 30
0.0
 11
83.37098864148474
 21
120.0320316081503
 31
0.0
 12
76.37098864148474
 22
121.198698274817
 32
0.0
 13
76.37098864148474
 23
121.198698274817
 33
0.0
  0
MTEXT
  5
2681
330
1AEA
100
AcDbEntity
  8
BEM
 62
     1
100
AcDbMText
 10
241.3709886414847
 20
127.698698274817
 30
0.0
 40
7.0
 41
0.0
 71
     5
 72
     1
  1
\A1;%%c330
 73
     1
 44
1.0
  0
POINT
  5
2682
330
1AEA
100
AcDbEntity
  8
DEFPOINTS
 62
     0
100
AcDbPoint
 10
406.3709886414845
 20
405.021543674778
 30
0.0
  0
POINT
  5
2683
330
1AEA
100
AcDbEntity
  8
DEFPOINTS
 62
     0
100
AcDbPoint
 10
76.37098864148476
 20
404.021543674778
 30
0.0
  0
POINT
  5
2684
330
1AEA
100
AcDbEntity
  8
DEFPOINTS
 62
     0
100
AcDbPoint
 10
76.37098864148474
 20
121.198698274817
 30
0.0
  0
ENDBLK
  5
1AF5
330
1AEA
100
AcDbEntity
  8
0
100
AcDbBlockEnd
  0
BLOCK
  5
1B0D
330
1B03
100
AcDbEntity
  8
0
100
AcDbBlockBegin
  2
*D4
 70
     1
 10
0.0
 20
0.0
 30
0.0
  3
*D4
  1

  0
LINE
  5
2673
330
1B03
100
AcDbEntity
  8
BEM
 62
     0
370
    -2
100
AcDbLine
 10
174.8709886414843
 20
179.9123913175103
 30
0.0
 11
174.8709886414843
 21
150.6684689774055
 31
0.0
  0
LINE
  5
2674
330
1B03
100
AcDbEntity
  8
BEM
 62
     0
370
    -2
100
AcDbLine
 10
307.8709886414846
 20
179.9123913175068
 30
0.0
 11
307.8709886414846
 21
150.6684689774055
 31
0.0
  0
LINE
  5
2675
330
1B03
100
AcDbEntity
  8
BEM
 62
     0
370
    -2
100
AcDbLine
 10
181.8709886414843
 20
152.6684689774055
 30
0.0
 11
300.8709886414846
 21
152.6684689774055
 31
0.0
  0
SOLID
  5
2676
330
1B03
100
AcDbEntity
  8
BEM
 62
     0
100
AcDbTrace
 10
181.8709886414843
 20
153.8351356440721
 30
0.0
 11
181.8709886414843
 21
151.5018023107388
 31
0.0
 12
174.8709886414843
 22
152.6684689774055
 32
0.0
 13
174.8709886414843
 23
152.6684689774055
 33
0.0
  0
SOLID
  5
2677
330
1B03
100
AcDbEntity
  8
BEM
 62
     0
100
AcDbTrace
 10
300.8709886414846
 20
153.8351356440721
 30
0.0
 11
300.8709886414846
 21
151.5018023107388
 31
0.0
 12
307.8709886414846
 22
152.6684689774055
 32
0.0
 13
307.8709886414846
 23
152.6684689774055
 33
0.0
  0
MTEXT
  5
2678
330
1B03
100
AcDbEntity
  8
BEM
 62
     1
100
AcDbMText
 10
241.3709886414845
 20
159.1684689774055
 30
0.0
 40
7.0
 41
0.0
 71
     5
 72
     1
  1
\A1;%%C133
 73
     1
 44
1.0
  0
POINT
  5
2679
330
1B03
100
AcDbEntity
  8
DEFPOINTS
 62
     0
100
AcDbPoint
 10
174.8709886414843
 20
181.9123913175103
 30
0.0
  0
POINT
  5
267A
330
1B03
100
AcDbEntity
  8
DEFPOINTS
 62
     0
100
AcDbPoint
 10
307.8709886414846
 20
181.9123913175068
 30
0.0
  0
POINT
  5
267B
330
1B03
100
AcDbEntity
  8
DEFPOINTS
 62
     0
100
AcDbPoint
 10
307.8709886414846
 20
152.6684689774055
 30
0.0
  0
ENDBLK
  5
1B0E
330
1B03
100
AcDbEntity
  8
0
100
AcDbBlockEnd
  0
BLOCK
  5
1B33
330
1B29
100
AcDbEntity
  8
0
100
AcDbBlockBegin
  2
*D5
 70
     1
 10
0.0
 20
0.0
 30
0.0
  3
*D5
  1

  0
LINE
  5
266A
330
1B29
100
AcDbEntity
  8
BEM
 62
     0
370
    -2
100
AcDbLine
 10
129.8709886414846
 20
314.0215436747781
 30
0.0
 11
40.60960491706755
 21
314.0215436747781
 31
0.0
  0
LINE
  5
266B
330
1B29
100
AcDbEntity
  8
BEM
 62
     0
370
    -2
100
AcDbLine
 10
129.3709886414846
 20
484.021543674778
 30
0.0
 11
40.60960491706759
 21
484.0215436747781
 31
0.0
  0
LINE
  5
266C
330
1B29
100
AcDbEntity
  8
BEM
 62
     0
370
    -2
100
AcDbLine
 10
42.60960491706756
 20
321.0215436747781
 30
0.0
 11
42.6096049170676
 21
477.0215436747781
 31
0.0
  0
SOLID
  5
266D
330
1B29
100
AcDbEntity
  8
BEM
 62
     0
100
AcDbTrace
 10
41.44293825040089
 20
321.0215436747781
 30
0.0
 11
43.77627158373423
 21
321.0215436747781
 31
0.0
 12
42.60960491706756
 22
314.0215436747781
 32
0.0
 13
42.60960491706756
 23
314.0215436747781
 33
0.0
  0
SOLID
  5
266E
330
1B29
100
AcDbEntity
  8
BEM
 62
     0
100
AcDbTrace
 10
41.44293825040093
 20
477.0215436747781
 30
0.0
 11
43.77627158373426
 21
477.0215436747781
 31
0.0
 12
42.6096049170676
 22
484.0215436747781
 32
0.0
 13
42.6096049170676
 23
484.0215436747781
 33
0.0
  0
MTEXT
  5
266F
330
1B29
100
AcDbEntity
  8
BEM
 62
     1
100
AcDbMText
 10
36.10960491706752
 20
399.0215436747781
 30
0.0
 40
7.0
 41
0.0
 71
     5
 72
     1
  1
\A1;170
 11
0.0000000000000001
 21
1.0
 31
0.0
 73
     1
 44
1.0
  0
POINT
  5
2670
330
1B29
100
AcDbEntity
  8
DEFPOINTS
 62
     0
100
AcDbPoint
 10
131.8709886414846
 20
314.0215436747781
 30
0.0
  0
POINT
  5
2671
330
1B29
100
AcDbEntity
  8
DEFPOINTS
 62
     0
100
AcDbPoint
 10
131.3709886414846
 20
484.021543674778
 30
0.0
  0
POINT
  5
2672
330
1B29
100
AcDbEntity
  8
DEFPOINTS
 62
     0
100
AcDbPoint
 10
42.6096049170676
 20
484.0215436747781
 30
0.0
  0
ENDBLK
  5
1B34
330
1B29
100
AcDbEntity
  8
0
100
AcDbBlockEnd
  0
BLOCK
  5
1B3F
330
1B35
100
AcDbEntity
  8
0
100
AcDbBlockBegin
  2
*D6
 70
     1
 10
0.0
 20
0.0
 30
0.0
  3
*D6
  1

  0
LINE
  5
2661
330
1B35
100
AcDbEntity
  8
BEM
 62
     0
370
    -2
100
AcDbLine
 10
172.8709886414844
 20
174.0215436747781
 30
0.0
 11
26.21575344863974
 21
174.0215436747781
 31
0.0
  0
LINE
  5
2662
330
1B35
100
AcDbEntity
  8
BEM
 62
     0
370
    -2
100
AcDbLine
 10
129.3709886414846
 20
484.021543674778
 30
0.0
 11
26.21575344863981
 21
484.0215436747781
 31
0.0
  0
LINE
  5
2663
330
1B35
100
AcDbEntity
  8
BEM
 62
     0
370
    -2
100
AcDbLine
 10
28.21575344863975
 20
181.0215436747781
 30
0.0
 11
28.21575344863982
 21
477.0215436747781
 31
0.0
  0
SOLID
  5
2664
330
1B35
100
AcDbEntity
  8
BEM
 62
     0
100
AcDbTrace
 10
27.04908678197308
 20
181.0215436747781
 30
0.0
 11
29.38242011530642
 21
181.0215436747781
 31
0.0
 12
28.21575344863975
 22
174.0215436747781
 32
0.0
 13
28.21575344863975
 23
174.0215436747781
 33
0.0
  0
SOLID
  5
2665
330
1B35
100
AcDbEntity
  8
BEM
 62
     0
100
AcDbTrace
 10
27.04908678197315
 20
477.0215436747781
 30
0.0
 11
29.38242011530649
 21
477.0215436747781
 31
0.0
 12
28.21575344863982
 22
484.0215436747781
 32
0.0
 13
28.21575344863982
 23
484.0215436747781
 33
0.0
  0
MTEXT
  5
2666
330
1B35
100
AcDbEntity
  8
BEM
 62
     1
100
AcDbMText
 10
21.71575344863973
 20
329.0215436747781
 30
0.0
 40
7.0
 41
0.0
 71
     5
 72
     1
  1
\A1;310
 11
0.0000000000000001
 21
1.0
 31
0.0
 73
     1
 44
1.0
  0
POINT
  5
2667
330
1B35
100
AcDbEntity
  8
DEFPOINTS
 62
     0
100
AcDbPoint
 10
174.8709886414844
 20
174.0215436747781
 30
0.0
  0
POINT
  5
2668
330
1B35
100
AcDbEntity
  8
DEFPOINTS
 62
     0
100
AcDbPoint
 10
131.3709886414846
 20
484.021543674778
 30
0.0
  0
POINT
  5
2669
330
1B35
100
AcDbEntity
  8
DEFPOINTS
 62
     0
100
AcDbPoint
 10
28.21575344863982
 20
484.0215436747781
 30
0.0
  0
ENDBLK
  5
1B40
330
1B35
100
AcDbEntity
  8
0
100
AcDbBlockEnd
  0
BLOCK
  5
1C07
330
1BFD
100
AcDbEntity
  8
0
100
AcDbBlockBegin
  2
*D7
 70
     1
 10
0.0
 20
0.0
 30
0.0
  3
*D7
  1

  0
LINE
  5
2658
330
1BFD
100
AcDbEntity
  8
BEM
 62
     0
370
    -2
100
AcDbLine
 10
74.3709886414847
 20
404.021543674778
 30
0.0
 11
55.84519017077552
 21
404.021543674778
 31
0.0
  0
LINE
  5
2659
330
1BFD
100
AcDbEntity
  8
BEM
 62
     0
370
    -2
100
AcDbLine
 10
129.3709886414846
 20
484.0215436747781
 30
0.0
 11
55.84519017077553
 21
484.0215436747781
 31
0.0
  0
LINE
  5
265A
330
1BFD
100
AcDbEntity
  8
BEM
 62
     0
370
    -2
100
AcDbLine
 10
57.84519017077553
 20
411.0215436747781
 30
0.0
 11
57.84519017077554
 21
477.0215436747782
 31
0.0
  0
SOLID
  5
265B
330
1BFD
100
AcDbEntity
  8
BEM
 62
     0
100
AcDbTrace
 10
56.67852350410885
 20
411.0215436747781
 30
0.0
 11
59.01185683744219
 21
411.0215436747781
 31
0.0
 12
57.84519017077553
 22
404.021543674778
 32
0.0
 13
57.84519017077553
 23
404.021543674778
 33
0.0
  0
SOLID
  5
265C
330
1BFD
100
AcDbEntity
  8
BEM
 62
     0
100
AcDbTrace
 10
56.67852350410887
 20
477.0215436747782
 30
0.0
 11
59.0118568374422
 21
477.0215436747782
 31
0.0
 12
57.84519017077554
 22
484.0215436747781
 32
0.0
 13
57.84519017077554
 23
484.0215436747781
 33
0.0
  0
MTEXT
  5
265D
330
1BFD
100
AcDbEntity
  8
BEM
 62
     1
100
AcDbMText
 10
51.34519017077546
 20
444.0215436747782
 30
0.0
 40
7.0
 41
0.0
 71
     5
 72
     1
  1
\A1;80
 11
0.0000000000000001
 21
1.0
 31
0.0
 73
     1
 44
1.0
  0
POINT
  5
265E
330
1BFD
100
AcDbEntity
  8
DEFPOINTS
 62
     0
100
AcDbPoint
 10
76.3709886414847
 20
404.021543674778
 30
0.0
  0
POINT
  5
265F
330
1BFD
100
AcDbEntity
  8
DEFPOINTS
 62
     0
100
AcDbPoint
 10
131.3709886414846
 20
484.0215436747781
 30
0.0
  0
POINT
  5
2660
330
1BFD
100
AcDbEntity
  8
DEFPOINTS
 62
     0
100
AcDbPoint
 10
57.84519017077554
 20
484.0215436747781
 30
0.0
  0
ENDBLK
  5
1C08
330
1BFD
100
AcDbEntity
  8
0
100
AcDbBlockEnd
  0
BLOCK
  5
25E6
330
25DC
100
AcDbEntity
  8
0
100
AcDbBlockBegin
  2
*D8
 70
     1
 10
0.0
 20
0.0
 30
0.0
  3
*D8
  1

  0
LINE
  5
263D
330
25DC
100
AcDbEntity
  8
BEM
 62
     0
370
    -2
100
AcDbLine
 10
168.8951485548437
 20
571.0215436747778
 30
0.0
 11
26.21575344863983
 21
571.0215436747778
 31
0.0
  0
LINE
  5
263E
330
25DC
100
AcDbEntity
  8
BEM
 62
     0
370
    -2
100
AcDbLine
 10
129.4029367531924
 20
484.0215436747781
 30
0.0
 11
26.21575344863981
 21
484.0215436747782
 31
0.0
  0
LINE
  5
263F
330
25DC
100
AcDbEntity
  8
BEM
 62
     0
370
    -2
100
AcDbLine
 10
28.21575344863984
 20
564.0215436747778
 30
0.0
 11
28.21575344863982
 21
491.0215436747782
 31
0.0
  0
SOLID
  5
2640
330
25DC
100
AcDbEntity
  8
BEM
 62
     0
100
AcDbTrace
 10
27.04908678197317
 20
564.0215436747778
 30
0.0
 11
29.3824201153065
 21
564.0215436747778
 31
0.0
 12
28.21575344863984
 22
571.0215436747778
 32
0.0
 13
28.21575344863984
 23
571.0215436747778
 33
0.0
  0
SOLID
  5
2641
330
25DC
100
AcDbEntity
  8
BEM
 62
     0
100
AcDbTrace
 10
27.04908678197315
 20
491.0215436747782
 30
0.0
 11
29.38242011530649
 21
491.0215436747782
 31
0.0
 12
28.21575344863982
 22
484.0215436747782
 32
0.0
 13
28.21575344863982
 23
484.0215436747782
 33
0.0
  0
MTEXT
  5
2642
330
25DC
100
AcDbEntity
  8
BEM
 62
     1
100
AcDbMText
 10
21.71575344863974
 20
527.521543674778
 30
0.0
 40
7.0
 41
0.0
 71
     5
 72
     1
  1
\A1;95 - 136
 11
0.0000000000000001
 21
1.0
 31
0.0
 73
     1
 44
1.0
  0
POINT
  5
2643
330
25DC
100
AcDbEntity
  8
DEFPOINTS
 62
     0
100
AcDbPoint
 10
170.8951485548437
 20
571.0215436747778
 30
0.0
  0
POINT
  5
2644
330
25DC
100
AcDbEntity
  8
DEFPOINTS
 62
     0
100
AcDbPoint
 10
131.4029367531925
 20
484.0215436747781
 30
0.0
  0
POINT
  5
2645
330
25DC
100
AcDbEntity
  8
DEFPOINTS
 62
     0
100
AcDbPoint
 10
28.21575344863982
 20
484.0215436747782
 30
0.0
  0
ENDBLK
  5
25E7
330
25DC
100
AcDbEntity
  8
0
100
AcDbBlockEnd
  0
BLOCK
  5
2A66
330
2A5A
100
AcDbEntity
  8
0
100
AcDbBlockBegin
  2
*D9
 70
     1
 10
0.0
 20
0.0
 30
0.0
  3
*D9
  1

  0
LINE
  5
2A98
330
2A5A
100
AcDbEntity
  8
BEM
 62
     0
370
    -2
100
AcDbLine
 10
109.3709886414848
 20
598.161101066371
 30
0.0
 11
83.70972864640945
 21
598.161101066371
 31
0.0
  0
LINE
  5
2A99
330
2A5A
100
AcDbEntity
  8
BEM
 62
     0
370
    -2
100
AcDbLine
 10
104.3709886414848
 20
583.1611010663712
 30
0.0
 11
83.70972864640945
 21
583.1611010663712
 31
0.0
  0
LINE
  5
2A9A
330
2A5A
100
AcDbEntity
  8
BEM
 62
     0
370
    -2
100
AcDbLine
 10
85.70972864640944
 20
605.1611010663711
 30
0.0
 11
85.70972864640946
 21
612.1611010663711
 31
0.0
  0
LINE
  5
2A9B
330
2A5A
100
AcDbEntity
  8
BEM
 62
     0
370
    -2
100
AcDbLine
 10
85.70972864640944
 20
576.1611010663711
 30
0.0
 11
85.70972864640944
 21
569.1611010663712
 31
0.0
  0
LINE
  5
2A9C
330
2A5A
100
AcDbEntity
  8
BEM
 62
     0
370
    -2
100
AcDbLine
 10
85.70972864640944
 20
598.161101066371
 30
0.0
 11
85.70972864640944
 21
583.1611010663712
 31
0.0
  0
SOLID
  5
2A9D
330
2A5A
100
AcDbEntity
  8
BEM
 62
     0
100
AcDbTrace
 10
84.54306197974277
 20
605.1611010663711
 30
0.0
 11
86.87639531307612
 21
605.1611010663711
 31
0.0
 12
85.70972864640944
 22
598.161101066371
 32
0.0
 13
85.70972864640944
 23
598.161101066371
 33
0.0
  0
SOLID
  5
2A9E
330
2A5A
100
AcDbEntity
  8
BEM
 62
     0
100
AcDbTrace
 10
84.54306197974277
 20
576.1611010663711
 30
0.0
 11
86.87639531307612
 21
576.1611010663711
 31
0.0
 12
85.70972864640944
 22
583.1611010663712
 32
0.0
 13
85.70972864640944
 23
583.1611010663712
 33
0.0
  0
MTEXT
  5
2A9F
330
2A5A
100
AcDbEntity
  8
BEM
 62
     1
100
AcDbMText
 10
79.20972864640936
 20
590.6611010663712
 30
0.0
 40
7.0
 41
0.0
 71
     5
 72
     1
  1
\A1;15
 11
0.0000000000000001
 21
1.0
 31
0.0
 73
     1
 44
1.0
  0
POINT
  5
2AA0
330
2A5A
100
AcDbEntity
  8
DEFPOINTS
 62
     0
100
AcDbPoint
 10
111.3709886414848
 20
598.161101066371
 30
0.0
  0
POINT
  5
2AA1
330
2A5A
100
AcDbEntity
  8
DEFPOINTS
 62
     0
100
AcDbPoint
 10
106.3709886414848
 20
583.1611010663712
 30
0.0
  0
POINT
  5
2AA2
330
2A5A
100
AcDbEntity
  8
DEFPOINTS
 62
     0
100
AcDbPoint
 10
85.70972864640944
 20
583.1611010663712
 30
0.0
  0
ENDBLK
  5
2A67
330
2A5A
100
AcDbEntity
  8
0
100
AcDbBlockEnd
  0
BLOCK
  5
2A72
330
2A68
100
AcDbEntity
  8
0
100
AcDbBlockBegin
  2
*D10
 70
     1
 10
0.0
 20
0.0
 30
0.0
  3
*D10
  1

  0
LINE
  5
2AA3
330
2A68
100
AcDbEntity
  8
BEM
 62
     0
370
    -2
100
AcDbLine
 10
131.370988641485
 20
670.1610430990555
 30
0.0
 11
131.370988641485
 21
705.9000694823205
 31
0.0
  0
LINE
  5
2AA4
330
2A68
100
AcDbEntity
  8
BEM
 62
     0
370
    -2
100
AcDbLine
 10
351.3709886414853
 20
670.1610430990555
 30
0.0
 11
351.3709886414853
 21
705.9000694823205
 31
0.0
  0
LINE
  5
2AA5
330
2A68
100
AcDbEntity
  8
BEM
 62
     0
370
    -2
100
AcDbLine
 10
138.370988641485
 20
703.9000694823205
 30
0.0
 11
344.3709886414853
 21
703.9000694823205
 31
0.0
  0
SOLID
  5
2AA6
330
2A68
100
AcDbEntity
  8
BEM
 62
     0
100
AcDbTrace
 10
138.370988641485
 20
705.0667361489871
 30
0.0
 11
138.370988641485
 21
702.7334028156539
 31
0.0
 12
131.370988641485
 22
703.9000694823205
 32
0.0
 13
131.370988641485
 23
703.9000694823205
 33
0.0
  0
SOLID
  5
2AA7
330
2A68
100
AcDbEntity
  8
BEM
 62
     0
100
AcDbTrace
 10
344.3709886414853
 20
705.0667361489871
 30
0.0
 11
344.3709886414853
 21
702.7334028156539
 31
0.0
 12
351.3709886414853
 22
703.9000694823205
 32
0.0
 13
351.3709886414853
 23
703.9000694823205
 33
0.0
  0
MTEXT
  5
2AA8
330
2A68
100
AcDbEntity
  8
BEM
 62
     1
100
AcDbMText
 10
241.3709886414852
 20
710.4000694823205
 30
0.0
 40
7.0
 41
0.0
 71
     5
 72
     1
  1
\A1;%%c220
 73
     1
 44
1.0
  0
POINT
  5
2AA9
330
2A68
100
AcDbEntity
  8
DEFPOINTS
 62
     0
100
AcDbPoint
 10
131.370988641485
 20
668.1610430990555
 30
0.0
  0
POINT
  5
2AAA
330
2A68
100
AcDbEntity
  8
DEFPOINTS
 62
     0
100
AcDbPoint
 10
351.3709886414853
 20
668.1610430990555
 30
0.0
  0
POINT
  5
2AAB
330
2A68
100
AcDbEntity
  8
DEFPOINTS
 62
     0
100
AcDbPoint
 10
351.3709886414853
 20
703.9000694823205
 30
0.0
  0
ENDBLK
  5
2A73
330
2A68
100
AcDbEntity
  8
0
100
AcDbBlockEnd
  0
BLOCK
  5
2A7E
330
2A74
100
AcDbEntity
  8
0
100
AcDbBlockBegin
  2
*D11
 70
     1
 10
0.0
 20
0.0
 30
0.0
  3
*D11
  1

  0
LINE
  5
2AAC
330
2A74
100
AcDbEntity
  8
BEM
 62
     0
370
    -2
100
AcDbLine
 10
109.370988641485
 20
598.161101066371
 30
0.0
 11
83.70972864640945
 21
598.161101066371
 31
0.0
  0
LINE
  5
2AAD
330
2A74
100
AcDbEntity
  8
BEM
 62
     0
370
    -2
100
AcDbLine
 10
159.370988641485
 20
688.1611010663703
 30
0.0
 11
83.70972864640947
 21
688.1611010663703
 31
0.0
  0
LINE
  5
2AAE
330
2A74
100
AcDbEntity
  8
BEM
 62
     0
370
    -2
100
AcDbLine
 10
85.70972864640944
 20
605.1611010663711
 30
0.0
 11
85.70972864640948
 21
681.1611010663702
 31
0.0
  0
SOLID
  5
2AAF
330
2A74
100
AcDbEntity
  8
BEM
 62
     0
100
AcDbTrace
 10
84.54306197974277
 20
605.1611010663711
 30
0.0
 11
86.87639531307612
 21
605.1611010663711
 31
0.0
 12
85.70972864640944
 22
598.161101066371
 32
0.0
 13
85.70972864640944
 23
598.161101066371
 33
0.0
  0
SOLID
  5
2AB0
330
2A74
100
AcDbEntity
  8
BEM
 62
     0
100
AcDbTrace
 10
84.54306197974281
 20
681.1611010663702
 30
0.0
 11
86.87639531307615
 21
681.1611010663702
 31
0.0
 12
85.70972864640948
 22
688.1611010663703
 32
0.0
 13
85.70972864640948
 23
688.1611010663703
 33
0.0
  0
MTEXT
  5
2AB1
330
2A74
100
AcDbEntity
  8
BEM
 62
     1
100
AcDbMText
 10
79.20972864640936
 20
643.1611010663707
 30
0.0
 40
7.0
 41
0.0
 71
     5
 72
     1
  1
\A1;90
 11
0.0000000000000001
 21
1.0
 31
0.0
 73
     1
 44
1.0
  0
POINT
  5
2AB2
330
2A74
100
AcDbEntity
  8
DEFPOINTS
 62
     0
100
AcDbPoint
 10
111.370988641485
 20
598.161101066371
 30
0.0
  0
POINT
  5
2AB3
330
2A74
100
AcDbEntity
  8
DEFPOINTS
 62
     0
100
AcDbPoint
 10
161.370988641485
 20
688.1611010663703
 30
0.0
  0
POINT
  5
2AB4
330
2A74
100
AcDbEntity
  8
DEFPOINTS
 62
     0
100
AcDbPoint
 10
85.70972864640948
 20
688.1611010663703
 30
0.0
  0
ENDBLK
  5
2A7F
330
2A74
100
AcDbEntity
  8
0
100
AcDbBlockEnd
  0
BLOCK
  5
2A8A
330
2A80
100
AcDbEntity
  8
0
100
AcDbBlockBegin
  2
*D12
 70
     1
 10
0.0
 20
0.0
 30
0.0
  3
*D12
  1

  0
LINE
  5
2AB5
330
2A80
100
AcDbEntity
  8
BEM
 62
     0
370
    -2
100
AcDbLine
 10
106.3709886414849
 20
585.1611010663714
 30
0.0
 11
106.3709886414849
 21
732.7011083458256
 31
0.0
  0
LINE
  5
2AB6
330
2A80
100
AcDbEntity
  8
BEM
 62
     0
370
    -2
100
AcDbLine
 10
376.3709886414848
 20
585.1611010663715
 30
0.0
 11
376.3709886414848
 21
732.7011083458256
 31
0.0
  0
LINE
  5
2AB7
330
2A80
100
AcDbEntity
  8
BEM
 62
     0
370
    -2
100
AcDbLine
 10
113.3709886414849
 20
730.7011083458256
 30
0.0
 11
369.3709886414848
 21
730.7011083458256
 31
0.0
  0
SOLID
  5
2AB8
330
2A80
100
AcDbEntity
  8
BEM
 62
     0
100
AcDbTrace
 10
113.3709886414849
 20
731.8677750124923
 30
0.0
 11
113.3709886414849
 21
729.534441679159
 31
0.0
 12
106.3709886414849
 22
730.7011083458256
 32
0.0
 13
106.3709886414849
 23
730.7011083458256
 33
0.0
  0
SOLID
  5
2AB9
330
2A80
100
AcDbEntity
  8
BEM
 62
     0
100
AcDbTrace
 10
369.3709886414848
 20
731.8677750124923
 30
0.0
 11
369.3709886414848
 21
729.534441679159
 31
0.0
 12
376.3709886414848
 22
730.7011083458256
 32
0.0
 13
376.3709886414848
 23
730.7011083458256
 33
0.0
  0
MTEXT
  5
2ABA
330
2A80
100
AcDbEntity
  8
BEM
 62
     1
100
AcDbMText
 10
241.3709886414849
 20
737.2011083458256
 30
0.0
 40
7.0
 41
0.0
 71
     5
 72
     1
  1
\A1;%%c270
 73
     1
 44
1.0
  0
POINT
  5
2ABB
330
2A80
100
AcDbEntity
  8
DEFPOINTS
 62
     0
100
AcDbPoint
 10
106.3709886414849
 20
583.1611010663714
 30
0.0
  0
POINT
  5
2ABC
330
2A80
100
AcDbEntity
  8
DEFPOINTS
 62
     0
100
AcDbPoint
 10
376.3709886414848
 20
583.1611010663715
 30
0.0
  0
POINT
  5
2ABD
330
2A80
100
AcDbEntity
  8
DEFPOINTS
 62
     0
100
AcDbPoint
 10
376.3709886414848
 20
730.7011083458256
 30
0.0
  0
ENDBLK
  5
2A8B
330
2A80
100
AcDbEntity
  8
0
100
AcDbBlockEnd
  0
BLOCK
  5
2A96
330
2A8C
100
AcDbEntity
  8
0
100
AcDbBlockBegin
  2
*D13
 70
     1
 10
0.0
 20
0.0
 30
0.0
  3
*D13
  1

  0
LINE
  5
2ABE
330
2A8C
100
AcDbEntity
  8
BEM
 62
     0
370
    -2
100
AcDbLine
 10
111.3709886414849
 20
601.1611010663722
 30
0.0
 11
111.3709886414849
 21
719.4862120030762
 31
0.0
  0
LINE
  5
2ABF
330
2A8C
100
AcDbEntity
  8
BEM
 62
     0
370
    -2
100
AcDbLine
 10
371.3709886414849
 20
601.1611010663711
 30
0.0
 11
371.3709886414849
 21
719.4862120030762
 31
0.0
  0
LINE
  5
2AC0
330
2A8C
100
AcDbEntity
  8
BEM
 62
     0
370
    -2
100
AcDbLine
 10
118.3709886414849
 20
717.4862120030763
 30
0.0
 11
364.3709886414849
 21
717.4862120030763
 31
0.0
  0
SOLID
  5
2AC1
330
2A8C
100
AcDbEntity
  8
BEM
 62
     0
100
AcDbTrace
 10
118.3709886414849
 20
718.6528786697429
 30
0.0
 11
118.3709886414849
 21
716.3195453364096
 31
0.0
 12
111.3709886414849
 22
717.4862120030763
 32
0.0
 13
111.3709886414849
 23
717.4862120030763
 33
0.0
  0
SOLID
  5
2AC2
330
2A8C
100
AcDbEntity
  8
BEM
 62
     0
100
AcDbTrace
 10
364.3709886414849
 20
718.6528786697429
 30
0.0
 11
364.3709886414849
 21
716.3195453364096
 31
0.0
 12
371.3709886414849
 22
717.4862120030763
 32
0.0
 13
371.3709886414849
 23
717.4862120030763
 33
0.0
  0
MTEXT
  5
2AC3
330
2A8C
100
AcDbEntity
  8
BEM
 62
     1
100
AcDbMText
 10
241.3709886414849
 20
723.9862120030762
 30
0.0
 40
7.0
 41
0.0
 71
     5
 72
     1
  1
\A1;%%c260
 73
     1
 44
1.0
  0
POINT
  5
2AC4
330
2A8C
100
AcDbEntity
  8
DEFPOINTS
 62
     0
100
AcDbPoint
 10
111.3709886414849
 20
599.1611010663722
 30
0.0
  0
POINT
  5
2AC5
330
2A8C
100
AcDbEntity
  8
DEFPOINTS
 62
     0
100
AcDbPoint
 10
371.3709886414849
 20
599.161101066371
 30
0.0
  0
POINT
  5
2AC6
330
2A8C
100
AcDbEntity
  8
DEFPOINTS
 62
     0
100
AcDbPoint
 10
371.3709886414849
 20
717.4862120030763
 30
0.0
  0
ENDBLK
  5
2A97
330
2A8C
100
AcDbEntity
  8
0
100
AcDbBlockEnd
  0
ENDSEC
  0
SECTION
  2
ENTITIES
  0
LINE
  5
58
330
1E
100
AcDbEntity
  8
STEMPEL
100
AcDbLine
 10
484.0
 20
830.0000000000002
 30
0.0
 11
484.0
 21
470.0000000000001
 31
0.0
  0
LINE
  5
59
330
1E
100
AcDbEntity
  8
STEMPEL
100
AcDbLine
 10
484.0
 20
470.0000000000001
 30
0.0
 11
584.0
 21
470.0000000000001
 31
0.0
  0
LINE
  5
5A
330
1E
100
AcDbEntity
  8
STEMPEL
100
AcDbLine
 10
484.0000000000001
 20
566.0000000000002
 30
0.0
 11
584.0000000000001
 21
566.0
 31
0.0
  0
LINE
  5
5B
330
1E
100
AcDbEntity
  8
STEMPEL
100
AcDbLine
 10
484.0
 20
650.0
 30
0.0
 11
584.0
 21
650.0
 31
0.0
  0
LINE
  5
5C
330
1E
100
AcDbEntity
  8
STEMPEL
100
AcDbLine
 10
484.0000000000003
 20
752.0000000000002
 30
0.0
 11
554.0
 21
752.0000000000002
 31
0.0
  0
LINE
  5
5D
330
1E
100
AcDbEntity
  8
STEMPEL
100
AcDbLine
 10
564.0
 20
566.0
 30
0.0
 11
564.0
 21
470.0000000000001
 31
0.0
  0
LINE
  5
5E
330
1E
100
AcDbEntity
  8
STEMPEL
100
AcDbLine
 10
554.0
 20
830.0000000000002
 30
0.0
 11
554.0
 21
566.0
 31
0.0
  0
LINE
  5
5F
330
1E
100
AcDbEntity
  8
STEMPEL
100
AcDbLine
 10
514.0
 20
830.0000000000002
 30
0.0
 11
514.0
 21
566.0000000000002
 31
0.0
  0
LINE
  5
60
330
1E
100
AcDbEntity
  8
VOLL
100
AcDbLine
 10
484.0
 20
484.0000000000001
 30
0.0
 11
584.0
 21
484.0
 31
0.0
  0
LINE
  5
61
330
1E
100
AcDbEntity
  8
VOLL
100
AcDbLine
 10
484.0000000000001
 20
524.0000000000001
 30
0.0
 11
584.0000000000001
 21
524.0
 31
0.0
  0
LINE
  5
62
330
1E
100
AcDbEntity
  8
VOLL
100
AcDbLine
 10
484.0000000000001
 20
544.0000000000002
 30
0.0
 11
584.0000000000001
 21
544.0
 31
0.0
  0
LINE
  5
63
330
1E
100
AcDbEntity
  8
VOLL
100
AcDbLine
 10
514.0
 20
584.0000000000002
 30
0.0
 11
554.0
 21
584.0000000000002
 31
0.0
  0
LINE
  5
64
330
1E
100
AcDbEntity
  8
VOLL
100
AcDbLine
 10
484.0000000000002
 20
610.0000000000002
 30
0.0
 11
554.0
 21
610.0
 31
0.0
  0
LINE
  5
65
330
1E
100
AcDbEntity
  8
HILF
100
AcDbLine
 10
494.0
 20
470.0000000000001
 30
0.0
 11
494.0
 21
566.0000000000002
 31
0.0
  0
LINE
  5
66
330
1E
100
AcDbEntity
  8
HILF
100
AcDbLine
 10
504.0
 20
470.0000000000001
 30
0.0
 11
504.0
 21
566.0000000000002
 31
0.0
  0
LINE
  5
67
330
1E
100
AcDbEntity
  8
HILF
100
AcDbLine
 10
514.0
 20
470.0000000000001
 30
0.0
 11
514.0
 21
566.0000000000002
 31
0.0
  0
LINE
  5
68
330
1E
100
AcDbEntity
  8
HILF
100
AcDbLine
 10
524.0
 20
470.0000000000001
 30
0.0
 11
524.0
 21
566.0000000000002
 31
0.0
  0
LINE
  5
69
330
1E
100
AcDbEntity
  8
HILF
100
AcDbLine
 10
534.0
 20
470.0000000000001
 30
0.0
 11
534.0
 21
566.0000000000002
 31
0.0
  0
LINE
  5
6A
330
1E
100
AcDbEntity
  8
HILF
100
AcDbLine
 10
544.0
 20
470.0000000000001
 30
0.0
 11
544.0
 21
566.0000000000002
 31
0.0
  0
LINE
  5
6B
330
1E
100
AcDbEntity
  8
HILF
100
AcDbLine
 10
554.0
 20
470.0000000000001
 30
0.0
 11
554.0
 21
566.0000000000002
 31
0.0
  0
LINE
  5
6C
330
1E
100
AcDbEntity
  8
HILF
100
AcDbLine
 10
524.0
 20
566.0000000000002
 30
0.0
 11
524.0
 21
650.0
 31
0.0
  0
LINE
  5
6D
330
1E
100
AcDbEntity
  8
HILF
100
AcDbLine
 10
534.0
 20
566.0000000000002
 30
0.0
 11
534.0
 21
650.0
 31
0.0
  0
LINE
  5
6E
330
1E
100
AcDbEntity
  8
HILF
100
AcDbLine
 10
544.0
 20
566.0000000000002
 30
0.0
 11
544.0
 21
650.0
 31
0.0
  0
LINE
  5
6F
330
1E
100
AcDbEntity
  8
HILF
100
AcDbLine
 10
509.9624175243587
 20
654.7736801096948
 30
0.0
 11
509.9624175243587
 21
746.6297842514811
 31
0.0
  0
LINE
  5
70
330
1E
100
AcDbEntity
  8
HILF
100
AcDbLine
 10
524.0
 20
654.7736801096948
 30
0.0
 11
524.0
 21
746.6297842514811
 31
0.0
  0
LINE
  5
71
330
1E
100
AcDbEntity
  8
HILF
100
AcDbLine
 10
534.0
 20
654.7736801096948
 30
0.0
 11
534.0
 21
746.6297842514811
 31
0.0
  0
LINE
  5
72
330
1E
100
AcDbEntity
  8
HILF
100
AcDbLine
 10
544.0
 20
654.7736801096948
 30
0.0
 11
544.0
 21
746.6297842514811
 31
0.0
  0
LINE
  5
73
330
1E
100
AcDbEntity
  8
VOLL
100
AcDbLine
 10
534.0
 20
752.0000000000002
 30
0.0
 11
534.0
 21
830.0000000000002
 31
0.0
  0
LINE
  5
74
330
1E
100
AcDbEntity
  8
HILF
100
AcDbLine
 10
510.2201636304418
 20
756.7238616296995
 30
0.0
 11
510.2201636304418
 21
824.858883932673
 31
0.0
  0
LINE
  5
75
330
1E
100
AcDbEntity
  8
HILF
100
AcDbLine
 10
579.1060174197169
 20
654.7736801096948
 30
0.0
 11
579.1060174197169
 21
824.858883932673
 31
0.0
  0
TEXT
  5
76
330
1E
100
AcDbEntity
  8
TEXT
100
AcDbText
 10
575.3261810501587
 20
492.3998239263297
 30
0.0
 40
4.0
  1
Änderung
 50
90.0
 41
0.8
  7
GREEKS
 72
     1
 11
575.3261810501587
 21
503.1426810691868
 31
0.0
100
AcDbText
  0
TEXT
  5
78
330
1E
100
AcDbEntity
  8
TEXT
100
AcDbText
 10
491.5379104912911
 20
573.5163572150376
 30
0.0
 40
5.0
  1
Maßstab
 50
90.0
 41
0.8
  7
GREEKS
100
AcDbText
  0
TEXT
  5
79
330
1E
100
AcDbEntity
  8
TEXT
100
AcDbText
 10
491.4510671988221
 20
654.8779403809009
 30
0.0
 40
5.0
  1
Benennung
 50
90.0
 41
0.8
  7
GREEKS
100
AcDbText
  0
TEXT
  5
7A
330
1E
100
AcDbEntity
  8
TEXT
100
AcDbText
 10
491.6867965462863
 20
756.1787549576343
 30
0.0
 40
5.0
  1
Zeichnungs Nr.
 50
90.0
 41
0.8
  7
GREEKS
100
AcDbText
  0
TEXT
  5
7B
330
1E
100
AcDbEntity
  8
TEXT
100
AcDbText
 10
563.1543942980694
 20
654.7422383911359
 30
0.0
 40
5.0
  1
Bauvorhaben
 50
90.0
 41
0.8
  7
GREEKS
100
AcDbText
  0
TEXT
  5
7C
330
1E
100
AcDbEntity
  8
TEXT
100
AcDbText
 10
520.8188176290003
 20
756.7238616296995
 30
0.0
 40
5.0
  1
Ersatz für:
 50
90.0
 41
0.8
  7
GREEKS
100
AcDbText
  0
TEXT
  5
7D
330
1E
100
AcDbEntity
  8
TEXT
100
AcDbText
 10
580.3453415397281
 20
478.2664110704577
 30
0.0
 40
4.0
  1
Index
 50
180.0
 41
0.8
  7
GREEKS
100
AcDbText
  0
TEXT
  5
7E
330
1E
100
AcDbEntity
  8
TEXT
100
AcDbText
 10
575.3284373066019
 20
529.8990113186978
 30
0.0
 40
4.0
  1
Tag
 50
90.0
 41
0.8
  7
GREEKS
 72
     1
 11
575.3284373066019
 21
533.6323446520311
 31
0.0
100
AcDbText
  0
TEXT
  5
7F
330
1E
100
AcDbEntity
  8
TEXT
100
AcDbText
 10
575.4067578303359
 20
548.9795678138292
 30
0.0
 40
4.0
  1
Name
 50
90.0
 41
0.8
  7
GREEKS
 72
     1
 11
575.4067578303359
 21
555.3033773376387
 31
0.0
100
AcDbText
  0
TEXT
  5
80
330
1E
100
AcDbEntity
  8
TEXT
100
AcDbText
 10
520.6811949877008
 20
592.3311673153651
 30
0.0
 40
4.0
  1
Tag
 50
90.0
 41
0.8
  7
GREEKS
100
AcDbText
  0
TEXT
  5
81
330
1E
100
AcDbEntity
  8
TEXT
100
AcDbText
 10
520.6903890808478
 20
622.4626584226296
 30
0.0
 40
4.0
  1
Name
 50
90.0
 41
0.8
  7
GREEKS
100
AcDbText
  0
TEXT
  5
82
330
1E
100
AcDbEntity
  8
TEXT
100
AcDbText
 10
530.3700963038204
 20
567.5836127167615
 30
0.0
 40
4.0
  1
Gez.
 50
90.0
 41
0.8
  7
GREEKS
100
AcDbText
  0
TEXT
  5
83
330
1E
100
AcDbEntity
  8
TEXT
100
AcDbText
 10
540.3107370857163
 20
567.5515086571672
 30
0.0
 40
4.0
  1
Gepr.
 50
90.0
 41
0.8
  7
GREEKS
100
AcDbText
  0
TEXT
  5
84
330
1E
100
AcDbEntity
  8
TEXT
100
AcDbText
 10
550.470536103502
 20
567.6006777387303
 30
0.0
 40
4.0
  1
Norm.
 50
90.0
 41
0.8
  7
GREEKS
100
AcDbText
  0
TEXT
  5
85
330
1E
100
AcDbEntity
  8
TEXT
100
AcDbText
 10
541.925838221214
 20
757.2400861497007
 30
0.0
 40
5.0
  1
ersetzt durch:
 50
90.0
 41
0.8
  7
GREEKS
100
AcDbText
  0
TEXT
  5
86
330
1E
100
AcDbEntity
  8
TEXT
100
AcDbText
 10
521.0331740347627
 20
568.8693027807324
 30
0.0
 40
4.0
  1
2012
 50
90.0
 41
0.8
  7
GREEKS
100
AcDbText
  0
LINE
  5
87
330
1E
100
AcDbEntity
  8
HILF
100
AcDbLine
 10
594.0
 20
-0.0000000000000568
 30
0.0
 11
594.0
 21
840.0
 31
0.0
  0
LINE
  5
88
330
1E
100
AcDbEntity
  8
HILF
100
AcDbLine
 10
594.0
 20
840.0
 30
0.0
 11
0.0
 21
840.0
 31
0.0
  0
LINE
  5
89
330
1E
100
AcDbEntity
  8
HILF
100
AcDbLine
 10
0.0
 20
840.0
 30
0.0
 11
0.0
 21
0.0
 31
0.0
  0
LINE
  5
8B
330
1E
100
AcDbEntity
  8
STEMPEL
100
AcDbLine
 10
10.0
 20
830.0
 30
0.0
 11
10.0
 21
39.99999999999995
 31
0.0
  0
LINE
  5
8D
330
1E
100
AcDbEntity
  8
STEMPEL
100
AcDbLine
 10
584.0
 20
39.99999999999995
 30
0.0
 11
584.0
 21
830.0
 31
0.0
  0
LINE
  5
8E
330
1E
100
AcDbEntity
  8
STEMPEL
100
AcDbLine
 10
584.0
 20
830.0
 30
0.0
 11
10.0
 21
830.0
 31
0.0
  0
TEXT
  5
8F
330
1E
100
AcDbEntity
  8
TEXT
 62
     1
100
AcDbText
 10
506.6265692434746
 20
655.0390572473189
 30
0.0
 40
7.0
  1
Notentwässerung
 50
90.0
 41
0.8
  7
GREEKS
100
AcDbText
  0
TEXT
  5
90
330
1E
100
AcDbEntity
  8
TEXT
 62
     1
100
AcDbText
 10
506.6265692434746
 20
768.2628088850803
 30
0.0
 40
7.0
  1
19511125W
 50
90.0
 41
0.8
  7
GREEKS
 72
     1
 11
506.6265692434746
 21
790.1294755517469
 31
0.0
100
AcDbText
  0
TEXT
  5
91
330
1E
100
AcDbEntity
  8
TEXT
100
AcDbText
 10
491.16010388621
 20
618.5090226415829
 30
0.0
 40
5.0
  1
Zul.Abw.
 50
90.0
 41
0.8
  7
GREEKS
100
AcDbText
  0
TEXT
  5
93
330
1E
100
AcDbEntity
  8
TEXT
100
AcDbText
 10
530.8491412387978
 20
590.4612856559488
 30
0.0
 40
4.0
  1
17.08.
 50
90.0
 41
0.8
  7
GREEKS
 72
     1
 11
530.8491412387978
 21
597.1660475607107
 31
0.0
100
AcDbText
  0
TEXT
  5
94
330
1E
100
AcDbEntity
  8
TEXT
100
AcDbText
 10
531.0570234483452
 20
624.0231753226609
 30
0.0
 40
4.0
  1
Koeh
 50
90.0
 41
0.8
  7
GREEKS
 72
     1
 11
531.0570234483452
 21
629.2803181798038
 31
0.0
100
AcDbText
  0
TEXT
  5
95
330
1E
100
AcDbEntity
  8
TEXT
100
AcDbText
 10
521.8997861689246
 20
654.3410940884991
 30
0.0
 40
5.0
  1
Dachdurchführung DN100
 50
90.0
 41
0.8
  7
GREEKS
100
AcDbText
  0
TEXT
  5
96
330
1E
100
AcDbEntity
  8
TEXT
100
AcDbText
 10
531.6544091479096
 20
654.3410940884991
 30
0.0
 40
5.0
  1
Freispiegelströmung
 50
90.0
 41
0.8
  7
GREEKS
100
AcDbText
  0
TEXT
  5
97
330
1E
100
AcDbEntity
  8
TEXT
100
AcDbText
 10
541.4090266215394
 20
654.3410940884991
 30
0.0
 40
5.0
  1
EDV-Art.Nr. 19511.125X
 50
90.0
 41
0.8
  7
GREEKS
100
AcDbText
  0
TEXT
  5
98
330
1E
100
AcDbEntity
  8
TEXT
100
AcDbText
 10
550.6887237520849
 20
654.1676050109347
 30
0.0
 40
4.0
  1
19511125W.DWG
 50
90.0
 41
0.8
  7
GREEKS
100
AcDbText
  0
TEXT
  5
99
330
1E
100
AcDbEntity
  8
TEXT
 62
     1
100
AcDbText
 10
506.5292291158502
 20
582.703491203422
 30
0.0
 40
7.0
  1
1:2
 50
90.0
 41
0.8
  7
GREEKS
100
AcDbText
  0
TEXT
  5
9A
330
1E
100
AcDbEntity
  8
TEXT
100
AcDbText
 10
479.8856414948956
 20
470.0441139350127
 30
0.0
 40
5.0
  1
Erstellt mit AUTOCAD 2004
 50
90.0
 41
0.8
  7
GREEKS
100
AcDbText
  0
INSERT
  5
9B
330
1E
100
AcDbEntity
  8
HILF
100
AcDbBlockReference
  2
LORO
 10
557.0194069970104
 20
573.0624985962354
 30
0.0
 41
2.0
 42
2.0
 43
2.0
 50
90.0
  0
LINE
  5
9C
330
1E
100
AcDbEntity
  8
BEM
100
AcDbLine
 10
594.0
 20
455.9999999999999
 30
0.0
 11
584.0
 21
455.9999999999999
 31
0.0
  0
LINE
  5
13E
330
1E
100
AcDbEntity
  8
HILF
100
AcDbLine
 10
594.0
 20
-0.0000000000000568
 30
0.0
 11
0.0
 21
0.0
 31
0.0
  0
LINE
  5
13F
330
1E
100
AcDbEntity
  8
STEMPEL
100
AcDbLine
 10
584.0
 20
39.99999999999995
 30
0.0
 11
10.0
 21
39.99999999999995
 31
0.0
  0
LINE
  5
14A
330
1E
100
AcDbEntity
  8
HILF
100
AcDbLine
 10
297.0
 20
-0.0000000000000568
 30
0.0
 11
297.0
 21
39.99999999999995
 31
0.0
  0
TEXT
  5
15B
330
1E
100
AcDbEntity
  8
BEM
100
AcDbText
 10
583.8320989200114
 20
837.3022923857165
 30
0.0
 40
4.0
  1
Diese Zeichnung ist urheberrechtlich geschützt und bleibt unser Eigentum. Sie darf weder ganz noch teilweise verfielfältigt und nicht an Dritte weitergegeben werden.
 50
180.0
 41
0.8
  7
GREEKS
100
AcDbText
  0
LINE
  5
19C
330
1E
100
AcDbEntity
  8
BEM
100
AcDbLine
 10
0.0
 20
455.9999999999999
 30
0.0
 11
10.0
 21
455.9999999999999
 31
0.0
  0
LINE
  5
9A8
330
1E
100
AcDbEntity
  8
TEXT
 62
     2
100
AcDbLine
 10
350.7696513509617
 20
652.8348234592098
 30
0.0
 11
380.7805248631362
 21
659.8591190706582
 31
0.0
  0
TEXT
  5
9AC
330
1E
100
AcDbEntity
  8
TEXT
 62
     1
100
AcDbText
 10
366.8689782236989
 20
570.4456668936586
 30
0.0
 40
7.0
  1
Dichelement DN125
 41
0.8
  7
GREEKS
100
AcDbText
  0
LINE
  5
9AD
330
1E
100
AcDbEntity
  8
TEXT
 62
     2
100
AcDbLine
 10
364.7490852276535
 20
567.0657614767621
 30
0.0
 11
472.8597946688934
 21
567.0657614767621
 31
0.0
  0
LINE
  5
9AE
330
1E
100
AcDbEntity
  8
TEXT
 62
     2
100
AcDbLine
 10
316.255490341315
 20
548.3458038395331
 30
0.0
 11
364.7490852276535
 21
567.0657614767621
 31
0.0
  0
TEXT
  5
9AF
330
1E
100
AcDbEntity
  8
TEXT
 62
     1
100
AcDbText
 10
366.8689782236989
 20
557.0383103661954
 30
0.0
 40
7.0
  1
EDV-Art.Nr. 00911.125X
 41
0.8
  7
GREEKS
100
AcDbText
  0
TEXT
  5
9B4
330
1E
100
AcDbEntity
  8
TEXT
 62
     1
100
AcDbText
 10
366.8689782236989
 20
483.1520247194118
 30
0.0
 40
7.0
  1
EDV-Art.Nr. 00911.125X
 41
0.8
  7
GREEKS
100
AcDbText
  0
LINE
  5
9B5
330
1E
100
AcDbEntity
  8
TEXT
 62
     2
100
AcDbLine
 10
364.7490852276535
 20
493.1794758299786
 30
0.0
 11
472.8597946688934
 21
493.1794758299786
 31
0.0
  0
TEXT
  5
9B6
330
1E
100
AcDbEntity
  8
TEXT
 62
     1
100
AcDbText
 10
366.8689782236989
 20
496.5593812468751
 30
0.0
 40
7.0
  1
Dichelement DN125
 41
0.8
  7
GREEKS
100
AcDbText
  0
LINE
  5
9B7
330
1E
100
AcDbEntity
  8
TEXT
 62
     2
100
AcDbLine
 10
311.5015726012937
 20
479.5798036964845
 30
0.0
 11
364.7490852276535
 21
493.1794758299786
 31
0.0
  0
LINE
  5
9BB
330
1E
100
AcDbEntity
  8
TEXT
 62
     2
100
AcDbLine
 10
306.586398740342
 20
494.6976462558906
 30
0.0
 11
364.7490852276535
 21
526.116943851249
 31
0.0
  0
TEXT
  5
9BC
330
1E
100
AcDbEntity
  8
TEXT
 62
     1
100
AcDbText
 10
426.4873195482515
 20
381.352289697583
 30
0.0
 40
7.0
  1
Flachdachdurchführung DN125
 41
0.8
  7
GREEKS
100
AcDbText
  0
LINE
  5
9BD
330
1E
100
AcDbEntity
  8
TEXT
 62
     2
100
AcDbLine
 10
424.367426552206
 20
377.9723842806866
 30
0.0
 11
555.8710742663358
 21
377.9723842806866
 31
0.0
  0
TEXT
  5
9BE
330
1E
100
AcDbEntity
  8
TEXT
 62
     1
100
AcDbText
 10
426.4873195482515
 20
367.9449331701198
 30
0.0
 40
7.0
  1
EDV-Art.Nr. 19480.125X
 41
0.8
  7
GREEKS
100
AcDbText
  0
LINE
  5
9BF
330
1E
100
AcDbEntity
  8
TEXT
 62
     2
100
AcDbLine
 10
349.5077564598636
 20
360.4691095152839
 30
0.0
 11
424.367426552206
 21
377.9723842806866
 31
0.0
  0
HATCH
  5
1A3B
330
1E
100
AcDbEntity
  8
SCHRAFF
100
AcDbHatch
 10
0.0
 20
0.0
 30
0.0
210
0.0
220
0.0
230
1.0
  2
_USER
 70
     0
 71
     1
 91
        3
 92
        7
 72
     0
 73
     1
 93
        4
 10
347.9709886414846
 20
314.0215436747781
 10
350.8709886414847
 20
314.0215436747781
 10
350.8709886414846
 20
482.0215436747781
 10
347.9709886414847
 20
482.0215436747781
 97
        4
330
1A75
330
1A74
330
1A93
330
1A72
 92
        7
 72
     0
 73
     1
 93
        4
 10
134.7709886414847
 20
468.0171131324925
 10
131.8709886414847
 20
468.0171131324926
 10
131.8709886414846
 20
314.0215436747781
 10
134.7709886414847
 20
314.0215436747781
 97
        4
330
1A3D
330
1A71
330
1A92
330
1A73
 92
        7
 72
     0
 73
     1
 93
        4
 10
131.8709886414847
 20
476.0171131324926
 10
134.7709886414847
 20
476.0171131324925
 10
134.7709886414846
 20
482.0215436747781
 10
131.8709886414846
 20
482.0215436747782
 97
        4
330
1A85
330
1A71
330
1A3C
330
1A73
 75
     0
 76
     0
 52
45.0
 41
2.0
 77
     0
 78
     1
 53
45.0
 43
5.730007036910365
 44
-49.60195986698682
 45
-1.414213562373094
 46
1.414213562373095
 79
     0
 47
0.3902318666887172
 98
        3
 10
349.068774764612
 20
441.6001952468882
 10
133.534511459462
 20
440.8197313895164
 10
133.1440508640971
 20
477.8917597741274
  0
LINE
  5
1A3C
102
{ACAD_REACTORS
330
1A3B
102
}
330
1E
100
AcDbEntity
  8
STEMPEL
100
AcDbLine
 10
131.8709886414846
 20
476.0171131324926
 30
0.0
 11
134.7709886414847
 21
476.0171131324925
 31
0.0
  0
LINE
  5
1A3D
102
{ACAD_REACTORS
330
1A3B
102
}
330
1E
100
AcDbEntity
  8
STEMPEL
100
AcDbLine
 10
131.8709886414844
 20
468.0171131324926
 30
0.0
 11
134.7709886414847
 21
468.0171131324925
 31
0.0
  0
LINE
  5
1A3E
330
1E
100
AcDbEntity
  8
MITTEL
100
AcDbLine
 10
126.8709886414847
 20
472.0171131324925
 30
0.0
 11
139.7709886414846
 21
472.0171131324926
 31
0.0
  0
HATCH
  5
1A42
330
1E
100
AcDbEntity
  8
SCHRAFF
100
AcDbHatch
 10
0.0
 20
0.0
 30
0.0
210
0.0
220
0.0
230
1.0
  2
HONEY
 70
     0
 71
     1
 91
        2
 92
        7
 72
     1
 73
     1
 93
       14
 10
347.9709886414847
 20
482.0215436747782
 42
0.0
 10
341.8437243695757
 20
482.0215436747782
 42
0.100335924670308
 10
341.064878547302
 20
481.863661799418
 42
0.0
 10
321.0219457916834
 20
473.3895285535507
 42
-0.2319319567389248
 10
317.3709886414847
 20
467.8319753487035
 42
0.0
 10
317.3709886414847
 20
451.3125436747781
 42
0.0
 10
317.3707249011768
 20
451.3125436747782
 42
-0.109549420553722
 10
314.5583990104992
 20
438.6307104840329
 42
0.1095494205538394
 10
312.8709886414847
 20
431.0215436747783
 42
0.0
 10
312.8709886414847
 20
417.4902630974494
 42
-0.1528962216020418
 10
309.6567029271989
 20
407.2246577543034
 42
0.152896221602038
 10
307.8709886414847
 20
401.521543674778
 42
0.0
 10
307.8709886414847
 20
314.0215436747781
 42
0.0
 10
347.9709886414846
 20
314.021543674778
 42
0.0
 97
       14
330
1A75
330
1A4C
330
1A84
330
1A46
330
1A52
330
1A63
330
1A62
330
1A61
330
1A5E
330
1A60
330
1A5F
330
1A70
330
1A93
330
1A74
 92
        7
 72
     1
 73
     1
 93
       14
 10
134.7709886414847
 20
314.0215436747781
 42
0.0
 10
174.8709886414845
 20
314.0215436747781
 42
0.0
 10
174.8709886414846
 20
401.5215436747783
 42
0.1528962216020396
 10
173.0852743557703
 20
407.2246577543037
 42
-0.1528962216020392
 10
169.8709886414846
 20
417.4902630974495
 42
0.0
 10
169.8709886414846
 20
431.0215436747783
 42
0.1095494205537668
 10
168.1835782724724
 20
438.6307104840282
 42
-0.1095494205537667
 10
165.3712523817925
 20
451.3125436747783
 42
0.0
 10
165.3709886414847
 20
451.3125436747783
 42
0.0
 10
165.3709886414847
 20
467.8319753487035
 42
-0.2319319567389297
 10
161.7200314912859
 20
473.3895285535508
 42
0.0
 10
141.6770987356673
 20
481.863661799418
 42
0.1003359246703044
 10
140.8982529133936
 20
482.0215436747782
 42
0.0
 10
134.7709886414847
 20
482.0215436747782
 42
0.0
 97
       14
330
1A5B
330
1A5C
330
1A53
330
1A45
330
1A86
330
1A4A
330
1A85
330
1A73
330
1A92
330
1A6F
330
1A59
330
1A58
330
1A57
330
1A5A
 75
     0
 76
     1
 52
0.0
 41
40.0
 77
     0
 78
     3
 53
0.0
 43
5.730007036910365
 44
-49.60195986698682
 45
7.5
 46
4.330127
 79
     2
 49
5.0
 49
-10.0
 53
120.0
 43
5.730007036910365
 44
-49.60195986698682
 45
-7.499999983612898
 46
4.330127028383291
 79
     2
 49
4.999999999999997
 49
-9.999999999999994
 53
60.0
 43
5.730007036910365
 44
-49.60195986698682
 45
0.0000000163871017
 46
8.66025402838329
 79
     2
 49
-10.0
 49
5.0
 47
0.5468012479285869
 98
        2
 10
336.1356794311193
 20
438.9020146985647
 10
143.0016898492233
 20
432.8871998286103
  0
HATCH
  5
1A43
330
1E
100
AcDbEntity
  8
SCHRAFF
100
AcDbHatch
 10
0.0
 20
0.0
 30
0.0
210
0.0
220
0.0
230
1.0
  2
_USER
 70
     0
 71
     0
 91
        2
 92
        7
 72
     1
 73
     1
 93
        9
 10
351.3709886414847
 20
483.9667360874275
 42
0.004048926467332
 10
351.339040529777
 20
484.021543674778
 42
0.0
 10
341.8437243695756
 20
484.021543674778
 42
0.1003359246703227
 10
340.286032725028
 20
483.705779924058
 42
0.0
 10
317.1648293740645
 20
473.930156746061
 42
-0.0175506508308223
 10
317.3377095424036
 20
471.8318369090034
 42
0.0
 10
341.064878547302
 20
481.863661799418
 42
-0.1003359246703061
 10
341.8437243695757
 20
482.0215436747782
 42
0.0
 10
351.3709886414848
 20
482.0215436747782
 42
0.0
 97
        0
 92
        7
 72
     1
 73
     1
 93
        9
 10
142.455944557941
 20
483.705779924058
 42
0.1003359246702842
 10
140.898252913394
 20
484.021543674778
 42
0.0
 10
131.4029367531923
 20
484.021543674778
 42
0.0040489264673343
 10
131.3709886414846
 20
483.9667360874275
 42
0.0
 10
131.3709886414846
 20
482.0215436747782
 42
0.0
 10
140.8982529133936
 20
482.0215436747782
 42
-0.1003359246703086
 10
141.6770987356673
 20
481.863661799418
 42
0.0
 10
165.4042677405657
 20
471.8318369090034
 42
-0.0175506508308204
 10
165.5771479089048
 20
473.9301567460609
 42
0.0
 97
        0
 75
     0
 76
     0
 52
135.0
 41
2.0
 77
     0
 78
     1
 53
135.0
 43
5.730007036910365
 44
-49.60195986698682
 45
-1.414213562373095
 46
-1.414213562373094
 79
     0
 47
0.3417994981908246
 98
        2
 10
343.6534360359076
 20
482.9179304165686
 10
135.0335217134463
 20
483.2597296070644
  0
HATCH
  5
1A44
330
1E
100
AcDbEntity
  8
SCHRAFF
100
AcDbHatch
 10
0.0
 20
0.0
 30
0.0
210
0.0
220
0.0
230
1.0
  2
_USER
 70
     0
 71
     1
 91
        2
 92
        7
 72
     1
 73
     1
 93
        4
 10
321.0219457916835
 20
473.3895285535508
 42
0.0
 10
317.3377095424036
 20
471.8318369090034
 42
-0.0117771550461251
 10
317.3709886414847
 20
470.4191662303137
 42
0.0
 10
317.3709886414847
 20
467.8319753487035
 42
0.2319319567389279
 97
        4
330
1A84
330
1A66
330
1A52
330
1A46
 92
        7
 72
     1
 73
     1
 93
        4
 10
161.7200314912859
 20
473.3895285535508
 42
0.2319319567389297
 10
165.3709886414847
 20
467.8319753487035
 42
0.0
 10
165.3709886414847
 20
470.4191662303141
 42
-0.0117771550461232
 10
165.4042677405658
 20
471.8318369090034
 42
0.0
 97
        4
330
1A86
330
1A45
330
1A53
330
1A64
 75
     0
 76
     0
 52
0.0
 41
0.1
 77
     0
 78
     1
 53
0.0
 43
5.730007036910365
 44
-49.60195986698682
 45
0.0
 46
0.1
 79
     0
 47
0.3417994981908246
 98
        2
 10
318.687447490129
 20
470.2713491907805
 10
163.7615081683077
 20
471.2967481594482
  0
ARC
  5
1A45
102
{ACAD_REACTORS
330
1A44
330
1A42
102
}
330
1E
100
AcDbEntity
  8
SCHRAFF
100
AcDbCircle
 10
169.2137661498002
 20
474.3344338150905
 30
0.0
 40
7.553072559263759
100
AcDbArc
 50
187.186652139029
 51
239.4180583653353
  0
ARC
  5
1A46
102
{ACAD_REACTORS
330
1A44
330
1A42
102
}
330
1E
100
AcDbEntity
  8
SCHRAFF
100
AcDbCircle
 10
313.5282111331692
 20
474.3344338150905
 30
0.0
 40
7.553072559263759
100
AcDbArc
 50
300.5819416346647
 51
352.8133478609709
  0
ARC
  5
1A49
330
1E
100
AcDbEntity
  8
STEMPEL
100
AcDbCircle
 10
140.8982529133936
 20
480.0215436747781
 30
0.0
 40
4.0
100
AcDbArc
 50
67.08140398465754
 51
90.0
  0
ARC
  5
1A4A
102
{ACAD_REACTORS
330
1A42
102
}
330
1E
100
AcDbEntity
  8
STEMPEL
100
AcDbCircle
 10
140.8982529133936
 20
480.0215436747781
 30
0.0
 40
2.0
100
AcDbArc
 50
67.08140398465754
 51
90.0
  0
ARC
  5
1A4B
330
1E
100
AcDbEntity
  8
STEMPEL
100
AcDbCircle
 10
341.8437243695757
 20
480.0215436747781
 30
0.0
 40
4.0
100
AcDbArc
 50
90.0
 51
112.9185960153424
  0
ARC
  5
1A4C
102
{ACAD_REACTORS
330
1A42
102
}
330
1E
100
AcDbEntity
  8
STEMPEL
100
AcDbCircle
 10
341.8437243695757
 20
480.0215436747781
 30
0.0
 40
2.0
100
AcDbArc
 50
90.0
 51
112.9185960153424
  0
DIMENSION
  5
1A4E
330
1E
100
AcDbEntity
  8
BEM
100
AcDbDimension
  2
*D2
 10
350.8709886414846
 20
137.0192160062187
 30
0.0
 11
241.3709886414846
 21
143.5192160062187
 31
0.0
 70
    32
  1
%%c<>
 71
     5
 42
218.9999999999999
  3
Standard
100
AcDbAlignedDimension
 13
131.8709886414847
 23
314.0215436747781
 33
0.0
 14
350.8709886414846
 24
314.0215436747782
 34
0.0
100
AcDbRotatedDimension
1001
ACAD
1000
DSTYLE
1002
{
1070
    40
1040
2.0
1070
    41
1040
3.5
1070
    42
1040
1.0
1070
    43
1040
7.0
1070
    44
1040
1.0
1070
    73
1070
     0
1070
    74
1070
     0
1070
    77
1070
     1
1070
    78
1070
     8
1070
    79
1070
     2
1070
   140
1040
3.5
1070
   141
1040
1.5
1070
   146
1040
0.5142857142857144
1070
   147
1040
1.5
1070
   172
1070
     1
1070
   178
1070
     1
1070
   179
1070
     2
1070
   271
1070
     2
1070
   272
1070
     2
1070
   284
1070
     8
1070
   285
1070
     8
1070
   286
1070
     8
1002
}
  0
DIMENSION
  5
1A4F
330
1E
100
AcDbEntity
  8
BEM
100
AcDbDimension
  2
*D3
 10
76.37098864148474
 20
121.198698274817
 30
0.0
 11
241.3709886414847
 21
127.698698274817
 31
0.0
 70
    32
  1
%%c330
 71
     5
 42
329.9999999999998
  3
Standard
100
AcDbAlignedDimension
 13
406.3709886414845
 23
405.021543674778
 33
0.0
 14
76.37098864148476
 24
404.021543674778
 34
0.0
100
AcDbRotatedDimension
1001
ACAD
1000
DSTYLE
1002
{
1070
    40
1040
2.0
1070
    41
1040
3.5
1070
    42
1040
1.0
1070
    43
1040
7.0
1070
    44
1040
1.0
1070
    73
1070
     0
1070
    74
1070
     0
1070
    77
1070
     1
1070
    78
1070
     8
1070
    79
1070
     2
1070
   140
1040
3.5
1070
   141
1040
1.5
1070
   146
1040
0.5142857142857144
1070
   147
1040
1.5
1070
   172
1070
     1
1070
   178
1070
     1
1070
   179
1070
     2
1070
   271
1070
     2
1070
   272
1070
     2
1070
   284
1070
     8
1070
   285
1070
     8
1070
   286
1070
     8
1002
}
  0
LINE
  5
1A50
330
1E
100
AcDbEntity
  8
STEMPEL
100
AcDbLine
 10
307.1806289271356
 20
174.0215436747781
 30
0.0
 11
175.5613483558337
 21
174.0215436747781
 31
0.0
  0
LINE
  5
1A51
330
1E
100
AcDbEntity
  8
STEMPEL
100
AcDbLine
 10
131.3709886414846
 20
484.0215436747778
 30
0.0
 11
171.3709886414847
 21
484.0215436747778
 31
0.0
  0
LINE
  5
1A52
102
{ACAD_REACTORS
330
1A44
330
1A42
102
}
330
1E
100
AcDbEntity
  8
STEMPEL
100
AcDbLine
 10
317.3709886414847
 20
470.419166230314
 30
0.0
 11
317.3709886414847
 21
451.3125436747782
 31
0.0
  0
LINE
  5
1A53
102
{ACAD_REACTORS
330
1A44
330
1A42
102
}
330
1E
100
AcDbEntity
  8
STEMPEL
100
AcDbLine
 10
165.3709886414847
 20
470.4191662303141
 30
0.0
 11
165.3709886414847
 21
451.3125436747783
 31
0.0
  0
LINE
  5
1A55
330
1E
100
AcDbEntity
  8
HILF
100
AcDbLine
 10
179.3985179270464
 20
405.2566330789481
 30
0.0
 11
303.3434593559231
 21
405.2566330789481
 31
0.0
  0
LINE
  5
1A57
102
{ACAD_REACTORS
330
1A42
102
}
330
1E
100
AcDbEntity
  8
STEMPEL
100
AcDbLine
 10
169.8709886414846
 20
431.0215436747783
 30
0.0
 11
169.8709886414846
 21
417.4902630974495
 31
0.0
  0
ARC
  5
1A58
102
{ACAD_REACTORS
330
1A42
102
}
330
1E
100
AcDbEntity
  8
STEMPEL
100
AcDbCircle
 10
187.8709886414846
 20
417.4902630974495
 30
0.0
 40
18.0
100
AcDbArc
 50
180.0
 51
214.7719440319491
  0
ARC
  5
1A59
102
{ACAD_REACTORS
330
1A42
102
}
330
1E
100
AcDbEntity
  8
STEMPEL
100
AcDbCircle
 10
164.8709886414846
 20
401.5215436747783
 30
0.0
 40
10.0
100
AcDbArc
 50
0.0
 51
34.77194403194904
  0
ARC
  5
1A5A
102
{ACAD_REACTORS
330
1A42
102
}
330
1E
100
AcDbEntity
  8
STEMPEL
100
AcDbCircle
 10
151.8709886414846
 20
431.0215436747783
 30
0.0
 40
18.0
100
AcDbArc
 50
0.0
 51
25.00715833654666
  0
ARC
  5
1A5B
102
{ACAD_REACTORS
330
1A42
102
}
330
1E
100
AcDbEntity
  8
STEMPEL
100
AcDbCircle
 10
195.3709886414846
 20
451.3125436747783
 30
0.0
 40
29.99973625969209
100
AcDbArc
 50
180.0
 51
205.0071583365467
  0
LINE
  5
1A5C
102
{ACAD_REACTORS
330
1A42
102
}
330
1E
100
AcDbEntity
  8
STEMPEL
100
AcDbLine
 10
165.3712523817925
 20
451.3125436747783
 30
0.0
 11
165.3709886414847
 21
451.3125436747783
 31
0.0
  0
LINE
  5
1A5E
102
{ACAD_REACTORS
330
1A42
102
}
330
1E
100
AcDbEntity
  8
STEMPEL
100
AcDbLine
 10
312.8709886414847
 20
431.0215436747783
 30
0.0
 11
312.8709886414847
 21
417.4902630974494
 31
0.0
  0
ARC
  5
1A5F
102
{ACAD_REACTORS
330
1A42
102
}
330
1E
100
AcDbEntity
  8
STEMPEL
100
AcDbCircle
 10
317.8709886414847
 20
401.5215436747783
 30
0.0
 40
10.0
100
AcDbArc
 50
145.2280559680509
 51
180.0
  0
ARC
  5
1A60
102
{ACAD_REACTORS
330
1A42
102
}
330
1E
100
AcDbEntity
  8
STEMPEL
100
AcDbCircle
 10
294.8709886414847
 20
417.4902630974494
 30
0.0
 40
18.0
100
AcDbArc
 50
325.228055968051
 51
0.0
  0
ARC
  5
1A61
102
{ACAD_REACTORS
330
1A42
102
}
330
1E
100
AcDbEntity
  8
STEMPEL
100
AcDbCircle
 10
330.8709886414847
 20
431.0215436747783
 30
0.0
 40
18.0
100
AcDbArc
 50
154.9928416634576
 51
180.0
  0
ARC
  5
1A62
102
{ACAD_REACTORS
330
1A42
102
}
330
1E
100
AcDbEntity
  8
STEMPEL
100
AcDbCircle
 10
287.3709886414847
 20
451.3125436747782
 30
0.0
 40
29.99973625969209
100
AcDbArc
 50
334.9928416634577
 51
0.0
  0
LINE
  5
1A63
102
{ACAD_REACTORS
330
1A42
102
}
330
1E
100
AcDbEntity
  8
STEMPEL
100
AcDbLine
 10
317.3707249011768
 20
451.3125436747782
 30
0.0
 11
317.3709886414847
 21
451.3125436747782
 31
0.0
  0
ARC
  5
1A64
102
{ACAD_REACTORS
330
1A44
102
}
330
1E
100
AcDbEntity
  8
STEMPEL
100
AcDbCircle
 10
195.3709886414846
 20
470.4191662303141
 30
0.0
 40
30.0
100
AcDbArc
 50
155.000000000005
 51
180.0
  0
LINE
  5
1A65
330
1E
100
AcDbEntity
  8
STEMPEL
100
AcDbLine
 10
168.6125438440784
 20
484.0215436747782
 30
0.0
 11
168.1817550303852
 21
483.0977140825353
 31
0.0
  0
ARC
  5
1A66
102
{ACAD_REACTORS
330
1A44
102
}
330
1E
100
AcDbEntity
  8
STEMPEL
100
AcDbCircle
 10
287.3709886414847
 20
470.419166230314
 30
0.0
 40
30.0
100
AcDbArc
 50
0.0
 51
24.99999999999059
  0
LINE
  5
1A67
330
1E
100
AcDbEntity
  8
STEMPEL
100
AcDbLine
 10
314.129433438891
 20
484.0215436747782
 30
0.0
 11
314.5602222525841
 21
483.0977140825353
 31
0.0
  0
LINE
  5
1A68
330
1E
100
AcDbEntity
  8
HILF
100
AcDbLine
 10
302.8614390476263
 20
182.0215436747781
 30
0.0
 11
179.880538235343
 21
182.0215436747781
 31
0.0
  0
LINE
  5
1A69
330
1E
100
AcDbEntity
  8
STEMPEL
100
AcDbLine
 10
174.8709886414843
 20
181.9123913175103
 30
0.0
 11
175.5613483558337
 21
174.0215436747781
 31
0.0
  0
LINE
  5
1A6A
330
1E
100
AcDbEntity
  8
STEMPEL
100
AcDbLine
 10
307.8709886414846
 20
181.9123913175068
 30
0.0
 11
307.1806289271356
 21
174.0215436747781
 31
0.0
  0
DIMENSION
  5
1A6C
330
1E
100
AcDbEntity
  8
BEM
100
AcDbDimension
  2
*D4
 10
307.8709886414846
 20
152.6684689774055
 30
0.0
 11
241.3709886414845
 21
159.1684689774055
 31
0.0
 70
    32
  1
%%C<>
 71
     5
 42
133.0000000000002
  3
Standard
100
AcDbAlignedDimension
 13
174.8709886414843
 23
181.9123913175103
 33
0.0
 14
307.8709886414846
 24
181.9123913175068
 34
0.0
100
AcDbRotatedDimension
1001
ACAD
1000
DSTYLE
1002
{
1070
    40
1040
2.0
1070
    41
1040
3.5
1070
    42
1040
1.0
1070
    43
1040
7.0
1070
    44
1040
1.0
1070
    73
1070
     0
1070
    74
1070
     0
1070
    77
1070
     1
1070
    78
1070
     8
1070
    79
1070
     2
1070
   140
1040
3.5
1070
   141
1040
1.5
1070
   146
1040
0.5142857142857144
1070
   147
1040
1.5
1070
   172
1070
     1
1070
   178
1070
     1
1070
   179
1070
     2
1070
   271
1070
     2
1070
   272
1070
     2
1070
   284
1070
     8
1070
   285
1070
     8
1070
   286
1070
     8
1002
}
  0
LINE
  5
1A6F
102
{ACAD_REACTORS
330
1A42
102
}
330
1E
100
AcDbEntity
  8
STEMPEL
100
AcDbLine
 10
174.8709886414846
 20
401.5215436747783
 30
0.0
 11
174.8709886414844
 21
181.9123913175095
 31
0.0
  0
LINE
  5
1A70
102
{ACAD_REACTORS
330
1A42
102
}
330
1E
100
AcDbEntity
  8
STEMPEL
100
AcDbLine
 10
307.8709886414847
 20
401.5215436747783
 30
0.0
 11
307.8709886414847
 21
181.9123913175077
 31
0.0
  0
LINE
  5
1A71
102
{ACAD_REACTORS
330
1A3B
102
}
330
1E
100
AcDbEntity
  8
STEMPEL
100
AcDbLine
 10
131.8709886414847
 20
482.0215436747785
 30
0.0
 11
131.8709886414846
 21
314.0215436747781
 31
0.0
  0
LINE
  5
1A72
102
{ACAD_REACTORS
330
1A3B
102
}
330
1E
100
AcDbEntity
  8
STEMPEL
100
AcDbLine
 10
350.8709886414847
 20
482.0215436747782
 30
0.0
 11
350.8709886414847
 21
314.0215436747781
 31
0.0
  0
LINE
  5
1A73
102
{ACAD_REACTORS
330
1A42
330
1A3B
102
}
330
1E
100
AcDbEntity
  8
STEMPEL
100
AcDbLine
 10
134.7709886414847
 20
482.0215436747785
 30
0.0
 11
134.7709886414847
 21
314.0215436747781
 31
0.0
  0
LINE
  5
1A74
102
{ACAD_REACTORS
330
1A42
330
1A3B
102
}
330
1E
100
AcDbEntity
  8
STEMPEL
100
AcDbLine
 10
347.9709886414847
 20
482.0215436747782
 30
0.0
 11
347.9709886414846
 21
314.0215436747781
 31
0.0
  0
LINE
  5
1A75
102
{ACAD_REACTORS
330
1A42
330
1A3B
102
}
330
1E
100
AcDbEntity
  8
STEMPEL
100
AcDbLine
 10
341.8437243695757
 20
482.0215436747782
 30
0.0
 11
351.3709886414849
 21
482.0215436747782
 31
0.0
  0
LINE
  5
1A77
330
1E
100
AcDbEntity
  8
STEMPEL
100
AcDbLine
 10
350.8709886414846
 20
406.0215436747776
 30
0.0
 11
406.3709886414845
 21
406.0215436747779
 31
0.0
  0
LINE
  5
1A78
330
1E
100
AcDbEntity
  8
STEMPEL
100
AcDbLine
 10
406.3709886414845
 20
406.0215436747779
 30
0.0
 11
406.3709886414845
 21
404.021543674778
 31
0.0
  0
LINE
  5
1A79
330
1E
100
AcDbEntity
  8
STEMPEL
100
AcDbLine
 10
389.93997103059
 20
404.0215436747779
 30
0.0
 11
406.3709886414845
 21
404.021543674778
 31
0.0
  0
LINE
  5
1A7A
330
1E
100
AcDbEntity
  8
STEMPEL
100
AcDbLine
 10
389.93997103059
 20
404.0215436747779
 30
0.0
 11
350.8709886414846
 21
391.0215436747775
 31
0.0
  0
LINE
  5
1A7B
330
1E
100
AcDbEntity
  8
STEMPEL
100
AcDbLine
 10
389.6159594287517
 20
406.0215436747779
 30
0.0
 11
350.8709886414847
 21
393.1293568443642
 31
0.0
  0
LINE
  5
1A7C
330
1E
100
AcDbEntity
  8
STEMPEL
100
AcDbLine
 10
93.1260178542176
 20
406.0215436747779
 30
0.0
 11
131.8709886414846
 21
393.1293568443642
 31
0.0
  0
LINE
  5
1A7D
330
1E
100
AcDbEntity
  8
STEMPEL
100
AcDbLine
 10
92.80200625237933
 20
404.0215436747779
 30
0.0
 11
131.8709886414847
 21
391.0215436747775
 31
0.0
  0
LINE
  5
1A7E
330
1E
100
AcDbEntity
  8
STEMPEL
100
AcDbLine
 10
92.80200625237933
 20
404.0215436747779
 30
0.0
 11
76.3709886414847
 21
404.021543674778
 31
0.0
  0
LINE
  5
1A7F
330
1E
100
AcDbEntity
  8
STEMPEL
100
AcDbLine
 10
76.3709886414847
 20
406.0215436747779
 30
0.0
 11
76.3709886414847
 21
404.021543674778
 31
0.0
  0
LINE
  5
1A80
330
1E
100
AcDbEntity
  8
STEMPEL
100
AcDbLine
 10
131.8709886414847
 20
406.0215436747776
 30
0.0
 11
76.3709886414847
 21
406.0215436747779
 31
0.0
  0
LINE
  5
1A81
330
1E
100
AcDbEntity
  8
STEMPEL
100
AcDbLine
 10
131.3709886414846
 20
484.0215436747778
 30
0.0
 11
131.3709886414846
 21
482.0215436747786
 31
0.0
  0
LINE
  5
1A82
330
1E
100
AcDbEntity
  8
STEMPEL
100
AcDbLine
 10
351.3709886414847
 20
484.021543674778
 30
0.0
 11
351.3709886414849
 21
482.0215436747782
 31
0.0
  0
LINE
  5
1A83
330
1E
100
AcDbEntity
  8
STEMPEL
100
AcDbLine
 10
340.2860327250283
 20
483.705779924058
 30
0.0
 11
317.1648293740645
 21
473.930156746061
 31
0.0
  0
LINE
  5
1A84
102
{ACAD_REACTORS
330
1A44
330
1A42
102
}
330
1E
100
AcDbEntity
  8
STEMPEL
100
AcDbLine
 10
341.064878547302
 20
481.863661799418
 30
0.0
 11
317.3377095424036
 21
471.8318369090034
 31
0.0
  0
LINE
  5
1A85
102
{ACAD_REACTORS
330
1A42
330
1A3B
102
}
330
1E
100
AcDbEntity
  8
STEMPEL
100
AcDbLine
 10
140.8982529133936
 20
482.0215436747782
 30
0.0
 11
131.3709886414844
 21
482.0215436747782
 31
0.0
  0
LINE
  5
1A86
102
{ACAD_REACTORS
330
1A44
330
1A42
102
}
330
1E
100
AcDbEntity
  8
STEMPEL
100
AcDbLine
 10
141.6770987356673
 20
481.863661799418
 30
0.0
 11
165.4042677405657
 21
471.8318369090034
 31
0.0
  0
LINE
  5
1A87
330
1E
100
AcDbEntity
  8
STEMPEL
100
AcDbLine
 10
142.455944557941
 20
483.705779924058
 30
0.0
 11
165.5771479089047
 21
473.9301567460609
 31
0.0
  0
ARC
  5
1A88
330
1E
100
AcDbEntity
  8
SCHRAFF
100
AcDbCircle
 10
134.7709886414847
 20
482.0215436747785
 30
0.0
 40
3.917112906494708
100
AcDbArc
 50
149.2975206508454
 51
222.2395128283641
  0
ARC
  5
1A89
330
1E
100
AcDbEntity
  8
SCHRAFF
100
AcDbCircle
 10
347.9709886414847
 20
482.0215436747785
 30
0.0
 40
3.917112906494708
100
AcDbArc
 50
317.7604871716359
 51
30.70247934915459
  0
HATCH
  5
1A8A
330
1E
100
AcDbEntity
  8
SCHRAFF
100
AcDbHatch
 10
0.0
 20
0.0
 30
0.0
210
0.0
220
0.0
230
1.0
  2
_U
 70
     0
 71
     0
 91
        2
 92
        7
 72
     0
 73
     1
 93
        6
 10
93.12601785421742
 20
406.0215436747779
 10
76.3709886414847
 20
406.0215436747779
 10
76.37098864148476
 20
404.021543674778
 10
92.80200625237956
 20
404.0215436747778
 10
131.8709886414845
 20
391.0215436747775
 10
131.8709886414845
 20
393.1293568443642
 97
        0
 92
        7
 72
     0
 73
     1
 93
        6
 10
406.3709886414845
 20
406.0215436747779
 10
389.6159594287516
 20
406.0215436747778
 10
350.8709886414847
 20
393.1293568443641
 10
350.8709886414847
 20
391.0215436747775
 10
389.93997103059
 20
404.0215436747779
 10
406.3709886414845
 20
404.0215436747779
 97
        0
 75
     0
 76
     0
 52
135.0
 41
2.0
 77
     0
 78
     1
 53
135.0
 43
5.730007111643544
 44
-49.60195998311519
 45
-1.414213562373095
 46
-1.414213562373094
 79
     0
 47
0.6854571751307739
 98
        2
 10
86.0722664750283
 20
405.0032505129162
 10
394.6790784899915
 20
405.0032505129162
  0
ARC
  5
1A8C
330
1E
100
AcDbEntity
  8
SCHRAFF
100
AcDbCircle
 10
350.8709886414846
 20
393.1293568443642
 30
0.0
 40
4.0
100
AcDbArc
 50
18.40459407248306
 51
90.0
  0
HATCH
  5
1A8D
330
1E
100
AcDbEntity
  8
SCHRAFF
100
AcDbHatch
 10
0.0
 20
0.0
 30
0.0
210
0.0
220
0.0
230
1.0
  2
_USER
 70
     0
 71
     0
 91
        1
 92
        7
 72
     1
 73
     1
 93
        3
 10
350.8709886414846
 20
397.1293568443642
 42
0.0
 10
350.8709886414846
 20
393.1293568443642
 42
0.0
 10
354.6663914387678
 20
394.3922573180259
 42
0.3229690628614806
 97
        0
 75
     0
 76
     0
 52
0.0
 41
0.1
 77
     0
 78
     1
 53
0.0
 43
570.2240292068388
 44
58.62564642892914
 45
0.0
 46
0.1
 79
     0
 47
0.0158021856124347
 98
        1
 10
352.6249883908802
 20
394.9440537413817
  0
HATCH
  5
1A8E
330
1E
100
AcDbEntity
  8
SCHRAFF
100
AcDbHatch
 10
0.0
 20
0.0
 30
0.0
210
0.0
220
0.0
230
1.0
  2
_USER
 70
     0
 71
     0
 91
        1
 92
        7
 72
     1
 73
     1
 93
        3
 10
131.8709886414846
 20
397.1293568443642
 42
0.0
 10
131.8709886414847
 20
393.1293568443642
 42
0.0
 10
128.0755858442015
 20
394.3922573180259
 42
-0.3229690628614806
 97
        0
 75
     0
 76
     0
 52
0.0
 41
0.1
 77
     0
 78
     1
 53
180.0
 43
-87.48205192386956
 44
58.62564642892914
 45
0.0
 46
0.1
 79
     0
 47
0.0158021856124347
 98
        1
 10
130.1169888920891
 20
394.9440537413817
  0
ARC
  5
1A8F
330
1E
100
AcDbEntity
  8
SCHRAFF
100
AcDbCircle
 10
131.8709886414847
 20
393.1293568443642
 30
0.0
 40
4.0
100
AcDbArc
 50
90.0
 51
161.5954059275169
  0
HATCH
  5
1A90
330
1E
100
AcDbEntity
  8
SCHRAFF
100
AcDbHatch
 10
0.0
 20
0.0
 30
0.0
210
0.0
220
0.0
230
1.0
  2
_USER
 70
     0
 71
     0
 91
        1
 92
        7
 72
     1
 73
     1
 93
        4
 10
131.8709886414847
 20
479.3883377348209
 42
0.0
 10
131.8709886414846
 20
482.0215436747782
 42
0.0
 10
131.3709886414846
 20
482.0215436747782
 42
0.0
 10
131.3709886414846
 20
483.9667360874276
 42
0.3249874823690976
 97
        0
 75
     0
 76
     0
 52
0.0
 41
0.1
 77
     0
 78
     1
 53
0.0
 43
570.2240292068388
 44
-245.9591695784833
 45
0.0
 46
0.1
 79
     0
 47
0.0797130123673978
 98
        1
 10
131.2466694655311
 20
481.1728099163046
  0
HATCH
  5
1A91
330
1E
100
AcDbEntity
  8
SCHRAFF
100
AcDbHatch
 10
0.0
 20
0.0
 30
0.0
210
0.0
220
0.0
230
1.0
  2
_USER
 70
     0
 71
     0
 91
        1
 92
        7
 72
     1
 73
     1
 93
        4
 10
351.3709886414847
 20
483.9667360874276
 42
0.0
 10
351.3709886414849
 20
482.0215436747782
 42
0.0
 10
350.8709886414847
 20
482.0215436747783
 42
0.0
 10
350.8709886414847
 20
479.3883377348209
 42
0.3249874823690983
 97
        0
 75
     0
 76
     0
 52
0.0
 41
0.1
 77
     0
 78
     1
 53
0.0
 43
570.2240292068388
 44
-245.9591695784833
 45
0.0
 46
0.1
 79
     0
 47
0.0666675435791005
 98
        1
 10
351.5147607639549
 20
482.5219477189802
  0
LINE
  5
1A92
102
{ACAD_REACTORS
330
1A42
330
1A3B
102
}
330
1E
100
AcDbEntity
  8
STEMPEL
100
AcDbLine
 10
131.8709886414846
 20
314.0215436747781
 30
0.0
 11
174.8709886414844
 21
314.0215436747781
 31
0.0
  0
LINE
  5
1A93
102
{ACAD_REACTORS
330
1A42
330
1A3B
102
}
330
1E
100
AcDbEntity
  8
STEMPEL
100
AcDbLine
 10
307.8709886414847
 20
314.0215436747781
 30
0.0
 11
350.8709886414847
 21
314.0215436747781
 31
0.0
  0
LINE
  5
1A94
330
1E
100
AcDbEntity
  8
MITTEL
100
AcDbLine
 10
241.3709886414848
 20
694.6611010663709
 30
0.0
 11
241.3709886414846
 21
167.9412508896897
 31
0.0
  0
DIMENSION
  5
1A95
330
1E
100
AcDbEntity
  8
BEM
100
AcDbDimension
  2
*D5
 10
42.6096049170676
 20
484.0215436747781
 30
0.0
 11
36.10960491706752
 21
399.0215436747781
 31
0.0
 70
    32
 71
     5
 42
170.0
  3
Standard
100
AcDbAlignedDimension
 13
131.8709886414846
 23
314.0215436747781
 33
0.0
 14
131.3709886414846
 24
484.021543674778
 34
0.0
 50
270.0
100
AcDbRotatedDimension
1001
ACAD
1000
DSTYLE
1002
{
1070
    40
1040
2.0
1070
    41
1040
3.5
1070
    42
1040
1.0
1070
    43
1040
7.0
1070
    44
1040
1.0
1070
    73
1070
     0
1070
    74
1070
     0
1070
    77
1070
     1
1070
    78
1070
     8
1070
    79
1070
     2
1070
   140
1040
3.5
1070
   141
1040
1.5
1070
   146
1040
0.5142857142857144
1070
   147
1040
1.5
1070
   172
1070
     1
1070
   178
1070
     1
1070
   179
1070
     2
1070
   271
1070
     2
1070
   272
1070
     2
1070
   284
1070
     8
1070
   285
1070
     8
1070
   286
1070
     8
1002
}
  0
DIMENSION
  5
1A96
330
1E
100
AcDbEntity
  8
BEM
100
AcDbDimension
  2
*D6
 10
28.21575344863982
 20
484.0215436747781
 30
0.0
 11
21.71575344863973
 21
329.0215436747781
 31
0.0
 70
    32
 71
     5
 42
310.0
  3
Standard
100
AcDbAlignedDimension
 13
174.8709886414844
 23
174.0215436747781
 33
0.0
 14
131.3709886414846
 24
484.021543674778
 34
0.0
 50
270.0
100
AcDbRotatedDimension
1001
ACAD
1000
DSTYLE
1002
{
1070
    40
1040
2.0
1070
    41
1040
3.5
1070
    42
1040
1.0
1070
    43
1040
7.0
1070
    44
1040
1.0
1070
    73
1070
     0
1070
    74
1070
     0
1070
    77
1070
     1
1070
    78
1070
     8
1070
    79
1070
     2
1070
   140
1040
3.5
1070
   141
1040
1.5
1070
   146
1040
0.5142857142857144
1070
   147
1040
1.5
1070
   172
1070
     1
1070
   178
1070
     1
1070
   179
1070
     2
1070
   271
1070
     2
1070
   272
1070
     2
1070
   284
1070
     8
1070
   285
1070
     8
1070
   286
1070
     8
1002
}
  0
DIMENSION
  5
1BFC
330
1E
100
AcDbEntity
  8
BEM
100
AcDbDimension
  2
*D7
 10
57.84519017077554
 20
484.0215436747781
 30
0.0
 11
51.34519017077546
 21
444.0215436747782
 31
0.0
 70
    32
 71
     5
 42
80.00000000000005
  3
Standard
100
AcDbAlignedDimension
 13
76.3709886414847
 23
404.021543674778
 33
0.0
 14
131.3709886414846
 24
484.0215436747781
 34
0.0
 50
270.0
100
AcDbRotatedDimension
1001
ACAD
1000
DSTYLE
1002
{
1070
    40
1040
2.0
1070
    41
1040
3.5
1070
    42
1040
1.0
1070
    43
1040
7.0
1070
    44
1040
1.0
1070
    73
1070
     0
1070
    74
1070
     0
1070
    77
1070
     1
1070
    78
1070
     8
1070
    79
1070
     2
1070
   140
1040
3.5
1070
   141
1040
1.5
1070
   146
1040
0.5142857142857144
1070
   147
1040
1.5
1070
   172
1070
     1
1070
   178
1070
     1
1070
   179
1070
     2
1070
   271
1070
     2
1070
   272
1070
     2
1070
   284
1070
     8
1070
   285
1070
     8
1070
   286
1070
     8
1002
}
  0
LINE
  5
1C64
330
1E
100
AcDbEntity
  8
STEMPEL
100
AcDbLine
 10
177.3709886414845
 20
401.5215436747783
 30
0.0
 11
177.3709886414844
 21
182.0215436747799
 31
0.0
  0
LINE
  5
1C65
330
1E
100
AcDbEntity
  8
STEMPEL
100
AcDbLine
 10
177.3709886414844
 20
182.0215436747799
 30
0.0
 11
178.070897949692
 21
174.0215436747781
 31
0.0
  0
LINE
  5
1C68
330
1E
100
AcDbEntity
  8
STEMPEL
100
AcDbLine
 10
305.3709886414849
 20
182.0215436747795
 30
0.0
 11
304.6710793332772
 21
174.0215436747781
 31
0.0
  0
LINE
  5
1C69
330
1E
100
AcDbEntity
  8
STEMPEL
100
AcDbLine
 10
305.3709886414847
 20
401.5215436747783
 30
0.0
 11
305.3709886414849
 21
182.0215436747795
 31
0.0
  0
ARC
  5
1C6A
330
1E
100
AcDbEntity
  8
STEMPEL
100
AcDbCircle
 10
164.8709886414846
 20
401.5215436747783
 30
0.0
 40
12.5
100
AcDbArc
 50
0.0
 51
34.77194403194844
  0
ARC
  5
1C6C
330
1E
100
AcDbEntity
  8
STEMPEL
100
AcDbCircle
 10
187.8709886414846
 20
417.4902630974495
 30
0.0
 40
15.5
100
AcDbArc
 50
179.9999999999998
 51
214.7719440319484
  0
LINE
  5
1C6E
330
1E
100
AcDbEntity
  8
STEMPEL
100
AcDbLine
 10
172.3709886414846
 20
431.0215436747781
 30
0.0
 11
172.3709886414846
 21
417.4902630974496
 31
0.0
  0
ARC
  5
1C6F
330
1E
100
AcDbEntity
  8
STEMPEL
100
AcDbCircle
 10
151.8709886414846
 20
431.0215436747783
 30
0.0
 40
20.5
100
AcDbArc
 50
359.9999999999997
 51
25.00715833655239
  0
ARC
  5
1C71
330
1E
100
AcDbEntity
  8
STEMPEL
100
AcDbCircle
 10
195.3709886414846
 20
451.3125436747783
 30
0.0
 40
27.4997362596921
100
AcDbArc
 50
180.0
 51
205.0071583365525
  0
LINE
  5
1C72
330
1E
100
AcDbEntity
  8
STEMPEL
100
AcDbLine
 10
167.8709886414847
 20
470.4191662303141
 30
0.0
 11
167.8709886414847
 21
451.3125436747783
 31
0.0
  0
ARC
  5
1C73
330
1E
100
AcDbEntity
  8
STEMPEL
100
AcDbCircle
 10
195.3709886414846
 20
470.4191662303141
 30
0.0
 40
27.5
100
AcDbArc
 50
154.9999999999982
 51
180.0
  0
LINE
  5
1C74
330
1E
100
AcDbEntity
  8
STEMPEL
100
AcDbLine
 10
171.3709886414847
 20
484.0215436747779
 30
0.0
 11
170.4475244979771
 21
482.041168428184
 31
0.0
  0
LINE
  5
1C75
330
1E
100
AcDbEntity
  8
STEMPEL
100
AcDbLine
 10
311.370988641485
 20
484.0215436747779
 30
0.0
 11
312.2944527849925
 21
482.041168428184
 31
0.0
  0
ARC
  5
1C76
330
1E
100
AcDbEntity
  8
STEMPEL
100
AcDbCircle
 10
287.3709886414849
 20
470.4191662303141
 30
0.0
 40
27.5
100
AcDbArc
 50
0.0
 51
25.00000000000169
  0
LINE
  5
1C77
330
1E
100
AcDbEntity
  8
STEMPEL
100
AcDbLine
 10
314.8709886414849
 20
470.4191662303141
 30
0.0
 11
314.8709886414849
 21
451.3125436747783
 31
0.0
  0
ARC
  5
1C78
330
1E
100
AcDbEntity
  8
STEMPEL
100
AcDbCircle
 10
287.3709886414849
 20
451.3125436747783
 30
0.0
 40
27.4997362596921
100
AcDbArc
 50
334.9928416634475
 51
0.000000000000007
  0
ARC
  5
1C79
330
1E
100
AcDbEntity
  8
STEMPEL
100
AcDbCircle
 10
330.8709886414849
 20
431.0215436747783
 30
0.0
 40
20.5
100
AcDbArc
 50
154.9928416634476
 51
180.0000000000003
  0
LINE
  5
1C7B
330
1E
100
AcDbEntity
  8
STEMPEL
100
AcDbLine
 10
310.3709886414849
 20
431.0215436747781
 30
0.0
 11
310.370988641485
 21
417.4902630974496
 31
0.0
  0
ARC
  5
1C7D
330
1E
100
AcDbEntity
  8
STEMPEL
100
AcDbCircle
 10
294.8709886414849
 20
417.4902630974495
 30
0.0
 40
15.5
100
AcDbArc
 50
325.2280559680516
 51
0.0000000000002101
  0
ARC
  5
1C7E
330
1E
100
AcDbEntity
  8
STEMPEL
100
AcDbCircle
 10
317.870988641485
 20
401.5215436747783
 30
0.0
 40
12.5
100
AcDbArc
 50
145.2280559680515
 51
180.0
  0
TEXT
  5
1C80
330
1E
100
AcDbEntity
  8
TEXT
 62
     1
100
AcDbText
 10
229.2336531624804
 20
307.6752356777728
 30
0.0
 40
7.0
  1
DN125
 50
90.0
 41
0.8
  7
GREEKS
100
AcDbText
  0
HATCH
  5
1D34
330
1E
100
AcDbEntity
  8
SCHRAFF
100
AcDbHatch
 10
0.0
 20
0.0
 30
0.0
210
0.0
220
0.0
230
1.0
  2
_USER
 70
     0
 71
     0
 91
        1
 92
       33
 93
       23
 72
     1
 10
311.370988641485
 20
484.0215436747779
 11
314.1294334388911
 21
484.0215436747779
 72
     1
 10
317.3709886414847
 20
470.419166230314
 11
317.3709886414847
 21
451.3125436747782
 72
     1
 10
312.8709886414847
 20
431.0215436747783
 11
312.8709886414847
 21
417.4902630974494
 72
     2
 10
317.8709886414847
 20
401.5215436747783
 40
10.0
 50
145.2280559680509
 51
180.0
 73
     1
 72
     2
 10
294.8709886414847
 20
417.4902630974494
 40
18.0
 50
325.228055968051
 51
360.0
 73
     1
 72
     2
 10
330.8709886414847
 20
431.0215436747783
 40
18.0
 50
154.9928416634576
 51
180.0
 73
     1
 72
     2
 10
287.3709886414847
 20
451.3125436747782
 40
29.99973625969209
 50
334.9928416634577
 51
360.0
 73
     1
 72
     1
 10
317.3707249011768
 20
451.3125436747782
 11
317.3709886414847
 21
451.3125436747782
 72
     2
 10
287.3709886414847
 20
470.419166230314
 40
30.0
 50
0.0
 51
24.99999999999059
 73
     1
 72
     1
 10
314.129433438891
 20
484.0215436747782
 11
314.5602222525841
 21
483.0977140825353
 72
     1
 10
311.3709886414849
 20
484.0215436747779
 11
312.2944527849925
 21
482.041168428184
 72
     2
 10
287.3709886414849
 20
470.4191662303141
 40
27.5
 50
0.0
 51
25.00000000000169
 73
     1
 72
     1
 10
314.8709886414849
 20
470.4191662303141
 11
314.8709886414849
 21
451.3125436747783
 72
     2
 10
287.3709886414849
 20
451.3125436747783
 40
27.4997362596921
 50
334.9928416634475
 51
360.0
 73
     1
 72
     2
 10
330.8709886414849
 20
431.0215436747783
 40
20.5
 50
154.9928416634476
 51
180.0000000000003
 73
     1
 72
     1
 10
310.3709886414849
 20
431.0215436747781
 11
310.3709886414849
 21
417.4902630974496
 72
     2
 10
294.8709886414849
 20
417.4902630974495
 40
15.5
 50
325.2280559680516
 51
360.0000000000002
 73
     1
 72
     2
 10
317.8709886414849
 20
401.5215436747783
 40
12.5
 50
145.2280559680515
 51
180.0
 73
     1
 72
     1
 10
307.8709886414847
 20
401.5215436747783
 11
307.8709886414847
 21
181.9123913175077
 72
     1
 10
305.3709886414847
 20
401.5215436747783
 11
305.3709886414849
 21
182.0215436747795
 72
     1
 10
307.1806289271356
 20
174.0215436747781
 11
304.6710793332772
 21
174.0215436747781
 72
     1
 10
307.8709886414846
 20
181.9123913175068
 11
307.1806289271356
 21
174.0215436747781
 72
     1
 10
305.3709886414849
 20
182.0215436747795
 11
304.6710793332772
 21
174.0215436747781
 97
        0
 75
     0
 76
     0
 52
45.0
 41
2.0
 77
     0
 78
     1
 53
45.0
 43
911.443751905405
 44
0.0
 45
-1.414213562373094
 46
1.414213562373095
 79
     0
 98
        1
 10
911.443751905405
 20
0.0
  0
HATCH
  5
1D35
330
1E
100
AcDbEntity
  8
SCHRAFF
100
AcDbHatch
 10
0.0
 20
0.0
 30
0.0
210
0.0
220
0.0
230
1.0
  2
_USER
 70
     0
 71
     0
 91
        1
 92
       33
 93
       23
 72
     1
 10
178.0708979496919
 20
174.0215436747781
 11
175.5613483558337
 21
174.0215436747781
 72
     1
 10
168.6125438440782
 20
484.0215436747778
 11
171.3709886414846
 21
484.0215436747778
 72
     1
 10
165.3709886414847
 20
470.4191662303141
 11
165.3709886414847
 21
451.3125436747783
 72
     1
 10
169.8709886414847
 20
431.0215436747783
 11
169.8709886414846
 21
417.4902630974495
 72
     2
 10
187.8709886414847
 20
417.4902630974495
 40
18.0
 50
180.0
 51
214.7719440319491
 73
     1
 72
     2
 10
164.8709886414846
 20
401.5215436747783
 40
10.0
 50
0.0
 51
34.77194403194904
 73
     1
 72
     2
 10
151.8709886414847
 20
431.0215436747783
 40
18.0
 50
0.0
 51
25.00715833654666
 73
     1
 72
     2
 10
195.3709886414847
 20
451.3125436747783
 40
29.99973625969209
 50
180.0
 51
205.0071583365467
 73
     1
 72
     1
 10
165.3712523817926
 20
451.3125436747783
 11
165.3709886414847
 21
451.3125436747783
 72
     2
 10
195.3709886414847
 20
470.4191662303141
 40
30.0
 50
155.000000000005
 51
180.0
 73
     1
 72
     1
 10
168.6125438440784
 20
484.0215436747782
 11
168.1817550303852
 21
483.0977140825353
 72
     2
 10
164.8709886414846
 20
401.5215436747783
 40
12.5
 50
0.0
 51
34.77194403194844
 73
     1
 72
     2
 10
187.8709886414847
 20
417.4902630974495
 40
15.5
 50
179.9999999999998
 51
214.7719440319484
 73
     1
 72
     1
 10
172.3709886414847
 20
431.0215436747781
 11
172.3709886414846
 21
417.4902630974496
 72
     2
 10
151.8709886414847
 20
431.0215436747783
 40
20.5
 50
359.9999999999997
 51
385.0071583365524
 73
     1
 72
     2
 10
195.3709886414847
 20
451.3125436747783
 40
27.4997362596921
 50
180.0
 51
205.0071583365525
 73
     1
 72
     1
 10
167.8709886414847
 20
470.4191662303141
 11
167.8709886414847
 21
451.3125436747783
 72
     2
 10
195.3709886414847
 20
470.4191662303141
 40
27.5
 50
154.9999999999982
 51
180.0
 73
     1
 72
     1
 10
171.3709886414847
 20
484.0215436747779
 11
170.4475244979771
 21
482.041168428184
 72
     1
 10
174.8709886414846
 20
401.5215436747783
 11
174.8709886414844
 21
181.9123913175095
 72
     1
 10
177.3709886414845
 20
401.5215436747783
 11
177.3709886414845
 21
182.0215436747799
 72
     1
 10
174.8709886414843
 20
181.9123913175103
 11
175.5613483558337
 21
174.0215436747781
 72
     1
 10
177.3709886414845
 20
182.0215436747799
 11
178.070897949692
 21
174.0215436747781
 97
        0
 75
     0
 76
     0
 52
45.0
 41
2.0
 77
     0
 78
     1
 53
45.0
 43
911.443751905405
 44
0.0
 45
-1.414213562373094
 46
1.414213562373095
 79
     0
 98
        1
 10
911.443751905405
 20
0.0
  0
ARC
  5
1E0B
330
1E
100
AcDbEntity
  8
STEMPEL
100
AcDbCircle
 10
170.8468287281258
 20
488.2215436747778
 30
0.0
 40
2.799999999999999
100
AcDbArc
 50
15.00000000000074
 51
90.0
  0
ARC
  5
1E0C
330
1E
100
AcDbEntity
  8
STEMPEL
100
AcDbCircle
 10
170.8951485548437
 20
488.2215436747778
 30
0.0
 40
2.799999999999999
100
AcDbArc
 50
90.0
 51
164.9999999999992
  0
LINE
  5
1E0F
330
1E
100
AcDbEntity
  8
STEMPEL
100
AcDbLine
 10
167.8709886414847
 20
459.5617905326111
 30
0.0
 11
172.4174784622915
 21
459.5617905326111
 31
0.0
  0
ARC
  5
1E10
330
1E
100
AcDbEntity
  8
STEMPEL
100
AcDbCircle
 10
199.3961314025476
 20
463.026404392953
 30
0.0
 40
27.20020705200717
100
AcDbArc
 50
177.903324478939
 51
194.7307208287785
  0
LINE
  5
1E11
330
1E
100
AcDbEntity
  8
STEMPEL
100
AcDbLine
 10
169.8935514113737
 20
459.561790532611
 30
0.0
 11
171.6709886414847
 21
464.0215436747779
 31
0.0
  0
LINE
  5
1E13
330
1E
100
AcDbEntity
  8
STEMPEL
100
AcDbLine
 10
171.6709886414847
 20
464.0215436747779
 30
0.0
 11
172.2141343919925
 21
464.0215436747779
 31
0.0
  0
LINE
  5
1E20
330
1E
100
AcDbEntity
  8
STEMPEL
100
AcDbLine
 10
166.8709886414847
 20
484.0215436747779
 30
0.0
 11
168.1905562412343
 21
488.946237001065
 31
0.0
  0
LINE
  5
1E23
330
1E
100
AcDbEntity
  8
STEMPEL
100
AcDbLine
 10
309.6520243932256
 20
456.1100299290759
 30
0.0
 11
307.8709886414847
 21
456.1100299290759
 31
0.0
  0
LINE
  5
1E24
330
1E
100
AcDbEntity
  8
STEMPEL
100
AcDbLine
 10
311.8468287281258
 20
491.0215436747779
 30
0.0
 11
307.8709886414848
 21
491.0215436747779
 31
0.0
  0
LINE
  5
1E27
330
1E
100
AcDbEntity
  8
STEMPEL
100
AcDbLine
 10
311.0709886414849
 20
464.0215436747779
 30
0.0
 11
310.527842890977
 21
464.0215436747779
 31
0.0
  0
LINE
  5
1E28
330
1E
100
AcDbEntity
  8
STEMPEL
100
AcDbLine
 10
312.8484258715959
 20
459.561790532611
 30
0.0
 11
311.0709886414849
 21
464.0215436747779
 31
0.0
  0
ARC
  5
1E29
330
1E
100
AcDbEntity
  8
STEMPEL
100
AcDbCircle
 10
283.345845880422
 20
463.026404392953
 30
0.0
 40
27.20020705200717
100
AcDbArc
 50
345.2692791712215
 51
2.096675521060971
  0
LINE
  5
1E2A
330
1E
100
AcDbEntity
  8
STEMPEL
100
AcDbLine
 10
314.8709886414849
 20
459.5617905326111
 30
0.0
 11
310.324498820678
 21
459.5617905326111
 31
0.0
  0
LINE
  5
1E2B
330
1E
100
AcDbEntity
  8
STEMPEL
100
AcDbLine
 10
307.8709886414848
 20
484.0215436747779
 30
0.0
 11
309.1905562412344
 21
488.946237001065
 31
0.0
  0
LINE
  5
1E2C
330
1E
100
AcDbEntity
  8
STEMPEL
100
AcDbLine
 10
315.8709886414848
 20
484.0215436747779
 30
0.0
 11
314.5514210417352
 21
488.946237001065
 31
0.0
  0
ARC
  5
1E2D
330
1E
100
AcDbEntity
  8
STEMPEL
100
AcDbCircle
 10
311.8468287281258
 20
488.2215436747778
 30
0.0
 40
2.799999999999999
100
AcDbArc
 50
15.00000000000074
 51
90.0
  0
ARC
  5
1E2E
330
1E
100
AcDbEntity
  8
STEMPEL
100
AcDbCircle
 10
311.8951485548438
 20
488.2215436747778
 30
0.0
 40
2.799999999999999
100
AcDbArc
 50
90.0
 51
164.9999999999992
  0
LINE
  5
1E2F
330
1E
100
AcDbEntity
  8
STEMPEL
100
AcDbLine
 10
311.3709886414849
 20
484.0215436747779
 30
0.0
 11
351.3390405297771
 21
484.0215436747779
 31
0.0
  0
HATCH
  5
1E50
330
1E
100
AcDbEntity
  8
SCHRAFF
100
AcDbHatch
 10
0.0
 20
0.0
 30
0.0
210
0.0
220
0.0
230
1.0
  2
NET
 70
     0
 71
     0
 91
        2
 92
        7
 72
     1
 73
     1
 93
       14
 10
312.2944527849925
 20
482.041168428184
 42
0.0
 10
311.3709886414849
 20
484.0215436747779
 42
0.0
 10
315.8709886414848
 20
484.0215436747779
 42
0.0
 10
314.5514210417352
 20
488.946237001065
 42
0.3370502855478819
 10
311.8709886414848
 20
491.0214394404424
 42
0.3370502855478877
 10
309.1905562412344
 20
488.946237001065
 42
0.0
 10
307.8709886414848
 20
484.0215436747781
 42
0.0
 10
307.8709886414848
 20
456.1100299290759
 42
0.0
 10
309.6520243932256
 20
456.1100299290759
 42
0.073555594420909
 10
310.527842890977
 20
464.0215436747779
 42
0.0
 10
311.0709886414848
 20
464.0215436747779
 42
0.0
 10
312.8484258715958
 20
459.5617905326111
 42
0.0
 10
314.8709886414849
 20
459.561790532611
 42
0.0
 10
314.8709886414849
 20
470.4191662303141
 42
0.1095178116832489
 97
        0
 92
        7
 72
     1
 73
     1
 93
       14
 10
167.8709886414847
 20
470.4191662303141
 42
0.0
 10
167.8709886414847
 20
459.5617905326111
 42
0.0
 10
169.8935514113738
 20
459.5617905326111
 42
0.0
 10
171.6709886414847
 20
464.0215436747778
 42
0.0
 10
172.2141343919925
 20
464.0215436747779
 42
0.0735555944209096
 10
173.089952889744
 20
456.1100299290758
 42
0.0
 10
174.8709886414848
 20
456.1100299290758
 42
0.0
 10
174.8709886414847
 20
484.0215436747779
 42
0.0
 10
173.5514210417352
 20
488.946237001065
 42
0.3370502855478819
 10
170.8709886414847
 20
491.0214394404424
 42
0.3370502855478819
 10
168.1905562412343
 20
488.946237001065
 42
0.0
 10
166.8709886414847
 20
484.0215436747778
 42
0.0
 10
171.3709886414846
 20
484.0215436747779
 42
0.0
 10
170.4475244979771
 20
482.041168428184
 42
0.1095178116832494
 97
        0
 75
     0
 76
     1
 52
45.0
 41
20.0
 77
     0
 78
     2
 53
45.0
 43
545.155771572673
 44
0.0
 45
-1.767766952966368
 46
1.767766952966368
 79
     0
 53
135.0
 43
545.155771572673
 44
0.0
 45
-1.767766952966368
 46
-1.767766952966368
 79
     0
 47
0.2983975341803751
 98
        2
 10
311.5250256718014
 20
476.6949409495062
 10
171.2271630305181
 20
472.8157718505856
  0
LINE
  5
210D
330
1E
100
AcDbEntity
  8
STEMPEL
100
AcDbLine
 10
307.8709886414848
 20
505.4334227305701
 30
0.0
 11
307.8709886414848
 21
419.0215436747774
 31
0.0
  0
LINE
  5
210F
102
{ACAD_REACTORS
330
26A3
102
}
330
1E
100
AcDbEntity
  8
STEMPEL
100
AcDbLine
 10
317.3709886414847
 20
550.4191662303135
 30
0.0
 11
317.3709886414847
 21
531.3125436747777
 31
0.0
  0
ARC
  5
2110
102
{ACAD_REACTORS
330
26A3
102
}
330
1E
100
AcDbEntity
  8
STEMPEL
100
AcDbCircle
 10
287.3709886414847
 20
550.4191662303135
 30
0.0
 40
30.0
100
AcDbArc
 50
0.0
 51
24.99999999999207
  0
LINE
  5
2111
102
{ACAD_REACTORS
330
25BE
330
269C
102
}
330
1E
100
AcDbEntity
  8
STEMPEL
100
AcDbLine
 10
166.8709886414847
 20
564.0215436747778
 30
0.0
 11
171.3709886414849
 21
564.0215436747778
 31
0.0
  0
LINE
  5
2112
102
{ACAD_REACTORS
330
26A3
102
}
330
1E
100
AcDbEntity
  8
STEMPEL
100
AcDbLine
 10
314.129433438891
 20
564.0215436747778
 30
0.0
 11
314.5602222525842
 21
563.0977140825345
 31
0.0
  0
LINE
  5
2113
330
1E
100
AcDbEntity
  8
STEMPEL
100
AcDbLine
 10
174.8709886414847
 20
505.4334227305701
 30
0.0
 11
174.8709886414846
 21
419.0215436747776
 31
0.0
  0
LINE
  5
2114
102
{ACAD_REACTORS
330
269C
102
}
330
1E
100
AcDbEntity
  8
STEMPEL
100
AcDbLine
 10
165.3709886414847
 20
550.4191662303135
 30
0.0
 11
165.3709886414847
 21
531.3125436747777
 31
0.0
  0
ARC
  5
2115
330
1E
100
AcDbEntity
  8
STEMPEL
100
AcDbCircle
 10
195.3709886414847
 20
531.3125436747777
 30
0.0
 40
29.99973625969209
100
AcDbArc
 50
180.0
 51
220.3144639415711
  0
LINE
  5
2116
102
{ACAD_REACTORS
330
269C
102
}
330
1E
100
AcDbEntity
  8
STEMPEL
100
AcDbLine
 10
168.6125438440785
 20
564.0215436747778
 30
0.0
 11
168.1817550303852
 21
563.0977140825345
 31
0.0
  0
ARC
  5
2117
102
{ACAD_REACTORS
330
269C
102
}
330
1E
100
AcDbEntity
  8
STEMPEL
100
AcDbCircle
 10
195.3709886414847
 20
550.4191662303135
 30
0.0
 40
30.0
100
AcDbArc
 50
155.0000000000079
 51
180.0
  0
LINE
  5
2118
330
1E
100
AcDbEntity
  8
STEMPEL
100
AcDbLine
 10
175.7458752767439
 20
409.0215436747778
 30
0.0
 11
306.9961020062256
 21
409.0215436747778
 31
0.0
  0
LINE
  5
23B3
102
{ACAD_REACTORS
330
25BE
330
26A3
102
}
330
1E
100
AcDbEntity
  8
STEMPEL
100
AcDbLine
 10
314.8709886414847
 20
550.4191662303135
 30
0.0
 11
314.8709886414847
 21
531.3125436747777
 31
0.0
  0
ARC
  5
23B4
102
{ACAD_REACTORS
330
25BE
330
26A3
102
}
330
1E
100
AcDbEntity
  8
STEMPEL
100
AcDbCircle
 10
287.3709886414847
 20
550.4191662303135
 30
0.0
 40
27.5
100
AcDbArc
 50
0.0
 51
29.6454808034086
  0
LINE
  5
23C8
330
1E
100
AcDbEntity
  8
STEMPEL
100
AcDbLine
 10
174.8709886414846
 20
456.1100299290758
 30
0.0
 11
173.089952889744
 21
456.1100299290758
 31
0.0
  0
LINE
  5
23CA
330
1E
100
AcDbEntity
  8
STEMPEL
100
AcDbLine
 10
174.8709886414847
 20
491.0215436747779
 30
0.0
 11
170.8951485548437
 21
491.0215436747779
 31
0.0
  0
LINE
  5
2580
102
{ACAD_REACTORS
330
25BE
102
}
330
1E
100
AcDbEntity
  8
STEMPEL
100
AcDbLine
 10
314.8709886414849
 20
539.5617905326111
 30
0.0
 11
310.324498820678
 21
539.5617905326111
 31
0.0
  0
ARC
  5
2581
102
{ACAD_REACTORS
330
25BE
102
}
330
1E
100
AcDbEntity
  8
STEMPEL
100
AcDbCircle
 10
283.345845880422
 20
543.026404392953
 30
0.0
 40
27.20020705200717
100
AcDbArc
 50
345.2692791712252
 51
2.096675521058052
  0
LINE
  5
2582
102
{ACAD_REACTORS
330
25BE
102
}
330
1E
100
AcDbEntity
  8
STEMPEL
100
AcDbLine
 10
312.8484258715959
 20
539.5617905326109
 30
0.0
 11
311.0709886414849
 21
544.0215436747778
 31
0.0
  0
LINE
  5
2583
102
{ACAD_REACTORS
330
25BE
102
}
330
1E
100
AcDbEntity
  8
STEMPEL
100
AcDbLine
 10
311.0709886414849
 20
544.0215436747778
 30
0.0
 11
310.527842890977
 21
544.0215436747778
 31
0.0
  0
LINE
  5
2584
102
{ACAD_REACTORS
330
25BE
102
}
330
1E
100
AcDbEntity
  8
STEMPEL
100
AcDbLine
 10
307.8709886414848
 20
564.0215436747778
 30
0.0
 11
307.8709886414848
 21
536.1100299290758
 31
0.0
  0
LINE
  5
2585
102
{ACAD_REACTORS
330
25BE
102
}
330
1E
100
AcDbEntity
  8
STEMPEL
100
AcDbLine
 10
309.6520243932256
 20
536.1100299290758
 30
0.0
 11
307.3929725216323
 21
536.1100299290759
 31
0.0
  0
ARC
  5
2586
102
{ACAD_REACTORS
330
25BE
102
}
330
1E
100
AcDbEntity
  8
STEMPEL
100
AcDbCircle
 10
311.8951485548438
 20
568.2215436747778
 30
0.0
 40
2.799999999999999
100
AcDbArc
 50
90.0
 51
164.9999999999984
  0
ARC
  5
2587
102
{ACAD_REACTORS
330
25BE
102
}
330
1E
100
AcDbEntity
  8
STEMPEL
100
AcDbCircle
 10
311.8468287281258
 20
568.2215436747778
 30
0.0
 40
2.799999999999999
100
AcDbArc
 50
15.00000000000158
 51
90.0
  0
LINE
  5
2588
102
{ACAD_REACTORS
330
25BE
102
}
330
1E
100
AcDbEntity
  8
STEMPEL
100
AcDbLine
 10
315.8709886414848
 20
564.0215436747778
 30
0.0
 11
314.5514210417352
 21
568.9462370010649
 31
0.0
  0
LINE
  5
2589
102
{ACAD_REACTORS
330
25BE
102
}
330
1E
100
AcDbEntity
  8
STEMPEL
100
AcDbLine
 10
307.8709886414848
 20
564.0215436747778
 30
0.0
 11
309.1905562412344
 21
568.9462370010649
 31
0.0
  0
LINE
  5
258B
102
{ACAD_REACTORS
330
25BE
102
}
330
1E
100
AcDbEntity
  8
STEMPEL
100
AcDbLine
 10
174.8709886414847
 20
564.0215436747778
 30
0.0
 11
173.5514210417352
 21
568.9462370010649
 31
0.0
  0
LINE
  5
258C
102
{ACAD_REACTORS
330
25BE
102
}
330
1E
100
AcDbEntity
  8
STEMPEL
100
AcDbLine
 10
166.8709886414847
 20
564.0215436747778
 30
0.0
 11
168.1905562412343
 21
568.9462370010649
 31
0.0
  0
ARC
  5
258D
102
{ACAD_REACTORS
330
25BE
102
}
330
1E
100
AcDbEntity
  8
STEMPEL
100
AcDbCircle
 10
170.8951485548437
 20
568.2215436747778
 30
0.0
 40
2.799999999999999
100
AcDbArc
 50
90.0
 51
164.9999999999984
  0
ARC
  5
258E
102
{ACAD_REACTORS
330
25BE
102
}
330
1E
100
AcDbEntity
  8
STEMPEL
100
AcDbCircle
 10
170.8468287281258
 20
568.2215436747778
 30
0.0
 40
2.799999999999999
100
AcDbArc
 50
15.00000000000158
 51
90.0
  0
LINE
  5
258F
102
{ACAD_REACTORS
330
25BE
102
}
330
1E
100
AcDbEntity
  8
STEMPEL
100
AcDbLine
 10
174.8709886414847
 20
564.0215436747778
 30
0.0
 11
174.8709886414847
 21
536.1100299290758
 31
0.0
  0
LINE
  5
2590
102
{ACAD_REACTORS
330
25BE
102
}
330
1E
100
AcDbEntity
  8
STEMPEL
100
AcDbLine
 10
171.6709886414847
 20
544.0215436747778
 30
0.0
 11
172.2141343919925
 21
544.0215436747778
 31
0.0
  0
LINE
  5
2591
102
{ACAD_REACTORS
330
25BE
102
}
330
1E
100
AcDbEntity
  8
STEMPEL
100
AcDbLine
 10
169.8935514113737
 20
539.5617905326109
 30
0.0
 11
171.6709886414847
 21
544.0215436747778
 31
0.0
  0
ARC
  5
2592
102
{ACAD_REACTORS
330
25BE
102
}
330
1E
100
AcDbEntity
  8
STEMPEL
100
AcDbCircle
 10
199.3961314025476
 20
543.026404392953
 30
0.0
 40
27.20020705200717
100
AcDbArc
 50
177.9033244789419
 51
194.7307208287747
  0
LINE
  5
2593
102
{ACAD_REACTORS
330
25BE
102
}
330
1E
100
AcDbEntity
  8
STEMPEL
100
AcDbLine
 10
167.8709886414847
 20
539.5617905326111
 30
0.0
 11
172.4174784622915
 21
539.5617905326111
 31
0.0
  0
LINE
  5
2597
102
{ACAD_REACTORS
330
25BE
330
269C
102
}
330
1E
100
AcDbEntity
  8
STEMPEL
100
AcDbLine
 10
171.3709886414849
 20
564.0215436747777
 30
0.0
 11
170.4475244979768
 21
562.0411684281828
 31
0.0
  0
ARC
  5
2598
102
{ACAD_REACTORS
330
25BE
330
269C
102
}
330
1E
100
AcDbEntity
  8
STEMPEL
100
AcDbCircle
 10
195.3709886414847
 20
550.4191662303135
 30
0.0
 40
27.5
100
AcDbArc
 50
155.0000000000079
 51
180.0
  0
LINE
  5
2599
102
{ACAD_REACTORS
330
25BE
330
269C
102
}
330
1E
100
AcDbEntity
  8
STEMPEL
100
AcDbLine
 10
167.8709886414847
 20
550.4191662303135
 30
0.0
 11
167.8709886414847
 21
532.2676632343453
 31
0.0
  0
ARC
  5
259B
102
{ACAD_REACTORS
330
26A3
102
}
330
1E
100
AcDbEntity
  8
STEMPEL
100
AcDbCircle
 10
287.3709886414848
 20
531.3125436747777
 30
0.0
 40
27.4997362596921
100
AcDbArc
 50
353.9289920619561
 51
0.000000000000007
  0
ARC
  5
259C
102
{ACAD_REACTORS
330
26A3
102
}
330
1E
100
AcDbEntity
  8
STEMPEL
100
AcDbCircle
 10
287.3709886414848
 20
531.3125436747777
 30
0.0
 40
29.99973625969209
100
AcDbArc
 50
319.6855360584288
 51
0.000000000000007
  0
LINE
  5
259E
102
{ACAD_REACTORS
330
25BE
102
}
330
1E
100
AcDbEntity
  8
STEMPEL
100
AcDbLine
 10
311.2713093058257
 20
564.0215436747779
 30
0.0
 11
315.8709886414848
 21
564.0215436747778
 31
0.0
  0
HATCH
  5
25BE
330
1E
100
AcDbEntity
  8
SCHRAFF
100
AcDbHatch
 10
0.0
 20
0.0
 30
0.0
210
0.0
220
0.0
230
1.0
  2
NET
 70
     0
 71
     1
 91
        2
 92
        7
 72
     1
 73
     1
 93
       14
 10
174.8709886414847
 20
564.0215436747779
 42
0.0
 10
173.5514210417352
 20
568.9462370010649
 42
0.3370502855478981
 10
170.8709886414847
 20
571.0214394404424
 42
0.3370502855478981
 10
168.1905562412343
 20
568.9462370010649
 42
0.0
 10
166.8709886414847
 20
564.0215436747778
 42
0.0
 10
171.370988641485
 20
564.0215436747779
 42
0.0
 10
170.4475244979768
 20
562.0411684281828
 42
0.1095178116832411
 10
167.8709886414847
 20
550.4191662303136
 42
0.0
 10
167.8709886414847
 20
539.5617905326111
 42
0.0
 10
169.8935514113737
 20
539.5617905326109
 42
0.0
 10
171.6709886414846
 20
544.0215436747776
 42
0.0
 10
172.2141343919925
 20
544.0215436747778
 42
0.0735555944209092
 10
173.089952889744
 20
536.1100299290758
 42
0.0
 10
174.8709886414847
 20
536.1100299290758
 42
0.0
 97
       14
330
258B
330
258E
330
258D
330
258C
330
2111
330
2597
330
2598
330
2599
330
2593
330
2591
330
2590
330
2592
330
2585
330
258F
 92
        7
 72
     1
 73
     1
 93
       13
 10
307.8709886414848
 20
536.1100299290759
 42
0.0
 10
309.6520243932256
 20
536.1100299290758
 42
0.073555594420909
 10
310.527842890977
 20
544.0215436747778
 42
0.0
 10
311.0709886414849
 20
544.0215436747776
 42
0.0
 10
312.8484258715958
 20
539.5617905326111
 42
0.0
 10
314.8709886414847
 20
539.5617905326109
 42
0.0
 10
314.8709886414847
 20
550.4191662303135
 42
0.1300791237973221
 10
311.2713093058257
 20
564.0215436747779
 42
0.0
 10
315.8709886414848
 20
564.0215436747778
 42
0.0
 10
314.5514210417352
 20
568.9462370010649
 42
0.3370502855478953
 10
311.8709886414848
 20
571.0214394404424
 42
0.3370502855478953
 10
309.1905562412344
 20
568.9462370010649
 42
0.0
 10
307.8709886414848
 20
564.0215436747778
 42
0.0
 97
       13
330
259E
330
2588
330
2587
330
2586
330
2589
330
2584
330
2585
330
2581
330
2583
330
2582
330
2580
330
23B3
330
23B4
 75
     0
 76
     1
 52
45.0
 41
20.0
 77
     0
 78
     2
 53
45.0
 43
545.155771572673
 44
0.0
 45
-1.767766952966368
 46
1.767766952966368
 79
     0
 53
135.0
 43
545.155771572673
 44
0.0
 45
-1.767766952966368
 46
-1.767766952966368
 79
     0
 47
0.2188138715901022
 98
        2
 10
173.138155241606
 20
558.3488759811673
 10
311.0410447727754
 20
555.0666680599867
  0
DIMENSION
  5
25DB
330
1E
100
AcDbEntity
  8
BEM
100
AcDbDimension
  2
*D8
 10
28.21575344863982
 20
484.0215436747782
 30
0.0
 11
21.71575344863974
 21
527.521543674778
 31
0.0
 70
    32
  1
95 - 136
 71
     5
 42
86.9999999999996
  3
Standard
100
AcDbAlignedDimension
 13
170.8951485548437
 23
571.0215436747778
 33
0.0
 14
131.4029367531925
 24
484.0215436747781
 34
0.0
 50
90.0
100
AcDbRotatedDimension
1001
ACAD
1000
DSTYLE
1002
{
1070
    40
1040
2.0
1070
    41
1040
3.5
1070
    42
1040
1.0
1070
    43
1040
7.0
1070
    44
1040
1.0
1070
    73
1070
     0
1070
    74
1070
     0
1070
    77
1070
     1
1070
    78
1070
     8
1070
    79
1070
     2
1070
   140
1040
3.5
1070
   141
1040
1.5
1070
   146
1040
0.5142857142857144
1070
   147
1040
1.5
1070
   172
1070
     1
1070
   178
1070
     1
1070
   179
1070
     2
1070
   271
1070
     2
1070
   272
1070
     2
1070
   284
1070
     8
1070
   285
1070
     8
1070
   286
1070
     8
1002
}
  0
SPLINE
  5
268F
102
{ACAD_REACTORS
330
269C
102
}
330
1E
100
AcDbEntity
  8
HILF
100
AcDbSpline
210
0.0
220
0.0
230
1.0
 70
     8
 71
     3
 72
    13
 73
     9
 74
     0
 42
0.0000000001
 43
0.0000000001
 40
3.293400882747513
 40
3.293400882747513
 40
3.293400882747513
 40
3.293400882747513
 40
24.70705254638687
 40
57.45372629915699
 40
92.78177170021079
 40
128.3914044232972
 40
147.6576456022288
 40
158.726834962091
 40
158.726834962091
 40
158.726834962091
 40
158.726834962091
 10
317.1383459403481
 20
527.5858004460475
 30
0.0
 10
310.2165393535375
 20
529.9647357650598
 30
0.0
 10
292.686052680661
 20
535.2961541933264
 30
0.0
 10
262.9821356438733
 20
522.6144501028161
 30
0.0
 10
228.7128451391488
 20
538.0371163581513
 30
0.0
 10
198.5414396652751
 20
517.3181330599038
 30
0.0
 10
178.7853393915695
 20
532.0801614629208
 30
0.0
 10
169.0003897989193
 20
532.4794269007715
 30
0.0
 10
165.3709886414847
 20
532.0845851335121
 30
0.0
  0
HATCH
  5
269C
330
1E
100
AcDbEntity
  8
SCHRAFF
100
AcDbHatch
 10
0.0
 20
0.0
 30
0.0
210
0.0
220
0.0
230
1.0
  2
_USER
 70
     0
 71
     1
 91
        1
 92
        5
 93
        8
 72
     4
 94
        3
 73
     0
 74
     0
 95
        8
 96
        4
 40
156.1753066020834
 40
156.1753066020834
 40
156.1753066020834
 40
156.1753066020834
 40
158.726834962091
 40
158.726834962091
 40
158.726834962091
 40
158.726834962091
 10
165.3709886414847
 20
532.0845851335121
 10
166.2075919086235
 20
532.1755990220748
 10
167.0410634530011
 20
532.2378925592487
 10
167.8709886414847
 20
532.2676632343453
 72
     1
 10
167.8709886414847
 20
532.2676632343453
 11
167.8709886414847
 21
550.4191662303135
 72
     2
 10
195.3709886414847
 20
550.4191662303136
 40
27.49999999999992
 50
179.9999999999998
 51
204.9999999999999
 73
     0
 72
     1
 10
170.4475244979768
 20
562.0411684281828
 11
171.370988641485
 21
564.0215436747778
 72
     1
 10
171.370988641485
 20
564.0215436747778
 11
168.6125438440785
 21
564.0215436747778
 72
     1
 10
168.6125438440785
 20
564.0215436747778
 11
168.1817550303852
 21
563.0977140825345
 72
     2
 10
195.3709886414847
 20
550.4191662303136
 40
29.99999999999996
 50
155.0
 51
180.0
 73
     1
 72
     1
 10
165.3709886414847
 20
550.4191662303136
 11
165.3709886414847
 21
532.084585133512
 97
        8
330
2598
330
2597
330
2111
330
2116
330
2117
330
2114
330
268F
330
2599
 75
     0
 76
     0
 52
135.0
 41
2.0
 77
     0
 78
     1
 53
135.0
 43
0.0
 44
0.0
 45
-1.414213562373095
 46
-1.414213562373094
 79
     0
 47
0.2087993592906508
 98
        1
 10
165.8290611494267
 20
538.8000672661721
  0
HATCH
  5
26A3
330
1E
100
AcDbEntity
  8
SCHRAFF
100
AcDbHatch
 10
0.0
 20
0.0
 30
0.0
210
0.0
220
0.0
230
1.0
  2
_USER
 70
     0
 71
     1
 91
        1
 92
       33
 93
        7
 72
     2
 10
287.3709886414848
 20
531.3125436747777
 40
29.99973625969209
 50
313.6253121876147
 51
360.0
 73
     1
 72
     2
 10
287.3709886414848
 20
531.3125436747777
 40
27.4997362596921
 50
353.9289920619561
 51
360.0
 73
     1
 72
     1
 10
314.8709886414847
 20
550.4191662303135
 11
314.8709886414847
 21
531.3125436747777
 72
     1
 10
317.3709886414847
 20
550.4191662303135
 11
317.3709886414847
 21
531.3125436747777
 72
     2
 10
287.3709886414847
 20
550.4191662303135
 40
27.5
 50
0.0
 51
29.6454808034086
 73
     1
 72
     2
 10
287.3709886414847
 20
550.4191662303135
 40
30.0
 50
0.0
 51
24.99999999999207
 73
     1
 72
     1
 10
314.129433438891
 20
564.0215436747778
 11
314.5602222525842
 21
563.0977140825345
 97
        7
330
259C
330
259B
330
23B3
330
210F
330
23B4
330
2110
330
2112
 75
     0
 76
     0
 52
135.0
 41
2.0
 77
     0
 78
     1
 53
135.0
 43
0.0
 44
0.0
 45
-1.414213562373095
 46
-1.414213562373094
 79
     0
 98
        1
 10
0.0
 20
0.0
  0
LINE
  5
28F4
330
1E
100
AcDbEntity
  8
STEMPEL
100
AcDbLine
 10
305.8709886414849
 20
581.6611010663714
 30
0.0
 11
305.8709886414849
 21
541.6611010663715
 31
0.0
  0
DIMENSION
  5
28F5
330
1E
100
AcDbEntity
  8
BEM
100
AcDbDimension
  2
*D12
 10
376.3709886414848
 20
730.7011083458256
 30
0.0
 11
241.3709886414849
 21
737.2011083458256
 31
0.0
 70
    32
  1
%%c<>
 71
     5
 42
269.9999999999999
  3
Standard
100
AcDbAlignedDimension
 13
106.3709886414849
 23
583.1611010663714
 33
0.0
 14
376.3709886414848
 24
583.1611010663715
 34
0.0
100
AcDbRotatedDimension
1001
ACAD
1000
DSTYLE
1002
{
1070
    40
1040
2.0
1070
    41
1040
3.5
1070
    42
1040
1.0
1070
    43
1040
7.0
1070
    44
1040
1.0
1070
    73
1070
     0
1070
    74
1070
     0
1070
    77
1070
     1
1070
    78
1070
     8
1070
    79
1070
     2
1070
   140
1040
3.5
1070
   141
1040
1.5
1070
   146
1040
0.5142857142857144
1070
   147
1040
1.5
1070
   172
1070
     1
1070
   178
1070
     1
1070
   179
1070
     2
1070
   271
1070
     2
1070
   272
1070
     2
1070
   284
1070
     8
1070
   285
1070
     8
1070
   286
1070
     8
1002
}
  0
DIMENSION
  5
28F6
330
1E
100
AcDbEntity
  8
BEM
100
AcDbDimension
  2
*D13
 10
371.3709886414849
 20
717.4862120030763
 30
0.0
 11
241.3709886414849
 21
723.9862120030762
 31
0.0
 70
    32
  1
%%c<>
 71
     5
 42
260.0
  3
Standard
100
AcDbAlignedDimension
 13
111.3709886414849
 23
599.1611010663722
 33
0.0
 14
371.3709886414849
 24
599.161101066371
 34
0.0
100
AcDbRotatedDimension
1001
ACAD
1000
DSTYLE
1002
{
1070
    40
1040
2.0
1070
    41
1040
3.5
1070
    42
1040
1.0
1070
    43
1040
7.0
1070
    44
1040
1.0
1070
    73
1070
     0
1070
    74
1070
     0
1070
    77
1070
     1
1070
    78
1070
     8
1070
    79
1070
     2
1070
   140
1040
3.5
1070
   141
1040
1.5
1070
   146
1040
0.5142857142857144
1070
   147
1040
1.5
1070
   172
1070
     1
1070
   178
1070
     1
1070
   179
1070
     2
1070
   271
1070
     2
1070
   272
1070
     2
1070
   284
1070
     8
1070
   285
1070
     8
1070
   286
1070
     8
1002
}
  0
LINE
  5
28F7
330
1E
100
AcDbEntity
  8
STEMPEL
100
AcDbLine
 10
376.3709886414848
 20
583.1611010663715
 30
0.0
 11
106.3709886414848
 21
583.1611010663714
 31
0.0
  0
LINE
  5
28F8
330
1E
100
AcDbEntity
  8
STEMPEL
100
AcDbLine
 10
376.3709886414848
 20
581.6611010663714
 30
0.0
 11
106.3709886414848
 21
581.6611010663714
 31
0.0
  0
HATCH
  5
28F9
330
1E
100
AcDbEntity
  8
SCHRAFF
100
AcDbHatch
 10
0.0
 20
0.0
 30
0.0
210
0.0
220
0.0
230
1.0
  2
_USER
 70
     0
 71
     0
 91
        3
 92
        7
 72
     0
 73
     1
 93
        4
 10
305.8709886414853
 20
583.1611010663715
 10
305.8709886414853
 20
581.6611010663714
 10
376.3709886414848
 20
581.6611010663714
 10
376.3709886414848
 20
583.1611010663716
 97
        0
 92
        7
 72
     0
 73
     1
 93
        4
 10
119.3709886414848
 20
583.1611010663713
 10
119.3709886414848
 20
581.6611010663714
 10
176.8709886414848
 20
581.6611010663713
 10
176.8709886414848
 20
583.1611010663715
 97
        0
 92
        7
 72
     0
 73
     1
 93
        4
 10
119.3709886414848
 20
581.6611010663715
 10
119.3709886414848
 20
583.1611010663715
 10
106.3709886414849
 20
583.1611010663713
 10
106.3709886414849
 20
581.6611010663715
 97
        0
 75
     0
 76
     0
 52
135.0
 41
2.0
 77
     0
 78
     1
 53
135.0
 43
16.37098864148493
 44
58.23458843873209
 45
-1.414213562373095
 46
-1.414213562373094
 79
     0
 47
0.4145230693519903
 98
        3
 10
336.8537364213285
 20
582.5669585012874
 10
160.633689740901
 20
582.5669585012874
 10
115.4384309692582
 20
582.1524351979284
  0
LINE
  5
28FA
330
1E
100
AcDbEntity
  8
STEMPEL
100
AcDbLine
 10
106.3709886414849
 20
583.1611010663715
 30
0.0
 11
106.3709886414848
 21
581.6611010663713
 31
0.0
  0
LINE
  5
28FB
330
1E
100
AcDbEntity
  8
STEMPEL
100
AcDbLine
 10
176.8709886414848
 20
583.1611010663714
 30
0.0
 11
176.8709886414848
 21
581.6611010663714
 31
0.0
  0
ARC
  5
28FC
330
1E
100
AcDbEntity
  8
SCHRAFF
100
AcDbCircle
 10
175.8260446060316
 20
581.6611010663714
 30
0.0
 40
1.828088629478462
100
AcDbArc
 50
304.8622016819284
 51
55.13779831807161
  0
HATCH
  5
28FD
330
1E
100
AcDbEntity
  8
SCHRAFF
100
AcDbHatch
 10
0.0
 20
0.0
 30
0.0
210
0.0
220
0.0
230
1.0
  2
_USER
 70
     0
 71
     0
 91
        2
 92
        7
 72
     1
 73
     1
 93
        3
 10
176.8709886414845
 20
583.1611010663709
 42
-0.2453357974240878
 10
177.6541332355098
 20
581.6611010663716
 42
0.0
 10
176.8709886414845
 20
581.6611010663716
 42
0.0
 97
        0
 92
        7
 72
     1
 73
     1
 93
        3
 10
176.8709886414844
 20
581.6611010663716
 42
0.0
 10
177.6541332355101
 20
581.6611010663716
 42
-0.2453357974242125
 10
176.8709886414844
 20
580.1611010663714
 42
0.0
 97
        0
 75
     0
 76
     0
 52
0.0
 41
0.1
 77
     0
 78
     1
 53
179.9999999999998
 43
437.1709886414828
 44
68.23458843873083
 45
0.0000000000000003
 46
0.1
 79
     0
 47
0.0937308931428171
 98
        2
 10
177.2222358284273
 20
582.1059574078248
 10
177.1284708126525
 20
581.2623788783382
  0
LINE
  5
28FE
330
1E
100
AcDbEntity
  8
STEMPEL
100
AcDbLine
 10
188.5026903475056
 20
581.6611010663716
 30
0.0
 11
186.8703721576269
 21
571.8859579621232
 31
0.0
  0
ELLIPSE
  5
28FF
330
1E
100
AcDbEntity
  8
STEMPEL
100
AcDbEllipse
 10
183.7802992898196
 20
573.6611010663716
 30
0.0
 11
-0.0000000000000166
 21
-6.0
 31
0.0
210
0.0
220
0.0
230
-1.0
 40
0.5391486519126829
 41
5.01274173125013
 42
5.986102071232593
  0
LINE
  5
2900
330
1E
100
AcDbEntity
  8
STEMPEL
100
AcDbLine
 10
190.092714356347
 20
581.6611010663716
 30
0.0
 11
188.5094884428557
 21
571.8859579621232
 31
0.0
  0
ELLIPSE
  5
2901
330
1E
100
AcDbEntity
  8
STEMPEL
100
AcDbEllipse
 10
185.5123500973885
 20
573.6611010663716
 30
0.0
 11
0.0000000000000166
 21
6.0
 31
0.0
210
0.0
220
0.0
230
-1.0
 40
0.5229336548626785
 41
1.871149077660318
 42
3.141592653589793
  0
LINE
  5
2902
330
1E
100
AcDbEntity
  8
STEMPEL
100
AcDbLine
 10
181.8483534540913
 20
581.6611010663716
 30
0.0
 11
182.9112813598671
 21
572.1987293742781
 31
0.0
  0
ELLIPSE
  5
2903
330
1E
100
AcDbEntity
  8
STEMPEL
100
AcDbEllipse
 10
185.5123500973885
 20
573.6611010663716
 30
0.0
 11
0.0000000000000166
 21
6.0
 31
0.0
210
0.0
220
0.0
230
-1.0
 40
0.4469911571673986
 41
3.141592653589793
 42
4.466180421600129
  0
ARC
  5
2904
330
1E
100
AcDbEntity
  8
STEMPEL
100
AcDbCircle
 10
241.3709886414849
 20
573.6611010663714
 30
0.0
 40
6.0
100
AcDbArc
 50
195.8034962890195
 51
344.1965037109804
  0
LINE
  5
2905
330
1E
100
AcDbEntity
  8
STEMPEL
100
AcDbLine
 10
249.8709886414849
 20
581.6611010663714
 30
0.0
 11
247.1441969018006
 21
572.0270672897859
 31
0.0
  0
LINE
  5
2906
330
1E
100
AcDbEntity
  8
STEMPEL
100
AcDbLine
 10
232.8709886414848
 20
581.6611010663714
 30
0.0
 11
235.5977803811692
 21
572.0270672897859
 31
0.0
  0
ARC
  5
2907
330
1E
100
AcDbEntity
  8
SCHRAFF
100
AcDbCircle
 10
224.1755196029773
 20
581.6611010663713
 30
0.0
 40
5.0
100
AcDbArc
 50
342.5423968762808
 51
17.45760312371915
  0
ARC
  5
2908
330
1E
100
AcDbEntity
  8
SCHRAFF
100
AcDbCircle
 10
219.1755196029773
 20
581.6611010663713
 30
0.0
 40
5.0
100
AcDbArc
 50
342.5423968762808
 51
17.45760312371915
  0
ARC
  5
2909
330
1E
100
AcDbEntity
  8
SCHRAFF
100
AcDbCircle
 10
214.1755196029773
 20
581.6611010663713
 30
0.0
 40
5.0
100
AcDbArc
 50
342.5423968762808
 51
17.45760312371915
  0
ARC
  5
290A
330
1E
100
AcDbEntity
  8
SCHRAFF
100
AcDbCircle
 10
199.1755196029773
 20
581.6611010663713
 30
0.0
 40
5.0
100
AcDbArc
 50
342.5423968762808
 51
17.45760312371915
  0
ARC
  5
290B
330
1E
100
AcDbEntity
  8
SCHRAFF
100
AcDbCircle
 10
204.1755196029773
 20
581.6611010663713
 30
0.0
 40
5.0
100
AcDbArc
 50
342.5423968762808
 51
17.45760312371915
  0
ARC
  5
290C
330
1E
100
AcDbEntity
  8
SCHRAFF
100
AcDbCircle
 10
209.1755196029773
 20
581.6611010663713
 30
0.0
 40
5.0
100
AcDbArc
 50
342.5423968762808
 51
17.45760312371915
  0
ARC
  5
290D
330
1E
100
AcDbEntity
  8
SCHRAFF
100
AcDbCircle
 10
194.1755196029773
 20
581.6611010663713
 30
0.0
 40
5.0
100
AcDbArc
 50
342.5423968762808
 51
17.45760312371915
  0
ARC
  5
290E
330
1E
100
AcDbEntity
  8
SCHRAFF
100
AcDbCircle
 10
189.1755196029773
 20
581.6611010663713
 30
0.0
 40
5.0
100
AcDbArc
 50
342.5423968762808
 51
17.45760312371915
  0
ELLIPSE
  5
290F
330
1E
100
AcDbEntity
  8
STEMPEL
100
AcDbEllipse
 10
297.2296271855812
 20
573.6611010663714
 30
0.0
 11
0.0
 21
6.0
 31
0.0
210
0.0
220
0.0
230
1.0
 40
0.4469911571673986
 41
3.141592653589793
 42
4.466180421600129
  0
LINE
  5
2910
330
1E
100
AcDbEntity
  8
STEMPEL
100
AcDbLine
 10
300.8936238288784
 20
581.6611010663714
 30
0.0
 11
299.8306959231026
 21
572.198729374278
 31
0.0
  0
ELLIPSE
  5
2911
330
1E
100
AcDbEntity
  8
STEMPEL
100
AcDbEllipse
 10
297.2296271855812
 20
573.6611010663714
 30
0.0
 11
0.0
 21
6.0
 31
0.0
210
0.0
220
0.0
230
1.0
 40
0.5229336548626785
 41
1.871149077660318
 42
3.141592653589793
  0
LINE
  5
2912
330
1E
100
AcDbEntity
  8
STEMPEL
100
AcDbLine
 10
292.6492629266228
 20
581.6611010663714
 30
0.0
 11
294.232488840114
 21
571.885957962123
 31
0.0
  0
ELLIPSE
  5
2913
330
1E
100
AcDbEntity
  8
STEMPEL
100
AcDbEllipse
 10
298.9616779931501
 20
573.6611010663714
 30
0.0
 11
0.0
 21
-6.0
 31
0.0
210
0.0
220
0.0
230
1.0
 40
0.5391486519126829
 41
5.01274173125013
 42
5.986102071232593
  0
LINE
  5
2914
330
1E
100
AcDbEntity
  8
STEMPEL
100
AcDbLine
 10
294.2392869354642
 20
581.6611010663714
 30
0.0
 11
295.8716051253428
 21
571.885957962123
 31
0.0
  0
ARC
  5
2915
330
1E
100
AcDbEntity
  8
SCHRAFF
100
AcDbCircle
 10
249.1097784282259
 20
581.6611010663713
 30
0.0
 40
5.0
100
AcDbArc
 50
342.5423968762808
 51
17.45760312371915
  0
ARC
  5
2916
330
1E
100
AcDbEntity
  8
SCHRAFF
100
AcDbCircle
 10
254.109778428226
 20
581.6611010663713
 30
0.0
 40
5.0
100
AcDbArc
 50
342.5423968762808
 51
17.45760312371915
  0
ARC
  5
2917
330
1E
100
AcDbEntity
  8
SCHRAFF
100
AcDbCircle
 10
259.1097784282259
 20
581.6611010663713
 30
0.0
 40
5.0
100
AcDbArc
 50
342.5423968762808
 51
17.45760312371915
  0
ARC
  5
2918
330
1E
100
AcDbEntity
  8
SCHRAFF
100
AcDbCircle
 10
269.1097784282259
 20
581.6611010663713
 30
0.0
 40
5.0
100
AcDbArc
 50
342.5423968762808
 51
17.45760312371915
  0
ARC
  5
2919
330
1E
100
AcDbEntity
  8
SCHRAFF
100
AcDbCircle
 10
264.1097784282259
 20
581.6611010663713
 30
0.0
 40
5.0
100
AcDbArc
 50
342.5423968762808
 51
17.45760312371915
  0
ARC
  5
291A
330
1E
100
AcDbEntity
  8
SCHRAFF
100
AcDbCircle
 10
274.1097784282259
 20
581.6611010663713
 30
0.0
 40
5.0
100
AcDbArc
 50
342.5423968762808
 51
17.45760312371915
  0
ARC
  5
291B
330
1E
100
AcDbEntity
  8
SCHRAFF
100
AcDbCircle
 10
279.1097784282259
 20
581.6611010663713
 30
0.0
 40
5.0
100
AcDbArc
 50
342.5423968762808
 51
17.45760312371915
  0
ARC
  5
291C
330
1E
100
AcDbEntity
  8
SCHRAFF
100
AcDbCircle
 10
284.1097784282259
 20
581.6611010663713
 30
0.0
 40
5.0
100
AcDbArc
 50
342.5423968762808
 51
17.45760312371915
  0
LINE
  5
291D
330
1E
100
AcDbEntity
  8
STEMPEL
100
AcDbLine
 10
305.8709886414853
 20
583.1611010663707
 30
0.0
 11
305.8709886414853
 21
581.6611010663714
 31
0.0
  0
HATCH
  5
291E
330
1E
100
AcDbEntity
  8
SCHRAFF
100
AcDbHatch
 10
0.0
 20
0.0
 30
0.0
210
0.0
220
0.0
230
1.0
  2
_USER
 70
     0
 71
     0
 91
        2
 92
        7
 72
     1
 73
     1
 93
        3
 10
305.8709886414853
 20
583.1611010663708
 42
0.2453357974240878
 10
305.0878440474599
 20
581.6611010663714
 42
0.0
 10
305.8709886414853
 20
581.6611010663714
 42
0.0
 97
        0
 92
        7
 72
     1
 73
     1
 93
        3
 10
305.8709886414853
 20
581.6611010663714
 42
0.0
 10
305.0878440474596
 20
581.6611010663714
 42
0.2453357974242125
 10
305.8709886414853
 20
580.1611010663712
 42
0.0
 97
        0
 75
     0
 76
     0
 52
0.0
 41
0.1
 77
     0
 78
     1
 53
0.0
 43
45.57098864148531
 44
68.23458843873152
 45
0.0
 46
0.1
 79
     0
 47
0.0937308931428171
 98
        2
 10
305.5197414545424
 20
582.1059574078248
 10
305.6135064703172
 20
581.2623788783382
  0
ARC
  5
291F
330
1E
100
AcDbEntity
  8
SCHRAFF
100
AcDbCircle
 10
306.9159326769382
 20
581.6611010663713
 30
0.0
 40
1.828088629478462
100
AcDbArc
 50
124.8622016819284
 51
235.1377983180716
  0
LINE
  5
2920
330
1E
100
AcDbEntity
  8
STEMPEL
100
AcDbLine
 10
376.3709886414848
 20
583.1611010663715
 30
0.0
 11
376.3709886414848
 21
581.6611010663713
 31
0.0
  0
LINE
  5
2921
330
1E
100
AcDbEntity
  8
STEMPEL
100
AcDbLine
 10
174.8709886414849
 20
581.6611010663714
 30
0.0
 11
174.8709886414848
 21
541.5737791805544
 31
0.0
  0
LINE
  5
2922
330
1E
100
AcDbEntity
  8
HILF
100
AcDbLine
 10
303.8633489663983
 20
541.6611010663715
 30
0.0
 11
178.8786283165715
 21
541.6611010663715
 31
0.0
  0
LINE
  5
2923
330
1E
100
AcDbEntity
  8
STEMPEL
100
AcDbLine
 10
176.8709886414848
 20
541.6611010663715
 30
0.0
 11
177.7458752767441
 21
531.6611010663715
 31
0.0
  0
LINE
  5
2924
330
1E
100
AcDbEntity
  8
STEMPEL
100
AcDbLine
 10
174.8709886414848
 20
541.5737791805544
 30
0.0
 11
175.7382356016574
 21
531.6611010663715
 31
0.0
  0
LINE
  5
2925
330
1E
100
AcDbEntity
  8
STEMPEL
100
AcDbLine
 10
176.8709886414848
 20
581.6611010663714
 30
0.0
 11
176.8709886414848
 21
541.6611010663715
 31
0.0
  0
LINE
  5
2926
330
1E
100
AcDbEntity
  8
STEMPEL
100
AcDbLine
 10
307.0037416813124
 20
531.6611010663715
 30
0.0
 11
302.0455009600286
 21
531.6611010663715
 31
0.0
  0
LINE
  5
2927
330
1E
100
AcDbEntity
  8
STEMPEL
100
AcDbLine
 10
307.8709886414852
 20
581.6611010663707
 30
0.0
 11
307.8709886414849
 21
541.5737791805537
 31
0.0
  0
LINE
  5
2928
330
1E
100
AcDbEntity
  8
STEMPEL
100
AcDbLine
 10
307.8709886414849
 20
541.5737791805537
 30
0.0
 11
307.0037416813124
 21
531.6611010663715
 31
0.0
  0
LINE
  5
2929
330
1E
100
AcDbEntity
  8
STEMPEL
100
AcDbLine
 10
305.8709886414849
 20
541.6611010663708
 30
0.0
 11
304.9961020062256
 21
531.6611010663709
 31
0.0
  0
HATCH
  5
292A
330
1E
100
AcDbEntity
  8
SCHRAFF
100
AcDbHatch
 10
0.0
 20
0.0
 30
0.0
210
0.0
220
0.0
230
1.0
  2
_USER
 70
     0
 71
     0
 91
        2
 92
        7
 72
     0
 73
     1
 93
        6
 10
305.8709886414849
 20
541.6611010663707
 10
304.9961020062257
 20
531.6611010663715
 10
307.0037416813124
 20
531.6611010663713
 10
307.8709886414849
 20
541.5737791805533
 10
307.8709886414852
 20
581.6611010663714
 10
305.8709886414853
 20
581.6611010663713
 97
        0
 92
        7
 72
     0
 73
     1
 93
        6
 10
176.8709886414848
 20
581.6611010663714
 10
174.8709886414848
 20
581.6611010663714
 10
174.8709886414848
 20
541.5737791805544
 10
175.7382356016574
 20
531.6611010663715
 10
177.745875276744
 20
531.6611010663715
 10
176.8709886414848
 20
541.6611010663713
 97
        0
 75
     0
 76
     0
 52
45.0
 41
2.0
 77
     0
 78
     1
 53
45.0
 43
16.37098864148493
 44
58.23458843873209
 45
-1.414213562373094
 46
1.414213562373095
 79
     0
 47
0.2291050733570159
 98
        2
 10
306.7350993125758
 20
553.602991157016
 10
176.0977020003281
 20
556.1231479335019
  0
LINE
  5
292B
330
1E
100
AcDbEntity
  8
MITTEL
100
AcDbLine
 10
302.3709886414848
 20
576.6611010663716
 30
0.0
 11
302.3709886414848
 21
610.7611010663721
 31
0.0
  0
LINE
  5
292C
330
1E
100
AcDbEntity
  8
STEMPEL
100
AcDbLine
 10
309.1090997203139
 20
600.2279320078043
 30
0.0
 11
303.1407418369446
 21
600.2279320078043
 31
0.0
  0
ARC
  5
292D
330
1E
100
AcDbEntity
  8
STEMPEL
100
AcDbCircle
 10
308.9209886414848
 20
599.711101066372
 30
0.0
 40
0.5500000000000009
100
AcDbArc
 50
270.0
 51
69.99999999999935
  0
LINE
  5
292E
330
1E
100
AcDbEntity
  8
STEMPEL
100
AcDbLine
 10
309.1090997203139
 20
600.2279320078043
 30
0.0
 11
308.144491333381
 21
600.5790207483714
 31
0.0
  0
LINE
  5
292F
330
1E
100
AcDbEntity
  8
STEMPEL
100
AcDbLine
 10
307.3709886414848
 20
605.7611010663721
 30
0.0
 11
302.228765235566
 21
605.7611010663721
 31
0.0
  0
LINE
  5
2930
330
1E
100
AcDbEntity
  8
STEMPEL
100
AcDbLine
 10
308.1444913333811
 20
605.5538416447352
 30
0.0
 11
308.144491333381
 21
600.5790207483714
 31
0.0
  0
LINE
  5
2931
330
1E
100
AcDbEntity
  8
STEMPEL
100
AcDbLine
 10
305.2577399874329
 20
605.5538416447352
 30
0.0
 11
305.2577399874329
 21
600.5790207483714
 31
0.0
  0
LINE
  5
2932
330
1E
100
AcDbEntity
  8
STEMPEL
100
AcDbLine
 10
308.9209886414848
 20
599.1611010663721
 30
0.0
 11
303.8667883116706
 21
599.1611010663721
 31
0.0
  0
ARC
  5
2933
330
1E
100
AcDbEntity
  8
STEMPEL
100
AcDbCircle
 10
306.701115660407
 20
600.631563927849
 30
0.0
 40
5.129537138523076
100
AcDbArc
 50
73.65710669401501
 51
106.342893305985
  0
LINE
  5
2934
330
1E
100
AcDbEntity
  8
STEMPEL
100
AcDbLine
 10
307.3709886414848
 20
605.7611010663721
 30
0.0
 11
308.1444913333811
 21
605.5538416447352
 31
0.0
  0
ARC
  5
2935
330
1E
100
AcDbEntity
  8
STEMPEL
100
AcDbCircle
 10
302.3709886414848
 20
585.5538416447352
 30
0.0
 40
20.20725942163691
100
AcDbArc
 50
81.78678929826174
 51
90.40326439207246
  0
ARC
  5
2936
330
1E
100
AcDbEntity
  8
HILF
100
AcDbCircle
 10
306.701115660407
 20
597.0186277426675
 30
0.0
 40
3.841839622940954
100
AcDbArc
 50
67.9324721810082
 51
112.0675278189918
  0
ARC
  5
2937
330
1E
100
AcDbEntity
  8
HILF
100
AcDbCircle
 10
302.3709886414848
 20
585.9198090391458
 30
0.0
 40
14.94074366520046
100
AcDbArc
 50
78.85962783889434
 51
88.1615375270559
  0
HATCH
  5
2938
330
1E
100
AcDbEntity
  8
SCHRAFF
100
AcDbHatch
 10
0.0
 20
0.0
 30
0.0
210
0.0
220
0.0
230
1.0
  2
ANSI31
 70
     0
 71
     0
 91
        5
 92
        7
 72
     1
 73
     1
 93
       39
 10
161.370988641485
 20
688.1611010663718
 42
0.1316524975847141
 10
158.3709886415402
 20
687.3572534891096
 42
0.0
 10
134.3382940197751
 20
673.3381816264141
 42
0.2662608607102479
 10
131.3709886414848
 20
668.1610430990559
 42
0.0
 10
131.3709886414848
 20
663.1611010663718
 42
0.0
 10
132.3709886414849
 20
663.1611010663718
 42
0.0
 10
132.3709886414849
 20
668.1610430990563
 42
-0.2667503951500742
 10
134.8516350733581
 20
672.4799385132527
 42
0.0
 10
158.8304889663091
 20
686.467591679438
 42
-0.1340385084111775
 10
161.370988641485
 20
687.1611010663717
 42
0.0
 10
215.9314740464284
 20
687.1611010663713
 42
0.2679491924311568
 10
218.0965375558897
 20
688.4111010663713
 42
-0.2679491924313146
 10
218.5295502577824
 20
688.6611010663711
 42
0.0
 10
218.7295502577825
 20
688.6611010663711
 42
-0.2679491924310819
 10
219.1625629596746
 20
688.4111010663712
 42
0.2679491924311186
 10
221.3276264691358
 20
687.1611010663713
 42
0.0
 10
227.7814740464288
 20
687.1611010663713
 42
0.2679491924311333
 10
229.94653755589
 20
688.4111010663712
 42
-0.2679491924311795
 10
230.3795502577823
 20
688.6611010663711
 42
0.0
 10
230.5795502577824
 20
688.6611010663711
 42
-0.3419987131196873
 10
231.0636731760583
 20
688.286101066371
 42
0.359675761990544
 10
232.6104165271859
 20
687.1640728650423
 42
0.3596757619904921
 10
234.1571598783132
 20
688.286101066371
 42
-0.3419987131195469
 10
234.6412827965889
 20
688.6611010663711
 42
0.0
 10
241.3709886414851
 20
688.6611010663711
 42
0.0
 10
241.3709886414851
 20
689.661101066371
 42
0.0
 10
234.6412827965889
 20
689.661101066371
 42
0.3419987131196276
 10
233.1889140417612
 20
688.5361010663711
 42
-0.3419987131196876
 10
232.7047911234853
 20
688.1611010663711
 42
0.0
 10
232.5160419308864
 20
688.1611010663711
 42
-0.3419987131196593
 10
232.0319190126105
 20
688.5361010663711
 42
0.3607372083888518
 10
230.4795502577824
 20
689.6577640210806
 42
0.2859076546238796
 10
229.0805121521056
 20
688.9111010663711
 42
-0.2679491924311347
 10
227.7814740464289
 20
688.1611010663711
 42
0.0
 10
221.3276264691348
 20
688.1611010663711
 42
-0.2679491924310867
 10
220.0285883634582
 20
688.9111010663708
 42
0.2859076546238621
 10
218.6295502577817
 20
689.6577640210807
 42
0.2859076546237983
 10
217.2305121521054
 20
688.9111010663711
 42
-0.267949192431112
 10
215.9314740464288
 20
688.1611010663712
 42
0.0
 97
        0
 92
        7
 72
     1
 73
     1
 93
        8
 10
131.3709886414846
 20
604.1611010663723
 42
-0.4142135623730736
 10
126.3709886414849
 20
599.1611010663723
 42
0.0
 10
123.3709886414848
 20
599.1611010663722
 42
0.0
 10
123.3709886414848
 20
598.1611010663719
 42
0.0
 10
126.3709886414847
 20
598.1611010663719
 42
0.414213562373112
 10
132.3709886414847
 20
604.1611010663723
 42
0.0
 10
132.3709886414848
 20
623.1611010663717
 42
0.0
 10
131.3709886414846
 20
623.1611010663717
 42
0.0
 97
        0
 92
        7
 72
     0
 73
     1
 93
        4
 10
111.3709886414849
 20
599.161101066372
 10
111.3709886414848
 20
598.1611010663719
 10
115.3709886414848
 20
598.1611010663719
 10
115.3709886414848
 20
599.1611010663721
 97
        0
 92
        7
 72
     1
 73
     1
 93
        8
 10
371.3709886414851
 20
598.1611010663709
 42
0.0
 10
371.3709886414849
 20
599.1611010663708
 42
0.0
 10
356.3709886414846
 20
599.1611010663713
 42
-0.4142135623730833
 10
351.3709886414848
 20
604.1611010663713
 42
0.0
 10
351.370988641485
 20
623.1611010663707
 42
0.0
 10
350.3709886414848
 20
623.1611010663709
 42
0.0
 10
350.3709886414847
 20
604.1611010663713
 42
0.4142135623731169
 10
356.3709886414847
 20
598.1611010663709
 42
0.0
 97
        0
 92
        7
 72
     1
 73
     1
 93
       40
 10
266.6326264691358
 20
688.1611010663708
 42
-0.2679491924311478
 10
265.3335883634591
 20
688.9111010663711
 42
0.2859076546238744
 10
263.9345502577823
 20
689.6577640210805
 42
0.2859076546239183
 10
262.5355121521054
 20
688.9111010663708
 42
-0.2679491924311158
 10
261.2364740464288
 20
688.1611010663708
 42
0.0
 10
259.1776264691361
 20
688.1611010663708
 42
-0.2679491924311457
 10
257.8785883634594
 20
688.9111010663711
 42
0.2859076546238805
 10
256.4795502577827
 20
689.6577640210806
 42
0.2859076546238791
 10
255.0805121521059
 20
688.9111010663709
 42
-0.2679491924311259
 10
253.7814740464292
 20
688.161101066371
 42
0.0
 10
247.3276264691352
 20
688.161101066371
 42
-0.2679491924311028
 10
246.0285883634586
 20
688.9111010663708
 42
0.2679491924311533
 10
244.7295502577818
 20
689.661101066371
 42
0.0
 10
241.3709886414851
 20
689.661101066371
 42
0.0
 10
241.3709886414851
 20
688.661101066371
 42
0.0
 10
244.7295502577825
 20
688.6611010663711
 42
-0.267949192431122
 10
245.1625629596747
 20
688.411101066371
 42
0.267949192431119
 10
247.3276264691358
 20
687.1611010663711
 42
0.0
 10
253.7814740464294
 20
687.1611010663711
 42
0.2679491924311053
 10
255.9465375558904
 20
688.4111010663708
 42
-0.2679491924310267
 10
256.3795502577824
 20
688.6611010663711
 42
0.0
 10
256.5795502577824
 20
688.6611010663711
 42
-0.2679491924311632
 10
257.0125629596746
 20
688.4111010663709
 42
0.2679491924311225
 10
259.1776264691358
 20
687.1611010663711
 42
0.0
 10
261.2364740464284
 20
687.1611010663711
 42
0.2679491924311512
 10
263.4015375558897
 20
688.411101066371
 42
-0.2679491924312574
 10
263.8345502577823
 20
688.661101066371
 42
0.0
 10
264.0345502577823
 20
688.661101066371
 42
-0.2679491924311204
 10
264.4675629596745
 20
688.4111010663709
 42
0.2679491924311204
 10
266.6326264691356
 20
687.1611010663709
 42
0.0
 10
321.3709886414853
 20
687.1611010663706
 42
-0.1340385084113062
 10
323.9114883166611
 20
686.4675916794372
 42
0.0
 10
347.8903422096122
 20
672.4799385132516
 42
-0.2667503951500889
 10
350.3709886414851
 20
668.1610430990555
 42
0.0
 10
350.3709886414851
 20
663.1611010663708
 42
0.0
 10
351.3709886414852
 20
663.1611010663708
 42
0.0
 10
351.3709886414852
 20
668.1610430990552
 42
0.2662608607100668
 10
348.4036832631987
 20
673.3381816264109
 42
0.0
 10
324.3709886414074
 20
687.3572534891222
 42
0.1316524975835771
 10
321.3709886414853
 20
688.1611010663703
 42
0.0
 97
        0
 75
     0
 76
     1
 52
0.0
 41
20.0
 77
     0
 78
     1
 53
134.9999999999997
 43
479.814460196158
 44
181.3347507178567
 45
1.767766952966376
 46
1.767766952966361
 79
     0
 47
0.2376111440341236
 98
        5
 10
179.260910979759
 20
687.9559238492894
 10
131.5801966677673
 20
614.2916289708844
 10
113.0503207680981
 20
598.9437079392975
 10
364.4979977439648
 20
598.519967608171
 10
314.0796871465554
 20
687.8617601290219
  0
LINE
  5
2939
330
1E
100
AcDbEntity
  8
STEMPEL
100
AcDbLine
 10
321.3709886414853
 20
687.1611010663706
 30
0.0
 11
161.370988641485
 21
687.1611010663717
 31
0.0
  0
LINE
  5
293A
330
1E
100
AcDbEntity
  8
STEMPEL
100
AcDbLine
 10
371.3709886414848
 20
598.1611010663709
 30
0.0
 11
111.3709886414847
 21
598.1611010663719
 31
0.0
  0
LINE
  5
293B
330
1E
100
AcDbEntity
  8
HILF
100
AcDbLine
 10
139.0446555839544
 20
671.1611010663745
 30
0.0
 11
344.1973216990159
 21
671.1611010663735
 31
0.0
  0
LINE
  5
293C
330
1E
100
AcDbEntity
  8
STEMPEL
100
AcDbLine
 10
321.3709886414853
 20
688.1611010663703
 30
0.0
 11
266.6326264691358
 21
688.1611010663708
 31
0.0
  0
LINE
  5
293D
330
1E
100
AcDbEntity
  8
STEMPEL
100
AcDbLine
 10
350.3709886414851
 20
668.1610430990552
 30
0.0
 11
350.3709886414847
 21
604.1611010663713
 31
0.0
  0
LINE
  5
293E
330
1E
100
AcDbEntity
  8
STEMPEL
100
AcDbLine
 10
351.3709886414852
 20
668.1610430990552
 30
0.0
 11
351.3709886414848
 21
604.1611010663713
 31
0.0
  0
ELLIPSE
  5
293F
330
1E
100
AcDbEntity
  8
STEMPEL
100
AcDbEllipse
 10
335.5440341481479
 20
630.6611010663726
 30
0.0
 11
-0.0000000000000334
 21
-7.499999999999999
 31
0.0
210
0.0
220
0.0
230
1.0
 40
0.4999999999999926
 41
4.712388980384689
 42
7.853981633974482
  0
ELLIPSE
  5
2940
330
1E
100
AcDbEntity
  8
STEMPEL
100
AcDbEllipse
 10
336.4120981678369
 20
630.6611010663726
 30
0.0
 11
-0.0000000000000334
 21
-7.499999999999999
 31
0.0
210
0.0
220
0.0
230
1.0
 40
0.4999999999999926
 41
4.712388980384689
 42
6.167183451052224
  0
ELLIPSE
  5
2941
330
1E
100
AcDbEntity
  8
STEMPEL
100
AcDbEllipse
 10
336.412098167837
 20
655.661101066371
 30
0.0
 11
0.0000000000000334
 21
7.499999999999999
 31
0.0
210
0.0
220
0.0
230
-1.0
 40
0.4999999999999926
 41
4.712388980384689
 42
6.167183451052224
  0
ELLIPSE
  5
2942
330
1E
100
AcDbEntity
  8
STEMPEL
100
AcDbEllipse
 10
335.5440341481481
 20
655.661101066371
 30
0.0
 11
0.0000000000000334
 21
7.499999999999999
 31
0.0
210
0.0
220
0.0
230
-1.0
 40
0.4999999999999926
 41
4.712388980384689
 42
7.853981633974482
  0
LWPOLYLINE
  5
2943
330
1E
100
AcDbEntity
  8
STEMPEL
100
AcDbPolyline
 90
       10
 70
   128
 43
0.0
 10
336.570969759162
 20
598.1611010663709
 10
335.8132201340678
 20
598.2522545482977
 10
335.0784943478923
 20
598.5229453416556
 10
334.3891166718591
 20
598.9649486436643
 10
333.7660334978128
 20
599.5648344076572
 10
333.2281768927013
 20
600.3043754082519
 10
332.7918893573023
 20
601.1611010663713
 10
332.4704272676071
 20
602.1089802064173
 10
332.2735580865431
 20
603.1192120003699
 10
332.2072635845562
 20
604.1611010663715
  0
LINE
  5
2944
330
1E
100
AcDbEntity
  8
STEMPEL
100
AcDbLine
 10
371.3709886414848
 20
599.1611010663708
 30
0.0
 11
356.3709886414846
 21
599.1611010663713
 31
0.0
  0
LINE
  5
2945
330
1E
100
AcDbEntity
  8
STEMPEL
100
AcDbLine
 10
371.3709886414849
 20
599.161101066371
 30
0.0
 11
371.3709886414851
 21
598.1611010663709
 31
0.0
  0
LWPOLYLINE
  5
2946
330
1E
100
AcDbEntity
  8
STEMPEL
100
AcDbPolyline
 90
       18
 70
   128
 43
0.0
 10
-350.1613014004496
 20
610.661101066369
 10
-350.1446329769728
 20
612.0392224499936
 10
-350.0951953297124
 20
613.3704135627732
 10
-350.0146719984519
 20
614.60934228795
 10
-349.9058051086603
 20
615.7138183937194
 10
-349.772301991698
 20
616.6462302709722
 10
-349.6187089360939
 20
617.3748257515334
 10
-349.4502563691418
 20
617.8747933901667
 10
-349.2726807409729
 20
618.1291073885835
 10
-349.0920291766258
 20
618.1291073885835
 10
-348.9144535484569
 20
617.8747933901667
 10
-348.7460009815048
 20
617.3748257515334
 10
-348.5924079259007
 20
616.6462302709722
 10
-348.4589048089384
 20
615.7138183937194
 10
-348.3500379191468
 20
614.60934228795
 10
-348.2695145878863
 20
613.3704135627732
 10
-348.2200769406258
 20
612.0392224499936
 10
-348.2034085171491
 20
610.661101066369
210
0.0
220
0.0
230
-1.0
  0
LWPOLYLINE
  5
2947
330
1E
100
AcDbEntity
  8
STEMPEL
100
AcDbPolyline
 90
        9
 70
   128
 43
0.0
 10
-342.2982156792289
 20
618.0628593110342
 10
-341.8091551359602
 20
617.7364264132768
 10
-341.3495421680592
 20
617.1911574000196
 10
-340.9335923644349
 20
616.4439171568916
 10
-340.5741708351434
 20
615.5178174341141
 10
-340.2823943002559
 20
614.4415020121438
 10
-340.0672872555177
 20
613.248260764513
 10
-339.9355028494102
 20
611.975000019437
 10
-339.8911171047454
 20
610.6611010663707
210
0.0
220
0.0
230
-1.0
  0
LWPOLYLINE
  5
2948
330
1E
100
AcDbEntity
  8
STEMPEL
100
AcDbPolyline
 90
       18
 70
   128
 43
0.0
 10
-344.7053142537157
 20
610.6611010663691
 10
-344.6564449087995
 20
612.0392224499936
 10
-344.5115010609794
 20
613.3704135627733
 10
-344.2754185991522
 20
614.6093422879502
 10
-343.9562370284054
 20
615.7138183937194
 10
-343.5648256943151
 20
616.6462302709723
 10
-343.1145136404172
 20
617.3748257515335
 10
-342.6206357036177
 20
617.8747933901668
 10
-342.1000103047128
 20
618.1291073885835
 10
-341.570366717241
 20
618.1291073885835
 10
-341.049741318336
 20
617.8747933901668
 10
-340.5558633815366
 20
617.3748257515335
 10
-340.1055513276386
 20
616.6462302709723
 10
-339.7141399935483
 20
615.7138183937194
 10
-339.3949584228015
 20
614.6093422879502
 10
-339.1588759609744
 20
613.3704135627733
 10
-339.0139321131543
 20
612.0392224499936
 10
-338.965062768238
 20
610.6611010663691
210
0.0
220
0.0
230
-1.0
  0
ARC
  5
2949
330
1E
100
AcDbEntity
  8
STEMPEL
100
AcDbCircle
 10
356.3709886414847
 20
604.1611010663713
 30
0.0
 40
6.0
100
AcDbArc
 50
180.0
 51
269.9999999999984
  0
ARC
  5
294A
330
1E
100
AcDbEntity
  8
STEMPEL
100
AcDbCircle
 10
356.3709886414847
 20
604.1611010663713
 30
0.0
 40
5.0
100
AcDbArc
 50
180.0
 51
269.9999999999984
  0
LWPOLYLINE
  5
294B
330
1E
100
AcDbEntity
  8
STEMPEL
100
AcDbPolyline
 90
       10
 70
   128
 43
0.0
 10
355.6672901314803
 20
598.1611010663719
 10
354.8092171352075
 20
598.2272282809447
 10
353.9564049355853
 20
598.479782030675
 10
353.1356466286683
 20
598.9108277469925
 10
352.3727282622693
 20
599.5068231174323
 10
351.6916187067701
 20
600.249043549153
 10
351.1137166168244
 20
601.1141704459504
 10
350.6571781424181
 20
602.0750238166665
 10
350.3363465108206
 20
603.1014161983787
 10
350.1613014004495
 20
604.1611010663713
  0
LWPOLYLINE
  5
294C
330
1E
100
AcDbEntity
  8
STEMPEL
100
AcDbPolyline
 90
       10
 70
   128
 43
0.0
 10
353.7093972481798
 20
598.1611010663709
 10
352.851324251907
 20
598.2272282809435
 10
351.9985120522848
 20
598.4797820306738
 10
351.1777537453678
 20
598.9108277469913
 10
350.4148353789688
 20
599.5068231174313
 10
349.7337258234696
 20
600.2490435491519
 10
349.1558237335239
 20
601.1141704459492
 10
348.6992852591177
 20
602.0750238166654
 10
348.3784536275201
 20
603.1014161983776
 10
348.203408517149
 20
604.1611010663701
  0
LINE
  5
294D
330
1E
100
AcDbEntity
  8
STEMPEL
100
AcDbLine
 10
352.7817605841201
 20
599.1611010663708
 30
0.0
 11
351.8176464143575
 21
599.1611010663708
 31
0.0
  0
LINE
  5
294E
330
1E
100
AcDbEntity
  8
STEMPEL
100
AcDbLine
 10
346.8588858863842
 20
599.1611010663708
 30
0.0
 11
342.0446887374128
 21
599.1611010663709
 31
0.0
  0
LWPOLYLINE
  5
294F
330
1E
100
AcDbEntity
  8
STEMPEL
100
AcDbPolyline
 90
       10
 70
   128
 43
0.0
 10
343.7804272948118
 20
598.1611010663709
 10
342.9442480199702
 20
598.2522545482977
 10
342.1334756292676
 20
598.5229453416556
 10
341.3727450315248
 20
598.9649486436643
 10
340.685170641006
 20
599.5648344076572
 10
340.0916440576376
 20
600.3043754082519
 10
339.6101992863164
 20
601.1611010663711
 10
339.255464782796
 20
602.1089802064172
 10
339.0382189754618
 20
603.1192120003697
 10
338.9650627682379
 20
604.1611010663714
  0
LINE
  5
2950
330
1E
100
AcDbEntity
  8
STEMPEL
100
AcDbLine
 10
348.2034085171491
 20
610.661101066369
 30
0.0
 11
348.203408517149
 21
604.1611010663701
 31
0.0
  0
LINE
  5
2951
330
1E
100
AcDbEntity
  8
STEMPEL
100
AcDbLine
 10
349.197187230687
 20
610.661101066369
 30
0.0
 11
349.1971872306868
 21
604.1611010663713
 31
0.0
  0
LINE
  5
2952
330
1E
100
AcDbEntity
  8
STEMPEL
100
AcDbLine
 10
350.1613014004496
 20
610.661101066369
 30
0.0
 11
350.1613014004495
 21
604.1611010663713
 31
0.0
  0
LINE
  5
2953
330
1E
100
AcDbEntity
  8
STEMPEL
100
AcDbLine
 10
344.7053142537157
 20
610.6611010663691
 30
0.0
 11
344.7053142537157
 21
604.1611010663725
 31
0.0
  0
LWPOLYLINE
  5
2954
330
1E
100
AcDbEntity
  8
STEMPEL
100
AcDbPolyline
 90
       10
 70
   128
 43
0.0
 10
349.5206787802896
 20
598.1611010663709
 10
348.684499505448
 20
598.2522545482976
 10
347.8737271147454
 20
598.5229453416555
 10
347.1129965170026
 20
598.9649486436643
 10
346.4254221264838
 20
599.5648344076571
 10
345.8318955431153
 20
600.3043754082519
 10
345.3504507717942
 20
601.1611010663711
 10
344.9957162682738
 20
602.1089802064172
 10
344.7784704609396
 20
603.1192120003697
 10
344.7053142537157
 20
604.1611010663714
  0
LWPOLYLINE
  5
2955
330
1E
100
AcDbEntity
  8
STEMPEL
100
AcDbPolyline
 90
        7
 70
   128
 43
0.0
 10
351.8176464143577
 20
599.1611010663713
 10
351.1409445392802
 20
599.7707017942303
 10
350.5413951156463
 20
600.498260878142
 10
350.0351064424966
 20
601.3242307398222
 10
349.6356811504511
 20
602.2264197650253
 10
349.3538507351882
 20
603.180588533219
 10
349.1971872306867
 20
604.1611010663713
  0
LWPOLYLINE
  5
2956
330
1E
100
AcDbEntity
  8
STEMPEL
100
AcDbPolyline
 90
        7
 70
   128
 43
0.0
 10
-349.6792443155684
 20
617.1231551222088
 10
-349.5414153059982
 20
616.3710488852704
 10
-349.422551029032
 20
615.4483352745556
 10
-349.3262030271308
 20
614.3825840246513
 10
-349.2552500795925
 20
613.2056386878302
 10
-349.2118121875847
 20
611.9526651814283
 10
-349.1971872306871
 20
610.661101066369
210
0.0
220
0.0
230
-1.0
  0
LINE
  5
2957
330
1E
100
AcDbEntity
  8
STEMPEL
100
AcDbLine
 10
339.8911171047453
 20
610.6611010663691
 30
0.0
 11
339.8911171047452
 21
604.1611010663725
 31
0.0
  0
LINE
  5
2958
330
1E
100
AcDbEntity
  8
STEMPEL
100
AcDbLine
 10
338.965062768238
 20
610.6611010663691
 30
0.0
 11
338.9650627682379
 21
604.1611010663725
 31
0.0
  0
LWPOLYLINE
  5
2959
330
1E
100
AcDbEntity
  8
STEMPEL
100
AcDbPolyline
 90
        7
 70
   128
 43
0.0
 10
342.0446887374138
 20
599.1611010663709
 10
341.4245982143494
 20
599.7704389682118
 10
340.892778067566
 20
600.497869241501
 10
340.4635322678348
 20
601.3238267354447
 10
340.1484059200375
 20
602.226096285907
 10
339.9558747430716
 20
603.1804102201503
 10
339.8911171047453
 20
604.1611010663714
  0
LINE
  5
295A
330
1E
100
AcDbEntity
  8
STEMPEL
100
AcDbLine
 10
339.2940341481481
 20
655.661101066371
 30
0.0
 11
339.2940341481479
 21
630.6611010663742
 31
0.0
  0
LINE
  5
295B
330
1E
100
AcDbEntity
  8
STEMPEL
100
AcDbLine
 10
351.3709886414853
 20
623.1611010663707
 30
0.0
 11
350.3709886414851
 21
623.1611010663707
 31
0.0
  0
LINE
  5
295C
330
1E
100
AcDbEntity
  8
STEMPEL
100
AcDbLine
 10
351.3709886414853
 20
663.1611010663707
 30
0.0
 11
350.3709886414853
 21
663.1611010663707
 31
0.0
  0
LWPOLYLINE
  5
295D
330
1E
100
AcDbEntity
  8
STEMPEL
100
AcDbPolyline
 90
       18
 70
   128
 43
0.0
 10
-313.5188708920728
 20
610.6611010663693
 10
-313.4175582802684
 20
612.0392224499938
 10
-313.1170705243392
 20
613.3704135627734
 10
-312.627640374418
 20
614.6093422879502
 10
-311.9659347872536
 20
615.7138183937195
 10
-311.1544873529884
 20
616.6462302709723
 10
-310.2209309407728
 20
617.3748257515336
 10
-309.1970566945466
 20
617.8747933901669
 10
-308.1177314237639
 20
618.1291073885836
 10
-307.0197102560128
 20
618.1291073885837
 10
-305.94038498523
 20
617.8747933901669
 10
-304.9165107390039
 20
617.3748257515336
 10
-303.9829543267882
 20
616.6462302709724
 10
-303.1715068925231
 20
615.7138183937196
 10
-302.5098013053587
 20
614.6093422879503
 10
-302.0203711554375
 20
613.3704135627734
 10
-301.7198833995083
 20
612.0392224499938
 10
-301.6185707877039
 20
610.6611010663693
210
0.0
220
0.0
230
-1.0
  0
LWPOLYLINE
  5
295E
330
1E
100
AcDbEntity
  8
STEMPEL
100
AcDbPolyline
 90
        9
 70
   128
 43
0.0
 10
-307.8738180638078
 20
618.151235144193
 10
-306.7574103424366
 20
617.9439280077859
 10
-305.6921310906944
 20
617.474673280332
 10
-304.716296107656
 20
616.7603490431635
 10
-303.8650040747981
 20
615.8266479997672
 10
-303.1688741320617
 20
614.7071533646068
 10
-302.6529445733703
 20
613.442130947268
 10
-302.3357722731544
 20
612.0770808780588
 10
-302.2287652355662
 20
610.6611010663709
210
0.0
220
0.0
230
-1.0
  0
LWPOLYLINE
  5
295F
330
1E
100
AcDbEntity
  8
STEMPEL
100
AcDbPolyline
 90
       10
 70
   128
 43
0.0
 10
305.2811739232278
 20
598.161101066371
 10
304.6451695632269
 20
598.2522545482979
 10
304.0284898738708
 20
598.5229453416557
 10
303.4498723554657
 20
598.9649486436645
 10
302.9268980085138
 20
599.5648344076573
 10
302.4754571439093
 20
600.304375408252
 10
302.1092665638834
 20
601.1611010663713
 10
301.8394527839084
 20
602.1089802064174
 10
301.6742139591567
 20
603.1192120003699
 10
301.6185707877037
 20
604.1611010663715
  0
LWPOLYLINE
  5
2960
330
1E
100
AcDbEntity
  8
STEMPEL
100
AcDbPolyline
 90
        7
 70
   128
 43
0.0
 10
303.8667883116714
 20
599.161101066371
 10
303.3951427111045
 20
599.770438968212
 10
302.9906362347217
 20
600.4978692415012
 10
302.6641485922326
 20
601.3238267354449
 10
302.4244610788245
 20
602.2260962859071
 10
302.2780203911984
 20
603.1804102201505
 10
302.228765235566
 20
604.1611010663715
  0
LWPOLYLINE
  5
2961
330
1E
100
AcDbEntity
  8
STEMPEL
100
AcDbPolyline
 90
       18
 70
   128
 43
0.0
 10
-332.2072635845561
 20
610.6611010663693
 10
-332.129523683296
 20
612.0392224499937
 10
-331.8989513186142
 20
613.3704135627734
 10
-331.5233983558491
 20
614.6093422879502
 10
-331.0156538007213
 20
615.7138183937194
 10
-330.3930082850834
 20
616.6462302709723
 10
-329.6766652551894
 20
617.3748257515336
 10
-328.8910189137634
 20
617.8747933901669
 10
-328.0628235046841
 20
618.1291073885835
 10
-327.2202822292963
 20
618.1291073885835
 10
-326.3920868202169
 20
617.8747933901669
 10
-325.606440478791
 20
617.3748257515336
 10
-324.890097448897
 20
616.6462302709723
 10
-324.2674519332591
 20
615.7138183937194
 10
-323.7597073781314
 20
614.6093422879502
 10
-323.3841544153662
 20
613.3704135627734
 10
-323.1535820506843
 20
612.0392224499937
 10
-323.0758421494243
 20
610.6611010663693
210
0.0
220
0.0
230
-1.0
  0
LWPOLYLINE
  5
2962
330
1E
100
AcDbEntity
  8
STEMPEL
100
AcDbPolyline
 90
       10
 70
   128
 43
0.0
 10
-328.4367737538112
 20
618.1611010663724
 10
-327.6439464079515
 20
618.0471592139639
 10
-326.8752087198058
 20
617.7087957222665
 10
-326.1539183950282
 20
617.1562915947555
 10
-325.5019914751467
 20
616.4064343897642
 10
-324.9392364297311
 20
615.4820081390209
 10
-324.4827522860682
 20
614.4111010663715
 10
-324.1464090838714
 20
613.2262521413139
 10
-323.9404264411413
 20
611.963462398873
 10
-323.8710630362452
 20
610.6611010663709
210
0.0
220
0.0
230
-1.0
  0
LWPOLYLINE
  5
2963
330
1E
100
AcDbEntity
  8
STEMPEL
100
AcDbPolyline
 90
       10
 70
   128
 43
0.0
 10
327.4395483240302
 20
598.161101066371
 10
326.681798698936
 20
598.2522545482979
 10
325.9470729127604
 20
598.5229453416556
 10
325.2576952367273
 20
598.9649486436644
 10
324.634612062681
 20
599.5648344076572
 10
324.0967554575694
 20
600.3043754082519
 10
323.6604679221705
 20
601.1611010663713
 10
323.3390058324752
 20
602.1089802064173
 10
323.1421366514112
 20
603.1192120003699
 10
323.0758421494244
 20
604.1611010663715
  0
LINE
  5
2964
330
1E
100
AcDbEntity
  8
STEMPEL
100
AcDbLine
 10
334.1588404130746
 20
599.1611010663709
 30
0.0
 11
325.8226398647626
 21
599.161101066371
 31
0.0
  0
LINE
  5
2965
330
1E
100
AcDbEntity
  8
STEMPEL
100
AcDbLine
 10
332.2072635845562
 20
610.6611010663693
 30
0.0
 11
332.2072635845561
 21
604.1611010663727
 31
0.0
  0
LINE
  5
2966
330
1E
100
AcDbEntity
  8
STEMPEL
100
AcDbLine
 10
323.8710630362451
 20
610.6611010663693
 30
0.0
 11
323.871063036245
 21
604.1611010663727
 31
0.0
  0
LINE
  5
2967
330
1E
100
AcDbEntity
  8
STEMPEL
100
AcDbLine
 10
323.0758421494244
 20
610.6611010663693
 30
0.0
 11
323.0758421494243
 21
604.1611010663727
 31
0.0
  0
LWPOLYLINE
  5
2968
330
1E
100
AcDbEntity
  8
STEMPEL
100
AcDbPolyline
 90
        7
 70
   128
 43
0.0
 10
325.8226398647634
 20
599.161101066371
 10
325.2607108914992
 20
599.7704389682118
 10
324.7787729519121
 20
600.4978692415012
 10
324.3897883721623
 20
601.3238267354449
 10
324.1042193810557
 20
602.2260962859071
 10
323.9297467152598
 20
603.1804102201503
 10
323.8710630362449
 20
604.1611010663715
  0
LINE
  5
2969
330
1E
100
AcDbEntity
  8
STEMPEL
100
AcDbLine
 10
315.1568939681779
 20
599.161101066371
 30
0.0
 11
303.8667883116708
 21
599.161101066371
 31
0.0
  0
LINE
  5
296A
330
1E
100
AcDbEntity
  8
STEMPEL
100
AcDbLine
 10
313.5188708920726
 20
610.6611010663693
 30
0.0
 11
313.5188708920725
 21
604.1611010663727
 31
0.0
  0
LWPOLYLINE
  5
296B
330
1E
100
AcDbEntity
  8
STEMPEL
100
AcDbPolyline
 90
       10
 70
   128
 43
0.0
 10
317.1814740275967
 20
598.161101066371
 10
316.5454696675957
 20
598.2522545482979
 10
315.9287899782396
 20
598.5229453416556
 10
315.3501724598346
 20
598.9649486436645
 10
314.8271981128827
 20
599.5648344076572
 10
314.3757572482782
 20
600.3043754082519
 10
314.0095666682522
 20
601.1611010663713
 10
313.7397528882773
 20
602.1089802064174
 10
313.5745140635256
 20
603.1192120003699
 10
313.5188708920725
 20
604.1611010663715
  0
LINE
  5
296C
330
1E
100
AcDbEntity
  8
STEMPEL
100
AcDbLine
 10
331.7940341481482
 20
655.6611010663711
 30
0.0
 11
331.794034148148
 21
630.6611010663727
 31
0.0
  0
LINE
  5
296D
330
1E
100
AcDbEntity
  8
STEMPEL
100
AcDbLine
 10
332.6620981678369
 20
630.6611010663711
 30
0.0
 11
332.662098167837
 21
655.6611010663727
 31
0.0
  0
LWPOLYLINE
  5
296E
330
1E
100
AcDbEntity
  8
STEMPEL
100
AcDbPolyline
 90
       18
 70
   128
 43
0.0
 10
-289.9137192542225
 20
610.6611010663693
 10
-289.7957382189414
 20
612.0392224499938
 10
-289.4458128157518
 20
613.3704135627736
 10
-288.87585933457
 20
614.6093422879504
 10
-288.1052868576139
 20
615.7138183937196
 10
-287.1603363063864
 20
616.6462302709724
 10
-286.0731868385662
 20
617.3748257515337
 10
-284.8808600253881
 20
617.874793390167
 10
-283.6239591264363
 20
618.1291073885837
 10
-282.3452863943379
 20
618.1291073885837
 10
-281.0883854953861
 20
617.8747933901671
 10
-279.8960586822079
 20
617.3748257515338
 10
-278.8089092143878
 20
616.6462302709724
 10
-277.8639586631602
 20
615.7138183937196
 10
-277.0933861862042
 20
614.6093422879504
 10
-276.5234327050224
 20
613.3704135627737
 10
-276.1735073018327
 20
612.039222449994
 10
-276.0555262665516
 20
610.6611010663694
210
0.0
220
0.0
230
-1.0
  0
LWPOLYLINE
  5
296F
330
1E
100
AcDbEntity
  8
STEMPEL
100
AcDbPolyline
 90
        9
 70
   128
 43
0.0
 10
-283.176414893199
 20
618.1582274894095
 10
-281.8522054428692
 20
617.9793945823618
 10
-280.5842260456831
 20
617.5291186650375
 10
-279.4195073575975
 20
616.8241009328984
 10
-278.4012499889908
 20
615.890491216515
 10
-277.5672221497285
 20
614.7629180575388
 10
-276.9483587875346
 20
613.4832043005871
 10
-276.5676141790605
 20
612.0988158410515
 10
-276.4391105322286
 20
610.661101066371
210
0.0
220
0.0
230
-1.0
  0
LINE
  5
2970
330
1E
100
AcDbEntity
  8
STEMPEL
100
AcDbLine
 10
291.1312306869515
 20
599.1611010663712
 30
0.0
 11
277.6566219649571
 21
599.1611010663713
 31
0.0
  0
LINE
  5
2971
330
1E
100
AcDbEntity
  8
STEMPEL
100
AcDbLine
 10
302.2287652355661
 20
610.6611010663693
 30
0.0
 11
302.228765235566
 21
604.1611010663727
 31
0.0
  0
LINE
  5
2972
330
1E
100
AcDbEntity
  8
STEMPEL
100
AcDbLine
 10
301.6185707877038
 20
610.6611010663693
 30
0.0
 11
301.6185707877037
 21
604.1611010663727
 31
0.0
  0
LINE
  5
2973
330
1E
100
AcDbEntity
  8
STEMPEL
100
AcDbLine
 10
289.9137192542225
 20
610.6611010663693
 30
0.0
 11
289.9137192542224
 21
604.1611010663728
 31
0.0
  0
LWPOLYLINE
  5
2974
330
1E
100
AcDbEntity
  8
STEMPEL
100
AcDbPolyline
 90
       10
 70
   128
 43
0.0
 10
292.6360625814315
 20
598.1611010663712
 10
292.1633326236779
 20
598.252254548298
 10
291.7049663264777
 20
598.5229453416557
 10
291.274890917827
 20
598.9649486436645
 10
290.8861740213887
 20
599.5648344076575
 10
290.550626603361
 20
600.3043754082522
 10
290.2784441022454
 20
601.1611010663714
 10
290.0778966456073
 20
602.1089802064174
 10
289.9550777664349
 20
603.11921200037
 10
289.9137192542224
 20
604.1611010663716
  0
LWPOLYLINE
  5
2975
330
1E
100
AcDbEntity
  8
STEMPEL
100
AcDbPolyline
 90
       10
 70
   128
 43
0.0
 10
278.7778695937606
 20
598.1611010663713
 10
278.305139636007
 20
598.252254548298
 10
277.8467733388068
 20
598.5229453416557
 10
277.416697930156
 20
598.9649486436647
 10
277.0279810337178
 20
599.5648344076575
 10
276.6924336156901
 20
600.3043754082522
 10
276.4202511145745
 20
601.1611010663715
 10
276.2197036579364
 20
602.1089802064174
 10
276.096884778764
 20
603.1192120003701
 10
276.0555262665515
 20
604.1611010663717
  0
LINE
  5
2976
330
1E
100
AcDbEntity
  8
STEMPEL
100
AcDbLine
 10
276.4391105322286
 20
610.6611010663694
 30
0.0
 11
276.4391105322285
 21
604.1611010663729
 31
0.0
  0
LINE
  5
2977
330
1E
100
AcDbEntity
  8
STEMPEL
100
AcDbLine
 10
276.0555262665516
 20
610.6611010663678
 30
0.0
 11
276.0555262665515
 21
604.1611010663729
 31
0.0
  0
LWPOLYLINE
  5
2978
330
1E
100
AcDbEntity
  8
STEMPEL
100
AcDbPolyline
 90
        7
 70
   128
 43
0.0
 10
277.6566219649576
 20
599.1611010663713
 10
277.3060567505456
 20
599.770438968212
 10
277.0053947716069
 20
600.4978692415013
 10
276.7627227096723
 20
601.323826735445
 10
276.5845675346238
 20
602.2260962859073
 10
276.4757209536433
 20
603.1804102201505
 10
276.4391105322285
 20
604.1611010663717
  0
LINE
  5
2979
330
1E
100
AcDbEntity
  8
STEMPEL
100
AcDbLine
 10
289.2466312867813
 20
655.6611010663713
 30
0.0
 11
289.2466312867812
 21
630.6611010663713
 31
0.0
  0
LINE
  5
297A
330
1E
100
AcDbEntity
  8
STEMPEL
100
AcDbLine
 10
302.2370123435471
 20
655.6611010663713
 30
0.0
 11
302.237012343547
 21
630.6611010663729
 31
0.0
  0
LINE
  5
297B
330
1E
100
AcDbEntity
  8
STEMPEL
100
AcDbLine
 10
289.7478082822233
 20
655.6611010663713
 30
0.0
 11
289.7478082822232
 21
630.6611010663713
 31
0.0
  0
ELLIPSE
  5
297C
330
1E
100
AcDbEntity
  8
STEMPEL
100
AcDbEllipse
 10
295.7418218151641
 20
630.6611010663713
 30
0.0
 11
-0.0000000000000334
 21
-7.5
 31
0.0
210
0.0
220
0.0
230
1.0
 40
0.8660254037843856
 41
4.712388980384689
 42
7.853981633974482
  0
ELLIPSE
  5
297D
330
1E
100
AcDbEntity
  8
STEMPEL
100
AcDbEllipse
 10
296.2429988106061
 20
630.6611010663713
 30
0.0
 11
-0.0000000000000334
 21
-7.5
 31
0.0
210
0.0
220
0.0
230
1.0
 40
0.8660254037843856
 41
4.712388980384689
 42
6.24459510668465
  0
ELLIPSE
  5
297E
330
1E
100
AcDbEntity
  8
STEMPEL
100
AcDbEllipse
 10
295.7418218151643
 20
655.6611010663713
 30
0.0
 11
0.0000000000000334
 21
7.5
 31
0.0
210
0.0
220
0.0
230
-1.0
 40
0.8660254037843856
 41
4.712388980384689
 42
7.853981633974482
  0
ELLIPSE
  5
297F
330
1E
100
AcDbEntity
  8
STEMPEL
100
AcDbEllipse
 10
296.2429988106062
 20
655.6611010663713
 30
0.0
 11
0.0000000000000334
 21
7.5
 31
0.0
210
0.0
220
0.0
230
-1.0
 40
0.8660254037843856
 41
4.712388980384689
 42
6.24459510668465
  0
LINE
  5
2980
330
1E
100
AcDbEntity
  8
STEMPEL
100
AcDbLine
 10
347.8903422096122
 20
672.4799385132516
 30
0.0
 11
323.9114883166611
 21
686.4675916794372
 31
0.0
  0
LINE
  5
2981
330
1E
100
AcDbEntity
  8
STEMPEL
100
AcDbLine
 10
348.403683263193
 20
673.3381816264142
 30
0.0
 11
324.4173803877262
 21
687.3301916371028
 31
0.0
  0
ARC
  5
2982
330
1E
100
AcDbEntity
  8
STEMPEL
100
AcDbCircle
 10
345.370988641485
 20
668.1610430990554
 30
0.0
 40
6.0
100
AcDbArc
 50
0.0
 51
59.74358352518112
  0
ARC
  5
2983
330
1E
100
AcDbEntity
  8
STEMPEL
100
AcDbCircle
 10
350.8821322457967
 20
677.6809380488327
 30
0.0
 40
5.0
100
AcDbArc
 50
239.7435628364698
 51
239.9329541615142
  0
ARC
  5
2984
330
1E
100
AcDbEntity
  8
STEMPEL
100
AcDbCircle
 10
345.370988641485
 20
668.1610430990554
 30
0.0
 40
5.0
100
AcDbArc
 50
0.0
 51
59.74358352518112
  0
ARC
  5
2985
330
1E
100
AcDbEntity
  8
STEMPEL
100
AcDbCircle
 10
321.3709886414853
 20
682.1611010663706
 30
0.0
 40
5.0
100
AcDbArc
 50
59.46264995169811
 51
90.0
  0
ARC
  5
2986
330
1E
100
AcDbEntity
  8
STEMPEL
100
AcDbCircle
 10
321.3709886414853
 20
682.1611010663706
 30
0.0
 40
6.0
100
AcDbArc
 50
59.48712567238029
 51
90.0
  0
ARC
  5
2987
330
1E
100
AcDbEntity
  8
STEMPEL
100
AcDbCircle
 10
321.3709886414853
 20
682.1611010663706
 30
0.0
 40
6.0
100
AcDbArc
 50
90.0
 51
90.0
  0
LWPOLYLINE
  5
2988
330
1E
100
AcDbEntity
  8
STEMPEL
100
AcDbPolyline
 90
       18
 70
   128
 43
0.0
 10
138.0366630292538
 20
610.6611010663701
 10
138.0855323741701
 20
612.0392224499945
 10
138.2304762219901
 20
613.3704135627742
 10
138.4665586838173
 20
614.6093422879511
 10
138.785740254564
 20
615.7138183937203
 10
139.1771515886544
 20
616.6462302709732
 10
139.6274636425524
 20
617.3748257515344
 10
140.1213415793518
 20
617.8747933901677
 10
140.6419669782568
 20
618.1291073885844
 10
141.1716105657286
 20
618.1291073885844
 10
141.6922359646335
 20
617.8747933901677
 10
142.186113901433
 20
617.3748257515343
 10
142.6364259553309
 20
616.6462302709731
 10
143.0278372894213
 20
615.7138183937203
 10
143.347018860168
 20
614.6093422879509
 10
143.5831013219952
 20
613.3704135627741
 10
143.7280451698153
 20
612.0392224499945
 10
143.7769145147315
 20
610.6611010663699
  0
LINE
  5
2989
330
1E
100
AcDbEntity
  8
STEMPEL
100
AcDbLine
 10
135.8830913965852
 20
599.1611010663718
 30
0.0
 11
140.6972885455566
 21
599.1611010663718
 31
0.0
  0
LINE
  5
298A
330
1E
100
AcDbEntity
  8
STEMPEL
100
AcDbLine
 10
134.3382940197771
 20
673.3381816264152
 30
0.0
 11
158.324596895244
 21
687.3301916371036
 31
0.0
  0
LINE
  5
298B
330
1E
100
AcDbEntity
  8
STEMPEL
100
AcDbLine
 10
134.8516350733579
 20
672.4799385132525
 30
0.0
 11
158.8304889663091
 21
686.467591679438
 31
0.0
  0
LWPOLYLINE
  5
298C
330
1E
100
AcDbEntity
  8
STEMPEL
100
AcDbPolyline
 90
       18
 70
   128
 43
0.0
 10
192.828258028747
 20
610.6611010663698
 10
192.9462390640281
 20
612.0392224499943
 10
193.2961644672178
 20
613.3704135627739
 10
193.8661179483995
 20
614.6093422879507
 10
194.6366904253556
 20
615.7138183937201
 10
195.5816409765832
 20
616.6462302709728
 10
196.6687904444032
 20
617.3748257515341
 10
197.8611172575815
 20
617.8747933901673
 10
199.1180181565333
 20
618.1291073885842
 10
200.3966908886317
 20
618.1291073885842
 10
201.6535917875835
 20
617.8747933901673
 10
202.8459186007617
 20
617.3748257515341
 10
203.9330680685818
 20
616.6462302709728
 10
204.8780186198093
 20
615.7138183937201
 10
205.6485910967654
 20
614.6093422879507
 10
206.2185445779472
 20
613.3704135627739
 10
206.5684699811368
 20
612.0392224499943
 10
206.686451016418
 20
610.6611010663697
  0
LWPOLYLINE
  5
298D
330
1E
100
AcDbEntity
  8
STEMPEL
100
AcDbPolyline
 90
        9
 70
   128
 43
0.0
 10
199.5655623897706
 20
618.15822748941
 10
200.8897718401004
 20
617.979394582362
 10
202.1577512372865
 20
617.529118665038
 10
203.3224699253721
 20
616.8241009328987
 10
204.3407272939788
 20
615.8904912165152
 10
205.1747551332411
 20
614.7629180575392
 10
205.7936184954349
 20
613.4832043005872
 10
206.1743631039091
 20
612.0988158410519
 10
206.302866750741
 20
610.6611010663713
  0
LINE
  5
298E
330
1E
100
AcDbEntity
  8
STEMPEL
100
AcDbLine
 10
191.6107465960178
 20
599.1611010663716
 30
0.0
 11
205.0853553180123
 21
599.1611010663715
 31
0.0
  0
LWPOLYLINE
  5
298F
330
1E
100
AcDbEntity
  8
STEMPEL
100
AcDbPolyline
 90
       10
 70
   128
 43
0.0
 10
-203.9641076892088
 20
598.1611010663715
 10
-204.4368376469624
 20
598.2522545482983
 10
-204.8952039441626
 20
598.5229453416561
 10
-205.3252793528133
 20
598.964948643665
 10
-205.7139962492516
 20
599.5648344076577
 10
-206.0495436672793
 20
600.3043754082524
 10
-206.3217261683949
 20
601.1611010663718
 10
-206.522273625033
 20
602.1089802064178
 10
-206.6450925042054
 20
603.1192120003703
 10
-206.6864510164179
 20
604.161101066372
210
0.0
220
0.0
230
-1.0
  0
ARC
  5
2990
330
1E
100
AcDbEntity
  8
STEMPEL
100
AcDbCircle
 10
241.3709886414849
 20
630.6611010663715
 30
0.0
 40
7.5
100
AcDbArc
 50
180.000000000026
 51
0.0000000000130276
  0
ARC
  5
2991
330
1E
100
AcDbEntity
  8
STEMPEL
100
AcDbCircle
 10
241.3709886414849
 20
655.6611010663715
 30
0.0
 40
7.5
100
AcDbArc
 50
359.999999999987
 51
179.9999999999739
  0
LWPOLYLINE
  5
2992
330
1E
100
AcDbEntity
  8
STEMPEL
100
AcDbPolyline
 90
       18
 70
   128
 43
0.0
 10
-263.0004607457717
 20
610.6611010663694
 10
-262.8738514995953
 20
612.0392224499941
 10
-262.4983352870937
 20
613.3704135627737
 10
-261.8866998625013
 20
614.6093422879504
 10
-261.0597737366269
 20
615.7138183937197
 10
-260.0457168868987
 20
616.6462302709724
 10
-258.8790618031069
 20
617.3748257515338
 10
-257.5995375248817
 20
617.8747933901671
 10
-256.2507167168976
 20
618.1291073885839
 10
-254.8785318540383
 20
618.1291073885839
 10
-253.5297110460541
 20
617.8747933901671
 10
-252.2501867678289
 20
617.3748257515338
 10
-251.0835316840371
 20
616.6462302709726
 10
-250.0694748343089
 20
615.7138183937198
 10
-249.2425487084345
 20
614.6093422879505
 10
-248.6309132838422
 20
613.3704135627737
 10
-248.2553970713405
 20
612.0392224499941
 10
-248.1287878251641
 20
610.6611010663694
210
0.0
220
0.0
230
-1.0
  0
LWPOLYLINE
  5
2993
330
1E
100
AcDbEntity
  8
STEMPEL
100
AcDbPolyline
 90
        9
 70
   128
 43
0.0
 10
-255.6300410102114
 20
618.1608108261443
 10
-254.1887010263336
 20
618.0055094322206
 10
-252.804620122884
 20
617.5711091852063
 10
-251.5303955103521
 20
616.8741179649311
 10
-250.4144496906222
 20
615.9410225134853
 10
-249.4991903271692
 20
614.8072818981419
 10
-248.8193986883941
 20
613.5159800120725
 10
-248.4009079057447
 20
612.116188319913
 10
-248.2596212748507
 20
610.661101066371
210
0.0
220
0.0
230
-1.0
  0
LINE
  5
2994
330
1E
100
AcDbEntity
  8
STEMPEL
100
AcDbLine
 10
263.5870352680288
 20
599.1611010663713
 30
0.0
 11
248.8461957971074
 21
599.1611010663713
 31
0.0
  0
LINE
  5
2995
330
1E
100
AcDbEntity
  8
STEMPEL
100
AcDbLine
 10
263.0004607457719
 20
610.661101066371
 30
0.0
 11
263.0004607457719
 21
604.1611010663729
 31
0.0
  0
LWPOLYLINE
  5
2996
330
1E
100
AcDbEntity
  8
STEMPEL
100
AcDbPolyline
 90
       10
 70
   128
 43
0.0
 10
264.3120354822796
 20
598.1611010663713
 10
264.084282919411
 20
598.252254548298
 10
263.8634505029168
 20
598.5229453416557
 10
263.6562481140256
 20
598.9649486436648
 10
263.4689714924745
 20
599.5648344076575
 10
263.3073109436425
 20
600.3043754082522
 10
263.1761784415019
 20
601.1611010663715
 10
263.0795583807739
 20
602.1089802064176
 10
263.0203865131117
 20
603.1192120003701
 10
263.0004607457717
 20
604.1611010663717
  0
LINE
  5
2997
330
1E
100
AcDbEntity
  8
STEMPEL
100
AcDbLine
 10
248.2596212748507
 20
610.6611010663694
 30
0.0
 11
248.2596212748507
 21
604.1611010663729
 31
0.0
  0
LINE
  5
2998
330
1E
100
AcDbEntity
  8
STEMPEL
100
AcDbLine
 10
248.1287878251642
 20
610.6611010663678
 30
0.0
 11
248.1287878251642
 21
604.1611010663729
 31
0.0
  0
LWPOLYLINE
  5
2999
330
1E
100
AcDbEntity
  8
STEMPEL
100
AcDbPolyline
 90
       10
 70
   128
 43
0.0
 10
249.440362561672
 20
598.1611010663713
 10
249.2126099988035
 20
598.252254548298
 10
248.9917775823093
 20
598.5229453416559
 10
248.784575193418
 20
598.9649486436648
 10
248.5972985718669
 20
599.5648344076576
 10
248.4356380230349
 20
600.3043754082523
 10
248.3045055208943
 20
601.1611010663715
 10
248.2078854601664
 20
602.1089802064176
 10
248.1487135925041
 20
603.1192120003701
 10
248.1287878251642
 20
604.1611010663717
  0
LWPOLYLINE
  5
299A
330
1E
100
AcDbEntity
  8
STEMPEL
100
AcDbPolyline
 90
        7
 70
   128
 43
0.0
 10
248.8461957971077
 20
599.1611010663713
 10
248.6772999513393
 20
599.7704389682122
 10
248.5324465627666
 20
600.4978692415014
 10
248.4155316451995
 20
601.323826735445
 10
248.3296997721818
 20
602.2260962859073
 10
248.2772594997361
 20
603.1804102201507
 10
248.2596212748508
 20
604.1611010663717
  0
LINE
  5
299B
330
1E
100
AcDbEntity
  8
STEMPEL
100
AcDbLine
 10
248.8709886414849
 20
655.6611010663699
 30
0.0
 11
248.8709886414848
 21
630.6611010663699
 31
0.0
  0
LWPOLYLINE
  5
299C
330
1E
100
AcDbEntity
  8
STEMPEL
100
AcDbPolyline
 90
        9
 70
   128
 43
0.0
 10
227.1119362727581
 20
618.1608108261444
 10
228.5532762566359
 20
618.0055094322207
 10
229.9373571600855
 20
617.5711091852064
 10
231.2115817726174
 20
616.8741179649311
 10
232.3275275923473
 20
615.9410225134855
 10
233.2427869558003
 20
614.8072818981419
 10
233.9225785945755
 20
613.5159800120726
 10
234.3410693772248
 20
612.116188319913
 10
234.4823560081187
 20
610.6611010663712
  0
LWPOLYLINE
  5
299D
330
1E
100
AcDbEntity
  8
STEMPEL
100
AcDbPolyline
 90
       18
 70
   128
 43
0.0
 10
219.7415165371978
 20
610.6611010663697
 10
219.8681257833742
 20
612.0392224499942
 10
220.2436419958758
 20
613.3704135627739
 10
220.8552774204682
 20
614.6093422879506
 10
221.6822035463426
 20
615.7138183937198
 10
222.6962603960708
 20
616.6462302709727
 10
223.8629154798626
 20
617.3748257515341
 10
225.1424397580878
 20
617.8747933901673
 10
226.491260566072
 20
618.1291073885839
 10
227.8634454289313
 20
618.1291073885839
 10
229.2122662369154
 20
617.8747933901673
 10
230.4917905151406
 20
617.3748257515341
 10
231.6584455989324
 20
616.6462302709727
 10
232.6725024486606
 20
615.7138183937198
 10
233.499428574535
 20
614.6093422879506
 10
234.1110639991273
 20
613.3704135627738
 10
234.486580211629
 20
612.0392224499941
 10
234.6131894578054
 20
610.6611010663696
  0
LINE
  5
299E
330
1E
100
AcDbEntity
  8
STEMPEL
100
AcDbLine
 10
219.1549420149406
 20
599.1611010663715
 30
0.0
 11
233.895781485862
 21
599.1611010663714
 31
0.0
  0
LINE
  5
299F
330
1E
100
AcDbEntity
  8
STEMPEL
100
AcDbLine
 10
234.6131894578053
 20
610.661101066368
 30
0.0
 11
234.6131894578052
 21
604.1611010663729
 31
0.0
  0
LINE
  5
29A0
330
1E
100
AcDbEntity
  8
STEMPEL
100
AcDbLine
 10
234.4823560081187
 20
610.6611010663696
 30
0.0
 11
234.4823560081187
 21
604.1611010663729
 31
0.0
  0
LWPOLYLINE
  5
29A1
330
1E
100
AcDbEntity
  8
STEMPEL
100
AcDbPolyline
 90
        7
 70
   128
 43
0.0
 10
-233.8957814858617
 20
599.1611010663714
 10
-234.0646773316302
 20
599.7704389682122
 10
-234.2095307202028
 20
600.4978692415015
 10
-234.3264456377699
 20
601.3238267354452
 10
-234.4122775107876
 20
602.2260962859075
 10
-234.4647177832333
 20
603.1804102201507
 10
-234.4823560081186
 20
604.1611010663719
210
0.0
220
0.0
230
-1.0
  0
LWPOLYLINE
  5
29A2
330
1E
100
AcDbEntity
  8
STEMPEL
100
AcDbPolyline
 90
       10
 70
   128
 43
0.0
 10
-233.3016147212974
 20
598.1611010663714
 10
-233.5293672841659
 20
598.2522545482981
 10
-233.7501997006601
 20
598.522945341656
 10
-233.9574020895514
 20
598.9649486436648
 10
-234.1446787111025
 20
599.5648344076577
 10
-234.3063392599345
 20
600.3043754082524
 10
-234.4374717620751
 20
601.1611010663716
 10
-234.534091822803
 20
602.1089802064176
 10
-234.5932636904653
 20
603.1192120003701
 10
-234.6131894578052
 20
604.1611010663719
210
0.0
220
0.0
230
-1.0
  0
LINE
  5
29A3
330
1E
100
AcDbEntity
  8
STEMPEL
100
AcDbLine
 10
219.7415165371976
 20
610.6611010663713
 30
0.0
 11
219.7415165371975
 21
604.1611010663731
 31
0.0
  0
LWPOLYLINE
  5
29A4
330
1E
100
AcDbEntity
  8
STEMPEL
100
AcDbPolyline
 90
       10
 70
   128
 43
0.0
 10
-218.4299418006898
 20
598.1611010663715
 10
-218.6576943635583
 20
598.2522545482983
 10
-218.8785267800525
 20
598.522945341656
 10
-219.0857291689438
 20
598.9649486436649
 10
-219.2730057904949
 20
599.5648344076577
 10
-219.4346663393269
 20
600.3043754082524
 10
-219.5657988414676
 20
601.1611010663718
 10
-219.6624189021954
 20
602.1089802064177
 10
-219.7215907698576
 20
603.1192120003703
 10
-219.7415165371976
 20
604.161101066372
210
0.0
220
0.0
230
-1.0
  0
LINE
  5
29A5
330
1E
100
AcDbEntity
  8
STEMPEL
100
AcDbLine
 10
206.686451016418
 20
610.6611010663681
 30
0.0
 11
206.6864510164179
 21
604.1611010663731
 31
0.0
  0
LINE
  5
29A6
330
1E
100
AcDbEntity
  8
STEMPEL
100
AcDbLine
 10
206.302866750741
 20
610.6611010663697
 30
0.0
 11
206.3028667507409
 21
604.1611010663731
 31
0.0
  0
LWPOLYLINE
  5
29A7
330
1E
100
AcDbEntity
  8
STEMPEL
100
AcDbPolyline
 90
        7
 70
   128
 43
0.0
 10
-205.0853553180118
 20
599.1611010663715
 10
-205.4359205324238
 20
599.7704389682125
 10
-205.7365825113625
 20
600.4978692415017
 10
-205.9792545732971
 20
601.3238267354453
 10
-206.1574097483456
 20
602.2260962859076
 10
-206.2662563293261
 20
603.1804102201507
 10
-206.3028667507409
 20
604.161101066372
210
0.0
220
0.0
230
-1.0
  0
LINE
  5
29A8
330
1E
100
AcDbEntity
  8
STEMPEL
100
AcDbLine
 10
233.8709886414849
 20
655.6611010663715
 30
0.0
 11
233.8709886414848
 21
630.6611010663715
 31
0.0
  0
LWPOLYLINE
  5
29A9
330
1E
100
AcDbEntity
  8
STEMPEL
100
AcDbPolyline
 90
       18
 70
   128
 43
0.0
 10
169.2231063908968
 20
610.6611010663699
 10
169.3244190027012
 20
612.0392224499944
 10
169.6249067586304
 20
613.3704135627741
 10
170.1143369085516
 20
614.6093422879508
 10
170.776042495716
 20
615.7138183937201
 10
171.5874899299811
 20
616.646230270973
 10
172.5210463421968
 20
617.3748257515343
 10
173.5449205884229
 20
617.8747933901676
 10
174.6242458592057
 20
618.1291073885842
 10
175.7222670269568
 20
618.1291073885842
 10
176.8015922977395
 20
617.8747933901676
 10
177.8254665439656
 20
617.3748257515343
 10
178.7590229561813
 20
616.646230270973
 10
179.5704703904464
 20
615.7138183937201
 10
180.2321759776109
 20
614.6093422879508
 10
180.7216061275321
 20
613.370413562774
 10
181.0220938834613
 20
612.0392224499943
 10
181.1234064952657
 20
610.6611010663698
  0
LINE
  5
29AA
330
1E
100
AcDbEntity
  8
STEMPEL
100
AcDbLine
 10
167.5850833147915
 20
599.1611010663717
 30
0.0
 11
178.8751889712986
 21
599.1611010663717
 31
0.0
  0
LWPOLYLINE
  5
29AB
330
1E
100
AcDbEntity
  8
STEMPEL
100
AcDbPolyline
 90
        9
 70
   128
 43
0.0
 10
174.8681592191618
 20
618.1512351441936
 10
175.9845669405329
 20
617.9439280077864
 10
177.0498461922752
 20
617.4746732803327
 10
178.0256811753135
 20
616.7603490431641
 10
178.8769732081715
 20
615.8266479997677
 10
179.5731031509079
 20
614.7071533646072
 10
180.0890327095993
 20
613.4421309472686
 10
180.4062050098151
 20
612.0770808780592
 10
180.5132120474033
 20
610.6611010663714
  0
LINE
  5
29AC
330
1E
100
AcDbEntity
  8
STEMPEL
100
AcDbLine
 10
192.828258028747
 20
610.6611010663698
 30
0.0
 11
192.8282580287469
 21
604.1611010663732
 31
0.0
  0
LWPOLYLINE
  5
29AD
330
1E
100
AcDbEntity
  8
STEMPEL
100
AcDbPolyline
 90
       10
 70
   128
 43
0.0
 10
-190.1059147015379
 20
598.1611010663717
 10
-190.5786446592915
 20
598.2522545482984
 10
-191.0370109564917
 20
598.5229453416563
 10
-191.4670863651424
 20
598.964948643665
 10
-191.8558032615807
 20
599.5648344076579
 10
-192.1913506796084
 20
600.3043754082526
 10
-192.4635331807239
 20
601.1611010663719
 10
-192.6640806373621
 20
602.1089802064178
 10
-192.7868995165345
 20
603.1192120003704
 10
-192.8282580287469
 20
604.1611010663721
210
0.0
220
0.0
230
-1.0
  0
LWPOLYLINE
  5
29AE
330
1E
100
AcDbEntity
  8
STEMPEL
100
AcDbPolyline
 90
       10
 70
   128
 43
0.0
 10
-177.4608033597416
 20
598.1611010663717
 10
-178.0968077197425
 20
598.2522545482985
 10
-178.7134874090986
 20
598.5229453416563
 10
-179.2921049275037
 20
598.9649486436651
 10
-179.8150792744555
 20
599.5648344076579
 10
-180.26652013906
 20
600.3043754082526
 10
-180.632710719086
 20
601.1611010663719
 10
-180.9025244990609
 20
602.1089802064178
 10
-181.0677633238126
 20
603.1192120003704
 10
-181.1234064952657
 20
604.1611010663721
210
0.0
220
0.0
230
-1.0
  0
LWPOLYLINE
  5
29AF
330
1E
100
AcDbEntity
  8
STEMPEL
100
AcDbPolyline
 90
        7
 70
   128
 43
0.0
 10
-178.875188971298
 20
599.1611010663717
 10
-179.3468345718648
 20
599.7704389682126
 10
-179.7513410482477
 20
600.4978692415019
 10
-180.0778286907367
 20
601.3238267354455
 10
-180.317516204145
 20
602.2260962859077
 10
-180.4639568917709
 20
603.1804102201509
 10
-180.5132120474033
 20
604.1611010663721
210
0.0
220
0.0
230
-1.0
  0
LINE
  5
29B0
330
1E
100
AcDbEntity
  8
STEMPEL
100
AcDbLine
 10
181.1234064952658
 20
610.6611010663698
 30
0.0
 11
181.1234064952657
 21
604.1611010663732
 31
0.0
  0
LINE
  5
29B1
330
1E
100
AcDbEntity
  8
STEMPEL
100
AcDbLine
 10
180.5132120474034
 20
610.6611010663698
 30
0.0
 11
180.5132120474033
 21
604.1611010663732
 31
0.0
  0
ELLIPSE
  5
29B2
330
1E
100
AcDbEntity
  8
STEMPEL
100
AcDbEllipse
 10
186.4989784723638
 20
630.6611010663718
 30
0.0
 11
-0.0000000000000334
 21
-7.5
 31
0.0
210
0.0
220
0.0
230
-1.0
 40
0.8660254037843856
 41
4.712388980384689
 42
6.24459510668465
  0
ELLIPSE
  5
29B3
330
1E
100
AcDbEntity
  8
STEMPEL
100
AcDbEllipse
 10
187.0001554678057
 20
630.6611010663718
 30
0.0
 11
-0.0000000000000334
 21
-7.5
 31
0.0
210
0.0
220
0.0
230
-1.0
 40
0.8660254037843856
 41
4.712388980384689
 42
7.853981633974482
  0
ELLIPSE
  5
29B4
330
1E
100
AcDbEntity
  8
STEMPEL
100
AcDbEllipse
 10
186.4989784723639
 20
655.6611010663718
 30
0.0
 11
0.0000000000000334
 21
7.5
 31
0.0
210
0.0
220
0.0
230
1.0
 40
0.8660254037843856
 41
4.712388980384689
 42
6.24459510668465
  0
ELLIPSE
  5
29B5
330
1E
100
AcDbEntity
  8
STEMPEL
100
AcDbEllipse
 10
187.0001554678058
 20
655.6611010663718
 30
0.0
 11
0.0000000000000334
 21
7.5
 31
0.0
210
0.0
220
0.0
230
1.0
 40
0.8660254037843856
 41
4.712388980384689
 42
7.853981633974482
  0
LINE
  5
29B6
330
1E
100
AcDbEntity
  8
STEMPEL
100
AcDbLine
 10
192.9941690007467
 20
655.6611010663718
 30
0.0
 11
192.9941690007466
 21
630.6611010663718
 31
0.0
  0
LINE
  5
29B7
330
1E
100
AcDbEntity
  8
STEMPEL
100
AcDbLine
 10
193.4953459961887
 20
655.6611010663718
 30
0.0
 11
193.4953459961885
 21
630.6611010663718
 31
0.0
  0
LINE
  5
29B8
330
1E
100
AcDbEntity
  8
STEMPEL
100
AcDbLine
 10
180.5049649394229
 20
655.6611010663718
 30
0.0
 11
180.5049649394228
 21
630.6611010663734
 31
0.0
  0
LWPOLYLINE
  5
29B9
330
1E
100
AcDbEntity
  8
STEMPEL
100
AcDbPolyline
 90
       10
 70
   128
 43
0.0
 10
154.3052035291584
 20
618.1611010663731
 10
155.0980308750181
 20
618.0471592139646
 10
155.8667685631638
 20
617.7087957222673
 10
156.5880588879414
 20
617.1562915947562
 10
157.2399858078228
 20
616.406434389765
 10
157.8027408532385
 20
615.4820081390215
 10
158.2592249969014
 20
614.4111010663723
 10
158.5955681990982
 20
613.2262521413146
 10
158.8015508418282
 20
611.9634623988737
 10
158.8709142467243
 20
610.6611010663715
  0
LWPOLYLINE
  5
29BA
330
1E
100
AcDbEntity
  8
STEMPEL
100
AcDbPolyline
 90
       18
 70
   128
 43
0.0
 10
150.5347136984134
 20
610.6611010663699
 10
150.6124535996735
 20
612.0392224499945
 10
150.8430259643553
 20
613.3704135627741
 10
151.2185789271205
 20
614.6093422879509
 10
151.7263234822482
 20
615.7138183937203
 10
152.3489689978861
 20
616.6462302709731
 10
153.0653120277803
 20
617.3748257515343
 10
153.8509583692061
 20
617.8747933901676
 10
154.6791537782855
 20
618.1291073885844
 10
155.5216950536732
 20
618.1291073885843
 10
156.3498904627526
 20
617.8747933901676
 10
157.1355368041784
 20
617.3748257515343
 10
157.8518798340726
 20
616.646230270973
 10
158.4745253497105
 20
615.7138183937202
 10
158.9822699048382
 20
614.6093422879508
 10
159.3578228676034
 20
613.3704135627741
 10
159.5883952322852
 20
612.0392224499945
 10
159.6661351335453
 20
610.6611010663699
  0
LWPOLYLINE
  5
29BB
330
1E
100
AcDbEntity
  8
STEMPEL
100
AcDbPolyline
 90
        9
 70
   128
 43
0.0
 10
140.4437616037406
 20
618.0628593110351
 10
140.9328221470094
 20
617.7364264132777
 10
141.3924351149104
 20
617.1911574000205
 10
141.8083849185346
 20
616.4439171568925
 10
142.1678064478262
 20
615.5178174341149
 10
142.4595829827137
 20
614.4415020121447
 10
142.6746900274518
 20
613.2482607645138
 10
142.8064744335593
 20
611.9750000194379
 10
142.8508601782242
 20
610.6611010663715
  0
LINE
  5
29BC
330
1E
100
AcDbEntity
  8
STEMPEL
100
AcDbLine
 10
148.5831368698948
 20
599.1611010663717
 30
0.0
 11
156.9193374182067
 21
599.1611010663717
 31
0.0
  0
LINE
  5
29BD
330
1E
100
AcDbEntity
  8
STEMPEL
100
AcDbLine
 10
169.2231063908969
 20
610.6611010663699
 30
0.0
 11
169.2231063908969
 21
604.1611010663733
 31
0.0
  0
LWPOLYLINE
  5
29BE
330
1E
100
AcDbEntity
  8
STEMPEL
100
AcDbPolyline
 90
       10
 70
   128
 43
0.0
 10
-165.5605032553727
 20
598.1611010663717
 10
-166.1965076153736
 20
598.2522545482985
 10
-166.8131873047298
 20
598.5229453416563
 10
-167.3918048231348
 20
598.9649486436652
 10
-167.9147791700867
 20
599.5648344076579
 10
-168.3662200346912
 20
600.3043754082526
 10
-168.7324106147172
 20
601.1611010663719
 10
-169.0022243946921
 20
602.108980206418
 10
-169.1674632194438
 20
603.1192120003705
 10
-169.2231063908969
 20
604.1611010663721
210
0.0
220
0.0
230
-1.0
  0
LINE
  5
29BF
330
1E
100
AcDbEntity
  8
STEMPEL
100
AcDbLine
 10
159.6661351335452
 20
610.6611010663699
 30
0.0
 11
159.6661351335451
 21
604.1611010663733
 31
0.0
  0
LINE
  5
29C0
330
1E
100
AcDbEntity
  8
STEMPEL
100
AcDbLine
 10
158.8709142467244
 20
610.6611010663699
 30
0.0
 11
158.8709142467244
 21
604.1611010663733
 31
0.0
  0
LWPOLYLINE
  5
29C1
330
1E
100
AcDbEntity
  8
STEMPEL
100
AcDbPolyline
 90
       10
 70
   128
 43
0.0
 10
-155.3024289589392
 20
598.1611010663717
 10
-156.0601785840334
 20
598.2522545482985
 10
-156.794904370209
 20
598.5229453416563
 10
-157.4842820462421
 20
598.9649486436652
 10
-158.1073652202885
 20
599.5648344076579
 10
-158.6452218254
 20
600.3043754082526
 10
-159.0815093607989
 20
601.1611010663719
 10
-159.4029714504942
 20
602.1089802064181
 10
-159.5998406315582
 20
603.1192120003705
 10
-159.666135133545
 20
604.1611010663721
210
0.0
220
0.0
230
-1.0
  0
LWPOLYLINE
  5
29C2
330
1E
100
AcDbEntity
  8
STEMPEL
100
AcDbPolyline
 90
        7
 70
   128
 43
0.0
 10
-156.919337418206
 20
599.1611010663717
 10
-157.4812663914701
 20
599.7704389682126
 10
-157.9632043310573
 20
600.4978692415019
 10
-158.3521889108071
 20
601.3238267354455
 10
-158.6377579019135
 20
602.2260962859078
 10
-158.8122305677095
 20
603.1804102201511
 10
-158.8709142467245
 20
604.1611010663721
210
0.0
220
0.0
230
-1.0
  0
LWPOLYLINE
  5
29C3
330
1E
100
AcDbEntity
  8
STEMPEL
100
AcDbPolyline
 90
       10
 70
   128
 43
0.0
 10
-146.1710075238073
 20
598.1611010663717
 10
-146.9287571489016
 20
598.2522545482985
 10
-147.6634829350771
 20
598.5229453416564
 10
-148.3528606111102
 20
598.9649486436652
 10
-148.9759437851567
 20
599.564834407658
 10
-149.5138003902681
 20
600.3043754082527
 10
-149.950087925667
 20
601.1611010663719
 10
-150.2715500153623
 20
602.1089802064181
 10
-150.4684191964263
 20
603.1192120003705
 10
-150.5347136984131
 20
604.1611010663721
210
0.0
220
0.0
230
-1.0
  0
LINE
  5
29C4
330
1E
100
AcDbEntity
  8
STEMPEL
100
AcDbLine
 10
150.5347136984133
 20
610.6611010663699
 30
0.0
 11
150.5347136984132
 21
604.1611010663733
 31
0.0
  0
LINE
  5
29C5
330
1E
100
AcDbEntity
  8
STEMPEL
100
AcDbLine
 10
143.7769145147315
 20
610.6611010663699
 30
0.0
 11
143.7769145147315
 21
604.1611010663733
 31
0.0
  0
LINE
  5
29C6
330
1E
100
AcDbEntity
  8
STEMPEL
100
AcDbLine
 10
142.8508601782243
 20
610.6611010663699
 30
0.0
 11
142.8508601782242
 21
604.1611010663733
 31
0.0
  0
LWPOLYLINE
  5
29C7
330
1E
100
AcDbEntity
  8
STEMPEL
100
AcDbPolyline
 90
       10
 70
   128
 43
0.0
 10
-138.9615499881575
 20
598.1611010663718
 10
-139.7977292629991
 20
598.2522545482986
 10
-140.6085016537017
 20
598.5229453416565
 10
-141.3692322514446
 20
598.9649486436652
 10
-142.0568066419633
 20
599.564834407658
 10
-142.6503332253318
 20
600.3043754082527
 10
-143.131777996653
 20
601.1611010663719
 10
-143.4865125001733
 20
602.1089802064181
 10
-143.7037583075075
 20
603.1192120003705
 10
-143.7769145147315
 20
604.1611010663721
210
0.0
220
0.0
230
-1.0
  0
LWPOLYLINE
  5
29C8
330
1E
100
AcDbEntity
  8
STEMPEL
100
AcDbPolyline
 90
        7
 70
   128
 43
0.0
 10
-140.6972885455556
 20
599.1611010663718
 10
-141.3173790686198
 20
599.7704389682127
 10
-141.8491992154033
 20
600.4978692415019
 10
-142.2784450151346
 20
601.3238267354455
 10
-142.5935713629319
 20
602.2260962859078
 10
-142.7861025398978
 20
603.1804102201511
 10
-142.8508601782241
 20
604.1611010663721
210
0.0
220
0.0
230
-1.0
  0
LINE
  5
29C9
330
1E
100
AcDbEntity
  8
STEMPEL
100
AcDbLine
 10
150.0798791151327
 20
630.6611010663719
 30
0.0
 11
150.0798791151328
 21
655.6611010663735
 31
0.0
  0
LINE
  5
29CA
330
1E
100
AcDbEntity
  8
STEMPEL
100
AcDbLine
 10
150.9479431348218
 20
655.6611010663719
 30
0.0
 11
150.9479431348217
 21
630.6611010663735
 31
0.0
  0
LINE
  5
29CB
330
1E
100
AcDbEntity
  8
STEMPEL
100
AcDbLine
 10
143.4479431348219
 20
655.6611010663719
 30
0.0
 11
143.4479431348218
 21
630.6611010663751
 31
0.0
  0
ELLIPSE
  5
29CC
330
1E
100
AcDbEntity
  8
STEMPEL
100
AcDbEllipse
 10
147.1979431348217
 20
630.6611010663735
 30
0.0
 11
-0.0000000000000334
 21
-7.499999999999999
 31
0.0
210
0.0
220
0.0
230
-1.0
 40
0.4999999999999926
 41
4.712388980384689
 42
7.853981633974482
  0
ELLIPSE
  5
29CD
330
1E
100
AcDbEntity
  8
STEMPEL
100
AcDbEllipse
 10
146.3298791151329
 20
630.6611010663735
 30
0.0
 11
-0.0000000000000334
 21
-7.499999999999999
 31
0.0
210
0.0
220
0.0
230
-1.0
 40
0.4999999999999926
 41
4.712388980384689
 42
6.167183451052224
  0
ELLIPSE
  5
29CE
330
1E
100
AcDbEntity
  8
STEMPEL
100
AcDbEllipse
 10
147.1979431348218
 20
655.6611010663719
 30
0.0
 11
0.0000000000000334
 21
7.499999999999999
 31
0.0
210
0.0
220
0.0
230
1.0
 40
0.4999999999999926
 41
4.712388980384689
 42
7.853981633974482
  0
ELLIPSE
  5
29CF
330
1E
100
AcDbEntity
  8
STEMPEL
100
AcDbEllipse
 10
146.329879115133
 20
655.6611010663719
 30
0.0
 11
0.0000000000000334
 21
7.499999999999999
 31
0.0
210
0.0
220
0.0
230
1.0
 40
0.4999999999999926
 41
4.712388980384689
 42
6.167183451052224
  0
LINE
  5
29D0
330
1E
100
AcDbEntity
  8
STEMPEL
100
AcDbLine
 10
215.9314740464284
 20
688.1611010663712
 30
0.0
 11
161.370988641485
 21
688.1611010663718
 31
0.0
  0
LINE
  5
29D1
330
1E
100
AcDbEntity
  8
STEMPEL
100
AcDbLine
 10
264.0345502577823
 20
689.6611010663709
 30
0.0
 11
218.5295502577824
 21
689.661101066371
 31
0.0
  0
LINE
  5
29D2
330
1E
100
AcDbEntity
  8
STEMPEL
100
AcDbLine
 10
244.7295502577825
 20
688.6611010663711
 30
0.0
 11
234.6412827965889
 21
688.6611010663711
 31
0.0
  0
LINE
  5
29D3
330
1E
100
AcDbEntity
  8
STEMPEL
100
AcDbLine
 10
253.7814740464294
 20
688.161101066371
 30
0.0
 11
247.3276264691352
 21
688.161101066371
 31
0.0
  0
LINE
  5
29D4
330
1E
100
AcDbEntity
  8
STEMPEL
100
AcDbLine
 10
253.7814740464294
 20
688.161101066371
 30
0.0
 11
247.3276264691352
 21
688.161101066371
 31
0.0
  0
ARC
  5
29D5
330
1E
100
AcDbEntity
  8
STEMPEL
100
AcDbCircle
 10
253.7814740464294
 20
689.6611010663709
 30
0.0
 40
2.5
100
AcDbArc
 50
270.0
 51
330.0000000000003
  0
ARC
  5
29D6
330
1E
100
AcDbEntity
  8
STEMPEL
100
AcDbCircle
 10
259.1776264691361
 20
689.6611010663709
 30
0.0
 40
2.5
100
AcDbArc
 50
209.9999999999925
 51
270.0
  0
ARC
  5
29D7
330
1E
100
AcDbEntity
  8
STEMPEL
100
AcDbCircle
 10
261.2364740464284
 20
689.6611010663709
 30
0.0
 40
2.5
100
AcDbArc
 50
270.0
 51
330.0000000000076
  0
ARC
  5
29D8
330
1E
100
AcDbEntity
  8
STEMPEL
100
AcDbCircle
 10
266.6326264691358
 20
689.6611010663709
 30
0.0
 40
2.5
100
AcDbArc
 50
209.9999999999997
 51
270.0
  0
ARC
  5
29D9
330
1E
100
AcDbEntity
  8
STEMPEL
100
AcDbCircle
 10
261.2364740464284
 20
689.6611010663709
 30
0.0
 40
1.5
100
AcDbArc
 50
270.0
 51
330.0000000000076
  0
ARC
  5
29DA
330
1E
100
AcDbEntity
  8
STEMPEL
100
AcDbCircle
 10
266.6326264691358
 20
689.6611010663709
 30
0.0
 40
1.5
100
AcDbArc
 50
209.9999999999925
 51
270.0
  0
ARC
  5
29DB
330
1E
100
AcDbEntity
  8
STEMPEL
100
AcDbCircle
 10
264.0345502577823
 20
688.161101066371
 30
0.0
 40
1.5
100
AcDbArc
 50
29.99999999999973
 51
90.0
  0
ARC
  5
29DC
330
1E
100
AcDbEntity
  8
STEMPEL
100
AcDbCircle
 10
263.8345502577823
 20
688.161101066371
 30
0.0
 40
1.5
100
AcDbArc
 50
90.0
 51
150.0000000000075
  0
ARC
  5
29DD
330
1E
100
AcDbEntity
  8
STEMPEL
100
AcDbCircle
 10
263.8345502577823
 20
688.161101066371
 30
0.0
 40
0.5
100
AcDbArc
 50
90.0
 51
150.0000000000002
  0
LINE
  5
29DE
330
1E
100
AcDbEntity
  8
STEMPEL
100
AcDbLine
 10
264.0345502577823
 20
688.661101066371
 30
0.0
 11
263.8345502577823
 21
688.661101066371
 31
0.0
  0
ARC
  5
29DF
330
1E
100
AcDbEntity
  8
STEMPEL
100
AcDbCircle
 10
264.0345502577823
 20
688.161101066371
 30
0.0
 40
0.5
100
AcDbArc
 50
29.99999999999973
 51
90.0
  0
ARC
  5
29E0
330
1E
100
AcDbEntity
  8
STEMPEL
100
AcDbCircle
 10
256.5795502577824
 20
688.1611010663711
 30
0.0
 40
1.5
100
AcDbArc
 50
29.99999999999246
 51
90.0
  0
LINE
  5
29E1
330
1E
100
AcDbEntity
  8
STEMPEL
100
AcDbLine
 10
261.2364740464284
 20
688.1611010663708
 30
0.0
 11
259.1776264691361
 21
688.1611010663708
 31
0.0
  0
LINE
  5
29E2
330
1E
100
AcDbEntity
  8
STEMPEL
100
AcDbLine
 10
261.2364740464284
 20
688.1611010663708
 30
0.0
 11
259.1776264691361
 21
688.1611010663708
 31
0.0
  0
ARC
  5
29E3
330
1E
100
AcDbEntity
  8
STEMPEL
100
AcDbCircle
 10
259.1776264691361
 20
689.6611010663709
 30
0.0
 40
1.5
100
AcDbArc
 50
209.9999999999925
 51
270.0
  0
ARC
  5
29E4
330
1E
100
AcDbEntity
  8
STEMPEL
100
AcDbCircle
 10
256.3795502577824
 20
688.1611010663711
 30
0.0
 40
1.5
100
AcDbArc
 50
90.0
 51
149.9999999999994
  0
ARC
  5
29E5
330
1E
100
AcDbEntity
  8
STEMPEL
100
AcDbCircle
 10
256.3795502577824
 20
688.1611010663711
 30
0.0
 40
0.5
100
AcDbArc
 50
90.0
 51
149.9999999999994
  0
LINE
  5
29E6
330
1E
100
AcDbEntity
  8
STEMPEL
100
AcDbLine
 10
256.5795502577824
 20
688.6611010663711
 30
0.0
 11
256.3795502577824
 21
688.6611010663711
 31
0.0
  0
ARC
  5
29E7
330
1E
100
AcDbEntity
  8
STEMPEL
100
AcDbCircle
 10
256.5795502577824
 20
688.1611010663711
 30
0.0
 40
0.5
100
AcDbArc
 50
29.99999999999246
 51
90.0
  0
ARC
  5
29E8
330
1E
100
AcDbEntity
  8
STEMPEL
100
AcDbCircle
 10
253.7814740464294
 20
689.6611010663709
 30
0.0
 40
1.5
100
AcDbArc
 50
270.0
 51
330.0000000000003
  0
ARC
  5
29E9
330
1E
100
AcDbEntity
  8
STEMPEL
100
AcDbCircle
 10
247.3276264691352
 20
689.6611010663709
 30
0.0
 40
2.5
100
AcDbArc
 50
210.000000000007
 51
270.0
  0
ARC
  5
29EA
330
1E
100
AcDbEntity
  8
STEMPEL
100
AcDbCircle
 10
244.7295502577825
 20
688.1611010663711
 30
0.0
 40
1.5
100
AcDbArc
 50
29.99999999999973
 51
90.0
  0
ARC
  5
29EB
330
1E
100
AcDbEntity
  8
STEMPEL
100
AcDbCircle
 10
247.3276264691352
 20
689.6611010663709
 30
0.0
 40
1.5
100
AcDbArc
 50
210.000000000007
 51
270.0
  0
ARC
  5
29EC
330
1E
100
AcDbEntity
  8
STEMPEL
100
AcDbCircle
 10
244.7295502577825
 20
688.1611010663711
 30
0.0
 40
0.5
100
AcDbArc
 50
29.99999999999973
 51
90.0
  0
ARC
  5
29ED
330
1E
100
AcDbEntity
  8
STEMPEL
100
AcDbCircle
 10
221.3276264691348
 20
689.661101066371
 30
0.0
 40
2.5
100
AcDbArc
 50
210.0000000000078
 51
270.0
  0
ARC
  5
29EE
330
1E
100
AcDbEntity
  8
STEMPEL
100
AcDbCircle
 10
221.3276264691348
 20
689.661101066371
 30
0.0
 40
1.5
100
AcDbArc
 50
210.0000000000078
 51
270.0
  0
ARC
  5
29EF
330
1E
100
AcDbEntity
  8
STEMPEL
100
AcDbCircle
 10
227.7814740464289
 20
689.661101066371
 30
0.0
 40
2.5
100
AcDbArc
 50
270.0
 51
330.0000000000003
  0
ARC
  5
29F0
330
1E
100
AcDbEntity
  8
STEMPEL
100
AcDbCircle
 10
232.5160419308864
 20
688.6611010663711
 30
0.0
 40
1.5
100
AcDbArc
 50
194.4775121859299
 51
270.0
  0
ARC
  5
29F1
330
1E
100
AcDbEntity
  8
STEMPEL
100
AcDbCircle
 10
232.7047911234856
 20
688.6611010663711
 30
0.0
 40
1.5
100
AcDbArc
 50
270.0
 51
345.5224878140701
  0
ARC
  5
29F2
330
1E
100
AcDbEntity
  8
STEMPEL
100
AcDbCircle
 10
227.7814740464289
 20
689.661101066371
 30
0.0
 40
1.5
100
AcDbArc
 50
270.0
 51
330.0000000000003
  0
ARC
  5
29F3
330
1E
100
AcDbEntity
  8
STEMPEL
100
AcDbCircle
 10
232.7047911234856
 20
688.6611010663711
 30
0.0
 40
0.5
100
AcDbArc
 50
270.0
 51
345.5224878140701
  0
ARC
  5
29F4
330
1E
100
AcDbEntity
  8
STEMPEL
100
AcDbCircle
 10
234.6412827965889
 20
688.1611010663711
 30
0.0
 40
1.5
100
AcDbArc
 50
90.0
 51
165.5224878140701
  0
ARC
  5
29F5
330
1E
100
AcDbEntity
  8
STEMPEL
100
AcDbCircle
 10
234.6412827965889
 20
688.1611010663711
 30
0.0
 40
0.5
100
AcDbArc
 50
90.0
 51
165.5224878140701
  0
ARC
  5
29F6
330
1E
100
AcDbEntity
  8
STEMPEL
100
AcDbCircle
 10
230.3795502577823
 20
688.1611010663711
 30
0.0
 40
0.5
100
AcDbArc
 50
90.0
 51
150.0000000000002
  0
LINE
  5
29F7
330
1E
100
AcDbEntity
  8
STEMPEL
100
AcDbLine
 10
230.5795502577824
 20
688.6611010663711
 30
0.0
 11
230.3795502577823
 21
688.6611010663711
 31
0.0
  0
ARC
  5
29F8
330
1E
100
AcDbEntity
  8
STEMPEL
100
AcDbCircle
 10
230.5795502577824
 20
688.1611010663711
 30
0.0
 40
0.5
100
AcDbArc
 50
14.47751218592986
 51
90.0
  0
LINE
  5
29F9
330
1E
100
AcDbEntity
  8
STEMPEL
100
AcDbLine
 10
232.7047911234856
 20
688.1611010663711
 30
0.0
 11
232.5160419308864
 21
688.1611010663711
 31
0.0
  0
ARC
  5
29FA
330
1E
100
AcDbEntity
  8
STEMPEL
100
AcDbCircle
 10
232.5160419308864
 20
688.6611010663711
 30
0.0
 40
0.5
100
AcDbArc
 50
194.4775121859299
 51
270.0
  0
ARC
  5
29FB
330
1E
100
AcDbEntity
  8
STEMPEL
100
AcDbCircle
 10
230.5795502577824
 20
688.1611010663711
 30
0.0
 40
1.5
100
AcDbArc
 50
14.47751218592986
 51
90.0
  0
ARC
  5
29FC
330
1E
100
AcDbEntity
  8
STEMPEL
100
AcDbCircle
 10
230.3795502577823
 20
688.1611010663711
 30
0.0
 40
1.5
100
AcDbArc
 50
90.0
 51
150.0000000000002
  0
LINE
  5
29FD
330
1E
100
AcDbEntity
  8
STEMPEL
100
AcDbLine
 10
227.7814740464289
 20
688.1611010663711
 30
0.0
 11
221.3276264691348
 21
688.1611010663711
 31
0.0
  0
LINE
  5
29FE
330
1E
100
AcDbEntity
  8
STEMPEL
100
AcDbLine
 10
227.7814740464289
 20
688.1611010663712
 30
0.0
 11
221.3276264691348
 21
688.1611010663712
 31
0.0
  0
ARC
  5
29FF
330
1E
100
AcDbEntity
  8
STEMPEL
100
AcDbCircle
 10
215.9314740464284
 20
689.661101066371
 30
0.0
 40
2.5
100
AcDbArc
 50
270.0
 51
330.0000000000076
  0
ARC
  5
2A00
330
1E
100
AcDbEntity
  8
STEMPEL
100
AcDbCircle
 10
215.9314740464284
 20
689.661101066371
 30
0.0
 40
1.5
100
AcDbArc
 50
270.0
 51
330.0000000000076
  0
ARC
  5
2A01
330
1E
100
AcDbEntity
  8
STEMPEL
100
AcDbCircle
 10
218.5295502577824
 20
688.1611010663711
 30
0.0
 40
1.5
100
AcDbArc
 50
90.0
 51
150.0000000000075
  0
ARC
  5
2A02
330
1E
100
AcDbEntity
  8
STEMPEL
100
AcDbCircle
 10
218.5295502577824
 20
688.1611010663711
 30
0.0
 40
0.5
100
AcDbArc
 50
90.0
 51
150.0000000000075
  0
LINE
  5
2A03
330
1E
100
AcDbEntity
  8
STEMPEL
100
AcDbLine
 10
218.7295502577825
 20
688.6611010663711
 30
0.0
 11
218.5295502577824
 21
688.6611010663711
 31
0.0
  0
ARC
  5
2A04
330
1E
100
AcDbEntity
  8
STEMPEL
100
AcDbCircle
 10
218.7295502577825
 20
688.1611010663711
 30
0.0
 40
0.5
100
AcDbArc
 50
30.00000000000782
 51
90.0
  0
ARC
  5
2A05
330
1E
100
AcDbEntity
  8
STEMPEL
100
AcDbCircle
 10
218.7295502577825
 20
688.1611010663711
 30
0.0
 40
1.5
100
AcDbArc
 50
30.00000000000782
 51
90.0
  0
ARC
  5
2A06
330
1E
100
AcDbEntity
  8
STEMPEL
100
AcDbCircle
 10
161.370988641487
 20
682.1611010663668
 30
0.0
 40
5.000000000004884
100
AcDbArc
 50
90.00000000002442
 51
120.5373500482977
  0
ARC
  5
2A07
330
1E
100
AcDbEntity
  8
STEMPEL
100
AcDbCircle
 10
161.370988641485
 20
682.161101066372
 30
0.0
 40
5.999999999999263
100
AcDbArc
 50
90.0
 51
120.5128743276239
  0
ARC
  5
2A08
330
1E
100
AcDbEntity
  8
STEMPEL
100
AcDbCircle
 10
161.3709886414849
 20
682.1611010663713
 30
0.0
 40
6.0
100
AcDbArc
 50
90.0
 51
90.0
  0
LINE
  5
2A09
330
1E
100
AcDbEntity
  8
STEMPEL
100
AcDbLine
 10
131.3709886414848
 20
668.1610430990563
 30
0.0
 11
131.3709886414846
 21
604.1611010663723
 31
0.0
  0
LINE
  5
2A0A
330
1E
100
AcDbEntity
  8
STEMPEL
100
AcDbLine
 10
132.3709886414849
 20
668.1610430990563
 30
0.0
 11
132.3709886414847
 21
604.1611010663723
 31
0.0
  0
LWPOLYLINE
  5
2A0B
330
1E
100
AcDbEntity
  8
STEMPEL
100
AcDbPolyline
 90
       18
 70
   128
 43
0.0
 10
132.58067588252
 20
610.6611010663701
 10
132.5973443059968
 20
612.0392224499945
 10
132.6467819532572
 20
613.3704135627742
 10
132.7273052845176
 20
614.6093422879511
 10
132.8361721743093
 20
615.7138183937203
 10
132.9696752912716
 20
616.6462302709732
 10
133.1232683468757
 20
617.3748257515344
 10
133.2917209138277
 20
617.8747933901677
 10
133.4692965419967
 20
618.1291073885844
 10
133.6499481063437
 20
618.1291073885844
 10
133.8275237345126
 20
617.8747933901677
 10
133.9959763014647
 20
617.3748257515344
 10
134.1495693570688
 20
616.6462302709732
 10
134.2830724740311
 20
615.7138183937203
 10
134.3919393638228
 20
614.6093422879511
 10
134.4724626950832
 20
613.3704135627742
 10
134.5219003423436
 20
612.0392224499945
 10
134.5385687658204
 20
610.6611010663701
  0
LINE
  5
2A0C
330
1E
100
AcDbEntity
  8
STEMPEL
100
AcDbLine
 10
111.370988641485
 20
599.161101066372
 30
0.0
 11
126.3709886414849
 21
599.1611010663723
 31
0.0
  0
LWPOLYLINE
  5
2A0D
330
1E
100
AcDbEntity
  8
STEMPEL
100
AcDbPolyline
 90
       10
 70
   128
 43
0.0
 10
-129.0325800347896
 20
598.1611010663719
 10
-129.8906530310623
 20
598.2272282809446
 10
-130.7434652306846
 20
598.4797820306747
 10
-131.5642235376016
 20
598.9108277469924
 10
-132.3271419040006
 20
599.5068231174322
 10
-133.0082514594997
 20
600.2490435491528
 10
-133.5861535494455
 20
601.1141704459503
 10
-134.0426920238517
 20
602.0750238166664
 10
-134.3635236554493
 20
603.1014161983786
 10
-134.5385687658204
 20
604.1611010663712
210
0.0
220
0.0
230
-1.0
  0
ARC
  5
2A0E
330
1E
100
AcDbEntity
  8
STEMPEL
100
AcDbCircle
 10
126.3709886414847
 20
604.1611010663724
 30
0.0
 40
6.0
100
AcDbArc
 50
270.0000000000017
 51
0.0
  0
LWPOLYLINE
  5
2A0F
330
1E
100
AcDbEntity
  8
STEMPEL
100
AcDbPolyline
 90
       10
 70
   128
 43
0.0
 10
-127.0746871514891
 20
598.1611010663731
 10
-127.9327601477619
 20
598.2272282809457
 10
-128.7855723473841
 20
598.4797820306758
 10
-129.6063306543011
 20
598.9108277469934
 10
-130.3692490207001
 20
599.5068231174333
 10
-131.0503585761993
 20
600.2490435491539
 10
-131.628260666145
 20
601.1141704459515
 10
-132.0847991405512
 20
602.0750238166676
 10
-132.4056307721488
 20
603.1014161983797
 10
-132.5806758825199
 20
604.1611010663723
210
0.0
220
0.0
230
-1.0
  0
ARC
  5
2A10
330
1E
100
AcDbEntity
  8
STEMPEL
100
AcDbCircle
 10
126.3709886414847
 20
604.1611010663724
 30
0.0
 40
5.0
100
AcDbArc
 50
270.0000000000017
 51
0.0
  0
LINE
  5
2A11
330
1E
100
AcDbEntity
  8
STEMPEL
100
AcDbLine
 10
129.9602166988493
 20
599.1611010663718
 30
0.0
 11
130.9243308686119
 21
599.1611010663718
 31
0.0
  0
LINE
  5
2A12
330
1E
100
AcDbEntity
  8
STEMPEL
100
AcDbLine
 10
133.5447900522826
 20
610.6611010663701
 30
0.0
 11
133.5447900522825
 21
604.1611010663723
 31
0.0
  0
LINE
  5
2A13
330
1E
100
AcDbEntity
  8
STEMPEL
100
AcDbLine
 10
134.5385687658204
 20
610.6611010663701
 30
0.0
 11
134.5385687658204
 21
604.1611010663712
 31
0.0
  0
LINE
  5
2A14
330
1E
100
AcDbEntity
  8
STEMPEL
100
AcDbLine
 10
138.0366630292538
 20
610.6611010663701
 30
0.0
 11
138.0366630292537
 21
604.1611010663735
 31
0.0
  0
LINE
  5
2A15
330
1E
100
AcDbEntity
  8
STEMPEL
100
AcDbLine
 10
132.58067588252
 20
610.6611010663701
 30
0.0
 11
132.5806758825199
 21
604.1611010663723
 31
0.0
  0
LWPOLYLINE
  5
2A16
330
1E
100
AcDbEntity
  8
STEMPEL
100
AcDbPolyline
 90
       10
 70
   128
 43
0.0
 10
-133.2212985026798
 20
598.1611010663718
 10
-134.0574777775214
 20
598.2522545482986
 10
-134.868250168224
 20
598.5229453416565
 10
-135.6289807659668
 20
598.9649486436652
 10
-136.3165551564856
 20
599.5648344076581
 10
-136.910081739854
 20
600.3043754082528
 10
-137.3915265111752
 20
601.161101066372
 10
-137.7462610146956
 20
602.1089802064181
 10
-137.9635068220298
 20
603.1192120003707
 10
-138.0366630292537
 20
604.1611010663723
210
0.0
220
0.0
230
-1.0
  0
LWPOLYLINE
  5
2A17
330
1E
100
AcDbEntity
  8
STEMPEL
100
AcDbPolyline
 90
        7
 70
   128
 43
0.0
 10
-130.9243308686117
 20
599.1611010663723
 10
-131.6010327436891
 20
599.7707017942314
 10
-132.2005821673231
 20
600.498260878143
 10
-132.7068708404727
 20
601.3242307398233
 10
-133.1062961325183
 20
602.2264197650263
 10
-133.3881265477812
 20
603.1805885332199
 10
-133.5447900522827
 20
604.1611010663723
210
0.0
220
0.0
230
-1.0
  0
LWPOLYLINE
  5
2A18
330
1E
100
AcDbEntity
  8
STEMPEL
100
AcDbPolyline
 90
        7
 70
   128
 43
0.0
 10
133.0627329674011
 20
617.1231551222098
 10
133.2005619769714
 20
616.3710488852712
 10
133.3194262539376
 20
615.4483352745566
 10
133.4157742558388
 20
614.3825840246523
 10
133.4867272033769
 20
613.2056386878312
 10
133.5301650953849
 20
611.9526651814293
 10
133.5447900522825
 20
610.6611010663701
  0
LINE
  5
2A19
330
1E
100
AcDbEntity
  8
STEMPEL
100
AcDbLine
 10
123.3709886414848
 20
599.1611010663724
 30
0.0
 11
123.3709886414848
 21
598.1611010663719
 31
0.0
  0
LINE
  5
2A1A
330
1E
100
AcDbEntity
  8
STEMPEL
100
AcDbLine
 10
115.3709886414848
 20
599.161101066372
 30
0.0
 11
115.3709886414848
 21
598.1611010663719
 31
0.0
  0
LINE
  5
2A1B
330
1E
100
AcDbEntity
  8
STEMPEL
100
AcDbLine
 10
111.3709886414849
 20
599.1611010663722
 30
0.0
 11
111.3709886414848
 21
598.1611010663719
 31
0.0
  0
LINE
  5
2A1C
330
1E
100
AcDbEntity
  8
STEMPEL
100
AcDbLine
 10
131.370988641485
 20
623.1611010663717
 30
0.0
 11
132.370988641485
 21
623.1611010663717
 31
0.0
  0
LINE
  5
2A1D
330
1E
100
AcDbEntity
  8
STEMPEL
100
AcDbLine
 10
131.3709886414852
 20
663.1611010663718
 30
0.0
 11
132.3709886414852
 21
663.1611010663718
 31
0.0
  0
ARC
  5
2A1E
330
1E
100
AcDbEntity
  8
STEMPEL
100
AcDbCircle
 10
137.3709886414855
 20
668.1610430990559
 30
0.0
 40
5.000000000000511
100
AcDbArc
 50
120.2564164748189
 51
179.9999999999935
  0
ARC
  5
2A1F
330
1E
100
AcDbEntity
  8
STEMPEL
100
AcDbCircle
 10
137.3709886414853
 20
668.1610430990559
 30
0.0
 40
6.000000000000454
100
AcDbArc
 50
120.2564164748189
 51
179.9999999999935
  0
ARC
  5
2A20
330
1E
100
AcDbEntity
  8
STEMPEL
100
AcDbCircle
 10
131.8598450371734
 20
677.6809380488336
 30
0.0
 40
5.0
100
AcDbArc
 50
300.0670458384858
 51
300.2564371635302
  0
LINE
  5
2A21
330
1E
100
AcDbEntity
  8
TEXT
 62
     2
100
AcDbLine
 10
146.4196901480738
 20
537.1603700266617
 30
0.0
 11
173.8646735462205
 21
582.4567065773968
 31
0.0
  0
HATCH
  5
2A22
330
1E
100
AcDbEntity
  8
SCHRAFF
100
AcDbHatch
 10
0.0
 20
0.0
 30
0.0
210
0.0
220
0.0
230
1.0
  2
_USER
 70
     0
 71
     0
 91
        4
 92
        7
 72
     0
 73
     1
 93
        9
 10
122.3709886414848
 20
587.7746010663718
 10
122.3709886414849
 20
585.1611010663709
 10
121.3709886414848
 20
585.1611010663709
 10
121.3709886414848
 20
584.1611010663711
 10
119.3709886414848
 20
583.6252026815087
 10
119.3709886414848
 20
583.1611010663711
 10
124.3709886414848
 20
583.1611010663711
 10
124.3709886414849
 20
598.1611010663715
 10
122.3709886414849
 20
598.1611010663714
 97
        0
 92
       23
 72
     0
 73
     1
 93
        5
 10
121.3709886414849
 20
585.1611010663709
 10
122.3709886414848
 20
585.1611010663709
 10
122.3709886414848
 20
587.7746010663718
 10
121.7574886414849
 20
587.1611010663717
 10
121.3709886414849
 20
587.1611010663717
 97
        0
 92
       22
 72
     0
 73
     1
 93
        5
 10
116.3709886414848
 20
585.161101066371
 10
117.3709886414848
 20
585.161101066371
 10
117.3709886414848
 20
587.1611010663719
 10
116.9844886414847
 20
587.1611010663717
 10
116.3709886414848
 20
587.7746010663717
 97
        0
 92
        7
 72
     0
 73
     1
 93
        9
 10
116.3709886414848
 20
587.7746010663718
 10
116.3709886414848
 20
598.1611010663717
 10
114.3709886414848
 20
598.1611010663717
 10
114.3709886414848
 20
583.1611010663712
 10
119.3709886414848
 20
583.1611010663713
 10
119.3709886414848
 20
583.6252026815087
 10
117.3709886414848
 20
584.1611010663712
 10
117.3709886414848
 20
585.161101066371
 10
116.3709886414848
 20
585.161101066371
 97
        0
 75
     0
 76
     0
 52
45.0
 41
1.0
 77
     0
 78
     1
 53
45.0
 43
-30.88138368945946
 44
-7.995103851954922
 45
-0.7071067811865475
 46
0.7071067811865476
 79
     0
 47
0.0321819604051909
 98
        4
 10
123.335299886168
 20
592.8664817819423
 10
121.7256157293124
 20
585.5933584404921
 10
116.8643718874738
 20
586.5909990537512
 10
116.1561106434003
 20
586.4300893405166
  0
ARC
  5
2A23
330
1E
100
AcDbEntity
  8
HILF
100
AcDbCircle
 10
119.3709886414848
 20
585.9198090391455
 30
0.0
 40
14.94074366520046
100
AcDbArc
 50
78.85962783889434
 51
101.1403721611056
  0
ARC
  5
2A24
330
1E
100
AcDbEntity
  8
HILF
100
AcDbCircle
 10
115.0408616225626
 20
597.0197923045553
 30
0.0
 40
3.840760399790701
100
AcDbArc
 50
67.92594526324302
 51
112.0740547367569
  0
ARC
  5
2A25
330
1E
100
AcDbEntity
  8
HILF
100
AcDbCircle
 10
123.701115660407
 20
597.0186277426671
 30
0.0
 40
3.841839622940954
100
AcDbArc
 50
67.9324721810082
 51
112.0675278189918
  0
ARC
  5
2A26
330
1E
100
AcDbEntity
  8
STEMPEL
100
AcDbCircle
 10
119.3709886414848
 20
585.5538416447349
 30
0.0
 40
20.20725942163691
100
AcDbArc
 50
81.78678929826174
 51
98.21321070173826
  0
ARC
  5
2A27
330
1E
100
AcDbEntity
  8
STEMPEL
100
AcDbCircle
 10
115.0408616225626
 20
600.6315639278486
 30
0.0
 40
5.129537138523076
100
AcDbArc
 50
73.65710669401501
 51
106.342893305985
  0
LINE
  5
2A28
330
1E
100
AcDbEntity
  8
STEMPEL
100
AcDbLine
 10
114.3709886414848
 20
605.7611010663718
 30
0.0
 11
113.5974859495885
 21
605.5538416447348
 31
0.0
  0
LINE
  5
2A29
330
1E
100
AcDbEntity
  8
STEMPEL
100
AcDbLine
 10
124.3709886414848
 20
605.7611010663718
 30
0.0
 11
125.1444913333811
 21
605.5538416447348
 31
0.0
  0
ARC
  5
2A2A
330
1E
100
AcDbEntity
  8
STEMPEL
100
AcDbCircle
 10
123.701115660407
 20
600.6315639278486
 30
0.0
 40
5.129537138523076
100
AcDbArc
 50
73.65710669401501
 51
106.342893305985
  0
POINT
  5
2A2B
330
1E
100
AcDbEntity
  8
0
100
AcDbPoint
 10
119.3709886414848
 20
587.1611010663717
 30
0.0
210
-0.0000000000000002
220
-1.0
230
0.0
  0
LINE
  5
2A2C
330
1E
100
AcDbEntity
  8
HILF
100
AcDbLine
 10
116.9844886414848
 20
596.1611010663717
 30
0.0
 11
116.3709886414848
 21
599.1611010663717
 31
0.0
  0
LINE
  5
2A2D
330
1E
100
AcDbEntity
  8
HILF
100
AcDbLine
 10
116.9844886414848
 20
596.1611010663717
 30
0.0
 11
116.9844886414848
 21
587.1611010663717
 31
0.0
  0
LINE
  5
2A2E
330
1E
100
AcDbEntity
  8
HILF
100
AcDbLine
 10
116.3709886414848
 20
596.1611010663717
 30
0.0
 11
122.3709886414848
 21
596.1611010663717
 31
0.0
  0
LINE
  5
2A2F
330
1E
100
AcDbEntity
  8
HILF
100
AcDbLine
 10
121.7574886414848
 20
596.1611010663717
 30
0.0
 11
122.3709886414848
 21
599.1611010663717
 31
0.0
  0
LINE
  5
2A30
330
1E
100
AcDbEntity
  8
HILF
100
AcDbLine
 10
121.7574886414848
 20
596.1611010663717
 30
0.0
 11
121.7574886414848
 21
587.1611010663717
 31
0.0
  0
LINE
  5
2A31
330
1E
100
AcDbEntity
  8
STEMPEL
100
AcDbLine
 10
126.1090997203139
 20
600.227932007804
 30
0.0
 11
112.6328775626557
 21
600.227932007804
 31
0.0
  0
LINE
  5
2A32
330
1E
100
AcDbEntity
  8
STEMPEL
100
AcDbLine
 10
125.9209886414848
 20
599.1611010663717
 30
0.0
 11
112.8209886414848
 21
599.1611010663717
 31
0.0
  0
LINE
  5
2A33
330
1E
100
AcDbEntity
  8
STEMPEL
100
AcDbLine
 10
113.5974859495885
 20
605.5538416447348
 30
0.0
 11
113.5974859495885
 21
600.5790207483711
 31
0.0
  0
LINE
  5
2A34
330
1E
100
AcDbEntity
  8
STEMPEL
100
AcDbLine
 10
116.4842372955367
 20
605.5538416447348
 30
0.0
 11
116.4842372955367
 21
600.5790207483711
 31
0.0
  0
LINE
  5
2A35
330
1E
100
AcDbEntity
  8
STEMPEL
100
AcDbLine
 10
122.2577399874329
 20
605.5538416447348
 30
0.0
 11
122.2577399874329
 21
600.5790207483711
 31
0.0
  0
LINE
  5
2A36
330
1E
100
AcDbEntity
  8
STEMPEL
100
AcDbLine
 10
125.1444913333811
 20
605.5538416447348
 30
0.0
 11
125.1444913333811
 21
600.5790207483711
 31
0.0
  0
LINE
  5
2A37
330
1E
100
AcDbEntity
  8
STEMPEL
100
AcDbLine
 10
124.3709886414848
 20
605.7611010663718
 30
0.0
 11
114.3709886414848
 21
605.7611010663718
 31
0.0
  0
LINE
  5
2A38
330
1E
100
AcDbEntity
  8
STEMPEL
100
AcDbLine
 10
121.7574886414848
 20
587.1611010663717
 30
0.0
 11
116.9844886414848
 21
587.1611010663717
 31
0.0
  0
LINE
  5
2A39
330
1E
100
AcDbEntity
  8
STEMPEL
100
AcDbLine
 10
122.3709886414848
 20
587.7746010663718
 30
0.0
 11
116.3709886414848
 21
587.7746010663718
 31
0.0
  0
LINE
  5
2A3A
330
1E
100
AcDbEntity
  8
STEMPEL
100
AcDbLine
 10
113.5974859495885
 20
600.5790207483711
 30
0.0
 11
112.6328775626557
 21
600.227932007804
 31
0.0
  0
LINE
  5
2A3B
330
1E
100
AcDbEntity
  8
STEMPEL
100
AcDbLine
 10
126.1090997203139
 20
600.227932007804
 30
0.0
 11
125.1444913333811
 21
600.5790207483711
 31
0.0
  0
ARC
  5
2A3C
330
1E
100
AcDbEntity
  8
STEMPEL
100
AcDbCircle
 10
125.9209886414848
 20
599.7111010663717
 30
0.0
 40
0.5500000000000009
100
AcDbArc
 50
270.0
 51
69.99999999999935
  0
ARC
  5
2A3D
330
1E
100
AcDbEntity
  8
STEMPEL
100
AcDbCircle
 10
112.8209886414848
 20
599.7111010663717
 30
0.0
 40
0.5500000000000003
100
AcDbArc
 50
110.0000000000006
 51
270.0
  0
LINE
  5
2A3E
330
1E
100
AcDbEntity
  8
STEMPEL
100
AcDbLine
 10
116.3709886414848
 20
587.7746010663718
 30
0.0
 11
116.9844886414848
 21
587.1611010663717
 31
0.0
  0
LINE
  5
2A3F
330
1E
100
AcDbEntity
  8
STEMPEL
100
AcDbLine
 10
121.7574886414848
 20
587.1611010663717
 30
0.0
 11
122.3709886414848
 21
587.7746010663718
 31
0.0
  0
LINE
  5
2A40
330
1E
100
AcDbEntity
  8
STEMPEL
100
AcDbLine
 10
116.3709886414848
 20
599.1611010663717
 30
0.0
 11
116.3709886414848
 21
587.7746010663718
 31
0.0
  0
LINE
  5
2A41
330
1E
100
AcDbEntity
  8
STEMPEL
100
AcDbLine
 10
122.3709886414848
 20
587.7746010663718
 30
0.0
 11
122.3709886414848
 21
599.1611010663717
 31
0.0
  0
DIMENSION
  5
2A42
330
1E
100
AcDbEntity
  8
BEM
100
AcDbDimension
  2
*D9
 10
85.70972864640944
 20
583.1611010663712
 30
0.0
 11
79.20972864640936
 21
590.6611010663712
 31
0.0
 70
    32
 71
     5
 42
14.99999999999988
  3
Standard
100
AcDbAlignedDimension
 13
111.3709886414848
 23
598.161101066371
 33
0.0
 14
106.3709886414848
 24
583.1611010663712
 34
0.0
 50
90.0
100
AcDbRotatedDimension
1001
ACAD
1000
DSTYLE
1002
{
1070
    40
1040
2.0
1070
    41
1040
3.5
1070
    42
1040
1.0
1070
    43
1040
7.0
1070
    44
1040
1.0
1070
    73
1070
     0
1070
    74
1070
     0
1070
    77
1070
     1
1070
    78
1070
     8
1070
    79
1070
     2
1070
   140
1040
3.5
1070
   141
1040
1.5
1070
   146
1040
0.5142857142857144
1070
   147
1040
1.5
1070
   172
1070
     1
1070
   178
1070
     1
1070
   179
1070
     2
1070
   271
1070
     2
1070
   272
1070
     2
1070
   284
1070
     8
1070
   285
1070
     8
1070
   286
1070
     8
1002
}
  0
DIMENSION
  5
2A43
330
1E
100
AcDbEntity
  8
BEM
100
AcDbDimension
  2
*D10
 10
351.3709886414853
 20
703.9000694823205
 30
0.0
 11
241.3709886414852
 21
710.4000694823205
 31
0.0
 70
    32
  1
%%c<>
 71
     5
 42
220.0000000000002
  3
Standard
100
AcDbAlignedDimension
 13
131.370988641485
 23
668.1610430990555
 33
0.0
 14
351.3709886414853
 24
668.1610430990555
 34
0.0
100
AcDbRotatedDimension
1001
ACAD
1000
DSTYLE
1002
{
1070
    40
1040
2.0
1070
    41
1040
3.5
1070
    42
1040
1.0
1070
    43
1040
7.0
1070
    44
1040
1.0
1070
    73
1070
     0
1070
    74
1070
     0
1070
    77
1070
     1
1070
    78
1070
     8
1070
    79
1070
     2
1070
   140
1040
3.5
1070
   141
1040
1.5
1070
   146
1040
0.5142857142857144
1070
   147
1040
1.5
1070
   172
1070
     1
1070
   178
1070
     1
1070
   179
1070
     2
1070
   271
1070
     2
1070
   272
1070
     2
1070
   284
1070
     8
1070
   285
1070
     8
1070
   286
1070
     8
1002
}
  0
DIMENSION
  5
2A44
330
1E
100
AcDbEntity
  8
BEM
100
AcDbDimension
  2
*D11
 10
85.70972864640948
 20
688.1611010663703
 30
0.0
 11
79.20972864640936
 21
643.1611010663707
 31
0.0
 70
    32
 71
     5
 42
89.9999999999992
  3
Standard
100
AcDbAlignedDimension
 13
111.370988641485
 23
598.161101066371
 33
0.0
 14
161.370988641485
 24
688.1611010663703
 34
0.0
 50
90.0
100
AcDbRotatedDimension
1001
ACAD
1000
DSTYLE
1002
{
1070
    40
1040
2.0
1070
    41
1040
3.5
1070
    42
1040
1.0
1070
    43
1040
7.0
1070
    44
1040
1.0
1070
    73
1070
     0
1070
    74
1070
     0
1070
    77
1070
     1
1070
    78
1070
     8
1070
    79
1070
     2
1070
   140
1040
3.5
1070
   141
1040
1.5
1070
   146
1040
0.5142857142857144
1070
   147
1040
1.5
1070
   172
1070
     1
1070
   178
1070
     1
1070
   179
1070
     2
1070
   271
1070
     2
1070
   272
1070
     2
1070
   284
1070
     8
1070
   285
1070
     8
1070
   286
1070
     8
1002
}
  0
LINE
  5
2A45
330
1E
100
AcDbEntity
  8
STEMPEL
100
AcDbLine
 10
124.3709886414848
 20
598.161101066371
 30
0.0
 11
114.3709886414848
 21
598.161101066371
 31
0.0
  0
LINE
  5
2A46
330
1E
100
AcDbEntity
  8
STEMPEL
100
AcDbLine
 10
114.3709886414848
 20
583.1611010663711
 30
0.0
 11
114.3709886414848
 21
598.161101066371
 31
0.0
  0
LINE
  5
2A47
330
1E
100
AcDbEntity
  8
STEMPEL
100
AcDbLine
 10
124.3709886414848
 20
583.1611010663711
 30
0.0
 11
124.3709886414848
 21
598.161101066371
 31
0.0
  0
LINE
  5
2A48
330
1E
100
AcDbEntity
  8
HILF
100
AcDbLine
 10
116.3709886414848
 20
585.161101066371
 30
0.0
 11
116.3709886414848
 21
587.7746010663718
 31
0.0
  0
LINE
  5
2A49
330
1E
100
AcDbEntity
  8
HILF
100
AcDbLine
 10
122.3709886414848
 20
585.161101066371
 30
0.0
 11
122.3709886414848
 21
587.7746010663718
 31
0.0
  0
LINE
  5
2A4A
330
1E
100
AcDbEntity
  8
STEMPEL
100
AcDbLine
 10
122.3709886414848
 20
585.1611010663709
 30
0.0
 11
116.3709886414848
 21
585.161101066371
 31
0.0
  0
LINE
  5
2A4B
330
1E
100
AcDbEntity
  8
STEMPEL
100
AcDbLine
 10
121.3709886414848
 20
584.1611010663706
 30
0.0
 11
121.3709886414849
 21
587.1611010663719
 31
0.0
  0
LINE
  5
2A4C
330
1E
100
AcDbEntity
  8
STEMPEL
100
AcDbLine
 10
117.3709886414848
 20
584.1611010663708
 30
0.0
 11
117.3709886414848
 21
587.1611010663719
 31
0.0
  0
LINE
  5
2A4D
330
1E
100
AcDbEntity
  8
STEMPEL
100
AcDbLine
 10
121.3709886414848
 20
584.1611010663711
 30
0.0
 11
117.3709886414848
 21
584.1611010663711
 31
0.0
  0
LINE
  5
2A4E
330
1E
100
AcDbEntity
  8
STEMPEL
100
AcDbLine
 10
117.3709886414848
 20
584.1611010663711
 30
0.0
 11
119.3709886414848
 21
583.6252026815087
 31
0.0
  0
LINE
  5
2A4F
330
1E
100
AcDbEntity
  8
STEMPEL
100
AcDbLine
 10
121.3709886414848
 20
584.1611010663711
 30
0.0
 11
119.3709886414848
 21
583.6252026815087
 31
0.0
  0
LINE
  5
2A50
330
1E
100
AcDbEntity
  8
MITTEL
100
AcDbLine
 10
119.3709886414848
 20
576.6611010663713
 30
0.0
 11
119.3709886414848
 21
610.7611010663718
 31
0.0
  0
LINE
  5
2A51
330
1E
100
AcDbEntity
  8
STEMPEL
100
AcDbLine
 10
307.3709886414848
 20
583.1611010663712
 30
0.0
 11
307.3709886414848
 21
598.1611010663712
 31
0.0
  0
LINE
  5
2A52
330
1E
100
AcDbEntity
  8
STEMPEL
100
AcDbLine
 10
297.3709886414848
 20
583.1611010663712
 30
0.0
 11
297.3709886414848
 21
598.1611010663712
 31
0.0
  0
LINE
  5
2A53
330
1E
100
AcDbEntity
  8
STEMPEL
100
AcDbLine
 10
307.3709886414848
 20
598.1611010663712
 30
0.0
 11
297.3709886414848
 21
598.1611010663712
 31
0.0
  0
LINE
  5
2A54
330
1E
100
AcDbEntity
  8
TEXT
 62
     2
100
AcDbLine
 10
380.7805248631362
 20
659.8591190706582
 30
0.0
 11
479.5610173281004
 21
659.8591190706582
 31
0.0
  0
TEXT
  5
2A55
330
1E
100
AcDbEntity
  8
TEXT
 62
     1
100
AcDbText
 10
381.0459020007601
 20
663.1949673515423
 30
0.0
 40
7.0
  1
Siebkorb
 41
0.8
  7
GREEKS
100
AcDbText
  0
TEXT
  5
2A56
330
1E
100
AcDbEntity
  8
TEXT
 62
     1
100
AcDbText
 10
381.0459020007601
 20
649.9184418011764
 30
0.0
 40
7.0
  1
EDV-Art.Nr. 21007.000X
 41
0.75
  7
GREEKS
100
AcDbText
  0
TEXT
  5
2A57
330
1E
100
AcDbEntity
  8
TEXT
 62
     1
100
AcDbText
 10
43.41165774973925
 20
527.2196927571799
 30
0.0
 40
7.0
  1
EDV-Art.Nr. 17014.125X
 41
0.8
  7
GREEKS
100
AcDbText
  0
TEXT
  5
2A58
330
1E
100
AcDbEntity
  8
TEXT
 62
     1
100
AcDbText
 10
43.41165774973925
 20
540.4962183075459
 30
0.0
 40
7.0
  1
Losflansch DN125
 41
0.8
  7
GREEKS
100
AcDbText
  0
LINE
  5
2A59
330
1E
100
AcDbEntity
  8
TEXT
 62
     2
100
AcDbLine
 10
43.1462806121153
 20
537.1603700266617
 30
0.0
 11
146.4196901480738
 21
537.1603700266617
 31
0.0
  0
LINE
  5
2AC7
330
1E
100
AcDbEntity
  8
STEMPEL
100
AcDbLine
 10
175.3490047613374
 20
536.1100299290758
 30
0.0
 11
173.089952889744
 21
536.1100299290758
 31
0.0
  0
LINE
  5
2AC8
330
1E
100
AcDbEntity
  8
STEMPEL
100
AcDbLine
 10
170.8468287281258
 20
571.0215436747778
 30
0.0
 11
174.8709886414848
 21
571.0215436747778
 31
0.0
  0
LINE
  5
2AC9
330
1E
100
AcDbEntity
  8
STEMPEL
100
AcDbLine
 10
296.0566353489459
 20
571.0215436747778
 30
0.0
 11
299.6381064955949
 21
571.0215436747778
 31
0.0
  0
LINE
  5
2ACA
330
1E
100
AcDbEntity
  8
STEMPEL
100
AcDbLine
 10
307.8709886414852
 20
571.0215436747777
 30
0.0
 11
311.8468287281258
 21
571.0215436747778
 31
0.0
  0
LINE
  5
2ACB
330
1E
100
AcDbEntity
  8
STEMPEL
100
AcDbLine
 10
235.9827851582743
 20
571.0215436747777
 30
0.0
 11
246.7591921246956
 21
571.0215436747777
 31
0.0
  0
LINE
  5
2ACC
330
1E
100
AcDbEntity
  8
STEMPEL
100
AcDbLine
 10
183.1038707873748
 20
571.0215436747778
 30
0.0
 11
186.6853419340238
 21
571.0215436747778
 31
0.0
  0
LINE
  5
2ACD
330
1E
100
AcDbEntity
  8
STEMPEL
100
AcDbLine
 10
289.4067068041326
 20
531.6611010663715
 30
0.0
 11
175.7382356016574
 21
531.6611010663715
 31
0.0
  0
LINE
  5
2AEC
330
1E
100
AcDbEntity
  8
STEMPEL
100
AcDbLine
 10
307.8709886414848
 20
419.0215436747775
 30
0.0
 11
306.9961020062256
 21
409.0215436747778
 31
0.0
  0
LINE
  5
2AED
330
1E
100
AcDbEntity
  8
HILF
100
AcDbLine
 10
177.380538235343
 20
419.0215436747778
 30
0.0
 11
305.3614390476265
 21
419.0215436747778
 31
0.0
  0
LINE
  5
2AEE
330
1E
100
AcDbEntity
  8
STEMPEL
100
AcDbLine
 10
174.8709886414846
 20
419.0215436747778
 30
0.0
 11
175.7458752767439
 21
409.0215436747778
 31
0.0
  0
ARC
  5
2AEF
330
1E
100
AcDbEntity
  8
STEMPEL
100
AcDbCircle
 10
317.8709886414848
 20
505.4334227305701
 30
0.0
 40
10.0
100
AcDbArc
 50
139.6855360584293
 51
180.0
  0
LINE
  5
2AF0
330
1E
100
AcDbEntity
  8
HILF
  6
Continuous
100
AcDbLine
 10
176.8709886414846
 20
510.1295349867057
 30
0.0
 11
305.8709886414848
 21
510.1295349867057
 31
0.0
  0
ARC
  5
2AF1
330
1E
100
AcDbEntity
  8
STEMPEL
100
AcDbCircle
 10
164.8709886414847
 20
505.4334227305701
 30
0.0
 40
10.0
100
AcDbArc
 50
0.0
 51
40.31446394157064
  0
LINE
  5
2AF2
330
1E
100
AcDbEntity
  8
STEMPEL
100
AcDbLine
 10
174.8709886414846
 20
484.0215436747779
 30
0.0
 11
173.551421041735
 21
488.946237001065
 31
0.0
  0
TEXT
  5
2AFB
330
1E
100
AcDbEntity
  8
TEXT
 62
     1
100
AcDbText
 10
366.8689782236989
 20
516.0894927406823
 30
0.0
 40
7.0
  1
EDV-Art.Nr. 16587.100X
 41
0.8
  7
GREEKS
100
AcDbText
  0
LINE
  5
2AFC
330
1E
100
AcDbEntity
  8
TEXT
 62
     2
100
AcDbLine
 10
364.7490852276535
 20
526.116943851249
 30
0.0
 11
472.8597946688934
 21
526.116943851249
 31
0.0
  0
TEXT
  5
2AFD
330
1E
100
AcDbEntity
  8
TEXT
 62
     1
100
AcDbText
 10
366.8689782236989
 20
529.4968492681455
 30
0.0
 40
7.0
  1
Verlängerungsrohr DN100
 41
0.8
  7
GREEKS
100
AcDbText
  0
ENDSEC
  0
SECTION
  2
OBJECTS
  0
DICTIONARY
  5
C
330
0
100
AcDbDictionary
281
     1
  3
ACAD_COLOR
350
11A
  3
ACAD_GROUP
350
D
  3
ACAD_LAYOUT
350
19
  3
ACAD_MATERIAL
350
119
  3
ACAD_MLINESTYLE
350
16
  3
ACAD_PLOTSETTINGS
350
18
  3
ACAD_PLOTSTYLENAME
350
E
  3
AcDbVariableDictionary
350
125
  0
DICTIONARY
  5
DB
330
1E
100
AcDbDictionary
280
     1
281
     1
  3
ACAD_LAYOUTSELFREF
360
10F
  0
DICTIONARY
  5
DD
330
1A
100
AcDbDictionary
280
     1
281
     1
  3
ACAD_LAYOUTSELFREF
360
10E
  0
DICTIONARY
  5
11A
102
{ACAD_REACTORS
330
C
102
}
330
C
100
AcDbDictionary
281
     1
  0
DICTIONARY
  5
D
102
{ACAD_REACTORS
330
C
102
}
330
C
100
AcDbDictionary
281
     1
  0
DICTIONARY
  5
19
102
{ACAD_REACTORS
330
C
102
}
330
C
100
AcDbDictionary
281
     1
  3
Layout1
350
1D
  3
Model
350
21
  0
DICTIONARY
  5
119
102
{ACAD_REACTORS
330
C
102
}
330
C
100
AcDbDictionary
281
     1
  0
DICTIONARY
  5
16
102
{ACAD_REACTORS
330
C
102
}
330
C
100
AcDbDictionary
281
     1
  3
Standard
350
17
  0
DICTIONARY
  5
18
102
{ACAD_REACTORS
330
C
102
}
330
C
100
AcDbDictionary
281
     1
  0
ACDBDICTIONARYWDFLT
  5
E
102
{ACAD_REACTORS
330
C
102
}
330
C
100
AcDbDictionary
281
     1
  3
Normal
350
F
100
AcDbDictionaryWithDefault
340
F
  0
DICTIONARY
  5
125
102
{ACAD_REACTORS
330
C
102
}
330
C
100
AcDbDictionary
281
     1
  3
DIMASSOC
350
126
  3
PROJECTNAME
350
127
  0
XRECORD
  5
10F
102
{ACAD_REACTORS
330
DB
102
}
330
DB
100
AcDbXrecord
280
     1
340
1E
  0
XRECORD
  5
10E
102
{ACAD_REACTORS
330
DD
102
}
330
DD
100
AcDbXrecord
280
     1
340
1A
  0
LAYOUT
  5
1D
102
{ACAD_REACTORS
330
19
102
}
330
19
100
AcDbPlotSettings
  1

  2
\\NT_WORK01\HP LaserJet 5000 PCL 6
  4

  6

 40
0.0
 41
0.0
 42
0.0
 43
0.0
 44
0.0
 45
0.0
 46
0.0
 47
0.0
 48
0.0
 49
0.0
140
0.0
141
0.0
142
1.0
143
1.0
 70
   688
 72
     0
 73
     0
 74
     5
  7

 75
    16
147
1.0
 76
     0
 77
     2
 78
   300
148
0.0
149
0.0
100
AcDbLayout
  1
Layout1
 70
     0
 71
     1
 10
0.0
 20
0.0
 11
12.0
 21
9.0
 12
0.0
 22
0.0
 32
0.0
 14
1.000000000000000E+20
 24
1.000000000000000E+20
 34
1.000000000000000E+20
 15
-1.000000000000000E+20
 25
-1.000000000000000E+20
 35
-1.000000000000000E+20
146
0.0
 13
0.0
 23
0.0
 33
0.0
 16
1.0
 26
0.0
 36
0.0
 17
0.0
 27
1.0
 37
0.0
 76
     0
330
1A
  0
LAYOUT
  5
21
102
{ACAD_REACTORS
330
19
102
}
330
19
100
AcDbPlotSettings
  1

  2
none_device
  4
Letter_(8.50_x_11.00_Inches)
  6

 40
6.349999904632568
 41
6.349999904632568
 42
6.350006103515625
 43
6.350006103515625
 44
215.8999938964844
 45
279.3999938964844
 46
0.0
 47
0.0
 48
0.0
 49
0.0
140
0.0
141
0.0
142
1.0
143
1.0
 70
 11952
 72
     0
 73
     1
 74
     0
  7

 75
     0
147
1.0
 76
     0
 77
     2
 78
   300
148
3124.199999999999
149
0.0
100
AcDbLayout
  1
Model
 70
     1
 71
     0
 10
0.0
 20
0.0
 11
12.0
 21
9.0
 12
0.0
 22
0.0
 32
0.0
 14
0.0
 24
0.0
 34
0.0
 15
0.0
 25
0.0
 35
0.0
146
0.0
 13
0.0
 23
0.0
 33
0.0
 16
1.0
 26
0.0
 36
0.0
 17
0.0
 27
1.0
 37
0.0
 76
     0
330
1E
  0
MLINESTYLE
  5
17
102
{ACAD_REACTORS
330
16
102
}
330
16
100
AcDbMlineStyle
  2
STANDARD
 70
     0
  3

 62
   256
 51
90.0
 52
90.0
 71
     2
 49
0.5
 62
   256
  6
BYLAYER
 49
-0.5
 62
   256
  6
BYLAYER
  0
ACDBPLACEHOLDER
  5
F
102
{ACAD_REACTORS
330
E
102
}
330
E
  0
DICTIONARYVAR
  5
126
102
{ACAD_REACTORS
330
125
102
}
330
125
100
DictionaryVariables
280
     0
  1
1
  0
DICTIONARYVAR
  5
127
102
{ACAD_REACTORS
330
125
102
}
330
125
100
DictionaryVariables
280
     0
  1

  0
ENDSEC
  0
EOF
