  0
SECTION
  2
HEADER
  9
$ACADVER
  1
AC1018
  9
$ACADMAINTVER
 70
     2
  9
$DWGCODEPAGE
  3
ANSI_1252
  9
$INSBASE
 10
0.0
 20
0.0
 30
0.0
  9
$EXTMIN
 10
-0.0181260584133725
 20
-0.0256328098773793
 30
-0.0015258207003583
  9
$EXTMAX
 10
594.0181288244414
 20
840.0256367214323
 30
0.0000000349246037
  9
$LIMMIN
 10
0.0
 20
0.0
  9
$LIMMAX
 10
594.0
 20
840.0
  9
$ORTHOMODE
 70
     1
  9
$REGENMODE
 70
     1
  9
$FILLMODE
 70
     1
  9
$QTEXTMODE
 70
     0
  9
$MIRRTEXT
 70
     1
  9
$LTSCALE
 40
20.0
  9
$ATTMODE
 70
     1
  9
$TEXTSIZE
 40
3.5
  9
$TRACEWID
 40
1.0
  9
$TEXTSTYLE
  7
STANDARD
  9
$CLAYER
  8
VOLL
  9
$CELTYPE
  6
ByLayer
  9
$CECOLOR
 62
   256
  9
$CELTSCALE
 40
1.0
  9
$DISPSILH
 70
     0
  9
$DIMSCALE
 40
2.0
  9
$DIMASZ
 40
3.5
  9
$DIMEXO
 40
1.0
  9
$DIMDLI
 40
7.0
  9
$DIMRND
 40
0.0
  9
$DIMDLE
 40
0.0
  9
$DIMEXE
 40
1.0
  9
$DIMTP
 40
0.0
  9
$DIMTM
 40
0.0
  9
$DIMTXT
 40
3.5
  9
$DIMCEN
 40
1.5
  9
$DIMTSZ
 40
0.0
  9
$DIMTOL
 70
     0
  9
$DIMLIM
 70
     0
  9
$DIMTIH
 70
     0
  9
$DIMTOH
 70
     0
  9
$DIMSE1
 70
     0
  9
$DIMSE2
 70
     0
  9
$DIMTAD
 70
     1
  9
$DIMZIN
 70
     8
  9
$DIMBLK
  1

  9
$DIMASO
 70
     1
  9
$DIMSHO
 70
     0
  9
$DIMPOST
  1

  9
$DIMAPOST
  1

  9
$DIMALT
 70
     0
  9
$DIMALTD
 70
     2
  9
$DIMALTF
 40
25.4
  9
$DIMLFAC
 40
1.0
  9
$DIMTOFL
 70
     1
  9
$DIMTVP
 40
0.0
  9
$DIMTIX
 70
     0
  9
$DIMSOXD
 70
     0
  9
$DIMSAH
 70
     0
  9
$DIMBLK1
  1

  9
$DIMBLK2
  1

  9
$DIMSTYLE
  2
Standard
  9
$DIMCLRD
 70
     0
  9
$DIMCLRE
 70
     0
  9
$DIMCLRT
 70
     1
  9
$DIMTFAC
 40
0.5142857142857144
  9
$DIMGAP
 40
1.5
  9
$DIMJUST
 70
     0
  9
$DIMSD1
 70
     0
  9
$DIMSD2
 70
     0
  9
$DIMTOLJ
 70
     1
  9
$DIMTZIN
 70
     8
  9
$DIMALTZ
 70
     8
  9
$DIMALTTZ
 70
     8
  9
$DIMUPT
 70
     0
  9
$DIMDEC
 70
     2
  9
$DIMTDEC
 70
     2
  9
$DIMALTU
 70
     2
  9
$DIMALTTD
 70
     2
  9
$DIMTXSTY
  7
STANDARD
  9
$DIMAUNIT
 70
     0
  9
$DIMADEC
 70
     2
  9
$DIMALTRND
 40
0.0
  9
$DIMAZIN
 70
     2
  9
$DIMDSEP
 70
    46
  9
$DIMATFIT
 70
     3
  9
$DIMFRAC
 70
     0
  9
$DIMLDRBLK
  1

  9
$DIMLUNIT
 70
     2
  9
$DIMLWD
 70
    -2
  9
$DIMLWE
 70
    -2
  9
$DIMTMOVE
 70
     0
  9
$LUNITS
 70
     2
  9
$LUPREC
 70
     2
  9
$SKETCHINC
 40
1.0
  9
$FILLETRAD
 40
0.0
  9
$AUNITS
 70
     0
  9
$AUPREC
 70
     0
  9
$MENU
  1
ACAD
  9
$ELEVATION
 40
0.0
  9
$PELEVATION
 40
0.0
  9
$THICKNESS
 40
0.0
  9
$LIMCHECK
 70
     0
  9
$CHAMFERA
 40
0.0
  9
$CHAMFERB
 40
0.0
  9
$CHAMFERC
 40
0.0
  9
$CHAMFERD
 40
0.0
  9
$SKPOLY
 70
     0
  9
$TDCREATE
 40
2455397.867059838
  9
$TDUCREATE
 40
2455397.783726505
  9
$TDUPDATE
 40
2456157.310487269
  9
$TDUUPDATE
 40
2456157.227153935
  9
$TDINDWG
 40
0.1787527894
  9
$TDUSRTIMER
 40
0.1787527894
  9
$USRTIMER
 70
     1
  9
$ANGBASE
 50
0.0
  9
$ANGDIR
 70
     0
  9
$PDMODE
 70
     0
  9
$PDSIZE
 40
0.0
  9
$PLINEWID
 40
0.0
  9
$SPLFRAME
 70
     0
  9
$SPLINETYPE
 70
     6
  9
$SPLINESEGS
 70
     8
  9
$HANDSEED
  5
1D85
  9
$SURFTAB1
 70
     6
  9
$SURFTAB2
 70
     6
  9
$SURFTYPE
 70
     6
  9
$SURFU
 70
     6
  9
$SURFV
 70
     6
  9
$UCSBASE
  2

  9
$UCSNAME
  2

  9
$UCSORG
 10
0.0
 20
0.0
 30
0.0
  9
$UCSXDIR
 10
1.0
 20
0.0
 30
0.0
  9
$UCSYDIR
 10
0.0
 20
1.0
 30
0.0
  9
$UCSORTHOREF
  2

  9
$UCSORTHOVIEW
 70
     0
  9
$UCSORGTOP
 10
0.0
 20
0.0
 30
0.0
  9
$UCSORGBOTTOM
 10
0.0
 20
0.0
 30
0.0
  9
$UCSORGLEFT
 10
0.0
 20
0.0
 30
0.0
  9
$UCSORGRIGHT
 10
0.0
 20
0.0
 30
0.0
  9
$UCSORGFRONT
 10
0.0
 20
0.0
 30
0.0
  9
$UCSORGBACK
 10
0.0
 20
0.0
 30
0.0
  9
$PUCSBASE
  2

  9
$PUCSNAME
  2

  9
$PUCSORG
 10
0.0
 20
0.0
 30
0.0
  9
$PUCSXDIR
 10
1.0
 20
0.0
 30
0.0
  9
$PUCSYDIR
 10
0.0
 20
1.0
 30
0.0
  9
$PUCSORTHOREF
  2

  9
$PUCSORTHOVIEW
 70
     0
  9
$PUCSORGTOP
 10
0.0
 20
0.0
 30
0.0
  9
$PUCSORGBOTTOM
 10
0.0
 20
0.0
 30
0.0
  9
$PUCSORGLEFT
 10
0.0
 20
0.0
 30
0.0
  9
$PUCSORGRIGHT
 10
0.0
 20
0.0
 30
0.0
  9
$PUCSORGFRONT
 10
0.0
 20
0.0
 30
0.0
  9
$PUCSORGBACK
 10
0.0
 20
0.0
 30
0.0
  9
$USERI1
 70
     0
  9
$USERI2
 70
     0
  9
$USERI3
 70
     0
  9
$USERI4
 70
     0
  9
$USERI5
 70
     0
  9
$USERR1
 40
0.0
  9
$USERR2
 40
0.0
  9
$USERR3
 40
0.0
  9
$USERR4
 40
0.0
  9
$USERR5
 40
0.0
  9
$WORLDVIEW
 70
     1
  9
$SHADEDGE
 70
     3
  9
$SHADEDIF
 70
    70
  9
$TILEMODE
 70
     1
  9
$MAXACTVP
 70
    16
  9
$PINSBASE
 10
0.0
 20
0.0
 30
0.0
  9
$PLIMCHECK
 70
     0
  9
$PEXTMIN
 10
1.000000000000000E+20
 20
1.000000000000000E+20
 30
1.000000000000000E+20
  9
$PEXTMAX
 10
-1.000000000000000E+20
 20
-1.000000000000000E+20
 30
-1.000000000000000E+20
  9
$PLIMMIN
 10
0.0
 20
0.0
  9
$PLIMMAX
 10
12.0
 20
9.0
  9
$UNITMODE
 70
     0
  9
$VISRETAIN
 70
     0
  9
$PLINEGEN
 70
     0
  9
$PSLTSCALE
 70
     0
  9
$TREEDEPTH
 70
  3020
  9
$CMLSTYLE
  2
Standard
  9
$CMLJUST
 70
     0
  9
$CMLSCALE
 40
1.0
  9
$PROXYGRAPHICS
 70
     1
  9
$MEASUREMENT
 70
     0
  9
$CELWEIGHT
370
    -1
  9
$ENDCAPS
280
     0
  9
$JOINSTYLE
280
     0
  9
$LWDISPLAY
290
     0
  9
$INSUNITS
 70
     0
  9
$HYPERLINKBASE
  1

  9
$STYLESHEET
  1
monochrome 1.ctb
  9
$XEDIT
290
     1
  9
$CEPSNTYPE
380
     0
  9
$PSTYLEMODE
290
     1
  9
$FINGERPRINTGUID
  2
{D68B0D0D-A558-11D7-B632-000102183313}
  9
$VERSIONGUID
  2
{C739448B-A539-4757-BC43-EEF57920B2D7}
  9
$EXTNAMES
290
     1
  9
$PSVPSCALE
 40
0.0
  9
$OLESTARTUP
290
     0
  9
$SORTENTS
280
   127
  9
$INDEXCTL
280
     0
  9
$HIDETEXT
280
     0
  9
$XCLIPFRAME
290
     0
  9
$HALOGAP
280
     0
  9
$OBSCOLOR
 70
   257
  9
$OBSLTYPE
280
     0
  9
$INTERSECTIONDISPLAY
280
     0
  9
$INTERSECTIONCOLOR
 70
   257
  9
$DIMASSOC
280
     1
  9
$PROJECTNAME
  1

  0
ENDSEC
  0
SECTION
  2
CLASSES
  0
CLASS
  1
ACDBDICTIONARYWDFLT
  2
AcDbDictionaryWithDefault
  3
ObjectDBX Classes
 90
        0
 91
        1
280
     0
281
     0
  0
CLASS
  1
DICTIONARYVAR
  2
AcDbDictionaryVar
  3
ObjectDBX Classes
 90
        0
 91
        2
280
     0
281
     0
  0
ENDSEC
  0
SECTION
  2
TABLES
  0
TABLE
  2
VPORT
  5
8
330
0
100
AcDbSymbolTable
 70
     3
  0
VPORT
  5
1D84
330
8
100
AcDbSymbolTableRecord
100
AcDbViewportTableRecord
  2
*Active
 70
     0
 10
0.0
 20
0.0
 11
1.0
 21
1.0
 12
297.0
 22
420.0
 13
0.0
 23
0.0
 14
1.0
 24
1.0
 15
10.0
 25
10.0
 16
0.0
 26
0.0
 36
1.0
 17
0.0
 27
0.0
 37
0.0
 40
840.0
 41
1.404858299595141
 42
50.0
 43
0.0
 44
0.0
 50
0.0
 51
0.0
 71
     0
 72
  1500
 73
     1
 74
     0
 75
     0
 76
     0
 77
     0
 78
     0
281
     0
 65
     1
110
0.0
120
0.0
130
0.0
111
1.0
121
0.0
131
0.0
112
0.0
122
1.0
132
0.0
 79
     0
146
0.0
  0
ENDTAB
  0
TABLE
  2
LTYPE
  5
5
330
0
100
AcDbSymbolTable
 70
     2
  0
LTYPE
  5
13
330
5
100
AcDbSymbolTableRecord
100
AcDbLinetypeTableRecord
  2
ByBlock
 70
     0
  3

 72
    65
 73
     0
 40
0.0
  0
LTYPE
  5
14
330
5
100
AcDbSymbolTableRecord
100
AcDbLinetypeTableRecord
  2
ByLayer
 70
     0
  3

 72
    65
 73
     0
 40
0.0
  0
LTYPE
  5
15
330
5
100
AcDbSymbolTableRecord
100
AcDbLinetypeTableRecord
  2
Continuous
 70
     0
  3
Solid line
 72
    65
 73
     0
 40
0.0
  0
LTYPE
  5
25
330
5
100
AcDbSymbolTableRecord
100
AcDbLinetypeTableRecord
  2
STRICHPUNKT
 70
     0
  3
__ . __ . __ . __ . __ . __ . __ . __ . __ . __
 72
    65
 73
     4
 40
1.0
 49
0.5
 74
     0
 49
-0.25
 74
     0
 49
0.0
 74
     0
 49
-0.25
 74
     0
  0
ENDTAB
  0
TABLE
  2
LAYER
  5
2
330
0
100
AcDbSymbolTable
 70
     9
  0
LAYER
  5
10
330
2
100
AcDbSymbolTableRecord
100
AcDbLayerTableRecord
  2
0
 70
     0
 62
     7
  6
Continuous
370
    -3
390
F
  0
LAYER
  5
2B
330
2
100
AcDbSymbolTableRecord
100
AcDbLayerTableRecord
  2
VOLL
 70
     0
 62
     1
  6
Continuous
370
    -3
390
F
  0
LAYER
  5
2C
330
2
100
AcDbSymbolTableRecord
100
AcDbLayerTableRecord
  2
HILF
 70
     0
 62
     2
  6
Continuous
370
    -3
390
F
  0
LAYER
  5
2D
330
2
100
AcDbSymbolTableRecord
100
AcDbLayerTableRecord
  2
MITTEL
 70
     0
 62
     2
  6
STRICHPUNKT
370
    -3
390
F
  0
LAYER
  5
2F
330
2
100
AcDbSymbolTableRecord
100
AcDbLayerTableRecord
  2
BEM
 70
     0
 62
     7
  6
Continuous
370
    -3
390
F
  0
LAYER
  5
30
330
2
100
AcDbSymbolTableRecord
100
AcDbLayerTableRecord
  2
STEMPEL
 70
     0
 62
     3
  6
Continuous
370
    -3
390
F
  0
LAYER
  5
33
330
2
100
AcDbSymbolTableRecord
100
AcDbLayerTableRecord
  2
TEXT
 70
     0
 62
     7
  6
Continuous
370
    -3
390
F
  0
LAYER
  5
1AE
330
2
100
AcDbSymbolTableRecord
100
AcDbLayerTableRecord
  2
SCHRAFF
 70
     0
 62
     7
  6
Continuous
370
    -3
390
F
  0
LAYER
  5
7AB
330
2
100
AcDbSymbolTableRecord
100
AcDbLayerTableRecord
  2
DEFPOINTS
 70
     0
 62
     7
  6
Continuous
290
     0
370
    -3
390
F
  0
ENDTAB
  0
TABLE
  2
STYLE
  5
3
330
0
100
AcDbSymbolTable
 70
     2
  0
STYLE
  5
11
330
3
100
AcDbSymbolTableRecord
100
AcDbTextStyleTableRecord
  2
STANDARD
 70
     0
 40
0.0
 41
0.8
 50
0.0
 71
     0
 42
3.5
  3
simplex.shx
  4

  0
STYLE
  5
24
330
3
100
AcDbSymbolTableRecord
100
AcDbTextStyleTableRecord
  2
GREEKS
 70
     0
 40
0.0
 41
0.8
 50
0.0
 71
     0
 42
2.5
  3
SIMPLEX.shx
  4

  0
ENDTAB
  0
TABLE
  2
VIEW
  5
6
330
0
100
AcDbSymbolTable
 70
     0
  0
ENDTAB
  0
TABLE
  2
UCS
  5
7
330
0
100
AcDbSymbolTable
 70
     0
  0
ENDTAB
  0
TABLE
  2
APPID
  5
9
330
0
100
AcDbSymbolTable
 70
     1
  0
APPID
  5
12
330
9
100
AcDbSymbolTableRecord
100
AcDbRegAppTableRecord
  2
ACAD
 70
     0
  0
ENDTAB
  0
TABLE
  2
DIMSTYLE
  5
A
330
0
100
AcDbSymbolTable
 70
     1
100
AcDbDimStyleTable
 71
     1
340
A2
  0
DIMSTYLE
105
A2
102
{ACAD_REACTORS
330
17FB
330
1808
330
1815
330
183D
330
184A
330
1864
330
1888
330
1AB7
330
1BFC
330
1BFD
330
1BFE
102
}
330
A
100
AcDbSymbolTableRecord
100
AcDbDimStyleTableRecord
  2
Standard
 70
     0
340
11
  0
ENDTAB
  0
TABLE
  2
BLOCK_RECORD
  5
1
330
0
100
AcDbSymbolTable
 70
    13
  0
BLOCK_RECORD
  5
1E
102
{ACAD_XDICTIONARY
360
DB
102
}
330
1
100
AcDbSymbolTableRecord
100
AcDbBlockTableRecord
  2
*Model_Space
340
21
  0
BLOCK_RECORD
  5
1A
102
{ACAD_XDICTIONARY
360
DD
102
}
330
1
100
AcDbSymbolTableRecord
100
AcDbBlockTableRecord
  2
*Paper_Space
340
1D
  0
BLOCK_RECORD
  5
22
330
1
100
AcDbSymbolTableRecord
100
AcDbBlockTableRecord
  2
LOGO
340
0
102
{BLKREFS
331
56
102
}
  0
BLOCK_RECORD
  5
23
330
1
100
AcDbSymbolTableRecord
100
AcDbBlockTableRecord
  2
LORO
340
0
102
{BLKREFS
331
9B
102
}
  0
BLOCK_RECORD
  5
17FC
330
1
100
AcDbSymbolTableRecord
100
AcDbBlockTableRecord
  2
*D2
340
0
  0
BLOCK_RECORD
  5
1809
330
1
100
AcDbSymbolTableRecord
100
AcDbBlockTableRecord
  2
*D3
340
0
  0
BLOCK_RECORD
  5
1816
330
1
100
AcDbSymbolTableRecord
100
AcDbBlockTableRecord
  2
*D4
340
0
  0
BLOCK_RECORD
  5
183E
330
1
100
AcDbSymbolTableRecord
100
AcDbBlockTableRecord
  2
*D5
340
0
  0
BLOCK_RECORD
  5
184B
330
1
100
AcDbSymbolTableRecord
100
AcDbBlockTableRecord
  2
*D6
340
0
  0
BLOCK_RECORD
  5
1865
330
1
100
AcDbSymbolTableRecord
100
AcDbBlockTableRecord
  2
*D7
340
0
  0
BLOCK_RECORD
  5
1889
330
1
100
AcDbSymbolTableRecord
100
AcDbBlockTableRecord
  2
*D8
340
0
  0
BLOCK_RECORD
  5
1C0F
330
1
100
AcDbSymbolTableRecord
100
AcDbBlockTableRecord
  2
*D9
340
0
  0
BLOCK_RECORD
  5
1C1B
330
1
100
AcDbSymbolTableRecord
100
AcDbBlockTableRecord
  2
*D10
340
0
  0
BLOCK_RECORD
  5
1C29
330
1
100
AcDbSymbolTableRecord
100
AcDbBlockTableRecord
  2
*D11
340
0
  0
BLOCK_RECORD
  5
1C35
330
1
100
AcDbSymbolTableRecord
100
AcDbBlockTableRecord
  2
*D12
340
0
  0
ENDTAB
  0
ENDSEC
  0
SECTION
  2
BLOCKS
  0
BLOCK
  5
37
330
1E
100
AcDbEntity
  8
0
100
AcDbBlockBegin
  2
*Model_Space
 70
     0
 10
0.0
 20
0.0
 30
0.0
  3
*Model_Space
  1

  0
ENDBLK
  5
38
330
1E
100
AcDbEntity
  8
0
100
AcDbBlockEnd
  0
BLOCK
  5
35
330
1A
100
AcDbEntity
 67
     1
  8
0
100
AcDbBlockBegin
  2
*Paper_Space
 70
     0
 10
0.0
 20
0.0
 30
0.0
  3
*Paper_Space
  1

  0
ENDBLK
  5
36
330
1A
100
AcDbEntity
 67
     1
  8
0
100
AcDbBlockEnd
  0
BLOCK
  5
39
330
22
100
AcDbEntity
  8
0
100
AcDbBlockBegin
  2
LOGO
 70
     0
 10
0.0
 20
0.0
 30
0.0
  3
LOGO
  1

  0
ARC
  5
3A
330
22
100
AcDbEntity
  8
0
100
AcDbCircle
 10
11.59973089678112
 20
-9.271599258481501
 30
0.0
 40
4.5
100
AcDbArc
 50
270.0
 51
231.0575587310159
  0
LINE
  5
3B
330
22
100
AcDbEntity
  8
0
100
AcDbLine
 10
3.599730896781125
 20
-4.771599258481529
 30
0.0
 11
3.599730896781153
 21
-11.77159925848133
 31
0.0
  0
LINE
  5
3C
330
22
100
AcDbEntity
  8
0
100
AcDbLine
 10
2.599730896781125
 20
-4.771599258481529
 30
0.0
 11
2.599730896781153
 21
-11.77159925848133
 31
0.0
  0
CIRCLE
  5
3D
330
22
100
AcDbEntity
  8
0
100
AcDbCircle
 10
11.59973089678112
 20
-9.271599258481501
 30
0.0
 40
3.5
  0
ARC
  5
3E
330
22
100
AcDbEntity
  8
0
100
AcDbCircle
 10
31.59973089678115
 20
-9.271599258481472
 30
0.0
 40
4.5
100
AcDbArc
 50
270.0
 51
231.0575587310182
  0
LINE
  5
3F
330
22
100
AcDbEntity
  8
0
100
AcDbLine
 10
17.59973089678112
 20
-4.771599258481472
 30
0.0
 11
17.59973089678115
 21
-13.77159925848147
 31
0.0
  0
ARC
  5
40
330
22
100
AcDbEntity
  8
0
100
AcDbCircle
 10
22.59973089678116
 20
-7.271599258481472
 30
0.0
 40
2.5
100
AcDbArc
 50
293.1161887722295
 51
90.0
  0
CIRCLE
  5
41
330
22
100
AcDbEntity
  8
0
100
AcDbCircle
 10
31.59973089678115
 20
-9.271599258481472
 30
0.0
 40
3.5
  0
ARC
  5
42
330
22
100
AcDbEntity
  8
0
100
AcDbCircle
 10
4.599730896781153
 20
-11.77159925848133
 30
0.0
 40
1.0
100
AcDbArc
 50
180.0
 51
270.0
  0
ARC
  5
43
330
22
100
AcDbEntity
  8
0
100
AcDbCircle
 10
4.599730896781153
 20
-11.77159925848133
 30
0.0
 40
2.0
100
AcDbArc
 50
179.9999999999992
 51
270.0
  0
LINE
  5
44
330
22
100
AcDbEntity
  8
0
100
AcDbLine
 10
11.59973089678115
 20
-13.77159925848144
 30
0.0
 11
4.599730896781153
 21
-13.77159925848147
 31
0.0
  0
LINE
  5
45
330
22
100
AcDbEntity
  8
0
100
AcDbLine
 10
8.771303772034769
 20
-12.77159925848136
 30
0.0
 11
4.599730896781153
 21
-12.77159925848133
 31
0.0
  0
LINE
  5
46
330
22
100
AcDbEntity
  8
0
100
AcDbLine
 10
31.59973089678115
 20
-13.77159925848147
 30
0.0
 11
23.6715276665056
 21
-13.77159925848144
 31
0.0
  0
LINE
  5
47
330
22
100
AcDbEntity
  8
0
100
AcDbLine
 10
23.56565672307022
 20
-9.51278021337896
 30
0.0
 11
24.4388546544846
 21
-12.77159925848144
 31
0.0
  0
LINE
  5
48
330
22
100
AcDbEntity
  8
0
100
AcDbLine
 10
22.59973089678116
 20
-9.771599258481472
 30
0.0
 11
18.59973089678112
 21
-9.771599258481472
 31
0.0
  0
LINE
  5
49
330
22
100
AcDbEntity
  8
0
100
AcDbLine
 10
18.59973089678115
 20
-13.77159925848144
 30
0.0
 11
17.59973089678115
 21
-13.77159925848144
 31
0.0
  0
LINE
  5
4A
330
22
100
AcDbEntity
  8
0
100
AcDbLine
 10
18.59973089678115
 20
-9.771599258481472
 30
0.0
 11
18.59973089678115
 21
-13.77159925848144
 31
0.0
  0
LINE
  5
4B
330
22
100
AcDbEntity
  8
0
100
AcDbLine
 10
22.59973089678116
 20
-9.771599258481472
 30
0.0
 11
23.67152766650562
 21
-13.77159925848147
 31
0.0
  0
ARC
  5
4C
330
22
100
AcDbEntity
  8
0
100
AcDbCircle
 10
22.59973089678116
 20
-7.271599258481472
 30
0.0
 40
2.5
100
AcDbArc
 50
270.0
 51
270.0000000000007
  0
LINE
  5
4D
330
22
100
AcDbEntity
  8
0
100
AcDbLine
 10
28.77130377203494
 20
-12.77159925848147
 30
0.0
 11
24.43885465448463
 21
-12.77159925848144
 31
0.0
  0
LINE
  5
4E
330
22
100
AcDbEntity
  8
0
100
AcDbLine
 10
3.599730896781125
 20
-4.771599258481472
 30
0.0
 11
2.599730896781125
 21
-4.771599258481472
 31
0.0
  0
LINE
  5
4F
330
22
100
AcDbEntity
  8
0
100
AcDbLine
 10
22.59973089678116
 20
-8.771599258481472
 30
0.0
 11
18.59973089678115
 21
-8.771599258481472
 31
0.0
  0
LINE
  5
50
330
22
100
AcDbEntity
  8
0
100
AcDbLine
 10
22.59973089678116
 20
-5.771599258481472
 30
0.0
 11
18.59973089678115
 21
-5.771599258481472
 31
0.0
  0
LINE
  5
51
330
22
100
AcDbEntity
  8
0
100
AcDbLine
 10
22.59973089678116
 20
-4.771599258481472
 30
0.0
 11
17.59973089678115
 21
-4.771599258481472
 31
0.0
  0
LINE
  5
52
330
22
100
AcDbEntity
  8
0
100
AcDbLine
 10
18.59973089678115
 20
-5.771599258481472
 30
0.0
 11
18.59973089678115
 21
-8.771599258481472
 31
0.0
  0
ARC
  5
53
330
22
100
AcDbEntity
  8
0
100
AcDbCircle
 10
22.59973089678116
 20
-7.271599258481472
 30
0.0
 40
1.5
100
AcDbArc
 50
270.0
 51
90.0
  0
ENDBLK
  5
54
330
22
100
AcDbEntity
  8
0
100
AcDbBlockEnd
  0
BLOCK
  5
55
330
23
100
AcDbEntity
  8
0
100
AcDbBlockBegin
  2
LORO
 70
     0
 10
0.0
 20
0.0
 30
0.0
  3
LORO
  1

  0
INSERT
  5
56
330
23
100
AcDbEntity
  8
STEMPEL
100
AcDbBlockReference
  2
LOGO
 10
-1.748032802467321
 20
3.771489518552062
 30
0.0
  0
ENDBLK
  5
57
330
23
100
AcDbEntity
  8
0
100
AcDbBlockEnd
  0
BLOCK
  5
1806
330
17FC
100
AcDbEntity
  8
0
100
AcDbBlockBegin
  2
*D2
 70
     1
 10
0.0
 20
0.0
 30
0.0
  3
*D2
  1

  0
LINE
  5
18E2
330
17FC
100
AcDbEntity
  8
BEM
 62
     0
370
    -2
100
AcDbLine
 10
160.3623967548029
 20
179.6344901730046
 30
0.0
 11
160.3623967548029
 21
153.7387147865757
 31
0.0
  0
LINE
  5
18E3
330
17FC
100
AcDbEntity
  8
BEM
 62
     0
370
    -2
100
AcDbLine
 10
262.3623967548033
 20
179.6344901730061
 30
0.0
 11
262.3623967548033
 21
153.7387147865757
 31
0.0
  0
LINE
  5
18E4
330
17FC
100
AcDbEntity
  8
BEM
 62
     0
370
    -2
100
AcDbLine
 10
167.3623967548029
 20
155.7387147865757
 30
0.0
 11
255.3623967548033
 21
155.7387147865757
 31
0.0
  0
SOLID
  5
18E5
330
17FC
100
AcDbEntity
  8
BEM
 62
     0
100
AcDbTrace
 10
167.3623967548029
 20
156.9053814532423
 30
0.0
 11
167.3623967548029
 21
154.572048119909
 31
0.0
 12
160.3623967548029
 22
155.7387147865757
 32
0.0
 13
160.3623967548029
 23
155.7387147865757
 33
0.0
  0
SOLID
  5
18E6
330
17FC
100
AcDbEntity
  8
BEM
 62
     0
100
AcDbTrace
 10
255.3623967548033
 20
156.9053814532423
 30
0.0
 11
255.3623967548033
 21
154.572048119909
 31
0.0
 12
262.3623967548033
 22
155.7387147865757
 32
0.0
 13
262.3623967548033
 23
155.7387147865757
 33
0.0
  0
MTEXT
  5
18E7
330
17FC
100
AcDbEntity
  8
BEM
 62
     1
100
AcDbMText
 10
211.3623967548031
 20
162.2387147865757
 30
0.0
 40
7.0
 41
0.0
 71
     5
 72
     1
  1
\A1;%%c102
 73
     1
 44
1.0
  0
POINT
  5
18E8
330
17FC
100
AcDbEntity
  8
DEFPOINTS
 62
     0
100
AcDbPoint
 10
160.3623967548029
 20
181.6344901730046
 30
0.0
  0
POINT
  5
18E9
330
17FC
100
AcDbEntity
  8
DEFPOINTS
 62
     0
100
AcDbPoint
 10
262.3623967548033
 20
181.6344901730061
 30
0.0
  0
POINT
  5
18EA
330
17FC
100
AcDbEntity
  8
DEFPOINTS
 62
     0
100
AcDbPoint
 10
262.3623967548033
 20
155.7387147865757
 30
0.0
  0
ENDBLK
  5
1807
330
17FC
100
AcDbEntity
  8
0
100
AcDbBlockEnd
  0
BLOCK
  5
1813
330
1809
100
AcDbEntity
  8
0
100
AcDbBlockBegin
  2
*D3
 70
     1
 10
0.0
 20
0.0
 30
0.0
  3
*D3
  1

  0
LINE
  5
18D9
330
1809
100
AcDbEntity
  8
BEM
 62
     0
370
    -2
100
AcDbLine
 10
131.8623967548035
 20
311.721812058822
 30
0.0
 11
131.8623967548035
 21
140.4766807159213
 31
0.0
  0
LINE
  5
18DA
330
1809
100
AcDbEntity
  8
BEM
 62
     0
370
    -2
100
AcDbLine
 10
290.8623967548034
 20
311.7218120588221
 30
0.0
 11
290.8623967548034
 21
140.4766807159213
 31
0.0
  0
LINE
  5
18DB
330
1809
100
AcDbEntity
  8
BEM
 62
     0
370
    -2
100
AcDbLine
 10
138.8623967548035
 20
142.4766807159213
 30
0.0
 11
283.8623967548034
 21
142.4766807159213
 31
0.0
  0
SOLID
  5
18DC
330
1809
100
AcDbEntity
  8
BEM
 62
     0
100
AcDbTrace
 10
138.8623967548035
 20
143.6433473825879
 30
0.0
 11
138.8623967548035
 21
141.3100140492546
 31
0.0
 12
131.8623967548035
 22
142.4766807159213
 32
0.0
 13
131.8623967548035
 23
142.4766807159213
 33
0.0
  0
SOLID
  5
18DD
330
1809
100
AcDbEntity
  8
BEM
 62
     0
100
AcDbTrace
 10
283.8623967548034
 20
143.6433473825879
 30
0.0
 11
283.8623967548034
 21
141.3100140492546
 31
0.0
 12
290.8623967548034
 22
142.4766807159213
 32
0.0
 13
290.8623967548034
 23
142.4766807159213
 33
0.0
  0
MTEXT
  5
18DE
330
1809
100
AcDbEntity
  8
BEM
 62
     1
100
AcDbMText
 10
211.3623967548035
 20
148.9766807159213
 30
0.0
 40
7.0
 41
0.0
 71
     5
 72
     1
  1
\A1;%%c159
 73
     1
 44
1.0
  0
POINT
  5
18DF
330
1809
100
AcDbEntity
  8
DEFPOINTS
 62
     0
100
AcDbPoint
 10
131.8623967548035
 20
313.721812058822
 30
0.0
  0
POINT
  5
18E0
330
1809
100
AcDbEntity
  8
DEFPOINTS
 62
     0
100
AcDbPoint
 10
290.8623967548034
 20
313.7218120588221
 30
0.0
  0
POINT
  5
18E1
330
1809
100
AcDbEntity
  8
DEFPOINTS
 62
     0
100
AcDbPoint
 10
290.8623967548034
 20
142.4766807159213
 30
0.0
  0
ENDBLK
  5
1814
330
1809
100
AcDbEntity
  8
0
100
AcDbBlockEnd
  0
BLOCK
  5
1820
330
1816
100
AcDbEntity
  8
0
100
AcDbBlockBegin
  2
*D4
 70
     1
 10
0.0
 20
0.0
 30
0.0
  3
*D4
  1

  0
LINE
  5
18D0
330
1816
100
AcDbEntity
  8
BEM
 62
     0
370
    -2
100
AcDbLine
 10
88.86239675480352
 20
406.7218120588219
 30
0.0
 11
88.8623967548035
 21
126.3349306137846
 31
0.0
  0
LINE
  5
18D1
330
1816
100
AcDbEntity
  8
BEM
 62
     0
370
    -2
100
AcDbLine
 10
333.8623967548033
 20
406.7218120588219
 30
0.0
 11
333.8623967548033
 21
126.3349306137846
 31
0.0
  0
LINE
  5
18D2
330
1816
100
AcDbEntity
  8
BEM
 62
     0
370
    -2
100
AcDbLine
 10
95.86239675480349
 20
128.3349306137846
 30
0.0
 11
326.8623967548033
 21
128.3349306137846
 31
0.0
  0
SOLID
  5
18D3
330
1816
100
AcDbEntity
  8
BEM
 62
     0
100
AcDbTrace
 10
95.86239675480349
 20
129.5015972804512
 30
0.0
 11
95.86239675480349
 21
127.1682639471179
 31
0.0
 12
88.8623967548035
 22
128.3349306137846
 32
0.0
 13
88.8623967548035
 23
128.3349306137846
 33
0.0
  0
SOLID
  5
18D4
330
1816
100
AcDbEntity
  8
BEM
 62
     0
100
AcDbTrace
 10
326.8623967548033
 20
129.5015972804512
 30
0.0
 11
326.8623967548033
 21
127.1682639471179
 31
0.0
 12
333.8623967548033
 22
128.3349306137846
 32
0.0
 13
333.8623967548033
 23
128.3349306137846
 33
0.0
  0
MTEXT
  5
18D5
330
1816
100
AcDbEntity
  8
BEM
 62
     1
100
AcDbMText
 10
211.3623967548034
 20
134.8349306137846
 30
0.0
 40
7.0
 41
0.0
 71
     5
 72
     1
  1
\A1;%%c245
 73
     1
 44
1.0
  0
POINT
  5
18D6
330
1816
100
AcDbEntity
  8
DEFPOINTS
 62
     0
100
AcDbPoint
 10
88.86239675480352
 20
408.7218120588219
 30
0.0
  0
POINT
  5
18D7
330
1816
100
AcDbEntity
  8
DEFPOINTS
 62
     0
100
AcDbPoint
 10
333.8623967548033
 20
408.7218120588219
 30
0.0
  0
POINT
  5
18D8
330
1816
100
AcDbEntity
  8
DEFPOINTS
 62
     0
100
AcDbPoint
 10
333.8623967548033
 20
128.3349306137846
 30
0.0
  0
ENDBLK
  5
1821
330
1816
100
AcDbEntity
  8
0
100
AcDbBlockEnd
  0
BLOCK
  5
1848
330
183E
100
AcDbEntity
  8
0
100
AcDbBlockBegin
  2
*D5
 70
     1
 10
0.0
 20
0.0
 30
0.0
  3
*D5
  1

  0
LINE
  5
18C7
330
183E
100
AcDbEntity
  8
BEM
 62
     0
370
    -2
100
AcDbLine
 10
126.8623967548036
 20
483.721812058822
 30
0.0
 11
75.99834607342976
 21
483.721812058822
 31
0.0
  0
LINE
  5
18C8
330
183E
100
AcDbEntity
  8
BEM
 62
     0
370
    -2
100
AcDbLine
 10
91.03111777101617
 20
403.7218120588218
 30
0.0
 11
75.99834607342973
 21
403.7218120588218
 31
0.0
  0
LINE
  5
18C9
330
183E
100
AcDbEntity
  8
BEM
 62
     0
370
    -2
100
AcDbLine
 10
77.99834607342974
 20
476.721812058822
 30
0.0
 11
77.99834607342972
 21
410.7218120588219
 31
0.0
  0
SOLID
  5
18CA
330
183E
100
AcDbEntity
  8
BEM
 62
     0
100
AcDbTrace
 10
76.83167940676307
 20
476.721812058822
 30
0.0
 11
79.16501274009641
 21
476.721812058822
 31
0.0
 12
77.99834607342976
 22
483.721812058822
 32
0.0
 13
77.99834607342976
 23
483.721812058822
 33
0.0
  0
SOLID
  5
18CB
330
183E
100
AcDbEntity
  8
BEM
 62
     0
100
AcDbTrace
 10
76.83167940676305
 20
410.7218120588219
 30
0.0
 11
79.1650127400964
 21
410.7218120588219
 31
0.0
 12
77.99834607342972
 22
403.7218120588218
 32
0.0
 13
77.99834607342972
 23
403.7218120588218
 33
0.0
  0
MTEXT
  5
18CC
330
183E
100
AcDbEntity
  8
BEM
 62
     1
100
AcDbMText
 10
71.49834607342967
 20
443.7218120588219
 30
0.0
 40
7.0
 41
0.0
 71
     5
 72
     1
  1
\A1;80
 11
0.0000000000000001
 21
1.0
 31
0.0
 73
     1
 44
1.0
  0
POINT
  5
18CD
330
183E
100
AcDbEntity
  8
DEFPOINTS
 62
     0
100
AcDbPoint
 10
128.8623967548036
 20
483.7218120588219
 30
0.0
  0
POINT
  5
18CE
330
183E
100
AcDbEntity
  8
DEFPOINTS
 62
     0
100
AcDbPoint
 10
93.03111777101618
 20
403.7218120588218
 30
0.0
  0
POINT
  5
18CF
330
183E
100
AcDbEntity
  8
DEFPOINTS
 62
     0
100
AcDbPoint
 10
77.99834607342972
 20
403.7218120588218
 30
0.0
  0
ENDBLK
  5
1849
330
183E
100
AcDbEntity
  8
0
100
AcDbBlockEnd
  0
BLOCK
  5
1855
330
184B
100
AcDbEntity
  8
0
100
AcDbBlockBegin
  2
*D6
 70
     1
 10
0.0
 20
0.0
 30
0.0
  3
*D6
  1

  0
LINE
  5
18BE
330
184B
100
AcDbEntity
  8
BEM
 62
     0
370
    -2
100
AcDbLine
 10
126.8623967548036
 20
483.721812058822
 30
0.0
 11
61.99834607342971
 21
483.721812058822
 31
0.0
  0
LINE
  5
18BF
330
184B
100
AcDbEntity
  8
BEM
 62
     0
370
    -2
100
AcDbLine
 10
129.8623967548035
 20
313.721812058822
 30
0.0
 11
61.99834607342967
 21
313.7218120588221
 31
0.0
  0
LINE
  5
18C0
330
184B
100
AcDbEntity
  8
BEM
 62
     0
370
    -2
100
AcDbLine
 10
63.9983460734297
 20
476.721812058822
 30
0.0
 11
63.99834607342967
 21
320.7218120588221
 31
0.0
  0
SOLID
  5
18C1
330
184B
100
AcDbEntity
  8
BEM
 62
     0
100
AcDbTrace
 10
62.83167940676304
 20
476.721812058822
 30
0.0
 11
65.16501274009637
 21
476.721812058822
 31
0.0
 12
63.9983460734297
 22
483.721812058822
 32
0.0
 13
63.9983460734297
 23
483.721812058822
 33
0.0
  0
SOLID
  5
18C2
330
184B
100
AcDbEntity
  8
BEM
 62
     0
100
AcDbTrace
 10
62.83167940676301
 20
320.7218120588221
 30
0.0
 11
65.16501274009634
 21
320.7218120588221
 31
0.0
 12
63.99834607342967
 22
313.7218120588221
 32
0.0
 13
63.99834607342967
 23
313.7218120588221
 33
0.0
  0
MTEXT
  5
18C3
330
184B
100
AcDbEntity
  8
BEM
 62
     1
100
AcDbMText
 10
57.49834607342962
 20
398.721812058822
 30
0.0
 40
7.0
 41
0.0
 71
     5
 72
     1
  1
\A1;170
 11
0.0000000000000001
 21
1.0
 31
0.0
 73
     1
 44
1.0
  0
POINT
  5
18C4
330
184B
100
AcDbEntity
  8
DEFPOINTS
 62
     0
100
AcDbPoint
 10
128.8623967548036
 20
483.7218120588219
 30
0.0
  0
POINT
  5
18C5
330
184B
100
AcDbEntity
  8
DEFPOINTS
 62
     0
100
AcDbPoint
 10
131.8623967548035
 20
313.721812058822
 30
0.0
  0
POINT
  5
18C6
330
184B
100
AcDbEntity
  8
DEFPOINTS
 62
     0
100
AcDbPoint
 10
63.99834607342967
 20
313.7218120588221
 30
0.0
  0
ENDBLK
  5
1856
330
184B
100
AcDbEntity
  8
0
100
AcDbBlockEnd
  0
BLOCK
  5
186F
330
1865
100
AcDbEntity
  8
0
100
AcDbBlockBegin
  2
*D7
 70
     1
 10
0.0
 20
0.0
 30
0.0
  3
*D7
  1

  0
LINE
  5
18B5
330
1865
100
AcDbEntity
  8
BEM
 62
     0
370
    -2
100
AcDbLine
 10
126.8623967548036
 20
483.721812058822
 30
0.0
 11
47.1297569653707
 21
483.721812058822
 31
0.0
  0
LINE
  5
18B6
330
1865
100
AcDbEntity
  8
BEM
 62
     0
370
    -2
100
AcDbLine
 10
159.0546663879236
 20
173.7218120588219
 30
0.0
 11
47.12975696537063
 21
173.7218120588219
 31
0.0
  0
LINE
  5
18B7
330
1865
100
AcDbEntity
  8
BEM
 62
     0
370
    -2
100
AcDbLine
 10
49.12975696537071
 20
476.721812058822
 30
0.0
 11
49.12975696537063
 21
180.7218120588219
 31
0.0
  0
SOLID
  5
18B8
330
1865
100
AcDbEntity
  8
BEM
 62
     0
100
AcDbTrace
 10
47.96309029870403
 20
476.721812058822
 30
0.0
 11
50.29642363203737
 21
476.721812058822
 31
0.0
 12
49.12975696537071
 22
483.721812058822
 32
0.0
 13
49.12975696537071
 23
483.721812058822
 33
0.0
  0
SOLID
  5
18B9
330
1865
100
AcDbEntity
  8
BEM
 62
     0
100
AcDbTrace
 10
47.96309029870397
 20
180.7218120588219
 30
0.0
 11
50.29642363203731
 21
180.7218120588219
 31
0.0
 12
49.12975696537063
 22
173.7218120588219
 32
0.0
 13
49.12975696537063
 23
173.7218120588219
 33
0.0
  0
MTEXT
  5
18BA
330
1865
100
AcDbEntity
  8
BEM
 62
     1
100
AcDbMText
 10
42.62975696537061
 20
328.721812058822
 30
0.0
 40
7.0
 41
0.0
 71
     5
 72
     1
  1
\A1;310
 11
0.0000000000000001
 21
1.0
 31
0.0
 73
     1
 44
1.0
  0
POINT
  5
18BB
330
1865
100
AcDbEntity
  8
DEFPOINTS
 62
     0
100
AcDbPoint
 10
128.8623967548036
 20
483.7218120588219
 30
0.0
  0
POINT
  5
18BC
330
1865
100
AcDbEntity
  8
DEFPOINTS
 62
     0
100
AcDbPoint
 10
161.0546663879236
 20
173.7218120588219
 30
0.0
  0
POINT
  5
18BD
330
1865
100
AcDbEntity
  8
DEFPOINTS
 62
     0
100
AcDbPoint
 10
49.12975696537063
 20
173.7218120588219
 30
0.0
  0
ENDBLK
  5
1870
330
1865
100
AcDbEntity
  8
0
100
AcDbBlockEnd
  0
BLOCK
  5
1893
330
1889
100
AcDbEntity
  8
0
100
AcDbBlockBegin
  2
*D8
 70
     1
 10
0.0
 20
0.0
 30
0.0
  3
*D8
  1

  0
LINE
  5
1910
330
1889
100
AcDbEntity
  8
BEM
 62
     0
370
    -2
100
AcDbLine
 10
126.8623967548036
 20
483.721812058822
 30
0.0
 11
47.12975696537067
 21
483.721812058822
 31
0.0
  0
LINE
  5
1911
330
1889
100
AcDbEntity
  8
BEM
 62
     0
370
    -2
100
AcDbLine
 10
155.5501212797625
 20
570.721812058822
 30
0.0
 11
47.12975696537069
 21
570.721812058822
 31
0.0
  0
LINE
  5
1912
330
1889
100
AcDbEntity
  8
BEM
 62
     0
370
    -2
100
AcDbLine
 10
49.12975696537067
 20
490.721812058822
 30
0.0
 11
49.12975696537069
 21
563.721812058822
 31
0.0
  0
SOLID
  5
1913
330
1889
100
AcDbEntity
  8
BEM
 62
     0
100
AcDbTrace
 10
47.963090298704
 20
490.721812058822
 30
0.0
 11
50.29642363203733
 21
490.721812058822
 31
0.0
 12
49.12975696537067
 22
483.721812058822
 32
0.0
 13
49.12975696537067
 23
483.721812058822
 33
0.0
  0
SOLID
  5
1914
330
1889
100
AcDbEntity
  8
BEM
 62
     0
100
AcDbTrace
 10
47.96309029870402
 20
563.721812058822
 30
0.0
 11
50.29642363203735
 21
563.721812058822
 31
0.0
 12
49.12975696537069
 22
570.721812058822
 32
0.0
 13
49.12975696537069
 23
570.721812058822
 33
0.0
  0
MTEXT
  5
1915
330
1889
100
AcDbEntity
  8
BEM
 62
     1
100
AcDbMText
 10
42.62975696537059
 20
527.2218120588219
 30
0.0
 40
7.0
 41
0.0
 71
     5
 72
     1
  1
\A1;100 - 128
 11
0.0000000000000001
 21
1.0
 31
0.0
 73
     1
 44
1.0
  0
POINT
  5
1916
330
1889
100
AcDbEntity
  8
DEFPOINTS
 62
     0
100
AcDbPoint
 10
128.8623967548036
 20
483.7218120588219
 30
0.0
  0
POINT
  5
1917
330
1889
100
AcDbEntity
  8
DEFPOINTS
 62
     0
100
AcDbPoint
 10
157.5501212797625
 20
570.721812058822
 30
0.0
  0
POINT
  5
1918
330
1889
100
AcDbEntity
  8
DEFPOINTS
 62
     0
100
AcDbPoint
 10
49.12975696537069
 20
570.721812058822
 30
0.0
  0
ENDBLK
  5
1894
330
1889
100
AcDbEntity
  8
0
100
AcDbBlockEnd
  0
BLOCK
  5
1C19
330
1C0F
100
AcDbEntity
  8
0
100
AcDbBlockBegin
  2
*D9
 70
     1
 10
0.0
 20
0.0
 30
0.0
  3
*D9
  1

  0
LINE
  5
1C79
330
1C0F
100
AcDbEntity
  8
BEM
 62
     0
370
    -2
100
AcDbLine
 10
81.362396754804
 20
601.2218120588226
 30
0.0
 11
81.36239675480402
 21
720.3300011924952
 31
0.0
  0
LINE
  5
1C7A
330
1C0F
100
AcDbEntity
  8
BEM
 62
     0
370
    -2
100
AcDbLine
 10
341.362396754804
 20
601.2218120588214
 30
0.0
 11
341.362396754804
 21
720.3300011924952
 31
0.0
  0
LINE
  5
1C7B
330
1C0F
100
AcDbEntity
  8
BEM
 62
     0
370
    -2
100
AcDbLine
 10
88.36239675480401
 20
718.3300011924951
 30
0.0
 11
334.362396754804
 21
718.3300011924951
 31
0.0
  0
SOLID
  5
1C7C
330
1C0F
100
AcDbEntity
  8
BEM
 62
     0
100
AcDbTrace
 10
88.36239675480401
 20
719.4966678591618
 30
0.0
 11
88.36239675480401
 21
717.1633345258285
 31
0.0
 12
81.36239675480402
 22
718.3300011924951
 32
0.0
 13
81.36239675480402
 23
718.3300011924951
 33
0.0
  0
SOLID
  5
1C7D
330
1C0F
100
AcDbEntity
  8
BEM
 62
     0
100
AcDbTrace
 10
334.362396754804
 20
719.4966678591618
 30
0.0
 11
334.362396754804
 21
717.1633345258285
 31
0.0
 12
341.362396754804
 22
718.3300011924951
 32
0.0
 13
341.362396754804
 23
718.3300011924951
 33
0.0
  0
MTEXT
  5
1C7E
330
1C0F
100
AcDbEntity
  8
BEM
 62
     1
100
AcDbMText
 10
211.362396754804
 20
724.8300011924952
 30
0.0
 40
7.0
 41
0.0
 71
     5
 72
     1
  1
\A1;%%c260
 73
     1
 44
1.0
  0
POINT
  5
1C7F
330
1C0F
100
AcDbEntity
  8
DEFPOINTS
 62
     0
100
AcDbPoint
 10
81.362396754804
 20
599.2218120588225
 30
0.0
  0
POINT
  5
1C80
330
1C0F
100
AcDbEntity
  8
DEFPOINTS
 62
     0
100
AcDbPoint
 10
341.362396754804
 20
599.2218120588214
 30
0.0
  0
POINT
  5
1C81
330
1C0F
100
AcDbEntity
  8
DEFPOINTS
 62
     0
100
AcDbPoint
 10
341.362396754804
 20
718.3300011924951
 30
0.0
  0
ENDBLK
  5
1C1A
330
1C0F
100
AcDbEntity
  8
0
100
AcDbBlockEnd
  0
BLOCK
  5
1C27
330
1C1B
100
AcDbEntity
  8
0
100
AcDbBlockBegin
  2
*D10
 70
     1
 10
0.0
 20
0.0
 30
0.0
  3
*D10
  1

  0
LINE
  5
1C82
330
1C1B
100
AcDbEntity
  8
BEM
 62
     0
370
    -2
100
AcDbLine
 10
79.36239675480388
 20
598.2218120588217
 30
0.0
 11
53.70113675972852
 21
598.2218120588217
 31
0.0
  0
LINE
  5
1C83
330
1C1B
100
AcDbEntity
  8
BEM
 62
     0
370
    -2
100
AcDbLine
 10
74.36239675480393
 20
583.2218120588217
 30
0.0
 11
53.70113675972851
 21
583.2218120588217
 31
0.0
  0
LINE
  5
1C84
330
1C1B
100
AcDbEntity
  8
BEM
 62
     0
370
    -2
100
AcDbLine
 10
55.70113675972852
 20
605.2218120588216
 30
0.0
 11
55.70113675972852
 21
612.2218120588216
 31
0.0
  0
LINE
  5
1C85
330
1C1B
100
AcDbEntity
  8
BEM
 62
     0
370
    -2
100
AcDbLine
 10
55.70113675972852
 20
576.2218120588218
 30
0.0
 11
55.70113675972852
 21
569.2218120588218
 31
0.0
  0
LINE
  5
1C86
330
1C1B
100
AcDbEntity
  8
BEM
 62
     0
370
    -2
100
AcDbLine
 10
55.70113675972852
 20
598.2218120588217
 30
0.0
 11
55.70113675972852
 21
583.2218120588217
 31
0.0
  0
SOLID
  5
1C87
330
1C1B
100
AcDbEntity
  8
BEM
 62
     0
100
AcDbTrace
 10
54.53447009306185
 20
605.2218120588216
 30
0.0
 11
56.86780342639519
 21
605.2218120588216
 31
0.0
 12
55.70113675972852
 22
598.2218120588217
 32
0.0
 13
55.70113675972852
 23
598.2218120588217
 33
0.0
  0
SOLID
  5
1C88
330
1C1B
100
AcDbEntity
  8
BEM
 62
     0
100
AcDbTrace
 10
54.53447009306184
 20
576.2218120588218
 30
0.0
 11
56.86780342639518
 21
576.2218120588218
 31
0.0
 12
55.70113675972852
 22
583.2218120588217
 32
0.0
 13
55.70113675972852
 23
583.2218120588217
 33
0.0
  0
MTEXT
  5
1C89
330
1C1B
100
AcDbEntity
  8
BEM
 62
     1
100
AcDbMText
 10
49.20113675972842
 20
590.7218120588217
 30
0.0
 40
7.0
 41
0.0
 71
     5
 72
     1
  1
\A1;15
 11
0.0000000000000001
 21
1.0
 31
0.0
 73
     1
 44
1.0
  0
POINT
  5
1C8A
330
1C1B
100
AcDbEntity
  8
DEFPOINTS
 62
     0
100
AcDbPoint
 10
81.36239675480387
 20
598.2218120588217
 30
0.0
  0
POINT
  5
1C8B
330
1C1B
100
AcDbEntity
  8
DEFPOINTS
 62
     0
100
AcDbPoint
 10
76.36239675480394
 20
583.2218120588217
 30
0.0
  0
POINT
  5
1C8C
330
1C1B
100
AcDbEntity
  8
DEFPOINTS
 62
     0
100
AcDbPoint
 10
55.70113675972852
 20
583.2218120588217
 30
0.0
  0
ENDBLK
  5
1C28
330
1C1B
100
AcDbEntity
  8
0
100
AcDbBlockEnd
  0
BLOCK
  5
1C33
330
1C29
100
AcDbEntity
  8
0
100
AcDbBlockBegin
  2
*D11
 70
     1
 10
0.0
 20
0.0
 30
0.0
  3
*D11
  1

  0
LINE
  5
1C70
330
1C29
100
AcDbEntity
  8
BEM
 62
     0
370
    -2
100
AcDbLine
 10
101.3623967548041
 20
670.2217540915061
 30
0.0
 11
101.3623967548041
 21
705.9607804747711
 31
0.0
  0
LINE
  5
1C71
330
1C29
100
AcDbEntity
  8
BEM
 62
     0
370
    -2
100
AcDbLine
 10
321.3623967548043
 20
670.2217540915061
 30
0.0
 11
321.3623967548043
 21
705.9607804747711
 31
0.0
  0
LINE
  5
1C72
330
1C29
100
AcDbEntity
  8
BEM
 62
     0
370
    -2
100
AcDbLine
 10
108.3623967548041
 20
703.9607804747711
 30
0.0
 11
314.3623967548043
 21
703.9607804747711
 31
0.0
  0
SOLID
  5
1C73
330
1C29
100
AcDbEntity
  8
BEM
 62
     0
100
AcDbTrace
 10
108.3623967548041
 20
705.1274471414378
 30
0.0
 11
108.3623967548041
 21
702.7941138081045
 31
0.0
 12
101.3623967548041
 22
703.9607804747711
 32
0.0
 13
101.3623967548041
 23
703.9607804747711
 33
0.0
  0
SOLID
  5
1C74
330
1C29
100
AcDbEntity
  8
BEM
 62
     0
100
AcDbTrace
 10
314.3623967548043
 20
705.1274471414378
 30
0.0
 11
314.3623967548043
 21
702.7941138081045
 31
0.0
 12
321.3623967548043
 22
703.9607804747711
 32
0.0
 13
321.3623967548043
 23
703.9607804747711
 33
0.0
  0
MTEXT
  5
1C75
330
1C29
100
AcDbEntity
  8
BEM
 62
     1
100
AcDbMText
 10
211.3623967548042
 20
710.4607804747711
 30
0.0
 40
7.0
 41
0.0
 71
     5
 72
     1
  1
\A1;%%c220
 73
     1
 44
1.0
  0
POINT
  5
1C76
330
1C29
100
AcDbEntity
  8
DEFPOINTS
 62
     0
100
AcDbPoint
 10
101.3623967548041
 20
668.2217540915061
 30
0.0
  0
POINT
  5
1C77
330
1C29
100
AcDbEntity
  8
DEFPOINTS
 62
     0
100
AcDbPoint
 10
321.3623967548043
 20
668.2217540915061
 30
0.0
  0
POINT
  5
1C78
330
1C29
100
AcDbEntity
  8
DEFPOINTS
 62
     0
100
AcDbPoint
 10
321.3623967548043
 20
703.9607804747711
 30
0.0
  0
ENDBLK
  5
1C34
330
1C29
100
AcDbEntity
  8
0
100
AcDbBlockEnd
  0
BLOCK
  5
1C3F
330
1C35
100
AcDbEntity
  8
0
100
AcDbBlockBegin
  2
*D12
 70
     1
 10
0.0
 20
0.0
 30
0.0
  3
*D12
  1

  0
LINE
  5
1C67
330
1C35
100
AcDbEntity
  8
BEM
 62
     0
370
    -2
100
AcDbLine
 10
79.36239675480411
 20
598.2218120588217
 30
0.0
 11
53.70113675972852
 21
598.2218120588217
 31
0.0
  0
LINE
  5
1C68
330
1C35
100
AcDbEntity
  8
BEM
 62
     0
370
    -2
100
AcDbLine
 10
129.3623967548041
 20
688.2218120588208
 30
0.0
 11
53.70113675972854
 21
688.2218120588208
 31
0.0
  0
LINE
  5
1C69
330
1C35
100
AcDbEntity
  8
BEM
 62
     0
370
    -2
100
AcDbLine
 10
55.70113675972852
 20
605.2218120588216
 30
0.0
 11
55.70113675972853
 21
681.2218120588209
 31
0.0
  0
SOLID
  5
1C6A
330
1C35
100
AcDbEntity
  8
BEM
 62
     0
100
AcDbTrace
 10
54.53447009306185
 20
605.2218120588216
 30
0.0
 11
56.86780342639519
 21
605.2218120588216
 31
0.0
 12
55.70113675972852
 22
598.2218120588217
 32
0.0
 13
55.70113675972852
 23
598.2218120588217
 33
0.0
  0
SOLID
  5
1C6B
330
1C35
100
AcDbEntity
  8
BEM
 62
     0
100
AcDbTrace
 10
54.53447009306187
 20
681.2218120588209
 30
0.0
 11
56.8678034263952
 21
681.2218120588209
 31
0.0
 12
55.70113675972854
 22
688.2218120588208
 32
0.0
 13
55.70113675972854
 23
688.2218120588208
 33
0.0
  0
MTEXT
  5
1C6C
330
1C35
100
AcDbEntity
  8
BEM
 62
     1
100
AcDbMText
 10
49.20113675972842
 20
643.2218120588213
 30
0.0
 40
7.0
 41
0.0
 71
     5
 72
     1
  1
\A1;90
 11
0.0000000000000001
 21
1.0
 31
0.0
 73
     1
 44
1.0
  0
POINT
  5
1C6D
330
1C35
100
AcDbEntity
  8
DEFPOINTS
 62
     0
100
AcDbPoint
 10
81.3623967548041
 20
598.2218120588217
 30
0.0
  0
POINT
  5
1C6E
330
1C35
100
AcDbEntity
  8
DEFPOINTS
 62
     0
100
AcDbPoint
 10
131.3623967548041
 20
688.2218120588208
 30
0.0
  0
POINT
  5
1C6F
330
1C35
100
AcDbEntity
  8
DEFPOINTS
 62
     0
100
AcDbPoint
 10
55.70113675972854
 20
688.2218120588208
 30
0.0
  0
ENDBLK
  5
1C40
330
1C35
100
AcDbEntity
  8
0
100
AcDbBlockEnd
  0
ENDSEC
  0
SECTION
  2
ENTITIES
  0
LINE
  5
58
330
1E
100
AcDbEntity
  8
STEMPEL
100
AcDbLine
 10
484.0
 20
830.0000000000002
 30
0.0
 11
484.0
 21
470.0000000000001
 31
0.0
  0
LINE
  5
59
330
1E
100
AcDbEntity
  8
STEMPEL
100
AcDbLine
 10
484.0
 20
470.0000000000001
 30
0.0
 11
584.0
 21
470.0000000000001
 31
0.0
  0
LINE
  5
5A
330
1E
100
AcDbEntity
  8
STEMPEL
100
AcDbLine
 10
484.0000000000001
 20
566.0000000000002
 30
0.0
 11
584.0000000000001
 21
566.0
 31
0.0
  0
LINE
  5
5B
330
1E
100
AcDbEntity
  8
STEMPEL
100
AcDbLine
 10
484.0
 20
650.0
 30
0.0
 11
584.0
 21
650.0
 31
0.0
  0
LINE
  5
5C
330
1E
100
AcDbEntity
  8
STEMPEL
100
AcDbLine
 10
484.0000000000003
 20
752.0000000000002
 30
0.0
 11
554.0
 21
752.0000000000002
 31
0.0
  0
LINE
  5
5D
330
1E
100
AcDbEntity
  8
STEMPEL
100
AcDbLine
 10
564.0
 20
566.0
 30
0.0
 11
564.0
 21
470.0000000000001
 31
0.0
  0
LINE
  5
5E
330
1E
100
AcDbEntity
  8
STEMPEL
100
AcDbLine
 10
554.0
 20
830.0000000000002
 30
0.0
 11
554.0
 21
566.0
 31
0.0
  0
LINE
  5
5F
330
1E
100
AcDbEntity
  8
STEMPEL
100
AcDbLine
 10
514.0
 20
830.0000000000002
 30
0.0
 11
514.0
 21
566.0000000000002
 31
0.0
  0
LINE
  5
60
330
1E
100
AcDbEntity
  8
VOLL
100
AcDbLine
 10
484.0
 20
484.0000000000001
 30
0.0
 11
584.0
 21
484.0
 31
0.0
  0
LINE
  5
61
330
1E
100
AcDbEntity
  8
VOLL
100
AcDbLine
 10
484.0000000000001
 20
524.0000000000001
 30
0.0
 11
584.0000000000001
 21
524.0
 31
0.0
  0
LINE
  5
62
330
1E
100
AcDbEntity
  8
VOLL
100
AcDbLine
 10
484.0000000000001
 20
544.0000000000002
 30
0.0
 11
584.0000000000001
 21
544.0
 31
0.0
  0
LINE
  5
63
330
1E
100
AcDbEntity
  8
VOLL
100
AcDbLine
 10
514.0
 20
584.0000000000002
 30
0.0
 11
554.0
 21
584.0000000000002
 31
0.0
  0
LINE
  5
64
330
1E
100
AcDbEntity
  8
VOLL
100
AcDbLine
 10
484.0000000000002
 20
610.0000000000002
 30
0.0
 11
554.0
 21
610.0
 31
0.0
  0
LINE
  5
65
330
1E
100
AcDbEntity
  8
HILF
100
AcDbLine
 10
494.0
 20
470.0000000000001
 30
0.0
 11
494.0
 21
566.0000000000002
 31
0.0
  0
LINE
  5
66
330
1E
100
AcDbEntity
  8
HILF
100
AcDbLine
 10
504.0
 20
470.0000000000001
 30
0.0
 11
504.0
 21
566.0000000000002
 31
0.0
  0
LINE
  5
67
330
1E
100
AcDbEntity
  8
HILF
100
AcDbLine
 10
514.0
 20
470.0000000000001
 30
0.0
 11
514.0
 21
566.0000000000002
 31
0.0
  0
LINE
  5
68
330
1E
100
AcDbEntity
  8
HILF
100
AcDbLine
 10
524.0
 20
470.0000000000001
 30
0.0
 11
524.0
 21
566.0000000000002
 31
0.0
  0
LINE
  5
69
330
1E
100
AcDbEntity
  8
HILF
100
AcDbLine
 10
534.0
 20
470.0000000000001
 30
0.0
 11
534.0
 21
566.0000000000002
 31
0.0
  0
LINE
  5
6A
330
1E
100
AcDbEntity
  8
HILF
100
AcDbLine
 10
544.0
 20
470.0000000000001
 30
0.0
 11
544.0
 21
566.0000000000002
 31
0.0
  0
LINE
  5
6B
330
1E
100
AcDbEntity
  8
HILF
100
AcDbLine
 10
554.0
 20
470.0000000000001
 30
0.0
 11
554.0
 21
566.0000000000002
 31
0.0
  0
LINE
  5
6C
330
1E
100
AcDbEntity
  8
HILF
100
AcDbLine
 10
524.0
 20
566.0000000000002
 30
0.0
 11
524.0
 21
650.0
 31
0.0
  0
LINE
  5
6D
330
1E
100
AcDbEntity
  8
HILF
100
AcDbLine
 10
534.0
 20
566.0000000000002
 30
0.0
 11
534.0
 21
650.0
 31
0.0
  0
LINE
  5
6E
330
1E
100
AcDbEntity
  8
HILF
100
AcDbLine
 10
544.0
 20
566.0000000000002
 30
0.0
 11
544.0
 21
650.0
 31
0.0
  0
LINE
  5
6F
330
1E
100
AcDbEntity
  8
HILF
100
AcDbLine
 10
509.9624175243587
 20
654.7736801096948
 30
0.0
 11
509.9624175243587
 21
746.6297842514811
 31
0.0
  0
LINE
  5
70
330
1E
100
AcDbEntity
  8
HILF
100
AcDbLine
 10
524.0
 20
654.7736801096948
 30
0.0
 11
524.0
 21
746.6297842514811
 31
0.0
  0
LINE
  5
71
330
1E
100
AcDbEntity
  8
HILF
100
AcDbLine
 10
534.0
 20
654.7736801096948
 30
0.0
 11
534.0
 21
746.6297842514811
 31
0.0
  0
LINE
  5
72
330
1E
100
AcDbEntity
  8
HILF
100
AcDbLine
 10
544.0
 20
654.7736801096948
 30
0.0
 11
544.0
 21
746.6297842514811
 31
0.0
  0
LINE
  5
73
330
1E
100
AcDbEntity
  8
VOLL
100
AcDbLine
 10
534.0
 20
752.0000000000002
 30
0.0
 11
534.0
 21
830.0000000000002
 31
0.0
  0
LINE
  5
74
330
1E
100
AcDbEntity
  8
HILF
100
AcDbLine
 10
510.2201636304418
 20
756.7238616296995
 30
0.0
 11
510.2201636304418
 21
824.858883932673
 31
0.0
  0
LINE
  5
75
330
1E
100
AcDbEntity
  8
HILF
100
AcDbLine
 10
579.1060174197169
 20
654.7736801096948
 30
0.0
 11
579.1060174197169
 21
824.858883932673
 31
0.0
  0
TEXT
  5
76
330
1E
100
AcDbEntity
  8
TEXT
100
AcDbText
 10
575.3261810501587
 20
492.3998239263297
 30
0.0
 40
4.0
  1
Änderung
 50
90.0
 41
0.8
  7
GREEKS
 72
     1
 11
575.3261810501587
 21
503.1426810691868
 31
0.0
100
AcDbText
  0
TEXT
  5
78
330
1E
100
AcDbEntity
  8
TEXT
100
AcDbText
 10
491.5379104912911
 20
573.5163572150376
 30
0.0
 40
5.0
  1
Maßstab
 50
90.0
 41
0.8
  7
GREEKS
100
AcDbText
  0
TEXT
  5
79
330
1E
100
AcDbEntity
  8
TEXT
100
AcDbText
 10
491.4510671988221
 20
654.8779403809009
 30
0.0
 40
5.0
  1
Benennung
 50
90.0
 41
0.8
  7
GREEKS
100
AcDbText
  0
TEXT
  5
7A
330
1E
100
AcDbEntity
  8
TEXT
100
AcDbText
 10
491.6867965462863
 20
756.1787549576343
 30
0.0
 40
5.0
  1
Zeichnungs Nr.
 50
90.0
 41
0.8
  7
GREEKS
100
AcDbText
  0
TEXT
  5
7B
330
1E
100
AcDbEntity
  8
TEXT
100
AcDbText
 10
563.1543942980694
 20
654.7422383911359
 30
0.0
 40
5.0
  1
Bauvorhaben
 50
90.0
 41
0.8
  7
GREEKS
100
AcDbText
  0
TEXT
  5
7C
330
1E
100
AcDbEntity
  8
TEXT
100
AcDbText
 10
520.8188176290003
 20
756.7238616296995
 30
0.0
 40
5.0
  1
Ersatz für:
 50
90.0
 41
0.8
  7
GREEKS
100
AcDbText
  0
TEXT
  5
7D
330
1E
100
AcDbEntity
  8
TEXT
100
AcDbText
 10
580.3453415397281
 20
478.2664110704577
 30
0.0
 40
4.0
  1
Index
 50
180.0
 41
0.8
  7
GREEKS
100
AcDbText
  0
TEXT
  5
7E
330
1E
100
AcDbEntity
  8
TEXT
100
AcDbText
 10
575.3284373066019
 20
529.8990113186978
 30
0.0
 40
4.0
  1
Tag
 50
90.0
 41
0.8
  7
GREEKS
 72
     1
 11
575.3284373066019
 21
533.6323446520311
 31
0.0
100
AcDbText
  0
TEXT
  5
7F
330
1E
100
AcDbEntity
  8
TEXT
100
AcDbText
 10
575.4067578303359
 20
548.9795678138292
 30
0.0
 40
4.0
  1
Name
 50
90.0
 41
0.8
  7
GREEKS
 72
     1
 11
575.4067578303359
 21
555.3033773376387
 31
0.0
100
AcDbText
  0
TEXT
  5
80
330
1E
100
AcDbEntity
  8
TEXT
100
AcDbText
 10
520.6811949877008
 20
592.3311673153651
 30
0.0
 40
4.0
  1
Tag
 50
90.0
 41
0.8
  7
GREEKS
100
AcDbText
  0
TEXT
  5
81
330
1E
100
AcDbEntity
  8
TEXT
100
AcDbText
 10
520.6903890808478
 20
622.4626584226296
 30
0.0
 40
4.0
  1
Name
 50
90.0
 41
0.8
  7
GREEKS
100
AcDbText
  0
TEXT
  5
82
330
1E
100
AcDbEntity
  8
TEXT
100
AcDbText
 10
530.3700963038204
 20
567.5836127167615
 30
0.0
 40
4.0
  1
Gez.
 50
90.0
 41
0.8
  7
GREEKS
100
AcDbText
  0
TEXT
  5
83
330
1E
100
AcDbEntity
  8
TEXT
100
AcDbText
 10
540.3107370857163
 20
567.5515086571672
 30
0.0
 40
4.0
  1
Gepr.
 50
90.0
 41
0.8
  7
GREEKS
100
AcDbText
  0
TEXT
  5
84
330
1E
100
AcDbEntity
  8
TEXT
100
AcDbText
 10
550.470536103502
 20
567.6006777387303
 30
0.0
 40
4.0
  1
Norm.
 50
90.0
 41
0.8
  7
GREEKS
100
AcDbText
  0
TEXT
  5
85
330
1E
100
AcDbEntity
  8
TEXT
100
AcDbText
 10
541.925838221214
 20
757.2400861497007
 30
0.0
 40
5.0
  1
ersetzt durch:
 50
90.0
 41
0.8
  7
GREEKS
100
AcDbText
  0
TEXT
  5
86
330
1E
100
AcDbEntity
  8
TEXT
100
AcDbText
 10
521.0331740347627
 20
568.8693027807324
 30
0.0
 40
4.0
  1
2012
 50
90.0
 41
0.8
  7
GREEKS
100
AcDbText
  0
LINE
  5
87
330
1E
100
AcDbEntity
  8
HILF
100
AcDbLine
 10
594.0
 20
-0.0000000000000568
 30
0.0
 11
594.0
 21
840.0
 31
0.0
  0
LINE
  5
88
330
1E
100
AcDbEntity
  8
HILF
100
AcDbLine
 10
594.0
 20
840.0
 30
0.0
 11
0.0
 21
840.0
 31
0.0
  0
LINE
  5
89
330
1E
100
AcDbEntity
  8
HILF
100
AcDbLine
 10
0.0
 20
840.0
 30
0.0
 11
0.0
 21
0.0
 31
0.0
  0
LINE
  5
8B
330
1E
100
AcDbEntity
  8
STEMPEL
100
AcDbLine
 10
10.0
 20
830.0
 30
0.0
 11
10.0
 21
39.99999999999995
 31
0.0
  0
LINE
  5
8D
330
1E
100
AcDbEntity
  8
STEMPEL
100
AcDbLine
 10
584.0
 20
39.99999999999995
 30
0.0
 11
584.0
 21
830.0
 31
0.0
  0
LINE
  5
8E
330
1E
100
AcDbEntity
  8
STEMPEL
100
AcDbLine
 10
584.0
 20
830.0
 30
0.0
 11
10.0
 21
830.0
 31
0.0
  0
TEXT
  5
8F
330
1E
100
AcDbEntity
  8
TEXT
 62
     1
100
AcDbText
 10
506.6265692434746
 20
655.0390572473189
 30
0.0
 40
7.0
  1
Notentwässerung
 50
90.0
 41
0.8
  7
GREEKS
100
AcDbText
  0
TEXT
  5
90
330
1E
100
AcDbEntity
  8
TEXT
 62
     1
100
AcDbText
 10
506.6265692434746
 20
768.2628088850803
 30
0.0
 40
7.0
  1
19511100W
 50
90.0
 41
0.8
  7
GREEKS
 72
     1
 11
506.6265692434746
 21
790.1294755517469
 31
0.0
100
AcDbText
  0
TEXT
  5
91
330
1E
100
AcDbEntity
  8
TEXT
100
AcDbText
 10
491.16010388621
 20
618.5090226415829
 30
0.0
 40
5.0
  1
Zul.Abw.
 50
90.0
 41
0.8
  7
GREEKS
100
AcDbText
  0
TEXT
  5
93
330
1E
100
AcDbEntity
  8
TEXT
100
AcDbText
 10
530.8491412387978
 20
590.4612856559488
 30
0.0
 40
4.0
  1
17.08.
 50
90.0
 41
0.8
  7
GREEKS
 72
     1
 11
530.8491412387978
 21
597.1660475607107
 31
0.0
100
AcDbText
  0
TEXT
  5
94
330
1E
100
AcDbEntity
  8
TEXT
100
AcDbText
 10
531.0570234483452
 20
624.0231753226609
 30
0.0
 40
4.0
  1
Koeh
 50
90.0
 41
0.8
  7
GREEKS
 72
     1
 11
531.0570234483452
 21
629.2803181798038
 31
0.0
100
AcDbText
  0
TEXT
  5
95
330
1E
100
AcDbEntity
  8
TEXT
100
AcDbText
 10
521.8997861689246
 20
654.3410940884991
 30
0.0
 40
5.0
  1
Dachdurchführung DN100
 50
90.0
 41
0.8
  7
GREEKS
100
AcDbText
  0
TEXT
  5
96
330
1E
100
AcDbEntity
  8
TEXT
100
AcDbText
 10
531.6544091479096
 20
654.3410940884991
 30
0.0
 40
5.0
  1
Freispiegelströmung
 50
90.0
 41
0.8
  7
GREEKS
100
AcDbText
  0
TEXT
  5
97
330
1E
100
AcDbEntity
  8
TEXT
100
AcDbText
 10
541.4090266215394
 20
654.3410940884991
 30
0.0
 40
5.0
  1
EDV-Art.Nr. 19511.100X
 50
90.0
 41
0.8
  7
GREEKS
100
AcDbText
  0
TEXT
  5
98
330
1E
100
AcDbEntity
  8
TEXT
100
AcDbText
 10
550.6887237520849
 20
654.1676050109347
 30
0.0
 40
4.0
  1
19511100W.DWG
 50
90.0
 41
0.8
  7
GREEKS
100
AcDbText
  0
TEXT
  5
99
330
1E
100
AcDbEntity
  8
TEXT
 62
     1
100
AcDbText
 10
506.5292291158502
 20
582.703491203422
 30
0.0
 40
7.0
  1
1:2
 50
90.0
 41
0.8
  7
GREEKS
100
AcDbText
  0
TEXT
  5
9A
330
1E
100
AcDbEntity
  8
TEXT
100
AcDbText
 10
479.8856414948956
 20
470.0441139350127
 30
0.0
 40
5.0
  1
Erstellt mit AUTOCAD 2004
 50
90.0
 41
0.8
  7
GREEKS
100
AcDbText
  0
INSERT
  5
9B
330
1E
100
AcDbEntity
  8
HILF
100
AcDbBlockReference
  2
LORO
 10
557.0194069970104
 20
573.0624985962354
 30
0.0
 41
2.0
 42
2.0
 43
2.0
 50
90.0
  0
LINE
  5
9C
330
1E
100
AcDbEntity
  8
BEM
100
AcDbLine
 10
594.0
 20
455.9999999999999
 30
0.0
 11
584.0
 21
455.9999999999999
 31
0.0
  0
LINE
  5
13E
330
1E
100
AcDbEntity
  8
HILF
100
AcDbLine
 10
594.0
 20
-0.0000000000000568
 30
0.0
 11
0.0
 21
0.0
 31
0.0
  0
LINE
  5
13F
330
1E
100
AcDbEntity
  8
STEMPEL
100
AcDbLine
 10
584.0
 20
39.99999999999995
 30
0.0
 11
10.0
 21
39.99999999999995
 31
0.0
  0
LINE
  5
14A
330
1E
100
AcDbEntity
  8
HILF
100
AcDbLine
 10
297.0
 20
-0.0000000000000568
 30
0.0
 11
297.0
 21
39.99999999999995
 31
0.0
  0
TEXT
  5
15B
330
1E
100
AcDbEntity
  8
BEM
100
AcDbText
 10
583.8320989200114
 20
837.3022923857165
 30
0.0
 40
4.0
  1
Diese Zeichnung ist urheberrechtlich geschützt und bleibt unser Eigentum. Sie darf weder ganz noch teilweise verfielfältigt und nicht an Dritte weitergegeben werden.
 50
180.0
 41
0.8
  7
GREEKS
100
AcDbText
  0
LINE
  5
19C
330
1E
100
AcDbEntity
  8
BEM
100
AcDbLine
 10
0.0
 20
455.9999999999999
 30
0.0
 11
10.0
 21
455.9999999999999
 31
0.0
  0
LINE
  5
9A4
330
1E
100
AcDbEntity
  8
TEXT
 62
     2
100
AcDbLine
 10
343.3540026479387
 20
582.5281216343232
 30
0.0
 11
359.7404933409726
 21
611.1934590334888
 31
0.0
  0
LINE
  5
9A8
330
1E
100
AcDbEntity
  8
TEXT
 62
     2
100
AcDbLine
 10
320.9985159441759
 20
649.8680233662622
 30
0.0
 11
359.3490997254321
 21
677.2422616760125
 31
0.0
  0
TEXT
  5
9AC
330
1E
100
AcDbEntity
  8
TEXT
 62
     1
100
AcDbText
 10
361.860386337018
 20
576.520250712703
 30
0.0
 40
7.0
  1
Dichelement DN100
 41
0.8
  7
GREEKS
100
AcDbText
  0
LINE
  5
9AD
330
1E
100
AcDbEntity
  8
TEXT
 62
     2
100
AcDbLine
 10
359.7404933409726
 20
573.1403452958065
 30
0.0
 11
467.8512027822125
 21
573.1403452958065
 31
0.0
  0
LINE
  5
9AE
330
1E
100
AcDbEntity
  8
TEXT
 62
     2
100
AcDbLine
 10
264.2727078638618
 20
554.4203876585775
 30
0.0
 11
359.7404933409726
 21
573.1403452958065
 31
0.0
  0
TEXT
  5
9AF
330
1E
100
AcDbEntity
  8
TEXT
 62
     1
100
AcDbText
 10
361.860386337018
 20
563.1128941852398
 30
0.0
 40
7.0
  1
EDV-Art.Nr. 00911.100X
 41
0.8
  7
GREEKS
100
AcDbText
  0
TEXT
  5
9B4
330
1E
100
AcDbEntity
  8
TEXT
 62
     1
100
AcDbText
 10
361.860386337018
 20
489.2266085384562
 30
0.0
 40
7.0
  1
EDV-Art.Nr. 00911.100X
 41
0.8
  7
GREEKS
100
AcDbText
  0
LINE
  5
9B5
330
1E
100
AcDbEntity
  8
TEXT
 62
     2
100
AcDbLine
 10
359.7404933409726
 20
499.254059649023
 30
0.0
 11
467.8512027822125
 21
499.254059649023
 31
0.0
  0
TEXT
  5
9B6
330
1E
100
AcDbEntity
  8
TEXT
 62
     1
100
AcDbText
 10
361.860386337018
 20
502.6339650659195
 30
0.0
 40
7.0
  1
Dichelement DN100
 41
0.8
  7
GREEKS
100
AcDbText
  0
LINE
  5
9B7
330
1E
100
AcDbEntity
  8
TEXT
 62
     2
100
AcDbLine
 10
266.5620848864683
 20
485.6543875155288
 30
0.0
 11
359.7404933409726
 21
499.254059649023
 31
0.0
  0
LINE
  5
9BB
330
1E
100
AcDbEntity
  8
TEXT
 62
     2
100
AcDbLine
 10
261.748479773154
 20
500.772230074935
 30
0.0
 11
359.7404933409726
 21
532.1915276702934
 31
0.0
  0
TEXT
  5
9BC
330
1E
100
AcDbEntity
  8
TEXT
 62
     1
100
AcDbText
 10
361.860386337018
 20
387.4268735166274
 30
0.0
 40
7.0
  1
Flachdachdurchführung DN100
 41
0.8
  7
GREEKS
100
AcDbText
  0
LINE
  5
9BD
330
1E
100
AcDbEntity
  8
TEXT
 62
     2
100
AcDbLine
 10
359.7404933409726
 20
384.046968099731
 30
0.0
 11
491.2441410551023
 21
384.046968099731
 31
0.0
  0
TEXT
  5
9BE
330
1E
100
AcDbEntity
  8
TEXT
 62
     1
100
AcDbText
 10
361.860386337018
 20
374.0195169891642
 30
0.0
 40
7.0
  1
EDV-Art.Nr. 19480.100X
 41
0.8
  7
GREEKS
100
AcDbText
  0
LINE
  5
9BF
330
1E
100
AcDbEntity
  8
TEXT
 62
     2
100
AcDbLine
 10
290.0733395263998
 20
366.5436933343283
 30
0.0
 11
359.7404933409726
 21
384.046968099731
 31
0.0
  0
HATCH
  5
A2B
330
1E
100
AcDbEntity
  8
SCHRAFF
100
AcDbHatch
 10
0.0
 20
0.0
 30
0.0
210
0.0
220
0.0
230
1.0
  2
_USER
 70
     0
 71
     1
 91
        3
 92
        7
 72
     0
 73
     1
 93
        4
 10
288.3623967548034
 20
313.7218120588221
 10
290.8623967548034
 20
313.7218120588221
 10
290.8623967548036
 20
481.7218120588215
 10
288.3623967548036
 20
481.7218120588217
 97
        4
330
A38
330
A4A
330
A59
330
A4C
 92
        7
 72
     0
 73
     1
 93
        4
 10
134.3623967548031
 20
467.721812058822
 10
131.8623967548035
 20
467.721812058822
 10
131.8623967548035
 20
313.721812058822
 10
134.3623967548033
 20
313.721812058822
 97
        4
330
A2C
330
A4D
330
A57
330
A4B
 92
        7
 72
     0
 73
     1
 93
        4
 10
131.8623967548034
 20
475.7218120588219
 10
134.3623967548032
 20
475.7218120588219
 10
134.3623967548031
 20
481.7218120588223
 10
131.8623967548035
 20
481.7218120588221
 97
        4
330
A3B
330
A4D
330
A2D
330
A4B
 75
     0
 76
     0
 52
45.0
 41
2.0
 77
     0
 78
     1
 53
45.0
 43
-21.46046708786276
 44
-38.06861695648621
 45
-1.414213562373094
 46
1.414213562373095
 79
     0
 47
0.5188730396225209
 98
        3
 10
289.3412010910986
 20
466.9623936492365
 10
133.588038827568
 20
464.8869017006118
 10
133.0688631409259
 20
478.8964737370323
  0
LINE
  5
A2C
102
{ACAD_REACTORS
330
A2B
102
}
330
1E
100
AcDbEntity
  8
STEMPEL
100
AcDbLine
 10
131.8623967548034
 20
467.721812058822
 30
0.0
 11
134.3623967548031
 21
467.721812058822
 31
0.0
  0
LINE
  5
A2D
102
{ACAD_REACTORS
330
A2B
102
}
330
1E
100
AcDbEntity
  8
STEMPEL
100
AcDbLine
 10
131.8623967548034
 20
475.7218120588219
 30
0.0
 11
134.3623967548031
 21
475.7218120588218
 31
0.0
  0
LINE
  5
A2E
330
1E
100
AcDbEntity
  8
MITTEL
100
AcDbLine
 10
126.8623967548035
 20
471.7218120588221
 30
0.0
 11
139.3623967548031
 21
471.721812058822
 31
0.0
  0
HATCH
  5
A2F
330
1E
100
AcDbEntity
  8
SCHRAFF
100
AcDbHatch
 10
0.0
 20
0.0
 30
0.0
210
0.0
220
0.0
230
1.0
  2
HONEY
 70
     0
 71
     1
 91
        2
 92
        7
 72
     1
 73
     1
 93
       13
 10
263.7537011026295
 20
412.1961608943677
 42
0.1507946423586964
 10
262.3623967548035
 20
407.6878195389538
 42
0.0
 10
262.3623967548034
 20
313.7218120588219
 42
0.0
 10
288.3623967548034
 20
313.7218120588221
 42
0.0
 10
288.3623967548036
 20
481.7218120588216
 42
0.0
 10
281.8267357343782
 20
481.7218120588218
 42
0.1985089208420132
 10
280.4147194205147
 20
481.1382194611547
 42
0.0
 10
273.1952115594693
 20
473.9410932239779
 42
-0.2239808794180684
 10
270.3623967548035
 20
467.1170605962507
 42
0.0
 10
270.3623967548035
 20
452.954812058822
 42
-0.118250109020768
 10
267.642379419358
 20
441.6145134530905
 42
0.1170513176725432
 10
266.3623967548035
 20
436.2218120588218
 42
0.0
 10
266.3623967548035
 20
420.6493009357695
 42
-0.1507946423587086
 97
       13
330
A38
330
A34
330
A39
330
A37
330
A6A
330
A6E
330
A66
330
A69
330
A68
330
A67
330
A5A
330
A59
330
A4A
 92
        7
 72
     1
 73
     1
 93
       13
 10
156.3623967548035
 20
436.2218120588219
 42
0.1170513176728378
 10
155.0824140902427
 20
441.614513453103
 42
-0.1182501090206258
 10
152.3623967548035
 20
452.954812058822
 42
0.0
 10
152.3623967548035
 20
467.1170605962507
 42
-0.2239808794180666
 10
149.5295819501377
 20
473.9410932239779
 42
0.0
 10
142.3100740890915
 20
481.1382194611554
 42
0.1985089208420132
 10
140.898057775228
 20
481.7218120588225
 42
0.0
 10
134.3623967548031
 20
481.7218120588223
 42
0.0
 10
134.3623967548032
 20
313.721812058822
 42
0.0
 10
160.3623967548034
 20
313.721812058822
 42
0.0
 10
160.3623967548034
 20
407.6878195389538
 42
0.150794642358705
 10
158.9710924069773
 20
412.1961608943681
 42
-0.1507946423587027
 10
156.3623967548035
 20
420.6493009357695
 42
0.0
 97
       13
330
A5F
330
A6D
330
A63
330
A36
330
A70
330
A32
330
A3B
330
A4B
330
A57
330
A5B
330
A61
330
A60
330
A62
 75
     0
 76
     1
 52
0.0
 41
30.0
 77
     0
 78
     3
 53
0.0
 43
-21.46046708786276
 44
-38.06861695648621
 45
5.625
 46
3.247595249999999
 79
     2
 49
3.75
 49
-7.5
 53
120.0
 43
-21.46046708786276
 44
-38.06861695648621
 45
-5.624999987709673
 46
3.247595271287468
 79
     2
 49
3.749999999999998
 49
-7.499999999999997
 53
60.0
 43
-21.46046708786276
 44
-38.06861695648621
 45
0.0000000122903263
 46
6.495190521287468
 79
     2
 49
-7.5
 49
3.75
 47
0.3390106243873317
 98
        2
 10
271.2976963779181
 20
409.7643585854463
 10
147.8254913269725
 20
426.37587938943
  0
HATCH
  5
A30
330
1E
100
AcDbEntity
  8
SCHRAFF
100
AcDbHatch
 10
0.0
 20
0.0
 30
0.0
210
0.0
220
0.0
230
1.0
  2
_USER
 70
     0
 71
     0
 91
        2
 92
        7
 72
     1
 73
     1
 93
        8
 10
293.8623967548035
 20
483.7218120588219
 42
0.0
 10
281.8267357343781
 20
483.7218120588219
 42
0.1985089208420076
 10
279.0027031066513
 20
482.5546268634876
 42
0.0
 10
270.2182918270225
 20
473.7974486574911
 42
-0.0268619586873235
 10
270.3623967548035
 20
471.1170605962511
 42
0.0
 10
280.4147194205147
 20
481.1382194611547
 42
-0.1985089208420236
 10
281.8267357343783
 20
481.7218120588218
 42
0.0
 10
293.8623967548035
 20
481.7218120588214
 42
0.0
 97
        0
 92
        7
 72
     1
 73
     1
 93
        8
 10
140.8980577752281
 20
483.7218120588219
 42
0.0
 10
128.8623967548036
 20
483.7218120588219
 42
0.0
 10
128.8623967548035
 20
481.721812058822
 42
0.0
 10
140.898057775228
 20
481.7218120588225
 42
-0.1985089208420139
 10
142.3100740890915
 20
481.1382194611554
 42
0.0
 10
152.3623967548035
 20
471.1170605962511
 42
-0.0268619586873231
 10
152.5065016825845
 20
473.7974486574911
 42
0.0
 10
143.722090402955
 20
482.5546268634884
 42
0.1985089208419931
 97
        0
 75
     0
 76
     0
 52
135.0
 41
2.0
 77
     0
 78
     1
 53
135.0
 43
-21.46046708786276
 44
-38.06861695648621
 45
-1.414213562373095
 46
-1.414213562373094
 79
     0
 47
0.2557719517933022
 98
        2
 10
281.5824782527277
 20
483.070721914013
 10
138.0102996291566
 20
482.5591781083145
  0
ARC
  5
A31
330
1E
100
AcDbEntity
  8
STEMPEL
100
AcDbCircle
 10
140.898057775228
 20
479.7218120588225
 30
0.0
 40
4.0
100
AcDbArc
 50
45.08895082911431
 51
90.0
  0
ARC
  5
A32
102
{ACAD_REACTORS
330
A2F
102
}
330
1E
100
AcDbEntity
  8
STEMPEL
100
AcDbCircle
 10
140.898057775228
 20
479.7218120588225
 30
0.0
 40
2.0
100
AcDbArc
 50
45.08895082911431
 51
90.0
  0
ARC
  5
A33
330
1E
100
AcDbEntity
  8
STEMPEL
100
AcDbCircle
 10
281.8267357343781
 20
479.7218120588218
 30
0.0
 40
4.0
100
AcDbArc
 50
89.99999999999674
 51
134.9110491708857
  0
ARC
  5
A34
102
{ACAD_REACTORS
330
A2F
102
}
330
1E
100
AcDbEntity
  8
STEMPEL
100
AcDbCircle
 10
281.8267357343781
 20
479.7218120588218
 30
0.0
 40
2.0
100
AcDbArc
 50
89.99999999999674
 51
134.9110491708857
  0
HATCH
  5
A35
330
1E
100
AcDbEntity
  8
SCHRAFF
100
AcDbHatch
 10
0.0
 20
0.0
 30
0.0
210
0.0
220
0.0
230
1.0
  2
_USER
 70
     0
 71
     1
 91
        2
 92
        7
 72
     1
 73
     1
 93
        3
 10
270.3623967548035
 20
471.1170605962508
 42
0.0
 10
270.3623967548035
 20
467.1170605962507
 42
0.2239808794180684
 10
273.1952115594693
 20
473.9410932239779
 42
0.0
 97
        3
330
A39
330
A6A
330
A37
 92
        7
 72
     1
 73
     1
 93
        3
 10
152.3623967548035
 20
467.1170605962507
 42
0.0
 10
152.3623967548035
 20
471.117060596251
 42
0.0
 10
149.5295819501377
 20
473.9410932239779
 42
0.2239808794180649
 97
        3
330
A36
330
A63
330
A70
 75
     0
 76
     0
 52
0.0
 41
0.1
 77
     0
 78
     1
 53
0.0
 43
-21.46046708786276
 44
-38.06861695648621
 45
0.0
 46
0.1
 79
     0
 47
0.2524795532243839
 98
        2
 10
271.1365744337693
 20
470.6680740440634
 10
150.8858564974691
 20
471.1730334706327
  0
ARC
  5
A36
102
{ACAD_REACTORS
330
A35
330
A2F
102
}
330
1E
100
AcDbEntity
  8
SCHRAFF
100
AcDbCircle
 10
158.1806341531212
 20
473.5323463866565
 30
0.0
 40
8.660703100543642
100
AcDbArc
 50
177.2948880367656
 51
227.7940627923451
  0
ARC
  5
A37
102
{ACAD_REACTORS
330
A35
330
A2F
102
}
330
1E
100
AcDbEntity
  8
SCHRAFF
100
AcDbCircle
 10
264.5441593564858
 20
473.5323463866565
 30
0.0
 40
8.660703100543642
100
AcDbArc
 50
312.2059372076549
 51
2.705111963234393
  0
LINE
  5
A38
102
{ACAD_REACTORS
330
A74
330
A2F
330
A2B
102
}
330
1E
100
AcDbEntity
  8
STEMPEL
100
AcDbLine
 10
281.8267357343782
 20
481.7218120588218
 30
0.0
 11
293.8623967548035
 21
481.7218120588214
 31
0.0
  0
LINE
  5
A39
102
{ACAD_REACTORS
330
A35
330
A2F
102
}
330
1E
100
AcDbEntity
  8
STEMPEL
100
AcDbLine
 10
270.3623967548035
 20
471.1170605962511
 30
0.0
 11
280.4147194205147
 21
481.1382194611547
 31
0.0
  0
LINE
  5
A3A
102
{ACAD_REACTORS
330
A74
102
}
330
1E
100
AcDbEntity
  8
STEMPEL
100
AcDbLine
 10
293.8623967548035
 20
483.7218120588221
 30
0.0
 11
293.8623967548035
 21
481.7218120588214
 31
0.0
  0
LINE
  5
A3B
102
{ACAD_REACTORS
330
A77
330
A2F
330
A2B
102
}
330
1E
100
AcDbEntity
  8
STEMPEL
100
AcDbLine
 10
128.8623967548035
 20
481.7218120588221
 30
0.0
 11
140.898057775228
 21
481.7218120588225
 31
0.0
  0
LINE
  5
A3C
330
1E
100
AcDbEntity
  8
STEMPEL
100
AcDbLine
 10
131.8623967548035
 20
403.7218120588216
 30
0.0
 11
93.03111777101618
 21
403.7218120588219
 31
0.0
  0
LINE
  5
A3D
102
{ACAD_REACTORS
330
A72
102
}
330
1E
100
AcDbEntity
  8
STEMPEL
100
AcDbLine
 10
88.86239675480352
 20
408.7218120588219
 30
0.0
 11
93.03111777101618
 21
403.7218120588218
 31
0.0
  0
LINE
  5
A3E
102
{ACAD_REACTORS
330
A72
102
}
330
1E
100
AcDbEntity
  8
STEMPEL
100
AcDbLine
 10
93.03111777101618
 20
403.7218120588218
 30
0.0
 11
131.8623967548035
 21
406.4035321573189
 31
0.0
  0
LINE
  5
A3F
102
{ACAD_REACTORS
330
A72
102
}
330
1E
100
AcDbEntity
  8
STEMPEL
100
AcDbLine
 10
93.91283205662171
 20
405.787467697404
 30
0.0
 11
131.8623967548035
 21
408.4082958813745
 31
0.0
  0
LINE
  5
A40
102
{ACAD_REACTORS
330
A72
102
}
330
1E
100
AcDbEntity
  8
STEMPEL
100
AcDbLine
 10
90.39852886698122
 20
410.0025533027648
 30
0.0
 11
93.91283205662171
 21
405.787467697404
 31
0.0
  0
LINE
  5
A41
102
{ACAD_REACTORS
330
A72
102
}
330
1E
100
AcDbEntity
  8
STEMPEL
100
AcDbLine
 10
88.86239675480352
 20
408.7218120588219
 30
0.0
 11
90.39852886698122
 21
410.0025533027648
 31
0.0
  0
LINE
  5
A42
330
1E
100
AcDbEntity
  8
STEMPEL
100
AcDbLine
 10
90.39852886698122
 20
410.0025533027648
 30
0.0
 11
131.8623967548035
 21
410.0025533027648
 31
0.0
  0
LINE
  5
A43
330
1E
100
AcDbEntity
  8
STEMPEL
100
AcDbLine
 10
332.3262646426256
 20
410.0025533027648
 30
0.0
 11
290.8623967548034
 21
410.0025533027648
 31
0.0
  0
LINE
  5
A44
102
{ACAD_REACTORS
330
A72
102
}
330
1E
100
AcDbEntity
  8
STEMPEL
100
AcDbLine
 10
333.8623967548033
 20
408.7218120588219
 30
0.0
 11
332.3262646426256
 21
410.0025533027648
 31
0.0
  0
LINE
  5
A45
102
{ACAD_REACTORS
330
A72
102
}
330
1E
100
AcDbEntity
  8
STEMPEL
100
AcDbLine
 10
332.3262646426256
 20
410.0025533027648
 30
0.0
 11
328.8119614529851
 21
405.787467697404
 31
0.0
  0
LINE
  5
A46
102
{ACAD_REACTORS
330
A72
102
}
330
1E
100
AcDbEntity
  8
STEMPEL
100
AcDbLine
 10
328.8119614529851
 20
405.787467697404
 30
0.0
 11
290.8623967548035
 21
408.4082958813742
 31
0.0
  0
LINE
  5
A47
102
{ACAD_REACTORS
330
A72
102
}
330
1E
100
AcDbEntity
  8
STEMPEL
100
AcDbLine
 10
329.6936757385906
 20
403.7218120588218
 30
0.0
 11
290.8623967548034
 21
406.4035321573188
 31
0.0
  0
LINE
  5
A48
102
{ACAD_REACTORS
330
A72
102
}
330
1E
100
AcDbEntity
  8
STEMPEL
100
AcDbLine
 10
333.8623967548033
 20
408.7218120588219
 30
0.0
 11
329.6936757385906
 21
403.7218120588218
 31
0.0
  0
LINE
  5
A49
330
1E
100
AcDbEntity
  8
STEMPEL
100
AcDbLine
 10
290.8623967548034
 20
403.7218120588216
 30
0.0
 11
329.6936757385906
 21
403.7218120588219
 31
0.0
  0
LINE
  5
A4A
102
{ACAD_REACTORS
330
A2F
330
A2B
102
}
330
1E
100
AcDbEntity
  8
STEMPEL
100
AcDbLine
 10
288.3623967548036
 20
481.7218120588218
 30
0.0
 11
288.3623967548034
 21
313.7218120588221
 31
0.0
  0
LINE
  5
A4B
102
{ACAD_REACTORS
330
A2F
330
A2B
102
}
330
1E
100
AcDbEntity
  8
STEMPEL
100
AcDbLine
 10
134.3623967548031
 20
481.7218120588225
 30
0.0
 11
134.3623967548033
 21
313.721812058822
 31
0.0
  0
LINE
  5
A4C
102
{ACAD_REACTORS
330
A72
330
A74
330
A2B
102
}
330
1E
100
AcDbEntity
  8
STEMPEL
100
AcDbLine
 10
290.8623967548035
 20
481.721812058822
 30
0.0
 11
290.8623967548034
 21
313.7218120588221
 31
0.0
  0
LINE
  5
A4D
102
{ACAD_REACTORS
330
A72
330
A77
330
A2B
102
}
330
1E
100
AcDbEntity
  8
STEMPEL
100
AcDbLine
 10
131.8623967548034
 20
481.7218120588223
 30
0.0
 11
131.8623967548035
 21
313.721812058822
 31
0.0
  0
LINE
  5
A4E
330
1E
100
AcDbEntity
  8
STEMPEL
100
AcDbLine
 10
262.3623967548033
 20
181.6344901730065
 30
0.0
 11
261.6701271216826
 21
173.721812058822
 31
0.0
  0
LINE
  5
A4F
330
1E
100
AcDbEntity
  8
STEMPEL
100
AcDbLine
 10
160.3623967548029
 20
181.6344901730046
 30
0.0
 11
161.0546663879236
 21
173.7218120588219
 31
0.0
  0
LINE
  5
A50
330
1E
100
AcDbEntity
  8
HILF
100
AcDbLine
 10
258.3547570797165
 20
181.7218120588219
 30
0.0
 11
164.3700364298898
 21
181.721812058822
 31
0.0
  0
LINE
  5
A51
330
1E
100
AcDbEntity
  8
STEMPEL
100
AcDbLine
 10
128.8623967548036
 20
483.7218120588219
 30
0.0
 11
157.8623967548037
 21
483.7218120588219
 31
0.0
  0
LINE
  5
A52
330
1E
100
AcDbEntity
  8
STEMPEL
100
AcDbLine
 10
261.6701271216826
 20
173.721812058822
 30
0.0
 11
161.0546663879236
 21
173.7218120588219
 31
0.0
  0
ARC
  5
A55
330
1E
100
AcDbEntity
  8
SCHRAFF
100
AcDbCircle
 10
290.8623967548034
 20
408.5000230722029
 30
0.0
 40
4.0
100
AcDbArc
 50
356.0493790177095
 51
90.0
  0
HATCH
  5
A56
330
1E
100
AcDbEntity
  8
SCHRAFF
100
AcDbHatch
 10
0.0
 20
0.0
 30
0.0
210
0.0
220
0.0
230
1.0
  2
_USER
 70
     0
 71
     0
 91
        2
 92
        7
 72
     1
 73
     1
 93
        3
 10
290.8623967548034
 20
412.5000230722029
 42
0.0
 10
290.8623967548034
 20
410.0942804935934
 42
0.0
 10
294.5309582268714
 20
410.0942804935934
 42
0.2986429617831959
 97
        0
 92
        7
 72
     1
 73
     1
 93
        4
 10
294.5309582268714
 20
410.0942804935934
 42
0.0
 10
290.8623967548034
 20
410.0942804935934
 42
0.0
 10
290.8623967548034
 20
408.5000230722029
 42
0.0
 10
294.8528919458359
 20
408.2244361887213
 42
0.1203009333247398
 97
        0
 75
     0
 76
     0
 52
0.0
 41
0.1
 77
     0
 78
     1
 53
0.0
 43
540.2154373201576
 44
71.41764200380203
 45
0.0
 46
0.1
 79
     0
 47
0.0383984663424806
 98
        2
 10
292.2661788157713
 20
411.0072302221947
 10
292.15090039986
 20
409.548088067696
  0
LINE
  5
A57
102
{ACAD_REACTORS
330
A2F
330
A2B
102
}
330
1E
100
AcDbEntity
  8
STEMPEL
100
AcDbLine
 10
131.8623967548035
 20
313.721812058822
 30
0.0
 11
160.3623967548034
 21
313.721812058822
 31
0.0
  0
LINE
  5
A58
330
1E
100
AcDbEntity
  8
MITTEL
100
AcDbLine
 10
211.3623967548039
 20
694.7218120588216
 30
0.0
 11
211.3623967548032
 21
168.7218120588219
 31
0.0
  0
LINE
  5
A59
102
{ACAD_REACTORS
330
A2F
330
A2B
102
}
330
1E
100
AcDbEntity
  8
STEMPEL
100
AcDbLine
 10
262.3623967548034
 20
313.721812058822
 30
0.0
 11
290.8623967548034
 21
313.7218120588221
 31
0.0
  0
LINE
  5
A5A
102
{ACAD_REACTORS
330
A2F
102
}
330
1E
100
AcDbEntity
  8
STEMPEL
100
AcDbLine
 10
262.3623967548035
 20
407.6878195389538
 30
0.0
 11
262.3623967548033
 21
181.6344901730061
 31
0.0
  0
LINE
  5
A5B
102
{ACAD_REACTORS
330
A2F
102
}
330
1E
100
AcDbEntity
  8
STEMPEL
100
AcDbLine
 10
160.3623967548034
 20
407.6878195389538
 30
0.0
 11
160.3623967548033
 21
181.6344901730006
 31
0.0
  0
LINE
  5
A5C
330
1E
100
AcDbEntity
  8
STEMPEL
100
AcDbLine
 10
128.8623967548036
 20
483.7218120588219
 30
0.0
 11
128.8623967548035
 21
481.7218120588221
 31
0.0
  0
HATCH
  5
A5D
330
1E
100
AcDbEntity
  8
SCHRAFF
100
AcDbHatch
 10
0.0
 20
0.0
 30
0.0
210
0.0
220
0.0
230
1.0
  2
_USER
 70
     0
 71
     0
 91
        2
 92
        7
 72
     1
 73
     1
 93
        3
 10
131.8623967548035
 20
412.5000230722029
 42
0.0
 10
131.8623967548035
 20
410.0942804935934
 42
0.0
 10
128.1938352827355
 20
410.0942804935934
 42
-0.2986429617831959
 97
        0
 92
        7
 72
     1
 73
     1
 93
        4
 10
128.1938352827355
 20
410.0942804935934
 42
0.0
 10
131.8623967548035
 20
410.0942804935934
 42
0.0
 10
131.8623967548036
 20
408.5000230722029
 42
0.0
 10
127.8719015637711
 20
408.2244361887213
 42
-0.1203009333247398
 97
        0
 75
     0
 76
     0
 52
0.0
 41
0.1
 77
     0
 78
     1
 53
180.0
 43
-117.4906438105506
 44
71.41764200380203
 45
0.0
 46
0.1
 79
     0
 47
0.0383984663424806
 98
        2
 10
130.4586146938357
 20
411.0072302221947
 10
130.5738931097469
 20
409.548088067696
  0
ARC
  5
A5E
330
1E
100
AcDbEntity
  8
SCHRAFF
100
AcDbCircle
 10
131.8623967548035
 20
408.5000230722029
 30
0.0
 40
4.0
100
AcDbArc
 50
90.0
 51
183.9506209822905
  0
ARC
  5
A5F
102
{ACAD_REACTORS
330
A2F
102
}
330
1E
100
AcDbEntity
  8
STEMPEL
100
AcDbCircle
 10
144.3623967548035
 20
436.2218120588219
 30
0.0
 40
12.0
100
AcDbArc
 50
0.0
 51
26.88777065901912
  0
ARC
  5
A60
102
{ACAD_REACTORS
330
A2F
102
}
330
1E
100
AcDbEntity
  8
STEMPEL
100
AcDbCircle
 10
171.3623967548035
 20
420.6493009357695
 30
0.0
 40
15.0
100
AcDbArc
 50
180.0
 51
214.3011527567924
  0
ARC
  5
A61
102
{ACAD_REACTORS
330
A2F
102
}
330
1E
100
AcDbEntity
  8
STEMPEL
100
AcDbCircle
 10
152.3623967548035
 20
407.6878195389538
 30
0.0
 40
8.0
100
AcDbArc
 50
0.0
 51
34.3011527567924
  0
LINE
  5
A62
102
{ACAD_REACTORS
330
A2F
102
}
330
1E
100
AcDbEntity
  8
STEMPEL
100
AcDbLine
 10
156.3623967548035
 20
436.2218120588219
 30
0.0
 11
156.3623967548035
 21
420.6493009357695
 31
0.0
  0
LINE
  5
A63
102
{ACAD_REACTORS
330
A35
330
A2F
102
}
330
1E
100
AcDbEntity
  8
STEMPEL
100
AcDbLine
 10
152.3623967548035
 20
471.1170605962508
 30
0.0
 11
152.3623967548035
 21
452.954812058822
 31
0.0
  0
LINE
  5
A64
330
1E
100
AcDbEntity
  8
STEMPEL
100
AcDbLine
 10
155.6556409168785
 20
483.7218120588221
 30
0.0
 11
154.7047020788872
 21
481.6825171397683
 31
0.0
  0
ARC
  5
A65
330
1E
100
AcDbEntity
  8
STEMPEL
100
AcDbCircle
 10
177.3623967548035
 20
471.1170605962508
 30
0.0
 40
25.0
100
AcDbArc
 50
155.0000000000079
 51
180.0
  0
ARC
  5
A66
102
{ACAD_REACTORS
330
A2F
102
}
330
1E
100
AcDbEntity
  8
STEMPEL
100
AcDbCircle
 10
278.3623967548035
 20
436.2218120588219
 30
0.0
 40
12.0
100
AcDbArc
 50
153.1122293409809
 51
180.0
  0
ARC
  5
A67
102
{ACAD_REACTORS
330
A2F
102
}
330
1E
100
AcDbEntity
  8
STEMPEL
100
AcDbCircle
 10
270.3623967548035
 20
407.6878195389538
 30
0.0
 40
8.0
100
AcDbArc
 50
145.6988472432076
 51
180.0
  0
ARC
  5
A68
102
{ACAD_REACTORS
330
A2F
102
}
330
1E
100
AcDbEntity
  8
STEMPEL
100
AcDbCircle
 10
251.3623967548035
 20
420.6493009357695
 30
0.0
 40
15.0
100
AcDbArc
 50
325.6988472432076
 51
0.0
  0
LINE
  5
A69
102
{ACAD_REACTORS
330
A2F
102
}
330
1E
100
AcDbEntity
  8
STEMPEL
100
AcDbLine
 10
266.3623967548035
 20
436.2218120588219
 30
0.0
 11
266.3623967548035
 21
420.6493009357695
 31
0.0
  0
LINE
  5
A6A
102
{ACAD_REACTORS
330
A35
330
A2F
102
}
330
1E
100
AcDbEntity
  8
STEMPEL
100
AcDbLine
 10
270.3623967548035
 20
471.1170605962508
 30
0.0
 11
270.3623967548035
 21
452.954812058822
 31
0.0
  0
LINE
  5
A6B
330
1E
100
AcDbEntity
  8
STEMPEL
100
AcDbLine
 10
267.0691525927285
 20
483.7218120588221
 30
0.0
 11
268.0200914307198
 21
481.6825171397683
 31
0.0
  0
ARC
  5
A6C
330
1E
100
AcDbEntity
  8
STEMPEL
100
AcDbCircle
 10
245.3623967548035
 20
471.1170605962508
 30
0.0
 40
25.0
100
AcDbArc
 50
0.0
 51
24.99999999998912
  0
ARC
  5
A6D
102
{ACAD_REACTORS
330
A2F
102
}
330
1E
100
AcDbEntity
  8
STEMPEL
100
AcDbCircle
 10
177.3623967548035
 20
452.954812058822
 30
0.0
 40
25.0
100
AcDbArc
 50
180.0
 51
206.9756597892848
  0
ARC
  5
A6E
102
{ACAD_REACTORS
330
A2F
102
}
330
1E
100
AcDbEntity
  8
STEMPEL
100
AcDbCircle
 10
245.3623967548035
 20
452.954812058822
 30
0.0
 40
25.0
100
AcDbArc
 50
333.0243402107151
 51
0.0
  0
LINE
  5
A6F
330
1E
100
AcDbEntity
  8
STEMPEL
100
AcDbLine
 10
270.2182918270225
 20
473.7974486574911
 30
0.0
 11
279.0027031066513
 21
482.5546268634876
 31
0.0
  0
LINE
  5
A70
102
{ACAD_REACTORS
330
A35
330
A2F
102
}
330
1E
100
AcDbEntity
  8
STEMPEL
100
AcDbLine
 10
152.3623967548035
 20
471.1170605962511
 30
0.0
 11
142.3100740890915
 21
481.1382194611554
 31
0.0
  0
LINE
  5
A71
330
1E
100
AcDbEntity
  8
STEMPEL
100
AcDbLine
 10
152.5065016825845
 20
473.7974486574911
 30
0.0
 11
143.722090402955
 21
482.5546268634884
 31
0.0
  0
HATCH
  5
A72
330
1E
100
AcDbEntity
  8
SCHRAFF
100
AcDbHatch
 10
0.0
 20
0.0
 30
0.0
210
0.0
220
0.0
230
1.0
  2
_USER
 70
     0
 71
     1
 91
        2
 92
        7
 72
     0
 73
     1
 93
        6
 10
329.6936757385906
 20
403.7218120588217
 10
333.8623967548032
 20
408.7218120588219
 10
332.3262646426256
 20
410.0025533027649
 10
328.8119614529851
 20
405.787467697404
 10
290.8623967548034
 20
408.4082958813742
 10
290.8623967548034
 20
406.4035321573187
 97
        6
330
A4C
330
A47
330
A48
330
A44
330
A45
330
A46
 92
        7
 72
     0
 73
     1
 93
        6
 10
93.91283205662176
 20
405.787467697404
 10
90.39852886698126
 20
410.0025533027648
 10
88.86239675480352
 20
408.7218120588219
 10
93.03111777101616
 20
403.7218120588217
 10
131.8623967548035
 20
406.4035321573189
 10
131.8623967548035
 20
408.4082958813745
 97
        6
330
A3F
330
A40
330
A41
330
A3D
330
A3E
330
A4D
 75
     0
 76
     0
 52
135.0
 41
2.0
 77
     0
 78
     1
 53
135.0
 43
-37.6874731659866
 44
-38.06861695648621
 45
-1.414213562373095
 46
-1.414213562373094
 79
     0
 47
0.3781646636867075
 98
        2
 10
309.6712509206834
 20
406.0525202790386
 10
117.4284728554187
 20
406.4306848033264
  0
ARC
  5
A73
102
{ACAD_REACTORS
330
A74
102
}
330
1E
100
AcDbEntity
  8
SCHRAFF
100
AcDbCircle
 10
290.8623967548035
 20
481.7218120588215
 30
0.0
 40
3.000044094700972
100
AcDbArc
 50
270.0
 51
0.3106472719425457
  0
HATCH
  5
A74
330
1E
100
AcDbEntity
  8
SCHRAFF
100
AcDbHatch
 10
0.0
 20
0.0
 30
0.0
210
0.0
220
0.0
230
1.0
  2
_USER
 70
     0
 71
     1
 91
        1
 92
        7
 72
     1
 73
     1
 93
        4
 10
293.8623967548035
 20
481.7055464463146
 42
0.0
 10
293.8623967548035
 20
481.7218120588213
 42
0.0
 10
290.8623967548035
 20
481.7218120588214
 42
0.0
 10
290.8623967548035
 20
478.7217679641205
 42
0.4126264388474299
 97
        4
330
A3A
330
A38
330
A4C
330
A73
 75
     0
 76
     0
 52
0.0
 41
0.1
 77
     0
 78
     1
 53
0.0
 43
-37.6874731659866
 44
-38.06861695648621
 45
0.0
 46
0.1
 79
     0
 47
0.2361484730931702
 98
        1
 10
292.798282602316
 20
480.1595807054782
  0
ARC
  5
A75
330
1E
100
AcDbEntity
  8
SCHRAFF
100
AcDbCircle
 10
131.8623967548034
 20
481.7218120588223
 30
0.0
 40
3.000044094700972
100
AcDbArc
 50
179.6893527278522
 51
270.0
  0
ARC
  5
A76
102
{ACAD_REACTORS
330
A77
102
}
330
1E
100
AcDbEntity
  8
SCHRAFF
100
AcDbCircle
 10
131.8623967548034
 20
481.7218120588223
 30
0.0
 40
2.999999999999943
100
AcDbArc
 50
179.9999999999951
 51
270.0
  0
HATCH
  5
A77
330
1E
100
AcDbEntity
  8
SCHRAFF
100
AcDbHatch
 10
0.0
 20
0.0
 30
0.0
210
0.0
220
0.0
230
1.0
  2
_USER
 70
     0
 71
     1
 91
        1
 92
        7
 72
     1
 73
     1
 93
        3
 10
131.8623967548034
 20
481.7218120588223
 42
0.0
 10
128.8623967548035
 20
481.7218120588221
 42
0.4142135623730755
 10
131.8623967548034
 20
478.7218120588224
 42
0.0
 97
        3
330
A3B
330
A76
330
A4D
 75
     0
 76
     0
 52
0.0
 41
0.1
 77
     0
 78
     1
 53
0.0
 43
-37.6874731659866
 44
-38.06861695648621
 45
0.0
 46
0.1
 79
     0
 47
0.03944048532357
 98
        1
 10
131.286466247617
 20
480.7504823392294
  0
LINE
  5
A7A
330
1E
100
AcDbEntity
  8
HILF
100
AcDbLine
 10
258.596565606572
 20
410.0468908374322
 30
0.0
 11
164.1282279030351
 21
410.0468908374323
 31
0.0
  0
LINE
  5
A7B
330
1E
100
AcDbEntity
  8
STEMPEL
100
AcDbLine
 10
260.3623967548035
 20
407.6878195389538
 30
0.0
 11
260.3623967548033
 21
181.7218120588236
 31
0.0
  0
LINE
  5
A7C
330
1E
100
AcDbEntity
  8
STEMPEL
100
AcDbLine
 10
260.3623967548033
 20
181.7218120588236
 30
0.0
 11
259.6624874465959
 21
173.721812058822
 31
0.0
  0
ARC
  5
A7E
330
1E
100
AcDbEntity
  8
STEMPEL
100
AcDbCircle
 10
270.3623967548035
 20
407.6878195389538
 30
0.0
 40
10.0
100
AcDbArc
 50
145.6988472432076
 51
180.0
  0
ARC
  5
A80
330
1E
100
AcDbEntity
  8
STEMPEL
100
AcDbCircle
 10
251.3623967548035
 20
420.6493009357695
 30
0.0
 40
13.0
100
AcDbArc
 50
325.6988472432076
 51
0.0
  0
ARC
  5
A82
330
1E
100
AcDbEntity
  8
STEMPEL
100
AcDbCircle
 10
278.3623967548035
 20
436.2218120588219
 30
0.0
 40
14.0
100
AcDbArc
 50
153.1122293409809
 51
180.0
  0
LINE
  5
A84
330
1E
100
AcDbEntity
  8
STEMPEL
100
AcDbLine
 10
264.3623967548035
 20
436.2218120588219
 30
0.0
 11
264.3623967548035
 21
420.6493009357695
 31
0.0
  0
ARC
  5
A85
330
1E
100
AcDbEntity
  8
STEMPEL
100
AcDbCircle
 10
245.3623967548035
 20
452.954812058822
 30
0.0
 40
23.0
100
AcDbArc
 50
333.0243402107151
 51
0.0
  0
LINE
  5
A86
330
1E
100
AcDbEntity
  8
STEMPEL
100
AcDbLine
 10
268.3623967548035
 20
471.1170605962508
 30
0.0
 11
268.3623967548035
 21
452.954812058822
 31
0.0
  0
ARC
  5
A87
330
1E
100
AcDbEntity
  8
STEMPEL
100
AcDbCircle
 10
245.3623967548035
 20
471.1170605962508
 30
0.0
 40
23.0
100
AcDbArc
 50
0.0
 51
24.99999999998912
  0
LINE
  5
A88
330
1E
100
AcDbEntity
  8
STEMPEL
100
AcDbLine
 10
264.8623967548036
 20
483.7218120588219
 30
0.0
 11
266.2074758566465
 21
480.8372806162869
 31
0.0
  0
LINE
  5
A89
330
1E
100
AcDbEntity
  8
STEMPEL
100
AcDbLine
 10
162.3623967548035
 20
407.6878195389539
 30
0.0
 11
162.362396754803
 21
181.7218120588238
 31
0.0
  0
LINE
  5
A8A
330
1E
100
AcDbEntity
  8
STEMPEL
100
AcDbLine
 10
162.362396754803
 20
181.7218120588238
 30
0.0
 11
163.0623060630105
 21
173.7218120588222
 31
0.0
  0
ARC
  5
A8C
330
1E
100
AcDbEntity
  8
STEMPEL
100
AcDbCircle
 10
152.3623967548035
 20
407.687819538954
 30
0.0
 40
10.0
100
AcDbArc
 50
359.9999999999998
 51
34.30115275679224
  0
ARC
  5
A8D
330
1E
100
AcDbEntity
  8
STEMPEL
100
AcDbCircle
 10
171.3623967548036
 20
420.6493009357696
 30
0.0
 40
13.0
100
AcDbArc
 50
179.9999999999998
 51
214.3011527567922
  0
LINE
  5
A8E
330
1E
100
AcDbEntity
  8
STEMPEL
100
AcDbLine
 10
158.3623967548036
 20
436.2218120588221
 30
0.0
 11
158.3623967548036
 21
420.6493009357697
 31
0.0
  0
ARC
  5
A8F
330
1E
100
AcDbEntity
  8
STEMPEL
100
AcDbCircle
 10
144.3623967548036
 20
436.2218120588221
 30
0.0
 40
14.0
100
AcDbArc
 50
359.9999999999998
 51
26.88777065901895
  0
ARC
  5
A90
330
1E
100
AcDbEntity
  8
STEMPEL
100
AcDbCircle
 10
177.3623967548037
 20
452.9548120588221
 30
0.0
 40
23.0
100
AcDbArc
 50
179.9999999999998
 51
206.9756597892847
  0
LINE
  5
A91
330
1E
100
AcDbEntity
  8
STEMPEL
100
AcDbLine
 10
154.3623967548037
 20
471.117060596251
 30
0.0
 11
154.3623967548037
 21
452.9548120588222
 31
0.0
  0
ARC
  5
A92
330
1E
100
AcDbEntity
  8
STEMPEL
100
AcDbCircle
 10
177.3623967548037
 20
471.117060596251
 30
0.0
 40
23.0
100
AcDbArc
 50
155.0000000000107
 51
179.9999999999998
  0
LINE
  5
A93
330
1E
100
AcDbEntity
  8
STEMPEL
100
AcDbLine
 10
157.8623967548037
 20
483.7218120588221
 30
0.0
 11
156.5173176529607
 21
480.837280616287
 31
0.0
  0
HATCH
  5
AC3
330
1E
100
AcDbEntity
  8
SCHRAFF
100
AcDbHatch
 10
0.0
 20
0.0
 30
0.0
210
0.0
220
0.0
230
1.0
  2
_USER
 70
     0
 71
     0
 91
        2
 92
        7
 72
     1
 73
     1
 93
       22
 10
260.3623967548033
 20
181.7218120588234
 42
0.0
 10
259.6624874465959
 20
173.721812058822
 42
0.0
 10
261.6701271216825
 20
173.721812058822
 42
0.0
 10
262.3623967548033
 20
181.6344901730061
 42
0.0
 10
262.3623967548035
 20
407.6878195389538
 42
-0.1507946423587077
 10
263.7537011026296
 20
412.1961608943681
 42
0.1507946423587018
 10
266.3623967548035
 20
420.6493009357695
 42
0.0
 10
266.3623967548035
 20
436.2218120588219
 42
-0.1186713860855307
 10
267.6770655231932
 20
441.6829196818937
 42
0.1174724773338403
 10
270.3623967548035
 20
452.954812058822
 42
0.0
 10
270.3623967548035
 20
471.1170605962508
 42
0.1095178116832409
 10
268.0200914307198
 20
481.6825171397683
 42
0.0
 10
267.0691525927285
 20
483.7218120588219
 42
0.0
 10
264.8623967548036
 20
483.721812058822
 42
0.0
 10
266.2074758566465
 20
480.8372806162869
 42
-0.1095178116832396
 10
268.3623967548035
 20
471.117060596251
 42
0.0
 10
268.3623967548035
 20
452.954812058822
 42
-0.1182991460893908
 10
265.8579622254289
 20
442.5177724383498
 42
0.1171420130219951
 10
264.3623967548035
 20
436.221812058822
 42
0.0
 10
264.3623967548035
 20
420.6493009357695
 42
-0.1507946423587088
 10
262.101527189586
 20
413.3232462332213
 42
0.1507946423586991
 10
260.3623967548035
 20
407.6878195389538
 42
0.0
 97
        0
 92
        7
 72
     1
 73
     1
 93
       22
 10
162.3623967548035
 20
407.6878195389539
 42
0.1507946423587024
 10
160.623266320021
 20
413.3232462332216
 42
-0.1507946423587047
 10
158.3623967548036
 20
420.6493009357697
 42
0.0
 10
158.3623967548036
 20
436.2218120588221
 42
0.1171420130226235
 10
156.8668312841625
 20
442.5177724383809
 42
-0.1182991460890074
 10
154.3623967548037
 20
452.9548120588222
 42
0.0
 10
154.3623967548037
 20
471.117060596251
 42
-0.1095178116832408
 10
156.5173176529607
 20
480.837280616287
 42
0.0
 10
157.8623967548037
 20
483.7218120588219
 42
0.0
 10
155.6556409168783
 20
483.7218120588219
 42
0.0
 10
154.7047020788872
 20
481.6825171397683
 42
0.1095178116832395
 10
152.3623967548035
 20
471.117060596251
 42
0.0
 10
152.3623967548035
 20
452.954812058822
 42
0.1174724773337092
 10
155.0477279864079
 20
441.6829196819052
 42
-0.1186713860858044
 10
156.3623967548035
 20
436.2218120588219
 42
0.0
 10
156.3623967548035
 20
420.6493009357695
 42
0.1507946423587048
 10
158.9710924069774
 20
412.1961608943679
 42
-0.1507946423587041
 10
160.3623967548034
 20
407.6878195389538
 42
0.0
 10
160.3623967548033
 20
181.6344901730005
 42
0.0
 10
161.0546663879236
 20
173.7218120588219
 42
0.0
 10
163.0623060630106
 20
173.7218120588219
 42
0.0
 10
162.362396754803
 20
181.7218120588235
 42
0.0
 97
        0
 75
     0
 76
     0
 52
135.0
 41
2.0
 77
     0
 78
     1
 53
135.0
 43
436.4011014067592
 44
17.49592951155324
 45
-1.414213562373095
 46
-1.414213562373094
 79
     0
 47
0.443766609727599
 98
        2
 10
261.1381567943336
 20
283.012322024199
 10
161.6982732356682
 20
299.8754514557027
  0
TEXT
  5
AC5
330
1E
100
AcDbEntity
  8
TEXT
 62
     1
100
AcDbText
 10
199.225061275799
 20
307.3755040618166
 30
0.0
 40
7.0
  1
DN100
 50
90.0
 41
0.8
  7
GREEKS
100
AcDbText
  0
LINE
  5
B8F
330
1E
100
AcDbEntity
  8
STEMPEL
100
AcDbLine
 10
265.1746722298451
 20
490.7218120588221
 30
0.0
 11
262.3623967548036
 21
490.7218120588221
 31
0.0
  0
LINE
  5
B90
330
1E
100
AcDbEntity
  8
STEMPEL
100
AcDbLine
 10
263.6982202438192
 20
462.5004225446184
 30
0.0
 11
262.3623967548035
 21
462.5004225446184
 31
0.0
  0
LINE
  5
B95
330
1E
100
AcDbEntity
  8
STEMPEL
100
AcDbLine
 10
158.5804871469211
 20
465.7218120588222
 30
0.0
 11
154.3623967548037
 21
465.7218120588222
 31
0.0
  0
ARC
  5
B96
330
1E
100
AcDbEntity
  8
STEMPEL
100
AcDbCircle
 10
191.6673279386952
 20
468.6619746001049
 30
0.0
 40
33.21721826627526
100
AcDbArc
 50
181.6218859719166
 51
190.6898601996673
  0
LINE
  5
B98
330
1E
100
AcDbEntity
  8
STEMPEL
100
AcDbLine
 10
158.4634172692377
 20
467.7218120588221
 30
0.0
 11
156.2628118312231
 21
467.7218120588221
 31
0.0
  0
LINE
  5
B99
330
1E
100
AcDbEntity
  8
STEMPEL
100
AcDbLine
 10
155.8615835704453
 20
465.721812058822
 30
0.0
 11
156.2628118312231
 21
467.7218120588221
 31
0.0
  0
ARC
  5
B9D
330
1E
100
AcDbEntity
  8
STEMPEL
100
AcDbCircle
 10
157.1123967548037
 20
483.7803328023627
 30
0.0
 40
4.0
100
AcDbArc
 50
148.1457059206461
 51
180.0
  0
LINE
  5
BA0
330
1E
100
AcDbEntity
  8
STEMPEL
100
AcDbLine
 10
153.1123967548037
 20
483.7803328023627
 30
0.0
 11
153.1123967548037
 21
483.721812058822
 31
0.0
  0
POINT
  5
BA1
330
1E
100
AcDbEntity
  8
DEFPOINTS
  6
ByBlock
 62
     0
100
AcDbPoint
 10
153.1123967548037
 20
483.721812058822
 30
0.0
  0
LINE
  5
BA4
330
1E
100
AcDbEntity
  8
STEMPEL
100
AcDbLine
 10
153.7148249041779
 20
485.8913765062768
 30
0.0
 11
156.2760318357776
 21
490.0134534477898
 31
0.0
  0
LINE
  5
BA5
330
1E
100
AcDbEntity
  8
STEMPEL
100
AcDbLine
 10
160.3623967548037
 20
484.5218120588221
 30
0.0
 11
158.9990100191959
 21
489.6100406264759
 31
0.0
  0
ARC
  5
BA7
330
1E
100
AcDbEntity
  8
STEMPEL
100
AcDbCircle
 10
157.5501212797623
 20
489.2218120588221
 30
0.0
 40
1.5
100
AcDbArc
 50
15.00000000000074
 51
148.1457059206488
  0
LINE
  5
BA9
330
1E
100
AcDbEntity
  8
STEMPEL
100
AcDbLine
 10
266.8632099391619
 20
465.7218120588218
 30
0.0
 11
266.4619816783842
 21
467.721812058822
 31
0.0
  0
LINE
  5
BAA
330
1E
100
AcDbEntity
  8
STEMPEL
100
AcDbLine
 10
264.2613762403696
 20
467.721812058822
 30
0.0
 11
266.4619816783842
 21
467.721812058822
 31
0.0
  0
ARC
  5
BAB
330
1E
100
AcDbEntity
  8
STEMPEL
100
AcDbCircle
 10
231.0574655709121
 20
468.6619746001048
 30
0.0
 40
33.21721826627526
100
AcDbArc
 50
349.3101398003326
 51
358.3781140280832
  0
LINE
  5
BAC
330
1E
100
AcDbEntity
  8
STEMPEL
100
AcDbLine
 10
264.1443063626862
 20
465.721812058822
 30
0.0
 11
268.3623967548036
 21
465.721812058822
 31
0.0
  0
ARC
  5
BAE
330
1E
100
AcDbEntity
  8
STEMPEL
100
AcDbCircle
 10
265.174672229845
 20
489.221812058822
 30
0.0
 40
1.5
100
AcDbArc
 50
31.85429407935098
 51
164.9999999999991
  0
LINE
  5
BB0
330
1E
100
AcDbEntity
  8
STEMPEL
100
AcDbLine
 10
262.3623967548037
 20
484.5218120588219
 30
0.0
 11
263.7257834904115
 21
489.6100406264757
 31
0.0
  0
LINE
  5
BB1
330
1E
100
AcDbEntity
  8
STEMPEL
100
AcDbLine
 10
269.0099686054294
 20
485.8913765062767
 30
0.0
 11
266.4487616738297
 21
490.0134534477897
 31
0.0
  0
POINT
  5
BB2
330
1E
100
AcDbEntity
  8
DEFPOINTS
  6
ByBlock
 62
     0
100
AcDbPoint
 10
269.6123967548037
 20
483.7218120588218
 30
0.0
  0
LINE
  5
BB3
330
1E
100
AcDbEntity
  8
STEMPEL
100
AcDbLine
 10
269.6123967548037
 20
483.7803328023626
 30
0.0
 11
269.6123967548037
 21
483.7218120588218
 31
0.0
  0
ARC
  5
BB4
330
1E
100
AcDbEntity
  8
STEMPEL
100
AcDbCircle
 10
265.6123967548037
 20
483.7803328023626
 30
0.0
 40
4.0
100
AcDbArc
 50
359.9999999999998
 51
31.85429407935375
  0
LINE
  5
BDD
330
1E
100
AcDbEntity
  8
STEMPEL
100
AcDbLine
 10
264.8623967548035
 20
483.7218120588221
 30
0.0
 11
293.8623967548035
 21
483.7218120588221
 31
0.0
  0
LINE
  5
12BC
330
1E
100
AcDbEntity
  8
STEMPEL
100
AcDbLine
 10
262.3623967548035
 20
512.1703376302588
 30
0.0
 11
262.3623967548035
 21
421.7218120588221
 31
0.0
  0
ARC
  5
12BD
330
1E
100
AcDbEntity
  8
STEMPEL
100
AcDbCircle
 10
245.3623967548036
 20
551.1170605962509
 30
0.0
 40
25.0
100
AcDbArc
 50
0.0
 51
24.99999999999207
  0
ARC
  5
12BE
330
1E
100
AcDbEntity
  8
STEMPEL
100
AcDbCircle
 10
245.3623967548036
 20
532.954812058822
 30
0.0
 40
24.99990931069965
100
AcDbArc
 50
317.8967366126345
 51
338.952877128059
  0
LINE
  5
12BF
330
1E
100
AcDbEntity
  8
STEMPEL
100
AcDbLine
 10
267.0691525927286
 20
563.721812058822
 30
0.0
 11
268.0200914307199
 21
561.6825171397684
 31
0.0
  0
LINE
  5
12C0
330
1E
100
AcDbEntity
  8
STEMPEL
100
AcDbLine
 10
270.3623967548036
 20
551.1170605962509
 30
0.0
 11
270.3623967548036
 21
532.954812058822
 31
0.0
  0
ARC
  5
12C1
330
1E
100
AcDbEntity
  8
STEMPEL
100
AcDbCircle
 10
177.3623967548036
 20
551.1170605962509
 30
0.0
 40
25.0
100
AcDbArc
 50
155.0000000000109
 51
180.0
  0
LINE
  5
12C2
330
1E
100
AcDbEntity
  8
STEMPEL
100
AcDbLine
 10
152.3623967548036
 20
551.1170605962509
 30
0.0
 11
152.3623967548036
 21
532.954812058822
 31
0.0
  0
LINE
  5
12C3
330
1E
100
AcDbEntity
  8
STEMPEL
100
AcDbLine
 10
155.6556409168786
 20
563.721812058822
 30
0.0
 11
154.7047020788873
 21
561.6825171397684
 31
0.0
  0
ARC
  5
12C4
330
1E
100
AcDbEntity
  8
STEMPEL
100
AcDbCircle
 10
177.3623967548036
 20
532.954812058822
 30
0.0
 40
24.99990931069965
100
AcDbArc
 50
180.0
 51
222.1032633873655
  0
LINE
  5
12C5
330
1E
100
AcDbEntity
  8
HILF
  6
Continuous
100
AcDbLine
 10
266.3115072166905
 20
531.4950305980305
 30
0.0
 11
156.4132862929167
 21
531.4950305980305
 31
0.0
  0
LINE
  5
12C6
330
1E
100
AcDbEntity
  8
STEMPEL
100
AcDbLine
 10
261.6624874465962
 20
413.7218120588221
 30
0.0
 11
161.0623060630109
 21
413.7218120588221
 31
0.0
  0
LINE
  5
13DE
330
1E
100
AcDbEntity
  8
STEMPEL
100
AcDbLine
 10
160.3623967548036
 20
512.1703376302587
 30
0.0
 11
160.3623967548036
 21
421.7218120588206
 31
0.0
  0
ARC
  5
14AD
330
1E
100
AcDbEntity
  8
STEMPEL
100
AcDbCircle
 10
268.3623967548035
 20
512.1703376302588
 30
0.0
 40
6.0
100
AcDbArc
 50
137.8967366126345
 51
180.0
  0
ARC
  5
14AE
330
1E
100
AcDbEntity
  8
STEMPEL
100
AcDbCircle
 10
154.3623967548036
 20
512.1703376302587
 30
0.0
 40
6.0
100
AcDbArc
 50
0.0
 51
42.10326338736546
  0
ARC
  5
14ED
330
1E
100
AcDbEntity
  8
STEMPEL
100
AcDbCircle
 10
245.3623967548036
 20
532.954812058822
 30
0.0
 40
24.99990931069965
100
AcDbArc
 50
338.952877128059
 51
0.0
  0
LINE
  5
14EE
330
1E
100
AcDbEntity
  8
STEMPEL
100
AcDbLine
 10
267.0691525927285
 20
563.721812058822
 30
0.0
 11
264.8623967548037
 21
563.721812058822
 31
0.0
  0
HATCH
  5
1521
330
1E
100
AcDbEntity
  8
SCHRAFF
100
AcDbHatch
 10
0.0
 20
0.0
 30
0.0
210
0.0
220
0.0
230
1.0
  2
NET
 70
     0
 71
     0
 91
        2
 92
        7
 72
     1
 73
     1
 93
       14
 10
159.0265732657881
 20
462.5004225446184
 42
0.0
 10
160.3623967548037
 20
462.5004225446184
 42
0.0
 10
160.3623967548037
 20
484.521812058822
 42
0.0
 10
158.9990100191959
 20
489.6100406264759
 42
0.6565381519876298
 10
156.2760318357776
 20
490.0134534477898
 42
0.0
 10
153.7148249041779
 20
485.8913765062768
 42
0.1436237563963259
 10
153.1128248623913
 20
483.7218120588219
 42
0.0
 10
157.8623967548036
 20
483.7218120588219
 42
0.0
 10
156.5173176529607
 20
480.837280616287
 42
0.1095178116832402
 10
154.3623967548037
 20
471.1170605962511
 42
0.0
 10
154.3623967548037
 20
465.7218120588222
 42
0.0
 10
155.8615835704453
 20
465.7218120588222
 42
0.0
 10
156.2628118312231
 20
467.7218120588221
 42
0.0
 10
158.4634172692377
 20
467.7218120588221
 42
0.0395871618533307
 97
        0
 92
        7
 72
     1
 73
     1
 93
       14
 10
262.3623967548036
 20
462.5004225446184
 42
0.0
 10
263.6982202438192
 20
462.5004225446184
 42
0.0395871618533296
 10
264.26137624037
 20
467.721812058822
 42
0.0
 10
266.4619816783842
 20
467.721812058822
 42
0.0
 10
266.8632099391619
 20
465.721812058822
 42
0.0
 10
268.3623967548035
 20
465.721812058822
 42
0.0
 10
268.3623967548035
 20
471.1170605962508
 42
0.1095178116832408
 10
266.2074758566465
 20
480.8372806162869
 42
0.0
 10
264.8623967548035
 20
483.7218120588221
 42
0.0
 10
269.6119686472161
 20
483.7218120588221
 42
0.1436237563963077
 10
269.0099686054294
 20
485.8913765062767
 42
0.0
 10
266.4487616738297
 20
490.0134534477897
 42
0.6565381519876297
 10
263.7257834904115
 20
489.6100406264757
 42
0.0
 10
262.3623967548037
 20
484.521812058822
 42
0.0
 97
        0
 75
     0
 76
     1
 52
45.0
 41
15.0
 77
     0
 78
     2
 53
45.0
 43
436.4011014067592
 44
17.49592951155324
 45
-1.325825214724776
 46
1.325825214724776
 79
     0
 53
135.0
 43
436.4011014067592
 44
17.49592951155324
 45
-1.325825214724776
 46
-1.325825214724776
 79
     0
 47
0.1627172834468807
 98
        4
 10
262.8748000713331
 20
476.008809162666
 10
160.4883930403416
 20
476.8223960425346
 10
159.0234036994225
 20
476.496961682127
 10
265.3164456803693
 20
476.008809162666
  0
LINE
  5
1725
330
1E
100
AcDbEntity
  8
STEMPEL
100
AcDbLine
 10
264.8623967548036
 20
563.7218120588222
 30
0.0
 11
269.6123967548039
 21
563.7218120588222
 31
0.0
  0
LINE
  5
1726
330
1E
100
AcDbEntity
  8
STEMPEL
100
AcDbLine
 10
153.1123967548038
 20
563.721812058822
 30
0.0
 11
157.8623967548038
 21
563.721812058822
 31
0.0
  0
ARC
  5
1727
330
1E
100
AcDbEntity
  8
STEMPEL
100
AcDbCircle
 10
245.3623967548036
 20
551.1170605962509
 30
0.0
 40
23.0
100
AcDbArc
 50
0.0
 51
24.99999999998912
  0
LINE
  5
1728
330
1E
100
AcDbEntity
  8
STEMPEL
100
AcDbLine
 10
264.8623967548037
 20
563.721812058822
 30
0.0
 11
266.2074758566466
 21
560.8372806162869
 31
0.0
  0
ARC
  5
1729
330
1E
100
AcDbEntity
  8
STEMPEL
100
AcDbCircle
 10
177.3623967548038
 20
551.1170605962509
 30
0.0
 40
23.0
100
AcDbArc
 50
155.0000000000107
 51
180.0
  0
LINE
  5
172A
330
1E
100
AcDbEntity
  8
STEMPEL
100
AcDbLine
 10
157.8623967548038
 20
563.721812058822
 30
0.0
 11
156.5173176529608
 21
560.8372806162869
 31
0.0
  0
LINE
  5
172B
330
1E
100
AcDbEntity
  8
STEMPEL
100
AcDbLine
 10
265.1746722298452
 20
570.721812058822
 30
0.0
 11
262.1623967548039
 21
570.721812058822
 31
0.0
  0
LINE
  5
172C
330
1E
100
AcDbEntity
  8
STEMPEL
100
AcDbLine
 10
263.6982202438193
 20
542.5004225446184
 30
0.0
 11
159.0265732657882
 21
542.5004225446184
 31
0.0
  0
LINE
  5
172D
330
1E
100
AcDbEntity
  8
STEMPEL
100
AcDbLine
 10
160.5623967548038
 20
564.521812058822
 30
0.0
 11
160.5623967548038
 21
542.5004225446184
 31
0.0
  0
LINE
  5
172E
330
1E
100
AcDbEntity
  8
STEMPEL
100
AcDbLine
 10
158.5804871469212
 20
545.7218120588222
 30
0.0
 11
154.3623967548038
 21
545.7218120588222
 31
0.0
  0
ARC
  5
172F
330
1E
100
AcDbEntity
  8
STEMPEL
100
AcDbCircle
 10
191.6673279386952
 20
548.6619746001049
 30
0.0
 40
33.21721826627526
100
AcDbArc
 50
181.6218859719166
 51
190.6898601996673
  0
LINE
  5
1730
330
1E
100
AcDbEntity
  8
STEMPEL
100
AcDbLine
 10
158.4634172692377
 20
547.7218120588219
 30
0.0
 11
156.2628118312233
 21
547.7218120588219
 31
0.0
  0
LINE
  5
1731
330
1E
100
AcDbEntity
  8
STEMPEL
100
AcDbLine
 10
155.8615835704455
 20
545.721812058822
 30
0.0
 11
156.2628118312233
 21
547.7218120588219
 31
0.0
  0
ARC
  5
1732
330
1E
100
AcDbEntity
  8
STEMPEL
100
AcDbCircle
 10
157.1123967548038
 20
563.7803328023626
 30
0.0
 40
4.0
100
AcDbArc
 50
148.1457059206461
 51
180.0
  0
LINE
  5
1733
330
1E
100
AcDbEntity
  8
STEMPEL
100
AcDbLine
 10
153.1123967548038
 20
563.7803328023626
 30
0.0
 11
153.1123967548038
 21
563.721812058822
 31
0.0
  0
POINT
  5
1734
330
1E
100
AcDbEntity
  8
DEFPOINTS
  6
ByBlock
 62
     0
100
AcDbPoint
 10
153.1123967548038
 20
563.721812058822
 30
0.0
  0
LINE
  5
1735
330
1E
100
AcDbEntity
  8
STEMPEL
100
AcDbLine
 10
153.714824904178
 20
565.8913765062768
 30
0.0
 11
156.2760318357777
 21
570.0134534477897
 31
0.0
  0
LINE
  5
1736
330
1E
100
AcDbEntity
  8
STEMPEL
100
AcDbLine
 10
160.5623967548038
 20
564.521812058822
 30
0.0
 11
158.999010019196
 21
569.6100406264759
 31
0.0
  0
POINT
  5
1737
330
1E
100
AcDbEntity
  8
DEFPOINTS
  6
ByBlock
 62
     0
100
AcDbPoint
 10
160.5623967548038
 20
564.521812058822
 30
0.0
  0
ARC
  5
1738
330
1E
100
AcDbEntity
  8
STEMPEL
100
AcDbCircle
 10
157.5501212797625
 20
569.221812058822
 30
0.0
 40
1.5
100
AcDbArc
 50
15.00000000000074
 51
148.1457059206488
  0
LINE
  5
173A
330
1E
100
AcDbEntity
  8
STEMPEL
100
AcDbLine
 10
266.8632099391621
 20
545.7218120588217
 30
0.0
 11
266.4619816783843
 21
547.7218120588219
 31
0.0
  0
LINE
  5
173B
330
1E
100
AcDbEntity
  8
STEMPEL
100
AcDbLine
 10
264.2613762403697
 20
547.7218120588219
 30
0.0
 11
266.4619816783843
 21
547.7218120588219
 31
0.0
  0
ARC
  5
173C
330
1E
100
AcDbEntity
  8
STEMPEL
100
AcDbCircle
 10
231.0574655709122
 20
548.6619746001049
 30
0.0
 40
33.21721826627526
100
AcDbArc
 50
349.3101398003326
 51
358.3781140280832
  0
LINE
  5
173D
330
1E
100
AcDbEntity
  8
STEMPEL
100
AcDbLine
 10
264.1443063626863
 20
545.721812058822
 30
0.0
 11
268.3623967548036
 21
545.721812058822
 31
0.0
  0
LINE
  5
173E
330
1E
100
AcDbEntity
  8
STEMPEL
100
AcDbLine
 10
262.1623967548039
 20
564.521812058822
 30
0.0
 11
262.1623967548038
 21
542.5004225446182
 31
0.0
  0
ARC
  5
173F
330
1E
100
AcDbEntity
  8
STEMPEL
100
AcDbCircle
 10
265.1746722298452
 20
569.221812058822
 30
0.0
 40
1.5
100
AcDbArc
 50
31.85429407935098
 51
164.9999999999991
  0
POINT
  5
1740
330
1E
100
AcDbEntity
  8
DEFPOINTS
  6
ByBlock
 62
     0
100
AcDbPoint
 10
262.1623967548039
 20
564.521812058822
 30
0.0
  0
LINE
  5
1741
330
1E
100
AcDbEntity
  8
STEMPEL
100
AcDbLine
 10
262.1623967548039
 20
564.521812058822
 30
0.0
 11
263.7257834904116
 21
569.6100406264756
 31
0.0
  0
LINE
  5
1742
330
1E
100
AcDbEntity
  8
STEMPEL
100
AcDbLine
 10
269.0099686054296
 20
565.8913765062766
 30
0.0
 11
266.4487616738298
 21
570.0134534477897
 31
0.0
  0
POINT
  5
1743
330
1E
100
AcDbEntity
  8
DEFPOINTS
  6
ByBlock
 62
     0
100
AcDbPoint
 10
269.6123967548039
 20
563.7218120588218
 30
0.0
  0
LINE
  5
1744
330
1E
100
AcDbEntity
  8
STEMPEL
100
AcDbLine
 10
269.6123967548039
 20
563.7803328023626
 30
0.0
 11
269.6123967548039
 21
563.7218120588218
 31
0.0
  0
ARC
  5
1745
330
1E
100
AcDbEntity
  8
STEMPEL
100
AcDbCircle
 10
265.6123967548039
 20
563.7803328023626
 30
0.0
 40
4.0
100
AcDbArc
 50
359.9999999999998
 51
31.85429407935375
  0
SPLINE
  5
1747
330
1E
100
AcDbEntity
  8
HILF
100
AcDbSpline
210
0.0
220
0.0
230
1.0
 70
     8
 71
     3
 72
    14
 73
    10
 74
     0
 42
0.0000000001
 43
0.0000000001
 40
2.845719147282152
 40
2.845719147282152
 40
2.845719147282152
 40
2.845719147282152
 40
10.73587578840896
 40
34.7532423424688
 40
55.57610755676698
 40
81.49953967840653
 40
98.21440874582515
 40
114.6378826764873
 40
119.8681168935136
 40
119.8681168935136
 40
119.8681168935136
 40
119.8681168935136
 10
269.4046105768896
 20
526.1015340054885
 30
0.0
 10
266.8335961166508
 20
526.775755373358
 30
0.0
 10
256.4202422024966
 20
529.0653392168155
 30
0.0
 10
238.8011811457771
 20
521.8325253954417
 30
0.0
 10
215.5359394562382
 20
530.8862997482888
 30
0.0
 10
194.3998600796579
 20
521.2274961655189
 30
0.0
 10
175.054960028276
 20
530.3904757944041
 30
0.0
 10
162.5361638734389
 20
523.5985177268067
 30
0.0
 10
155.5420354558963
 20
524.1351483437838
 30
0.0
 10
153.8555939327304
 20
524.4444838261775
 30
0.0
  0
LINE
  5
1748
330
1E
100
AcDbEntity
  8
STEMPEL
100
AcDbLine
 10
160.3623967548036
 20
462.5004225446184
 30
0.0
 11
159.0265732657881
 21
462.5004225446184
 31
0.0
  0
LINE
  5
1754
330
1E
100
AcDbEntity
  8
STEMPEL
100
AcDbLine
 10
160.3623967548036
 20
490.7218120588221
 30
0.0
 11
157.5501212797623
 21
490.7218120588221
 31
0.0
  0
LINE
  5
176A
330
1E
100
AcDbEntity
  8
STEMPEL
100
AcDbLine
 10
157.8623967548038
 20
563.721812058822
 30
0.0
 11
155.6556409168786
 21
563.721812058822
 31
0.0
  0
HATCH
  5
17B2
330
1E
100
AcDbEntity
  8
SCHRAFF
100
AcDbHatch
 10
0.0
 20
0.0
 30
0.0
210
0.0
220
0.0
230
1.0
  2
NET
 70
     0
 71
     0
 91
        2
 92
        7
 72
     1
 73
     1
 93
       14
 10
266.2074758566466
 20
560.8372806162869
 42
0.0
 10
264.8623967548035
 20
563.7218120588222
 42
0.0
 10
269.6119686472163
 20
563.7218120588222
 42
0.1436237563962968
 10
269.0099686054296
 20
565.8913765062766
 42
0.0
 10
266.4487616738298
 20
570.0134534477897
 42
0.6565381519876297
 10
263.7257834904116
 20
569.6100406264756
 42
0.0
 10
262.3623967548038
 20
564.521812058822
 42
0.0
 10
262.3623967548037
 20
542.5004225446184
 42
0.0
 10
263.6982202438193
 20
542.5004225446184
 42
0.0395871618533296
 10
264.26137624037
 20
547.7218120588219
 42
0.0
 10
266.4619816783843
 20
547.7218120588219
 42
0.0
 10
266.863209939162
 20
545.7218120588222
 42
0.0
 10
268.3623967548038
 20
545.721812058822
 42
0.0
 10
268.3623967548036
 20
551.1170605962509
 42
0.1095178116832403
 97
        0
 92
        7
 72
     1
 73
     1
 93
       14
 10
160.3623967548038
 20
564.521812058822
 42
0.0
 10
158.999010019196
 20
569.6100406264759
 42
0.65653815198762
 10
156.2760318357777
 20
570.0134534477897
 42
0.0
 10
153.714824904178
 20
565.8913765062768
 42
0.1436237563963185
 10
153.1128248623914
 20
563.721812058822
 42
0.0
 10
157.8623967548038
 20
563.721812058822
 42
0.0
 10
156.5173176529608
 20
560.8372806162869
 42
0.1095178116832402
 10
154.3623967548038
 20
551.1170605962511
 42
0.0
 10
154.3623967548038
 20
545.7218120588222
 42
0.0
 10
155.8615835704456
 20
545.7218120588222
 42
0.0
 10
156.2628118312233
 20
547.7218120588219
 42
0.0
 10
158.4634172692377
 20
547.7218120588219
 42
0.0395871618533303
 10
159.0265732657882
 20
542.5004225446184
 42
0.0
 10
160.3623967548038
 20
542.5004225446184
 42
0.0
 97
        0
 75
     0
 76
     1
 52
45.0
 41
15.0
 77
     0
 78
     2
 53
45.0
 43
436.4011014067592
 44
17.49592951155324
 45
-1.325825214724776
 46
1.325825214724776
 79
     0
 53
135.0
 43
436.4011014067592
 44
17.49592951155324
 45
-1.325825214724776
 46
-1.325825214724776
 79
     0
 47
0.2602210412868224
 98
        2
 10
263.9436396318056
 20
551.4965796908243
 10
159.8173560931163
 20
557.2214429336943
  0
DIMENSION
  5
17FB
330
1E
100
AcDbEntity
  8
BEM
100
AcDbDimension
  2
*D2
 10
262.3623967548033
 20
155.7387147865757
 30
0.0
 11
211.3623967548031
 21
162.2387147865757
 31
0.0
 70
    32
  1
%%c<>
 71
     5
 42
102.0000000000003
  3
Standard
100
AcDbAlignedDimension
 13
160.3623967548029
 23
181.6344901730046
 33
0.0
 14
262.3623967548033
 24
181.6344901730061
 34
0.0
100
AcDbRotatedDimension
1001
ACAD
1000
DSTYLE
1002
{
1070
    40
1040
2.0
1070
    41
1040
3.5
1070
    42
1040
1.0
1070
    43
1040
7.0
1070
    44
1040
1.0
1070
    73
1070
     0
1070
    74
1070
     0
1070
    77
1070
     1
1070
    78
1070
     8
1070
    79
1070
     2
1070
   140
1040
3.5
1070
   141
1040
1.5
1070
   146
1040
0.5142857142857144
1070
   147
1040
1.5
1070
   172
1070
     1
1070
   178
1070
     1
1070
   179
1070
     2
1070
   271
1070
     2
1070
   272
1070
     2
1070
   284
1070
     8
1070
   285
1070
     8
1070
   286
1070
     8
1002
}
  0
DIMENSION
  5
1808
330
1E
100
AcDbEntity
  8
BEM
100
AcDbDimension
  2
*D3
 10
290.8623967548034
 20
142.4766807159213
 30
0.0
 11
211.3623967548035
 21
148.9766807159213
 31
0.0
 70
    32
  1
%%c<>
 71
     5
 42
158.9999999999999
  3
Standard
100
AcDbAlignedDimension
 13
131.8623967548035
 23
313.721812058822
 33
0.0
 14
290.8623967548034
 24
313.7218120588221
 34
0.0
100
AcDbRotatedDimension
1001
ACAD
1000
DSTYLE
1002
{
1070
    40
1040
2.0
1070
    41
1040
3.5
1070
    42
1040
1.0
1070
    43
1040
7.0
1070
    44
1040
1.0
1070
    73
1070
     0
1070
    74
1070
     0
1070
    77
1070
     1
1070
    78
1070
     8
1070
    79
1070
     2
1070
   140
1040
3.5
1070
   141
1040
1.5
1070
   146
1040
0.5142857142857144
1070
   147
1040
1.5
1070
   172
1070
     1
1070
   178
1070
     1
1070
   179
1070
     2
1070
   271
1070
     2
1070
   272
1070
     2
1070
   284
1070
     8
1070
   285
1070
     8
1070
   286
1070
     8
1002
}
  0
DIMENSION
  5
1815
330
1E
100
AcDbEntity
  8
BEM
100
AcDbDimension
  2
*D4
 10
333.8623967548033
 20
128.3349306137846
 30
0.0
 11
211.3623967548034
 21
134.8349306137846
 31
0.0
 70
    32
  1
%%c<>
 71
     5
 42
244.9999999999998
  3
Standard
100
AcDbAlignedDimension
 13
88.86239675480352
 23
408.7218120588219
 33
0.0
 14
333.8623967548033
 24
408.7218120588219
 34
0.0
100
AcDbRotatedDimension
1001
ACAD
1000
DSTYLE
1002
{
1070
    40
1040
2.0
1070
    41
1040
3.5
1070
    42
1040
1.0
1070
    43
1040
7.0
1070
    44
1040
1.0
1070
    73
1070
     0
1070
    74
1070
     0
1070
    77
1070
     1
1070
    78
1070
     8
1070
    79
1070
     2
1070
   140
1040
3.5
1070
   141
1040
1.5
1070
   146
1040
0.5142857142857144
1070
   147
1040
1.5
1070
   172
1070
     1
1070
   178
1070
     1
1070
   179
1070
     2
1070
   271
1070
     2
1070
   272
1070
     2
1070
   284
1070
     8
1070
   285
1070
     8
1070
   286
1070
     8
1002
}
  0
DIMENSION
  5
183D
330
1E
100
AcDbEntity
  8
BEM
100
AcDbDimension
  2
*D5
 10
77.99834607342972
 20
403.7218120588218
 30
0.0
 11
71.49834607342967
 21
443.7218120588219
 31
0.0
 70
    32
 71
     5
 42
80.00000000000017
  3
Standard
100
AcDbAlignedDimension
 13
128.8623967548036
 23
483.7218120588219
 33
0.0
 14
93.03111777101618
 24
403.7218120588218
 34
0.0
 50
90.0
100
AcDbRotatedDimension
1001
ACAD
1000
DSTYLE
1002
{
1070
    40
1040
2.0
1070
    41
1040
3.5
1070
    42
1040
1.0
1070
    43
1040
7.0
1070
    44
1040
1.0
1070
    73
1070
     0
1070
    74
1070
     0
1070
    77
1070
     1
1070
    78
1070
     8
1070
    79
1070
     2
1070
   140
1040
3.5
1070
   141
1040
1.5
1070
   146
1040
0.5142857142857144
1070
   147
1040
1.5
1070
   172
1070
     1
1070
   178
1070
     1
1070
   179
1070
     2
1070
   271
1070
     2
1070
   272
1070
     2
1070
   284
1070
     8
1070
   285
1070
     8
1070
   286
1070
     8
1002
}
  0
DIMENSION
  5
184A
330
1E
100
AcDbEntity
  8
BEM
100
AcDbDimension
  2
*D6
 10
63.99834607342967
 20
313.7218120588221
 30
0.0
 11
57.49834607342962
 21
398.721812058822
 31
0.0
 70
    32
 71
     5
 42
169.9999999999999
  3
Standard
100
AcDbAlignedDimension
 13
128.8623967548036
 23
483.7218120588219
 33
0.0
 14
131.8623967548035
 24
313.721812058822
 34
0.0
 50
90.0
100
AcDbRotatedDimension
1001
ACAD
1000
DSTYLE
1002
{
1070
    40
1040
2.0
1070
    41
1040
3.5
1070
    42
1040
1.0
1070
    43
1040
7.0
1070
    44
1040
1.0
1070
    73
1070
     0
1070
    74
1070
     0
1070
    77
1070
     1
1070
    78
1070
     8
1070
    79
1070
     2
1070
   140
1040
3.5
1070
   141
1040
1.5
1070
   146
1040
0.5142857142857144
1070
   147
1040
1.5
1070
   172
1070
     1
1070
   178
1070
     1
1070
   179
1070
     2
1070
   271
1070
     2
1070
   272
1070
     2
1070
   284
1070
     8
1070
   285
1070
     8
1070
   286
1070
     8
1002
}
  0
DIMENSION
  5
1864
330
1E
100
AcDbEntity
  8
BEM
100
AcDbDimension
  2
*D7
 10
49.12975696537063
 20
173.7218120588219
 30
0.0
 11
42.62975696537061
 21
328.721812058822
 31
0.0
 70
    32
 71
     5
 42
310.0000000000001
  3
Standard
100
AcDbAlignedDimension
 13
128.8623967548036
 23
483.7218120588219
 33
0.0
 14
161.0546663879236
 24
173.7218120588219
 34
0.0
 50
90.0
100
AcDbRotatedDimension
1001
ACAD
1000
DSTYLE
1002
{
1070
    40
1040
2.0
1070
    41
1040
3.5
1070
    42
1040
1.0
1070
    43
1040
7.0
1070
    44
1040
1.0
1070
    73
1070
     0
1070
    74
1070
     0
1070
    77
1070
     1
1070
    78
1070
     8
1070
    79
1070
     2
1070
   140
1040
3.5
1070
   141
1040
1.5
1070
   146
1040
0.5142857142857144
1070
   147
1040
1.5
1070
   172
1070
     1
1070
   178
1070
     1
1070
   179
1070
     2
1070
   271
1070
     2
1070
   272
1070
     2
1070
   284
1070
     8
1070
   285
1070
     8
1070
   286
1070
     8
1002
}
  0
DIMENSION
  5
1888
330
1E
100
AcDbEntity
  8
BEM
100
AcDbDimension
  2
*D8
 10
49.12975696537069
 20
570.721812058822
 30
0.0
 11
42.62975696537059
 21
527.2218120588219
 31
0.0
 70
    32
  1
100 - 128
 71
     5
 42
87.0
  3
Standard
100
AcDbAlignedDimension
 13
128.8623967548036
 23
483.7218120588219
 33
0.0
 14
157.5501212797625
 24
570.721812058822
 34
0.0
 50
90.0
100
AcDbRotatedDimension
1001
ACAD
1000
DSTYLE
1002
{
1070
    40
1040
2.0
1070
    41
1040
3.5
1070
    42
1040
1.0
1070
    43
1040
7.0
1070
    44
1040
1.0
1070
    73
1070
     0
1070
    74
1070
     0
1070
    77
1070
     1
1070
    78
1070
     8
1070
    79
1070
     2
1070
   140
1040
3.5
1070
   141
1040
1.5
1070
   146
1040
0.5142857142857144
1070
   147
1040
1.5
1070
   172
1070
     1
1070
   178
1070
     1
1070
   179
1070
     2
1070
   271
1070
     2
1070
   272
1070
     2
1070
   284
1070
     8
1070
   285
1070
     8
1070
   286
1070
     8
1002
}
  0
DIMENSION
  5
1AB7
330
1E
100
AcDbEntity
  8
BEM
100
AcDbDimension
  2
*D9
 10
341.362396754804
 20
718.3300011924951
 30
0.0
 11
211.362396754804
 21
724.8300011924952
 31
0.0
 70
    32
  1
%%c<>
 71
     5
 42
260.0
  3
Standard
100
AcDbAlignedDimension
 13
81.362396754804
 23
599.2218120588225
 33
0.0
 14
341.362396754804
 24
599.2218120588214
 34
0.0
100
AcDbRotatedDimension
1001
ACAD
1000
DSTYLE
1002
{
1070
    40
1040
2.0
1070
    41
1040
3.5
1070
    42
1040
1.0
1070
    43
1040
7.0
1070
    44
1040
1.0
1070
    73
1070
     0
1070
    74
1070
     0
1070
    77
1070
     1
1070
    78
1070
     8
1070
    79
1070
     2
1070
   140
1040
3.5
1070
   141
1040
1.5
1070
   146
1040
0.5142857142857144
1070
   147
1040
1.5
1070
   172
1070
     1
1070
   178
1070
     1
1070
   179
1070
     2
1070
   271
1070
     2
1070
   272
1070
     2
1070
   284
1070
     8
1070
   285
1070
     8
1070
   286
1070
     8
1002
}
  0
LINE
  5
1AB8
330
1E
100
AcDbEntity
  8
STEMPEL
100
AcDbLine
 10
346.3623967548038
 20
581.7218120588225
 30
0.0
 11
76.36239675480396
 21
581.7218120588218
 31
0.0
  0
LINE
  5
1AB9
330
1E
100
AcDbEntity
  8
STEMPEL
100
AcDbLine
 10
76.36239675480396
 20
583.2218120588221
 30
0.0
 11
76.36239675480394
 21
581.7218120588218
 31
0.0
  0
ARC
  5
1ABA
330
1E
100
AcDbEntity
  8
SCHRAFF
100
AcDbCircle
 10
160.717452719351
 20
581.7218120588222
 30
0.0
 40
1.828088629478462
100
AcDbArc
 50
304.8622016819284
 51
55.13779831807161
  0
HATCH
  5
1ABB
330
1E
100
AcDbEntity
  8
SCHRAFF
100
AcDbHatch
 10
0.0
 20
0.0
 30
0.0
210
0.0
220
0.0
230
1.0
  2
_USER
 70
     0
 71
     0
 91
        2
 92
        7
 72
     1
 73
     1
 93
        3
 10
161.7623967548038
 20
583.2218120588217
 42
-0.2453357974240878
 10
162.5455413488291
 20
581.7218120588222
 42
0.0
 10
161.7623967548039
 20
581.7218120588222
 42
0.0
 97
        0
 92
        7
 72
     1
 73
     1
 93
        3
 10
161.7623967548038
 20
581.7218120588222
 42
0.0
 10
162.5455413488295
 20
581.7218120588222
 42
-0.2453357974242125
 10
161.7623967548038
 20
580.2218120588222
 42
0.0
 97
        0
 75
     0
 76
     0
 52
0.0
 41
0.1
 77
     0
 78
     1
 53
179.9999999999998
 43
422.0623967548022
 44
68.29529943118166
 45
0.0000000000000003
 46
0.1
 79
     0
 47
0.0937308931428171
 98
        2
 10
162.1136439417467
 20
582.1666684002757
 10
162.0198789259719
 20
581.3230898707891
  0
LINE
  5
1ABC
330
1E
100
AcDbEntity
  8
STEMPEL
100
AcDbLine
 10
160.5623967548039
 20
581.7218120588223
 30
0.0
 11
160.5623967548039
 21
541.669418927332
 31
0.0
  0
LINE
  5
1ABD
330
1E
100
AcDbEntity
  8
STEMPEL
100
AcDbLine
 10
161.7623967548039
 20
583.221812058822
 30
0.0
 11
161.7623967548038
 21
541.7218120588221
 31
0.0
  0
LINE
  5
1ABE
330
1E
100
AcDbEntity
  8
STEMPEL
100
AcDbLine
 10
161.7623967548038
 20
541.7218120588221
 30
0.0
 11
162.6372833900631
 21
531.7218120588221
 31
0.0
  0
LINE
  5
1ABF
330
1E
100
AcDbEntity
  8
STEMPEL
100
AcDbLine
 10
160.5623967548039
 20
541.669418927332
 30
0.0
 11
161.432699585011
 21
531.721812058822
 31
0.0
  0
LINE
  5
1AC0
330
1E
100
AcDbEntity
  8
STEMPEL
100
AcDbLine
 10
172.2385278934722
 20
581.7218120588222
 30
0.0
 11
170.5212802512418
 21
571.9069023432061
 31
0.0
  0
ELLIPSE
  5
1AC1
330
1E
100
AcDbEntity
  8
STEMPEL
100
AcDbEllipse
 10
167.3683062425544
 20
573.7218120588222
 30
0.0
 11
0.0000000000000166
 21
6.0
 31
0.0
210
0.0
220
0.0
230
-1.0
 40
0.5513228499210167
 41
1.878094989772523
 42
2.965625447397827
  0
LINE
  5
1AC2
330
1E
100
AcDbEntity
  8
STEMPEL
100
AcDbLine
 10
173.1627137720864
 20
581.7218120588222
 30
0.0
 11
171.4860310347905
 21
571.9069023432061
 31
0.0
  0
ELLIPSE
  5
1AC3
330
1E
100
AcDbEntity
  8
STEMPEL
100
AcDbEllipse
 10
168.4075367270957
 20
573.7218120588222
 30
0.0
 11
0.0000000000000166
 21
6.0
 31
0.0
210
0.0
220
0.0
230
-1.0
 40
0.5382994755134405
 41
1.878094989772521
 42
3.141592653589793
  0
LINE
  5
1AC4
330
1E
100
AcDbEntity
  8
STEMPEL
100
AcDbLine
 10
164.8635011736611
 20
581.7218120588222
 30
0.0
 11
165.8516188156681
 21
572.3218237536998
 31
0.0
  0
ELLIPSE
  5
1AC5
330
1E
100
AcDbEntity
  8
STEMPEL
100
AcDbEllipse
 10
168.4075367270957
 20
573.7218120588222
 30
0.0
 11
0.0000000000000166
 21
6.0
 31
0.0
210
0.0
220
0.0
230
-1.0
 40
0.4380784772424609
 41
3.141592653589793
 42
4.476886748139611
  0
ARC
  5
1AC6
330
1E
100
AcDbEntity
  8
SCHRAFF
100
AcDbCircle
 10
189.8365654371532
 20
581.7218120588221
 30
0.0
 40
5.0
100
AcDbArc
 50
342.5423968762808
 51
17.45760312371915
  0
ARC
  5
1AC7
330
1E
100
AcDbEntity
  8
SCHRAFF
100
AcDbCircle
 10
184.8365654371532
 20
581.7218120588221
 30
0.0
 40
5.0
100
AcDbArc
 50
342.5423968762808
 51
17.45760312371915
  0
ARC
  5
1AC8
330
1E
100
AcDbEntity
  8
SCHRAFF
100
AcDbCircle
 10
169.8365654371532
 20
581.7218120588221
 30
0.0
 40
5.0
100
AcDbArc
 50
342.5423968762808
 51
17.45760312371915
  0
ARC
  5
1AC9
330
1E
100
AcDbEntity
  8
SCHRAFF
100
AcDbCircle
 10
174.8365654371531
 20
581.7218120588221
 30
0.0
 40
5.0
100
AcDbArc
 50
342.5423968762808
 51
17.45760312371915
  0
ARC
  5
1ACA
330
1E
100
AcDbEntity
  8
SCHRAFF
100
AcDbCircle
 10
179.8365654371532
 20
581.7218120588221
 30
0.0
 40
5.0
100
AcDbArc
 50
342.5423968762808
 51
17.45760312371915
  0
LINE
  5
1ACB
330
1E
100
AcDbEntity
  8
STEMPEL
100
AcDbLine
 10
202.8623967548039
 20
581.7218120588222
 30
0.0
 11
205.5891884944883
 21
572.0877782822367
 31
0.0
  0
LINE
  5
1ACC
330
1E
100
AcDbEntity
  8
STEMPEL
100
AcDbLine
 10
219.8623967548039
 20
581.7218120588222
 30
0.0
 11
217.1356050151197
 21
572.0877782822367
 31
0.0
  0
ARC
  5
1ACD
330
1E
100
AcDbEntity
  8
STEMPEL
100
AcDbCircle
 10
211.3623967548039
 20
573.7218120588222
 30
0.0
 40
6.0
100
AcDbArc
 50
195.8034962890195
 51
344.1965037109804
  0
ARC
  5
1ACE
330
1E
100
AcDbEntity
  8
SCHRAFF
100
AcDbCircle
 10
194.8365654371532
 20
581.7218120588221
 30
0.0
 40
5.0
100
AcDbArc
 50
342.5423968762808
 51
17.45760312371915
  0
ARC
  5
1ACF
330
1E
100
AcDbEntity
  8
SCHRAFF
100
AcDbCircle
 10
218.5654756044629
 20
581.7218120588221
 30
0.0
 40
5.0
100
AcDbArc
 50
342.5423968762808
 51
17.45760312371915
  0
ARC
  5
1AD0
330
1E
100
AcDbEntity
  8
SCHRAFF
100
AcDbCircle
 10
223.565475604463
 20
581.7218120588221
 30
0.0
 40
5.0
100
AcDbArc
 50
342.5423968762808
 51
17.45760312371915
  0
ARC
  5
1AD1
330
1E
100
AcDbEntity
  8
SCHRAFF
100
AcDbCircle
 10
228.565475604463
 20
581.7218120588221
 30
0.0
 40
5.0
100
AcDbArc
 50
342.5423968762808
 51
17.45760312371915
  0
ARC
  5
1AD2
330
1E
100
AcDbEntity
  8
SCHRAFF
100
AcDbCircle
 10
238.565475604463
 20
581.7218120588221
 30
0.0
 40
5.0
100
AcDbArc
 50
342.5423968762808
 51
17.45760312371915
  0
ARC
  5
1AD3
330
1E
100
AcDbEntity
  8
SCHRAFF
100
AcDbCircle
 10
233.5654756044629
 20
581.7218120588221
 30
0.0
 40
5.0
100
AcDbArc
 50
342.5423968762808
 51
17.45760312371915
  0
ELLIPSE
  5
1AD4
330
1E
100
AcDbEntity
  8
STEMPEL
100
AcDbEllipse
 10
254.3172567825121
 20
573.7218120588221
 30
0.0
 11
0.0
 21
6.0
 31
0.0
210
0.0
220
0.0
230
1.0
 40
0.4380784772424609
 41
3.141592653589793
 42
4.476886748139611
  0
LINE
  5
1AD5
330
1E
100
AcDbEntity
  8
STEMPEL
100
AcDbLine
 10
257.8612923359467
 20
581.7218120588221
 30
0.0
 11
256.8731746939396
 21
572.3218237536997
 31
0.0
  0
ELLIPSE
  5
1AD6
330
1E
100
AcDbEntity
  8
STEMPEL
100
AcDbEllipse
 10
254.3172567825121
 20
573.7218120588221
 30
0.0
 11
0.0
 21
6.0
 31
0.0
210
0.0
220
0.0
230
1.0
 40
0.5382994755134405
 41
1.878094989772521
 42
3.141592653589793
  0
LINE
  5
1AD7
330
1E
100
AcDbEntity
  8
STEMPEL
100
AcDbLine
 10
249.5620797375214
 20
581.7218120588222
 30
0.0
 11
251.2387624748172
 21
571.9069023432061
 31
0.0
  0
ELLIPSE
  5
1AD8
330
1E
100
AcDbEntity
  8
STEMPEL
100
AcDbEllipse
 10
255.3564872670534
 20
573.7218120588221
 30
0.0
 11
0.0
 21
6.0
 31
0.0
210
0.0
220
0.0
230
1.0
 40
0.5513228499210167
 41
1.878094989772523
 42
2.965625447397827
  0
LINE
  5
1AD9
330
1E
100
AcDbEntity
  8
STEMPEL
100
AcDbLine
 10
250.4862656161356
 20
581.7218120588222
 30
0.0
 11
252.203513258366
 21
571.906902343206
 31
0.0
  0
ARC
  5
1ADA
330
1E
100
AcDbEntity
  8
SCHRAFF
100
AcDbCircle
 10
243.5654756044629
 20
581.7218120588221
 30
0.0
 40
5.0
100
AcDbArc
 50
342.5423968762808
 51
17.45760312371915
  0
HATCH
  5
1ADB
330
1E
100
AcDbEntity
  8
SCHRAFF
100
AcDbHatch
 10
0.0
 20
0.0
 30
0.0
210
0.0
220
0.0
230
1.0
  2
_USER
 70
     0
 71
     0
 91
        2
 92
        7
 72
     1
 73
     1
 93
        3
 10
260.962396754804
 20
583.2218120588215
 42
0.2453357974240878
 10
260.1792521607787
 20
581.7218120588221
 42
0.0
 10
260.962396754804
 20
581.7218120588221
 42
0.0
 97
        0
 92
        7
 72
     1
 73
     1
 93
        3
 10
260.962396754804
 20
581.7218120588221
 42
0.0
 10
260.1792521607783
 20
581.7218120588221
 42
0.2453357974242125
 10
260.962396754804
 20
580.221812058822
 42
0.0
 97
        0
 75
     0
 76
     0
 52
0.0
 41
0.1
 77
     0
 78
     1
 53
0.0
 43
0.6623967548040639
 44
68.29529943118223
 45
0.0
 46
0.1
 79
     0
 47
0.0937308931428171
 98
        2
 10
260.6111495678612
 20
582.1666684002755
 10
260.704914583636
 20
581.3230898707888
  0
ARC
  5
1ADC
330
1E
100
AcDbEntity
  8
SCHRAFF
100
AcDbCircle
 10
262.0073407902569
 20
581.721812058822
 30
0.0
 40
1.828088629478462
100
AcDbArc
 50
124.8622016819284
 51
235.1377983180716
  0
LINE
  5
1ADD
330
1E
100
AcDbEntity
  8
STEMPEL
100
AcDbLine
 10
261.2920939245967
 20
531.721812058822
 30
0.0
 11
161.432699585011
 21
531.721812058822
 31
0.0
  0
LINE
  5
1ADE
330
1E
100
AcDbEntity
  8
HILF
100
AcDbLine
 10
259.7578129497518
 20
541.7218120588221
 30
0.0
 11
162.9669805598558
 21
541.7218120588221
 31
0.0
  0
LINE
  5
1ADF
330
1E
100
AcDbEntity
  8
STEMPEL
100
AcDbLine
 10
260.962396754804
 20
583.2218120588217
 30
0.0
 11
260.9623967548039
 21
541.7218120588219
 31
0.0
  0
LINE
  5
1AE0
330
1E
100
AcDbEntity
  8
STEMPEL
100
AcDbLine
 10
262.1623967548039
 20
581.7218120588221
 30
0.0
 11
262.1623967548038
 21
541.6694189273317
 31
0.0
  0
LINE
  5
1AE1
330
1E
100
AcDbEntity
  8
STEMPEL
100
AcDbLine
 10
262.1623967548038
 20
541.6694189273317
 30
0.0
 11
261.2920939245967
 21
531.721812058822
 31
0.0
  0
LINE
  5
1AE2
330
1E
100
AcDbEntity
  8
STEMPEL
100
AcDbLine
 10
260.9623967548039
 20
541.7218120588219
 30
0.0
 11
260.0875101195446
 21
531.7218120588218
 31
0.0
  0
HATCH
  5
1AE3
330
1E
100
AcDbEntity
  8
SCHRAFF
100
AcDbHatch
 10
0.0
 20
0.0
 30
0.0
210
0.0
220
0.0
230
1.0
  2
_USER
 70
     0
 71
     0
 91
        2
 92
        7
 72
     0
 73
     1
 93
        6
 10
262.1623967548039
 20
581.7218120588222
 10
260.962396754804
 20
581.7218120588221
 10
260.9623967548039
 20
541.7218120588215
 10
260.0875101195445
 20
531.721812058822
 10
261.2920939245967
 20
531.7218120588221
 10
262.1623967548038
 20
541.6694189273319
 97
        0
 92
        7
 72
     0
 73
     1
 93
        6
 10
160.5623967548039
 20
541.669418927332
 10
161.432699585011
 20
531.7218120588221
 10
162.6372833900631
 20
531.7218120588218
 10
161.7623967548039
 20
541.7218120588215
 10
161.7623967548038
 20
581.7218120588223
 10
160.5623967548039
 20
581.7218120588223
 97
        0
 75
     0
 76
     0
 52
45.0
 41
2.0
 77
     0
 78
     1
 53
45.0
 43
-13.637603245196
 44
53.29529943118268
 45
-1.414213562373094
 46
1.414213562373095
 79
     0
 47
0.2802701113960166
 98
        2
 10
261.887145179965
 20
571.9667061697216
 10
160.9554659687667
 20
570.5653564876759
  0
HATCH
  5
1AE4
330
1E
100
AcDbEntity
  8
SCHRAFF
100
AcDbHatch
 10
0.0
 20
0.0
 30
0.0
210
0.0
220
0.0
230
1.0
  2
_USER
 70
     0
 71
     0
 91
        4
 92
        7
 72
     0
 73
     1
 93
        4
 10
272.362396754804
 20
583.2218120588222
 10
272.362396754804
 20
581.7218120588222
 10
346.3623967548039
 20
581.721812058822
 10
346.3623967548039
 20
583.2218120588222
 97
        0
 92
        7
 72
     0
 73
     1
 93
        4
 10
272.362396754804
 20
581.7218120588223
 10
272.362396754804
 20
583.2218120588222
 10
260.962396754804
 20
583.2218120588222
 10
260.962396754804
 20
581.7218120588222
 97
        0
 92
        7
 72
     0
 73
     1
 93
        4
 10
161.7623967548038
 20
581.7218120588223
 10
161.7623967548038
 20
583.221812058822
 10
89.36239675480392
 20
583.221812058822
 10
89.36239675480393
 20
581.7218120588226
 97
        0
 92
        7
 72
     0
 73
     1
 93
        4
 10
89.36239675480392
 20
581.7218120588226
 10
89.36239675480392
 20
583.221812058822
 10
76.36239675480396
 20
583.2218120588219
 10
76.36239675480396
 20
581.7218120588226
 97
        0
 75
     0
 76
     0
 52
135.0
 41
2.0
 77
     0
 78
     1
 53
135.0
 43
-13.637603245196
 44
58.29529943118268
 45
-1.414213562373095
 46
-1.414213562373094
 79
     0
 47
0.2802701113960166
 98
        4
 10
306.4653044864503
 20
582.5721090473271
 10
264.9711691643461
 20
582.2918391109181
 10
153.105223099433
 20
582.2918391109181
 10
84.13524329332043
 20
582.2918391109181
  0
LINE
  5
1AE5
330
1E
100
AcDbEntity
  8
STEMPEL
100
AcDbLine
 10
346.3623967548039
 20
583.2218120588221
 30
0.0
 11
346.3623967548039
 21
581.7218120588218
 31
0.0
  0
LINE
  5
1AE6
330
1E
100
AcDbEntity
  8
MITTEL
100
AcDbLine
 10
272.3623967548038
 20
576.7218120588222
 30
0.0
 11
272.3623967548038
 21
610.8218120588227
 31
0.0
  0
LINE
  5
1AE7
330
1E
100
AcDbEntity
  8
STEMPEL
100
AcDbLine
 10
279.100507833633
 20
600.288643000255
 30
0.0
 11
273.1321499502636
 21
600.288643000255
 31
0.0
  0
ARC
  5
1AE8
330
1E
100
AcDbEntity
  8
STEMPEL
100
AcDbCircle
 10
278.9123967548038
 20
599.7718120588226
 30
0.0
 40
0.5500000000000009
100
AcDbArc
 50
270.0
 51
69.99999999999935
  0
LINE
  5
1AE9
330
1E
100
AcDbEntity
  8
STEMPEL
100
AcDbLine
 10
279.100507833633
 20
600.288643000255
 30
0.0
 11
278.1358994467001
 21
600.6397317408221
 31
0.0
  0
LINE
  5
1AEA
330
1E
100
AcDbEntity
  8
STEMPEL
100
AcDbLine
 10
277.3623967548039
 20
605.8218120588227
 30
0.0
 11
272.2201733488851
 21
605.8218120588227
 31
0.0
  0
LINE
  5
1AEB
330
1E
100
AcDbEntity
  8
STEMPEL
100
AcDbLine
 10
278.1358994467002
 20
605.6145526371858
 30
0.0
 11
278.1358994467001
 21
600.6397317408221
 31
0.0
  0
LINE
  5
1AEC
330
1E
100
AcDbEntity
  8
STEMPEL
100
AcDbLine
 10
275.249148100752
 20
605.6145526371858
 30
0.0
 11
275.249148100752
 21
600.6397317408221
 31
0.0
  0
LINE
  5
1AED
330
1E
100
AcDbEntity
  8
STEMPEL
100
AcDbLine
 10
278.9123967548038
 20
599.2218120588226
 30
0.0
 11
273.8581964249896
 21
599.2218120588226
 31
0.0
  0
ARC
  5
1AEE
330
1E
100
AcDbEntity
  8
STEMPEL
100
AcDbCircle
 10
276.6925237737261
 20
600.6922749202995
 30
0.0
 40
5.129537138523076
100
AcDbArc
 50
73.65710669401501
 51
106.342893305985
  0
LINE
  5
1AEF
330
1E
100
AcDbEntity
  8
STEMPEL
100
AcDbLine
 10
277.3623967548039
 20
605.8218120588227
 30
0.0
 11
278.1358994467002
 21
605.6145526371858
 31
0.0
  0
ARC
  5
1AF0
330
1E
100
AcDbEntity
  8
STEMPEL
100
AcDbCircle
 10
272.3623967548038
 20
585.6145526371858
 30
0.0
 40
20.20725942163691
100
AcDbArc
 50
81.78678929826174
 51
90.40326439207246
  0
ARC
  5
1AF1
330
1E
100
AcDbEntity
  8
HILF
100
AcDbCircle
 10
276.6925237737261
 20
597.079338735118
 30
0.0
 40
3.841839622940954
100
AcDbArc
 50
67.9324721810082
 51
112.0675278189918
  0
ARC
  5
1AF2
330
1E
100
AcDbEntity
  8
HILF
100
AcDbCircle
 10
272.3623967548038
 20
585.9805200315965
 30
0.0
 40
14.94074366520046
100
AcDbArc
 50
78.85962783889434
 51
88.1615375270559
  0
HATCH
  5
1AF3
330
1E
100
AcDbEntity
  8
SCHRAFF
100
AcDbHatch
 10
0.0
 20
0.0
 30
0.0
210
0.0
220
0.0
230
1.0
  2
ANSI31
 70
     0
 71
     0
 91
        5
 92
        7
 72
     1
 73
     1
 93
       39
 10
131.362396754804
 20
688.2218120588223
 42
0.1316524975847141
 10
128.3623967548593
 20
687.4179644815602
 42
0.0
 10
104.3297021330942
 20
673.3988926188646
 42
0.2662608607102479
 10
101.3623967548039
 20
668.2217540915066
 42
0.0
 10
101.3623967548039
 20
663.2218120588223
 42
0.0
 10
102.362396754804
 20
663.2218120588223
 42
0.0
 10
102.362396754804
 20
668.2217540915068
 42
-0.2667503951500742
 10
104.8430431866772
 20
672.5406495057033
 42
0.0
 10
128.8218970796282
 20
686.5283026718885
 42
-0.1340385084111775
 10
131.362396754804
 20
687.2218120588224
 42
0.0
 10
185.9228821597474
 20
687.2218120588219
 42
0.2679491924311568
 10
188.0879456692088
 20
688.4718120588218
 42
-0.2679491924313146
 10
188.5209583711015
 20
688.7218120588216
 42
0.0
 10
188.7209583711015
 20
688.7218120588216
 42
-0.2679491924310819
 10
189.1539710729937
 20
688.4718120588217
 42
0.2679491924311186
 10
191.3190345824548
 20
687.2218120588219
 42
0.0
 10
197.7728821597478
 20
687.2218120588219
 42
0.2679491924311333
 10
199.9379456692091
 20
688.4718120588217
 42
-0.2679491924311795
 10
200.3709583711014
 20
688.7218120588218
 42
0.0
 10
200.5709583711015
 20
688.7218120588218
 42
-0.3419987131196873
 10
201.0550812893774
 20
688.3468120588217
 42
0.359675761990544
 10
202.601824640505
 20
687.224783857493
 42
0.3596757619904921
 10
204.1485679916323
 20
688.3468120588217
 42
-0.3419987131195469
 10
204.632690909908
 20
688.7218120588216
 42
0.0
 10
211.3623967548042
 20
688.7218120588216
 42
0.0
 10
211.3623967548042
 20
689.7218120588217
 42
0.0
 10
204.6326909099079
 20
689.7218120588217
 42
0.3419987131196276
 10
203.1803221550803
 20
688.5968120588216
 42
-0.3419987131196876
 10
202.6961992368043
 20
688.2218120588216
 42
0.0
 10
202.5074500442054
 20
688.2218120588216
 42
-0.3419987131196593
 10
202.0233271259295
 20
688.5968120588216
 42
0.3607372083888518
 10
200.4709583711014
 20
689.7184750135312
 42
0.2859076546238796
 10
199.0719202654246
 20
688.9718120588216
 42
-0.2679491924311347
 10
197.7728821597479
 20
688.2218120588216
 42
0.0
 10
191.3190345824539
 20
688.2218120588216
 42
-0.2679491924310867
 10
190.0199964767773
 20
688.9718120588214
 42
0.2859076546238621
 10
188.6209583711007
 20
689.7184750135314
 42
0.2859076546237983
 10
187.2219202654245
 20
688.9718120588216
 42
-0.267949192431112
 10
185.9228821597478
 20
688.2218120588219
 42
0.0
 97
        0
 92
        7
 72
     1
 73
     1
 93
        8
 10
101.3623967548036
 20
604.2218120588229
 42
-0.4142135623730736
 10
96.362396754804
 20
599.2218120588229
 42
0.0
 10
93.36239675480388
 20
599.2218120588228
 42
0.0
 10
93.3623967548039
 20
598.2218120588226
 42
0.0
 10
96.36239675480375
 20
598.2218120588226
 42
0.414213562373112
 10
102.3623967548037
 20
604.2218120588229
 42
0.0
 10
102.3623967548038
 20
623.2218120588223
 42
0.0
 10
101.3623967548037
 20
623.2218120588223
 42
0.0
 97
        0
 92
        7
 72
     0
 73
     1
 93
        4
 10
81.362396754804
 20
599.2218120588225
 10
81.36239675480386
 20
598.2218120588226
 10
85.36239675480389
 20
598.2218120588226
 10
85.36239675480388
 20
599.2218120588226
 97
        0
 92
        7
 72
     1
 73
     1
 93
        8
 10
341.3623967548042
 20
598.2218120588214
 42
0.0
 10
341.362396754804
 20
599.2218120588214
 42
0.0
 10
326.3623967548036
 20
599.2218120588219
 42
-0.4142135623730833
 10
321.3623967548039
 20
604.2218120588219
 42
0.0
 10
321.3623967548041
 20
623.2218120588213
 42
0.0
 10
320.3623967548038
 20
623.2218120588214
 42
0.0
 10
320.3623967548038
 20
604.2218120588219
 42
0.4142135623731169
 10
326.3623967548038
 20
598.2218120588214
 42
0.0
 97
        0
 92
        7
 72
     1
 73
     1
 93
       40
 10
236.6240345824549
 20
688.2218120588214
 42
-0.2679491924311478
 10
235.3249964767782
 20
688.9718120588216
 42
0.2859076546238744
 10
233.9259583711014
 20
689.7184750135311
 42
0.2859076546239183
 10
232.5269202654245
 20
688.9718120588214
 42
-0.2679491924311158
 10
231.2278821597478
 20
688.2218120588214
 42
0.0
 10
229.1690345824552
 20
688.2218120588214
 42
-0.2679491924311457
 10
227.8699964767785
 20
688.9718120588216
 42
0.2859076546238805
 10
226.4709583711017
 20
689.7184750135312
 42
0.2859076546238791
 10
225.0719202654249
 20
688.9718120588216
 42
-0.2679491924311259
 10
223.7728821597483
 20
688.2218120588215
 42
0.0
 10
217.3190345824542
 20
688.2218120588215
 42
-0.2679491924311028
 10
216.0199964767776
 20
688.9718120588214
 42
0.2679491924311533
 10
214.7209583711009
 20
689.7218120588217
 42
0.0
 10
211.3623967548042
 20
689.7218120588217
 42
0.0
 10
211.3623967548041
 20
688.7218120588215
 42
0.0
 10
214.7209583711016
 20
688.7218120588216
 42
-0.267949192431122
 10
215.1539710729938
 20
688.4718120588217
 42
0.267949192431119
 10
217.3190345824548
 20
687.2218120588216
 42
0.0
 10
223.7728821597485
 20
687.2218120588216
 42
0.2679491924311053
 10
225.9379456692094
 20
688.4718120588214
 42
-0.2679491924310267
 10
226.3709583711014
 20
688.7218120588216
 42
0.0
 10
226.5709583711014
 20
688.7218120588216
 42
-0.2679491924311632
 10
227.0039710729937
 20
688.4718120588216
 42
0.2679491924311225
 10
229.1690345824548
 20
687.2218120588216
 42
0.0
 10
231.2278821597475
 20
687.2218120588216
 42
0.2679491924311512
 10
233.3929456692088
 20
688.4718120588217
 42
-0.2679491924312574
 10
233.8259583711014
 20
688.7218120588215
 42
0.0
 10
234.0259583711014
 20
688.7218120588215
 42
-0.2679491924311204
 10
234.4589710729936
 20
688.4718120588216
 42
0.2679491924311204
 10
236.6240345824547
 20
687.2218120588216
 42
0.0
 10
291.3623967548043
 20
687.2218120588212
 42
-0.1340385084113062
 10
293.9028964299802
 20
686.5283026718877
 42
0.0
 10
317.8817503229312
 20
672.5406495057021
 42
-0.2667503951500889
 10
320.3623967548041
 20
668.2217540915061
 42
0.0
 10
320.3623967548041
 20
663.2218120588214
 42
0.0
 10
321.3623967548042
 20
663.2218120588214
 42
0.0
 10
321.3623967548042
 20
668.2217540915059
 42
0.2662608607100668
 10
318.3950913765177
 20
673.3988926188615
 42
0.0
 10
294.3623967547264
 20
687.4179644815727
 42
0.1316524975835771
 10
291.3623967548043
 20
688.2218120588208
 42
0.0
 97
        0
 75
     0
 76
     1
 52
0.0
 41
20.0
 77
     0
 78
     1
 53
134.9999999999997
 43
449.8058683094771
 44
181.3954617103073
 45
1.767766952966376
 46
1.767766952966361
 79
     0
 47
0.2376111440341236
 98
        5
 10
149.252319093078
 20
688.01663484174
 10
101.5716047810864
 20
614.3523399633351
 10
83.04172888141719
 20
599.004418931748
 10
334.4894058572838
 20
598.5806786006215
 10
284.0710952598745
 20
687.9224711214725
  0
LINE
  5
1AF4
330
1E
100
AcDbEntity
  8
STEMPEL
100
AcDbLine
 10
291.3623967548043
 20
687.2218120588212
 30
0.0
 11
131.362396754804
 21
687.2218120588224
 31
0.0
  0
LINE
  5
1AF5
330
1E
100
AcDbEntity
  8
STEMPEL
100
AcDbLine
 10
341.3623967548038
 20
598.2218120588214
 30
0.0
 11
81.36239675480377
 21
598.2218120588226
 31
0.0
  0
LINE
  5
1AF6
330
1E
100
AcDbEntity
  8
HILF
100
AcDbLine
 10
109.0360636972735
 20
671.2218120588252
 30
0.0
 11
314.188729812335
 21
671.221812058824
 31
0.0
  0
LINE
  5
1AF7
330
1E
100
AcDbEntity
  8
STEMPEL
100
AcDbLine
 10
291.3623967548043
 20
688.2218120588208
 30
0.0
 11
236.6240345824549
 21
688.2218120588214
 31
0.0
  0
LINE
  5
1AF8
330
1E
100
AcDbEntity
  8
STEMPEL
100
AcDbLine
 10
320.3623967548041
 20
668.2217540915059
 30
0.0
 11
320.3623967548038
 21
604.2218120588219
 31
0.0
  0
LINE
  5
1AF9
330
1E
100
AcDbEntity
  8
STEMPEL
100
AcDbLine
 10
321.3623967548042
 20
668.2217540915059
 30
0.0
 11
321.3623967548039
 21
604.2218120588219
 31
0.0
  0
ELLIPSE
  5
1AFA
330
1E
100
AcDbEntity
  8
STEMPEL
100
AcDbEllipse
 10
305.535442261467
 20
630.7218120588232
 30
0.0
 11
-0.0000000000000334
 21
-7.499999999999999
 31
0.0
210
0.0
220
0.0
230
1.0
 40
0.4999999999999926
 41
4.712388980384689
 42
7.853981633974482
  0
ELLIPSE
  5
1AFB
330
1E
100
AcDbEntity
  8
STEMPEL
100
AcDbEllipse
 10
306.403506281156
 20
630.7218120588232
 30
0.0
 11
-0.0000000000000334
 21
-7.499999999999999
 31
0.0
210
0.0
220
0.0
230
1.0
 40
0.4999999999999926
 41
4.712388980384689
 42
6.167183451052224
  0
ELLIPSE
  5
1AFC
330
1E
100
AcDbEntity
  8
STEMPEL
100
AcDbEllipse
 10
306.4035062811561
 20
655.7218120588217
 30
0.0
 11
0.0000000000000334
 21
7.499999999999999
 31
0.0
210
0.0
220
0.0
230
-1.0
 40
0.4999999999999926
 41
4.712388980384689
 42
6.167183451052224
  0
ELLIPSE
  5
1AFD
330
1E
100
AcDbEntity
  8
STEMPEL
100
AcDbEllipse
 10
305.5354422614671
 20
655.7218120588217
 30
0.0
 11
0.0000000000000334
 21
7.499999999999999
 31
0.0
210
0.0
220
0.0
230
-1.0
 40
0.4999999999999926
 41
4.712388980384689
 42
7.853981633974482
  0
LWPOLYLINE
  5
1AFE
330
1E
100
AcDbEntity
  8
STEMPEL
100
AcDbPolyline
 90
       10
 70
   128
 43
0.0
 10
306.5623778724811
 20
598.2218120588215
 10
305.8046282473869
 20
598.3129655407483
 10
305.0699024612113
 20
598.5836563341061
 10
304.3805247851782
 20
599.0256596361149
 10
303.7574416111319
 20
599.6255454001079
 10
303.2195850060203
 20
600.3650864007026
 10
302.7832974706214
 20
601.2218120588219
 10
302.4618353809261
 20
602.1696911988678
 10
302.2649661998621
 20
603.1799229928204
 10
302.1986716978753
 20
604.2218120588221
  0
LINE
  5
1AFF
330
1E
100
AcDbEntity
  8
STEMPEL
100
AcDbLine
 10
341.3623967548038
 20
599.2218120588214
 30
0.0
 11
326.3623967548036
 21
599.2218120588219
 31
0.0
  0
LINE
  5
1B00
330
1E
100
AcDbEntity
  8
STEMPEL
100
AcDbLine
 10
341.362396754804
 20
599.2218120588217
 30
0.0
 11
341.3623967548041
 21
598.2218120588214
 31
0.0
  0
LWPOLYLINE
  5
1B01
330
1E
100
AcDbEntity
  8
STEMPEL
100
AcDbPolyline
 90
       18
 70
   128
 43
0.0
 10
-320.1527095137686
 20
610.7218120588196
 10
-320.1360410902919
 20
612.0999334424442
 10
-320.0866034430315
 20
613.4311245552238
 10
-320.006080111771
 20
614.6700532804007
 10
-319.8972132219793
 20
615.77452938617
 10
-319.763710105017
 20
616.7069412634227
 10
-319.6101170494129
 20
617.435536743984
 10
-319.4416644824609
 20
617.9355043826173
 10
-319.2640888542919
 20
618.1898183810341
 10
-319.0834372899449
 20
618.1898183810341
 10
-318.9058616617759
 20
617.9355043826173
 10
-318.7374090948239
 20
617.435536743984
 10
-318.5838160392198
 20
616.7069412634227
 10
-318.4503129222575
 20
615.77452938617
 10
-318.3414460324658
 20
614.6700532804007
 10
-318.2609227012053
 20
613.4311245552238
 10
-318.2114850539449
 20
612.0999334424442
 10
-318.1948166304682
 20
610.7218120588196
210
0.0
220
0.0
230
-1.0
  0
LWPOLYLINE
  5
1B02
330
1E
100
AcDbEntity
  8
STEMPEL
100
AcDbPolyline
 90
        9
 70
   128
 43
0.0
 10
-312.2896237925479
 20
618.1235703034848
 10
-311.8005632492792
 20
617.7971374057274
 10
-311.3409502813782
 20
617.2518683924701
 10
-310.925000477754
 20
616.5046281493422
 10
-310.5655789484624
 20
615.5785284265647
 10
-310.2738024135749
 20
614.5022130045944
 10
-310.0586953688368
 20
613.3089717569636
 10
-309.9269109627293
 20
612.0357110118876
 10
-309.8825252180644
 20
610.7218120588213
210
0.0
220
0.0
230
-1.0
  0
LWPOLYLINE
  5
1B03
330
1E
100
AcDbEntity
  8
STEMPEL
100
AcDbPolyline
 90
       18
 70
   128
 43
0.0
 10
-314.6967223670348
 20
610.7218120588197
 10
-314.6478530221185
 20
612.0999334424442
 10
-314.5029091742984
 20
613.431124555224
 10
-314.2668267124713
 20
614.6700532804008
 10
-313.9476451417245
 20
615.77452938617
 10
-313.5562338076342
 20
616.7069412634228
 10
-313.1059217537362
 20
617.4355367439841
 10
-312.6120438169368
 20
617.9355043826173
 10
-312.0914184180318
 20
618.1898183810341
 10
-311.56177483056
 20
618.1898183810341
 10
-311.0411494316551
 20
617.9355043826173
 10
-310.5472714948557
 20
617.4355367439841
 10
-310.0969594409577
 20
616.7069412634228
 10
-309.7055481068673
 20
615.77452938617
 10
-309.3863665361206
 20
614.6700532804008
 10
-309.1502840742934
 20
613.431124555224
 10
-309.0053402264733
 20
612.0999334424442
 10
-308.956470881557
 20
610.7218120588197
210
0.0
220
0.0
230
-1.0
  0
ARC
  5
1B04
330
1E
100
AcDbEntity
  8
STEMPEL
100
AcDbCircle
 10
326.3623967548038
 20
604.2218120588219
 30
0.0
 40
6.0
100
AcDbArc
 50
180.0
 51
269.9999999999984
  0
ARC
  5
1B05
330
1E
100
AcDbEntity
  8
STEMPEL
100
AcDbCircle
 10
326.3623967548038
 20
604.2218120588219
 30
0.0
 40
5.0
100
AcDbArc
 50
180.0
 51
269.9999999999984
  0
LWPOLYLINE
  5
1B06
330
1E
100
AcDbEntity
  8
STEMPEL
100
AcDbPolyline
 90
       10
 70
   128
 43
0.0
 10
325.6586982447993
 20
598.2218120588226
 10
324.8006252485266
 20
598.2879392733953
 10
323.9478130489043
 20
598.5404930231255
 10
323.1270547419873
 20
598.971538739443
 10
322.3641363755884
 20
599.567534109883
 10
321.6830268200892
 20
600.3097545416036
 10
321.1051247301434
 20
601.174881438401
 10
320.6485862557372
 20
602.1357348091171
 10
320.3277546241396
 20
603.1621271908293
 10
320.1527095137685
 20
604.2218120588219
  0
LWPOLYLINE
  5
1B07
330
1E
100
AcDbEntity
  8
STEMPEL
100
AcDbPolyline
 90
       10
 70
   128
 43
0.0
 10
323.7008053614989
 20
598.2218120588214
 10
322.8427323652261
 20
598.2879392733941
 10
321.9899201656038
 20
598.5404930231244
 10
321.1691618586868
 20
598.9715387394419
 10
320.4062434922879
 20
599.5675341098818
 10
319.7251339367887
 20
600.3097545416025
 10
319.1472318468429
 20
601.1748814383999
 10
318.6906933724367
 20
602.135734809116
 10
318.3698617408392
 20
603.1621271908282
 10
318.194816630468
 20
604.2218120588207
  0
LINE
  5
1B08
330
1E
100
AcDbEntity
  8
STEMPEL
100
AcDbLine
 10
322.7731686974391
 20
599.2218120588214
 30
0.0
 11
321.8090545276765
 21
599.2218120588214
 31
0.0
  0
LINE
  5
1B09
330
1E
100
AcDbEntity
  8
STEMPEL
100
AcDbLine
 10
316.8502939997032
 20
599.2218120588214
 30
0.0
 11
312.0360968507319
 21
599.2218120588216
 31
0.0
  0
LWPOLYLINE
  5
1B0A
330
1E
100
AcDbEntity
  8
STEMPEL
100
AcDbPolyline
 90
       10
 70
   128
 43
0.0
 10
313.7718354081309
 20
598.2218120588215
 10
312.9356561332893
 20
598.3129655407483
 10
312.1248837425867
 20
598.5836563341061
 10
311.3641531448438
 20
599.0256596361149
 10
310.6765787543251
 20
599.6255454001079
 10
310.0830521709566
 20
600.3650864007026
 10
309.6016073996354
 20
601.2218120588218
 10
309.2468728961151
 20
602.1696911988677
 10
309.0296270887809
 20
603.1799229928203
 10
308.9564708815569
 20
604.221812058822
  0
LINE
  5
1B0B
330
1E
100
AcDbEntity
  8
STEMPEL
100
AcDbLine
 10
318.1948166304682
 20
610.7218120588196
 30
0.0
 11
318.194816630468
 21
604.2218120588207
 31
0.0
  0
LINE
  5
1B0C
330
1E
100
AcDbEntity
  8
STEMPEL
100
AcDbLine
 10
319.188595344006
 20
610.7218120588196
 30
0.0
 11
319.1885953440059
 21
604.2218120588219
 31
0.0
  0
LINE
  5
1B0D
330
1E
100
AcDbEntity
  8
STEMPEL
100
AcDbLine
 10
320.1527095137686
 20
610.7218120588196
 30
0.0
 11
320.1527095137685
 21
604.2218120588219
 31
0.0
  0
LINE
  5
1B0E
330
1E
100
AcDbEntity
  8
STEMPEL
100
AcDbLine
 10
314.6967223670348
 20
610.7218120588197
 30
0.0
 11
314.6967223670347
 21
604.2218120588231
 31
0.0
  0
LWPOLYLINE
  5
1B0F
330
1E
100
AcDbEntity
  8
STEMPEL
100
AcDbPolyline
 90
       10
 70
   128
 43
0.0
 10
319.5120868936086
 20
598.2218120588214
 10
318.675907618767
 20
598.3129655407481
 10
317.8651352280644
 20
598.583656334106
 10
317.1044046303216
 20
599.0256596361149
 10
316.4168302398028
 20
599.6255454001077
 10
315.8233036564344
 20
600.3650864007026
 10
315.3418588851132
 20
601.2218120588218
 10
314.9871243815928
 20
602.1696911988677
 10
314.7698785742587
 20
603.1799229928203
 10
314.6967223670347
 20
604.221812058822
  0
LWPOLYLINE
  5
1B10
330
1E
100
AcDbEntity
  8
STEMPEL
100
AcDbPolyline
 90
        7
 70
   128
 43
0.0
 10
321.8090545276767
 20
599.2218120588219
 10
321.1323526525993
 20
599.831412786681
 10
320.5328032289653
 20
600.5589718705927
 10
320.0265145558156
 20
601.3849417322728
 10
319.6270892637701
 20
602.2871307574758
 10
319.3452588485072
 20
603.2412995256696
 10
319.1885953440058
 20
604.2218120588219
  0
LWPOLYLINE
  5
1B11
330
1E
100
AcDbEntity
  8
STEMPEL
100
AcDbPolyline
 90
        7
 70
   128
 43
0.0
 10
-319.6706524288875
 20
617.1838661146595
 10
-319.5328234193172
 20
616.4317598777209
 10
-319.413959142351
 20
615.5090462670061
 10
-319.3176111404498
 20
614.4432950171019
 10
-319.2466581929116
 20
613.2663496802807
 10
-319.2032203009037
 20
612.013376173879
 10
-319.1885953440061
 20
610.7218120588196
210
0.0
220
0.0
230
-1.0
  0
LINE
  5
1B12
330
1E
100
AcDbEntity
  8
STEMPEL
100
AcDbLine
 10
309.8825252180643
 20
610.7218120588197
 30
0.0
 11
309.8825252180642
 21
604.2218120588231
 31
0.0
  0
LINE
  5
1B13
330
1E
100
AcDbEntity
  8
STEMPEL
100
AcDbLine
 10
308.956470881557
 20
610.7218120588197
 30
0.0
 11
308.9564708815569
 21
604.2218120588231
 31
0.0
  0
LWPOLYLINE
  5
1B14
330
1E
100
AcDbEntity
  8
STEMPEL
100
AcDbPolyline
 90
        7
 70
   128
 43
0.0
 10
312.0360968507329
 20
599.2218120588216
 10
311.4160063276685
 20
599.8311499606623
 10
310.8841861808851
 20
600.5585802339516
 10
310.4549403811538
 20
601.3845377278953
 10
310.1398140333565
 20
602.2868072783576
 10
309.9472828563906
 20
603.2411212126008
 10
309.8825252180643
 20
604.221812058822
  0
LINE
  5
1B15
330
1E
100
AcDbEntity
  8
STEMPEL
100
AcDbLine
 10
309.2854422614671
 20
655.7218120588217
 30
0.0
 11
309.285442261467
 21
630.7218120588248
 31
0.0
  0
LINE
  5
1B16
330
1E
100
AcDbEntity
  8
STEMPEL
100
AcDbLine
 10
321.3623967548043
 20
623.2218120588213
 30
0.0
 11
320.3623967548041
 21
623.2218120588213
 31
0.0
  0
LINE
  5
1B17
330
1E
100
AcDbEntity
  8
STEMPEL
100
AcDbLine
 10
321.3623967548043
 20
663.2218120588213
 30
0.0
 11
320.3623967548043
 21
663.2218120588213
 31
0.0
  0
LWPOLYLINE
  5
1B18
330
1E
100
AcDbEntity
  8
STEMPEL
100
AcDbPolyline
 90
       18
 70
   128
 43
0.0
 10
-283.5102790053918
 20
610.7218120588198
 10
-283.4089663935874
 20
612.0999334424444
 10
-283.1084786376582
 20
613.4311245552241
 10
-282.619048487737
 20
614.6700532804008
 10
-281.9573429005726
 20
615.7745293861701
 10
-281.1458954663075
 20
616.7069412634228
 10
-280.2123390540918
 20
617.4355367439842
 10
-279.1884648078656
 20
617.9355043826175
 10
-278.1091395370829
 20
618.1898183810342
 10
-277.0111183693318
 20
618.1898183810343
 10
-275.9317930985491
 20
617.9355043826175
 10
-274.9079188523229
 20
617.4355367439842
 10
-273.9743624401072
 20
616.706941263423
 10
-273.1629150058421
 20
615.7745293861702
 10
-272.5012094186777
 20
614.6700532804008
 10
-272.0117792687565
 20
613.4311245552241
 10
-271.7112915128273
 20
612.0999334424444
 10
-271.6099789010229
 20
610.7218120588198
210
0.0
220
0.0
230
-1.0
  0
LWPOLYLINE
  5
1B19
330
1E
100
AcDbEntity
  8
STEMPEL
100
AcDbPolyline
 90
        9
 70
   128
 43
0.0
 10
-277.8652261771268
 20
618.2119461366436
 10
-276.7488184557556
 20
618.0046390002366
 10
-275.6835392040134
 20
617.5353842727827
 10
-274.7077042209751
 20
616.821060035614
 10
-273.8564121881172
 20
615.8873589922178
 10
-273.1602822453807
 20
614.7678643570574
 10
-272.6443526866893
 20
613.5028419397187
 10
-272.3271803864734
 20
612.1377918705094
 10
-272.2201733488853
 20
610.7218120588214
210
0.0
220
0.0
230
-1.0
  0
LWPOLYLINE
  5
1B1A
330
1E
100
AcDbEntity
  8
STEMPEL
100
AcDbPolyline
 90
       10
 70
   128
 43
0.0
 10
275.2725820365469
 20
598.2218120588217
 10
274.6365776765459
 20
598.3129655407484
 10
274.0198979871898
 20
598.5836563341063
 10
273.4412804687847
 20
599.0256596361152
 10
272.9183061218328
 20
599.6255454001079
 10
272.4668652572284
 20
600.3650864007027
 10
272.1006746772024
 20
601.2218120588219
 10
271.8308608972275
 20
602.169691198868
 10
271.6656220724758
 20
603.1799229928204
 10
271.6099789010227
 20
604.2218120588221
  0
LWPOLYLINE
  5
1B1B
330
1E
100
AcDbEntity
  8
STEMPEL
100
AcDbPolyline
 90
        7
 70
   128
 43
0.0
 10
273.8581964249904
 20
599.2218120588217
 10
273.3865508244236
 20
599.8311499606626
 10
272.9820443480408
 20
600.5585802339518
 10
272.6555567055517
 20
601.3845377278954
 10
272.4158691921435
 20
602.2868072783577
 10
272.2694285045175
 20
603.2411212126011
 10
272.2201733488851
 20
604.2218120588221
  0
LWPOLYLINE
  5
1B1C
330
1E
100
AcDbEntity
  8
STEMPEL
100
AcDbPolyline
 90
       18
 70
   128
 43
0.0
 10
-302.1986716978752
 20
610.7218120588198
 10
-302.1209317966151
 20
612.0999334424443
 10
-301.8903594319332
 20
613.4311245552241
 10
-301.5148064691681
 20
614.6700532804008
 10
-301.0070619140404
 20
615.77452938617
 10
-300.3844163984024
 20
616.7069412634228
 10
-299.6680733685084
 20
617.4355367439842
 10
-298.8824270270825
 20
617.9355043826175
 10
-298.0542316180031
 20
618.1898183810341
 10
-297.2116903426154
 20
618.1898183810341
 10
-296.383494933536
 20
617.9355043826175
 10
-295.59784859211
 20
617.4355367439842
 10
-294.881505562216
 20
616.7069412634228
 10
-294.2588600465781
 20
615.77452938617
 10
-293.7511154914504
 20
614.6700532804008
 10
-293.3755625286853
 20
613.4311245552241
 10
-293.1449901640034
 20
612.0999334424443
 10
-293.0672502627433
 20
610.7218120588198
210
0.0
220
0.0
230
-1.0
  0
LWPOLYLINE
  5
1B1D
330
1E
100
AcDbEntity
  8
STEMPEL
100
AcDbPolyline
 90
       10
 70
   128
 43
0.0
 10
-298.4281818671302
 20
618.221812058823
 10
-297.6353545212705
 20
618.1078702064145
 10
-296.8666168331248
 20
617.7695067147172
 10
-296.1453265083473
 20
617.2170025872061
 10
-295.4933995884658
 20
616.4671453822148
 10
-294.9306445430501
 20
615.5427191314714
 10
-294.4741603993872
 20
614.4718120588221
 10
-294.1378171971905
 20
613.2869631337645
 10
-293.9318345544604
 20
612.0241733913236
 10
-293.8624711495643
 20
610.7218120588214
210
0.0
220
0.0
230
-1.0
  0
LWPOLYLINE
  5
1B1E
330
1E
100
AcDbEntity
  8
STEMPEL
100
AcDbPolyline
 90
       10
 70
   128
 43
0.0
 10
297.4309564373492
 20
598.2218120588217
 10
296.673206812255
 20
598.3129655407484
 10
295.9384810260795
 20
598.5836563341061
 10
295.2491033500463
 20
599.025659636115
 10
294.626020176
 20
599.6255454001079
 10
294.0881635708885
 20
600.3650864007026
 10
293.6518760354895
 20
601.2218120588219
 10
293.3304139457943
 20
602.1696911988678
 10
293.1335447647303
 20
603.1799229928204
 10
293.0672502627434
 20
604.2218120588221
  0
LINE
  5
1B1F
330
1E
100
AcDbEntity
  8
STEMPEL
100
AcDbLine
 10
304.1502485263936
 20
599.2218120588216
 30
0.0
 11
295.8140479780817
 21
599.2218120588217
 31
0.0
  0
LINE
  5
1B20
330
1E
100
AcDbEntity
  8
STEMPEL
100
AcDbLine
 10
302.1986716978753
 20
610.7218120588198
 30
0.0
 11
302.1986716978752
 21
604.2218120588232
 31
0.0
  0
LINE
  5
1B21
330
1E
100
AcDbEntity
  8
STEMPEL
100
AcDbLine
 10
293.8624711495641
 20
610.7218120588198
 30
0.0
 11
293.862471149564
 21
604.2218120588232
 31
0.0
  0
LINE
  5
1B22
330
1E
100
AcDbEntity
  8
STEMPEL
100
AcDbLine
 10
293.0672502627434
 20
610.7218120588198
 30
0.0
 11
293.0672502627433
 21
604.2218120588232
 31
0.0
  0
LWPOLYLINE
  5
1B23
330
1E
100
AcDbEntity
  8
STEMPEL
100
AcDbPolyline
 90
        7
 70
   128
 43
0.0
 10
295.8140479780824
 20
599.2218120588217
 10
295.2521190048183
 20
599.8311499606623
 10
294.7701810652311
 20
600.5585802339518
 10
294.3811964854813
 20
601.3845377278954
 10
294.0956274943748
 20
602.2868072783577
 10
293.9211548285789
 20
603.2411212126008
 10
293.8624711495639
 20
604.2218120588221
  0
LINE
  5
1B24
330
1E
100
AcDbEntity
  8
STEMPEL
100
AcDbLine
 10
285.1483020814969
 20
599.2218120588217
 30
0.0
 11
273.8581964249898
 21
599.2218120588217
 31
0.0
  0
LINE
  5
1B25
330
1E
100
AcDbEntity
  8
STEMPEL
100
AcDbLine
 10
283.5102790053917
 20
610.7218120588198
 30
0.0
 11
283.5102790053916
 21
604.2218120588232
 31
0.0
  0
LWPOLYLINE
  5
1B26
330
1E
100
AcDbEntity
  8
STEMPEL
100
AcDbPolyline
 90
       10
 70
   128
 43
0.0
 10
287.1728821409157
 20
598.2218120588217
 10
286.5368777809148
 20
598.3129655407484
 10
285.9201980915586
 20
598.5836563341061
 10
285.3415805731536
 20
599.0256596361152
 10
284.8186062262017
 20
599.6255454001079
 10
284.3671653615972
 20
600.3650864007026
 10
284.0009747815713
 20
601.2218120588219
 10
283.7311610015963
 20
602.169691198868
 10
283.5659221768446
 20
603.1799229928204
 10
283.5102790053916
 20
604.2218120588221
  0
LINE
  5
1B27
330
1E
100
AcDbEntity
  8
STEMPEL
100
AcDbLine
 10
301.7854422614672
 20
655.7218120588218
 30
0.0
 11
301.7854422614671
 21
630.7218120588234
 31
0.0
  0
LINE
  5
1B28
330
1E
100
AcDbEntity
  8
STEMPEL
100
AcDbLine
 10
302.6535062811559
 20
630.7218120588218
 30
0.0
 11
302.6535062811561
 21
655.7218120588234
 31
0.0
  0
LWPOLYLINE
  5
1B29
330
1E
100
AcDbEntity
  8
STEMPEL
100
AcDbPolyline
 90
       18
 70
   128
 43
0.0
 10
-259.9051273675416
 20
610.72181205882
 10
-259.7871463322605
 20
612.0999334424444
 10
-259.4372209290708
 20
613.4311245552241
 10
-258.867267447889
 20
614.670053280401
 10
-258.0966949709329
 20
615.7745293861702
 10
-257.1517444197054
 20
616.7069412634231
 10
-256.0645949518853
 20
617.4355367439844
 10
-254.8722681387071
 20
617.9355043826176
 10
-253.6153672397553
 20
618.1898183810343
 10
-252.336694507657
 20
618.1898183810343
 10
-251.0797936087051
 20
617.9355043826177
 10
-249.887466795527
 20
617.4355367439845
 10
-248.8003173277068
 20
616.7069412634231
 10
-247.8553667764793
 20
615.7745293861702
 10
-247.0847942995232
 20
614.670053280401
 10
-246.5148408183414
 20
613.4311245552242
 10
-246.1649154151518
 20
612.0999334424445
 10
-246.0469343798707
 20
610.7218120588201
210
0.0
220
0.0
230
-1.0
  0
LWPOLYLINE
  5
1B2A
330
1E
100
AcDbEntity
  8
STEMPEL
100
AcDbPolyline
 90
        9
 70
   128
 43
0.0
 10
-253.167823006518
 20
618.2189384818602
 10
-251.8436135561882
 20
618.0401055748124
 10
-250.5756341590021
 20
617.5898296574882
 10
-249.4109154709165
 20
616.884811925349
 10
-248.3926581023098
 20
615.9512022089655
 10
-247.5586302630476
 20
614.8236290499895
 10
-246.9397669008537
 20
613.5439152930376
 10
-246.5590222923795
 20
612.159526833502
 10
-246.4305186455476
 20
610.7218120588217
210
0.0
220
0.0
230
-1.0
  0
LINE
  5
1B2B
330
1E
100
AcDbEntity
  8
STEMPEL
100
AcDbLine
 10
261.1226388002706
 20
599.2218120588217
 30
0.0
 11
247.6480300782762
 21
599.2218120588219
 31
0.0
  0
LINE
  5
1B2C
330
1E
100
AcDbEntity
  8
STEMPEL
100
AcDbLine
 10
272.2201733488851
 20
610.7218120588198
 30
0.0
 11
272.2201733488851
 21
604.2218120588232
 31
0.0
  0
LINE
  5
1B2D
330
1E
100
AcDbEntity
  8
STEMPEL
100
AcDbLine
 10
271.6099789010228
 20
610.7218120588198
 30
0.0
 11
271.6099789010227
 21
604.2218120588232
 31
0.0
  0
LINE
  5
1B2E
330
1E
100
AcDbEntity
  8
STEMPEL
100
AcDbLine
 10
259.9051273675416
 20
610.72181205882
 30
0.0
 11
259.9051273675414
 21
604.2218120588233
 31
0.0
  0
LWPOLYLINE
  5
1B2F
330
1E
100
AcDbEntity
  8
STEMPEL
100
AcDbPolyline
 90
       10
 70
   128
 43
0.0
 10
262.6274706947505
 20
598.2218120588218
 10
262.1547407369969
 20
598.3129655407485
 10
261.6963744397967
 20
598.5836563341064
 10
261.266299031146
 20
599.0256596361152
 10
260.8775821347077
 20
599.625545400108
 10
260.5420347166801
 20
600.3650864007028
 10
260.2698522155645
 20
601.221812058822
 10
260.0693047589264
 20
602.169691198868
 10
259.9464858797539
 20
603.1799229928205
 10
259.9051273675414
 20
604.2218120588223
  0
LWPOLYLINE
  5
1B30
330
1E
100
AcDbEntity
  8
STEMPEL
100
AcDbPolyline
 90
       10
 70
   128
 43
0.0
 10
248.7692777070796
 20
598.2218120588219
 10
248.296547749326
 20
598.3129655407487
 10
247.8381814521258
 20
598.5836563341064
 10
247.4081060434751
 20
599.0256596361152
 10
247.0193891470368
 20
599.625545400108
 10
246.6838417290091
 20
600.3650864007028
 10
246.4116592278935
 20
601.2218120588221
 10
246.2111117712554
 20
602.1696911988681
 10
246.088292892083
 20
603.1799229928207
 10
246.0469343798706
 20
604.2218120588223
  0
LINE
  5
1B31
330
1E
100
AcDbEntity
  8
STEMPEL
100
AcDbLine
 10
246.4305186455476
 20
610.7218120588201
 30
0.0
 11
246.4305186455475
 21
604.2218120588235
 31
0.0
  0
LINE
  5
1B32
330
1E
100
AcDbEntity
  8
STEMPEL
100
AcDbLine
 10
246.0469343798707
 20
610.7218120588185
 30
0.0
 11
246.0469343798706
 21
604.2218120588235
 31
0.0
  0
LWPOLYLINE
  5
1B33
330
1E
100
AcDbEntity
  8
STEMPEL
100
AcDbPolyline
 90
        7
 70
   128
 43
0.0
 10
247.6480300782766
 20
599.2218120588219
 10
247.2974648638647
 20
599.8311499606626
 10
246.996802884926
 20
600.5585802339519
 10
246.7541308229913
 20
601.3845377278957
 10
246.5759756479429
 20
602.2868072783579
 10
246.4671290669623
 20
603.2411212126011
 10
246.4305186455475
 20
604.2218120588223
  0
LINE
  5
1B34
330
1E
100
AcDbEntity
  8
STEMPEL
100
AcDbLine
 10
259.2380394001003
 20
655.7218120588219
 30
0.0
 11
259.2380394001002
 21
630.7218120588219
 31
0.0
  0
LINE
  5
1B35
330
1E
100
AcDbEntity
  8
STEMPEL
100
AcDbLine
 10
272.2284204568662
 20
655.7218120588219
 30
0.0
 11
272.228420456866
 21
630.7218120588235
 31
0.0
  0
LINE
  5
1B36
330
1E
100
AcDbEntity
  8
STEMPEL
100
AcDbLine
 10
259.7392163955424
 20
655.7218120588219
 30
0.0
 11
259.7392163955423
 21
630.7218120588219
 31
0.0
  0
ELLIPSE
  5
1B37
330
1E
100
AcDbEntity
  8
STEMPEL
100
AcDbEllipse
 10
265.7332299284832
 20
630.7218120588219
 30
0.0
 11
-0.0000000000000334
 21
-7.5
 31
0.0
210
0.0
220
0.0
230
1.0
 40
0.8660254037843856
 41
4.712388980384689
 42
7.853981633974482
  0
ELLIPSE
  5
1B38
330
1E
100
AcDbEntity
  8
STEMPEL
100
AcDbEllipse
 10
266.2344069239251
 20
630.7218120588219
 30
0.0
 11
-0.0000000000000334
 21
-7.5
 31
0.0
210
0.0
220
0.0
230
1.0
 40
0.8660254037843856
 41
4.712388980384689
 42
6.24459510668465
  0
ELLIPSE
  5
1B39
330
1E
100
AcDbEntity
  8
STEMPEL
100
AcDbEllipse
 10
265.7332299284833
 20
655.7218120588219
 30
0.0
 11
0.0000000000000334
 21
7.5
 31
0.0
210
0.0
220
0.0
230
-1.0
 40
0.8660254037843856
 41
4.712388980384689
 42
7.853981633974482
  0
ELLIPSE
  5
1B3A
330
1E
100
AcDbEntity
  8
STEMPEL
100
AcDbEllipse
 10
266.2344069239253
 20
655.7218120588219
 30
0.0
 11
0.0000000000000334
 21
7.5
 31
0.0
210
0.0
220
0.0
230
-1.0
 40
0.8660254037843856
 41
4.712388980384689
 42
6.24459510668465
  0
LINE
  5
1B3B
330
1E
100
AcDbEntity
  8
STEMPEL
100
AcDbLine
 10
317.8817503229312
 20
672.5406495057021
 30
0.0
 11
293.9028964299802
 21
686.5283026718877
 31
0.0
  0
LINE
  5
1B3C
330
1E
100
AcDbEntity
  8
STEMPEL
100
AcDbLine
 10
318.395091376512
 20
673.3988926188648
 30
0.0
 11
294.4087885010453
 21
687.3909026295534
 31
0.0
  0
ARC
  5
1B3D
330
1E
100
AcDbEntity
  8
STEMPEL
100
AcDbCircle
 10
315.3623967548041
 20
668.2217540915059
 30
0.0
 40
6.0
100
AcDbArc
 50
0.0
 51
59.74358352518112
  0
ARC
  5
1B3E
330
1E
100
AcDbEntity
  8
STEMPEL
100
AcDbCircle
 10
320.8735403591157
 20
677.7416490412832
 30
0.0
 40
5.0
100
AcDbArc
 50
239.7435628364698
 51
239.9329541615142
  0
ARC
  5
1B3F
330
1E
100
AcDbEntity
  8
STEMPEL
100
AcDbCircle
 10
315.3623967548041
 20
668.2217540915059
 30
0.0
 40
5.0
100
AcDbArc
 50
0.0
 51
59.74358352518112
  0
ARC
  5
1B40
330
1E
100
AcDbEntity
  8
STEMPEL
100
AcDbCircle
 10
291.3623967548043
 20
682.2218120588212
 30
0.0
 40
5.0
100
AcDbArc
 50
59.46264995169811
 51
90.0
  0
ARC
  5
1B41
330
1E
100
AcDbEntity
  8
STEMPEL
100
AcDbCircle
 10
291.3623967548043
 20
682.2218120588212
 30
0.0
 40
6.0
100
AcDbArc
 50
59.48712567238029
 51
90.0
  0
ARC
  5
1B42
330
1E
100
AcDbEntity
  8
STEMPEL
100
AcDbCircle
 10
291.3623967548043
 20
682.2218120588212
 30
0.0
 40
6.0
100
AcDbArc
 50
90.0
 51
90.0
  0
LWPOLYLINE
  5
1B43
330
1E
100
AcDbEntity
  8
STEMPEL
100
AcDbPolyline
 90
       18
 70
   128
 43
0.0
 10
108.0280711425729
 20
610.7218120588206
 10
108.0769404874891
 20
612.0999334424451
 10
108.2218843353092
 20
613.4311245552249
 10
108.4579667971364
 20
614.6700532804016
 10
108.7771483678831
 20
615.7745293861709
 10
109.1685597019735
 20
616.7069412634238
 10
109.6188717558715
 20
617.435536743985
 10
110.1127496926709
 20
617.9355043826183
 10
110.6333750915758
 20
618.189818381035
 10
111.1630186790476
 20
618.189818381035
 10
111.6836440779526
 20
617.9355043826183
 10
112.177522014752
 20
617.4355367439849
 10
112.62783406865
 20
616.7069412634236
 10
113.0192454027404
 20
615.7745293861709
 10
113.3384269734871
 20
614.6700532804016
 10
113.5745094353143
 20
613.4311245552247
 10
113.7194532831343
 20
612.0999334424451
 10
113.7683226280506
 20
610.7218120588205
  0
LINE
  5
1B44
330
1E
100
AcDbEntity
  8
STEMPEL
100
AcDbLine
 10
105.8744995099042
 20
599.2218120588225
 30
0.0
 11
110.6886966588756
 21
599.2218120588225
 31
0.0
  0
LINE
  5
1B45
330
1E
100
AcDbEntity
  8
STEMPEL
100
AcDbLine
 10
104.3297021330961
 20
673.3988926188658
 30
0.0
 11
128.3160050085631
 21
687.3909026295542
 31
0.0
  0
LINE
  5
1B46
330
1E
100
AcDbEntity
  8
STEMPEL
100
AcDbLine
 10
104.8430431866769
 20
672.5406495057032
 30
0.0
 11
128.8218970796282
 21
686.5283026718885
 31
0.0
  0
LWPOLYLINE
  5
1B47
330
1E
100
AcDbEntity
  8
STEMPEL
100
AcDbPolyline
 90
       18
 70
   128
 43
0.0
 10
162.8196661420661
 20
610.7218120588204
 10
162.9376471773472
 20
612.0999334424449
 10
163.2875725805368
 20
613.4311245552245
 10
163.8575260617186
 20
614.6700532804013
 10
164.6280985386747
 20
615.7745293861706
 10
165.5730490899022
 20
616.7069412634234
 10
166.6601985577223
 20
617.4355367439846
 10
167.8525253709005
 20
617.935504382618
 10
169.1094262698524
 20
618.1898183810347
 10
170.3880990019507
 20
618.1898183810347
 10
171.6449999009025
 20
617.935504382618
 10
172.8373267140808
 20
617.4355367439846
 10
173.9244761819008
 20
616.7069412634234
 10
174.8694267331284
 20
615.7745293861706
 10
175.6399992100845
 20
614.6700532804013
 10
176.2099526912662
 20
613.4311245552245
 10
176.5598780944559
 20
612.0999334424449
 10
176.677859129737
 20
610.7218120588203
  0
LWPOLYLINE
  5
1B48
330
1E
100
AcDbEntity
  8
STEMPEL
100
AcDbPolyline
 90
        9
 70
   128
 43
0.0
 10
169.5569705030896
 20
618.2189384818606
 10
170.8811799534195
 20
618.0401055748126
 10
172.1491593506056
 20
617.5898296574886
 10
173.3138780386912
 20
616.8848119253493
 10
174.3321354072978
 20
615.9512022089658
 10
175.1661632465601
 20
614.8236290499897
 10
175.785026608754
 20
613.5439152930379
 10
176.1657712172282
 20
612.1595268335024
 10
176.29427486406
 20
610.7218120588219
  0
LINE
  5
1B49
330
1E
100
AcDbEntity
  8
STEMPEL
100
AcDbLine
 10
161.6021547093369
 20
599.2218120588222
 30
0.0
 11
175.0767634313313
 21
599.2218120588221
 31
0.0
  0
LWPOLYLINE
  5
1B4A
330
1E
100
AcDbEntity
  8
STEMPEL
100
AcDbPolyline
 90
       10
 70
   128
 43
0.0
 10
-173.9555158025279
 20
598.2218120588221
 10
-174.4282457602815
 20
598.3129655407489
 10
-174.8866120574817
 20
598.5836563341067
 10
-175.3166874661324
 20
599.0256596361156
 10
-175.7054043625707
 20
599.6255454001083
 10
-176.0409517805983
 20
600.365086400703
 10
-176.3131342817139
 20
601.2218120588223
 10
-176.513681738352
 20
602.1696911988684
 10
-176.6365006175245
 20
603.1799229928209
 10
-176.6778591297369
 20
604.2218120588225
210
0.0
220
0.0
230
-1.0
  0
ARC
  5
1B4B
330
1E
100
AcDbEntity
  8
STEMPEL
100
AcDbCircle
 10
211.362396754804
 20
630.7218120588221
 30
0.0
 40
7.5
100
AcDbArc
 50
180.000000000026
 51
0.0000000000130276
  0
ARC
  5
1B4C
330
1E
100
AcDbEntity
  8
STEMPEL
100
AcDbCircle
 10
211.362396754804
 20
655.7218120588221
 30
0.0
 40
7.5
100
AcDbArc
 50
359.999999999987
 51
179.9999999999739
  0
LWPOLYLINE
  5
1B4D
330
1E
100
AcDbEntity
  8
STEMPEL
100
AcDbPolyline
 90
       18
 70
   128
 43
0.0
 10
-232.9918688590908
 20
610.7218120588201
 10
-232.8652596129144
 20
612.0999334424446
 10
-232.4897434004127
 20
613.4311245552242
 10
-231.8781079758204
 20
614.670053280401
 10
-231.051181849946
 20
615.7745293861703
 10
-230.0371250002177
 20
616.7069412634231
 10
-228.870469916426
 20
617.4355367439845
 10
-227.5909456382007
 20
617.9355043826177
 10
-226.2421248302167
 20
618.1898183810345
 10
-224.8699399673574
 20
618.1898183810345
 10
-223.5211191593732
 20
617.9355043826177
 10
-222.241594881148
 20
617.4355367439845
 10
-221.0749397973562
 20
616.7069412634232
 10
-220.060882947628
 20
615.7745293861704
 10
-219.2339568217536
 20
614.6700532804011
 10
-218.6223213971612
 20
613.4311245552242
 10
-218.2468051846595
 20
612.0999334424446
 10
-218.1201959384832
 20
610.7218120588201
210
0.0
220
0.0
230
-1.0
  0
LWPOLYLINE
  5
1B4E
330
1E
100
AcDbEntity
  8
STEMPEL
100
AcDbPolyline
 90
        9
 70
   128
 43
0.0
 10
-225.6214491235305
 20
618.2215218185948
 10
-224.1801091396527
 20
618.0662204246711
 10
-222.7960282362031
 20
617.6318201776568
 10
-221.5218036236711
 20
616.9348289573816
 10
-220.4058578039413
 20
616.0017335059359
 10
-219.4905984404882
 20
614.8679928905925
 10
-218.8108068017132
 20
613.5766910045231
 10
-218.3923160190637
 20
612.1768993123636
 10
-218.2510293881698
 20
610.7218120588217
210
0.0
220
0.0
230
-1.0
  0
LINE
  5
1B4F
330
1E
100
AcDbEntity
  8
STEMPEL
100
AcDbLine
 10
233.5784433813479
 20
599.2218120588219
 30
0.0
 11
218.8376039104265
 21
599.2218120588219
 31
0.0
  0
LINE
  5
1B50
330
1E
100
AcDbEntity
  8
STEMPEL
100
AcDbLine
 10
232.991868859091
 20
610.7218120588217
 30
0.0
 11
232.9918688590909
 21
604.2218120588235
 31
0.0
  0
LWPOLYLINE
  5
1B51
330
1E
100
AcDbEntity
  8
STEMPEL
100
AcDbPolyline
 90
       10
 70
   128
 43
0.0
 10
234.3034435955986
 20
598.2218120588219
 10
234.0756910327301
 20
598.3129655407487
 10
233.8548586162359
 20
598.5836563341064
 10
233.6476562273447
 20
599.0256596361153
 10
233.4603796057935
 20
599.625545400108
 10
233.2987190569616
 20
600.3650864007028
 10
233.1675865548209
 20
601.2218120588221
 10
233.070966494093
 20
602.1696911988682
 10
233.0117946264308
 20
603.1799229928207
 10
232.9918688590908
 20
604.2218120588223
  0
LINE
  5
1B52
330
1E
100
AcDbEntity
  8
STEMPEL
100
AcDbLine
 10
218.2510293881698
 20
610.7218120588201
 30
0.0
 11
218.2510293881698
 21
604.2218120588235
 31
0.0
  0
LINE
  5
1B53
330
1E
100
AcDbEntity
  8
STEMPEL
100
AcDbLine
 10
218.1201959384833
 20
610.7218120588185
 30
0.0
 11
218.1201959384833
 21
604.2218120588235
 31
0.0
  0
LWPOLYLINE
  5
1B54
330
1E
100
AcDbEntity
  8
STEMPEL
100
AcDbPolyline
 90
       10
 70
   128
 43
0.0
 10
219.4317706749911
 20
598.2218120588219
 10
219.2040181121225
 20
598.3129655407487
 10
218.9831856956283
 20
598.5836563341065
 10
218.7759833067371
 20
599.0256596361153
 10
218.5887066851859
 20
599.6255454001081
 10
218.427046136354
 20
600.3650864007028
 10
218.2959136342133
 20
601.2218120588221
 10
218.1992935734855
 20
602.1696911988682
 10
218.1401217058232
 20
603.1799229928207
 10
218.1201959384833
 20
604.2218120588223
  0
LWPOLYLINE
  5
1B55
330
1E
100
AcDbEntity
  8
STEMPEL
100
AcDbPolyline
 90
        7
 70
   128
 43
0.0
 10
218.8376039104268
 20
599.2218120588219
 10
218.6687080646583
 20
599.8311499606629
 10
218.5238546760857
 20
600.558580233952
 10
218.4069397585186
 20
601.3845377278957
 10
218.3211078855009
 20
602.2868072783579
 10
218.2686676130552
 20
603.2411212126013
 10
218.2510293881699
 20
604.2218120588223
  0
LINE
  5
1B56
330
1E
100
AcDbEntity
  8
STEMPEL
100
AcDbLine
 10
218.862396754804
 20
655.7218120588205
 30
0.0
 11
218.8623967548039
 21
630.7218120588205
 31
0.0
  0
LWPOLYLINE
  5
1B57
330
1E
100
AcDbEntity
  8
STEMPEL
100
AcDbPolyline
 90
        9
 70
   128
 43
0.0
 10
197.1033443860772
 20
618.2215218185951
 10
198.544684369955
 20
618.0662204246713
 10
199.9287652734045
 20
617.6318201776569
 10
201.2029898859365
 20
616.9348289573816
 10
202.3189357056664
 20
616.001733505936
 10
203.2341950691194
 20
614.8679928905925
 10
203.9139867078945
 20
613.5766910045232
 10
204.3324774905439
 20
612.1768993123636
 10
204.4737641214378
 20
610.7218120588218
  0
LWPOLYLINE
  5
1B58
330
1E
100
AcDbEntity
  8
STEMPEL
100
AcDbPolyline
 90
       18
 70
   128
 43
0.0
 10
189.7329246505169
 20
610.7218120588203
 10
189.8595338966932
 20
612.0999334424448
 10
190.2350501091949
 20
613.4311245552245
 10
190.8466855337873
 20
614.6700532804012
 10
191.6736116596616
 20
615.7745293861704
 10
192.6876685093899
 20
616.7069412634234
 10
193.8543235931816
 20
617.4355367439846
 10
195.1338478714069
 20
617.935504382618
 10
196.482668679391
 20
618.1898183810345
 10
197.8548535422503
 20
618.1898183810345
 10
199.2036743502344
 20
617.935504382618
 10
200.4831986284597
 20
617.4355367439846
 10
201.6498537122514
 20
616.7069412634234
 10
202.6639105619797
 20
615.7745293861704
 10
203.4908366878541
 20
614.6700532804012
 10
204.1024721124464
 20
613.4311245552244
 10
204.4779883249481
 20
612.0999334424446
 10
204.6045975711244
 20
610.7218120588202
  0
LINE
  5
1B59
330
1E
100
AcDbEntity
  8
STEMPEL
100
AcDbLine
 10
189.1463501282597
 20
599.2218120588221
 30
0.0
 11
203.8871895991811
 21
599.221812058822
 31
0.0
  0
LINE
  5
1B5A
330
1E
100
AcDbEntity
  8
STEMPEL
100
AcDbLine
 10
204.6045975711243
 20
610.7218120588186
 30
0.0
 11
204.6045975711243
 21
604.2218120588236
 31
0.0
  0
LINE
  5
1B5B
330
1E
100
AcDbEntity
  8
STEMPEL
100
AcDbLine
 10
204.4737641214378
 20
610.7218120588202
 30
0.0
 11
204.4737641214378
 21
604.2218120588236
 31
0.0
  0
LWPOLYLINE
  5
1B5C
330
1E
100
AcDbEntity
  8
STEMPEL
100
AcDbPolyline
 90
        7
 70
   128
 43
0.0
 10
-203.8871895991807
 20
599.221812058822
 10
-204.0560854449492
 20
599.8311499606629
 10
-204.2009388335219
 20
600.5585802339521
 10
-204.317853751089
 20
601.3845377278958
 10
-204.4036856241067
 20
602.286807278358
 10
-204.4561258965523
 20
603.2411212126013
 10
-204.4737641214377
 20
604.2218120588224
210
0.0
220
0.0
230
-1.0
  0
LWPOLYLINE
  5
1B5D
330
1E
100
AcDbEntity
  8
STEMPEL
100
AcDbPolyline
 90
       10
 70
   128
 43
0.0
 10
-203.2930228346164
 20
598.221812058822
 10
-203.5207753974849
 20
598.3129655407488
 10
-203.7416078139791
 20
598.5836563341067
 10
-203.9488102028704
 20
599.0256596361153
 10
-204.1360868244216
 20
599.6255454001083
 10
-204.2977473732535
 20
600.365086400703
 10
-204.4288798753942
 20
601.2218120588222
 10
-204.5254999361221
 20
602.1696911988682
 10
-204.5846718037843
 20
603.1799229928208
 10
-204.6045975711243
 20
604.2218120588224
210
0.0
220
0.0
230
-1.0
  0
LINE
  5
1B5E
330
1E
100
AcDbEntity
  8
STEMPEL
100
AcDbLine
 10
189.7329246505166
 20
610.7218120588219
 30
0.0
 11
189.7329246505166
 21
604.2218120588237
 31
0.0
  0
LWPOLYLINE
  5
1B5F
330
1E
100
AcDbEntity
  8
STEMPEL
100
AcDbPolyline
 90
       10
 70
   128
 43
0.0
 10
-188.4213499140088
 20
598.2218120588221
 10
-188.6491024768774
 20
598.3129655407489
 10
-188.8699348933716
 20
598.5836563341067
 10
-189.0771372822628
 20
599.0256596361155
 10
-189.264413903814
 20
599.6255454001083
 10
-189.4260744526459
 20
600.365086400703
 10
-189.5572069547866
 20
601.2218120588223
 10
-189.6538270155145
 20
602.1696911988684
 10
-189.7129988831766
 20
603.1799229928209
 10
-189.7329246505167
 20
604.2218120588225
210
0.0
220
0.0
230
-1.0
  0
LINE
  5
1B60
330
1E
100
AcDbEntity
  8
STEMPEL
100
AcDbLine
 10
176.677859129737
 20
610.7218120588187
 30
0.0
 11
176.6778591297369
 21
604.2218120588237
 31
0.0
  0
LINE
  5
1B61
330
1E
100
AcDbEntity
  8
STEMPEL
100
AcDbLine
 10
176.29427486406
 20
610.7218120588203
 30
0.0
 11
176.29427486406
 21
604.2218120588237
 31
0.0
  0
LWPOLYLINE
  5
1B62
330
1E
100
AcDbEntity
  8
STEMPEL
100
AcDbPolyline
 90
        7
 70
   128
 43
0.0
 10
-175.0767634313308
 20
599.2218120588221
 10
-175.4273286457428
 20
599.831149960663
 10
-175.7279906246815
 20
600.5585802339522
 10
-175.9706626866162
 20
601.3845377278959
 10
-176.1488178616646
 20
602.2868072783581
 10
-176.2576644426451
 20
603.2411212126013
 10
-176.29427486406
 20
604.2218120588225
210
0.0
220
0.0
230
-1.0
  0
LINE
  5
1B63
330
1E
100
AcDbEntity
  8
STEMPEL
100
AcDbLine
 10
203.862396754804
 20
655.7218120588221
 30
0.0
 11
203.8623967548039
 21
630.7218120588221
 31
0.0
  0
LWPOLYLINE
  5
1B64
330
1E
100
AcDbEntity
  8
STEMPEL
100
AcDbPolyline
 90
       18
 70
   128
 43
0.0
 10
139.2145145042159
 20
610.7218120588205
 10
139.3158271160202
 20
612.099933442445
 10
139.6163148719494
 20
613.4311245552247
 10
140.1057450218706
 20
614.6700532804015
 10
140.7674506090351
 20
615.7745293861706
 10
141.5788980433002
 20
616.7069412634235
 10
142.5124544555159
 20
617.4355367439849
 10
143.536328701742
 20
617.9355043826181
 10
144.6156539725247
 20
618.1898183810347
 10
145.7136751402758
 20
618.1898183810347
 10
146.7930004110586
 20
617.9355043826181
 10
147.8168746572847
 20
617.4355367439849
 10
148.7504310695004
 20
616.7069412634235
 10
149.5618785037655
 20
615.7745293861706
 10
150.22358409093
 20
614.6700532804015
 10
150.7130142408511
 20
613.4311245552246
 10
151.0135019967804
 20
612.0999334424449
 10
151.1148146085847
 20
610.7218120588204
  0
LINE
  5
1B65
330
1E
100
AcDbEntity
  8
STEMPEL
100
AcDbLine
 10
137.5764914281106
 20
599.2218120588224
 30
0.0
 11
148.8665970846176
 21
599.2218120588224
 31
0.0
  0
LWPOLYLINE
  5
1B66
330
1E
100
AcDbEntity
  8
STEMPEL
100
AcDbPolyline
 90
        9
 70
   128
 43
0.0
 10
144.8595673324808
 20
618.2119461366442
 10
145.975975053852
 20
618.004639000237
 10
147.0412543055942
 20
617.5353842727832
 10
148.0170892886326
 20
616.8210600356148
 10
148.8683813214905
 20
615.8873589922182
 10
149.564511264227
 20
614.7678643570579
 10
150.0804408229183
 20
613.5028419397192
 10
150.3976131231341
 20
612.1377918705099
 10
150.5046201607224
 20
610.721812058822
  0
LINE
  5
1B67
330
1E
100
AcDbEntity
  8
STEMPEL
100
AcDbLine
 10
162.8196661420661
 20
610.7218120588204
 30
0.0
 11
162.819666142066
 21
604.2218120588238
 31
0.0
  0
LWPOLYLINE
  5
1B68
330
1E
100
AcDbEntity
  8
STEMPEL
100
AcDbPolyline
 90
       10
 70
   128
 43
0.0
 10
-160.097322814857
 20
598.2218120588222
 10
-160.5700527726106
 20
598.3129655407489
 10
-161.0284190698108
 20
598.5836563341068
 10
-161.4584944784615
 20
599.0256596361156
 10
-161.8472113748998
 20
599.6255454001085
 10
-162.1827587929274
 20
600.3650864007032
 10
-162.454941294043
 20
601.2218120588224
 10
-162.6554887506811
 20
602.1696911988684
 10
-162.7783076298535
 20
603.1799229928211
 10
-162.819666142066
 20
604.2218120588227
210
0.0
220
0.0
230
-1.0
  0
LWPOLYLINE
  5
1B69
330
1E
100
AcDbEntity
  8
STEMPEL
100
AcDbPolyline
 90
       10
 70
   128
 43
0.0
 10
-147.4522114730606
 20
598.2218120588223
 10
-148.0882158330615
 20
598.3129655407491
 10
-148.7048955224177
 20
598.5836563341068
 10
-149.2835130408228
 20
599.0256596361157
 10
-149.8064873877746
 20
599.6255454001085
 10
-150.2579282523791
 20
600.3650864007032
 10
-150.6241188324051
 20
601.2218120588224
 10
-150.89393261238
 20
602.1696911988684
 10
-151.0591714371317
 20
603.1799229928211
 10
-151.1148146085848
 20
604.2218120588227
210
0.0
220
0.0
230
-1.0
  0
LWPOLYLINE
  5
1B6A
330
1E
100
AcDbEntity
  8
STEMPEL
100
AcDbPolyline
 90
        7
 70
   128
 43
0.0
 10
-148.8665970846171
 20
599.2218120588224
 10
-149.3382426851839
 20
599.8311499606631
 10
-149.7427491615667
 20
600.5585802339525
 10
-150.0692368040558
 20
601.3845377278961
 10
-150.3089243174641
 20
602.2868072783583
 10
-150.45536500509
 20
603.2411212126016
 10
-150.5046201607224
 20
604.2218120588227
210
0.0
220
0.0
230
-1.0
  0
LINE
  5
1B6B
330
1E
100
AcDbEntity
  8
STEMPEL
100
AcDbLine
 10
151.1148146085848
 20
610.7218120588204
 30
0.0
 11
151.1148146085848
 21
604.2218120588238
 31
0.0
  0
LINE
  5
1B6C
330
1E
100
AcDbEntity
  8
STEMPEL
100
AcDbLine
 10
150.5046201607225
 20
610.7218120588204
 30
0.0
 11
150.5046201607224
 21
604.2218120588238
 31
0.0
  0
ELLIPSE
  5
1B6D
330
1E
100
AcDbEntity
  8
STEMPEL
100
AcDbEllipse
 10
156.4903865856828
 20
630.7218120588223
 30
0.0
 11
-0.0000000000000334
 21
-7.5
 31
0.0
210
0.0
220
0.0
230
-1.0
 40
0.8660254037843856
 41
4.712388980384689
 42
6.24459510668465
  0
ELLIPSE
  5
1B6E
330
1E
100
AcDbEntity
  8
STEMPEL
100
AcDbEllipse
 10
156.9915635811248
 20
630.7218120588223
 30
0.0
 11
-0.0000000000000334
 21
-7.5
 31
0.0
210
0.0
220
0.0
230
-1.0
 40
0.8660254037843856
 41
4.712388980384689
 42
7.853981633974482
  0
ELLIPSE
  5
1B6F
330
1E
100
AcDbEntity
  8
STEMPEL
100
AcDbEllipse
 10
156.4903865856829
 20
655.7218120588223
 30
0.0
 11
0.0000000000000334
 21
7.5
 31
0.0
210
0.0
220
0.0
230
1.0
 40
0.8660254037843856
 41
4.712388980384689
 42
6.24459510668465
  0
ELLIPSE
  5
1B70
330
1E
100
AcDbEntity
  8
STEMPEL
100
AcDbEllipse
 10
156.9915635811249
 20
655.7218120588223
 30
0.0
 11
0.0000000000000334
 21
7.5
 31
0.0
210
0.0
220
0.0
230
1.0
 40
0.8660254037843856
 41
4.712388980384689
 42
7.853981633974482
  0
LINE
  5
1B71
330
1E
100
AcDbEntity
  8
STEMPEL
100
AcDbLine
 10
162.9855771140658
 20
655.7218120588223
 30
0.0
 11
162.9855771140657
 21
630.7218120588223
 31
0.0
  0
LINE
  5
1B72
330
1E
100
AcDbEntity
  8
STEMPEL
100
AcDbLine
 10
163.4867541095077
 20
655.7218120588223
 30
0.0
 11
163.4867541095076
 21
630.7218120588223
 31
0.0
  0
LINE
  5
1B73
330
1E
100
AcDbEntity
  8
STEMPEL
100
AcDbLine
 10
150.496373052742
 20
655.7218120588223
 30
0.0
 11
150.4963730527419
 21
630.7218120588239
 31
0.0
  0
LWPOLYLINE
  5
1B74
330
1E
100
AcDbEntity
  8
STEMPEL
100
AcDbPolyline
 90
       10
 70
   128
 43
0.0
 10
124.2966116424774
 20
618.2218120588237
 10
125.0894389883371
 20
618.1078702064151
 10
125.8581766764829
 20
617.769506714718
 10
126.5794670012604
 20
617.2170025872068
 10
127.2313939211419
 20
616.4671453822156
 10
127.7941489665575
 20
615.5427191314721
 10
128.2506331102205
 20
614.4718120588229
 10
128.5869763124172
 20
613.2869631337651
 10
128.7929589551473
 20
612.0241733913243
 10
128.8623223600434
 20
610.7218120588221
  0
LWPOLYLINE
  5
1B75
330
1E
100
AcDbEntity
  8
STEMPEL
100
AcDbPolyline
 90
       18
 70
   128
 43
0.0
 10
120.5261218117325
 20
610.7218120588205
 10
120.6038617129926
 20
612.0999334424451
 10
120.8344340776744
 20
613.4311245552247
 10
121.2099870404396
 20
614.6700532804016
 10
121.7177315955673
 20
615.7745293861709
 10
122.3403771112052
 20
616.7069412634236
 10
123.0567201410993
 20
617.4355367439849
 10
123.8423664825252
 20
617.9355043826181
 10
124.6705618916046
 20
618.189818381035
 10
125.5131031669923
 20
618.1898183810349
 10
126.3412985760717
 20
617.9355043826181
 10
127.1269449174975
 20
617.4355367439849
 10
127.8432879473916
 20
616.7069412634235
 10
128.4659334630296
 20
615.7745293861708
 10
128.9736780181573
 20
614.6700532804015
 10
129.3492309809224
 20
613.4311245552247
 10
129.5798033456043
 20
612.0999334424451
 10
129.6575432468644
 20
610.7218120588205
  0
LWPOLYLINE
  5
1B76
330
1E
100
AcDbEntity
  8
STEMPEL
100
AcDbPolyline
 90
        9
 70
   128
 43
0.0
 10
110.4351697170596
 20
618.1235703034857
 10
110.9242302603284
 20
617.7971374057283
 10
111.3838432282294
 20
617.2518683924711
 10
111.7997930318537
 20
616.5046281493431
 10
112.1592145611452
 20
615.5785284265655
 10
112.4509910960327
 20
614.5022130045953
 10
112.6660981407709
 20
613.3089717569644
 10
112.7978825468784
 20
612.0357110118885
 10
112.8422682915432
 20
610.7218120588221
  0
LINE
  5
1B77
330
1E
100
AcDbEntity
  8
STEMPEL
100
AcDbLine
 10
118.5745449832139
 20
599.2218120588224
 30
0.0
 11
126.9107455315258
 21
599.2218120588224
 31
0.0
  0
LINE
  5
1B78
330
1E
100
AcDbEntity
  8
STEMPEL
100
AcDbLine
 10
139.214514504216
 20
610.7218120588205
 30
0.0
 11
139.2145145042159
 21
604.2218120588239
 31
0.0
  0
LWPOLYLINE
  5
1B79
330
1E
100
AcDbEntity
  8
STEMPEL
100
AcDbPolyline
 90
       10
 70
   128
 43
0.0
 10
-135.5519113686918
 20
598.2218120588223
 10
-136.1879157286927
 20
598.3129655407491
 10
-136.8045954180489
 20
598.5836563341068
 10
-137.3832129364539
 20
599.0256596361158
 10
-137.9061872834058
 20
599.6255454001085
 10
-138.3576281480102
 20
600.3650864007032
 10
-138.7238187280362
 20
601.2218120588226
 10
-138.9936325080112
 20
602.1696911988685
 10
-139.1588713327628
 20
603.1799229928211
 10
-139.2145145042159
 20
604.2218120588228
210
0.0
220
0.0
230
-1.0
  0
LINE
  5
1B7A
330
1E
100
AcDbEntity
  8
STEMPEL
100
AcDbLine
 10
129.6575432468642
 20
610.7218120588205
 30
0.0
 11
129.6575432468642
 21
604.2218120588239
 31
0.0
  0
LINE
  5
1B7B
330
1E
100
AcDbEntity
  8
STEMPEL
100
AcDbLine
 10
128.8623223600435
 20
610.7218120588205
 30
0.0
 11
128.8623223600434
 21
604.2218120588239
 31
0.0
  0
LWPOLYLINE
  5
1B7C
330
1E
100
AcDbEntity
  8
STEMPEL
100
AcDbPolyline
 90
       10
 70
   128
 43
0.0
 10
-125.2938370722583
 20
598.2218120588223
 10
-126.0515866973525
 20
598.3129655407491
 10
-126.786312483528
 20
598.5836563341068
 10
-127.4756901595612
 20
599.0256596361158
 10
-128.0987733336076
 20
599.6255454001085
 10
-128.636629938719
 20
600.3650864007032
 10
-129.072917474118
 20
601.2218120588226
 10
-129.3943795638132
 20
602.1696911988686
 10
-129.5912487448773
 20
603.1799229928211
 10
-129.6575432468641
 20
604.2218120588228
210
0.0
220
0.0
230
-1.0
  0
LWPOLYLINE
  5
1B7D
330
1E
100
AcDbEntity
  8
STEMPEL
100
AcDbPolyline
 90
        7
 70
   128
 43
0.0
 10
-126.9107455315251
 20
599.2218120588224
 10
-127.4726745047892
 20
599.8311499606631
 10
-127.9546124443764
 20
600.5585802339525
 10
-128.3435970241262
 20
601.3845377278961
 10
-128.6291660152326
 20
602.2868072783584
 10
-128.8036386810286
 20
603.2411212126016
 10
-128.8623223600436
 20
604.2218120588228
210
0.0
220
0.0
230
-1.0
  0
LWPOLYLINE
  5
1B7E
330
1E
100
AcDbEntity
  8
STEMPEL
100
AcDbPolyline
 90
       10
 70
   128
 43
0.0
 10
-116.1624156371264
 20
598.2218120588223
 10
-116.9201652622206
 20
598.3129655407491
 10
-117.6548910483962
 20
598.5836563341069
 10
-118.3442687244293
 20
599.0256596361158
 10
-118.9673518984757
 20
599.6255454001087
 10
-119.5052085035871
 20
600.3650864007034
 10
-119.9414960389861
 20
601.2218120588226
 10
-120.2629581286814
 20
602.1696911988686
 10
-120.4598273097454
 20
603.1799229928211
 10
-120.5261218117322
 20
604.2218120588228
210
0.0
220
0.0
230
-1.0
  0
LINE
  5
1B7F
330
1E
100
AcDbEntity
  8
STEMPEL
100
AcDbLine
 10
120.5261218117324
 20
610.7218120588205
 30
0.0
 11
120.5261218117323
 21
604.2218120588239
 31
0.0
  0
LINE
  5
1B80
330
1E
100
AcDbEntity
  8
STEMPEL
100
AcDbLine
 10
113.7683226280506
 20
610.7218120588205
 30
0.0
 11
113.7683226280506
 21
604.2218120588239
 31
0.0
  0
LINE
  5
1B81
330
1E
100
AcDbEntity
  8
STEMPEL
100
AcDbLine
 10
112.8422682915434
 20
610.7218120588205
 30
0.0
 11
112.8422682915433
 21
604.2218120588239
 31
0.0
  0
LWPOLYLINE
  5
1B82
330
1E
100
AcDbEntity
  8
STEMPEL
100
AcDbPolyline
 90
       10
 70
   128
 43
0.0
 10
-108.9529581014766
 20
598.2218120588225
 10
-109.7891373763182
 20
598.3129655407492
 10
-110.5999097670208
 20
598.5836563341071
 10
-111.3606403647636
 20
599.0256596361158
 10
-112.0482147552824
 20
599.6255454001087
 10
-112.6417413386508
 20
600.3650864007034
 10
-113.123186109972
 20
601.2218120588226
 10
-113.4779206134924
 20
602.1696911988686
 10
-113.6951664208266
 20
603.1799229928211
 10
-113.7683226280506
 20
604.2218120588228
210
0.0
220
0.0
230
-1.0
  0
LWPOLYLINE
  5
1B83
330
1E
100
AcDbEntity
  8
STEMPEL
100
AcDbPolyline
 90
        7
 70
   128
 43
0.0
 10
-110.6886966588746
 20
599.2218120588225
 10
-111.3087871819389
 20
599.8311499606633
 10
-111.8406073287224
 20
600.5585802339525
 10
-112.2698531284536
 20
601.3845377278961
 10
-112.584979476251
 20
602.2868072783584
 10
-112.7775106532168
 20
603.2411212126016
 10
-112.8422682915432
 20
604.2218120588228
210
0.0
220
0.0
230
-1.0
  0
LINE
  5
1B84
330
1E
100
AcDbEntity
  8
STEMPEL
100
AcDbLine
 10
120.0712872284517
 20
630.7218120588226
 30
0.0
 11
120.0712872284519
 21
655.7218120588242
 31
0.0
  0
LINE
  5
1B85
330
1E
100
AcDbEntity
  8
STEMPEL
100
AcDbLine
 10
120.9393512481408
 20
655.7218120588226
 30
0.0
 11
120.9393512481407
 21
630.7218120588242
 31
0.0
  0
LINE
  5
1B86
330
1E
100
AcDbEntity
  8
STEMPEL
100
AcDbLine
 10
113.4393512481409
 20
655.7218120588226
 30
0.0
 11
113.4393512481408
 21
630.7218120588258
 31
0.0
  0
ELLIPSE
  5
1B87
330
1E
100
AcDbEntity
  8
STEMPEL
100
AcDbEllipse
 10
117.1893512481407
 20
630.7218120588242
 30
0.0
 11
-0.0000000000000334
 21
-7.499999999999999
 31
0.0
210
0.0
220
0.0
230
-1.0
 40
0.4999999999999926
 41
4.712388980384689
 42
7.853981633974482
  0
ELLIPSE
  5
1B88
330
1E
100
AcDbEntity
  8
STEMPEL
100
AcDbEllipse
 10
116.321287228452
 20
630.7218120588242
 30
0.0
 11
-0.0000000000000334
 21
-7.499999999999999
 31
0.0
210
0.0
220
0.0
230
-1.0
 40
0.4999999999999926
 41
4.712388980384689
 42
6.167183451052224
  0
ELLIPSE
  5
1B89
330
1E
100
AcDbEntity
  8
STEMPEL
100
AcDbEllipse
 10
117.1893512481408
 20
655.7218120588226
 30
0.0
 11
0.0000000000000334
 21
7.499999999999999
 31
0.0
210
0.0
220
0.0
230
1.0
 40
0.4999999999999926
 41
4.712388980384689
 42
7.853981633974482
  0
ELLIPSE
  5
1B8A
330
1E
100
AcDbEntity
  8
STEMPEL
100
AcDbEllipse
 10
116.3212872284521
 20
655.7218120588226
 30
0.0
 11
0.0000000000000334
 21
7.499999999999999
 31
0.0
210
0.0
220
0.0
230
1.0
 40
0.4999999999999926
 41
4.712388980384689
 42
6.167183451052224
  0
LINE
  5
1B8B
330
1E
100
AcDbEntity
  8
STEMPEL
100
AcDbLine
 10
185.9228821597474
 20
688.2218120588219
 30
0.0
 11
131.362396754804
 21
688.2218120588223
 31
0.0
  0
LINE
  5
1B8C
330
1E
100
AcDbEntity
  8
STEMPEL
100
AcDbLine
 10
234.0259583711014
 20
689.7218120588215
 30
0.0
 11
188.5209583711015
 21
689.7218120588217
 31
0.0
  0
LINE
  5
1B8D
330
1E
100
AcDbEntity
  8
STEMPEL
100
AcDbLine
 10
214.7209583711016
 20
688.7218120588216
 30
0.0
 11
204.632690909908
 21
688.7218120588216
 31
0.0
  0
LINE
  5
1B8E
330
1E
100
AcDbEntity
  8
STEMPEL
100
AcDbLine
 10
223.7728821597485
 20
688.2218120588215
 30
0.0
 11
217.3190345824542
 21
688.2218120588215
 31
0.0
  0
LINE
  5
1B8F
330
1E
100
AcDbEntity
  8
STEMPEL
100
AcDbLine
 10
223.7728821597485
 20
688.2218120588215
 30
0.0
 11
217.3190345824542
 21
688.2218120588215
 31
0.0
  0
ARC
  5
1B90
330
1E
100
AcDbEntity
  8
STEMPEL
100
AcDbCircle
 10
223.7728821597485
 20
689.7218120588215
 30
0.0
 40
2.5
100
AcDbArc
 50
270.0
 51
329.9999999999995
  0
ARC
  5
1B91
330
1E
100
AcDbEntity
  8
STEMPEL
100
AcDbCircle
 10
229.1690345824552
 20
689.7218120588214
 30
0.0
 40
2.5
100
AcDbArc
 50
209.9999999999925
 51
270.0
  0
ARC
  5
1B92
330
1E
100
AcDbEntity
  8
STEMPEL
100
AcDbCircle
 10
231.2278821597475
 20
689.7218120588214
 30
0.0
 40
2.5
100
AcDbArc
 50
270.0
 51
330.0000000000076
  0
ARC
  5
1B93
330
1E
100
AcDbEntity
  8
STEMPEL
100
AcDbCircle
 10
236.6240345824549
 20
689.7218120588215
 30
0.0
 40
2.5
100
AcDbArc
 50
209.9999999999997
 51
270.0
  0
ARC
  5
1B94
330
1E
100
AcDbEntity
  8
STEMPEL
100
AcDbCircle
 10
231.2278821597475
 20
689.7218120588214
 30
0.0
 40
1.5
100
AcDbArc
 50
270.0
 51
330.0000000000076
  0
ARC
  5
1B95
330
1E
100
AcDbEntity
  8
STEMPEL
100
AcDbCircle
 10
236.6240345824549
 20
689.7218120588215
 30
0.0
 40
1.5
100
AcDbArc
 50
209.9999999999925
 51
270.0
  0
ARC
  5
1B96
330
1E
100
AcDbEntity
  8
STEMPEL
100
AcDbCircle
 10
234.0259583711014
 20
688.2218120588215
 30
0.0
 40
1.5
100
AcDbArc
 50
29.99999999999973
 51
90.0
  0
ARC
  5
1B97
330
1E
100
AcDbEntity
  8
STEMPEL
100
AcDbCircle
 10
233.8259583711014
 20
688.2218120588215
 30
0.0
 40
1.5
100
AcDbArc
 50
90.0
 51
150.0000000000075
  0
ARC
  5
1B98
330
1E
100
AcDbEntity
  8
STEMPEL
100
AcDbCircle
 10
233.8259583711014
 20
688.2218120588215
 30
0.0
 40
0.5
100
AcDbArc
 50
90.0
 51
150.0000000000002
  0
LINE
  5
1B99
330
1E
100
AcDbEntity
  8
STEMPEL
100
AcDbLine
 10
234.0259583711014
 20
688.7218120588215
 30
0.0
 11
233.8259583711014
 21
688.7218120588215
 31
0.0
  0
ARC
  5
1B9A
330
1E
100
AcDbEntity
  8
STEMPEL
100
AcDbCircle
 10
234.0259583711014
 20
688.2218120588215
 30
0.0
 40
0.5
100
AcDbArc
 50
29.99999999999973
 51
90.0
  0
ARC
  5
1B9B
330
1E
100
AcDbEntity
  8
STEMPEL
100
AcDbCircle
 10
226.5709583711014
 20
688.2218120588216
 30
0.0
 40
1.5
100
AcDbArc
 50
29.99999999999246
 51
90.0
  0
LINE
  5
1B9C
330
1E
100
AcDbEntity
  8
STEMPEL
100
AcDbLine
 10
231.2278821597475
 20
688.2218120588214
 30
0.0
 11
229.1690345824552
 21
688.2218120588214
 31
0.0
  0
LINE
  5
1B9D
330
1E
100
AcDbEntity
  8
STEMPEL
100
AcDbLine
 10
231.2278821597475
 20
688.2218120588214
 30
0.0
 11
229.1690345824552
 21
688.2218120588214
 31
0.0
  0
ARC
  5
1B9E
330
1E
100
AcDbEntity
  8
STEMPEL
100
AcDbCircle
 10
229.1690345824552
 20
689.7218120588214
 30
0.0
 40
1.5
100
AcDbArc
 50
209.9999999999925
 51
270.0
  0
ARC
  5
1B9F
330
1E
100
AcDbEntity
  8
STEMPEL
100
AcDbCircle
 10
226.3709583711014
 20
688.2218120588216
 30
0.0
 40
1.5
100
AcDbArc
 50
90.0
 51
149.9999999999994
  0
ARC
  5
1BA0
330
1E
100
AcDbEntity
  8
STEMPEL
100
AcDbCircle
 10
226.3709583711014
 20
688.2218120588216
 30
0.0
 40
0.5
100
AcDbArc
 50
90.0
 51
149.9999999999994
  0
LINE
  5
1BA1
330
1E
100
AcDbEntity
  8
STEMPEL
100
AcDbLine
 10
226.5709583711014
 20
688.7218120588216
 30
0.0
 11
226.3709583711014
 21
688.7218120588216
 31
0.0
  0
ARC
  5
1BA2
330
1E
100
AcDbEntity
  8
STEMPEL
100
AcDbCircle
 10
226.5709583711014
 20
688.2218120588216
 30
0.0
 40
0.5
100
AcDbArc
 50
29.99999999999246
 51
90.0
  0
ARC
  5
1BA3
330
1E
100
AcDbEntity
  8
STEMPEL
100
AcDbCircle
 10
223.7728821597485
 20
689.7218120588215
 30
0.0
 40
1.5
100
AcDbArc
 50
270.0
 51
329.9999999999995
  0
ARC
  5
1BA4
330
1E
100
AcDbEntity
  8
STEMPEL
100
AcDbCircle
 10
217.3190345824542
 20
689.7218120588215
 30
0.0
 40
2.5
100
AcDbArc
 50
210.000000000007
 51
270.0
  0
ARC
  5
1BA5
330
1E
100
AcDbEntity
  8
STEMPEL
100
AcDbCircle
 10
214.7209583711016
 20
688.2218120588216
 30
0.0
 40
1.5
100
AcDbArc
 50
30.00000000000055
 51
90.0
  0
ARC
  5
1BA6
330
1E
100
AcDbEntity
  8
STEMPEL
100
AcDbCircle
 10
217.3190345824542
 20
689.7218120588215
 30
0.0
 40
1.5
100
AcDbArc
 50
210.000000000007
 51
270.0
  0
ARC
  5
1BA7
330
1E
100
AcDbEntity
  8
STEMPEL
100
AcDbCircle
 10
214.7209583711016
 20
688.2218120588216
 30
0.0
 40
0.5
100
AcDbArc
 50
30.00000000000055
 51
90.0
  0
ARC
  5
1BA8
330
1E
100
AcDbEntity
  8
STEMPEL
100
AcDbCircle
 10
191.3190345824539
 20
689.7218120588217
 30
0.0
 40
2.5
100
AcDbArc
 50
210.0000000000078
 51
270.0
  0
ARC
  5
1BA9
330
1E
100
AcDbEntity
  8
STEMPEL
100
AcDbCircle
 10
191.3190345824539
 20
689.7218120588217
 30
0.0
 40
1.5
100
AcDbArc
 50
210.0000000000078
 51
270.0
  0
ARC
  5
1BAA
330
1E
100
AcDbEntity
  8
STEMPEL
100
AcDbCircle
 10
197.7728821597479
 20
689.7218120588217
 30
0.0
 40
2.5
100
AcDbArc
 50
270.0
 51
330.0000000000003
  0
ARC
  5
1BAB
330
1E
100
AcDbEntity
  8
STEMPEL
100
AcDbCircle
 10
202.5074500442054
 20
688.7218120588216
 30
0.0
 40
1.5
100
AcDbArc
 50
194.4775121859299
 51
270.0
  0
ARC
  5
1BAC
330
1E
100
AcDbEntity
  8
STEMPEL
100
AcDbCircle
 10
202.6961992368046
 20
688.7218120588216
 30
0.0
 40
1.5
100
AcDbArc
 50
270.0
 51
345.5224878140701
  0
ARC
  5
1BAD
330
1E
100
AcDbEntity
  8
STEMPEL
100
AcDbCircle
 10
197.7728821597479
 20
689.7218120588217
 30
0.0
 40
1.5
100
AcDbArc
 50
270.0
 51
330.0000000000003
  0
ARC
  5
1BAE
330
1E
100
AcDbEntity
  8
STEMPEL
100
AcDbCircle
 10
202.6961992368046
 20
688.7218120588216
 30
0.0
 40
0.5
100
AcDbArc
 50
270.0
 51
345.5224878140701
  0
ARC
  5
1BAF
330
1E
100
AcDbEntity
  8
STEMPEL
100
AcDbCircle
 10
204.632690909908
 20
688.2218120588216
 30
0.0
 40
1.5
100
AcDbArc
 50
90.0
 51
165.5224878140701
  0
ARC
  5
1BB0
330
1E
100
AcDbEntity
  8
STEMPEL
100
AcDbCircle
 10
204.632690909908
 20
688.2218120588216
 30
0.0
 40
0.5
100
AcDbArc
 50
90.0
 51
165.5224878140701
  0
ARC
  5
1BB1
330
1E
100
AcDbEntity
  8
STEMPEL
100
AcDbCircle
 10
200.3709583711014
 20
688.2218120588216
 30
0.0
 40
0.5
100
AcDbArc
 50
90.0
 51
150.0000000000002
  0
LINE
  5
1BB2
330
1E
100
AcDbEntity
  8
STEMPEL
100
AcDbLine
 10
200.5709583711015
 20
688.7218120588218
 30
0.0
 11
200.3709583711014
 21
688.7218120588218
 31
0.0
  0
ARC
  5
1BB3
330
1E
100
AcDbEntity
  8
STEMPEL
100
AcDbCircle
 10
200.5709583711015
 20
688.2218120588216
 30
0.0
 40
0.5
100
AcDbArc
 50
14.47751218592986
 51
90.0
  0
LINE
  5
1BB4
330
1E
100
AcDbEntity
  8
STEMPEL
100
AcDbLine
 10
202.6961992368046
 20
688.2218120588216
 30
0.0
 11
202.5074500442054
 21
688.2218120588216
 31
0.0
  0
ARC
  5
1BB5
330
1E
100
AcDbEntity
  8
STEMPEL
100
AcDbCircle
 10
202.5074500442054
 20
688.7218120588216
 30
0.0
 40
0.5
100
AcDbArc
 50
194.4775121859299
 51
270.0
  0
ARC
  5
1BB6
330
1E
100
AcDbEntity
  8
STEMPEL
100
AcDbCircle
 10
200.5709583711015
 20
688.2218120588216
 30
0.0
 40
1.5
100
AcDbArc
 50
14.47751218592986
 51
90.0
  0
ARC
  5
1BB7
330
1E
100
AcDbEntity
  8
STEMPEL
100
AcDbCircle
 10
200.3709583711014
 20
688.2218120588216
 30
0.0
 40
1.5
100
AcDbArc
 50
90.0
 51
150.0000000000002
  0
LINE
  5
1BB8
330
1E
100
AcDbEntity
  8
STEMPEL
100
AcDbLine
 10
197.7728821597479
 20
688.2218120588216
 30
0.0
 11
191.3190345824539
 21
688.2218120588216
 31
0.0
  0
LINE
  5
1BB9
330
1E
100
AcDbEntity
  8
STEMPEL
100
AcDbLine
 10
197.7728821597479
 20
688.2218120588218
 30
0.0
 11
191.3190345824539
 21
688.2218120588218
 31
0.0
  0
ARC
  5
1BBA
330
1E
100
AcDbEntity
  8
STEMPEL
100
AcDbCircle
 10
185.9228821597474
 20
689.7218120588217
 30
0.0
 40
2.5
100
AcDbArc
 50
270.0
 51
330.0000000000076
  0
ARC
  5
1BBB
330
1E
100
AcDbEntity
  8
STEMPEL
100
AcDbCircle
 10
185.9228821597474
 20
689.7218120588217
 30
0.0
 40
1.5
100
AcDbArc
 50
270.0
 51
330.0000000000076
  0
ARC
  5
1BBC
330
1E
100
AcDbEntity
  8
STEMPEL
100
AcDbCircle
 10
188.5209583711015
 20
688.2218120588216
 30
0.0
 40
1.5
100
AcDbArc
 50
90.0
 51
150.0000000000075
  0
ARC
  5
1BBD
330
1E
100
AcDbEntity
  8
STEMPEL
100
AcDbCircle
 10
188.5209583711015
 20
688.2218120588216
 30
0.0
 40
0.5
100
AcDbArc
 50
90.0
 51
150.0000000000075
  0
LINE
  5
1BBE
330
1E
100
AcDbEntity
  8
STEMPEL
100
AcDbLine
 10
188.7209583711015
 20
688.7218120588216
 30
0.0
 11
188.5209583711015
 21
688.7218120588216
 31
0.0
  0
ARC
  5
1BBF
330
1E
100
AcDbEntity
  8
STEMPEL
100
AcDbCircle
 10
188.7209583711015
 20
688.2218120588216
 30
0.0
 40
0.5
100
AcDbArc
 50
30.00000000000782
 51
90.0
  0
ARC
  5
1BC0
330
1E
100
AcDbEntity
  8
STEMPEL
100
AcDbCircle
 10
188.7209583711015
 20
688.2218120588216
 30
0.0
 40
1.5
100
AcDbArc
 50
30.00000000000782
 51
90.0
  0
ARC
  5
1BC1
330
1E
100
AcDbEntity
  8
STEMPEL
100
AcDbCircle
 10
131.3623967548061
 20
682.2218120588173
 30
0.0
 40
5.000000000004884
100
AcDbArc
 50
90.00000000002442
 51
120.5373500482977
  0
ARC
  5
1BC2
330
1E
100
AcDbEntity
  8
STEMPEL
100
AcDbCircle
 10
131.362396754804
 20
682.2218120588225
 30
0.0
 40
5.999999999999263
100
AcDbArc
 50
90.0
 51
120.5128743276239
  0
ARC
  5
1BC3
330
1E
100
AcDbEntity
  8
STEMPEL
100
AcDbCircle
 10
131.362396754804
 20
682.2218120588218
 30
0.0
 40
6.0
100
AcDbArc
 50
90.0
 51
90.0
  0
LINE
  5
1BC4
330
1E
100
AcDbEntity
  8
STEMPEL
100
AcDbLine
 10
101.3623967548039
 20
668.2217540915068
 30
0.0
 11
101.3623967548036
 21
604.2218120588229
 31
0.0
  0
LINE
  5
1BC5
330
1E
100
AcDbEntity
  8
STEMPEL
100
AcDbLine
 10
102.362396754804
 20
668.2217540915068
 30
0.0
 11
102.3623967548037
 21
604.2218120588229
 31
0.0
  0
LWPOLYLINE
  5
1BC6
330
1E
100
AcDbEntity
  8
STEMPEL
100
AcDbPolyline
 90
       18
 70
   128
 43
0.0
 10
102.572083995839
 20
610.7218120588206
 10
102.5887524193159
 20
612.0999334424451
 10
102.6381900665762
 20
613.4311245552249
 10
102.7187133978367
 20
614.6700532804016
 10
102.8275802876283
 20
615.7745293861709
 10
102.9610834045906
 20
616.7069412634238
 10
103.1146764601947
 20
617.435536743985
 10
103.2831290271468
 20
617.9355043826183
 10
103.4607046553157
 20
618.189818381035
 10
103.6413562196628
 20
618.189818381035
 10
103.8189318478317
 20
617.9355043826183
 10
103.9873844147838
 20
617.435536743985
 10
104.1409774703879
 20
616.7069412634238
 10
104.2744805873502
 20
615.7745293861709
 10
104.3833474771419
 20
614.6700532804016
 10
104.4638708084023
 20
613.4311245552249
 10
104.5133084556626
 20
612.0999334424451
 10
104.5299768791395
 20
610.7218120588206
  0
LINE
  5
1BC7
330
1E
100
AcDbEntity
  8
STEMPEL
100
AcDbLine
 10
81.3623967548041
 20
599.2218120588225
 30
0.0
 11
96.362396754804
 21
599.2218120588229
 31
0.0
  0
LWPOLYLINE
  5
1BC8
330
1E
100
AcDbEntity
  8
STEMPEL
100
AcDbPolyline
 90
       10
 70
   128
 43
0.0
 10
-99.02398814810865
 20
598.2218120588226
 10
-99.88206114438142
 20
598.2879392733951
 10
-100.7348733440036
 20
598.5404930231253
 10
-101.5556316509206
 20
598.9715387394429
 10
-102.3185500173197
 20
599.5675341098827
 10
-102.9996595728188
 20
600.3097545416034
 10
-103.5775616627645
 20
601.1748814384008
 10
-104.0341001371708
 20
602.135734809117
 10
-104.3549317687683
 20
603.1621271908292
 10
-104.5299768791394
 20
604.2218120588217
210
0.0
220
0.0
230
-1.0
  0
ARC
  5
1BC9
330
1E
100
AcDbEntity
  8
STEMPEL
100
AcDbCircle
 10
96.36239675480377
 20
604.2218120588231
 30
0.0
 40
6.0
100
AcDbArc
 50
270.0000000000017
 51
0.0
  0
LWPOLYLINE
  5
1BCA
330
1E
100
AcDbEntity
  8
STEMPEL
100
AcDbPolyline
 90
       10
 70
   128
 43
0.0
 10
-97.06609526480818
 20
598.2218120588237
 10
-97.92416826108095
 20
598.2879392733963
 10
-98.77698046070319
 20
598.5404930231265
 10
-99.59773876762021
 20
598.9715387394441
 10
-100.3606571340192
 20
599.5675341098839
 10
-101.0417666895183
 20
600.3097545416046
 10
-101.6196687794641
 20
601.174881438402
 10
-102.0762072538703
 20
602.1357348091181
 10
-102.3970388854678
 20
603.1621271908303
 10
-102.572083995839
 20
604.2218120588229
210
0.0
220
0.0
230
-1.0
  0
ARC
  5
1BCB
330
1E
100
AcDbEntity
  8
STEMPEL
100
AcDbCircle
 10
96.36239675480377
 20
604.2218120588231
 30
0.0
 40
5.0
100
AcDbArc
 50
270.0000000000017
 51
0.0
  0
LINE
  5
1BCC
330
1E
100
AcDbEntity
  8
STEMPEL
100
AcDbLine
 10
99.95162481216837
 20
599.2218120588225
 30
0.0
 11
100.915738981931
 21
599.2218120588225
 31
0.0
  0
LINE
  5
1BCD
330
1E
100
AcDbEntity
  8
STEMPEL
100
AcDbLine
 10
103.5361981656017
 20
610.7218120588206
 30
0.0
 11
103.5361981656016
 21
604.2218120588229
 31
0.0
  0
LINE
  5
1BCE
330
1E
100
AcDbEntity
  8
STEMPEL
100
AcDbLine
 10
104.5299768791395
 20
610.7218120588206
 30
0.0
 11
104.5299768791394
 21
604.2218120588217
 31
0.0
  0
LINE
  5
1BCF
330
1E
100
AcDbEntity
  8
STEMPEL
100
AcDbLine
 10
108.0280711425729
 20
610.7218120588206
 30
0.0
 11
108.0280711425728
 21
604.221812058824
 31
0.0
  0
LINE
  5
1BD0
330
1E
100
AcDbEntity
  8
STEMPEL
100
AcDbLine
 10
102.572083995839
 20
610.7218120588206
 30
0.0
 11
102.572083995839
 21
604.2218120588229
 31
0.0
  0
LWPOLYLINE
  5
1BD1
330
1E
100
AcDbEntity
  8
STEMPEL
100
AcDbPolyline
 90
       10
 70
   128
 43
0.0
 10
-103.2127066159989
 20
598.2218120588225
 10
-104.0488858908404
 20
598.3129655407492
 10
-104.859658281543
 20
598.5836563341071
 10
-105.6203888792859
 20
599.0256596361158
 10
-106.3079632698046
 20
599.6255454001087
 10
-106.9014898531731
 20
600.3650864007035
 10
-107.3829346244943
 20
601.2218120588227
 10
-107.7376691280147
 20
602.1696911988686
 10
-107.9549149353488
 20
603.1799229928212
 10
-108.0280711425728
 20
604.2218120588229
210
0.0
220
0.0
230
-1.0
  0
LWPOLYLINE
  5
1BD2
330
1E
100
AcDbEntity
  8
STEMPEL
100
AcDbPolyline
 90
        7
 70
   128
 43
0.0
 10
-100.9157389819308
 20
599.2218120588229
 10
-101.5924408570081
 20
599.8314127866819
 10
-102.1919902806421
 20
600.5589718705936
 10
-102.6982789537917
 20
601.3849417322738
 10
-103.0977042458373
 20
602.2871307574769
 10
-103.3795346611003
 20
603.2412995256706
 10
-103.5361981656017
 20
604.2218120588229
210
0.0
220
0.0
230
-1.0
  0
LWPOLYLINE
  5
1BD3
330
1E
100
AcDbEntity
  8
STEMPEL
100
AcDbPolyline
 90
        7
 70
   128
 43
0.0
 10
103.0541410807202
 20
617.1838661146604
 10
103.1919700902905
 20
616.4317598777219
 10
103.3108343672566
 20
615.5090462670072
 10
103.4071823691579
 20
614.4432950171029
 10
103.478135316696
 20
613.2663496802818
 10
103.521573208704
 20
612.0133761738799
 10
103.5361981656016
 20
610.7218120588206
  0
LINE
  5
1BD4
330
1E
100
AcDbEntity
  8
STEMPEL
100
AcDbLine
 10
93.36239675480388
 20
599.221812058823
 30
0.0
 11
93.36239675480388
 21
598.2218120588226
 31
0.0
  0
LINE
  5
1BD5
330
1E
100
AcDbEntity
  8
STEMPEL
100
AcDbLine
 10
85.36239675480388
 20
599.2218120588225
 30
0.0
 11
85.36239675480388
 21
598.2218120588226
 31
0.0
  0
LINE
  5
1BD6
330
1E
100
AcDbEntity
  8
STEMPEL
100
AcDbLine
 10
81.362396754804
 20
599.2218120588228
 30
0.0
 11
81.36239675480387
 21
598.2218120588226
 31
0.0
  0
LINE
  5
1BD7
330
1E
100
AcDbEntity
  8
STEMPEL
100
AcDbLine
 10
101.3623967548041
 20
623.2218120588223
 30
0.0
 11
102.3623967548041
 21
623.2218120588223
 31
0.0
  0
LINE
  5
1BD8
330
1E
100
AcDbEntity
  8
STEMPEL
100
AcDbLine
 10
101.3623967548042
 20
663.2218120588223
 30
0.0
 11
102.3623967548042
 21
663.2218120588223
 31
0.0
  0
ARC
  5
1BD9
330
1E
100
AcDbEntity
  8
STEMPEL
100
AcDbCircle
 10
107.3623967548045
 20
668.2217540915066
 30
0.0
 40
5.000000000000511
100
AcDbArc
 50
120.2564164748189
 51
179.9999999999935
  0
ARC
  5
1BDA
330
1E
100
AcDbEntity
  8
STEMPEL
100
AcDbCircle
 10
107.3623967548044
 20
668.2217540915066
 30
0.0
 40
6.000000000000454
100
AcDbArc
 50
120.2564164748189
 51
179.9999999999935
  0
ARC
  5
1BDB
330
1E
100
AcDbEntity
  8
STEMPEL
100
AcDbCircle
 10
101.8512531504924
 20
677.7416490412843
 30
0.0
 40
5.0
100
AcDbArc
 50
300.0670458384858
 51
300.2564371635302
  0
HATCH
  5
1BDC
330
1E
100
AcDbEntity
  8
SCHRAFF
100
AcDbHatch
 10
0.0
 20
0.0
 30
0.0
210
0.0
220
0.0
230
1.0
  2
_USER
 70
     0
 71
     0
 91
        4
 92
        7
 72
     0
 73
     1
 93
        9
 10
92.36239675480389
 20
587.8353120588224
 10
92.36239675480394
 20
585.2218120588214
 10
91.36239675480391
 20
585.2218120588214
 10
91.36239675480391
 20
584.2218120588216
 10
89.36239675480392
 20
583.6859136739593
 10
89.36239675480388
 20
583.2218120588216
 10
94.36239675480392
 20
583.2218120588216
 10
94.36239675480393
 20
598.2218120588221
 10
92.36239675480394
 20
598.221812058822
 97
        0
 92
       23
 72
     0
 73
     1
 93
        5
 10
91.362396754804
 20
585.2218120588214
 10
92.36239675480391
 20
585.2218120588214
 10
92.36239675480391
 20
587.8353120588224
 10
91.74889675480395
 20
587.2218120588224
 10
91.362396754804
 20
587.2218120588224
 97
        0
 92
       22
 72
     0
 73
     1
 93
        5
 10
86.36239675480391
 20
585.2218120588217
 10
87.36239675480391
 20
585.2218120588217
 10
87.36239675480394
 20
587.2218120588224
 10
86.97589675480378
 20
587.2218120588224
 10
86.36239675480387
 20
587.8353120588222
 97
        0
 92
        7
 72
     0
 73
     1
 93
        9
 10
86.36239675480391
 20
587.8353120588224
 10
86.36239675480387
 20
598.2218120588222
 10
84.36239675480393
 20
598.2218120588222
 10
84.36239675480388
 20
583.2218120588217
 10
89.36239675480392
 20
583.2218120588219
 10
89.36239675480393
 20
583.6859136739593
 10
87.36239675480391
 20
584.2218120588218
 10
87.36239675480391
 20
585.2218120588215
 10
86.36239675480391
 20
585.2218120588217
 97
        0
 75
     0
 76
     0
 52
45.0
 41
1.0
 77
     0
 78
     1
 53
45.0
 43
-60.88997557614039
 44
-7.934392859504328
 45
-0.7071067811865475
 46
0.7071067811865476
 79
     0
 47
0.0321819604051909
 98
        4
 10
93.3267079994871
 20
592.9271927743928
 10
91.71702384263154
 20
585.6540694329427
 10
86.85578000079294
 20
586.6517100462018
 10
86.14751875671936
 20
586.4908003329673
  0
ARC
  5
1BDD
330
1E
100
AcDbEntity
  8
HILF
100
AcDbCircle
 10
89.36239675480392
 20
585.9805200315961
 30
0.0
 40
14.94074366520046
100
AcDbArc
 50
78.85962783889434
 51
101.1403721611056
  0
ARC
  5
1BDE
330
1E
100
AcDbEntity
  8
HILF
100
AcDbCircle
 10
85.03226973588169
 20
597.0805032970059
 30
0.0
 40
3.840760399790701
100
AcDbArc
 50
67.92594526324302
 51
112.0740547367569
  0
ARC
  5
1BDF
330
1E
100
AcDbEntity
  8
HILF
100
AcDbCircle
 10
93.69252377372609
 20
597.0793387351177
 30
0.0
 40
3.841839622940954
100
AcDbArc
 50
67.9324721810082
 51
112.0675278189918
  0
ARC
  5
1BE0
330
1E
100
AcDbEntity
  8
STEMPEL
100
AcDbCircle
 10
89.36239675480392
 20
585.6145526371855
 30
0.0
 40
20.20725942163691
100
AcDbArc
 50
81.78678929826174
 51
98.21321070173826
  0
ARC
  5
1BE1
330
1E
100
AcDbEntity
  8
STEMPEL
100
AcDbCircle
 10
85.03226973588169
 20
600.6922749202992
 30
0.0
 40
5.129537138523076
100
AcDbArc
 50
73.65710669401501
 51
106.342893305985
  0
LINE
  5
1BE2
330
1E
100
AcDbEntity
  8
STEMPEL
100
AcDbLine
 10
84.36239675480392
 20
605.8218120588223
 30
0.0
 11
83.58889406290762
 21
605.6145526371855
 31
0.0
  0
LINE
  5
1BE3
330
1E
100
AcDbEntity
  8
STEMPEL
100
AcDbLine
 10
94.36239675480392
 20
605.8218120588223
 30
0.0
 11
95.13589944670016
 21
605.6145526371855
 31
0.0
  0
ARC
  5
1BE4
330
1E
100
AcDbEntity
  8
STEMPEL
100
AcDbCircle
 10
93.69252377372609
 20
600.6922749202992
 30
0.0
 40
5.129537138523076
100
AcDbArc
 50
73.65710669401501
 51
106.342893305985
  0
POINT
  5
1BE5
330
1E
100
AcDbEntity
  8
0
100
AcDbPoint
 10
89.36239675480388
 20
587.2218120588224
 30
0.0
210
-0.0000000000000002
220
-1.0
230
0.0
  0
LINE
  5
1BE6
330
1E
100
AcDbEntity
  8
HILF
100
AcDbLine
 10
86.9758967548039
 20
596.2218120588223
 30
0.0
 11
86.36239675480391
 21
599.2218120588224
 31
0.0
  0
LINE
  5
1BE7
330
1E
100
AcDbEntity
  8
HILF
100
AcDbLine
 10
86.9758967548039
 20
596.2218120588223
 30
0.0
 11
86.9758967548039
 21
587.2218120588224
 31
0.0
  0
LINE
  5
1BE8
330
1E
100
AcDbEntity
  8
HILF
100
AcDbLine
 10
86.36239675480391
 20
596.2218120588223
 30
0.0
 11
92.36239675480389
 21
596.2218120588223
 31
0.0
  0
LINE
  5
1BE9
330
1E
100
AcDbEntity
  8
HILF
100
AcDbLine
 10
91.7488967548039
 20
596.2218120588223
 30
0.0
 11
92.36239675480391
 21
599.2218120588224
 31
0.0
  0
LINE
  5
1BEA
330
1E
100
AcDbEntity
  8
HILF
100
AcDbLine
 10
91.7488967548039
 20
596.2218120588223
 30
0.0
 11
91.7488967548039
 21
587.2218120588224
 31
0.0
  0
LINE
  5
1BEB
330
1E
100
AcDbEntity
  8
STEMPEL
100
AcDbLine
 10
96.100507833633
 20
600.2886430002546
 30
0.0
 11
82.62428567597476
 21
600.2886430002546
 31
0.0
  0
LINE
  5
1BEC
330
1E
100
AcDbEntity
  8
STEMPEL
100
AcDbLine
 10
95.91239675480389
 20
599.2218120588224
 30
0.0
 11
82.8123967548039
 21
599.2218120588224
 31
0.0
  0
LINE
  5
1BED
330
1E
100
AcDbEntity
  8
STEMPEL
100
AcDbLine
 10
83.58889406290762
 20
605.6145526371855
 30
0.0
 11
83.58889406290762
 21
600.6397317408217
 31
0.0
  0
LINE
  5
1BEE
330
1E
100
AcDbEntity
  8
STEMPEL
100
AcDbLine
 10
86.47564540885577
 20
605.6145526371855
 30
0.0
 11
86.47564540885577
 21
600.6397317408217
 31
0.0
  0
LINE
  5
1BEF
330
1E
100
AcDbEntity
  8
STEMPEL
100
AcDbLine
 10
92.24914810075203
 20
605.6145526371855
 30
0.0
 11
92.24914810075203
 21
600.6397317408217
 31
0.0
  0
LINE
  5
1BF0
330
1E
100
AcDbEntity
  8
STEMPEL
100
AcDbLine
 10
95.13589944670016
 20
605.6145526371855
 30
0.0
 11
95.13589944670014
 21
600.6397317408217
 31
0.0
  0
LINE
  5
1BF1
330
1E
100
AcDbEntity
  8
STEMPEL
100
AcDbLine
 10
94.36239675480392
 20
605.8218120588223
 30
0.0
 11
84.36239675480392
 21
605.8218120588223
 31
0.0
  0
LINE
  5
1BF2
330
1E
100
AcDbEntity
  8
STEMPEL
100
AcDbLine
 10
91.7488967548039
 20
587.2218120588224
 30
0.0
 11
86.9758967548039
 21
587.2218120588224
 31
0.0
  0
LINE
  5
1BF3
330
1E
100
AcDbEntity
  8
STEMPEL
100
AcDbLine
 10
92.36239675480391
 20
587.8353120588224
 30
0.0
 11
86.36239675480391
 21
587.8353120588224
 31
0.0
  0
LINE
  5
1BF4
330
1E
100
AcDbEntity
  8
STEMPEL
100
AcDbLine
 10
83.58889406290762
 20
600.6397317408217
 30
0.0
 11
82.62428567597476
 21
600.2886430002546
 31
0.0
  0
LINE
  5
1BF5
330
1E
100
AcDbEntity
  8
STEMPEL
100
AcDbLine
 10
96.100507833633
 20
600.2886430002546
 30
0.0
 11
95.13589944670014
 21
600.6397317408217
 31
0.0
  0
ARC
  5
1BF6
330
1E
100
AcDbEntity
  8
STEMPEL
100
AcDbCircle
 10
95.91239675480389
 20
599.7718120588223
 30
0.0
 40
0.5500000000000009
100
AcDbArc
 50
270.0
 51
69.99999999999935
  0
ARC
  5
1BF7
330
1E
100
AcDbEntity
  8
STEMPEL
100
AcDbCircle
 10
82.8123967548039
 20
599.7718120588223
 30
0.0
 40
0.5500000000000003
100
AcDbArc
 50
110.0000000000006
 51
270.0
  0
LINE
  5
1BF8
330
1E
100
AcDbEntity
  8
STEMPEL
100
AcDbLine
 10
86.36239675480391
 20
587.8353120588224
 30
0.0
 11
86.9758967548039
 21
587.2218120588224
 31
0.0
  0
LINE
  5
1BF9
330
1E
100
AcDbEntity
  8
STEMPEL
100
AcDbLine
 10
91.7488967548039
 20
587.2218120588224
 30
0.0
 11
92.36239675480389
 21
587.8353120588224
 31
0.0
  0
LINE
  5
1BFA
330
1E
100
AcDbEntity
  8
STEMPEL
100
AcDbLine
 10
86.36239675480391
 20
599.2218120588224
 30
0.0
 11
86.36239675480391
 21
587.8353120588224
 31
0.0
  0
LINE
  5
1BFB
330
1E
100
AcDbEntity
  8
STEMPEL
100
AcDbLine
 10
92.36239675480389
 20
587.8353120588224
 30
0.0
 11
92.36239675480391
 21
599.2218120588224
 31
0.0
  0
DIMENSION
  5
1BFC
330
1E
100
AcDbEntity
  8
BEM
100
AcDbDimension
  2
*D10
 10
55.70113675972852
 20
583.2218120588217
 30
0.0
 11
49.20113675972842
 21
590.7218120588217
 31
0.0
 70
    32
 71
     5
 42
14.99999999999988
  3
Standard
100
AcDbAlignedDimension
 13
81.36239675480387
 23
598.2218120588217
 33
0.0
 14
76.36239675480394
 24
583.2218120588217
 34
0.0
 50
90.0
100
AcDbRotatedDimension
1001
ACAD
1000
DSTYLE
1002
{
1070
    40
1040
2.0
1070
    41
1040
3.5
1070
    42
1040
1.0
1070
    43
1040
7.0
1070
    44
1040
1.0
1070
    73
1070
     0
1070
    74
1070
     0
1070
    77
1070
     1
1070
    78
1070
     8
1070
    79
1070
     2
1070
   140
1040
3.5
1070
   141
1040
1.5
1070
   146
1040
0.5142857142857144
1070
   147
1040
1.5
1070
   172
1070
     1
1070
   178
1070
     1
1070
   179
1070
     2
1070
   271
1070
     2
1070
   272
1070
     2
1070
   284
1070
     8
1070
   285
1070
     8
1070
   286
1070
     8
1002
}
  0
DIMENSION
  5
1BFD
330
1E
100
AcDbEntity
  8
BEM
100
AcDbDimension
  2
*D11
 10
321.3623967548043
 20
703.9607804747711
 30
0.0
 11
211.3623967548042
 21
710.4607804747711
 31
0.0
 70
    32
  1
%%c<>
 71
     5
 42
220.0000000000002
  3
Standard
100
AcDbAlignedDimension
 13
101.3623967548041
 23
668.2217540915061
 33
0.0
 14
321.3623967548043
 24
668.2217540915061
 34
0.0
100
AcDbRotatedDimension
1001
ACAD
1000
DSTYLE
1002
{
1070
    40
1040
2.0
1070
    41
1040
3.5
1070
    42
1040
1.0
1070
    43
1040
7.0
1070
    44
1040
1.0
1070
    73
1070
     0
1070
    74
1070
     0
1070
    77
1070
     1
1070
    78
1070
     8
1070
    79
1070
     2
1070
   140
1040
3.5
1070
   141
1040
1.5
1070
   146
1040
0.5142857142857144
1070
   147
1040
1.5
1070
   172
1070
     1
1070
   178
1070
     1
1070
   179
1070
     2
1070
   271
1070
     2
1070
   272
1070
     2
1070
   284
1070
     8
1070
   285
1070
     8
1070
   286
1070
     8
1002
}
  0
DIMENSION
  5
1BFE
330
1E
100
AcDbEntity
  8
BEM
100
AcDbDimension
  2
*D12
 10
55.70113675972854
 20
688.2218120588208
 30
0.0
 11
49.20113675972842
 21
643.2218120588213
 31
0.0
 70
    32
 71
     5
 42
89.9999999999992
  3
Standard
100
AcDbAlignedDimension
 13
81.3623967548041
 23
598.2218120588217
 33
0.0
 14
131.3623967548041
 24
688.2218120588208
 34
0.0
 50
90.0
100
AcDbRotatedDimension
1001
ACAD
1000
DSTYLE
1002
{
1070
    40
1040
2.0
1070
    41
1040
3.5
1070
    42
1040
1.0
1070
    43
1040
7.0
1070
    44
1040
1.0
1070
    73
1070
     0
1070
    74
1070
     0
1070
    77
1070
     1
1070
    78
1070
     8
1070
    79
1070
     2
1070
   140
1040
3.5
1070
   141
1040
1.5
1070
   146
1040
0.5142857142857144
1070
   147
1040
1.5
1070
   172
1070
     1
1070
   178
1070
     1
1070
   179
1070
     2
1070
   271
1070
     2
1070
   272
1070
     2
1070
   284
1070
     8
1070
   285
1070
     8
1070
   286
1070
     8
1002
}
  0
LINE
  5
1BFF
330
1E
100
AcDbEntity
  8
STEMPEL
100
AcDbLine
 10
346.3623967548038
 20
583.2218120588224
 30
0.0
 11
76.36239675480396
 21
583.2218120588219
 31
0.0
  0
LINE
  5
1C00
330
1E
100
AcDbEntity
  8
STEMPEL
100
AcDbLine
 10
94.36239675480392
 20
598.2218120588217
 30
0.0
 11
84.36239675480392
 21
598.2218120588217
 31
0.0
  0
LINE
  5
1C01
330
1E
100
AcDbEntity
  8
STEMPEL
100
AcDbLine
 10
84.36239675480392
 20
583.2218120588216
 30
0.0
 11
84.36239675480392
 21
598.2218120588217
 31
0.0
  0
LINE
  5
1C02
330
1E
100
AcDbEntity
  8
STEMPEL
100
AcDbLine
 10
94.36239675480392
 20
583.2218120588216
 30
0.0
 11
94.36239675480392
 21
598.2218120588217
 31
0.0
  0
LINE
  5
1C03
330
1E
100
AcDbEntity
  8
HILF
100
AcDbLine
 10
86.36239675480391
 20
585.2218120588217
 30
0.0
 11
86.36239675480391
 21
587.8353120588224
 31
0.0
  0
LINE
  5
1C04
330
1E
100
AcDbEntity
  8
HILF
100
AcDbLine
 10
92.36239675480391
 20
585.2218120588217
 30
0.0
 11
92.36239675480391
 21
587.8353120588224
 31
0.0
  0
LINE
  5
1C05
330
1E
100
AcDbEntity
  8
STEMPEL
100
AcDbLine
 10
92.36239675480391
 20
585.2218120588214
 30
0.0
 11
86.36239675480391
 21
585.2218120588217
 31
0.0
  0
LINE
  5
1C06
330
1E
100
AcDbEntity
  8
STEMPEL
100
AcDbLine
 10
91.36239675480391
 20
584.2218120588212
 30
0.0
 11
91.36239675480394
 21
587.2218120588224
 31
0.0
  0
LINE
  5
1C07
330
1E
100
AcDbEntity
  8
STEMPEL
100
AcDbLine
 10
87.36239675480391
 20
584.2218120588214
 30
0.0
 11
87.36239675480394
 21
587.2218120588224
 31
0.0
  0
LINE
  5
1C08
330
1E
100
AcDbEntity
  8
STEMPEL
100
AcDbLine
 10
91.36239675480391
 20
584.2218120588216
 30
0.0
 11
87.36239675480391
 21
584.2218120588216
 31
0.0
  0
LINE
  5
1C09
330
1E
100
AcDbEntity
  8
STEMPEL
100
AcDbLine
 10
87.36239675480391
 20
584.2218120588216
 30
0.0
 11
89.36239675480392
 21
583.6859136739593
 31
0.0
  0
LINE
  5
1C0A
330
1E
100
AcDbEntity
  8
STEMPEL
100
AcDbLine
 10
91.36239675480391
 20
584.2218120588216
 30
0.0
 11
89.36239675480392
 21
583.6859136739593
 31
0.0
  0
LINE
  5
1C0B
330
1E
100
AcDbEntity
  8
MITTEL
100
AcDbLine
 10
89.36239675480392
 20
576.7218120588219
 30
0.0
 11
89.36239675480393
 21
610.8218120588223
 31
0.0
  0
LINE
  5
1C0C
330
1E
100
AcDbEntity
  8
STEMPEL
100
AcDbLine
 10
277.3623967548039
 20
583.2218120588217
 30
0.0
 11
277.3623967548039
 21
598.2218120588218
 31
0.0
  0
LINE
  5
1C0D
330
1E
100
AcDbEntity
  8
STEMPEL
100
AcDbLine
 10
267.3623967548039
 20
583.2218120588217
 30
0.0
 11
267.3623967548039
 21
598.2218120588218
 31
0.0
  0
LINE
  5
1C0E
330
1E
100
AcDbEntity
  8
STEMPEL
100
AcDbLine
 10
277.3623967548039
 20
598.2218120588218
 30
0.0
 11
267.3623967548039
 21
598.2218120588218
 31
0.0
  0
LINE
  5
1C98
330
1E
100
AcDbEntity
  8
TEXT
 62
     2
100
AcDbLine
 10
359.3490997254321
 20
677.2422616760125
 30
0.0
 11
462.6225092613906
 21
677.2422616760125
 31
0.0
  0
TEXT
  5
1C99
330
1E
100
AcDbEntity
  8
TEXT
 62
     1
100
AcDbText
 10
359.6144768630561
 20
680.5781099568966
 30
0.0
 40
7.0
  1
Siebkorb
 41
0.8
  7
GREEKS
100
AcDbText
  0
TEXT
  5
1C9A
330
1E
100
AcDbEntity
  8
TEXT
 62
     1
100
AcDbText
 10
359.6144768630561
 20
667.3015844065306
 30
0.0
 40
7.0
  1
EDV-Art.Nr. 21007.000X
 41
0.8
  7
GREEKS
100
AcDbText
  0
TEXT
  5
1C9B
330
1E
100
AcDbEntity
  8
TEXT
 62
     1
100
AcDbText
 10
360.0058704785965
 20
601.2527817640069
 30
0.0
 40
7.0
  1
EDV-Art.Nr. 17014.100X
 41
0.8
  7
GREEKS
100
AcDbText
  0
TEXT
  5
1C9C
330
1E
100
AcDbEntity
  8
TEXT
 62
     1
100
AcDbText
 10
360.0058704785965
 20
614.5293073143728
 30
0.0
 40
7.0
  1
Losflansch DN100
 41
0.8
  7
GREEKS
100
AcDbText
  0
LINE
  5
1C9D
330
1E
100
AcDbEntity
  8
TEXT
 62
     2
100
AcDbLine
 10
359.7404933409726
 20
611.1934590334888
 30
0.0
 11
463.0139028769311
 21
611.1934590334888
 31
0.0
  0
LINE
  5
1C9E
330
1E
100
AcDbEntity
  8
STEMPEL
100
AcDbLine
 10
256.5935793233712
 20
570.721812058822
 30
0.0
 11
252.4917297047428
 21
570.721812058822
 31
0.0
  0
LINE
  5
1C9F
330
1E
100
AcDbEntity
  8
STEMPEL
100
AcDbLine
 10
216.5585491775105
 20
570.7218120588221
 30
0.0
 11
206.1662443320974
 21
570.7218120588221
 31
0.0
  0
LINE
  5
1CA0
330
1E
100
AcDbEntity
  8
STEMPEL
100
AcDbLine
 10
170.233063804865
 20
570.721812058822
 30
0.0
 11
166.1312141862367
 21
570.721812058822
 31
0.0
  0
LINE
  5
1CA1
330
1E
100
AcDbEntity
  8
STEMPEL
100
AcDbLine
 10
160.5623967548039
 20
570.7218120588221
 30
0.0
 11
157.5501212797625
 21
570.721812058822
 31
0.0
  0
ARC
  5
1CA3
330
1E
100
AcDbEntity
  8
STEMPEL
100
AcDbCircle
 10
177.3623967548036
 20
532.954812058822
 30
0.0
 40
22.99990931069965
100
AcDbArc
 50
180.0
 51
202.5238776793344
  0
LINE
  5
1CA4
330
1E
100
AcDbEntity
  8
STEMPEL
100
AcDbLine
 10
154.3623967548036
 20
551.1170605962509
 30
0.0
 11
154.3623967548036
 21
532.954812058822
 31
0.0
  0
LINE
  5
1CA5
330
1E
100
AcDbEntity
  8
STEMPEL
100
AcDbLine
 10
268.3623967548036
 20
551.1170605962509
 30
0.0
 11
268.3623967548036
 21
532.954812058822
 31
0.0
  0
ARC
  5
1CA6
330
1E
100
AcDbEntity
  8
STEMPEL
100
AcDbCircle
 10
245.3623967548036
 20
532.954812058822
 30
0.0
 40
22.99990931069965
100
AcDbArc
 50
343.9223671731586
 51
0.0
  0
HATCH
  5
1D40
330
1E
100
AcDbEntity
  8
SCHRAFF
100
AcDbHatch
 10
0.0
 20
0.0
 30
0.0
210
0.0
220
0.0
230
1.0
  2
_USER
 70
     0
 71
     0
 91
        1
 92
       33
 93
       10
 72
     4
 94
        3
 73
     0
 74
     0
 95
        8
 96
        4
 40
117.5323178378237
 40
117.5323178378237
 40
117.5323178378237
 40
117.5323178378237
 40
119.8681168935136
 40
119.8681168935136
 40
119.8681168935136
 40
119.8681168935136
 10
156.1169211883274
 20
524.1442731278215
 10
155.3624905969394
 20
524.2040324281584
 10
154.6087511249005
 20
524.3063359923164
 10
153.8555939327305
 20
524.4444838261772
 72
     1
 10
155.6556409168787
 20
563.7218120588218
 11
154.7047020788874
 21
561.6825171397681
 72
     1
 10
157.862396754804
 20
563.7218120588218
 11
155.6556409168787
 21
563.7218120588218
 72
     2
 10
177.3623967548039
 20
551.1170605962506
 40
23.0
 50
155.0000000000107
 51
180.0
 73
     1
 72
     2
 10
177.3623967548037
 20
551.1170605962506
 40
25.0
 50
155.0000000000109
 51
180.0
 73
     1
 72
     1
 10
157.862396754804
 20
563.7218120588218
 11
156.517317652961
 21
560.8372806162868
 72
     1
 10
152.3623967548037
 20
551.1170605962506
 11
152.3623967548037
 21
532.9548120588217
 72
     1
 10
154.3623967548037
 20
551.1170605962506
 11
154.3623967548037
 21
532.9548120588217
 72
     2
 10
177.3623967548037
 20
532.9548120588217
 40
24.99990931069965
 50
180.0
 51
199.9021213784158
 73
     1
 72
     2
 10
177.3623967548037
 20
532.9548120588217
 40
22.99990931069965
 50
180.0
 51
202.5238776793344
 73
     1
 97
        0
 75
     0
 76
     0
 52
135.0
 41
2.0
 77
     0
 78
     1
 53
135.0
 43
323.8292936468721
 44
-0.0000000000002274
 45
-1.414213562373095
 46
-1.414213562373094
 79
     0
 98
        1
 10
323.8292936468721
 20
-0.0000000000002274
  0
HATCH
  5
1D41
330
1E
100
AcDbEntity
  8
SCHRAFF
100
AcDbHatch
 10
0.0
 20
0.0
 30
0.0
210
0.0
220
0.0
230
1.0
  2
_USER
 70
     0
 71
     0
 91
        2
 92
       17
 93
        2
 72
     4
 94
        3
 73
     0
 74
     0
 95
        8
 96
        4
 40
2.845719147282152
 40
2.845719147282152
 40
2.845719147282152
 40
2.845719147282152
 40
4.831239537241575
 40
4.831239537241575
 40
4.831239537241575
 40
4.831239537241575
 10
269.4046105768897
 20
526.1015340054882
 10
268.7576270167566
 20
526.2711986058427
 10
268.1103888455891
 20
526.4340210019159
 10
267.4627184157089
 20
526.5852272383697
 72
     4
 94
        3
 73
     0
 74
     0
 95
        8
 96
        4
 40
2.845719147282152
 40
2.845719147282152
 40
2.845719147282152
 40
2.845719147282152
 40
4.831239537241575
 40
4.831239537241575
 40
4.831239537241575
 40
4.831239537241575
 10
267.4627184157089
 20
526.5852272383697
 10
268.1103888455891
 20
526.4340210019159
 10
268.7576270167566
 20
526.2711986058427
 10
269.4046105768897
 20
526.1015340054882
 97
        0
 92
       33
 93
        9
 72
     1
 10
264.8623967548037
 20
563.721812058822
 11
267.0691525927285
 21
563.721812058822
 72
     1
 10
264.8623967548039
 20
563.7218120588218
 11
266.2074758566467
 21
560.8372806162868
 72
     1
 10
267.0691525927287
 20
563.7218120588218
 11
268.02009143072
 21
561.6825171397681
 72
     2
 10
245.3623967548037
 20
551.1170605962506
 40
25.0
 50
0.0
 51
24.99999999999207
 73
     1
 72
     2
 10
245.3623967548038
 20
551.1170605962506
 40
23.0
 50
0.0
 51
24.99999999998912
 73
     1
 72
     1
 10
270.3623967548037
 20
551.1170605962506
 11
270.3623967548037
 21
532.9548120588217
 72
     1
 10
268.3623967548037
 20
551.1170605962506
 11
268.3623967548037
 21
532.9548120588217
 72
     2
 10
245.3623967548037
 20
532.9548120588217
 40
24.99990931069965
 50
344.0896993379192
 51
360.0
 73
     1
 72
     2
 10
245.3623967548037
 20
532.9548120588217
 40
22.99990931069965
 50
343.9223671731586
 51
360.0
 73
     1
 97
        0
 75
     0
 76
     0
 52
135.0
 41
2.0
 77
     0
 78
     1
 53
135.0
 43
323.8292936468721
 44
-0.0000000000002274
 45
-1.414213562373095
 46
-1.414213562373094
 79
     0
 98
        1
 10
323.8292936468721
 20
-0.0000000000002274
  0
LINE
  5
1D6D
330
1E
100
AcDbEntity
  8
STEMPEL
100
AcDbLine
 10
262.3623967548036
 20
421.7218120588224
 30
0.0
 11
261.6624874465962
 21
413.721812058822
 31
0.0
  0
LINE
  5
1D6E
330
1E
100
AcDbEntity
  8
HILF
100
AcDbLine
 10
162.3700364298902
 20
421.7218120588219
 30
0.0
 11
260.3547570797169
 21
421.7218120588219
 31
0.0
  0
LINE
  5
1D6F
330
1E
100
AcDbEntity
  8
STEMPEL
100
AcDbLine
 10
160.3623967548035
 20
421.7218120588219
 30
0.0
 11
161.0623060630109
 21
413.721812058822
 31
0.0
  0
TEXT
  5
1D78
330
1E
100
AcDbEntity
  8
TEXT
 62
     1
100
AcDbText
 10
361.860386337018
 20
535.5714330871899
 30
0.0
 40
7.0
  1
Verlängerungsrohr DN70
 41
0.8
  7
GREEKS
100
AcDbText
  0
TEXT
  5
1D79
330
1E
100
AcDbEntity
  8
TEXT
 62
     1
100
AcDbText
 10
361.860386337018
 20
522.1640765597267
 30
0.0
 40
7.0
  1
EDV-Art.Nr. 16587.070X
 41
0.8
  7
GREEKS
100
AcDbText
  0
LINE
  5
1D7A
330
1E
100
AcDbEntity
  8
TEXT
 62
     2
100
AcDbLine
 10
359.7404933409726
 20
532.1915276702934
 30
0.0
 11
467.8512027822125
 21
532.1915276702934
 31
0.0
  0
ENDSEC
  0
SECTION
  2
OBJECTS
  0
DICTIONARY
  5
C
330
0
100
AcDbDictionary
281
     1
  3
ACAD_COLOR
350
11A
  3
ACAD_GROUP
350
D
  3
ACAD_LAYOUT
350
19
  3
ACAD_MATERIAL
350
119
  3
ACAD_MLINESTYLE
350
16
  3
ACAD_PLOTSETTINGS
350
18
  3
ACAD_PLOTSTYLENAME
350
E
  3
AcDbVariableDictionary
350
125
  0
DICTIONARY
  5
DB
330
1E
100
AcDbDictionary
280
     1
281
     1
  3
ACAD_LAYOUTSELFREF
360
10F
  0
DICTIONARY
  5
DD
330
1A
100
AcDbDictionary
280
     1
281
     1
  3
ACAD_LAYOUTSELFREF
360
10E
  0
DICTIONARY
  5
11A
102
{ACAD_REACTORS
330
C
102
}
330
C
100
AcDbDictionary
281
     1
  0
DICTIONARY
  5
D
102
{ACAD_REACTORS
330
C
102
}
330
C
100
AcDbDictionary
281
     1
  0
DICTIONARY
  5
19
102
{ACAD_REACTORS
330
C
102
}
330
C
100
AcDbDictionary
281
     1
  3
Layout1
350
1D
  3
Model
350
21
  0
DICTIONARY
  5
119
102
{ACAD_REACTORS
330
C
102
}
330
C
100
AcDbDictionary
281
     1
  0
DICTIONARY
  5
16
102
{ACAD_REACTORS
330
C
102
}
330
C
100
AcDbDictionary
281
     1
  3
Standard
350
17
  0
DICTIONARY
  5
18
102
{ACAD_REACTORS
330
C
102
}
330
C
100
AcDbDictionary
281
     1
  0
ACDBDICTIONARYWDFLT
  5
E
102
{ACAD_REACTORS
330
C
102
}
330
C
100
AcDbDictionary
281
     1
  3
Normal
350
F
100
AcDbDictionaryWithDefault
340
F
  0
DICTIONARY
  5
125
102
{ACAD_REACTORS
330
C
102
}
330
C
100
AcDbDictionary
281
     1
  3
DIMASSOC
350
126
  3
PROJECTNAME
350
127
  0
XRECORD
  5
10F
102
{ACAD_REACTORS
330
DB
102
}
330
DB
100
AcDbXrecord
280
     1
340
1E
  0
XRECORD
  5
10E
102
{ACAD_REACTORS
330
DD
102
}
330
DD
100
AcDbXrecord
280
     1
340
1A
  0
LAYOUT
  5
1D
102
{ACAD_REACTORS
330
19
102
}
330
19
100
AcDbPlotSettings
  1

  2
\\NT_WORK01\HP LaserJet 5000 PCL 6
  4

  6

 40
0.0
 41
0.0
 42
0.0
 43
0.0
 44
0.0
 45
0.0
 46
0.0
 47
0.0
 48
0.0
 49
0.0
140
0.0
141
0.0
142
1.0
143
1.0
 70
   688
 72
     0
 73
     0
 74
     5
  7

 75
    16
147
1.0
 76
     0
 77
     2
 78
   300
148
0.0
149
0.0
100
AcDbLayout
  1
Layout1
 70
     0
 71
     1
 10
0.0
 20
0.0
 11
12.0
 21
9.0
 12
0.0
 22
0.0
 32
0.0
 14
1.000000000000000E+20
 24
1.000000000000000E+20
 34
1.000000000000000E+20
 15
-1.000000000000000E+20
 25
-1.000000000000000E+20
 35
-1.000000000000000E+20
146
0.0
 13
0.0
 23
0.0
 33
0.0
 16
1.0
 26
0.0
 36
0.0
 17
0.0
 27
1.0
 37
0.0
 76
     0
330
1A
  0
LAYOUT
  5
21
102
{ACAD_REACTORS
330
19
102
}
330
19
100
AcDbPlotSettings
  1

  2
none_device
  4
Letter_(8.50_x_11.00_Inches)
  6

 40
6.349999904632568
 41
6.349999904632568
 42
6.350006103515625
 43
6.350006103515625
 44
215.8999938964844
 45
279.3999938964844
 46
0.0
 47
0.0
 48
0.0
 49
0.0
140
0.0
141
0.0
142
1.0
143
1.0
 70
 11952
 72
     0
 73
     1
 74
     0
  7

 75
     0
147
1.0
 76
     0
 77
     2
 78
   300
148
3124.2
149
0.0
100
AcDbLayout
  1
Model
 70
     1
 71
     0
 10
0.0
 20
0.0
 11
12.0
 21
9.0
 12
0.0
 22
0.0
 32
0.0
 14
0.0
 24
0.0
 34
0.0
 15
0.0
 25
0.0
 35
0.0
146
0.0
 13
0.0
 23
0.0
 33
0.0
 16
1.0
 26
0.0
 36
0.0
 17
0.0
 27
1.0
 37
0.0
 76
     0
330
1E
  0
MLINESTYLE
  5
17
102
{ACAD_REACTORS
330
16
102
}
330
16
100
AcDbMlineStyle
  2
STANDARD
 70
     0
  3

 62
   256
 51
90.0
 52
90.0
 71
     2
 49
0.5
 62
   256
  6
BYLAYER
 49
-0.5
 62
   256
  6
BYLAYER
  0
ACDBPLACEHOLDER
  5
F
102
{ACAD_REACTORS
330
E
102
}
330
E
  0
DICTIONARYVAR
  5
126
102
{ACAD_REACTORS
330
125
102
}
330
125
100
DictionaryVariables
280
     0
  1
1
  0
DICTIONARYVAR
  5
127
102
{ACAD_REACTORS
330
125
102
}
330
125
100
DictionaryVariables
280
     0
  1

  0
ENDSEC
  0
EOF
