  0
SECTION
  2
HEADER
  9
$ACADVER
  1
AC1018
  9
$ACADMAINTVER
 70
     2
  9
$DWGCODEPAGE
  3
ANSI_1252
  9
$INSBASE
 10
0.0
 20
0.0
 30
0.0
  9
$EXTMIN
 10
-0.0362532231533805
 20
-0.0512671842573127
 30
-0.0000000349181948
  9
$EXTMAX
 10
594.0362587553784
 20
840.051275007606
 30
0.0000000814935746
  9
$LIMMIN
 10
0.0
 20
0.0
  9
$LIMMAX
 10
594.0
 20
840.0
  9
$ORTHOMODE
 70
     1
  9
$REGENMODE
 70
     1
  9
$FILLMODE
 70
     1
  9
$QTEXTMODE
 70
     0
  9
$MIRRTEXT
 70
     1
  9
$LTSCALE
 40
20.0
  9
$ATTMODE
 70
     1
  9
$TEXTSIZE
 40
3.5
  9
$TRACEWID
 40
1.0
  9
$TEXTSTYLE
  7
STANDARD
  9
$CLAYER
  8
BEM
  9
$CELTYPE
  6
ByLayer
  9
$CECOLOR
 62
   256
  9
$CELTSCALE
 40
1.0
  9
$DISPSILH
 70
     0
  9
$DIMSCALE
 40
2.0
  9
$DIMASZ
 40
3.5
  9
$DIMEXO
 40
1.0
  9
$DIMDLI
 40
7.0
  9
$DIMRND
 40
0.0
  9
$DIMDLE
 40
0.0
  9
$DIMEXE
 40
1.0
  9
$DIMTP
 40
0.0
  9
$DIMTM
 40
0.0
  9
$DIMTXT
 40
3.5
  9
$DIMCEN
 40
1.5
  9
$DIMTSZ
 40
0.0
  9
$DIMTOL
 70
     0
  9
$DIMLIM
 70
     0
  9
$DIMTIH
 70
     0
  9
$DIMTOH
 70
     0
  9
$DIMSE1
 70
     0
  9
$DIMSE2
 70
     0
  9
$DIMTAD
 70
     1
  9
$DIMZIN
 70
     8
  9
$DIMBLK
  1

  9
$DIMASO
 70
     1
  9
$DIMSHO
 70
     0
  9
$DIMPOST
  1

  9
$DIMAPOST
  1

  9
$DIMALT
 70
     0
  9
$DIMALTD
 70
     2
  9
$DIMALTF
 40
25.4
  9
$DIMLFAC
 40
1.0
  9
$DIMTOFL
 70
     1
  9
$DIMTVP
 40
0.0
  9
$DIMTIX
 70
     0
  9
$DIMSOXD
 70
     0
  9
$DIMSAH
 70
     0
  9
$DIMBLK1
  1

  9
$DIMBLK2
  1

  9
$DIMSTYLE
  2
Standard
  9
$DIMCLRD
 70
     0
  9
$DIMCLRE
 70
     0
  9
$DIMCLRT
 70
     1
  9
$DIMTFAC
 40
0.5142857142857144
  9
$DIMGAP
 40
1.5
  9
$DIMJUST
 70
     0
  9
$DIMSD1
 70
     0
  9
$DIMSD2
 70
     0
  9
$DIMTOLJ
 70
     1
  9
$DIMTZIN
 70
     8
  9
$DIMALTZ
 70
     8
  9
$DIMALTTZ
 70
     8
  9
$DIMUPT
 70
     0
  9
$DIMDEC
 70
     2
  9
$DIMTDEC
 70
     2
  9
$DIMALTU
 70
     2
  9
$DIMALTTD
 70
     2
  9
$DIMTXSTY
  7
STANDARD
  9
$DIMAUNIT
 70
     0
  9
$DIMADEC
 70
     2
  9
$DIMALTRND
 40
0.0
  9
$DIMAZIN
 70
     2
  9
$DIMDSEP
 70
    46
  9
$DIMATFIT
 70
     3
  9
$DIMFRAC
 70
     0
  9
$DIMLDRBLK
  1

  9
$DIMLUNIT
 70
     2
  9
$DIMLWD
 70
    -2
  9
$DIMLWE
 70
    -2
  9
$DIMTMOVE
 70
     0
  9
$LUNITS
 70
     2
  9
$LUPREC
 70
     2
  9
$SKETCHINC
 40
1.0
  9
$FILLETRAD
 40
0.0
  9
$AUNITS
 70
     0
  9
$AUPREC
 70
     0
  9
$MENU
  1
ACAD
  9
$ELEVATION
 40
0.0
  9
$PELEVATION
 40
0.0
  9
$THICKNESS
 40
0.0
  9
$LIMCHECK
 70
     0
  9
$CHAMFERA
 40
0.0
  9
$CHAMFERB
 40
0.0
  9
$CHAMFERC
 40
0.0
  9
$CHAMFERD
 40
0.0
  9
$SKPOLY
 70
     0
  9
$TDCREATE
 40
2455397.867059838
  9
$TDUCREATE
 40
2455397.783726505
  9
$TDUPDATE
 40
2456157.307639768
  9
$TDUUPDATE
 40
2456157.224306436
  9
$TDINDWG
 40
0.1462723611
  9
$TDUSRTIMER
 40
0.1462723611
  9
$USRTIMER
 70
     1
  9
$ANGBASE
 50
0.0
  9
$ANGDIR
 70
     0
  9
$PDMODE
 70
     0
  9
$PDSIZE
 40
0.0
  9
$PLINEWID
 40
0.0
  9
$SPLFRAME
 70
     0
  9
$SPLINETYPE
 70
     6
  9
$SPLINESEGS
 70
     8
  9
$HANDSEED
  5
D68
  9
$SURFTAB1
 70
     6
  9
$SURFTAB2
 70
     6
  9
$SURFTYPE
 70
     6
  9
$SURFU
 70
     6
  9
$SURFV
 70
     6
  9
$UCSBASE
  2

  9
$UCSNAME
  2

  9
$UCSORG
 10
0.0
 20
0.0
 30
0.0
  9
$UCSXDIR
 10
1.0
 20
0.0
 30
0.0
  9
$UCSYDIR
 10
0.0
 20
1.0
 30
0.0
  9
$UCSORTHOREF
  2

  9
$UCSORTHOVIEW
 70
     0
  9
$UCSORGTOP
 10
0.0
 20
0.0
 30
0.0
  9
$UCSORGBOTTOM
 10
0.0
 20
0.0
 30
0.0
  9
$UCSORGLEFT
 10
0.0
 20
0.0
 30
0.0
  9
$UCSORGRIGHT
 10
0.0
 20
0.0
 30
0.0
  9
$UCSORGFRONT
 10
0.0
 20
0.0
 30
0.0
  9
$UCSORGBACK
 10
0.0
 20
0.0
 30
0.0
  9
$PUCSBASE
  2

  9
$PUCSNAME
  2

  9
$PUCSORG
 10
0.0
 20
0.0
 30
0.0
  9
$PUCSXDIR
 10
1.0
 20
0.0
 30
0.0
  9
$PUCSYDIR
 10
0.0
 20
1.0
 30
0.0
  9
$PUCSORTHOREF
  2

  9
$PUCSORTHOVIEW
 70
     0
  9
$PUCSORGTOP
 10
0.0
 20
0.0
 30
0.0
  9
$PUCSORGBOTTOM
 10
0.0
 20
0.0
 30
0.0
  9
$PUCSORGLEFT
 10
0.0
 20
0.0
 30
0.0
  9
$PUCSORGRIGHT
 10
0.0
 20
0.0
 30
0.0
  9
$PUCSORGFRONT
 10
0.0
 20
0.0
 30
0.0
  9
$PUCSORGBACK
 10
0.0
 20
0.0
 30
0.0
  9
$USERI1
 70
     0
  9
$USERI2
 70
     0
  9
$USERI3
 70
     0
  9
$USERI4
 70
     0
  9
$USERI5
 70
     0
  9
$USERR1
 40
0.0
  9
$USERR2
 40
0.0
  9
$USERR3
 40
0.0
  9
$USERR4
 40
0.0
  9
$USERR5
 40
0.0
  9
$WORLDVIEW
 70
     1
  9
$SHADEDGE
 70
     3
  9
$SHADEDIF
 70
    70
  9
$TILEMODE
 70
     1
  9
$MAXACTVP
 70
    16
  9
$PINSBASE
 10
0.0
 20
0.0
 30
0.0
  9
$PLIMCHECK
 70
     0
  9
$PEXTMIN
 10
1.000000000000000E+20
 20
1.000000000000000E+20
 30
1.000000000000000E+20
  9
$PEXTMAX
 10
-1.000000000000000E+20
 20
-1.000000000000000E+20
 30
-1.000000000000000E+20
  9
$PLIMMIN
 10
0.0
 20
0.0
  9
$PLIMMAX
 10
12.0
 20
9.0
  9
$UNITMODE
 70
     0
  9
$VISRETAIN
 70
     0
  9
$PLINEGEN
 70
     0
  9
$PSLTSCALE
 70
     0
  9
$TREEDEPTH
 70
  3020
  9
$CMLSTYLE
  2
Standard
  9
$CMLJUST
 70
     0
  9
$CMLSCALE
 40
1.0
  9
$PROXYGRAPHICS
 70
     1
  9
$MEASUREMENT
 70
     0
  9
$CELWEIGHT
370
    -1
  9
$ENDCAPS
280
     0
  9
$JOINSTYLE
280
     0
  9
$LWDISPLAY
290
     0
  9
$INSUNITS
 70
     0
  9
$HYPERLINKBASE
  1

  9
$STYLESHEET
  1
monochrome 1.ctb
  9
$XEDIT
290
     1
  9
$CEPSNTYPE
380
     0
  9
$PSTYLEMODE
290
     1
  9
$FINGERPRINTGUID
  2
{D68B0D0D-A558-11D7-B632-000102183313}
  9
$VERSIONGUID
  2
{C5F00065-AF0B-4430-8E8B-BEBE756FC1FD}
  9
$EXTNAMES
290
     1
  9
$PSVPSCALE
 40
0.0
  9
$OLESTARTUP
290
     0
  9
$SORTENTS
280
   127
  9
$INDEXCTL
280
     0
  9
$HIDETEXT
280
     0
  9
$XCLIPFRAME
290
     0
  9
$HALOGAP
280
     0
  9
$OBSCOLOR
 70
   257
  9
$OBSLTYPE
280
     0
  9
$INTERSECTIONDISPLAY
280
     0
  9
$INTERSECTIONCOLOR
 70
   257
  9
$DIMASSOC
280
     1
  9
$PROJECTNAME
  1

  0
ENDSEC
  0
SECTION
  2
CLASSES
  0
CLASS
  1
ACDBDICTIONARYWDFLT
  2
AcDbDictionaryWithDefault
  3
ObjectDBX Classes
 90
        0
 91
        1
280
     0
281
     0
  0
CLASS
  1
DICTIONARYVAR
  2
AcDbDictionaryVar
  3
ObjectDBX Classes
 90
        0
 91
        2
280
     0
281
     0
  0
ENDSEC
  0
SECTION
  2
TABLES
  0
TABLE
  2
VPORT
  5
8
330
0
100
AcDbSymbolTable
 70
     3
  0
VPORT
  5
D67
330
8
100
AcDbSymbolTableRecord
100
AcDbViewportTableRecord
  2
*Active
 70
     0
 10
0.0
 20
0.0
 11
1.0
 21
1.0
 12
297.0
 22
420.0
 13
0.0
 23
0.0
 14
1.0
 24
1.0
 15
10.0
 25
10.0
 16
0.0
 26
0.0
 36
1.0
 17
0.0
 27
0.0
 37
0.0
 40
840.2142963082081
 41
1.404858299595141
 42
50.0
 43
0.0
 44
0.0
 50
0.0
 51
0.0
 71
     0
 72
  1500
 73
     1
 74
     0
 75
     0
 76
     0
 77
     0
 78
     0
281
     0
 65
     1
110
0.0
120
0.0
130
0.0
111
1.0
121
0.0
131
0.0
112
0.0
122
1.0
132
0.0
 79
     0
146
0.0
  0
ENDTAB
  0
TABLE
  2
LTYPE
  5
5
330
0
100
AcDbSymbolTable
 70
     2
  0
LTYPE
  5
13
330
5
100
AcDbSymbolTableRecord
100
AcDbLinetypeTableRecord
  2
ByBlock
 70
     0
  3

 72
    65
 73
     0
 40
0.0
  0
LTYPE
  5
14
330
5
100
AcDbSymbolTableRecord
100
AcDbLinetypeTableRecord
  2
ByLayer
 70
     0
  3

 72
    65
 73
     0
 40
0.0
  0
LTYPE
  5
15
330
5
100
AcDbSymbolTableRecord
100
AcDbLinetypeTableRecord
  2
Continuous
 70
     0
  3
Solid line
 72
    65
 73
     0
 40
0.0
  0
LTYPE
  5
25
330
5
100
AcDbSymbolTableRecord
100
AcDbLinetypeTableRecord
  2
STRICHPUNKT
 70
     0
  3
__ . __ . __ . __ . __ . __ . __ . __ . __ . __
 72
    65
 73
     4
 40
1.0
 49
0.5
 74
     0
 49
-0.25
 74
     0
 49
0.0
 74
     0
 49
-0.25
 74
     0
  0
ENDTAB
  0
TABLE
  2
LAYER
  5
2
330
0
100
AcDbSymbolTable
 70
     9
  0
LAYER
  5
10
330
2
100
AcDbSymbolTableRecord
100
AcDbLayerTableRecord
  2
0
 70
     0
 62
     7
  6
Continuous
370
    -3
390
F
  0
LAYER
  5
2B
330
2
100
AcDbSymbolTableRecord
100
AcDbLayerTableRecord
  2
VOLL
 70
     0
 62
     1
  6
Continuous
370
    -3
390
F
  0
LAYER
  5
2C
330
2
100
AcDbSymbolTableRecord
100
AcDbLayerTableRecord
  2
HILF
 70
     0
 62
     2
  6
Continuous
370
    -3
390
F
  0
LAYER
  5
2D
330
2
100
AcDbSymbolTableRecord
100
AcDbLayerTableRecord
  2
MITTEL
 70
     0
 62
     2
  6
STRICHPUNKT
370
    -3
390
F
  0
LAYER
  5
2F
330
2
100
AcDbSymbolTableRecord
100
AcDbLayerTableRecord
  2
BEM
 70
     0
 62
     7
  6
Continuous
370
    -3
390
F
  0
LAYER
  5
30
330
2
100
AcDbSymbolTableRecord
100
AcDbLayerTableRecord
  2
STEMPEL
 70
     0
 62
     3
  6
Continuous
370
    -3
390
F
  0
LAYER
  5
33
330
2
100
AcDbSymbolTableRecord
100
AcDbLayerTableRecord
  2
TEXT
 70
     0
 62
     7
  6
Continuous
370
    -3
390
F
  0
LAYER
  5
1AE
330
2
100
AcDbSymbolTableRecord
100
AcDbLayerTableRecord
  2
SCHRAFF
 70
     0
 62
     7
  6
Continuous
370
    -3
390
F
  0
LAYER
  5
7AB
330
2
100
AcDbSymbolTableRecord
100
AcDbLayerTableRecord
  2
DEFPOINTS
 70
     0
 62
     7
  6
Continuous
290
     0
370
    -3
390
F
  0
ENDTAB
  0
TABLE
  2
STYLE
  5
3
330
0
100
AcDbSymbolTable
 70
     2
  0
STYLE
  5
11
330
3
100
AcDbSymbolTableRecord
100
AcDbTextStyleTableRecord
  2
STANDARD
 70
     0
 40
0.0
 41
0.8
 50
0.0
 71
     0
 42
3.5
  3
simplex.shx
  4

  0
STYLE
  5
24
330
3
100
AcDbSymbolTableRecord
100
AcDbTextStyleTableRecord
  2
GREEKS
 70
     0
 40
0.0
 41
0.8
 50
0.0
 71
     0
 42
2.5
  3
SIMPLEX.shx
  4

  0
ENDTAB
  0
TABLE
  2
VIEW
  5
6
330
0
100
AcDbSymbolTable
 70
     0
  0
ENDTAB
  0
TABLE
  2
UCS
  5
7
330
0
100
AcDbSymbolTable
 70
     0
  0
ENDTAB
  0
TABLE
  2
APPID
  5
9
330
0
100
AcDbSymbolTable
 70
     1
  0
APPID
  5
12
330
9
100
AcDbSymbolTableRecord
100
AcDbRegAppTableRecord
  2
ACAD
 70
     0
  0
ENDTAB
  0
TABLE
  2
DIMSTYLE
  5
A
330
0
100
AcDbSymbolTable
 70
     1
100
AcDbDimStyleTable
 71
     1
340
A2
  0
DIMSTYLE
105
A2
102
{ACAD_REACTORS
330
8E8
330
8F5
330
902
330
940
330
94D
330
95A
330
967
330
B60
330
B61
330
B62
330
B63
102
}
330
A
100
AcDbSymbolTableRecord
100
AcDbDimStyleTableRecord
  2
Standard
 70
     0
340
11
  0
ENDTAB
  0
TABLE
  2
BLOCK_RECORD
  5
1
330
0
100
AcDbSymbolTable
 70
    13
  0
BLOCK_RECORD
  5
1E
102
{ACAD_XDICTIONARY
360
DB
102
}
330
1
100
AcDbSymbolTableRecord
100
AcDbBlockTableRecord
  2
*Model_Space
340
21
  0
BLOCK_RECORD
  5
1A
102
{ACAD_XDICTIONARY
360
DD
102
}
330
1
100
AcDbSymbolTableRecord
100
AcDbBlockTableRecord
  2
*Paper_Space
340
1D
  0
BLOCK_RECORD
  5
22
330
1
100
AcDbSymbolTableRecord
100
AcDbBlockTableRecord
  2
LOGO
340
0
102
{BLKREFS
331
56
102
}
  0
BLOCK_RECORD
  5
23
330
1
100
AcDbSymbolTableRecord
100
AcDbBlockTableRecord
  2
LORO
340
0
102
{BLKREFS
331
9B
102
}
  0
BLOCK_RECORD
  5
8E9
330
1
100
AcDbSymbolTableRecord
100
AcDbBlockTableRecord
  2
*D2
340
0
  0
BLOCK_RECORD
  5
8F6
330
1
100
AcDbSymbolTableRecord
100
AcDbBlockTableRecord
  2
*D3
340
0
  0
BLOCK_RECORD
  5
903
330
1
100
AcDbSymbolTableRecord
100
AcDbBlockTableRecord
  2
*D4
340
0
  0
BLOCK_RECORD
  5
941
330
1
100
AcDbSymbolTableRecord
100
AcDbBlockTableRecord
  2
*D5
340
0
  0
BLOCK_RECORD
  5
94E
330
1
100
AcDbSymbolTableRecord
100
AcDbBlockTableRecord
  2
*D6
340
0
  0
BLOCK_RECORD
  5
95B
330
1
100
AcDbSymbolTableRecord
100
AcDbBlockTableRecord
  2
*D7
340
0
  0
BLOCK_RECORD
  5
968
330
1
100
AcDbSymbolTableRecord
100
AcDbBlockTableRecord
  2
*D8
340
0
  0
BLOCK_RECORD
  5
CB3
330
1
100
AcDbSymbolTableRecord
100
AcDbBlockTableRecord
  2
*D9
340
0
  0
BLOCK_RECORD
  5
CBF
330
1
100
AcDbSymbolTableRecord
100
AcDbBlockTableRecord
  2
*D10
340
0
  0
BLOCK_RECORD
  5
CCB
330
1
100
AcDbSymbolTableRecord
100
AcDbBlockTableRecord
  2
*D11
340
0
  0
BLOCK_RECORD
  5
CD7
330
1
100
AcDbSymbolTableRecord
100
AcDbBlockTableRecord
  2
*D12
340
0
  0
ENDTAB
  0
ENDSEC
  0
SECTION
  2
BLOCKS
  0
BLOCK
  5
37
330
1E
100
AcDbEntity
  8
0
100
AcDbBlockBegin
  2
*Model_Space
 70
     0
 10
0.0
 20
0.0
 30
0.0
  3
*Model_Space
  1

  0
ENDBLK
  5
38
330
1E
100
AcDbEntity
  8
0
100
AcDbBlockEnd
  0
BLOCK
  5
35
330
1A
100
AcDbEntity
 67
     1
  8
0
100
AcDbBlockBegin
  2
*Paper_Space
 70
     0
 10
0.0
 20
0.0
 30
0.0
  3
*Paper_Space
  1

  0
ENDBLK
  5
36
330
1A
100
AcDbEntity
 67
     1
  8
0
100
AcDbBlockEnd
  0
BLOCK
  5
39
330
22
100
AcDbEntity
  8
0
100
AcDbBlockBegin
  2
LOGO
 70
     0
 10
0.0
 20
0.0
 30
0.0
  3
LOGO
  1

  0
ARC
  5
3A
330
22
100
AcDbEntity
  8
0
100
AcDbCircle
 10
11.59973089678112
 20
-9.271599258481501
 30
0.0
 40
4.5
100
AcDbArc
 50
270.0
 51
231.0575587310159
  0
LINE
  5
3B
330
22
100
AcDbEntity
  8
0
100
AcDbLine
 10
3.599730896781125
 20
-4.771599258481529
 30
0.0
 11
3.599730896781153
 21
-11.77159925848133
 31
0.0
  0
LINE
  5
3C
330
22
100
AcDbEntity
  8
0
100
AcDbLine
 10
2.599730896781125
 20
-4.771599258481529
 30
0.0
 11
2.599730896781153
 21
-11.77159925848133
 31
0.0
  0
CIRCLE
  5
3D
330
22
100
AcDbEntity
  8
0
100
AcDbCircle
 10
11.59973089678112
 20
-9.271599258481501
 30
0.0
 40
3.5
  0
ARC
  5
3E
330
22
100
AcDbEntity
  8
0
100
AcDbCircle
 10
31.59973089678115
 20
-9.271599258481472
 30
0.0
 40
4.5
100
AcDbArc
 50
270.0
 51
231.0575587310182
  0
LINE
  5
3F
330
22
100
AcDbEntity
  8
0
100
AcDbLine
 10
17.59973089678112
 20
-4.771599258481472
 30
0.0
 11
17.59973089678115
 21
-13.77159925848147
 31
0.0
  0
ARC
  5
40
330
22
100
AcDbEntity
  8
0
100
AcDbCircle
 10
22.59973089678116
 20
-7.271599258481472
 30
0.0
 40
2.5
100
AcDbArc
 50
293.1161887722295
 51
90.0
  0
CIRCLE
  5
41
330
22
100
AcDbEntity
  8
0
100
AcDbCircle
 10
31.59973089678115
 20
-9.271599258481472
 30
0.0
 40
3.5
  0
ARC
  5
42
330
22
100
AcDbEntity
  8
0
100
AcDbCircle
 10
4.599730896781153
 20
-11.77159925848133
 30
0.0
 40
1.0
100
AcDbArc
 50
180.0
 51
270.0
  0
ARC
  5
43
330
22
100
AcDbEntity
  8
0
100
AcDbCircle
 10
4.599730896781153
 20
-11.77159925848133
 30
0.0
 40
2.0
100
AcDbArc
 50
179.9999999999992
 51
270.0
  0
LINE
  5
44
330
22
100
AcDbEntity
  8
0
100
AcDbLine
 10
11.59973089678115
 20
-13.77159925848144
 30
0.0
 11
4.599730896781153
 21
-13.77159925848147
 31
0.0
  0
LINE
  5
45
330
22
100
AcDbEntity
  8
0
100
AcDbLine
 10
8.771303772034769
 20
-12.77159925848136
 30
0.0
 11
4.599730896781153
 21
-12.77159925848133
 31
0.0
  0
LINE
  5
46
330
22
100
AcDbEntity
  8
0
100
AcDbLine
 10
31.59973089678115
 20
-13.77159925848147
 30
0.0
 11
23.6715276665056
 21
-13.77159925848144
 31
0.0
  0
LINE
  5
47
330
22
100
AcDbEntity
  8
0
100
AcDbLine
 10
23.56565672307022
 20
-9.51278021337896
 30
0.0
 11
24.4388546544846
 21
-12.77159925848144
 31
0.0
  0
LINE
  5
48
330
22
100
AcDbEntity
  8
0
100
AcDbLine
 10
22.59973089678116
 20
-9.771599258481472
 30
0.0
 11
18.59973089678112
 21
-9.771599258481472
 31
0.0
  0
LINE
  5
49
330
22
100
AcDbEntity
  8
0
100
AcDbLine
 10
18.59973089678115
 20
-13.77159925848144
 30
0.0
 11
17.59973089678115
 21
-13.77159925848144
 31
0.0
  0
LINE
  5
4A
330
22
100
AcDbEntity
  8
0
100
AcDbLine
 10
18.59973089678115
 20
-9.771599258481472
 30
0.0
 11
18.59973089678115
 21
-13.77159925848144
 31
0.0
  0
LINE
  5
4B
330
22
100
AcDbEntity
  8
0
100
AcDbLine
 10
22.59973089678116
 20
-9.771599258481472
 30
0.0
 11
23.67152766650562
 21
-13.77159925848147
 31
0.0
  0
ARC
  5
4C
330
22
100
AcDbEntity
  8
0
100
AcDbCircle
 10
22.59973089678116
 20
-7.271599258481472
 30
0.0
 40
2.5
100
AcDbArc
 50
270.0
 51
270.0000000000007
  0
LINE
  5
4D
330
22
100
AcDbEntity
  8
0
100
AcDbLine
 10
28.77130377203494
 20
-12.77159925848147
 30
0.0
 11
24.43885465448463
 21
-12.77159925848144
 31
0.0
  0
LINE
  5
4E
330
22
100
AcDbEntity
  8
0
100
AcDbLine
 10
3.599730896781125
 20
-4.771599258481472
 30
0.0
 11
2.599730896781125
 21
-4.771599258481472
 31
0.0
  0
LINE
  5
4F
330
22
100
AcDbEntity
  8
0
100
AcDbLine
 10
22.59973089678116
 20
-8.771599258481472
 30
0.0
 11
18.59973089678115
 21
-8.771599258481472
 31
0.0
  0
LINE
  5
50
330
22
100
AcDbEntity
  8
0
100
AcDbLine
 10
22.59973089678116
 20
-5.771599258481472
 30
0.0
 11
18.59973089678115
 21
-5.771599258481472
 31
0.0
  0
LINE
  5
51
330
22
100
AcDbEntity
  8
0
100
AcDbLine
 10
22.59973089678116
 20
-4.771599258481472
 30
0.0
 11
17.59973089678115
 21
-4.771599258481472
 31
0.0
  0
LINE
  5
52
330
22
100
AcDbEntity
  8
0
100
AcDbLine
 10
18.59973089678115
 20
-5.771599258481472
 30
0.0
 11
18.59973089678115
 21
-8.771599258481472
 31
0.0
  0
ARC
  5
53
330
22
100
AcDbEntity
  8
0
100
AcDbCircle
 10
22.59973089678116
 20
-7.271599258481472
 30
0.0
 40
1.5
100
AcDbArc
 50
270.0
 51
90.0
  0
ENDBLK
  5
54
330
22
100
AcDbEntity
  8
0
100
AcDbBlockEnd
  0
BLOCK
  5
55
330
23
100
AcDbEntity
  8
0
100
AcDbBlockBegin
  2
LORO
 70
     0
 10
0.0
 20
0.0
 30
0.0
  3
LORO
  1

  0
INSERT
  5
56
330
23
100
AcDbEntity
  8
STEMPEL
100
AcDbBlockReference
  2
LOGO
 10
-1.748032802467321
 20
3.771489518552062
 30
0.0
  0
ENDBLK
  5
57
330
23
100
AcDbEntity
  8
0
100
AcDbBlockEnd
  0
BLOCK
  5
8F3
330
8E9
100
AcDbEntity
  8
0
100
AcDbBlockBegin
  2
*D2
 70
     1
 10
0.0
 20
0.0
 30
0.0
  3
*D2
  1

  0
LINE
  5
90F
330
8E9
100
AcDbEntity
  8
BEM
 62
     0
370
    -2
100
AcDbLine
 10
174.862396754803
 20
179.6344901730045
 30
0.0
 11
174.862396754803
 21
147.9643988783959
 31
0.0
  0
LINE
  5
910
330
8E9
100
AcDbEntity
  8
BEM
 62
     0
370
    -2
100
AcDbLine
 10
247.8623967548033
 20
179.634490173006
 30
0.0
 11
247.8623967548033
 21
147.9643988783959
 31
0.0
  0
LINE
  5
911
330
8E9
100
AcDbEntity
  8
BEM
 62
     0
370
    -2
100
AcDbLine
 10
181.862396754803
 20
149.9643988783959
 30
0.0
 11
240.8623967548033
 21
149.9643988783959
 31
0.0
  0
SOLID
  5
912
330
8E9
100
AcDbEntity
  8
BEM
 62
     0
100
AcDbTrace
 10
181.862396754803
 20
151.1310655450626
 30
0.0
 11
181.862396754803
 21
148.7977322117293
 31
0.0
 12
174.862396754803
 22
149.9643988783959
 32
0.0
 13
174.862396754803
 23
149.9643988783959
 33
0.0
  0
SOLID
  5
913
330
8E9
100
AcDbEntity
  8
BEM
 62
     0
100
AcDbTrace
 10
240.8623967548033
 20
151.1310655450626
 30
0.0
 11
240.8623967548033
 21
148.7977322117293
 31
0.0
 12
247.8623967548033
 22
149.9643988783959
 32
0.0
 13
247.8623967548033
 23
149.9643988783959
 33
0.0
  0
MTEXT
  5
914
330
8E9
100
AcDbEntity
  8
BEM
 62
     1
100
AcDbMText
 10
211.3623967548032
 20
156.464398878396
 30
0.0
 40
7.0
 41
0.0
 71
     5
 72
     1
  1
\A1;%%c73
 73
     1
 44
1.0
  0
POINT
  5
915
330
8E9
100
AcDbEntity
  8
DEFPOINTS
 62
     0
100
AcDbPoint
 10
174.862396754803
 20
181.6344901730045
 30
0.0
  0
POINT
  5
916
330
8E9
100
AcDbEntity
  8
DEFPOINTS
 62
     0
100
AcDbPoint
 10
247.8623967548033
 20
181.634490173006
 30
0.0
  0
POINT
  5
917
330
8E9
100
AcDbEntity
  8
DEFPOINTS
 62
     0
100
AcDbPoint
 10
247.8623967548033
 20
149.9643988783959
 30
0.0
  0
ENDBLK
  5
8F4
330
8E9
100
AcDbEntity
  8
0
100
AcDbBlockEnd
  0
BLOCK
  5
900
330
8F6
100
AcDbEntity
  8
0
100
AcDbBlockBegin
  2
*D3
 70
     1
 10
0.0
 20
0.0
 30
0.0
  3
*D3
  1

  0
LINE
  5
918
330
8F6
100
AcDbEntity
  8
BEM
 62
     0
370
    -2
100
AcDbLine
 10
144.8623967548035
 20
311.7218120588219
 30
0.0
 11
144.8623967548035
 21
132.7213618129494
 31
0.0
  0
LINE
  5
919
330
8F6
100
AcDbEntity
  8
BEM
 62
     0
370
    -2
100
AcDbLine
 10
277.8623967548035
 20
311.721812058822
 30
0.0
 11
277.8623967548035
 21
132.7213618129494
 31
0.0
  0
LINE
  5
91A
330
8F6
100
AcDbEntity
  8
BEM
 62
     0
370
    -2
100
AcDbLine
 10
151.8623967548035
 20
134.7213618129494
 30
0.0
 11
270.8623967548035
 21
134.7213618129494
 31
0.0
  0
SOLID
  5
91B
330
8F6
100
AcDbEntity
  8
BEM
 62
     0
100
AcDbTrace
 10
151.8623967548035
 20
135.8880284796161
 30
0.0
 11
151.8623967548035
 21
133.5546951462828
 31
0.0
 12
144.8623967548035
 22
134.7213618129494
 32
0.0
 13
144.8623967548035
 23
134.7213618129494
 33
0.0
  0
SOLID
  5
91C
330
8F6
100
AcDbEntity
  8
BEM
 62
     0
100
AcDbTrace
 10
270.8623967548035
 20
135.8880284796161
 30
0.0
 11
270.8623967548035
 21
133.5546951462828
 31
0.0
 12
277.8623967548035
 22
134.7213618129494
 32
0.0
 13
277.8623967548035
 23
134.7213618129494
 33
0.0
  0
MTEXT
  5
91D
330
8F6
100
AcDbEntity
  8
BEM
 62
     1
100
AcDbMText
 10
211.3623967548035
 20
141.2213618129494
 30
0.0
 40
7.0
 41
0.0
 71
     5
 72
     1
  1
\A1;%%c133
 73
     1
 44
1.0
  0
POINT
  5
91E
330
8F6
100
AcDbEntity
  8
DEFPOINTS
 62
     0
100
AcDbPoint
 10
144.8623967548035
 20
313.7218120588219
 30
0.0
  0
POINT
  5
91F
330
8F6
100
AcDbEntity
  8
DEFPOINTS
 62
     0
100
AcDbPoint
 10
277.8623967548035
 20
313.721812058822
 30
0.0
  0
POINT
  5
920
330
8F6
100
AcDbEntity
  8
DEFPOINTS
 62
     0
100
AcDbPoint
 10
277.8623967548035
 20
134.7213618129494
 30
0.0
  0
ENDBLK
  5
901
330
8F6
100
AcDbEntity
  8
0
100
AcDbBlockEnd
  0
BLOCK
  5
90D
330
903
100
AcDbEntity
  8
0
100
AcDbBlockBegin
  2
*D4
 70
     1
 10
0.0
 20
0.0
 30
0.0
  3
*D4
  1

  0
LINE
  5
921
330
903
100
AcDbEntity
  8
BEM
 62
     0
370
    -2
100
AcDbLine
 10
88.86239675480352
 20
406.7218120588218
 30
0.0
 11
88.8623967548035
 21
116.728029051535
 31
0.0
  0
LINE
  5
922
330
903
100
AcDbEntity
  8
BEM
 62
     0
370
    -2
100
AcDbLine
 10
333.8623967548033
 20
406.7218120588218
 30
0.0
 11
333.8623967548033
 21
116.728029051535
 31
0.0
  0
LINE
  5
923
330
903
100
AcDbEntity
  8
BEM
 62
     0
370
    -2
100
AcDbLine
 10
95.86239675480349
 20
118.728029051535
 30
0.0
 11
326.8623967548033
 21
118.728029051535
 31
0.0
  0
SOLID
  5
924
330
903
100
AcDbEntity
  8
BEM
 62
     0
100
AcDbTrace
 10
95.86239675480349
 20
119.8946957182017
 30
0.0
 11
95.86239675480349
 21
117.5613623848683
 31
0.0
 12
88.8623967548035
 22
118.728029051535
 32
0.0
 13
88.8623967548035
 23
118.728029051535
 33
0.0
  0
SOLID
  5
925
330
903
100
AcDbEntity
  8
BEM
 62
     0
100
AcDbTrace
 10
326.8623967548033
 20
119.8946957182017
 30
0.0
 11
326.8623967548033
 21
117.5613623848683
 31
0.0
 12
333.8623967548033
 22
118.728029051535
 32
0.0
 13
333.8623967548033
 23
118.728029051535
 33
0.0
  0
MTEXT
  5
926
330
903
100
AcDbEntity
  8
BEM
 62
     1
100
AcDbMText
 10
211.3623967548034
 20
125.228029051535
 30
0.0
 40
7.0
 41
0.0
 71
     5
 72
     1
  1
\A1;%%c245
 73
     1
 44
1.0
  0
POINT
  5
927
330
903
100
AcDbEntity
  8
DEFPOINTS
 62
     0
100
AcDbPoint
 10
88.86239675480352
 20
408.7218120588219
 30
0.0
  0
POINT
  5
928
330
903
100
AcDbEntity
  8
DEFPOINTS
 62
     0
100
AcDbPoint
 10
333.8623967548033
 20
408.7218120588219
 30
0.0
  0
POINT
  5
929
330
903
100
AcDbEntity
  8
DEFPOINTS
 62
     0
100
AcDbPoint
 10
333.8623967548033
 20
118.728029051535
 30
0.0
  0
ENDBLK
  5
90E
330
903
100
AcDbEntity
  8
0
100
AcDbBlockEnd
  0
BLOCK
  5
94B
330
941
100
AcDbEntity
  8
0
100
AcDbBlockBegin
  2
*D5
 70
     1
 10
0.0
 20
0.0
 30
0.0
  3
*D5
  1

  0
LINE
  5
942
330
941
100
AcDbEntity
  8
BEM
 62
     0
370
    -2
100
AcDbLine
 10
135.8623967548035
 20
483.7218120588219
 30
0.0
 11
77.23715778665294
 21
483.7218120588219
 31
0.0
  0
LINE
  5
943
330
941
100
AcDbEntity
  8
BEM
 62
     0
370
    -2
100
AcDbLine
 10
91.03111777101617
 20
403.7218120588217
 30
0.0
 11
77.23715778665291
 21
403.7218120588217
 31
0.0
  0
LINE
  5
944
330
941
100
AcDbEntity
  8
BEM
 62
     0
370
    -2
100
AcDbLine
 10
79.23715778665293
 20
476.721812058822
 30
0.0
 11
79.23715778665291
 21
410.7218120588218
 31
0.0
  0
SOLID
  5
945
330
941
100
AcDbEntity
  8
BEM
 62
     0
100
AcDbTrace
 10
78.07049111998626
 20
476.721812058822
 30
0.0
 11
80.4038244533196
 21
476.721812058822
 31
0.0
 12
79.23715778665294
 22
483.7218120588219
 32
0.0
 13
79.23715778665294
 23
483.7218120588219
 33
0.0
  0
SOLID
  5
946
330
941
100
AcDbEntity
  8
BEM
 62
     0
100
AcDbTrace
 10
78.07049111998624
 20
410.7218120588218
 30
0.0
 11
80.40382445331959
 21
410.7218120588218
 31
0.0
 12
79.23715778665291
 22
403.7218120588217
 32
0.0
 13
79.23715778665291
 23
403.7218120588217
 33
0.0
  0
MTEXT
  5
947
330
941
100
AcDbEntity
  8
BEM
 62
     1
100
AcDbMText
 10
72.73715778665286
 20
443.7218120588219
 30
0.0
 40
7.0
 41
0.0
 71
     5
 72
     1
  1
\A1;80
 11
0.0000000000000001
 21
1.0
 31
0.0
 73
     1
 44
1.0
  0
POINT
  5
948
330
941
100
AcDbEntity
  8
DEFPOINTS
 62
     0
100
AcDbPoint
 10
137.8623967548035
 20
483.7218120588219
 30
0.0
  0
POINT
  5
949
330
941
100
AcDbEntity
  8
DEFPOINTS
 62
     0
100
AcDbPoint
 10
93.03111777101618
 20
403.7218120588217
 30
0.0
  0
POINT
  5
94A
330
941
100
AcDbEntity
  8
DEFPOINTS
 62
     0
100
AcDbPoint
 10
79.23715778665291
 20
403.7218120588217
 30
0.0
  0
ENDBLK
  5
94C
330
941
100
AcDbEntity
  8
0
100
AcDbBlockEnd
  0
BLOCK
  5
958
330
94E
100
AcDbEntity
  8
0
100
AcDbBlockBegin
  2
*D6
 70
     1
 10
0.0
 20
0.0
 30
0.0
  3
*D6
  1

  0
LINE
  5
94F
330
94E
100
AcDbEntity
  8
BEM
 62
     0
370
    -2
100
AcDbLine
 10
135.8623967548035
 20
483.7218120588219
 30
0.0
 11
63.23715778665293
 21
483.7218120588219
 31
0.0
  0
LINE
  5
950
330
94E
100
AcDbEntity
  8
BEM
 62
     0
370
    -2
100
AcDbLine
 10
142.8623967548035
 20
313.721812058822
 30
0.0
 11
63.2371577866529
 21
313.721812058822
 31
0.0
  0
LINE
  5
951
330
94E
100
AcDbEntity
  8
BEM
 62
     0
370
    -2
100
AcDbLine
 10
65.23715778665293
 20
476.721812058822
 30
0.0
 11
65.2371577866529
 21
320.721812058822
 31
0.0
  0
SOLID
  5
952
330
94E
100
AcDbEntity
  8
BEM
 62
     0
100
AcDbTrace
 10
64.07049111998626
 20
476.721812058822
 30
0.0
 11
66.4038244533196
 21
476.721812058822
 31
0.0
 12
65.23715778665295
 22
483.7218120588219
 32
0.0
 13
65.23715778665295
 23
483.7218120588219
 33
0.0
  0
SOLID
  5
953
330
94E
100
AcDbEntity
  8
BEM
 62
     0
100
AcDbTrace
 10
64.07049111998623
 20
320.721812058822
 30
0.0
 11
66.40382445331957
 21
320.721812058822
 31
0.0
 12
65.2371577866529
 22
313.721812058822
 32
0.0
 13
65.2371577866529
 23
313.721812058822
 33
0.0
  0
MTEXT
  5
954
330
94E
100
AcDbEntity
  8
BEM
 62
     1
100
AcDbMText
 10
58.73715778665285
 20
398.721812058822
 30
0.0
 40
7.0
 41
0.0
 71
     5
 72
     1
  1
\A1;170
 11
0.0000000000000001
 21
1.0
 31
0.0
 73
     1
 44
1.0
  0
POINT
  5
955
330
94E
100
AcDbEntity
  8
DEFPOINTS
 62
     0
100
AcDbPoint
 10
137.8623967548035
 20
483.7218120588219
 30
0.0
  0
POINT
  5
956
330
94E
100
AcDbEntity
  8
DEFPOINTS
 62
     0
100
AcDbPoint
 10
144.8623967548035
 20
313.721812058822
 30
0.0
  0
POINT
  5
957
330
94E
100
AcDbEntity
  8
DEFPOINTS
 62
     0
100
AcDbPoint
 10
65.2371577866529
 20
313.721812058822
 30
0.0
  0
ENDBLK
  5
959
330
94E
100
AcDbEntity
  8
0
100
AcDbBlockEnd
  0
BLOCK
  5
965
330
95B
100
AcDbEntity
  8
0
100
AcDbBlockBegin
  2
*D7
 70
     1
 10
0.0
 20
0.0
 30
0.0
  3
*D7
  1

  0
LINE
  5
95C
330
95B
100
AcDbEntity
  8
BEM
 62
     0
370
    -2
100
AcDbLine
 10
135.8623967548035
 20
483.7218120588219
 30
0.0
 11
49.23715778665293
 21
483.7218120588219
 31
0.0
  0
LINE
  5
95D
330
95B
100
AcDbEntity
  8
BEM
 62
     0
370
    -2
100
AcDbLine
 10
173.5546663879237
 20
173.7218120588219
 30
0.0
 11
49.23715778665286
 21
173.7218120588219
 31
0.0
  0
LINE
  5
95E
330
95B
100
AcDbEntity
  8
BEM
 62
     0
370
    -2
100
AcDbLine
 10
51.23715778665293
 20
476.721812058822
 30
0.0
 11
51.23715778665287
 21
180.7218120588219
 31
0.0
  0
SOLID
  5
95F
330
95B
100
AcDbEntity
  8
BEM
 62
     0
100
AcDbTrace
 10
50.07049111998627
 20
476.721812058822
 30
0.0
 11
52.4038244533196
 21
476.721812058822
 31
0.0
 12
51.23715778665293
 22
483.7218120588219
 32
0.0
 13
51.23715778665293
 23
483.7218120588219
 33
0.0
  0
SOLID
  5
960
330
95B
100
AcDbEntity
  8
BEM
 62
     0
100
AcDbTrace
 10
50.07049111998621
 20
180.7218120588219
 30
0.0
 11
52.40382445331953
 21
180.7218120588219
 31
0.0
 12
51.23715778665286
 22
173.7218120588219
 32
0.0
 13
51.23715778665286
 23
173.7218120588219
 33
0.0
  0
MTEXT
  5
961
330
95B
100
AcDbEntity
  8
BEM
 62
     1
100
AcDbMText
 10
44.73715778665285
 20
328.721812058822
 30
0.0
 40
7.0
 41
0.0
 71
     5
 72
     1
  1
\A1;310
 11
0.0000000000000001
 21
1.0
 31
0.0
 73
     1
 44
1.0
  0
POINT
  5
962
330
95B
100
AcDbEntity
  8
DEFPOINTS
 62
     0
100
AcDbPoint
 10
137.8623967548035
 20
483.7218120588219
 30
0.0
  0
POINT
  5
963
330
95B
100
AcDbEntity
  8
DEFPOINTS
 62
     0
100
AcDbPoint
 10
175.5546663879237
 20
173.7218120588219
 30
0.0
  0
POINT
  5
964
330
95B
100
AcDbEntity
  8
DEFPOINTS
 62
     0
100
AcDbPoint
 10
51.23715778665286
 20
173.7218120588219
 30
0.0
  0
ENDBLK
  5
966
330
95B
100
AcDbEntity
  8
0
100
AcDbBlockEnd
  0
BLOCK
  5
972
330
968
100
AcDbEntity
  8
0
100
AcDbBlockBegin
  2
*D8
 70
     1
 10
0.0
 20
0.0
 30
0.0
  3
*D8
  1

  0
LINE
  5
974
330
968
100
AcDbEntity
  8
BEM
 62
     0
370
    -2
100
AcDbLine
 10
170.9653352393757
 20
558.721812058822
 30
0.0
 11
49.23715778665295
 21
558.721812058822
 31
0.0
  0
LINE
  5
975
330
968
100
AcDbEntity
  8
BEM
 62
     0
370
    -2
100
AcDbLine
 10
135.8623967548035
 20
483.7218120588219
 30
0.0
 11
49.23715778665293
 21
483.7218120588219
 31
0.0
  0
LINE
  5
976
330
968
100
AcDbEntity
  8
BEM
 62
     0
370
    -2
100
AcDbLine
 10
51.23715778665295
 20
551.721812058822
 30
0.0
 11
51.23715778665293
 21
490.7218120588219
 31
0.0
  0
SOLID
  5
977
330
968
100
AcDbEntity
  8
BEM
 62
     0
100
AcDbTrace
 10
50.07049111998629
 20
551.721812058822
 30
0.0
 11
52.40382445331961
 21
551.721812058822
 31
0.0
 12
51.23715778665295
 22
558.721812058822
 32
0.0
 13
51.23715778665295
 23
558.721812058822
 33
0.0
  0
SOLID
  5
978
330
968
100
AcDbEntity
  8
BEM
 62
     0
100
AcDbTrace
 10
50.07049111998627
 20
490.7218120588219
 30
0.0
 11
52.4038244533196
 21
490.7218120588219
 31
0.0
 12
51.23715778665293
 22
483.7218120588219
 32
0.0
 13
51.23715778665293
 23
483.7218120588219
 33
0.0
  0
MTEXT
  5
979
330
968
100
AcDbEntity
  8
BEM
 62
     1
100
AcDbMText
 10
44.73715778665286
 20
521.221812058822
 30
0.0
 40
7.0
 41
0.0
 71
     5
 72
     1
  1
\A1;77 - 107
 11
0.0000000000000001
 21
1.0
 31
0.0
 73
     1
 44
1.0
  0
POINT
  5
97A
330
968
100
AcDbEntity
  8
DEFPOINTS
 62
     0
100
AcDbPoint
 10
172.9653352393757
 20
558.721812058822
 30
0.0
  0
POINT
  5
97B
330
968
100
AcDbEntity
  8
DEFPOINTS
 62
     0
100
AcDbPoint
 10
137.8623967548035
 20
483.7218120588219
 30
0.0
  0
POINT
  5
97C
330
968
100
AcDbEntity
  8
DEFPOINTS
 62
     0
100
AcDbPoint
 10
51.23715778665293
 20
483.7218120588219
 30
0.0
  0
ENDBLK
  5
973
330
968
100
AcDbEntity
  8
0
100
AcDbBlockEnd
  0
BLOCK
  5
CBD
330
CB3
100
AcDbEntity
  8
0
100
AcDbBlockBegin
  2
*D9
 70
     1
 10
0.0
 20
0.0
 30
0.0
  3
*D9
  1

  0
LINE
  5
D42
330
CB3
100
AcDbEntity
  8
BEM
 62
     0
370
    -2
100
AcDbLine
 10
81.36239675480386
 20
586.221812058822
 30
0.0
 11
81.36239675480387
 21
700.4725194719481
 31
0.0
  0
LINE
  5
D43
330
CB3
100
AcDbEntity
  8
BEM
 62
     0
370
    -2
100
AcDbLine
 10
341.3623967548038
 20
586.2218120588209
 30
0.0
 11
341.3623967548038
 21
700.4725194719481
 31
0.0
  0
LINE
  5
D44
330
CB3
100
AcDbEntity
  8
BEM
 62
     0
370
    -2
100
AcDbLine
 10
88.36239675480385
 20
698.472519471948
 30
0.0
 11
334.3623967548038
 21
698.472519471948
 31
0.0
  0
SOLID
  5
D45
330
CB3
100
AcDbEntity
  8
BEM
 62
     0
100
AcDbTrace
 10
88.36239675480385
 20
699.6391861386147
 30
0.0
 11
88.36239675480385
 21
697.3058528052814
 31
0.0
 12
81.36239675480386
 22
698.472519471948
 32
0.0
 13
81.36239675480386
 23
698.472519471948
 33
0.0
  0
SOLID
  5
D46
330
CB3
100
AcDbEntity
  8
BEM
 62
     0
100
AcDbTrace
 10
334.3623967548038
 20
699.6391861386147
 30
0.0
 11
334.3623967548038
 21
697.3058528052814
 31
0.0
 12
341.3623967548038
 22
698.472519471948
 32
0.0
 13
341.3623967548038
 23
698.472519471948
 33
0.0
  0
MTEXT
  5
D47
330
CB3
100
AcDbEntity
  8
BEM
 62
     1
100
AcDbMText
 10
211.3623967548038
 20
704.9725194719481
 30
0.0
 40
7.0
 41
0.0
 71
     5
 72
     1
  1
\A1;%%c260
 73
     1
 44
1.0
  0
POINT
  5
D48
330
CB3
100
AcDbEntity
  8
DEFPOINTS
 62
     0
100
AcDbPoint
 10
81.36239675480386
 20
584.221812058822
 30
0.0
  0
POINT
  5
D49
330
CB3
100
AcDbEntity
  8
DEFPOINTS
 62
     0
100
AcDbPoint
 10
341.3623967548038
 20
584.2218120588208
 30
0.0
  0
POINT
  5
D4A
330
CB3
100
AcDbEntity
  8
DEFPOINTS
 62
     0
100
AcDbPoint
 10
341.3623967548038
 20
698.472519471948
 30
0.0
  0
ENDBLK
  5
CBE
330
CB3
100
AcDbEntity
  8
0
100
AcDbBlockEnd
  0
BLOCK
  5
CC9
330
CBF
100
AcDbEntity
  8
0
100
AcDbBlockBegin
  2
*D10
 70
     1
 10
0.0
 20
0.0
 30
0.0
  3
*D10
  1

  0
LINE
  5
D39
330
CBF
100
AcDbEntity
  8
BEM
 62
     0
370
    -2
100
AcDbLine
 10
101.3623967548037
 20
655.2217540915064
 30
0.0
 11
101.3623967548037
 21
685.4593862645615
 31
0.0
  0
LINE
  5
D3A
330
CBF
100
AcDbEntity
  8
BEM
 62
     0
370
    -2
100
AcDbLine
 10
321.362396754804
 20
655.2217540915055
 30
0.0
 11
321.362396754804
 21
685.4593862645615
 31
0.0
  0
LINE
  5
D3B
330
CBF
100
AcDbEntity
  8
BEM
 62
     0
370
    -2
100
AcDbLine
 10
108.3623967548037
 20
683.4593862645615
 30
0.0
 11
314.362396754804
 21
683.4593862645615
 31
0.0
  0
SOLID
  5
D3C
330
CBF
100
AcDbEntity
  8
BEM
 62
     0
100
AcDbTrace
 10
108.3623967548037
 20
684.6260529312282
 30
0.0
 11
108.3623967548037
 21
682.2927195978949
 31
0.0
 12
101.3623967548037
 22
683.4593862645615
 32
0.0
 13
101.3623967548037
 23
683.4593862645615
 33
0.0
  0
SOLID
  5
D3D
330
CBF
100
AcDbEntity
  8
BEM
 62
     0
100
AcDbTrace
 10
314.362396754804
 20
684.6260529312282
 30
0.0
 11
314.362396754804
 21
682.2927195978949
 31
0.0
 12
321.362396754804
 22
683.4593862645615
 32
0.0
 13
321.362396754804
 23
683.4593862645615
 33
0.0
  0
MTEXT
  5
D3E
330
CBF
100
AcDbEntity
  8
BEM
 62
     1
100
AcDbMText
 10
211.3623967548039
 20
689.9593862645615
 30
0.0
 40
7.0
 41
0.0
 71
     5
 72
     1
  1
\A1;%%c220
 73
     1
 44
1.0
  0
POINT
  5
D3F
330
CBF
100
AcDbEntity
  8
DEFPOINTS
 62
     0
100
AcDbPoint
 10
101.3623967548037
 20
653.2217540915064
 30
0.0
  0
POINT
  5
D40
330
CBF
100
AcDbEntity
  8
DEFPOINTS
 62
     0
100
AcDbPoint
 10
321.362396754804
 20
653.2217540915056
 30
0.0
  0
POINT
  5
D41
330
CBF
100
AcDbEntity
  8
DEFPOINTS
 62
     0
100
AcDbPoint
 10
321.362396754804
 20
683.4593862645615
 30
0.0
  0
ENDBLK
  5
CCA
330
CBF
100
AcDbEntity
  8
0
100
AcDbBlockEnd
  0
BLOCK
  5
CD5
330
CCB
100
AcDbEntity
  8
0
100
AcDbBlockBegin
  2
*D11
 70
     1
 10
0.0
 20
0.0
 30
0.0
  3
*D11
  1

  0
LINE
  5
D56
330
CCB
100
AcDbEntity
  8
BEM
 62
     0
370
    -2
100
AcDbLine
 10
79.36239675480374
 20
583.221812058822
 30
0.0
 11
61.0100520071047
 21
583.221812058822
 31
0.0
  0
LINE
  5
D57
330
CCB
100
AcDbEntity
  8
BEM
 62
     0
370
    -2
100
AcDbLine
 10
129.362396754804
 20
673.2218120588214
 30
0.0
 11
61.01005200710472
 21
673.2218120588214
 31
0.0
  0
LINE
  5
D58
330
CCB
100
AcDbEntity
  8
BEM
 62
     0
370
    -2
100
AcDbLine
 10
63.0100520071047
 20
590.221812058822
 30
0.0
 11
63.01005200710472
 21
666.2218120588214
 31
0.0
  0
SOLID
  5
D59
330
CCB
100
AcDbEntity
  8
BEM
 62
     0
100
AcDbTrace
 10
61.84338534043803
 20
590.221812058822
 30
0.0
 11
64.17671867377136
 21
590.221812058822
 31
0.0
 12
63.0100520071047
 22
583.221812058822
 32
0.0
 13
63.0100520071047
 23
583.221812058822
 33
0.0
  0
SOLID
  5
D5A
330
CCB
100
AcDbEntity
  8
BEM
 62
     0
100
AcDbTrace
 10
61.84338534043805
 20
666.2218120588214
 30
0.0
 11
64.17671867377137
 21
666.2218120588214
 31
0.0
 12
63.01005200710472
 22
673.2218120588214
 32
0.0
 13
63.01005200710472
 23
673.2218120588214
 33
0.0
  0
MTEXT
  5
D5B
330
CCB
100
AcDbEntity
  8
BEM
 62
     1
100
AcDbMText
 10
56.51005200710461
 20
628.2218120588217
 30
0.0
 40
7.0
 41
0.0
 71
     5
 72
     1
  1
\A1;90
 11
0.0000000000000001
 21
1.0
 31
0.0
 73
     1
 44
1.0
  0
POINT
  5
D5C
330
CCB
100
AcDbEntity
  8
DEFPOINTS
 62
     0
100
AcDbPoint
 10
81.36239675480373
 20
583.221812058822
 30
0.0
  0
POINT
  5
D5D
330
CCB
100
AcDbEntity
  8
DEFPOINTS
 62
     0
100
AcDbPoint
 10
131.362396754804
 20
673.2218120588214
 30
0.0
  0
POINT
  5
D5E
330
CCB
100
AcDbEntity
  8
DEFPOINTS
 62
     0
100
AcDbPoint
 10
63.01005200710472
 20
673.2218120588214
 30
0.0
  0
ENDBLK
  5
CD6
330
CCB
100
AcDbEntity
  8
0
100
AcDbBlockEnd
  0
BLOCK
  5
CE3
330
CD7
100
AcDbEntity
  8
0
100
AcDbBlockBegin
  2
*D12
 70
     1
 10
0.0
 20
0.0
 30
0.0
  3
*D12
  1

  0
LINE
  5
D4B
330
CD7
100
AcDbEntity
  8
BEM
 62
     0
370
    -2
100
AcDbLine
 10
74.36239675480379
 20
568.221812058822
 30
0.0
 11
61.01005200710466
 21
568.221812058822
 31
0.0
  0
LINE
  5
D4C
330
CD7
100
AcDbEntity
  8
BEM
 62
     0
370
    -2
100
AcDbLine
 10
79.36239675480374
 20
583.221812058822
 30
0.0
 11
61.01005200710466
 21
583.221812058822
 31
0.0
  0
LINE
  5
D4D
330
CD7
100
AcDbEntity
  8
BEM
 62
     0
370
    -2
100
AcDbLine
 10
63.01005200710466
 20
561.221812058822
 30
0.0
 11
63.01005200710465
 21
554.221812058822
 31
0.0
  0
LINE
  5
D4E
330
CD7
100
AcDbEntity
  8
BEM
 62
     0
370
    -2
100
AcDbLine
 10
63.01005200710466
 20
590.221812058822
 30
0.0
 11
63.01005200710466
 21
597.221812058822
 31
0.0
  0
LINE
  5
D4F
330
CD7
100
AcDbEntity
  8
BEM
 62
     0
370
    -2
100
AcDbLine
 10
63.01005200710466
 20
568.221812058822
 30
0.0
 11
63.01005200710466
 21
583.221812058822
 31
0.0
  0
SOLID
  5
D50
330
CD7
100
AcDbEntity
  8
BEM
 62
     0
100
AcDbTrace
 10
61.84338534043799
 20
561.221812058822
 30
0.0
 11
64.17671867377134
 21
561.221812058822
 31
0.0
 12
63.01005200710466
 22
568.221812058822
 32
0.0
 13
63.01005200710466
 23
568.221812058822
 33
0.0
  0
SOLID
  5
D51
330
CD7
100
AcDbEntity
  8
BEM
 62
     0
100
AcDbTrace
 10
61.84338534043799
 20
590.221812058822
 30
0.0
 11
64.17671867377134
 21
590.221812058822
 31
0.0
 12
63.01005200710466
 22
583.221812058822
 32
0.0
 13
63.01005200710466
 23
583.221812058822
 33
0.0
  0
MTEXT
  5
D52
330
CD7
100
AcDbEntity
  8
BEM
 62
     1
100
AcDbMText
 10
56.51005200710457
 20
575.721812058822
 30
0.0
 40
7.0
 41
0.0
 71
     5
 72
     1
  1
\A1;15
 11
0.0000000000000001
 21
1.0
 31
0.0
 73
     1
 44
1.0
  0
POINT
  5
D53
330
CD7
100
AcDbEntity
  8
DEFPOINTS
 62
     0
100
AcDbPoint
 10
76.36239675480379
 20
568.221812058822
 30
0.0
  0
POINT
  5
D54
330
CD7
100
AcDbEntity
  8
DEFPOINTS
 62
     0
100
AcDbPoint
 10
81.36239675480373
 20
583.221812058822
 30
0.0
  0
POINT
  5
D55
330
CD7
100
AcDbEntity
  8
DEFPOINTS
 62
     0
100
AcDbPoint
 10
63.01005200710466
 20
583.221812058822
 30
0.0
  0
ENDBLK
  5
CE4
330
CD7
100
AcDbEntity
  8
0
100
AcDbBlockEnd
  0
ENDSEC
  0
SECTION
  2
ENTITIES
  0
LINE
  5
58
330
1E
100
AcDbEntity
  8
STEMPEL
100
AcDbLine
 10
484.0
 20
830.0000000000002
 30
0.0
 11
484.0
 21
470.0000000000001
 31
0.0
  0
LINE
  5
59
330
1E
100
AcDbEntity
  8
STEMPEL
100
AcDbLine
 10
484.0
 20
470.0000000000001
 30
0.0
 11
584.0
 21
470.0000000000001
 31
0.0
  0
LINE
  5
5A
330
1E
100
AcDbEntity
  8
STEMPEL
100
AcDbLine
 10
484.0000000000001
 20
566.0000000000002
 30
0.0
 11
584.0000000000001
 21
566.0
 31
0.0
  0
LINE
  5
5B
330
1E
100
AcDbEntity
  8
STEMPEL
100
AcDbLine
 10
484.0
 20
650.0
 30
0.0
 11
584.0
 21
650.0
 31
0.0
  0
LINE
  5
5C
330
1E
100
AcDbEntity
  8
STEMPEL
100
AcDbLine
 10
484.0000000000003
 20
752.0000000000002
 30
0.0
 11
554.0
 21
752.0000000000002
 31
0.0
  0
LINE
  5
5D
330
1E
100
AcDbEntity
  8
STEMPEL
100
AcDbLine
 10
564.0
 20
566.0
 30
0.0
 11
564.0
 21
470.0000000000001
 31
0.0
  0
LINE
  5
5E
330
1E
100
AcDbEntity
  8
STEMPEL
100
AcDbLine
 10
554.0
 20
830.0000000000002
 30
0.0
 11
554.0
 21
566.0
 31
0.0
  0
LINE
  5
5F
330
1E
100
AcDbEntity
  8
STEMPEL
100
AcDbLine
 10
514.0
 20
830.0000000000002
 30
0.0
 11
514.0
 21
566.0000000000002
 31
0.0
  0
LINE
  5
60
330
1E
100
AcDbEntity
  8
VOLL
100
AcDbLine
 10
484.0
 20
484.0000000000001
 30
0.0
 11
584.0
 21
484.0
 31
0.0
  0
LINE
  5
61
330
1E
100
AcDbEntity
  8
VOLL
100
AcDbLine
 10
484.0000000000001
 20
524.0000000000001
 30
0.0
 11
584.0000000000001
 21
524.0
 31
0.0
  0
LINE
  5
62
330
1E
100
AcDbEntity
  8
VOLL
100
AcDbLine
 10
484.0000000000001
 20
544.0000000000002
 30
0.0
 11
584.0000000000001
 21
544.0
 31
0.0
  0
LINE
  5
63
330
1E
100
AcDbEntity
  8
VOLL
100
AcDbLine
 10
514.0
 20
584.0000000000002
 30
0.0
 11
554.0
 21
584.0000000000002
 31
0.0
  0
LINE
  5
64
330
1E
100
AcDbEntity
  8
VOLL
100
AcDbLine
 10
484.0000000000002
 20
610.0000000000002
 30
0.0
 11
554.0
 21
610.0
 31
0.0
  0
LINE
  5
65
330
1E
100
AcDbEntity
  8
HILF
100
AcDbLine
 10
494.0
 20
470.0000000000001
 30
0.0
 11
494.0
 21
566.0000000000002
 31
0.0
  0
LINE
  5
66
330
1E
100
AcDbEntity
  8
HILF
100
AcDbLine
 10
504.0
 20
470.0000000000001
 30
0.0
 11
504.0
 21
566.0000000000002
 31
0.0
  0
LINE
  5
67
330
1E
100
AcDbEntity
  8
HILF
100
AcDbLine
 10
514.0
 20
470.0000000000001
 30
0.0
 11
514.0
 21
566.0000000000002
 31
0.0
  0
LINE
  5
68
330
1E
100
AcDbEntity
  8
HILF
100
AcDbLine
 10
524.0
 20
470.0000000000001
 30
0.0
 11
524.0
 21
566.0000000000002
 31
0.0
  0
LINE
  5
69
330
1E
100
AcDbEntity
  8
HILF
100
AcDbLine
 10
534.0
 20
470.0000000000001
 30
0.0
 11
534.0
 21
566.0000000000002
 31
0.0
  0
LINE
  5
6A
330
1E
100
AcDbEntity
  8
HILF
100
AcDbLine
 10
544.0
 20
470.0000000000001
 30
0.0
 11
544.0
 21
566.0000000000002
 31
0.0
  0
LINE
  5
6B
330
1E
100
AcDbEntity
  8
HILF
100
AcDbLine
 10
554.0
 20
470.0000000000001
 30
0.0
 11
554.0
 21
566.0000000000002
 31
0.0
  0
LINE
  5
6C
330
1E
100
AcDbEntity
  8
HILF
100
AcDbLine
 10
524.0
 20
566.0000000000002
 30
0.0
 11
524.0
 21
650.0
 31
0.0
  0
LINE
  5
6D
330
1E
100
AcDbEntity
  8
HILF
100
AcDbLine
 10
534.0
 20
566.0000000000002
 30
0.0
 11
534.0
 21
650.0
 31
0.0
  0
LINE
  5
6E
330
1E
100
AcDbEntity
  8
HILF
100
AcDbLine
 10
544.0
 20
566.0000000000002
 30
0.0
 11
544.0
 21
650.0
 31
0.0
  0
LINE
  5
6F
330
1E
100
AcDbEntity
  8
HILF
100
AcDbLine
 10
509.9624175243587
 20
654.7736801096948
 30
0.0
 11
509.9624175243587
 21
746.6297842514811
 31
0.0
  0
LINE
  5
70
330
1E
100
AcDbEntity
  8
HILF
100
AcDbLine
 10
524.0
 20
654.7736801096948
 30
0.0
 11
524.0
 21
746.6297842514811
 31
0.0
  0
LINE
  5
71
330
1E
100
AcDbEntity
  8
HILF
100
AcDbLine
 10
534.0
 20
654.7736801096948
 30
0.0
 11
534.0
 21
746.6297842514811
 31
0.0
  0
LINE
  5
72
330
1E
100
AcDbEntity
  8
HILF
100
AcDbLine
 10
544.0
 20
654.7736801096948
 30
0.0
 11
544.0
 21
746.6297842514811
 31
0.0
  0
LINE
  5
73
330
1E
100
AcDbEntity
  8
VOLL
100
AcDbLine
 10
534.0
 20
752.0000000000002
 30
0.0
 11
534.0
 21
830.0000000000002
 31
0.0
  0
LINE
  5
74
330
1E
100
AcDbEntity
  8
HILF
100
AcDbLine
 10
510.2201636304418
 20
756.7238616296995
 30
0.0
 11
510.2201636304418
 21
824.858883932673
 31
0.0
  0
LINE
  5
75
330
1E
100
AcDbEntity
  8
HILF
100
AcDbLine
 10
579.1060174197169
 20
654.7736801096948
 30
0.0
 11
579.1060174197169
 21
824.858883932673
 31
0.0
  0
TEXT
  5
76
330
1E
100
AcDbEntity
  8
TEXT
100
AcDbText
 10
575.3261810501587
 20
492.3998239263297
 30
0.0
 40
4.0
  1
Änderung
 50
90.0
 41
0.8
  7
GREEKS
 72
     1
 11
575.3261810501587
 21
503.1426810691868
 31
0.0
100
AcDbText
  0
TEXT
  5
78
330
1E
100
AcDbEntity
  8
TEXT
100
AcDbText
 10
491.5379104912911
 20
573.5163572150376
 30
0.0
 40
5.0
  1
Maßstab
 50
90.0
 41
0.8
  7
GREEKS
100
AcDbText
  0
TEXT
  5
79
330
1E
100
AcDbEntity
  8
TEXT
100
AcDbText
 10
491.4510671988221
 20
654.8779403809009
 30
0.0
 40
5.0
  1
Benennung
 50
90.0
 41
0.8
  7
GREEKS
100
AcDbText
  0
TEXT
  5
7A
330
1E
100
AcDbEntity
  8
TEXT
100
AcDbText
 10
491.6867965462863
 20
756.1787549576343
 30
0.0
 40
5.0
  1
Zeichnungs Nr.
 50
90.0
 41
0.8
  7
GREEKS
100
AcDbText
  0
TEXT
  5
7B
330
1E
100
AcDbEntity
  8
TEXT
100
AcDbText
 10
563.1543942980694
 20
654.7422383911359
 30
0.0
 40
5.0
  1
Bauvorhaben
 50
90.0
 41
0.8
  7
GREEKS
100
AcDbText
  0
TEXT
  5
7C
330
1E
100
AcDbEntity
  8
TEXT
100
AcDbText
 10
520.8188176290003
 20
756.7238616296995
 30
0.0
 40
5.0
  1
Ersatz für:
 50
90.0
 41
0.8
  7
GREEKS
100
AcDbText
  0
TEXT
  5
7D
330
1E
100
AcDbEntity
  8
TEXT
100
AcDbText
 10
580.3453415397281
 20
478.2664110704577
 30
0.0
 40
4.0
  1
Index
 50
180.0
 41
0.8
  7
GREEKS
100
AcDbText
  0
TEXT
  5
7E
330
1E
100
AcDbEntity
  8
TEXT
100
AcDbText
 10
575.3284373066019
 20
529.8990113186978
 30
0.0
 40
4.0
  1
Tag
 50
90.0
 41
0.8
  7
GREEKS
 72
     1
 11
575.3284373066019
 21
533.6323446520311
 31
0.0
100
AcDbText
  0
TEXT
  5
7F
330
1E
100
AcDbEntity
  8
TEXT
100
AcDbText
 10
575.4067578303359
 20
548.9795678138292
 30
0.0
 40
4.0
  1
Name
 50
90.0
 41
0.8
  7
GREEKS
 72
     1
 11
575.4067578303359
 21
555.3033773376387
 31
0.0
100
AcDbText
  0
TEXT
  5
80
330
1E
100
AcDbEntity
  8
TEXT
100
AcDbText
 10
520.6811949877008
 20
592.3311673153651
 30
0.0
 40
4.0
  1
Tag
 50
90.0
 41
0.8
  7
GREEKS
100
AcDbText
  0
TEXT
  5
81
330
1E
100
AcDbEntity
  8
TEXT
100
AcDbText
 10
520.6903890808478
 20
622.4626584226296
 30
0.0
 40
4.0
  1
Name
 50
90.0
 41
0.8
  7
GREEKS
100
AcDbText
  0
TEXT
  5
82
330
1E
100
AcDbEntity
  8
TEXT
100
AcDbText
 10
530.3700963038204
 20
567.5836127167615
 30
0.0
 40
4.0
  1
Gez.
 50
90.0
 41
0.8
  7
GREEKS
100
AcDbText
  0
TEXT
  5
83
330
1E
100
AcDbEntity
  8
TEXT
100
AcDbText
 10
540.3107370857163
 20
567.5515086571672
 30
0.0
 40
4.0
  1
Gepr.
 50
90.0
 41
0.8
  7
GREEKS
100
AcDbText
  0
TEXT
  5
84
330
1E
100
AcDbEntity
  8
TEXT
100
AcDbText
 10
550.470536103502
 20
567.6006777387303
 30
0.0
 40
4.0
  1
Norm.
 50
90.0
 41
0.8
  7
GREEKS
100
AcDbText
  0
TEXT
  5
85
330
1E
100
AcDbEntity
  8
TEXT
100
AcDbText
 10
541.925838221214
 20
757.2400861497007
 30
0.0
 40
5.0
  1
ersetzt durch:
 50
90.0
 41
0.8
  7
GREEKS
100
AcDbText
  0
TEXT
  5
86
330
1E
100
AcDbEntity
  8
TEXT
100
AcDbText
 10
521.0331740347627
 20
568.8693027807324
 30
0.0
 40
4.0
  1
2012
 50
90.0
 41
0.8
  7
GREEKS
100
AcDbText
  0
LINE
  5
87
330
1E
100
AcDbEntity
  8
HILF
100
AcDbLine
 10
594.0
 20
-0.0000000000000568
 30
0.0
 11
594.0
 21
840.0
 31
0.0
  0
LINE
  5
88
330
1E
100
AcDbEntity
  8
HILF
100
AcDbLine
 10
594.0
 20
840.0
 30
0.0
 11
0.0
 21
840.0
 31
0.0
  0
LINE
  5
89
330
1E
100
AcDbEntity
  8
HILF
100
AcDbLine
 10
0.0
 20
840.0
 30
0.0
 11
0.0
 21
0.0
 31
0.0
  0
LINE
  5
8B
330
1E
100
AcDbEntity
  8
STEMPEL
100
AcDbLine
 10
10.0
 20
830.0
 30
0.0
 11
10.0
 21
39.99999999999995
 31
0.0
  0
LINE
  5
8D
330
1E
100
AcDbEntity
  8
STEMPEL
100
AcDbLine
 10
584.0
 20
39.99999999999995
 30
0.0
 11
584.0
 21
830.0
 31
0.0
  0
LINE
  5
8E
330
1E
100
AcDbEntity
  8
STEMPEL
100
AcDbLine
 10
584.0
 20
830.0
 30
0.0
 11
10.0
 21
830.0
 31
0.0
  0
TEXT
  5
8F
330
1E
100
AcDbEntity
  8
TEXT
 62
     1
100
AcDbText
 10
506.6265692434746
 20
655.0390572473189
 30
0.0
 40
7.0
  1
Hauptentwässerung
 50
90.0
 41
0.8
  7
GREEKS
100
AcDbText
  0
TEXT
  5
90
330
1E
100
AcDbEntity
  8
TEXT
 62
     1
100
AcDbText
 10
506.6265692434746
 20
767.1961422184136
 30
0.0
 40
7.0
  1
19510070W
 50
90.0
 41
0.8
  7
GREEKS
 72
     1
 11
506.6265692434746
 21
790.1294755517469
 31
0.0
100
AcDbText
  0
TEXT
  5
91
330
1E
100
AcDbEntity
  8
TEXT
100
AcDbText
 10
491.16010388621
 20
618.5090226415829
 30
0.0
 40
5.0
  1
Zul.Abw.
 50
90.0
 41
0.8
  7
GREEKS
100
AcDbText
  0
TEXT
  5
93
330
1E
100
AcDbEntity
  8
TEXT
100
AcDbText
 10
530.8491412387978
 20
590.4612856559488
 30
0.0
 40
4.0
  1
17.08.
 50
90.0
 41
0.8
  7
GREEKS
 72
     1
 11
530.8491412387978
 21
597.1660475607107
 31
0.0
100
AcDbText
  0
TEXT
  5
94
330
1E
100
AcDbEntity
  8
TEXT
100
AcDbText
 10
531.0570234483452
 20
624.0231753226609
 30
0.0
 40
4.0
  1
Koeh
 50
90.0
 41
0.8
  7
GREEKS
 72
     1
 11
531.0570234483452
 21
629.2803181798038
 31
0.0
100
AcDbText
  0
TEXT
  5
95
330
1E
100
AcDbEntity
  8
TEXT
100
AcDbText
 10
521.8997861689246
 20
654.3410940884991
 30
0.0
 40
5.0
  1
Dachdurchführung DN70
 50
90.0
 41
0.8
  7
GREEKS
100
AcDbText
  0
TEXT
  5
96
330
1E
100
AcDbEntity
  8
TEXT
100
AcDbText
 10
531.6544091479096
 20
654.3410940884991
 30
0.0
 40
5.0
  1
Freispiegelströmung
 50
90.0
 41
0.8
  7
GREEKS
100
AcDbText
  0
TEXT
  5
97
330
1E
100
AcDbEntity
  8
TEXT
100
AcDbText
 10
541.4090266215394
 20
654.3410940884991
 30
0.0
 40
5.0
  1
EDV-Art.Nr. 19510.070X
 50
90.0
 41
0.8
  7
GREEKS
100
AcDbText
  0
TEXT
  5
98
330
1E
100
AcDbEntity
  8
TEXT
100
AcDbText
 10
550.6887237520849
 20
654.1676050109347
 30
0.0
 40
4.0
  1
19510070W.DWG
 50
90.0
 41
0.8
  7
GREEKS
100
AcDbText
  0
TEXT
  5
99
330
1E
100
AcDbEntity
  8
TEXT
 62
     1
100
AcDbText
 10
506.5292291158502
 20
582.703491203422
 30
0.0
 40
7.0
  1
1:2
 50
90.0
 41
0.8
  7
GREEKS
100
AcDbText
  0
TEXT
  5
9A
330
1E
100
AcDbEntity
  8
TEXT
100
AcDbText
 10
479.8856414948956
 20
470.0441139350127
 30
0.0
 40
5.0
  1
Erstellt mit AUTOCAD 2004
 50
90.0
 41
0.8
  7
GREEKS
100
AcDbText
  0
INSERT
  5
9B
330
1E
100
AcDbEntity
  8
HILF
100
AcDbBlockReference
  2
LORO
 10
557.0194069970104
 20
573.0624985962354
 30
0.0
 41
2.0
 42
2.0
 43
2.0
 50
90.0
  0
LINE
  5
9C
330
1E
100
AcDbEntity
  8
BEM
100
AcDbLine
 10
594.0
 20
455.9999999999999
 30
0.0
 11
584.0
 21
455.9999999999999
 31
0.0
  0
LINE
  5
13E
330
1E
100
AcDbEntity
  8
HILF
100
AcDbLine
 10
594.0
 20
-0.0000000000000568
 30
0.0
 11
0.0
 21
0.0
 31
0.0
  0
LINE
  5
13F
330
1E
100
AcDbEntity
  8
STEMPEL
100
AcDbLine
 10
584.0
 20
39.99999999999995
 30
0.0
 11
10.0
 21
39.99999999999995
 31
0.0
  0
LINE
  5
14A
330
1E
100
AcDbEntity
  8
HILF
100
AcDbLine
 10
297.0
 20
-0.0000000000000568
 30
0.0
 11
297.0
 21
39.99999999999995
 31
0.0
  0
TEXT
  5
15B
330
1E
100
AcDbEntity
  8
BEM
100
AcDbText
 10
583.8320989200114
 20
837.3022923857165
 30
0.0
 40
4.0
  1
Diese Zeichnung ist urheberrechtlich geschützt und bleibt unser Eigentum. Sie darf weder ganz noch teilweise verfielfältigt und nicht an Dritte weitergegeben werden.
 50
180.0
 41
0.8
  7
GREEKS
100
AcDbText
  0
LINE
  5
19C
330
1E
100
AcDbEntity
  8
BEM
100
AcDbLine
 10
0.0
 20
455.9999999999999
 30
0.0
 11
10.0
 21
455.9999999999999
 31
0.0
  0
HATCH
  5
202
330
1E
100
AcDbEntity
  8
SCHRAFF
100
AcDbHatch
 10
0.0
 20
0.0
 30
0.0
210
0.0
220
0.0
230
1.0
  2
_USER
 70
     0
 71
     1
 91
        3
 92
        7
 72
     0
 73
     1
 93
        4
 10
277.8623967548035
 20
481.7218120588215
 10
275.3623967548035
 20
481.7218120588216
 10
275.3623967548035
 20
313.721812058822
 10
277.8623967548033
 20
313.721812058822
 97
        4
330
212
330
227
330
238
330
229
 92
        7
 72
     0
 73
     1
 93
        4
 10
144.8623967548034
 20
475.721812058822
 10
147.362396754803
 20
475.7218120588218
 10
147.362396754803
 20
481.7218120588223
 10
144.8623967548034
 20
481.7218120588222
 97
        4
330
218
330
22A
330
204
330
228
 92
        7
 72
     0
 73
     1
 93
        4
 10
144.8623967548035
 20
313.7218120588219
 10
147.3623967548033
 20
313.7218120588219
 10
147.3623967548031
 20
467.7218120588221
 10
144.8623967548034
 20
467.7218120588221
 97
        4
330
203
330
22A
330
236
330
228
 75
     0
 76
     0
 52
45.0
 41
2.0
 77
     0
 78
     1
 53
45.0
 43
-31.09745053311121
 44
-44.10279706622168
 45
-1.414213562373094
 46
1.414213562373095
 79
     0
 47
0.3997193384108138
 98
        3
 10
276.7688515897962
 20
460.7786190680474
 10
145.9840056841681
 20
479.5654280568171
 10
145.5840519052412
 20
463.9763739661032
  0
LINE
  5
203
102
{ACAD_REACTORS
330
202
102
}
330
1E
100
AcDbEntity
  8
STEMPEL
100
AcDbLine
 10
144.8623967548033
 20
467.721812058822
 30
0.0
 11
147.362396754803
 21
467.721812058822
 31
0.0
  0
LINE
  5
204
102
{ACAD_REACTORS
330
202
102
}
330
1E
100
AcDbEntity
  8
STEMPEL
100
AcDbLine
 10
144.8623967548034
 20
475.721812058822
 30
0.0
 11
147.3623967548031
 21
475.7218120588218
 31
0.0
  0
LINE
  5
205
330
1E
100
AcDbEntity
  8
MITTEL
100
AcDbLine
 10
139.8623967548034
 20
471.7218120588221
 30
0.0
 11
152.3623967548031
 21
471.7218120588221
 31
0.0
  0
HATCH
  5
206
330
1E
100
AcDbEntity
  8
SCHRAFF
100
AcDbHatch
 10
0.0
 20
0.0
 30
0.0
210
0.0
220
0.0
230
1.0
  2
HONEY
 70
     0
 71
     0
 91
        2
 92
        7
 72
     1
 73
     1
 93
       14
 10
250.9623967548034
 20
434.1105384762388
 42
-0.1420008527982423
 10
249.1023967548032
 20
427.693342827047
 42
0.1420008527982095
 10
247.8623967548035
 20
423.4152123942533
 42
0.0
 10
247.8623967548035
 20
418.7218120588219
 42
0.0
 10
247.8623967548035
 20
313.7218120588216
 42
0.0
 10
275.3623967548035
 20
313.721812058822
 42
0.0
 10
275.3623967548035
 20
481.7218120588215
 42
0.0
 10
270.182253794057
 20
481.7218120588217
 42
0.1631698085036985
 10
265.36003300382
 20
480.1050860346282
 42
0.0
 10
256.6540337427068
 20
473.5281709913692
 42
-0.2998834064588066
 10
253.4623967548035
 20
467.1170605962511
 42
0.0
 10
253.4623967548035
 20
464.1600921070127
 42
-0.0933817694259081
 10
251.7732357632454
 20
455.0580173474347
 42
0.0926930603363688
 10
250.9623967548034
 20
450.7218120588216
 42
0.0
 97
        0
 92
        7
 72
     1
 73
     1
 93
       14
 10
171.7623967548036
 20
450.7218120588219
 42
0.0926930603363573
 10
170.9515577463617
 20
455.0580173474345
 42
-0.0933817694259112
 10
169.2623967548035
 20
464.1600921070127
 42
0.0
 10
169.2623967548035
 20
467.1170605962511
 42
-0.2998834064588109
 10
166.0707597669002
 20
473.5281709913693
 42
0.0
 10
157.364760505786
 20
480.1050860346289
 42
0.1631698085036939
 10
152.5425397155492
 20
481.7218120588223
 42
0.0
 10
147.362396754803
 20
481.7218120588222
 42
0.0
 10
147.3623967548033
 20
313.7218120588219
 42
0.0
 10
174.8623967548034
 20
313.7218120588219
 42
0.0
 10
174.8623967548035
 20
418.7218120588219
 42
0.0
 10
174.8623967548035
 20
423.4152123942533
 42
0.142000852798229
 10
173.6223967548035
 20
427.6933428270474
 42
-0.1420008527982294
 10
171.7623967548036
 20
434.1105384762388
 42
0.0
 97
        0
 75
     0
 76
     1
 52
0.0
 41
30.0
 77
     0
 78
     3
 53
0.0
 43
-31.09745053311121
 44
-44.10279706622168
 45
5.625
 46
3.247595249999999
 79
     2
 49
3.75
 49
-7.5
 53
120.0
 43
-31.09745053311121
 44
-44.10279706622168
 45
-5.624999987709673
 46
3.247595271287468
 79
     2
 49
3.749999999999997
 49
-7.499999999999995
 53
60.0
 43
-31.09745053311121
 44
-44.10279706622168
 45
0.0000000122903263
 46
6.495190521287468
 79
     2
 49
-7.5
 49
3.75
 47
0.3068657319793311
 98
        2
 10
257.8239930415639
 20
440.7846809723516
 10
163.5609881749983
 20
443.2396071906477
  0
HATCH
  5
207
330
1E
100
AcDbEntity
  8
SCHRAFF
100
AcDbHatch
 10
0.0
 20
0.0
 30
0.0
210
0.0
220
0.0
230
1.0
  2
_USER
 70
     0
 71
     0
 91
        2
 92
        7
 72
     1
 73
     1
 93
        9
 10
284.8623967548035
 20
483.7218120588221
 42
0.0
 10
270.1822537940568
 20
483.7218120588221
 42
0.1631698085036865
 10
264.1544778062612
 20
481.7009045285796
 42
0.0
 10
253.4583878501487
 20
473.6205828071407
 42
-0.0044772007862615
 10
253.4623967548035
 20
473.1728896517011
 42
0.0
 10
253.4623967548035
 20
471.1170605962508
 42
0.0
 10
265.36003300382
 20
480.1050860346282
 42
-0.1631698085036958
 10
270.1822537940569
 20
481.7218120588217
 42
0.0
 10
284.8623967548036
 20
481.7218120588213
 42
0.0
 97
        0
 92
        7
 72
     1
 73
     1
 93
        9
 10
152.5425397155494
 20
483.7218120588219
 42
0.0
 10
137.8623967548035
 20
483.7218120588219
 42
0.0
 10
137.8623967548035
 20
481.7218120588221
 42
0.0
 10
152.5425397155492
 20
481.7218120588223
 42
-0.163169808503695
 10
157.364760505786
 20
480.1050860346289
 42
0.0
 10
169.2623967548034
 20
471.1170605962511
 42
0.0
 10
169.2623967548035
 20
473.1728896517032
 42
-0.0044772007862411
 10
169.2664056594583
 20
473.6205828071408
 42
0.0
 10
158.5703157033448
 20
481.7009045285804
 42
0.1631698085036768
 97
        0
 75
     0
 76
     0
 52
135.0
 41
2.0
 77
     0
 78
     1
 53
135.0
 43
-31.09745053311121
 44
-44.10279706622168
 45
-1.414213562373095
 46
-1.414213562373094
 79
     0
 47
0.2086059506772832
 98
        2
 10
271.2341426698385
 20
482.9135607986809
 10
147.4582984065828
 20
482.2877432232647
  0
ARC
  5
208
330
1E
100
AcDbEntity
  8
STEMPEL
100
AcDbCircle
 10
270.1822537940568
 20
473.7218120588217
 30
0.0
 40
10.0
100
AcDbArc
 50
89.99999999999836
 51
127.0690885914663
  0
ARC
  5
209
330
1E
100
AcDbEntity
  8
STEMPEL
100
AcDbCircle
 10
270.1822537940568
 20
473.7218120588217
 30
0.0
 40
8.0
100
AcDbArc
 50
89.99999999999836
 51
127.0690885914663
  0
ARC
  5
20A
330
1E
100
AcDbEntity
  8
STEMPEL
100
AcDbCircle
 10
152.5425397155494
 20
473.7218120588223
 30
0.0
 40
10.0
100
AcDbArc
 50
52.93091140853372
 51
90.0
  0
ARC
  5
20B
330
1E
100
AcDbEntity
  8
STEMPEL
100
AcDbCircle
 10
152.5425397155494
 20
473.7218120588223
 30
0.0
 40
8.0
100
AcDbArc
 50
52.93091140853372
 51
90.0
  0
HATCH
  5
20C
330
1E
100
AcDbEntity
  8
SCHRAFF
100
AcDbHatch
 10
0.0
 20
0.0
 30
0.0
210
0.0
220
0.0
230
1.0
  2
_USER
 70
     0
 71
     1
 91
        2
 92
        7
 72
     1
 73
     1
 93
        3
 10
256.6540337427068
 20
473.5281709913691
 42
0.0
 10
253.4623967548035
 20
471.1170605962508
 42
0.0
 10
253.4623967548035
 20
467.117060596251
 42
0.2998834064588066
 97
        3
330
216
330
23B
330
20F
 92
        7
 72
     1
 73
     1
 93
        3
 10
169.2623967548035
 20
467.1170605962511
 42
0.0
 10
169.2623967548035
 20
471.1170605962512
 42
0.0
 10
166.0707597669002
 20
473.5281709913694
 42
0.2998834064588135
 97
        3
330
213
330
20E
330
23C
 75
     0
 76
     0
 52
0.0
 41
0.1
 77
     0
 78
     1
 53
0.0
 43
-31.09745053311121
 44
-44.10279706622168
 45
0.0
 46
0.1
 79
     0
 47
0.2274629837458944
 98
        2
 10
255.0523968990165
 20
470.0118134222138
 10
167.6554069936283
 20
469.556887492876
  0
HATCH
  5
20D
330
1E
100
AcDbEntity
  8
SCHRAFF
100
AcDbHatch
 10
0.0
 20
0.0
 30
0.0
210
0.0
220
0.0
230
1.0
  2
_USER
 70
     0
 71
     1
 91
        2
 92
        7
 72
     1
 73
     1
 93
        3
 10
277.8623967548035
 20
481.7218120588214
 42
0.0
 10
277.8623967548035
 20
477.7218120588215
 42
0.4142135623730825
 10
281.8623967548035
 20
481.7218120588214
 42
0.0
 97
        3
330
212
330
229
330
211
 92
        7
 72
     1
 73
     1
 93
        3
 10
144.8623967548034
 20
481.7218120588222
 42
0.0
 10
140.8623967548035
 20
481.7218120588221
 42
0.4142135623731326
 10
144.8623967548034
 20
477.7218120588215
 42
0.0
 97
        3
330
218
330
210
330
22A
 75
     0
 76
     0
 52
0.0
 41
0.1
 77
     0
 78
     1
 53
0.0
 43
-31.09745053311121
 44
-44.10279706622168
 45
0.0
 46
0.1
 79
     0
 47
0.2274629837458944
 98
        2
 10
279.6327991315143
 20
480.7025734531939
 10
143.3026010780982
 20
480.0201852507257
  0
ARC
  5
20E
102
{ACAD_REACTORS
330
20C
102
}
330
1E
100
AcDbEntity
  8
SCHRAFF
100
AcDbCircle
 10
172.5306010303514
 20
472.7440676210879
 30
0.0
 40
6.507254969975695
100
AcDbArc
 50
173.0792250934943
 51
239.8516863150415
  0
ARC
  5
20F
102
{ACAD_REACTORS
330
20C
102
}
330
1E
100
AcDbEntity
  8
SCHRAFF
100
AcDbCircle
 10
250.1941924792556
 20
472.7440676210879
 30
0.0
 40
6.507254969975695
100
AcDbArc
 50
300.1483136849585
 51
6.920774906505684
  0
ARC
  5
210
102
{ACAD_REACTORS
330
20D
102
}
330
1E
100
AcDbEntity
  8
SCHRAFF
100
AcDbCircle
 10
144.8623967548035
 20
481.7218120588215
 30
0.0
 40
4.0
100
AcDbArc
 50
180.0000000000032
 51
270.0
  0
ARC
  5
211
102
{ACAD_REACTORS
330
20D
102
}
330
1E
100
AcDbEntity
  8
SCHRAFF
100
AcDbCircle
 10
277.8623967548035
 20
481.7218120588215
 30
0.0
 40
4.0
100
AcDbArc
 50
270.0
 51
359.9999999999968
  0
LINE
  5
212
102
{ACAD_REACTORS
330
20D
330
202
102
}
330
1E
100
AcDbEntity
  8
STEMPEL
100
AcDbLine
 10
270.182253794057
 20
481.7218120588217
 30
0.0
 11
284.8623967548035
 21
481.7218120588213
 31
0.0
  0
LINE
  5
213
102
{ACAD_REACTORS
330
20C
102
}
330
1E
100
AcDbEntity
  8
STEMPEL
100
AcDbLine
 10
169.2623967548035
 20
471.1170605962511
 30
0.0
 11
157.364760505786
 21
480.1050860346289
 31
0.0
  0
LINE
  5
214
330
1E
100
AcDbEntity
  8
STEMPEL
100
AcDbLine
 10
169.2664056594583
 20
473.6205828071408
 30
0.0
 11
158.5703157033448
 21
481.7009045285804
 31
0.0
  0
LINE
  5
215
330
1E
100
AcDbEntity
  8
STEMPEL
100
AcDbLine
 10
253.4583878501487
 20
473.6205828071407
 30
0.0
 11
264.1544778062612
 21
481.7009045285796
 31
0.0
  0
LINE
  5
216
102
{ACAD_REACTORS
330
20C
102
}
330
1E
100
AcDbEntity
  8
STEMPEL
100
AcDbLine
 10
253.4623967548035
 20
471.1170605962508
 30
0.0
 11
265.36003300382
 21
480.1050860346282
 31
0.0
  0
LINE
  5
217
330
1E
100
AcDbEntity
  8
STEMPEL
100
AcDbLine
 10
284.8623967548035
 20
483.721812058822
 30
0.0
 11
284.8623967548035
 21
481.7218120588213
 31
0.0
  0
LINE
  5
218
102
{ACAD_REACTORS
330
20D
330
202
102
}
330
1E
100
AcDbEntity
  8
STEMPEL
100
AcDbLine
 10
137.8623967548035
 20
481.7218120588221
 30
0.0
 11
152.5425397155492
 21
481.7218120588223
 31
0.0
  0
LINE
  5
219
330
1E
100
AcDbEntity
  8
STEMPEL
100
AcDbLine
 10
144.8623967548034
 20
403.7218120588216
 30
0.0
 11
93.03111777101618
 21
403.7218120588219
 31
0.0
  0
LINE
  5
21A
102
{ACAD_REACTORS
330
24E
102
}
330
1E
100
AcDbEntity
  8
STEMPEL
100
AcDbLine
 10
88.86239675480352
 20
408.7218120588219
 30
0.0
 11
93.03111777101618
 21
403.7218120588217
 31
0.0
  0
LINE
  5
21B
102
{ACAD_REACTORS
330
24E
102
}
330
1E
100
AcDbEntity
  8
STEMPEL
100
AcDbLine
 10
93.03111777101618
 20
403.7218120588217
 30
0.0
 11
144.8623967548034
 21
407.3013228609168
 31
0.0
  0
LINE
  5
21C
102
{ACAD_REACTORS
330
24E
102
}
330
1E
100
AcDbEntity
  8
STEMPEL
100
AcDbLine
 10
93.91283205662171
 20
405.7874676974039
 30
0.0
 11
144.8623967548034
 21
409.3060865849723
 31
0.0
  0
LINE
  5
21D
102
{ACAD_REACTORS
330
24E
102
}
330
1E
100
AcDbEntity
  8
STEMPEL
100
AcDbLine
 10
90.39852886698122
 20
410.0025533027648
 30
0.0
 11
93.91283205662171
 21
405.7874676974039
 31
0.0
  0
LINE
  5
21E
102
{ACAD_REACTORS
330
24E
102
}
330
1E
100
AcDbEntity
  8
STEMPEL
100
AcDbLine
 10
88.86239675480352
 20
408.7218120588219
 30
0.0
 11
90.39852886698122
 21
410.0025533027648
 31
0.0
  0
LINE
  5
21F
330
1E
100
AcDbEntity
  8
STEMPEL
100
AcDbLine
 10
90.39852886698122
 20
410.0025533027648
 30
0.0
 11
144.8623967548035
 21
410.0025533027648
 31
0.0
  0
LINE
  5
220
330
1E
100
AcDbEntity
  8
STEMPEL
100
AcDbLine
 10
332.3262646426256
 20
410.0025533027648
 30
0.0
 11
277.8623967548035
 21
410.0025533027648
 31
0.0
  0
LINE
  5
221
102
{ACAD_REACTORS
330
24E
102
}
330
1E
100
AcDbEntity
  8
STEMPEL
100
AcDbLine
 10
333.8623967548033
 20
408.7218120588219
 30
0.0
 11
332.3262646426256
 21
410.0025533027648
 31
0.0
  0
LINE
  5
222
102
{ACAD_REACTORS
330
24E
102
}
330
1E
100
AcDbEntity
  8
STEMPEL
100
AcDbLine
 10
332.3262646426256
 20
410.0025533027648
 30
0.0
 11
328.8119614529851
 21
405.7874676974039
 31
0.0
  0
LINE
  5
223
102
{ACAD_REACTORS
330
24E
102
}
330
1E
100
AcDbEntity
  8
STEMPEL
100
AcDbLine
 10
328.8119614529851
 20
405.7874676974039
 30
0.0
 11
277.8623967548035
 21
409.306086584972
 31
0.0
  0
LINE
  5
224
102
{ACAD_REACTORS
330
24E
102
}
330
1E
100
AcDbEntity
  8
STEMPEL
100
AcDbLine
 10
329.6936757385906
 20
403.7218120588217
 30
0.0
 11
277.8623967548035
 21
407.3013228609166
 31
0.0
  0
LINE
  5
225
102
{ACAD_REACTORS
330
24E
102
}
330
1E
100
AcDbEntity
  8
STEMPEL
100
AcDbLine
 10
333.8623967548033
 20
408.7218120588219
 30
0.0
 11
329.6936757385906
 21
403.7218120588217
 31
0.0
  0
LINE
  5
226
330
1E
100
AcDbEntity
  8
STEMPEL
100
AcDbLine
 10
277.8623967548035
 20
403.7218120588216
 30
0.0
 11
329.6936757385906
 21
403.7218120588219
 31
0.0
  0
LINE
  5
227
102
{ACAD_REACTORS
330
202
102
}
330
1E
100
AcDbEntity
  8
STEMPEL
100
AcDbLine
 10
275.3623967548035
 20
481.7218120588218
 30
0.0
 11
275.3623967548035
 21
313.721812058822
 31
0.0
  0
LINE
  5
228
102
{ACAD_REACTORS
330
202
102
}
330
1E
100
AcDbEntity
  8
STEMPEL
100
AcDbLine
 10
147.362396754803
 20
481.7218120588225
 30
0.0
 11
147.3623967548033
 21
313.721812058822
 31
0.0
  0
LINE
  5
229
102
{ACAD_REACTORS
330
20D
330
24E
330
202
102
}
330
1E
100
AcDbEntity
  8
STEMPEL
100
AcDbLine
 10
277.8623967548035
 20
481.7218120588218
 30
0.0
 11
277.8623967548034
 21
313.721812058822
 31
0.0
  0
LINE
  5
22A
102
{ACAD_REACTORS
330
20D
330
24E
330
202
102
}
330
1E
100
AcDbEntity
  8
STEMPEL
100
AcDbLine
 10
144.8623967548034
 20
481.7218120588222
 30
0.0
 11
144.8623967548035
 21
313.721812058822
 31
0.0
  0
LINE
  5
22B
330
1E
100
AcDbEntity
  8
STEMPEL
100
AcDbLine
 10
247.8623967548033
 20
181.6344901730064
 30
0.0
 11
247.1701271216825
 21
173.7218120588219
 31
0.0
  0
LINE
  5
22C
330
1E
100
AcDbEntity
  8
STEMPEL
100
AcDbLine
 10
174.862396754803
 20
181.6344901730045
 30
0.0
 11
175.5546663879237
 21
173.7218120588219
 31
0.0
  0
LINE
  5
22D
330
1E
100
AcDbEntity
  8
HILF
100
AcDbLine
 10
244.6578129497515
 20
181.721812058822
 30
0.0
 11
178.0669805598551
 21
181.7218120588219
 31
0.0
  0
LINE
  5
22E
330
1E
100
AcDbEntity
  8
STEMPEL
100
AcDbLine
 10
137.8623967548035
 20
483.7218120588219
 30
0.0
 11
173.3750743785727
 21
483.7218120588219
 31
0.0
  0
LINE
  5
22F
330
1E
100
AcDbEntity
  8
STEMPEL
100
AcDbLine
 10
247.1701271216825
 20
173.7218120588219
 30
0.0
 11
175.5546663879237
 21
173.7218120588219
 31
0.0
  0
LINE
  5
231
330
1E
100
AcDbEntity
  8
MITTEL
100
AcDbLine
 10
211.3623967548039
 20
679.7218120588212
 30
0.0
 11
211.3623967548033
 21
160.5471131725855
 31
0.0
  0
ARC
  5
232
330
1E
100
AcDbEntity
  8
SCHRAFF
100
AcDbCircle
 10
277.8623967548035
 20
409.2884676533729
 30
0.0
 40
4.0
100
AcDbArc
 50
356.0493790177096
 51
90.0
  0
HATCH
  5
233
330
1E
100
AcDbEntity
  8
SCHRAFF
100
AcDbHatch
 10
0.0
 20
0.0
 30
0.0
210
0.0
220
0.0
230
1.0
  2
_USER
 70
     0
 71
     0
 91
        2
 92
        7
 72
     1
 73
     1
 93
        3
 10
277.8623967548035
 20
413.2884676533729
 42
0.0
 10
277.8623967548035
 20
410.8827250747634
 42
0.0
 10
281.5309582268715
 20
410.8827250747634
 42
0.2986429617831959
 97
        0
 92
        7
 72
     1
 73
     1
 93
        4
 10
281.5309582268715
 20
410.8827250747634
 42
0.0
 10
277.8623967548035
 20
410.8827250747634
 42
0.0
 10
277.8623967548035
 20
409.2884676533729
 42
0.0
 10
281.8528919458359
 20
409.0128807698913
 42
0.1203009333247398
 97
        0
 75
     0
 76
     0
 52
0.0
 41
0.1
 77
     0
 78
     1
 53
0.0
 43
527.2154373201576
 44
72.20608658497202
 45
0.0
 46
0.1
 79
     0
 47
0.0383984663424806
 98
        2
 10
279.2661788157714
 20
411.7956748033646
 10
279.1509003998601
 20
410.3365326488659
  0
ARC
  5
234
330
1E
100
AcDbEntity
  8
SCHRAFF
100
AcDbCircle
 10
144.8623967548033
 20
409.2884676533733
 30
0.0
 40
4.0
100
AcDbArc
 50
90.0
 51
183.950620982292
  0
HATCH
  5
235
330
1E
100
AcDbEntity
  8
SCHRAFF
100
AcDbHatch
 10
0.0
 20
0.0
 30
0.0
210
0.0
220
0.0
230
1.0
  2
_USER
 70
     0
 71
     0
 91
        2
 92
        7
 72
     1
 73
     1
 93
        3
 10
144.8623967548034
 20
413.2884676533733
 42
0.2986429617832101
 10
141.1938352827353
 20
410.8827250747638
 42
0.0
 10
144.8623967548034
 20
410.8827250747638
 42
0.0
 97
        0
 92
        7
 72
     1
 73
     1
 93
        4
 10
144.8623967548033
 20
410.8827250747638
 42
0.0
 10
141.1938352827353
 20
410.8827250747638
 42
0.1203009333247314
 10
140.8719015637709
 20
409.0128807698916
 42
0.0
 10
144.8623967548034
 20
409.2884676533733
 42
0.0
 97
        0
 75
     0
 76
     0
 52
0.0
 41
0.1
 77
     0
 78
     1
 53
0.0
 43
553.2154373201572
 44
72.20608658497235
 45
0.0
 46
0.1
 79
     0
 47
0.0566687623636543
 98
        2
 10
143.8007881339271
 20
412.0100651039731
 10
142.7799881949376
 20
409.9133198413253
  0
LINE
  5
236
102
{ACAD_REACTORS
330
202
102
}
330
1E
100
AcDbEntity
  8
STEMPEL
100
AcDbLine
 10
144.8623967548035
 20
313.7218120588219
 30
0.0
 11
174.8623967548035
 21
313.721812058822
 31
0.0
  0
LINE
  5
238
102
{ACAD_REACTORS
330
202
102
}
330
1E
100
AcDbEntity
  8
STEMPEL
100
AcDbLine
 10
247.8623967548035
 20
313.7218120588216
 30
0.0
 11
277.8623967548035
 21
313.721812058822
 31
0.0
  0
LINE
  5
239
330
1E
100
AcDbEntity
  8
STEMPEL
100
AcDbLine
 10
247.8623967548035
 20
423.4152123942533
 30
0.0
 11
247.8623967548033
 21
181.634490173006
 31
0.0
  0
LINE
  5
23A
330
1E
100
AcDbEntity
  8
STEMPEL
100
AcDbLine
 10
174.8623967548035
 20
423.4152123942533
 30
0.0
 11
174.8623967548034
 21
181.6344901730006
 31
0.0
  0
LINE
  5
23B
102
{ACAD_REACTORS
330
20C
102
}
330
1E
100
AcDbEntity
  8
STEMPEL
100
AcDbLine
 10
253.4623967548035
 20
473.1728896517032
 30
0.0
 11
253.4623967548035
 21
464.1600921070127
 31
0.0
  0
LINE
  5
23C
102
{ACAD_REACTORS
330
20C
102
}
330
1E
100
AcDbEntity
  8
STEMPEL
100
AcDbLine
 10
169.2623967548035
 20
473.1728896517032
 30
0.0
 11
169.2623967548035
 21
464.1600921070127
 31
0.0
  0
LINE
  5
23E
330
1E
100
AcDbEntity
  8
HILF
100
AcDbLine
 10
177.7388667703922
 20
426.0877392884117
 30
0.0
 11
244.9859267392149
 21
426.0877392884117
 31
0.0
  0
LINE
  5
23F
330
1E
100
AcDbEntity
  8
STEMPEL
100
AcDbLine
 10
171.7623967548036
 20
450.7218120588219
 30
0.0
 11
171.7623967548036
 21
434.1105384762388
 31
0.0
  0
ARC
  5
240
330
1E
100
AcDbEntity
  8
STEMPEL
100
AcDbCircle
 10
166.8623967548035
 20
423.4152123942533
 30
0.0
 40
8.0
100
AcDbArc
 50
0.0
 51
32.32806412216308
  0
ARC
  5
242
330
1E
100
AcDbEntity
  8
STEMPEL
100
AcDbCircle
 10
183.7623967548035
 20
434.1105384762388
 30
0.0
 40
12.0
100
AcDbArc
 50
180.0
 51
212.3280641221631
  0
ARC
  5
243
330
1E
100
AcDbEntity
  8
STEMPEL
100
AcDbCircle
 10
159.7623967548036
 20
450.7218120588219
 30
0.0
 40
12.0
100
AcDbArc
 50
0.0
 51
21.18315439303489
  0
ARC
  5
244
330
1E
100
AcDbEntity
  8
STEMPEL
100
AcDbCircle
 10
194.2623967548035
 20
464.0918120588219
 30
0.0
 40
25.00009324312574
100
AcDbArc
 50
179.8435140456461
 51
201.1831543930349
  0
LINE
  5
245
330
1E
100
AcDbEntity
  8
STEMPEL
100
AcDbLine
 10
250.9623967548034
 20
450.7218120588219
 30
0.0
 11
250.9623967548034
 21
434.1105384762388
 31
0.0
  0
ARC
  5
246
330
1E
100
AcDbEntity
  8
STEMPEL
100
AcDbCircle
 10
255.8623967548035
 20
423.4152123942533
 30
0.0
 40
8.0
100
AcDbArc
 50
147.6719358778369
 51
180.0
  0
ARC
  5
248
330
1E
100
AcDbEntity
  8
STEMPEL
100
AcDbCircle
 10
238.9623967548035
 20
434.1105384762388
 30
0.0
 40
12.0
100
AcDbArc
 50
327.6719358778347
 51
0.0
  0
ARC
  5
249
330
1E
100
AcDbEntity
  8
STEMPEL
100
AcDbCircle
 10
262.9623967548034
 20
450.7218120588219
 30
0.0
 40
12.0
100
AcDbArc
 50
158.8168456069651
 51
180.0
  0
ARC
  5
24A
330
1E
100
AcDbEntity
  8
STEMPEL
100
AcDbCircle
 10
228.4623967548035
 20
464.0918120588219
 30
0.0
 40
25.00009324312574
100
AcDbArc
 50
338.8168456069651
 51
0.1564859543538863
  0
ARC
  5
24B
330
1E
100
AcDbEntity
  8
STEMPEL
100
AcDbCircle
 10
194.2623967548035
 20
473.1728896517032
 30
0.0
 40
25.0
100
AcDbArc
 50
155.0418036876905
 51
180.0
  0
ARC
  5
24C
330
1E
100
AcDbEntity
  8
STEMPEL
100
AcDbCircle
 10
228.4623967548035
 20
473.1728896517032
 30
0.0
 40
25.0
100
AcDbArc
 50
0.0
 51
24.95819631230223
  0
HATCH
  5
24E
330
1E
100
AcDbEntity
  8
SCHRAFF
100
AcDbHatch
 10
0.0
 20
0.0
 30
0.0
210
0.0
220
0.0
230
1.0
  2
_U
 70
     0
 71
     1
 91
        2
 92
        7
 72
     0
 73
     1
 93
        6
 10
93.91283205662173
 20
405.7874676974038
 10
90.39852886698124
 20
410.0025533027648
 10
88.86239675480352
 20
408.7218120588218
 10
93.03111777101614
 20
403.7218120588216
 10
144.8623967548035
 20
407.3013228609168
 10
144.8623967548034
 20
409.3060865849723
 97
        6
330
22A
330
21C
330
21D
330
21E
330
21A
330
21B
 92
        7
 72
     0
 73
     1
 93
        6
 10
277.8623967548035
 20
409.3060865849721
 10
277.8623967548035
 20
407.3013228609167
 10
329.6936757385907
 20
403.7218120588218
 10
333.8623967548033
 20
408.7218120588218
 10
332.3262646426256
 20
410.0025533027649
 10
328.8119614529851
 20
405.7874676974038
 97
        6
330
229
330
224
330
225
330
221
330
222
330
223
 75
     0
 76
     0
 52
135.0
 41
2.0
 77
     0
 78
     1
 53
135.0
 43
-20.74358773578729
 44
-44.10279706622168
 45
-1.414213562373095
 46
-1.414213562373094
 79
     0
 47
0.2672477887170033
 98
        2
 10
119.1076401537473
 20
406.830046671886
 10
301.5164642843695
 20
406.830046671886
  0
LINE
  5
24F
330
1E
100
AcDbEntity
  8
STEMPEL
100
AcDbLine
 10
137.8623967548035
 20
483.7218120588219
 30
0.0
 11
137.8623967548035
 21
481.7218120588221
 31
0.0
  0
LINE
  5
250
330
1E
100
AcDbEntity
  8
STEMPEL
100
AcDbLine
 10
176.4623967548035
 20
423.4152123942533
 30
0.0
 11
176.4623967548033
 21
181.7043476816546
 31
0.0
  0
LINE
  5
251
330
1E
100
AcDbEntity
  8
STEMPEL
100
AcDbLine
 10
176.4623967548033
 20
181.7043476816546
 30
0.0
 11
177.1607781279931
 21
173.7218120588219
 31
0.0
  0
ARC
  5
253
330
1E
100
AcDbEntity
  8
STEMPEL
100
AcDbCircle
 10
166.8623967548035
 20
423.4152123942533
 30
0.0
 40
9.599999999999999
100
AcDbArc
 50
0.0
 51
32.32806412216308
  0
ARC
  5
254
330
1E
100
AcDbEntity
  8
STEMPEL
100
AcDbCircle
 10
183.7623967548035
 20
434.1105384762388
 30
0.0
 40
10.4
100
AcDbArc
 50
180.0
 51
212.3280641221631
  0
LINE
  5
255
330
1E
100
AcDbEntity
  8
STEMPEL
100
AcDbLine
 10
173.3623967548036
 20
450.7218120588219
 30
0.0
 11
173.3623967548036
 21
434.1105384762388
 31
0.0
  0
ARC
  5
256
330
1E
100
AcDbEntity
  8
STEMPEL
100
AcDbCircle
 10
159.7623967548036
 20
450.7218120588219
 30
0.0
 40
13.6
100
AcDbArc
 50
0.0
 51
21.18315439303489
  0
ARC
  5
25A
330
1E
100
AcDbEntity
  8
STEMPEL
100
AcDbCircle
 10
194.2623967548035
 20
464.0918120588219
 30
0.0
 40
23.40009324312573
100
AcDbArc
 50
179.8435140456461
 51
201.1831543930349
  0
LINE
  5
25B
330
1E
100
AcDbEntity
  8
STEMPEL
100
AcDbLine
 10
170.8623967548034
 20
473.1728896517032
 30
0.0
 11
170.8623967548034
 21
464.1600921070127
 31
0.0
  0
ARC
  5
25C
330
1E
100
AcDbEntity
  8
STEMPEL
100
AcDbCircle
 10
194.2623967548035
 20
473.1728896517032
 30
0.0
 40
23.4
100
AcDbArc
 50
153.2044220687675
 51
180.0
  0
LINE
  5
25E
330
1E
100
AcDbEntity
  8
STEMPEL
100
AcDbLine
 10
246.2623967548033
 20
181.7043476816544
 30
0.0
 11
245.5640153816135
 21
173.7218120588218
 31
0.0
  0
LINE
  5
25F
330
1E
100
AcDbEntity
  8
STEMPEL
100
AcDbLine
 10
246.262396754804
 20
423.4152123942531
 30
0.0
 11
246.2623967548033
 21
181.7043476816544
 31
0.0
  0
ARC
  5
260
330
1E
100
AcDbEntity
  8
STEMPEL
100
AcDbCircle
 10
255.8623967548036
 20
423.4152123942533
 30
0.0
 40
9.599999999999999
100
AcDbArc
 50
147.6719358778369
 51
180.0
  0
ARC
  5
263
330
1E
100
AcDbEntity
  8
STEMPEL
100
AcDbCircle
 10
238.9623967548037
 20
434.1105384762388
 30
0.0
 40
10.4
100
AcDbArc
 50
327.671935877837
 51
0.000000000000007
  0
LINE
  5
264
330
1E
100
AcDbEntity
  8
STEMPEL
100
AcDbLine
 10
249.3623967548035
 20
450.7218120588219
 30
0.0
 11
249.3623967548035
 21
434.1105384762388
 31
0.0
  0
ARC
  5
266
330
1E
100
AcDbEntity
  8
STEMPEL
100
AcDbCircle
 10
262.9623967548035
 20
450.7218120588219
 30
0.0
 40
13.6
100
AcDbArc
 50
158.8168456069651
 51
180.0
  0
ARC
  5
267
330
1E
100
AcDbEntity
  8
STEMPEL
100
AcDbCircle
 10
228.4623967548037
 20
464.0918120588219
 30
0.0
 40
23.40009324312573
100
AcDbArc
 50
338.8168456069651
 51
0.1564859543538959
  0
LINE
  5
268
330
1E
100
AcDbEntity
  8
STEMPEL
100
AcDbLine
 10
251.8623967548036
 20
473.1728896517032
 30
0.0
 11
251.8623967548036
 21
464.1600921070127
 31
0.0
  0
ARC
  5
269
330
1E
100
AcDbEntity
  8
STEMPEL
100
AcDbCircle
 10
228.4623967548037
 20
473.1728896517032
 30
0.0
 40
23.4
100
AcDbArc
 50
0.000000000000007
 51
26.79557793123248
  0
HATCH
  5
293
330
1E
100
AcDbEntity
  8
SCHRAFF
100
AcDbHatch
 10
0.0
 20
0.0
 30
0.0
210
0.0
220
0.0
230
1.0
  2
_USER
 70
     0
 71
     0
 91
        2
 92
        7
 72
     1
 73
     1
 93
       20
 10
247.8623967548035
 20
423.4152123942533
 42
-0.1420008527982331
 10
249.1023967548036
 20
427.6933428270476
 42
0.1420008527982266
 10
250.9623967548034
 20
434.1105384762388
 42
0.0
 10
250.9623967548034
 20
450.7218120588219
 42
-0.0926930603363545
 10
251.7732357632451
 20
455.0580173474343
 42
0.0920044384191465
 10
253.4623967548035
 20
464.0235320106382
 42
0.0
 10
253.4623967548035
 20
473.1728896517032
 42
0.1093332246020765
 10
251.1277940830788
 20
483.721812058822
 42
0.0
 10
249.3497191310343
 20
483.721812058822
 42
-0.1174534402570168
 10
251.8623967548036
 20
473.1728896517032
 42
0.0
 10
251.8623967548036
 20
464.1578710247476
 42
-0.0934049271927096
 10
250.2813476310377
 20
455.6361780525831
 42
0.0926930603363669
 10
249.3623967548035
 20
450.7218120588216
 42
0.0
 10
249.3623967548035
 20
434.1105384762388
 42
-0.142000852798232
 10
247.7503967548035
 20
428.5489689136062
 42
0.1420008527982231
 10
246.262396754804
 20
423.4152123942532
 42
0.0
 10
246.2623967548033
 20
181.7043476816545
 42
0.0
 10
245.5640153816135
 20
173.7218120588219
 42
0.0
 10
247.1701271216825
 20
173.7218120588219
 42
0.0
 10
247.8623967548033
 20
181.6344901730065
 42
0.0
 97
        0
 92
        7
 72
     1
 73
     1
 93
       20
 10
176.4623967548035
 20
423.4152123942533
 42
0.1420008527982296
 10
174.9743967548035
 20
428.5489689136063
 42
-0.1420008527982289
 10
173.3623967548036
 20
434.1105384762388
 42
0.0
 10
173.3623967548036
 20
450.7218120588219
 42
0.0926930603363581
 10
172.4434458785695
 20
455.6361780525828
 42
-0.093404927192602
 10
170.8623967548034
 20
464.1578710247374
 42
0.0
 10
170.8623967548034
 20
473.1728896517032
 42
-0.1174534402570155
 10
173.3750743785727
 20
483.7218120588219
 42
0.0
 10
171.5969994265281
 20
483.7218120588219
 42
0.109333224602075
 10
169.2623967548035
 20
473.1728896517032
 42
0.0
 10
169.2623967548035
 20
464.0235320106271
 42
0.0920044384190328
 10
170.9515577463617
 20
455.0580173474345
 42
-0.0926930603363609
 10
171.7623967548036
 20
450.7218120588217
 42
0.0
 10
171.7623967548036
 20
434.1105384762388
 42
0.1420008527982308
 10
173.6223967548035
 20
427.6933428270474
 42
-0.1420008527982287
 10
174.8623967548035
 20
423.4152123942532
 42
0.0
 10
174.8623967548034
 20
181.6344901730005
 42
0.0
 10
175.5546663879237
 20
173.7218120588219
 42
0.0
 10
177.1607781279931
 20
173.7218120588219
 42
0.0
 10
176.4623967548033
 20
181.7043476816543
 42
0.0
 97
        0
 75
     0
 76
     0
 52
45.0
 41
2.0
 77
     0
 78
     1
 53
45.0
 43
-41.84550113047225
 44
82.53368133488903
 45
-1.414213562373094
 46
1.414213562373095
 79
     0
 47
0.4754642255367076
 98
        2
 10
247.5654440222606
 20
230.2141891751789
 10
175.7442272286962
 20
253.0364725910688
  0
LINE
  5
350
330
1E
100
AcDbEntity
  8
STEMPEL
100
AcDbLine
 10
173.8889511651204
 20
464.827047444163
 30
0.0
 11
174.8623967548037
 21
464.827047444163
 31
0.0
  0
LINE
  5
352
330
1E
100
AcDbEntity
  8
STEMPEL
100
AcDbLine
 10
172.9653352393756
 20
488.721812058822
 30
0.0
 11
174.8623967548036
 21
488.721812058822
 31
0.0
  0
LINE
  5
356
330
1E
100
AcDbEntity
  8
STEMPEL
100
AcDbLine
 10
174.8623967548036
 20
482.7218120588219
 30
0.0
 11
174.8623967548036
 21
464.827047444163
 31
0.0
  0
LINE
  5
357
330
1E
100
AcDbEntity
  8
STEMPEL
100
AcDbLine
 10
171.5689795724569
 20
468.7218120588219
 30
0.0
 11
173.3292493152083
 21
468.7218120588219
 31
0.0
  0
ARC
  5
358
330
1E
100
AcDbEntity
  8
STEMPEL
100
AcDbCircle
 10
172.4208803823098
 20
469.9130428096675
 30
0.0
 40
0.8074726096733382
100
AcDbArc
 50
358.7396065059696
 51
155.3942355033067
  0
LINE
  5
35A
330
1E
100
AcDbEntity
  8
STEMPEL
100
AcDbLine
 10
170.8623967548034
 20
468.7218120588219
 30
0.0
 11
171.5689795724569
 21
468.7218120588219
 31
0.0
  0
LINE
  5
35B
330
1E
100
AcDbEntity
  8
STEMPEL
100
AcDbLine
 10
171.5689795724569
 20
468.7218120588219
 30
0.0
 11
171.6867309506346
 21
470.2492520114208
 31
0.0
  0
ARC
  5
362
330
1E
100
AcDbEntity
  8
STEMPEL
100
AcDbCircle
 10
172.9653352393756
 20
487.7218120588219
 30
0.0
 40
1.0
100
AcDbArc
 50
10.00000000000181
 51
150.588086334471
  0
LINE
  5
365
330
1E
100
AcDbEntity
  8
STEMPEL
100
AcDbLine
 10
169.5623967548036
 20
483.7218120588219
 30
0.0
 11
172.0942235220263
 21
488.2128969556543
 31
0.0
  0
LINE
  5
367
330
1E
100
AcDbEntity
  8
STEMPEL
100
AcDbLine
 10
174.8623967548036
 20
482.7218120588219
 30
0.0
 11
173.9501429923878
 21
487.8954602364888
 31
0.0
  0
LINE
  5
377
330
1E
100
AcDbEntity
  8
STEMPEL
100
AcDbLine
 10
247.8623967548036
 20
482.7218120588219
 30
0.0
 11
248.7746505172195
 21
487.8954602364888
 31
0.0
  0
ARC
  5
37A
330
1E
100
AcDbEntity
  8
STEMPEL
100
AcDbCircle
 10
249.7594582702317
 20
487.7218120588219
 30
0.0
 40
1.0
100
AcDbArc
 50
29.411913665529
 51
169.9999999999981
  0
LINE
  5
37B
330
1E
100
AcDbEntity
  8
STEMPEL
100
AcDbLine
 10
253.1623967548037
 20
483.7218120588219
 30
0.0
 11
250.630569987581
 21
488.2128969556543
 31
0.0
  0
ARC
  5
37D
330
1E
100
AcDbEntity
  8
STEMPEL
100
AcDbCircle
 10
218.1304063943632
 20
473.1724177893885
 30
0.0
 40
45.02167885585847
100
AcDbArc
 50
184.1742621113243
 51
190.6823186889559
  0
ARC
  5
37E
330
1E
100
AcDbEntity
  8
STEMPEL
100
AcDbCircle
 10
204.5943871152441
 20
473.1724177893886
 30
0.0
 40
45.02167885585847
100
AcDbArc
 50
349.3176813110439
 51
355.8257378886755
  0
LINE
  5
37F
330
1E
100
AcDbEntity
  8
STEMPEL
100
AcDbLine
 10
251.1558139371504
 20
468.7218120588219
 30
0.0
 11
251.0380625589727
 21
470.2492520114206
 31
0.0
  0
LINE
  5
380
330
1E
100
AcDbEntity
  8
STEMPEL
100
AcDbLine
 10
251.8623967548037
 20
468.7218120588219
 30
0.0
 11
251.1558139371504
 21
468.7218120588219
 31
0.0
  0
ARC
  5
381
330
1E
100
AcDbEntity
  8
STEMPEL
100
AcDbCircle
 10
250.3039131272974
 20
469.9130428096674
 30
0.0
 40
0.8074726096733382
100
AcDbArc
 50
24.60576449669313
 51
181.2603934940303
  0
LINE
  5
382
330
1E
100
AcDbEntity
  8
STEMPEL
100
AcDbLine
 10
251.1558139371504
 20
468.7218120588219
 30
0.0
 11
249.3955441943989
 21
468.7218120588219
 31
0.0
  0
LINE
  5
383
330
1E
100
AcDbEntity
  8
STEMPEL
100
AcDbLine
 10
247.8623967548036
 20
482.7218120588218
 30
0.0
 11
247.8623967548035
 21
464.827047444163
 31
0.0
  0
LINE
  5
384
330
1E
100
AcDbEntity
  8
STEMPEL
100
AcDbLine
 10
249.3497191310344
 20
483.7218120588219
 30
0.0
 11
284.8623967548035
 21
483.721812058822
 31
0.0
  0
HATCH
  5
39D
330
1E
100
AcDbEntity
  8
SCHRAFF
100
AcDbHatch
 10
0.0
 20
0.0
 30
0.0
210
0.0
220
0.0
230
1.0
  2
NET
 70
     0
 71
     0
 91
        2
 92
        7
 72
     1
 73
     1
 93
       12
 10
247.8623967548035
 20
464.8270474441628
 42
0.0
 10
248.8358423444868
 20
464.8270474441629
 42
0.0284043890759162
 10
249.4966358828802
 20
469.895281446577
 42
-1.161065737664861
 10
251.0809189940435
 20
469.6933295910963
 42
0.0
 10
251.1558139371504
 20
468.7218120588218
 42
0.0
 10
251.8623967548036
 20
468.7218120588219
 42
0.0
 10
251.8623967548036
 20
473.1728896517032
 42
0.117453440257016
 10
249.3497191310344
 20
483.7218120588219
 42
0.0
 10
253.1623967548038
 20
483.721812058822
 42
0.0
 10
250.630569987581
 20
488.2128969556543
 42
0.7040385315424552
 10
248.7746505172195
 20
487.8954602364888
 42
0.0
 10
247.8623967548037
 20
482.7218120588217
 42
0.0
 97
        0
 92
        7
 72
     1
 73
     1
 93
       12
 10
174.8623967548036
 20
482.7218120588218
 42
0.0
 10
173.9501429923878
 20
487.8954602364888
 42
0.704038531542393
 10
172.0942235220263
 20
488.2128969556543
 42
0.0
 10
169.5623967548035
 20
483.7218120588219
 42
0.0
 10
173.3750743785727
 20
483.7218120588219
 42
0.1174534402570161
 10
170.8623967548034
 20
473.1728896517032
 42
0.0
 10
170.8623967548035
 20
468.7218120588219
 42
0.0
 10
171.5689795724569
 20
468.7218120588219
 42
0.0
 10
171.6438745155638
 20
469.6933295910963
 42
-1.161065737664962
 10
173.228157626727
 20
469.895281446577
 42
0.0284043890759152
 10
173.8889511651204
 20
464.827047444163
 42
0.0
 10
174.8623967548036
 20
464.827047444163
 42
0.0
 97
        0
 75
     0
 76
     1
 52
45.0
 41
15.0
 77
     0
 78
     2
 53
45.0
 43
-41.84550113047225
 44
82.53368133488903
 45
-1.325825214724776
 46
1.325825214724776
 79
     0
 53
135.0
 43
-41.84550113047225
 44
82.53368133488903
 45
-1.325825214724776
 46
-1.325825214724776
 79
     0
 47
0.1498518399897213
 98
        2
 10
248.7826518736056
 20
474.3858013672849
 10
173.0799414507714
 20
476.0341716385062
  0
LINE
  5
527
330
1E
100
AcDbEntity
  8
HILF
100
AcDbLine
 10
246.4794202049236
 20
518.1229967209794
 30
0.0
 11
176.2453733046835
 21
518.1229967209794
 31
0.0
  0
HATCH
  5
528
330
1E
100
AcDbEntity
  8
SCHRAFF
100
AcDbHatch
 10
0.0
 20
0.0
 30
0.0
210
0.0
220
0.0
230
1.0
  2
_USER
 70
     0
 71
     0
 91
        2
 92
        7
 72
     1
 73
     1
 93
        3
 10
248.3642013135207
 20
518.7218120588219
 42
0.1033379420888292
 10
247.8623967548036
 20
516.3197614995172
 42
0.0
 10
247.8623967548036
 20
514.7218120588219
 42
0.4345115405196064
 97
        0
 92
        7
 72
     1
 73
     1
 93
        3
 10
174.3605921960864
 20
518.7218120588219
 42
0.4345115405195967
 10
174.8623967548035
 20
514.7218120588219
 42
0.0
 10
174.8623967548035
 20
516.3197614995172
 42
0.1033379420888289
 97
        0
 75
     0
 76
     0
 52
0.0
 41
0.1
 77
     0
 78
     1
 53
0.0
 43
98.86239675480366
 44
305.7824298288902
 45
0.0
 46
0.1
 79
     0
 47
0.1742727602774525
 98
        2
 10
248.6248666225721
 20
516.8257354951529
 10
174.3398483102661
 20
517.0000087234934
  0
LINE
  5
52C
330
1E
100
AcDbEntity
  8
STEMPEL
100
AcDbLine
 10
174.8623967548035
 20
516.3197614995172
 30
0.0
 11
174.8623967548037
 21
428.7218120588219
 31
0.0
  0
LINE
  5
52D
330
1E
100
AcDbEntity
  8
STEMPEL
100
AcDbLine
 10
169.2623967548036
 20
543.1728896517032
 30
0.0
 11
169.2623967548036
 21
534.0235320106281
 31
0.0
  0
ARC
  5
52E
330
1E
100
AcDbEntity
  8
STEMPEL
100
AcDbCircle
 10
194.2623967548036
 20
534.091812058822
 30
0.0
 40
25.00009324312574
100
AcDbArc
 50
179.8435140456689
 51
214.9799836194365
  0
ARC
  5
52F
330
1E
100
AcDbEntity
  8
STEMPEL
100
AcDbCircle
 10
194.2623967548036
 20
543.1728896517032
 30
0.0
 40
25.0
100
AcDbArc
 50
155.0418036876905
 51
180.0
  0
LINE
  5
531
330
1E
100
AcDbEntity
  8
STEMPEL
100
AcDbLine
 10
247.8623967548036
 20
516.3197614995172
 30
0.0
 11
247.8623967548036
 21
428.7218120588219
 31
0.0
  0
LINE
  5
532
330
1E
100
AcDbEntity
  8
STEMPEL
100
AcDbLine
 10
253.4623967548036
 20
543.1728896517032
 30
0.0
 11
253.4623967548036
 21
534.0235320106281
 31
0.0
  0
ARC
  5
533
330
1E
100
AcDbEntity
  8
STEMPEL
100
AcDbCircle
 10
228.4623967548036
 20
534.091812058822
 30
0.0
 40
25.00009324312574
100
AcDbArc
 50
325.0200163805636
 51
0.1564859543310882
  0
ARC
  5
534
330
1E
100
AcDbEntity
  8
STEMPEL
100
AcDbCircle
 10
228.4623967548036
 20
543.1728896517032
 30
0.0
 40
25.0
100
AcDbArc
 50
0.0
 51
24.95819631230587
  0
LINE
  5
535
330
1E
100
AcDbEntity
  8
STEMPEL
100
AcDbLine
 10
247.8623967548036
 20
428.7218120588219
 30
0.0
 11
174.8623967548037
 21
428.7218120588219
 31
0.0
  0
LINE
  5
536
330
1E
100
AcDbEntity
  8
STEMPEL
100
AcDbLine
 10
247.7859721833533
 20
432.7218120588219
 30
0.0
 11
246.3967867620179
 21
432.7218120588219
 31
0.0
  0
LINE
  5
537
330
1E
100
AcDbEntity
  8
STEMPEL
100
AcDbLine
 10
247.7859721833534
 20
440.7218120588219
 30
0.0
 11
246.3967867620179
 21
440.7218120588219
 31
0.0
  0
LINE
  5
538
330
1E
100
AcDbEntity
  8
STEMPEL
100
AcDbLine
 10
247.7859721833534
 20
444.7218120588219
 30
0.0
 11
246.3967867620179
 21
444.7218120588219
 31
0.0
  0
LINE
  5
539
330
1E
100
AcDbEntity
  8
STEMPEL
100
AcDbLine
 10
247.7859721833534
 20
452.7218120588219
 30
0.0
 11
246.3967867620179
 21
452.7218120588219
 31
0.0
  0
LINE
  5
53A
330
1E
100
AcDbEntity
  8
STEMPEL
100
AcDbLine
 10
247.7859721833534
 20
456.7218120588219
 30
0.0
 11
246.3967867620179
 21
456.7218120588219
 31
0.0
  0
LINE
  5
53B
330
1E
100
AcDbEntity
  8
STEMPEL
100
AcDbLine
 10
247.7859721833534
 20
464.7218120588219
 30
0.0
 11
246.3967867620179
 21
464.7218120588219
 31
0.0
  0
LINE
  5
53C
330
1E
100
AcDbEntity
  8
STEMPEL
100
AcDbLine
 10
247.7859721833534
 20
468.7218120588219
 30
0.0
 11
246.3967867620179
 21
468.7218120588219
 31
0.0
  0
LINE
  5
53D
330
1E
100
AcDbEntity
  8
STEMPEL
100
AcDbLine
 10
247.7859721833534
 20
476.721812058822
 30
0.0
 11
246.3967867620179
 21
476.721812058822
 31
0.0
  0
LINE
  5
53E
330
1E
100
AcDbEntity
  8
STEMPEL
100
AcDbLine
 10
247.7859721833534
 20
480.7218120588219
 30
0.0
 11
246.3967867620179
 21
480.7218120588219
 31
0.0
  0
LINE
  5
53F
330
1E
100
AcDbEntity
  8
STEMPEL
100
AcDbLine
 10
247.7859721833534
 20
488.7218120588219
 30
0.0
 11
246.3967867620179
 21
488.7218120588219
 31
0.0
  0
LINE
  5
540
330
1E
100
AcDbEntity
  8
STEMPEL
100
AcDbLine
 10
247.7859721833534
 20
492.721812058822
 30
0.0
 11
246.3967867620179
 21
492.721812058822
 31
0.0
  0
LINE
  5
541
330
1E
100
AcDbEntity
  8
STEMPEL
100
AcDbLine
 10
247.7859721833534
 20
500.7218120588219
 30
0.0
 11
246.3967867620179
 21
500.7218120588219
 31
0.0
  0
LINE
  5
543
330
1E
100
AcDbEntity
  8
STEMPEL
100
AcDbLine
 10
215.3623967548036
 20
432.7218120588219
 30
0.0
 11
215.3623967548036
 21
440.7218120588219
 31
0.0
  0
LINE
  5
544
330
1E
100
AcDbEntity
  8
STEMPEL
100
AcDbLine
 10
220.0121717493669
 20
432.7218120588219
 30
0.0
 11
220.0121717493669
 21
440.7218120588219
 31
0.0
  0
LINE
  5
545
330
1E
100
AcDbEntity
  8
STEMPEL
100
AcDbLine
 10
226.9790110328063
 20
432.7218120588219
 30
0.0
 11
226.9790110328063
 21
440.7218120588219
 31
0.0
  0
LINE
  5
546
330
1E
100
AcDbEntity
  8
STEMPEL
100
AcDbLine
 10
227.5297127156542
 20
432.7218120588219
 30
0.0
 11
227.5297127156542
 21
440.7218120588219
 31
0.0
  0
LINE
  5
547
330
1E
100
AcDbEntity
  8
STEMPEL
100
AcDbLine
 10
231.6186562225028
 20
432.7218120588219
 30
0.0
 11
231.6186562225028
 21
440.7218120588219
 31
0.0
  0
LINE
  5
548
330
1E
100
AcDbEntity
  8
STEMPEL
100
AcDbLine
 10
236.7120311522016
 20
432.7218120588219
 30
0.0
 11
236.7120311522016
 21
440.7218120588219
 31
0.0
  0
LINE
  5
549
330
1E
100
AcDbEntity
  8
STEMPEL
100
AcDbLine
 10
237.7470117674547
 20
432.7218120588219
 30
0.0
 11
237.7470117674547
 21
440.7218120588219
 31
0.0
  0
LINE
  5
54A
330
1E
100
AcDbEntity
  8
STEMPEL
100
AcDbLine
 10
215.3623967548035
 20
512.7218120588219
 30
0.0
 11
207.3623967548036
 21
512.7218120588219
 31
0.0
  0
LINE
  5
54B
330
1E
100
AcDbEntity
  8
STEMPEL
100
AcDbLine
 10
215.3623967548035
 20
504.7218120588219
 30
0.0
 11
207.3623967548036
 21
504.7218120588219
 31
0.0
  0
LINE
  5
54C
330
1E
100
AcDbEntity
  8
STEMPEL
100
AcDbLine
 10
215.3623967548035
 20
500.7218120588219
 30
0.0
 11
207.3623967548036
 21
500.7218120588219
 31
0.0
  0
LINE
  5
54D
330
1E
100
AcDbEntity
  8
STEMPEL
100
AcDbLine
 10
215.3623967548035
 20
492.7218120588219
 30
0.0
 11
207.3623967548036
 21
492.7218120588219
 31
0.0
  0
LINE
  5
54E
330
1E
100
AcDbEntity
  8
STEMPEL
100
AcDbLine
 10
215.3623967548035
 20
488.7218120588219
 30
0.0
 11
207.3623967548036
 21
488.7218120588219
 31
0.0
  0
LINE
  5
54F
330
1E
100
AcDbEntity
  8
STEMPEL
100
AcDbLine
 10
215.3623967548035
 20
480.7218120588219
 30
0.0
 11
207.3623967548036
 21
480.7218120588219
 31
0.0
  0
LINE
  5
550
330
1E
100
AcDbEntity
  8
STEMPEL
100
AcDbLine
 10
227.5297127156542
 20
504.7218120588219
 30
0.0
 11
220.0121717493669
 21
504.7218120588219
 31
0.0
  0
LINE
  5
551
330
1E
100
AcDbEntity
  8
STEMPEL
100
AcDbLine
 10
227.5297127156542
 20
512.721812058822
 30
0.0
 11
220.0121717493669
 21
512.7218120588219
 31
0.0
  0
LINE
  5
552
330
1E
100
AcDbEntity
  8
STEMPEL
100
AcDbLine
 10
227.5297127156542
 20
500.7218120588219
 30
0.0
 11
220.0121717493669
 21
500.7218120588219
 31
0.0
  0
LINE
  5
553
330
1E
100
AcDbEntity
  8
STEMPEL
100
AcDbLine
 10
227.5297127156542
 20
492.7218120588219
 30
0.0
 11
220.0121717493669
 21
492.7218120588219
 31
0.0
  0
LINE
  5
554
330
1E
100
AcDbEntity
  8
STEMPEL
100
AcDbLine
 10
227.5297127156542
 20
488.7218120588219
 30
0.0
 11
220.0121717493669
 21
488.7218120588219
 31
0.0
  0
LINE
  5
555
330
1E
100
AcDbEntity
  8
STEMPEL
100
AcDbLine
 10
227.5297127156542
 20
480.721812058822
 30
0.0
 11
220.0121717493669
 21
480.7218120588219
 31
0.0
  0
LINE
  5
556
330
1E
100
AcDbEntity
  8
STEMPEL
100
AcDbLine
 10
227.5297127156542
 20
476.721812058822
 30
0.0
 11
220.0121717493669
 21
476.721812058822
 31
0.0
  0
LINE
  5
557
330
1E
100
AcDbEntity
  8
STEMPEL
100
AcDbLine
 10
231.6186562225028
 20
504.7218120588219
 30
0.0
 11
231.6186562225028
 21
512.7218120588219
 31
0.0
  0
LINE
  5
558
330
1E
100
AcDbEntity
  8
STEMPEL
100
AcDbLine
 10
236.7120311522016
 20
504.7218120588219
 30
0.0
 11
236.7120311522016
 21
512.721812058822
 31
0.0
  0
LINE
  5
559
330
1E
100
AcDbEntity
  8
STEMPEL
100
AcDbLine
 10
237.7470117674547
 20
504.7218120588219
 30
0.0
 11
237.7470117674546
 21
512.7218120588219
 31
0.0
  0
LINE
  5
55A
330
1E
100
AcDbEntity
  8
STEMPEL
100
AcDbLine
 10
236.7120311522016
 20
492.7218120588219
 30
0.0
 11
236.7120311522016
 21
500.7218120588219
 31
0.0
  0
LINE
  5
55B
330
1E
100
AcDbEntity
  8
STEMPEL
100
AcDbLine
 10
237.7470117674547
 20
492.7218120588219
 30
0.0
 11
237.7470117674547
 21
500.7218120588219
 31
0.0
  0
LINE
  5
55C
330
1E
100
AcDbEntity
  8
STEMPEL
100
AcDbLine
 10
231.6186562225028
 20
492.7218120588219
 30
0.0
 11
231.6186562225028
 21
500.7218120588219
 31
0.0
  0
LINE
  5
55D
330
1E
100
AcDbEntity
  8
STEMPEL
100
AcDbLine
 10
227.5297127156542
 20
492.7218120588219
 30
0.0
 11
227.5297127156542
 21
500.7218120588219
 31
0.0
  0
LINE
  5
55E
330
1E
100
AcDbEntity
  8
STEMPEL
100
AcDbLine
 10
226.9790110328063
 20
492.7218120588219
 30
0.0
 11
226.9790110328063
 21
500.7218120588219
 31
0.0
  0
LINE
  5
55F
330
1E
100
AcDbEntity
  8
STEMPEL
100
AcDbLine
 10
237.7470117674547
 20
480.7218120588219
 30
0.0
 11
237.7470117674547
 21
488.7218120588219
 31
0.0
  0
LINE
  5
560
330
1E
100
AcDbEntity
  8
STEMPEL
100
AcDbLine
 10
236.7120311522016
 20
480.7218120588219
 30
0.0
 11
236.7120311522016
 21
488.7218120588219
 31
0.0
  0
LINE
  5
561
330
1E
100
AcDbEntity
  8
STEMPEL
100
AcDbLine
 10
231.6186562225028
 20
480.7218120588219
 30
0.0
 11
231.6186562225028
 21
488.7218120588219
 31
0.0
  0
LINE
  5
562
330
1E
100
AcDbEntity
  8
STEMPEL
100
AcDbLine
 10
227.5297127156542
 20
480.721812058822
 30
0.0
 11
227.5297127156542
 21
488.7218120588219
 31
0.0
  0
LINE
  5
563
330
1E
100
AcDbEntity
  8
STEMPEL
100
AcDbLine
 10
226.9790110328063
 20
480.721812058822
 30
0.0
 11
226.9790110328063
 21
488.7218120588219
 31
0.0
  0
LINE
  5
564
330
1E
100
AcDbEntity
  8
STEMPEL
100
AcDbLine
 10
220.0121717493669
 20
480.7218120588219
 30
0.0
 11
220.0121717493669
 21
488.7218120588219
 31
0.0
  0
LINE
  5
565
330
1E
100
AcDbEntity
  8
STEMPEL
100
AcDbLine
 10
215.3623967548035
 20
480.7218120588219
 30
0.0
 11
215.3623967548035
 21
488.7218120588219
 31
0.0
  0
LINE
  5
566
330
1E
100
AcDbEntity
  8
STEMPEL
100
AcDbLine
 10
215.3623967548035
 20
492.7218120588219
 30
0.0
 11
215.3623967548035
 21
500.7218120588219
 31
0.0
  0
LINE
  5
567
330
1E
100
AcDbEntity
  8
STEMPEL
100
AcDbLine
 10
220.0121717493669
 20
492.7218120588219
 30
0.0
 11
220.0121717493669
 21
500.7218120588219
 31
0.0
  0
LINE
  5
568
330
1E
100
AcDbEntity
  8
STEMPEL
100
AcDbLine
 10
220.0121717493669
 20
504.7218120588219
 30
0.0
 11
220.0121717493669
 21
512.7218120588219
 31
0.0
  0
LINE
  5
569
330
1E
100
AcDbEntity
  8
STEMPEL
100
AcDbLine
 10
226.9790110328063
 20
504.7218120588219
 30
0.0
 11
226.9790110328063
 21
512.721812058822
 31
0.0
  0
LINE
  5
56A
330
1E
100
AcDbEntity
  8
STEMPEL
100
AcDbLine
 10
227.5297127156542
 20
504.7218120588219
 30
0.0
 11
227.5297127156542
 21
512.721812058822
 31
0.0
  0
LINE
  5
56B
330
1E
100
AcDbEntity
  8
STEMPEL
100
AcDbLine
 10
215.3623967548036
 20
444.7218120588219
 30
0.0
 11
215.3623967548036
 21
452.7218120588219
 31
0.0
  0
LINE
  5
56C
330
1E
100
AcDbEntity
  8
STEMPEL
100
AcDbLine
 10
220.0121717493669
 20
444.7218120588219
 30
0.0
 11
220.0121717493669
 21
452.7218120588219
 31
0.0
  0
LINE
  5
56D
330
1E
100
AcDbEntity
  8
STEMPEL
100
AcDbLine
 10
226.9790110328063
 20
444.7218120588219
 30
0.0
 11
226.9790110328063
 21
452.7218120588218
 31
0.0
  0
LINE
  5
56E
330
1E
100
AcDbEntity
  8
STEMPEL
100
AcDbLine
 10
227.5297127156542
 20
444.7218120588219
 30
0.0
 11
227.5297127156541
 21
452.7218120588218
 31
0.0
  0
LINE
  5
56F
330
1E
100
AcDbEntity
  8
STEMPEL
100
AcDbLine
 10
231.6186562225028
 20
444.7218120588219
 30
0.0
 11
231.6186562225028
 21
452.7218120588219
 31
0.0
  0
LINE
  5
570
330
1E
100
AcDbEntity
  8
STEMPEL
100
AcDbLine
 10
236.7120311522016
 20
444.7218120588219
 30
0.0
 11
236.7120311522016
 21
452.7218120588219
 31
0.0
  0
LINE
  5
571
330
1E
100
AcDbEntity
  8
STEMPEL
100
AcDbLine
 10
237.7470117674547
 20
444.7218120588219
 30
0.0
 11
237.7470117674547
 21
452.7218120588219
 31
0.0
  0
LINE
  5
572
330
1E
100
AcDbEntity
  8
STEMPEL
100
AcDbLine
 10
237.7470117674547
 20
456.7218120588219
 30
0.0
 11
237.7470117674547
 21
464.7218120588219
 31
0.0
  0
LINE
  5
573
330
1E
100
AcDbEntity
  8
STEMPEL
100
AcDbLine
 10
236.7120311522016
 20
456.7218120588219
 30
0.0
 11
236.7120311522016
 21
464.7218120588219
 31
0.0
  0
LINE
  5
574
330
1E
100
AcDbEntity
  8
STEMPEL
100
AcDbLine
 10
231.6186562225028
 20
456.7218120588219
 30
0.0
 11
231.6186562225028
 21
464.7218120588219
 31
0.0
  0
LINE
  5
575
330
1E
100
AcDbEntity
  8
STEMPEL
100
AcDbLine
 10
227.5297127156541
 20
456.7218120588219
 30
0.0
 11
227.5297127156541
 21
464.7218120588219
 31
0.0
  0
LINE
  5
576
330
1E
100
AcDbEntity
  8
STEMPEL
100
AcDbLine
 10
226.9790110328063
 20
456.7218120588219
 30
0.0
 11
226.9790110328063
 21
464.7218120588219
 31
0.0
  0
LINE
  5
577
330
1E
100
AcDbEntity
  8
STEMPEL
100
AcDbLine
 10
220.0121717493669
 20
456.7218120588219
 30
0.0
 11
220.0121717493669
 21
464.7218120588219
 31
0.0
  0
LINE
  5
578
330
1E
100
AcDbEntity
  8
STEMPEL
100
AcDbLine
 10
215.3623967548036
 20
456.7218120588219
 30
0.0
 11
215.3623967548035
 21
464.7218120588219
 31
0.0
  0
LINE
  5
579
330
1E
100
AcDbEntity
  8
STEMPEL
100
AcDbLine
 10
215.3623967548035
 20
468.7218120588219
 30
0.0
 11
215.3623967548035
 21
476.721812058822
 31
0.0
  0
LINE
  5
57A
330
1E
100
AcDbEntity
  8
STEMPEL
100
AcDbLine
 10
220.0121717493669
 20
468.7218120588219
 30
0.0
 11
220.0121717493669
 21
476.721812058822
 31
0.0
  0
LINE
  5
57B
330
1E
100
AcDbEntity
  8
STEMPEL
100
AcDbLine
 10
226.9790110328063
 20
468.7218120588219
 30
0.0
 11
226.9790110328063
 21
476.721812058822
 31
0.0
  0
LINE
  5
57C
330
1E
100
AcDbEntity
  8
STEMPEL
100
AcDbLine
 10
227.5297127156541
 20
468.7218120588219
 30
0.0
 11
227.5297127156542
 21
476.721812058822
 31
0.0
  0
LINE
  5
57D
330
1E
100
AcDbEntity
  8
STEMPEL
100
AcDbLine
 10
231.6186562225028
 20
468.7218120588219
 30
0.0
 11
231.6186562225028
 21
476.7218120588219
 31
0.0
  0
LINE
  5
57E
330
1E
100
AcDbEntity
  8
STEMPEL
100
AcDbLine
 10
236.7120311522016
 20
468.7218120588219
 30
0.0
 11
236.7120311522016
 21
476.7218120588219
 31
0.0
  0
LINE
  5
57F
330
1E
100
AcDbEntity
  8
STEMPEL
100
AcDbLine
 10
237.7470117674547
 20
468.7218120588219
 30
0.0
 11
237.7470117674547
 21
476.7218120588219
 31
0.0
  0
LINE
  5
580
330
1E
100
AcDbEntity
  8
STEMPEL
100
AcDbLine
 10
215.3623967548035
 20
476.721812058822
 30
0.0
 11
207.3623967548036
 21
476.721812058822
 31
0.0
  0
LINE
  5
581
330
1E
100
AcDbEntity
  8
STEMPEL
100
AcDbLine
 10
215.3623967548035
 20
468.7218120588219
 30
0.0
 11
207.3623967548036
 21
468.7218120588219
 31
0.0
  0
LINE
  5
582
330
1E
100
AcDbEntity
  8
STEMPEL
100
AcDbLine
 10
227.5297127156541
 20
468.7218120588219
 30
0.0
 11
220.0121717493669
 21
468.7218120588219
 31
0.0
  0
LINE
  5
583
330
1E
100
AcDbEntity
  8
STEMPEL
100
AcDbLine
 10
227.5297127156541
 20
464.7218120588219
 30
0.0
 11
220.0121717493669
 21
464.7218120588219
 31
0.0
  0
LINE
  5
584
330
1E
100
AcDbEntity
  8
STEMPEL
100
AcDbLine
 10
227.5297127156541
 20
456.7218120588219
 30
0.0
 11
220.0121717493669
 21
456.7218120588218
 31
0.0
  0
LINE
  5
585
330
1E
100
AcDbEntity
  8
STEMPEL
100
AcDbLine
 10
215.3623967548035
 20
456.7218120588218
 30
0.0
 11
207.3623967548035
 21
456.7218120588218
 31
0.0
  0
LINE
  5
586
330
1E
100
AcDbEntity
  8
STEMPEL
100
AcDbLine
 10
215.3623967548035
 20
464.7218120588219
 30
0.0
 11
207.3623967548036
 21
464.7218120588219
 31
0.0
  0
LINE
  5
587
330
1E
100
AcDbEntity
  8
STEMPEL
100
AcDbLine
 10
215.3623967548036
 20
452.7218120588219
 30
0.0
 11
207.3623967548036
 21
452.7218120588219
 31
0.0
  0
LINE
  5
588
330
1E
100
AcDbEntity
  8
STEMPEL
100
AcDbLine
 10
227.5297127156541
 20
452.7218120588219
 30
0.0
 11
220.0121717493669
 21
452.7218120588219
 31
0.0
  0
LINE
  5
589
330
1E
100
AcDbEntity
  8
STEMPEL
100
AcDbLine
 10
227.5297127156542
 20
444.7218120588219
 30
0.0
 11
220.0121717493669
 21
444.7218120588219
 31
0.0
  0
LINE
  5
58A
330
1E
100
AcDbEntity
  8
STEMPEL
100
AcDbLine
 10
215.3623967548036
 20
440.7218120588219
 30
0.0
 11
207.3623967548035
 21
440.7218120588219
 31
0.0
  0
LINE
  5
58B
330
1E
100
AcDbEntity
  8
STEMPEL
100
AcDbLine
 10
215.3623967548036
 20
432.7218120588219
 30
0.0
 11
207.3623967548035
 21
432.7218120588219
 31
0.0
  0
LINE
  5
58C
330
1E
100
AcDbEntity
  8
STEMPEL
100
AcDbLine
 10
227.5297127156542
 20
440.7218120588219
 30
0.0
 11
220.0121717493669
 21
440.7218120588219
 31
0.0
  0
LINE
  5
58D
330
1E
100
AcDbEntity
  8
STEMPEL
100
AcDbLine
 10
227.5297127156542
 20
432.7218120588219
 30
0.0
 11
220.0121717493669
 21
432.7218120588219
 31
0.0
  0
LINE
  5
58E
330
1E
100
AcDbEntity
  8
STEMPEL
100
AcDbLine
 10
240.7819368532836
 20
432.721812058822
 30
0.0
 11
240.7819368532836
 21
440.7218120588219
 31
0.0
  0
LINE
  5
58F
330
1E
100
AcDbEntity
  8
STEMPEL
100
AcDbLine
 10
244.7819368532836
 20
432.721812058822
 30
0.0
 11
244.7819368532836
 21
440.7218120588219
 31
0.0
  0
LINE
  5
590
330
1E
100
AcDbEntity
  8
STEMPEL
100
AcDbLine
 10
237.7470117674547
 20
432.7218120588219
 30
0.0
 11
231.6186562225028
 21
432.7218120588219
 31
0.0
  0
LINE
  5
591
330
1E
100
AcDbEntity
  8
STEMPEL
100
AcDbLine
 10
237.7470117674547
 20
440.7218120588219
 30
0.0
 11
231.6186562225028
 21
440.7218120588219
 31
0.0
  0
LINE
  5
592
330
1E
100
AcDbEntity
  8
STEMPEL
100
AcDbLine
 10
237.7470117674547
 20
444.7218120588219
 30
0.0
 11
231.6186562225028
 21
444.7218120588219
 31
0.0
  0
LINE
  5
593
330
1E
100
AcDbEntity
  8
STEMPEL
100
AcDbLine
 10
237.7470117674547
 20
452.7218120588219
 30
0.0
 11
231.6186562225028
 21
452.7218120588219
 31
0.0
  0
LINE
  5
594
330
1E
100
AcDbEntity
  8
STEMPEL
100
AcDbLine
 10
237.7470117674547
 20
456.7218120588219
 30
0.0
 11
231.6186562225028
 21
456.7218120588219
 31
0.0
  0
LINE
  5
595
330
1E
100
AcDbEntity
  8
STEMPEL
100
AcDbLine
 10
237.7470117674547
 20
464.7218120588219
 30
0.0
 11
231.6186562225028
 21
464.7218120588219
 31
0.0
  0
LINE
  5
596
330
1E
100
AcDbEntity
  8
STEMPEL
100
AcDbLine
 10
237.7470117674546
 20
468.7218120588219
 30
0.0
 11
231.6186562225028
 21
468.7218120588219
 31
0.0
  0
LINE
  5
597
330
1E
100
AcDbEntity
  8
STEMPEL
100
AcDbLine
 10
237.7470117674546
 20
476.7218120588219
 30
0.0
 11
231.6186562225028
 21
476.7218120588219
 31
0.0
  0
LINE
  5
598
330
1E
100
AcDbEntity
  8
STEMPEL
100
AcDbLine
 10
237.7470117674547
 20
480.7218120588219
 30
0.0
 11
231.6186562225028
 21
480.7218120588219
 31
0.0
  0
LINE
  5
599
330
1E
100
AcDbEntity
  8
STEMPEL
100
AcDbLine
 10
237.7470117674547
 20
488.7218120588219
 30
0.0
 11
231.6186562225028
 21
488.7218120588219
 31
0.0
  0
LINE
  5
59A
330
1E
100
AcDbEntity
  8
STEMPEL
100
AcDbLine
 10
237.7470117674547
 20
492.7218120588219
 30
0.0
 11
231.6186562225028
 21
492.7218120588219
 31
0.0
  0
LINE
  5
59B
330
1E
100
AcDbEntity
  8
STEMPEL
100
AcDbLine
 10
237.7470117674547
 20
500.7218120588219
 30
0.0
 11
231.6186562225028
 21
500.7218120588219
 31
0.0
  0
LINE
  5
59C
330
1E
100
AcDbEntity
  8
STEMPEL
100
AcDbLine
 10
237.7470117674547
 20
504.7218120588219
 30
0.0
 11
231.6186562225028
 21
504.7218120588219
 31
0.0
  0
LINE
  5
59D
330
1E
100
AcDbEntity
  8
STEMPEL
100
AcDbLine
 10
237.7470117674546
 20
512.7218120588219
 30
0.0
 11
231.6186562225028
 21
512.7218120588219
 31
0.0
  0
LINE
  5
59E
330
1E
100
AcDbEntity
  8
STEMPEL
100
AcDbLine
 10
243.3875112425119
 20
432.721812058822
 30
0.0
 11
243.3875112425119
 21
440.7218120588219
 31
0.0
  0
LINE
  5
5A1
330
1E
100
AcDbEntity
  8
STEMPEL
100
AcDbLine
 10
244.7819368532836
 20
492.7218120588219
 30
0.0
 11
244.7819368532836
 21
500.7218120588219
 31
0.0
  0
LINE
  5
5A2
330
1E
100
AcDbEntity
  8
STEMPEL
100
AcDbLine
 10
243.3875112425119
 20
492.7218120588219
 30
0.0
 11
243.3875112425119
 21
500.7218120588219
 31
0.0
  0
LINE
  5
5A3
330
1E
100
AcDbEntity
  8
STEMPEL
100
AcDbLine
 10
244.7819368532836
 20
480.7218120588219
 30
0.0
 11
244.7819368532836
 21
488.7218120588219
 31
0.0
  0
LINE
  5
5A4
330
1E
100
AcDbEntity
  8
STEMPEL
100
AcDbLine
 10
243.3875112425119
 20
480.7218120588219
 30
0.0
 11
243.3875112425119
 21
488.7218120588219
 31
0.0
  0
LINE
  5
5A5
330
1E
100
AcDbEntity
  8
STEMPEL
100
AcDbLine
 10
240.7819368532836
 20
480.7218120588219
 30
0.0
 11
240.7819368532836
 21
488.7218120588219
 31
0.0
  0
LINE
  5
5A6
330
1E
100
AcDbEntity
  8
STEMPEL
100
AcDbLine
 10
240.7819368532836
 20
492.7218120588219
 30
0.0
 11
240.7819368532836
 21
500.7218120588219
 31
0.0
  0
LINE
  5
5A8
330
1E
100
AcDbEntity
  8
STEMPEL
100
AcDbLine
 10
244.7819368532836
 20
468.7218120588219
 30
0.0
 11
244.7819368532836
 21
476.721812058822
 31
0.0
  0
LINE
  5
5A9
330
1E
100
AcDbEntity
  8
STEMPEL
100
AcDbLine
 10
243.3875112425119
 20
468.7218120588219
 30
0.0
 11
243.3875112425119
 21
476.721812058822
 31
0.0
  0
LINE
  5
5AA
330
1E
100
AcDbEntity
  8
STEMPEL
100
AcDbLine
 10
240.7819368532836
 20
468.7218120588219
 30
0.0
 11
240.7819368532836
 21
476.721812058822
 31
0.0
  0
LINE
  5
5AB
330
1E
100
AcDbEntity
  8
STEMPEL
100
AcDbLine
 10
244.7819368532836
 20
456.7218120588219
 30
0.0
 11
244.7819368532836
 21
464.7218120588219
 31
0.0
  0
LINE
  5
5AC
330
1E
100
AcDbEntity
  8
STEMPEL
100
AcDbLine
 10
243.3875112425119
 20
456.7218120588219
 30
0.0
 11
243.3875112425119
 21
464.7218120588219
 31
0.0
  0
LINE
  5
5AD
330
1E
100
AcDbEntity
  8
STEMPEL
100
AcDbLine
 10
240.7819368532836
 20
456.7218120588219
 30
0.0
 11
240.7819368532836
 21
464.7218120588219
 31
0.0
  0
LINE
  5
5AE
330
1E
100
AcDbEntity
  8
STEMPEL
100
AcDbLine
 10
244.7819368532836
 20
444.7218120588219
 30
0.0
 11
244.7819368532836
 21
452.721812058822
 31
0.0
  0
LINE
  5
5AF
330
1E
100
AcDbEntity
  8
STEMPEL
100
AcDbLine
 10
243.3875112425119
 20
444.7218120588219
 30
0.0
 11
243.3875112425119
 21
452.7218120588219
 31
0.0
  0
LINE
  5
5B0
330
1E
100
AcDbEntity
  8
STEMPEL
100
AcDbLine
 10
240.7819368532836
 20
444.7218120588219
 30
0.0
 11
240.7819368532836
 21
452.7218120588219
 31
0.0
  0
LINE
  5
5B1
330
1E
100
AcDbEntity
  8
STEMPEL
100
AcDbLine
 10
247.7859721833534
 20
432.7218120588219
 30
0.0
 11
247.7859721833534
 21
440.7218120588219
 31
0.0
  0
LINE
  5
5B2
330
1E
100
AcDbEntity
  8
STEMPEL
100
AcDbLine
 10
246.3967867620179
 20
432.721812058822
 30
0.0
 11
246.3967867620179
 21
440.7218120588219
 31
0.0
  0
LINE
  5
5B5
330
1E
100
AcDbEntity
  8
STEMPEL
100
AcDbLine
 10
246.3967867620179
 20
492.7218120588219
 30
0.0
 11
246.3967867620179
 21
500.7218120588219
 31
0.0
  0
LINE
  5
5B6
330
1E
100
AcDbEntity
  8
STEMPEL
100
AcDbLine
 10
247.7859721833534
 20
492.7218120588219
 30
0.0
 11
247.7859721833534
 21
500.7218120588219
 31
0.0
  0
LINE
  5
5B7
330
1E
100
AcDbEntity
  8
STEMPEL
100
AcDbLine
 10
246.3967867620179
 20
480.7218120588219
 30
0.0
 11
246.3967867620179
 21
488.7218120588219
 31
0.0
  0
LINE
  5
5B8
330
1E
100
AcDbEntity
  8
STEMPEL
100
AcDbLine
 10
247.7859721833534
 20
480.7218120588219
 30
0.0
 11
247.7859721833534
 21
488.7218120588219
 31
0.0
  0
LINE
  5
5B9
330
1E
100
AcDbEntity
  8
STEMPEL
100
AcDbLine
 10
247.7859721833534
 20
468.7218120588219
 30
0.0
 11
247.7859721833534
 21
476.7218120588219
 31
0.0
  0
LINE
  5
5BA
330
1E
100
AcDbEntity
  8
STEMPEL
100
AcDbLine
 10
246.3967867620179
 20
468.7218120588219
 30
0.0
 11
246.3967867620179
 21
476.721812058822
 31
0.0
  0
LINE
  5
5BB
330
1E
100
AcDbEntity
  8
STEMPEL
100
AcDbLine
 10
246.3967867620179
 20
456.7218120588219
 30
0.0
 11
246.3967867620179
 21
464.7218120588219
 31
0.0
  0
LINE
  5
5BC
330
1E
100
AcDbEntity
  8
STEMPEL
100
AcDbLine
 10
247.7859721833534
 20
456.7218120588219
 30
0.0
 11
247.7859721833534
 21
464.7218120588219
 31
0.0
  0
LINE
  5
5BD
330
1E
100
AcDbEntity
  8
STEMPEL
100
AcDbLine
 10
246.3967867620179
 20
444.7218120588219
 30
0.0
 11
246.3967867620179
 21
452.7218120588219
 31
0.0
  0
LINE
  5
5BE
330
1E
100
AcDbEntity
  8
STEMPEL
100
AcDbLine
 10
247.7859721833534
 20
444.7218120588219
 30
0.0
 11
247.7859721833534
 21
452.7218120588219
 31
0.0
  0
LINE
  5
5BF
330
1E
100
AcDbEntity
  8
STEMPEL
100
AcDbLine
 10
244.7819368532836
 20
444.7218120588219
 30
0.0
 11
240.7819368532836
 21
444.7218120588219
 31
0.0
  0
LINE
  5
5C0
330
1E
100
AcDbEntity
  8
STEMPEL
100
AcDbLine
 10
244.7819368532836
 20
440.7218120588219
 30
0.0
 11
240.7819368532836
 21
440.7218120588219
 31
0.0
  0
LINE
  5
5C1
330
1E
100
AcDbEntity
  8
STEMPEL
100
AcDbLine
 10
244.7819368532836
 20
432.7218120588219
 30
0.0
 11
240.7819368532836
 21
432.7218120588219
 31
0.0
  0
LINE
  5
5C2
330
1E
100
AcDbEntity
  8
STEMPEL
100
AcDbLine
 10
244.7819368532836
 20
452.7218120588219
 30
0.0
 11
240.7819368532836
 21
452.7218120588219
 31
0.0
  0
LINE
  5
5C3
330
1E
100
AcDbEntity
  8
STEMPEL
100
AcDbLine
 10
244.7819368532836
 20
456.7218120588219
 30
0.0
 11
240.7819368532836
 21
456.7218120588219
 31
0.0
  0
LINE
  5
5C4
330
1E
100
AcDbEntity
  8
STEMPEL
100
AcDbLine
 10
244.7819368532836
 20
464.7218120588219
 30
0.0
 11
240.7819368532836
 21
464.7218120588219
 31
0.0
  0
LINE
  5
5C5
330
1E
100
AcDbEntity
  8
STEMPEL
100
AcDbLine
 10
244.7819368532836
 20
480.7218120588219
 30
0.0
 11
240.7819368532836
 21
480.7218120588219
 31
0.0
  0
LINE
  5
5C6
330
1E
100
AcDbEntity
  8
STEMPEL
100
AcDbLine
 10
244.7819368532836
 20
476.721812058822
 30
0.0
 11
240.7819368532836
 21
476.721812058822
 31
0.0
  0
LINE
  5
5C7
330
1E
100
AcDbEntity
  8
STEMPEL
100
AcDbLine
 10
244.7819368532836
 20
468.7218120588219
 30
0.0
 11
240.7819368532836
 21
468.7218120588219
 31
0.0
  0
LINE
  5
5C8
330
1E
100
AcDbEntity
  8
STEMPEL
100
AcDbLine
 10
244.7819368532836
 20
488.7218120588219
 30
0.0
 11
240.7819368532836
 21
488.7218120588219
 31
0.0
  0
LINE
  5
5C9
330
1E
100
AcDbEntity
  8
STEMPEL
100
AcDbLine
 10
244.7819368532836
 20
492.721812058822
 30
0.0
 11
240.7819368532836
 21
492.7218120588219
 31
0.0
  0
LINE
  5
5CA
330
1E
100
AcDbEntity
  8
STEMPEL
100
AcDbLine
 10
244.7819368532836
 20
500.7218120588219
 30
0.0
 11
240.7819368532836
 21
500.7218120588219
 31
0.0
  0
LINE
  5
5CD
330
1E
100
AcDbEntity
  8
STEMPEL
100
AcDbLine
 10
215.3623967548036
 20
444.7218120588219
 30
0.0
 11
207.3623967548035
 21
444.7218120588219
 31
0.0
  0
LINE
  5
5CE
330
1E
100
AcDbEntity
  8
STEMPEL
100
AcDbLine
 10
215.3623967548035
 20
504.7218120588219
 30
0.0
 11
215.3623967548035
 21
512.7218120588219
 31
0.0
  0
LINE
  5
5CF
330
1E
100
AcDbEntity
  8
STEMPEL
100
AcDbLine
 10
184.9777817421525
 20
464.7218120588219
 30
0.0
 11
191.1061372871043
 21
464.7218120588219
 31
0.0
  0
LINE
  5
5D0
330
1E
100
AcDbEntity
  8
STEMPEL
100
AcDbLine
 10
184.9777817421525
 20
456.7218120588219
 30
0.0
 11
191.1061372871043
 21
456.7218120588219
 31
0.0
  0
LINE
  5
5D1
330
1E
100
AcDbEntity
  8
STEMPEL
100
AcDbLine
 10
184.9777817421525
 20
452.7218120588219
 30
0.0
 11
191.1061372871043
 21
452.7218120588219
 31
0.0
  0
LINE
  5
5D2
330
1E
100
AcDbEntity
  8
STEMPEL
100
AcDbLine
 10
184.9777817421525
 20
444.7218120588219
 30
0.0
 11
191.1061372871044
 21
444.7218120588219
 31
0.0
  0
LINE
  5
5D3
330
1E
100
AcDbEntity
  8
STEMPEL
100
AcDbLine
 10
184.9777817421525
 20
440.7218120588219
 30
0.0
 11
191.1061372871044
 21
440.7218120588219
 31
0.0
  0
LINE
  5
5D4
330
1E
100
AcDbEntity
  8
STEMPEL
100
AcDbLine
 10
184.9777817421524
 20
432.7218120588219
 30
0.0
 11
191.1061372871043
 21
432.7218120588219
 31
0.0
  0
LINE
  5
5D5
330
1E
100
AcDbEntity
  8
STEMPEL
100
AcDbLine
 10
207.3623967548035
 20
432.7218120588219
 30
0.0
 11
207.3623967548035
 21
440.7218120588219
 31
0.0
  0
LINE
  5
5D6
330
1E
100
AcDbEntity
  8
STEMPEL
100
AcDbLine
 10
207.3623967548035
 20
444.7218120588219
 30
0.0
 11
207.3623967548036
 21
452.7218120588219
 31
0.0
  0
LINE
  5
5D7
330
1E
100
AcDbEntity
  8
STEMPEL
100
AcDbLine
 10
207.3623967548036
 20
456.7218120588219
 30
0.0
 11
207.3623967548036
 21
464.7218120588219
 31
0.0
  0
LINE
  5
5D8
330
1E
100
AcDbEntity
  8
STEMPEL
100
AcDbLine
 10
195.1950807939529
 20
432.7218120588219
 30
0.0
 11
202.7126217602402
 21
432.7218120588219
 31
0.0
  0
LINE
  5
5D9
330
1E
100
AcDbEntity
  8
STEMPEL
100
AcDbLine
 10
195.195080793953
 20
440.7218120588219
 30
0.0
 11
202.7126217602402
 21
440.7218120588219
 31
0.0
  0
LINE
  5
5DA
330
1E
100
AcDbEntity
  8
STEMPEL
100
AcDbLine
 10
202.7126217602402
 20
432.7218120588219
 30
0.0
 11
202.7126217602402
 21
440.7218120588219
 31
0.0
  0
LINE
  5
5DB
330
1E
100
AcDbEntity
  8
STEMPEL
100
AcDbLine
 10
195.1950807939529
 20
432.7218120588219
 30
0.0
 11
195.195080793953
 21
440.7218120588219
 31
0.0
  0
LINE
  5
5DC
330
1E
100
AcDbEntity
  8
STEMPEL
100
AcDbLine
 10
195.7457824768008
 20
432.7218120588219
 30
0.0
 11
195.7457824768009
 21
440.7218120588219
 31
0.0
  0
LINE
  5
5DD
330
1E
100
AcDbEntity
  8
STEMPEL
100
AcDbLine
 10
191.1061372871043
 20
432.7218120588219
 30
0.0
 11
191.1061372871044
 21
440.7218120588219
 31
0.0
  0
LINE
  5
5DE
330
1E
100
AcDbEntity
  8
STEMPEL
100
AcDbLine
 10
195.195080793953
 20
444.7218120588219
 30
0.0
 11
202.7126217602402
 21
444.7218120588219
 31
0.0
  0
LINE
  5
5DF
330
1E
100
AcDbEntity
  8
STEMPEL
100
AcDbLine
 10
195.195080793953
 20
452.7218120588219
 30
0.0
 11
202.7126217602402
 21
452.7218120588219
 31
0.0
  0
LINE
  5
5E0
330
1E
100
AcDbEntity
  8
STEMPEL
100
AcDbLine
 10
195.195080793953
 20
464.7218120588219
 30
0.0
 11
202.7126217602402
 21
464.7218120588219
 31
0.0
  0
LINE
  5
5E1
330
1E
100
AcDbEntity
  8
STEMPEL
100
AcDbLine
 10
195.195080793953
 20
456.7218120588219
 30
0.0
 11
202.7126217602402
 21
456.7218120588218
 31
0.0
  0
LINE
  5
5E2
330
1E
100
AcDbEntity
  8
STEMPEL
100
AcDbLine
 10
202.7126217602402
 20
444.7218120588219
 30
0.0
 11
202.7126217602402
 21
452.7218120588219
 31
0.0
  0
LINE
  5
5E3
330
1E
100
AcDbEntity
  8
STEMPEL
100
AcDbLine
 10
202.7126217602402
 20
456.7218120588219
 30
0.0
 11
202.7126217602402
 21
464.7218120588219
 31
0.0
  0
LINE
  5
5E4
330
1E
100
AcDbEntity
  8
STEMPEL
100
AcDbLine
 10
195.7457824768009
 20
444.7218120588219
 30
0.0
 11
195.7457824768009
 21
452.7218120588219
 31
0.0
  0
LINE
  5
5E5
330
1E
100
AcDbEntity
  8
STEMPEL
100
AcDbLine
 10
195.195080793953
 20
444.7218120588219
 30
0.0
 11
195.195080793953
 21
452.7218120588219
 31
0.0
  0
LINE
  5
5E6
330
1E
100
AcDbEntity
  8
STEMPEL
100
AcDbLine
 10
191.1061372871044
 20
444.7218120588219
 30
0.0
 11
191.1061372871043
 21
452.7218120588219
 31
0.0
  0
LINE
  5
5E7
330
1E
100
AcDbEntity
  8
STEMPEL
100
AcDbLine
 10
195.195080793953
 20
456.7218120588219
 30
0.0
 11
195.195080793953
 21
464.7218120588219
 31
0.0
  0
LINE
  5
5E8
330
1E
100
AcDbEntity
  8
STEMPEL
100
AcDbLine
 10
195.7457824768009
 20
456.7218120588219
 30
0.0
 11
195.7457824768009
 21
464.7218120588219
 31
0.0
  0
LINE
  5
5E9
330
1E
100
AcDbEntity
  8
STEMPEL
100
AcDbLine
 10
191.1061372871043
 20
456.7218120588219
 30
0.0
 11
191.1061372871043
 21
464.7218120588219
 31
0.0
  0
LINE
  5
5EA
330
1E
100
AcDbEntity
  8
STEMPEL
100
AcDbLine
 10
177.9428566563236
 20
432.721812058822
 30
0.0
 11
181.9428566563235
 21
432.721812058822
 31
0.0
  0
LINE
  5
5EB
330
1E
100
AcDbEntity
  8
STEMPEL
100
AcDbLine
 10
177.9428566563236
 20
440.7218120588219
 30
0.0
 11
181.9428566563236
 21
440.7218120588219
 31
0.0
  0
LINE
  5
5EC
330
1E
100
AcDbEntity
  8
STEMPEL
100
AcDbLine
 10
184.9777817421524
 20
432.721812058822
 30
0.0
 11
184.9777817421525
 21
440.7218120588219
 31
0.0
  0
LINE
  5
5ED
330
1E
100
AcDbEntity
  8
STEMPEL
100
AcDbLine
 10
186.0127623574056
 20
432.721812058822
 30
0.0
 11
186.0127623574056
 21
440.7218120588219
 31
0.0
  0
LINE
  5
5EE
330
1E
100
AcDbEntity
  8
STEMPEL
100
AcDbLine
 10
181.9428566563236
 20
432.721812058822
 30
0.0
 11
181.9428566563236
 21
440.7218120588219
 31
0.0
  0
LINE
  5
5EF
330
1E
100
AcDbEntity
  8
STEMPEL
100
AcDbLine
 10
174.9388213262538
 20
432.721812058822
 30
0.0
 11
176.3280067475892
 21
432.721812058822
 31
0.0
  0
LINE
  5
5F0
330
1E
100
AcDbEntity
  8
STEMPEL
100
AcDbLine
 10
174.9388213262538
 20
440.7218120588219
 30
0.0
 11
176.3280067475892
 21
440.7218120588219
 31
0.0
  0
LINE
  5
5F1
330
1E
100
AcDbEntity
  8
STEMPEL
100
AcDbLine
 10
176.3280067475892
 20
432.721812058822
 30
0.0
 11
176.3280067475892
 21
440.7218120588219
 31
0.0
  0
LINE
  5
5F2
330
1E
100
AcDbEntity
  8
STEMPEL
100
AcDbLine
 10
179.3372822670952
 20
432.721812058822
 30
0.0
 11
179.3372822670953
 21
440.7218120588219
 31
0.0
  0
LINE
  5
5F3
330
1E
100
AcDbEntity
  8
STEMPEL
100
AcDbLine
 10
177.9428566563236
 20
432.721812058822
 30
0.0
 11
177.9428566563236
 21
440.7218120588219
 31
0.0
  0
LINE
  5
5F4
330
1E
100
AcDbEntity
  8
STEMPEL
100
AcDbLine
 10
174.9388213262537
 20
432.721812058822
 30
0.0
 11
174.9388213262537
 21
440.7218120588219
 31
0.0
  0
LINE
  5
5F5
330
1E
100
AcDbEntity
  8
STEMPEL
100
AcDbLine
 10
177.9428566563236
 20
464.7218120588219
 30
0.0
 11
181.9428566563236
 21
464.7218120588219
 31
0.0
  0
LINE
  5
5F6
330
1E
100
AcDbEntity
  8
STEMPEL
100
AcDbLine
 10
177.9428566563236
 20
456.7218120588219
 30
0.0
 11
181.9428566563236
 21
456.7218120588219
 31
0.0
  0
LINE
  5
5F7
330
1E
100
AcDbEntity
  8
STEMPEL
100
AcDbLine
 10
177.9428566563236
 20
452.7218120588219
 30
0.0
 11
181.9428566563236
 21
452.7218120588219
 31
0.0
  0
LINE
  5
5F8
330
1E
100
AcDbEntity
  8
STEMPEL
100
AcDbLine
 10
177.9428566563236
 20
444.7218120588219
 30
0.0
 11
181.9428566563236
 21
444.7218120588219
 31
0.0
  0
LINE
  5
5F9
330
1E
100
AcDbEntity
  8
STEMPEL
100
AcDbLine
 10
186.0127623574056
 20
444.7218120588219
 30
0.0
 11
186.0127623574056
 21
452.7218120588219
 31
0.0
  0
LINE
  5
5FA
330
1E
100
AcDbEntity
  8
STEMPEL
100
AcDbLine
 10
184.9777817421525
 20
444.7218120588219
 30
0.0
 11
184.9777817421525
 21
452.7218120588219
 31
0.0
  0
LINE
  5
5FB
330
1E
100
AcDbEntity
  8
STEMPEL
100
AcDbLine
 10
181.9428566563236
 20
444.7218120588219
 30
0.0
 11
181.9428566563236
 21
452.7218120588219
 31
0.0
  0
LINE
  5
5FC
330
1E
100
AcDbEntity
  8
STEMPEL
100
AcDbLine
 10
184.9777817421525
 20
456.7218120588219
 30
0.0
 11
184.9777817421525
 21
464.7218120588219
 31
0.0
  0
LINE
  5
5FD
330
1E
100
AcDbEntity
  8
STEMPEL
100
AcDbLine
 10
186.0127623574056
 20
456.7218120588219
 30
0.0
 11
186.0127623574056
 21
464.7218120588219
 31
0.0
  0
LINE
  5
5FE
330
1E
100
AcDbEntity
  8
STEMPEL
100
AcDbLine
 10
181.9428566563236
 20
456.7218120588219
 30
0.0
 11
181.9428566563236
 21
464.7218120588219
 31
0.0
  0
LINE
  5
5FF
330
1E
100
AcDbEntity
  8
STEMPEL
100
AcDbLine
 10
174.9388213262537
 20
452.7218120588219
 30
0.0
 11
176.3280067475893
 21
452.7218120588219
 31
0.0
  0
LINE
  5
600
330
1E
100
AcDbEntity
  8
STEMPEL
100
AcDbLine
 10
174.9388213262537
 20
444.7218120588219
 30
0.0
 11
176.3280067475892
 21
444.7218120588219
 31
0.0
  0
LINE
  5
601
330
1E
100
AcDbEntity
  8
STEMPEL
100
AcDbLine
 10
176.3280067475892
 20
444.7218120588219
 30
0.0
 11
176.3280067475893
 21
452.7218120588219
 31
0.0
  0
LINE
  5
602
330
1E
100
AcDbEntity
  8
STEMPEL
100
AcDbLine
 10
179.3372822670953
 20
444.7218120588219
 30
0.0
 11
179.3372822670953
 21
452.7218120588219
 31
0.0
  0
LINE
  5
603
330
1E
100
AcDbEntity
  8
STEMPEL
100
AcDbLine
 10
177.9428566563236
 20
444.7218120588219
 30
0.0
 11
177.9428566563236
 21
452.721812058822
 31
0.0
  0
LINE
  5
604
330
1E
100
AcDbEntity
  8
STEMPEL
100
AcDbLine
 10
174.9388213262537
 20
444.7218120588219
 30
0.0
 11
174.9388213262537
 21
452.7218120588219
 31
0.0
  0
LINE
  5
605
330
1E
100
AcDbEntity
  8
STEMPEL
100
AcDbLine
 10
174.9388213262537
 20
464.7218120588219
 30
0.0
 11
176.3280067475893
 21
464.7218120588219
 31
0.0
  0
LINE
  5
606
330
1E
100
AcDbEntity
  8
STEMPEL
100
AcDbLine
 10
174.9388213262537
 20
456.7218120588219
 30
0.0
 11
176.3280067475893
 21
456.7218120588219
 31
0.0
  0
LINE
  5
607
330
1E
100
AcDbEntity
  8
STEMPEL
100
AcDbLine
 10
176.3280067475893
 20
456.7218120588219
 30
0.0
 11
176.3280067475893
 21
464.7218120588219
 31
0.0
  0
LINE
  5
608
330
1E
100
AcDbEntity
  8
STEMPEL
100
AcDbLine
 10
179.3372822670953
 20
456.7218120588219
 30
0.0
 11
179.3372822670953
 21
464.7218120588219
 31
0.0
  0
LINE
  5
609
330
1E
100
AcDbEntity
  8
STEMPEL
100
AcDbLine
 10
177.9428566563236
 20
456.7218120588219
 30
0.0
 11
177.9428566563236
 21
464.7218120588219
 31
0.0
  0
LINE
  5
60A
330
1E
100
AcDbEntity
  8
STEMPEL
100
AcDbLine
 10
174.9388213262537
 20
456.7218120588219
 30
0.0
 11
174.9388213262537
 21
464.7218120588219
 31
0.0
  0
LINE
  5
60B
330
1E
100
AcDbEntity
  8
STEMPEL
100
AcDbLine
 10
184.9777817421525
 20
512.7218120588219
 30
0.0
 11
191.1061372871044
 21
512.7218120588219
 31
0.0
  0
LINE
  5
60C
330
1E
100
AcDbEntity
  8
STEMPEL
100
AcDbLine
 10
184.9777817421525
 20
504.7218120588219
 30
0.0
 11
191.1061372871044
 21
504.7218120588219
 31
0.0
  0
LINE
  5
60D
330
1E
100
AcDbEntity
  8
STEMPEL
100
AcDbLine
 10
184.9777817421525
 20
500.7218120588219
 30
0.0
 11
191.1061372871044
 21
500.7218120588219
 31
0.0
  0
LINE
  5
60E
330
1E
100
AcDbEntity
  8
STEMPEL
100
AcDbLine
 10
184.9777817421525
 20
492.7218120588219
 30
0.0
 11
191.1061372871044
 21
492.7218120588219
 31
0.0
  0
LINE
  5
60F
330
1E
100
AcDbEntity
  8
STEMPEL
100
AcDbLine
 10
184.9777817421525
 20
488.7218120588219
 30
0.0
 11
191.1061372871044
 21
488.7218120588219
 31
0.0
  0
LINE
  5
610
330
1E
100
AcDbEntity
  8
STEMPEL
100
AcDbLine
 10
184.9777817421525
 20
480.7218120588219
 30
0.0
 11
191.1061372871044
 21
480.7218120588219
 31
0.0
  0
LINE
  5
611
330
1E
100
AcDbEntity
  8
STEMPEL
100
AcDbLine
 10
184.9777817421525
 20
476.721812058822
 30
0.0
 11
191.1061372871044
 21
476.721812058822
 31
0.0
  0
LINE
  5
612
330
1E
100
AcDbEntity
  8
STEMPEL
100
AcDbLine
 10
184.9777817421525
 20
468.7218120588219
 30
0.0
 11
191.1061372871043
 21
468.7218120588219
 31
0.0
  0
LINE
  5
613
330
1E
100
AcDbEntity
  8
STEMPEL
100
AcDbLine
 10
207.3623967548036
 20
468.7218120588219
 30
0.0
 11
207.3623967548036
 21
476.721812058822
 31
0.0
  0
LINE
  5
614
330
1E
100
AcDbEntity
  8
STEMPEL
100
AcDbLine
 10
207.3623967548036
 20
480.7218120588219
 30
0.0
 11
207.3623967548036
 21
488.7218120588219
 31
0.0
  0
LINE
  5
615
330
1E
100
AcDbEntity
  8
STEMPEL
100
AcDbLine
 10
207.3623967548036
 20
492.7218120588219
 30
0.0
 11
207.3623967548036
 21
500.7218120588219
 31
0.0
  0
LINE
  5
616
330
1E
100
AcDbEntity
  8
STEMPEL
100
AcDbLine
 10
207.3623967548036
 20
504.7218120588219
 30
0.0
 11
207.3623967548036
 21
512.7218120588219
 31
0.0
  0
LINE
  5
617
330
1E
100
AcDbEntity
  8
STEMPEL
100
AcDbLine
 10
195.195080793953
 20
468.7218120588219
 30
0.0
 11
202.7126217602402
 21
468.7218120588219
 31
0.0
  0
LINE
  5
618
330
1E
100
AcDbEntity
  8
STEMPEL
100
AcDbLine
 10
195.1950807939529
 20
476.721812058822
 30
0.0
 11
202.7126217602402
 21
476.721812058822
 31
0.0
  0
LINE
  5
619
330
1E
100
AcDbEntity
  8
STEMPEL
100
AcDbLine
 10
195.195080793953
 20
480.721812058822
 30
0.0
 11
202.7126217602402
 21
480.7218120588219
 31
0.0
  0
LINE
  5
61A
330
1E
100
AcDbEntity
  8
STEMPEL
100
AcDbLine
 10
195.195080793953
 20
488.7218120588219
 30
0.0
 11
202.7126217602402
 21
488.7218120588219
 31
0.0
  0
LINE
  5
61B
330
1E
100
AcDbEntity
  8
STEMPEL
100
AcDbLine
 10
202.7126217602402
 20
468.7218120588219
 30
0.0
 11
202.7126217602402
 21
476.721812058822
 31
0.0
  0
LINE
  5
61C
330
1E
100
AcDbEntity
  8
STEMPEL
100
AcDbLine
 10
202.7126217602402
 20
480.7218120588219
 30
0.0
 11
202.7126217602402
 21
488.7218120588219
 31
0.0
  0
LINE
  5
61D
330
1E
100
AcDbEntity
  8
STEMPEL
100
AcDbLine
 10
195.195080793953
 20
468.7218120588219
 30
0.0
 11
195.195080793953
 21
476.721812058822
 31
0.0
  0
LINE
  5
61E
330
1E
100
AcDbEntity
  8
STEMPEL
100
AcDbLine
 10
195.7457824768009
 20
468.7218120588219
 30
0.0
 11
195.7457824768009
 21
476.721812058822
 31
0.0
  0
LINE
  5
61F
330
1E
100
AcDbEntity
  8
STEMPEL
100
AcDbLine
 10
191.1061372871043
 20
468.7218120588219
 30
0.0
 11
191.1061372871044
 21
476.721812058822
 31
0.0
  0
LINE
  5
620
330
1E
100
AcDbEntity
  8
STEMPEL
100
AcDbLine
 10
195.7457824768009
 20
480.721812058822
 30
0.0
 11
195.7457824768009
 21
488.7218120588219
 31
0.0
  0
LINE
  5
621
330
1E
100
AcDbEntity
  8
STEMPEL
100
AcDbLine
 10
195.195080793953
 20
480.721812058822
 30
0.0
 11
195.195080793953
 21
488.7218120588219
 31
0.0
  0
LINE
  5
622
330
1E
100
AcDbEntity
  8
STEMPEL
100
AcDbLine
 10
191.1061372871044
 20
480.7218120588219
 30
0.0
 11
191.1061372871044
 21
488.7218120588219
 31
0.0
  0
LINE
  5
623
330
1E
100
AcDbEntity
  8
STEMPEL
100
AcDbLine
 10
195.195080793953
 20
492.7218120588219
 30
0.0
 11
202.7126217602403
 21
492.7218120588219
 31
0.0
  0
LINE
  5
624
330
1E
100
AcDbEntity
  8
STEMPEL
100
AcDbLine
 10
195.195080793953
 20
500.7218120588219
 30
0.0
 11
202.7126217602403
 21
500.7218120588219
 31
0.0
  0
LINE
  5
625
330
1E
100
AcDbEntity
  8
STEMPEL
100
AcDbLine
 10
195.195080793953
 20
512.721812058822
 30
0.0
 11
202.7126217602403
 21
512.7218120588219
 31
0.0
  0
LINE
  5
626
330
1E
100
AcDbEntity
  8
STEMPEL
100
AcDbLine
 10
195.195080793953
 20
504.7218120588219
 30
0.0
 11
202.7126217602403
 21
504.7218120588219
 31
0.0
  0
LINE
  5
627
330
1E
100
AcDbEntity
  8
STEMPEL
100
AcDbLine
 10
202.7126217602403
 20
492.7218120588219
 30
0.0
 11
202.7126217602403
 21
500.7218120588219
 31
0.0
  0
LINE
  5
628
330
1E
100
AcDbEntity
  8
STEMPEL
100
AcDbLine
 10
202.7126217602403
 20
504.7218120588219
 30
0.0
 11
202.7126217602403
 21
512.7218120588219
 31
0.0
  0
LINE
  5
629
330
1E
100
AcDbEntity
  8
STEMPEL
100
AcDbLine
 10
195.195080793953
 20
492.7218120588219
 30
0.0
 11
195.195080793953
 21
500.7218120588219
 31
0.0
  0
LINE
  5
62A
330
1E
100
AcDbEntity
  8
STEMPEL
100
AcDbLine
 10
195.7457824768009
 20
492.7218120588219
 30
0.0
 11
195.7457824768009
 21
500.7218120588219
 31
0.0
  0
LINE
  5
62B
330
1E
100
AcDbEntity
  8
STEMPEL
100
AcDbLine
 10
191.1061372871044
 20
492.7218120588219
 30
0.0
 11
191.1061372871044
 21
500.7218120588219
 31
0.0
  0
LINE
  5
62C
330
1E
100
AcDbEntity
  8
STEMPEL
100
AcDbLine
 10
195.195080793953
 20
504.7218120588219
 30
0.0
 11
195.195080793953
 21
512.721812058822
 31
0.0
  0
LINE
  5
62D
330
1E
100
AcDbEntity
  8
STEMPEL
100
AcDbLine
 10
195.7457824768009
 20
504.7218120588219
 30
0.0
 11
195.7457824768009
 21
512.721812058822
 31
0.0
  0
LINE
  5
62E
330
1E
100
AcDbEntity
  8
STEMPEL
100
AcDbLine
 10
191.1061372871044
 20
504.7218120588219
 30
0.0
 11
191.1061372871044
 21
512.7218120588219
 31
0.0
  0
LINE
  5
62F
330
1E
100
AcDbEntity
  8
STEMPEL
100
AcDbLine
 10
177.9428566563236
 20
488.7218120588219
 30
0.0
 11
181.9428566563236
 21
488.7218120588219
 31
0.0
  0
LINE
  5
630
330
1E
100
AcDbEntity
  8
STEMPEL
100
AcDbLine
 10
177.9428566563236
 20
468.7218120588219
 30
0.0
 11
181.9428566563236
 21
468.7218120588219
 31
0.0
  0
LINE
  5
631
330
1E
100
AcDbEntity
  8
STEMPEL
100
AcDbLine
 10
177.9428566563236
 20
476.721812058822
 30
0.0
 11
181.9428566563236
 21
476.721812058822
 31
0.0
  0
LINE
  5
632
330
1E
100
AcDbEntity
  8
STEMPEL
100
AcDbLine
 10
177.9428566563236
 20
480.7218120588219
 30
0.0
 11
181.9428566563236
 21
480.7218120588219
 31
0.0
  0
LINE
  5
633
330
1E
100
AcDbEntity
  8
STEMPEL
100
AcDbLine
 10
184.9777817421525
 20
468.7218120588219
 30
0.0
 11
184.9777817421525
 21
476.721812058822
 31
0.0
  0
LINE
  5
634
330
1E
100
AcDbEntity
  8
STEMPEL
100
AcDbLine
 10
186.0127623574056
 20
468.7218120588219
 30
0.0
 11
186.0127623574056
 21
476.721812058822
 31
0.0
  0
LINE
  5
635
330
1E
100
AcDbEntity
  8
STEMPEL
100
AcDbLine
 10
181.9428566563236
 20
468.7218120588219
 30
0.0
 11
181.9428566563236
 21
476.721812058822
 31
0.0
  0
LINE
  5
636
330
1E
100
AcDbEntity
  8
STEMPEL
100
AcDbLine
 10
186.0127623574056
 20
480.7218120588219
 30
0.0
 11
186.0127623574056
 21
488.7218120588219
 31
0.0
  0
LINE
  5
637
330
1E
100
AcDbEntity
  8
STEMPEL
100
AcDbLine
 10
184.9777817421525
 20
480.7218120588219
 30
0.0
 11
184.9777817421525
 21
488.7218120588219
 31
0.0
  0
LINE
  5
638
330
1E
100
AcDbEntity
  8
STEMPEL
100
AcDbLine
 10
181.9428566563236
 20
480.7218120588219
 30
0.0
 11
181.9428566563236
 21
488.7218120588219
 31
0.0
  0
LINE
  5
639
330
1E
100
AcDbEntity
  8
STEMPEL
100
AcDbLine
 10
174.9388213262537
 20
468.7218120588219
 30
0.0
 11
176.3280067475893
 21
468.7218120588219
 31
0.0
  0
LINE
  5
63A
330
1E
100
AcDbEntity
  8
STEMPEL
100
AcDbLine
 10
174.9388213262538
 20
476.721812058822
 30
0.0
 11
176.3280067475892
 21
476.721812058822
 31
0.0
  0
LINE
  5
63B
330
1E
100
AcDbEntity
  8
STEMPEL
100
AcDbLine
 10
176.3280067475893
 20
468.7218120588219
 30
0.0
 11
176.3280067475892
 21
476.721812058822
 31
0.0
  0
LINE
  5
63C
330
1E
100
AcDbEntity
  8
STEMPEL
100
AcDbLine
 10
179.3372822670953
 20
468.7218120588219
 30
0.0
 11
179.3372822670953
 21
476.721812058822
 31
0.0
  0
LINE
  5
63D
330
1E
100
AcDbEntity
  8
STEMPEL
100
AcDbLine
 10
177.9428566563236
 20
468.7218120588219
 30
0.0
 11
177.9428566563236
 21
476.721812058822
 31
0.0
  0
LINE
  5
63E
330
1E
100
AcDbEntity
  8
STEMPEL
100
AcDbLine
 10
174.9388213262537
 20
468.7218120588219
 30
0.0
 11
174.9388213262538
 21
476.721812058822
 31
0.0
  0
LINE
  5
63F
330
1E
100
AcDbEntity
  8
STEMPEL
100
AcDbLine
 10
174.9388213262538
 20
488.7218120588219
 30
0.0
 11
176.3280067475892
 21
488.7218120588219
 31
0.0
  0
LINE
  5
640
330
1E
100
AcDbEntity
  8
STEMPEL
100
AcDbLine
 10
174.9388213262538
 20
480.7218120588219
 30
0.0
 11
176.3280067475892
 21
480.7218120588219
 31
0.0
  0
LINE
  5
641
330
1E
100
AcDbEntity
  8
STEMPEL
100
AcDbLine
 10
176.3280067475892
 20
480.7218120588219
 30
0.0
 11
176.3280067475892
 21
488.7218120588219
 31
0.0
  0
LINE
  5
642
330
1E
100
AcDbEntity
  8
STEMPEL
100
AcDbLine
 10
179.3372822670953
 20
480.7218120588219
 30
0.0
 11
179.3372822670953
 21
488.7218120588219
 31
0.0
  0
LINE
  5
643
330
1E
100
AcDbEntity
  8
STEMPEL
100
AcDbLine
 10
177.9428566563236
 20
480.7218120588219
 30
0.0
 11
177.9428566563236
 21
488.7218120588219
 31
0.0
  0
LINE
  5
644
330
1E
100
AcDbEntity
  8
STEMPEL
100
AcDbLine
 10
174.9388213262538
 20
480.7218120588219
 30
0.0
 11
174.9388213262538
 21
488.7218120588219
 31
0.0
  0
LINE
  5
645
330
1E
100
AcDbEntity
  8
STEMPEL
100
AcDbLine
 10
177.9428566563236
 20
512.7218120588219
 30
0.0
 11
181.9428566563236
 21
512.7218120588219
 31
0.0
  0
LINE
  5
646
330
1E
100
AcDbEntity
  8
STEMPEL
100
AcDbLine
 10
177.9428566563236
 20
504.7218120588219
 30
0.0
 11
181.9428566563236
 21
504.7218120588219
 31
0.0
  0
LINE
  5
647
330
1E
100
AcDbEntity
  8
STEMPEL
100
AcDbLine
 10
177.9428566563236
 20
500.7218120588219
 30
0.0
 11
181.9428566563236
 21
500.7218120588219
 31
0.0
  0
LINE
  5
648
330
1E
100
AcDbEntity
  8
STEMPEL
100
AcDbLine
 10
177.9428566563236
 20
492.721812058822
 30
0.0
 11
181.9428566563236
 21
492.7218120588219
 31
0.0
  0
LINE
  5
649
330
1E
100
AcDbEntity
  8
STEMPEL
100
AcDbLine
 10
184.9777817421525
 20
492.7218120588219
 30
0.0
 11
184.9777817421525
 21
500.7218120588219
 31
0.0
  0
LINE
  5
64A
330
1E
100
AcDbEntity
  8
STEMPEL
100
AcDbLine
 10
186.0127623574056
 20
492.7218120588219
 30
0.0
 11
186.0127623574056
 21
500.7218120588219
 31
0.0
  0
LINE
  5
64B
330
1E
100
AcDbEntity
  8
STEMPEL
100
AcDbLine
 10
181.9428566563236
 20
492.7218120588219
 30
0.0
 11
181.9428566563236
 21
500.7218120588219
 31
0.0
  0
LINE
  5
64C
330
1E
100
AcDbEntity
  8
STEMPEL
100
AcDbLine
 10
184.9777817421525
 20
504.7218120588219
 30
0.0
 11
184.9777817421525
 21
512.7218120588219
 31
0.0
  0
LINE
  5
64D
330
1E
100
AcDbEntity
  8
STEMPEL
100
AcDbLine
 10
186.0127623574056
 20
504.7218120588219
 30
0.0
 11
186.0127623574056
 21
512.721812058822
 31
0.0
  0
LINE
  5
64E
330
1E
100
AcDbEntity
  8
STEMPEL
100
AcDbLine
 10
181.9428566563236
 20
504.7218120588219
 30
0.0
 11
181.9428566563236
 21
512.7218120588219
 31
0.0
  0
LINE
  5
64F
330
1E
100
AcDbEntity
  8
STEMPEL
100
AcDbLine
 10
174.9388213262538
 20
500.7218120588219
 30
0.0
 11
176.3280067475893
 21
500.7218120588219
 31
0.0
  0
LINE
  5
650
330
1E
100
AcDbEntity
  8
STEMPEL
100
AcDbLine
 10
174.9388213262538
 20
492.721812058822
 30
0.0
 11
176.3280067475893
 21
492.721812058822
 31
0.0
  0
LINE
  5
651
330
1E
100
AcDbEntity
  8
STEMPEL
100
AcDbLine
 10
176.3280067475893
 20
492.7218120588219
 30
0.0
 11
176.3280067475893
 21
500.7218120588219
 31
0.0
  0
LINE
  5
652
330
1E
100
AcDbEntity
  8
STEMPEL
100
AcDbLine
 10
179.3372822670953
 20
492.7218120588219
 30
0.0
 11
179.3372822670953
 21
500.7218120588219
 31
0.0
  0
LINE
  5
653
330
1E
100
AcDbEntity
  8
STEMPEL
100
AcDbLine
 10
177.9428566563236
 20
492.7218120588219
 30
0.0
 11
177.9428566563236
 21
500.7218120588219
 31
0.0
  0
LINE
  5
654
330
1E
100
AcDbEntity
  8
STEMPEL
100
AcDbLine
 10
174.9388213262538
 20
492.7218120588219
 30
0.0
 11
174.9388213262538
 21
500.7218120588219
 31
0.0
  0
LINE
  5
655
330
1E
100
AcDbEntity
  8
STEMPEL
100
AcDbLine
 10
174.9388213262538
 20
512.7218120588219
 30
0.0
 11
176.3280067475893
 21
512.7218120588219
 31
0.0
  0
LINE
  5
656
330
1E
100
AcDbEntity
  8
STEMPEL
100
AcDbLine
 10
174.9388213262538
 20
504.7218120588219
 30
0.0
 11
176.3280067475893
 21
504.7218120588219
 31
0.0
  0
LINE
  5
657
330
1E
100
AcDbEntity
  8
STEMPEL
100
AcDbLine
 10
176.3280067475893
 20
504.7218120588219
 30
0.0
 11
176.3280067475893
 21
512.7218120588219
 31
0.0
  0
LINE
  5
658
330
1E
100
AcDbEntity
  8
STEMPEL
100
AcDbLine
 10
179.3372822670953
 20
504.7218120588219
 30
0.0
 11
179.3372822670953
 21
512.7218120588219
 31
0.0
  0
LINE
  5
659
330
1E
100
AcDbEntity
  8
STEMPEL
100
AcDbLine
 10
177.9428566563236
 20
504.7218120588219
 30
0.0
 11
177.9428566563236
 21
512.7218120588219
 31
0.0
  0
LINE
  5
65A
330
1E
100
AcDbEntity
  8
STEMPEL
100
AcDbLine
 10
174.9388213262538
 20
504.7218120588219
 30
0.0
 11
174.9388213262538
 21
512.7218120588219
 31
0.0
  0
LINE
  5
65B
330
1E
100
AcDbEntity
  8
STEMPEL
100
AcDbLine
 10
247.8623967548036
 20
516.7218120588219
 30
0.0
 11
174.8623967548035
 21
516.7218120588219
 31
0.0
  0
ARC
  5
65C
330
1E
100
AcDbEntity
  8
STEMPEL
100
AcDbCircle
 10
253.8623967548036
 20
516.3197614995172
 30
0.0
 40
6.0
100
AcDbArc
 50
145.0200163805635
 51
180.0
  0
ARC
  5
65D
330
1E
100
AcDbEntity
  8
STEMPEL
100
AcDbCircle
 10
168.8623967548035
 20
516.3197614995172
 30
0.0
 40
6.0
100
AcDbArc
 50
0.0
 51
34.97998361943646
  0
ARC
  5
671
330
1E
100
AcDbEntity
  8
SCHRAFF
100
AcDbCircle
 10
176.4784177801407
 20
516.9560197150898
 30
0.0
 40
2.757391485744821
100
AcDbArc
 50
140.1794606935765
 51
234.1214706385535
  0
ARC
  5
672
330
1E
100
AcDbEntity
  8
SCHRAFF
100
AcDbCircle
 10
246.2463757294664
 20
516.9560197150898
 30
0.0
 40
2.757391485744821
100
AcDbArc
 50
305.8785293614465
 51
39.82053930642346
  0
ARC
  5
673
330
1E
100
AcDbEntity
  8
SCHRAFF
100
AcDbCircle
 10
174.1835348714371
 20
516.721812058822
 30
0.0
 40
2.830597473351483
100
AcDbArc
 50
315.0439144710248
 51
44.95608552897518
  0
ARC
  5
674
330
1E
100
AcDbEntity
  8
SCHRAFF
100
AcDbCircle
 10
177.0651679551727
 20
516.721812058822
 30
0.0
 40
2.830597473351483
100
AcDbArc
 50
315.0439144710248
 51
44.95608552897518
  0
ARC
  5
675
330
1E
100
AcDbEntity
  8
SCHRAFF
100
AcDbCircle
 10
179.9468010389083
 20
516.721812058822
 30
0.0
 40
2.830597473351483
100
AcDbArc
 50
315.0439144710248
 51
44.95608552897518
  0
ARC
  5
676
330
1E
100
AcDbEntity
  8
SCHRAFF
100
AcDbCircle
 10
182.8284341226439
 20
516.721812058822
 30
0.0
 40
2.830597473351483
100
AcDbArc
 50
315.0439144710248
 51
44.95608552897518
  0
ARC
  5
677
330
1E
100
AcDbEntity
  8
SCHRAFF
100
AcDbCircle
 10
185.7100672063795
 20
516.721812058822
 30
0.0
 40
2.830597473351483
100
AcDbArc
 50
315.0439144710248
 51
44.95608552897518
  0
ARC
  5
678
330
1E
100
AcDbEntity
  8
SCHRAFF
100
AcDbCircle
 10
188.5917002901151
 20
516.721812058822
 30
0.0
 40
2.830597473351483
100
AcDbArc
 50
315.0439144710248
 51
44.95608552897518
  0
ARC
  5
679
330
1E
100
AcDbEntity
  8
SCHRAFF
100
AcDbCircle
 10
191.4733333738507
 20
516.721812058822
 30
0.0
 40
2.830597473351483
100
AcDbArc
 50
315.0439144710248
 51
44.95608552897518
  0
ARC
  5
67A
330
1E
100
AcDbEntity
  8
SCHRAFF
100
AcDbCircle
 10
194.3549664575863
 20
516.721812058822
 30
0.0
 40
2.830597473351483
100
AcDbArc
 50
315.0439144710248
 51
44.95608552897518
  0
ARC
  5
67B
330
1E
100
AcDbEntity
  8
SCHRAFF
100
AcDbCircle
 10
197.2365995413219
 20
516.721812058822
 30
0.0
 40
2.830597473351483
100
AcDbArc
 50
315.0439144710248
 51
44.95608552897518
  0
ARC
  5
67C
330
1E
100
AcDbEntity
  8
SCHRAFF
100
AcDbCircle
 10
200.1182326250575
 20
516.721812058822
 30
0.0
 40
2.830597473351483
100
AcDbArc
 50
315.0439144710248
 51
44.95608552897518
  0
ARC
  5
67D
330
1E
100
AcDbEntity
  8
SCHRAFF
100
AcDbCircle
 10
202.9998657087931
 20
516.721812058822
 30
0.0
 40
2.830597473351483
100
AcDbArc
 50
315.0439144710248
 51
44.95608552897518
  0
ARC
  5
67E
330
1E
100
AcDbEntity
  8
SCHRAFF
100
AcDbCircle
 10
205.8814987925287
 20
516.721812058822
 30
0.0
 40
2.830597473351483
100
AcDbArc
 50
315.0439144710248
 51
44.95608552897518
  0
ARC
  5
67F
330
1E
100
AcDbEntity
  8
SCHRAFF
100
AcDbCircle
 10
208.7631318762642
 20
516.721812058822
 30
0.0
 40
2.830597473351483
100
AcDbArc
 50
315.0439144710248
 51
44.95608552897518
  0
ARC
  5
680
330
1E
100
AcDbEntity
  8
SCHRAFF
100
AcDbCircle
 10
211.6447649599998
 20
516.721812058822
 30
0.0
 40
2.830597473351483
100
AcDbArc
 50
315.0439144710248
 51
44.95608552897518
  0
ARC
  5
681
330
1E
100
AcDbEntity
  8
SCHRAFF
100
AcDbCircle
 10
214.5263980437354
 20
516.721812058822
 30
0.0
 40
2.830597473351483
100
AcDbArc
 50
315.0439144710248
 51
44.95608552897518
  0
ARC
  5
682
330
1E
100
AcDbEntity
  8
SCHRAFF
100
AcDbCircle
 10
217.408031127471
 20
516.721812058822
 30
0.0
 40
2.830597473351483
100
AcDbArc
 50
315.0439144710248
 51
44.95608552897518
  0
ARC
  5
683
330
1E
100
AcDbEntity
  8
SCHRAFF
100
AcDbCircle
 10
220.2896642112066
 20
516.721812058822
 30
0.0
 40
2.830597473351483
100
AcDbArc
 50
315.0439144710248
 51
44.95608552897518
  0
ARC
  5
684
330
1E
100
AcDbEntity
  8
SCHRAFF
100
AcDbCircle
 10
223.1712972949422
 20
516.721812058822
 30
0.0
 40
2.830597473351483
100
AcDbArc
 50
315.0439144710248
 51
44.95608552897518
  0
ARC
  5
685
330
1E
100
AcDbEntity
  8
SCHRAFF
100
AcDbCircle
 10
226.0529303786777
 20
516.721812058822
 30
0.0
 40
2.830597473351483
100
AcDbArc
 50
315.0439144710248
 51
44.95608552897518
  0
ARC
  5
686
330
1E
100
AcDbEntity
  8
SCHRAFF
100
AcDbCircle
 10
228.9345634624134
 20
516.721812058822
 30
0.0
 40
2.830597473351483
100
AcDbArc
 50
315.0439144710248
 51
44.95608552897518
  0
ARC
  5
687
330
1E
100
AcDbEntity
  8
SCHRAFF
100
AcDbCircle
 10
231.8161965461489
 20
516.721812058822
 30
0.0
 40
2.830597473351483
100
AcDbArc
 50
315.0439144710248
 51
44.95608552897518
  0
ARC
  5
688
330
1E
100
AcDbEntity
  8
SCHRAFF
100
AcDbCircle
 10
234.6978296298845
 20
516.721812058822
 30
0.0
 40
2.830597473351483
100
AcDbArc
 50
315.0439144710248
 51
44.95608552897518
  0
LINE
  5
68A
330
1E
100
AcDbEntity
  8
STEMPEL
100
AcDbLine
 10
247.7859721833534
 20
504.7218120588219
 30
0.0
 11
247.7859721833534
 21
512.7218120588219
 31
0.0
  0
LINE
  5
68B
330
1E
100
AcDbEntity
  8
STEMPEL
100
AcDbLine
 10
244.7819368532836
 20
504.7218120588219
 30
0.0
 11
244.7819368532836
 21
512.7218120588219
 31
0.0
  0
LINE
  5
68C
330
1E
100
AcDbEntity
  8
STEMPEL
100
AcDbLine
 10
243.3875112425119
 20
504.7218120588219
 30
0.0
 11
243.3875112425119
 21
512.7218120588219
 31
0.0
  0
LINE
  5
68D
330
1E
100
AcDbEntity
  8
STEMPEL
100
AcDbLine
 10
246.3967867620179
 20
504.7218120588219
 30
0.0
 11
246.3967867620179
 21
512.7218120588219
 31
0.0
  0
LINE
  5
68E
330
1E
100
AcDbEntity
  8
STEMPEL
100
AcDbLine
 10
247.7859721833534
 20
504.7218120588219
 30
0.0
 11
246.3967867620179
 21
504.7218120588219
 31
0.0
  0
LINE
  5
68F
330
1E
100
AcDbEntity
  8
STEMPEL
100
AcDbLine
 10
247.7859721833534
 20
512.7218120588219
 30
0.0
 11
246.3967867620179
 21
512.7218120588219
 31
0.0
  0
LINE
  5
690
330
1E
100
AcDbEntity
  8
STEMPEL
100
AcDbLine
 10
240.7819368532836
 20
504.7218120588219
 30
0.0
 11
240.7819368532836
 21
512.7218120588219
 31
0.0
  0
LINE
  5
691
330
1E
100
AcDbEntity
  8
STEMPEL
100
AcDbLine
 10
244.7819368532836
 20
504.7218120588219
 30
0.0
 11
240.7819368532836
 21
504.7218120588219
 31
0.0
  0
LINE
  5
692
330
1E
100
AcDbEntity
  8
STEMPEL
100
AcDbLine
 10
244.7819368532836
 20
512.7218120588219
 30
0.0
 11
240.7819368532836
 21
512.7218120588219
 31
0.0
  0
ARC
  5
693
330
1E
100
AcDbEntity
  8
SCHRAFF
100
AcDbCircle
 10
243.3427288810913
 20
516.721812058822
 30
0.0
 40
2.830597473351483
100
AcDbArc
 50
315.0439144710248
 51
44.95608552897518
  0
ARC
  5
694
330
1E
100
AcDbEntity
  8
SCHRAFF
100
AcDbCircle
 10
240.4610957973557
 20
516.721812058822
 30
0.0
 40
2.830597473351483
100
AcDbArc
 50
315.0439144710248
 51
44.95608552897518
  0
ARC
  5
695
330
1E
100
AcDbEntity
  8
SCHRAFF
100
AcDbCircle
 10
237.5794627136201
 20
516.721812058822
 30
0.0
 40
2.830597473351483
100
AcDbArc
 50
315.0439144710248
 51
44.95608552897518
  0
LINE
  5
698
330
1E
100
AcDbEntity
  8
STEMPEL
100
AcDbLine
 10
247.8623967548036
 20
488.721812058822
 30
0.0
 11
249.7594582702317
 21
488.721812058822
 31
0.0
  0
LINE
  5
699
330
1E
100
AcDbEntity
  8
STEMPEL
100
AcDbLine
 10
247.8623967548037
 20
464.8270474441629
 30
0.0
 11
248.8358423444868
 21
464.8270474441629
 31
0.0
  0
LINE
  5
69C
330
1E
100
AcDbEntity
  8
STEMPEL
100
AcDbLine
 10
172.9653352393757
 20
558.721812058822
 30
0.0
 11
174.8623967548037
 21
558.721812058822
 31
0.0
  0
ARC
  5
69E
330
1E
100
AcDbEntity
  8
STEMPEL
100
AcDbCircle
 10
249.7594582702318
 20
557.721812058822
 30
0.0
 40
1.0
100
AcDbArc
 50
29.411913665529
 51
90.0
  0
LINE
  5
69F
330
1E
100
AcDbEntity
  8
STEMPEL
100
AcDbLine
 10
253.1623967548038
 20
553.721812058822
 30
0.0
 11
250.6305699875811
 21
558.2128969556544
 31
0.0
  0
ARC
  5
6A0
330
1E
100
AcDbEntity
  8
STEMPEL
100
AcDbCircle
 10
172.9653352393757
 20
557.721812058822
 30
0.0
 40
1.0
100
AcDbArc
 50
90.0
 51
150.588086334471
  0
LINE
  5
6A1
330
1E
100
AcDbEntity
  8
STEMPEL
100
AcDbLine
 10
169.5623967548038
 20
553.721812058822
 30
0.0
 11
172.0942235220265
 21
558.2128969556544
 31
0.0
  0
HATCH
  5
8AF
330
1E
100
AcDbEntity
  8
SCHRAFF
100
AcDbHatch
 10
0.0
 20
0.0
 30
0.0
210
0.0
220
0.0
230
1.0
  2
NET
 70
     0
 71
     0
 91
        2
 92
        7
 72
     1
 73
     1
 93
       12
 10
247.8623967548036
 20
534.8270474441628
 42
0.0
 10
248.8358423444869
 20
534.8270474441628
 42
0.0284043890759212
 10
249.4966358828804
 20
539.8952814465779
 42
-0.8145244257889123
 10
251.0380625589728
 20
540.2492520114207
 42
0.0
 10
251.1558139371505
 20
538.7218120588218
 42
0.0
 10
251.8623967548037
 20
538.721812058822
 42
0.0
 10
251.8623967548037
 20
543.1728896517033
 42
0.1174534402570162
 10
249.3497191310345
 20
553.721812058822
 42
0.0
 10
253.1623967548038
 20
553.721812058822
 42
0.0
 10
250.6305699875811
 20
558.2128969556544
 42
0.7040385315424552
 10
248.7746505172196
 20
557.8954602364889
 42
0.0
 10
247.8623967548037
 20
552.721812058822
 42
0.0
 97
        0
 92
        7
 72
     1
 73
     1
 93
       12
 10
174.8623967548037
 20
552.721812058822
 42
0.0
 10
173.9501429923879
 20
557.8954602364889
 42
0.704038531542393
 10
172.0942235220264
 20
558.2128969556544
 42
0.0
 10
169.5623967548036
 20
553.721812058822
 42
0.0
 10
173.3750743785729
 20
553.721812058822
 42
0.1174534402570161
 10
170.8623967548036
 20
543.1728896517033
 42
0.0
 10
170.8623967548036
 20
538.721812058822
 42
0.0
 10
171.568979572457
 20
538.721812058822
 42
0.0
 10
171.6867309506347
 20
540.2492520114208
 42
-0.814524425789534
 10
173.2281576267271
 20
539.8952814465771
 42
0.0284043890759152
 10
173.8889511651206
 20
534.8270474441631
 42
0.0
 10
174.8623967548037
 20
534.8270474441631
 42
0.0
 97
        0
 75
     0
 76
     1
 52
45.0
 41
15.0
 77
     0
 78
     2
 53
45.0
 43
-41.84550113047214
 44
152.5336813348891
 45
-1.325825214724776
 46
1.325825214724776
 79
     0
 53
135.0
 43
-41.84550113047214
 44
152.5336813348891
 45
-1.325825214724776
 46
-1.325825214724776
 79
     0
 47
0.1498518399897213
 98
        2
 10
248.7826518736057
 20
544.385801367285
 10
173.0799414507715
 20
546.0341716385062
  0
LINE
  5
8B0
330
1E
100
AcDbEntity
  8
STEMPEL
100
AcDbLine
 10
171.568979572457
 20
538.721812058822
 30
0.0
 11
173.3292493152085
 21
538.721812058822
 31
0.0
  0
ARC
  5
8B1
330
1E
100
AcDbEntity
  8
STEMPEL
100
AcDbCircle
 10
172.42088038231
 20
539.9130428096675
 30
0.0
 40
0.8074726096733382
100
AcDbArc
 50
358.7396065059696
 51
155.3942355033067
  0
LINE
  5
8B2
330
1E
100
AcDbEntity
  8
STEMPEL
100
AcDbLine
 10
170.8623967548036
 20
538.721812058822
 30
0.0
 11
171.568979572457
 21
538.721812058822
 31
0.0
  0
LINE
  5
8B3
330
1E
100
AcDbEntity
  8
STEMPEL
100
AcDbLine
 10
171.568979572457
 20
538.721812058822
 30
0.0
 11
171.6867309506347
 21
540.2492520114208
 31
0.0
  0
ARC
  5
8B4
330
1E
100
AcDbEntity
  8
STEMPEL
100
AcDbCircle
 10
218.1304063943632
 20
543.1724177893886
 30
0.0
 40
45.02167885585847
100
AcDbArc
 50
184.1742621113243
 51
190.6823186889559
  0
LINE
  5
8B5
330
1E
100
AcDbEntity
  8
STEMPEL
100
AcDbLine
 10
173.8889511651206
 20
534.8270474441631
 30
0.0
 11
174.8623967548038
 21
534.8270474441632
 31
0.0
  0
ARC
  5
8B6
330
1E
100
AcDbEntity
  8
STEMPEL
100
AcDbCircle
 10
204.5943871152442
 20
543.1724177893886
 30
0.0
 40
45.02167885585847
100
AcDbArc
 50
349.3176813110439
 51
355.8257378886755
  0
LINE
  5
8B7
330
1E
100
AcDbEntity
  8
STEMPEL
100
AcDbLine
 10
251.1558139371505
 20
538.7218120588219
 30
0.0
 11
251.0380625589728
 21
540.2492520114207
 31
0.0
  0
LINE
  5
8B8
330
1E
100
AcDbEntity
  8
STEMPEL
100
AcDbLine
 10
251.8623967548038
 20
538.7218120588219
 30
0.0
 11
251.1558139371505
 21
538.7218120588219
 31
0.0
  0
ARC
  5
8B9
330
1E
100
AcDbEntity
  8
STEMPEL
100
AcDbCircle
 10
250.3039131272975
 20
539.9130428096675
 30
0.0
 40
0.8074726096733382
100
AcDbArc
 50
24.60576449669313
 51
181.2603934940303
  0
LINE
  5
8BA
330
1E
100
AcDbEntity
  8
STEMPEL
100
AcDbLine
 10
251.1558139371505
 20
538.7218120588219
 30
0.0
 11
249.395544194399
 21
538.7218120588219
 31
0.0
  0
LINE
  5
8BB
330
1E
100
AcDbEntity
  8
STEMPEL
100
AcDbLine
 10
247.8623967548037
 20
552.721812058822
 30
0.0
 11
248.7746505172196
 21
557.8954602364889
 31
0.0
  0
ARC
  5
8BC
330
1E
100
AcDbEntity
  8
STEMPEL
100
AcDbCircle
 10
249.7594582702318
 20
557.721812058822
 30
0.0
 40
1.0
100
AcDbArc
 50
29.411913665529
 51
169.9999999999981
  0
LINE
  5
8BD
330
1E
100
AcDbEntity
  8
STEMPEL
100
AcDbLine
 10
174.8623967548037
 20
552.721812058822
 30
0.0
 11
173.9501429923879
 21
557.8954602364889
 31
0.0
  0
ARC
  5
8BE
330
1E
100
AcDbEntity
  8
STEMPEL
100
AcDbCircle
 10
172.9653352393757
 20
557.721812058822
 30
0.0
 40
1.0
100
AcDbArc
 50
10.00000000000181
 51
150.588086334471
  0
LINE
  5
8BF
330
1E
100
AcDbEntity
  8
STEMPEL
100
AcDbLine
 10
247.8623967548037
 20
534.8270474441631
 30
0.0
 11
248.8358423444869
 21
534.8270474441628
 31
0.0
  0
LINE
  5
8C0
330
1E
100
AcDbEntity
  8
STEMPEL
100
AcDbLine
 10
178.2473487722971
 20
558.721812058822
 30
0.0
 11
183.3640197040583
 21
558.7218120588219
 31
0.0
  0
LINE
  5
8C3
330
1E
100
AcDbEntity
  8
STEMPEL
100
AcDbLine
 10
173.3750743785729
 20
553.721812058822
 30
0.0
 11
169.5623967548038
 21
553.721812058822
 31
0.0
  0
LINE
  5
8C4
330
1E
100
AcDbEntity
  8
STEMPEL
100
AcDbLine
 10
249.3497191310343
 20
553.7218120588221
 30
0.0
 11
253.1623967548037
 21
553.7218120588221
 31
0.0
  0
ARC
  5
8C5
330
1E
100
AcDbEntity
  8
STEMPEL
100
AcDbCircle
 10
194.2623967548036
 20
543.1728896517032
 30
0.0
 40
23.4
100
AcDbArc
 50
153.2044220687673
 51
180.0
  0
LINE
  5
8C6
330
1E
100
AcDbEntity
  8
STEMPEL
100
AcDbLine
 10
170.8623967548036
 20
543.1728896517032
 30
0.0
 11
170.8623967548036
 21
534.0235320106281
 31
0.0
  0
ARC
  5
8C7
330
1E
100
AcDbEntity
  8
STEMPEL
100
AcDbCircle
 10
194.2623967548036
 20
534.091812058822
 30
0.0
 40
23.40009324312573
100
AcDbArc
 50
179.8435140456689
 51
199.9620340921305
  0
ARC
  5
8C8
330
1E
100
AcDbEntity
  8
STEMPEL
100
AcDbCircle
 10
228.4623967548036
 20
543.1728896517032
 30
0.0
 40
23.4
100
AcDbArc
 50
0.0
 51
26.79557793123298
  0
LINE
  5
8C9
330
1E
100
AcDbEntity
  8
STEMPEL
100
AcDbLine
 10
251.8623967548036
 20
543.1728896517032
 30
0.0
 11
251.8623967548036
 21
534.0235320106281
 31
0.0
  0
ARC
  5
8CA
330
1E
100
AcDbEntity
  8
STEMPEL
100
AcDbCircle
 10
228.4623967548036
 20
534.091812058822
 30
0.0
 40
23.40009324312573
100
AcDbArc
 50
340.0497675530548
 51
0.1564859543310882
  0
SPLINE
  5
8CC
330
1E
100
AcDbEntity
  8
HILF
100
AcDbSpline
210
0.0
220
0.0
230
1.0
 70
     8
 71
     3
 72
    13
 73
     9
 74
     0
 42
0.0000000001
 43
0.0000000001
 40
3.424142251914193
 40
3.424142251914193
 40
3.424142251914193
 40
3.424142251914193
 40
11.19973371160205
 40
30.22900363560858
 40
40.14596170366288
 40
59.28880006463354
 40
74.69786106375114
 40
85.62640779260599
 40
85.62640779260599
 40
85.62640779260599
 40
85.62640779260599
 10
251.9901253528044
 20
525.638963474836
 30
0.0
 10
249.4832813993723
 20
526.4457706119388
 30
0.0
 10
240.8101131541082
 20
528.6511346037382
 30
0.0
 10
228.4445867189016
 20
522.7756786594398
 30
0.0
 10
212.8451476910285
 20
528.8128250737042
 30
0.0
 10
197.9070213352225
 20
523.1303989757789
 30
0.0
 10
182.9042902191497
 20
528.5454479146814
 30
0.0
 10
174.2896017816399
 20
526.6873856478748
 30
0.0
 10
170.718425588923
 20
525.6843104141498
 30
0.0
  0
HATCH
  5
8DF
330
1E
100
AcDbEntity
  8
SCHRAFF
100
AcDbHatch
 10
0.0
 20
0.0
 30
0.0
210
0.0
220
0.0
230
1.0
  2
_USER
 70
     0
 71
     0
 91
        2
 92
        5
 93
        8
 72
     2
 10
228.4623967548036
 20
543.1728896517031
 40
25.00000000000005
 50
0.0000000000001303
 51
24.95819631231608
 73
     1
 72
     1
 10
251.1277940830788
 20
553.7218120588221
 11
249.3497191310343
 21
553.7218120588221
 72
     2
 10
228.4623967548037
 20
543.1728896517032
 40
23.39999999999994
 50
333.2044220687671
 51
360.0
 73
     0
 72
     1
 10
251.8623967548036
 20
543.1728896517032
 11
251.8623967548036
 21
534.1578710247469
 72
     2
 10
228.4623967548035
 20
534.0918120588222
 40
23.40009324312584
 50
359.8382525687207
 51
379.9502324469455
 73
     0
 72
     4
 94
        3
 73
     0
 74
     0
 95
        8
 96
        4
 40
3.424142251914194
 40
3.424142251914194
 40
3.424142251914194
 40
3.424142251914194
 40
5.006640283972679
 40
5.006640283972679
 40
5.006640283972679
 40
5.006640283972679
 10
250.4582351356302
 20
526.1076115533531
 10
250.9693572296047
 20
525.9604479808022
 10
251.4799293576121
 20
525.8031658655268
 10
251.9901253528044
 20
525.638963474836
 72
     2
 10
228.4623967548035
 20
534.0918120588221
 40
25.00009324312582
 50
340.2380698761025
 51
359.8435140456315
 73
     1
 72
     1
 10
253.4623967548036
 20
534.023532010624
 11
253.4623967548036
 21
543.1728896517032
 97
        0
 92
        5
 93
        8
 72
     2
 10
194.2623967548036
 20
543.1728896517032
 40
23.39999999999998
 50
180.0
 51
206.7955779312326
 73
     0
 72
     1
 10
173.3750743785729
 20
553.721812058822
 11
171.5969994265283
 21
553.721812058822
 72
     2
 10
194.2623967548036
 20
543.1728896517032
 40
25.00000000000001
 50
155.0418036876843
 51
180.0
 73
     1
 72
     1
 10
169.2623967548036
 20
543.1728896517032
 11
169.2623967548036
 21
534.0235320106298
 72
     2
 10
194.2623967548036
 20
534.091812058822
 40
25.00009324312574
 50
180.1564859543548
 51
199.65153736367
 73
     1
 72
     4
 94
        3
 73
     0
 74
     0
 95
        8
 96
        4
 40
84.04577297143754
 40
84.04577297143754
 40
84.04577297143754
 40
84.04577297143754
 40
85.62640779260599
 40
85.62640779260599
 40
85.62640779260599
 40
85.62640779260599
 10
170.718425588923
 20
525.6843104141498
 10
171.2349375811198
 20
525.8293887747054
 10
171.7515208877749
 20
525.9696120850999
 10
172.268203406755
 20
526.103081073513
 72
     2
 10
194.2623967548036
 20
534.0918120588219
 40
23.40009324312578
 50
160.0379659078698
 51
180.1617474312795
 73
     0
 72
     1
 10
170.8623967548036
 20
534.1578710247468
 11
170.8623967548036
 21
543.1728896517031
 97
        0
 75
     0
 76
     0
 52
135.0
 41
2.0
 77
     0
 78
     1
 53
135.0
 43
0.0
 44
59.9227157564344
 45
-1.414213562373095
 46
-1.414213562373094
 79
     0
 47
0.1907497865802613
 98
        2
 10
253.0085954605697
 20
536.3347679341672
 10
170.1930718516105
 20
539.7682645391519
  0
DIMENSION
  5
8E8
330
1E
100
AcDbEntity
  8
BEM
100
AcDbDimension
  2
*D2
 10
247.8623967548033
 20
149.9643988783959
 30
0.0
 11
211.3623967548032
 21
156.464398878396
 31
0.0
 70
    32
  1
%%c<>
 71
     5
 42
73.00000000000022
  3
Standard
100
AcDbAlignedDimension
 13
174.862396754803
 23
181.6344901730045
 33
0.0
 14
247.8623967548033
 24
181.634490173006
 34
0.0
100
AcDbRotatedDimension
1001
ACAD
1000
DSTYLE
1002
{
1070
    40
1040
2.0
1070
    41
1040
3.5
1070
    42
1040
1.0
1070
    43
1040
7.0
1070
    44
1040
1.0
1070
    73
1070
     0
1070
    74
1070
     0
1070
    77
1070
     1
1070
    78
1070
     8
1070
    79
1070
     2
1070
   140
1040
3.5
1070
   141
1040
1.5
1070
   146
1040
0.5142857142857144
1070
   147
1040
1.5
1070
   172
1070
     1
1070
   178
1070
     1
1070
   179
1070
     2
1070
   271
1070
     2
1070
   272
1070
     2
1070
   284
1070
     8
1070
   285
1070
     8
1070
   286
1070
     8
1002
}
  0
DIMENSION
  5
8F5
330
1E
100
AcDbEntity
  8
BEM
100
AcDbDimension
  2
*D3
 10
277.8623967548035
 20
134.7213618129494
 30
0.0
 11
211.3623967548035
 21
141.2213618129494
 31
0.0
 70
    32
  1
%%c<>
 71
     5
 42
133.0
  3
Standard
100
AcDbAlignedDimension
 13
144.8623967548035
 23
313.7218120588219
 33
0.0
 14
277.8623967548035
 24
313.721812058822
 34
0.0
100
AcDbRotatedDimension
1001
ACAD
1000
DSTYLE
1002
{
1070
    40
1040
2.0
1070
    41
1040
3.5
1070
    42
1040
1.0
1070
    43
1040
7.0
1070
    44
1040
1.0
1070
    73
1070
     0
1070
    74
1070
     0
1070
    77
1070
     1
1070
    78
1070
     8
1070
    79
1070
     2
1070
   140
1040
3.5
1070
   141
1040
1.5
1070
   146
1040
0.5142857142857144
1070
   147
1040
1.5
1070
   172
1070
     1
1070
   178
1070
     1
1070
   179
1070
     2
1070
   271
1070
     2
1070
   272
1070
     2
1070
   284
1070
     8
1070
   285
1070
     8
1070
   286
1070
     8
1002
}
  0
DIMENSION
  5
902
330
1E
100
AcDbEntity
  8
BEM
100
AcDbDimension
  2
*D4
 10
333.8623967548033
 20
118.728029051535
 30
0.0
 11
211.3623967548034
 21
125.228029051535
 31
0.0
 70
    32
  1
%%c<>
 71
     5
 42
244.9999999999998
  3
Standard
100
AcDbAlignedDimension
 13
88.86239675480352
 23
408.7218120588219
 33
0.0
 14
333.8623967548033
 24
408.7218120588219
 34
0.0
100
AcDbRotatedDimension
1001
ACAD
1000
DSTYLE
1002
{
1070
    40
1040
2.0
1070
    41
1040
3.5
1070
    42
1040
1.0
1070
    43
1040
7.0
1070
    44
1040
1.0
1070
    73
1070
     0
1070
    74
1070
     0
1070
    77
1070
     1
1070
    78
1070
     8
1070
    79
1070
     2
1070
   140
1040
3.5
1070
   141
1040
1.5
1070
   146
1040
0.5142857142857144
1070
   147
1040
1.5
1070
   172
1070
     1
1070
   178
1070
     1
1070
   179
1070
     2
1070
   271
1070
     2
1070
   272
1070
     2
1070
   284
1070
     8
1070
   285
1070
     8
1070
   286
1070
     8
1002
}
  0
DIMENSION
  5
940
330
1E
100
AcDbEntity
  8
BEM
100
AcDbDimension
  2
*D5
 10
79.23715778665291
 20
403.7218120588217
 30
0.0
 11
72.73715778665286
 21
443.7218120588219
 31
0.0
 70
    32
 71
     5
 42
80.00000000000017
  3
Standard
100
AcDbAlignedDimension
 13
137.8623967548035
 23
483.7218120588219
 33
0.0
 14
93.03111777101618
 24
403.7218120588217
 34
0.0
 50
90.0
100
AcDbRotatedDimension
1001
ACAD
1000
DSTYLE
1002
{
1070
    40
1040
2.0
1070
    41
1040
3.5
1070
    42
1040
1.0
1070
    43
1040
7.0
1070
    44
1040
1.0
1070
    73
1070
     0
1070
    74
1070
     0
1070
    77
1070
     1
1070
    78
1070
     8
1070
    79
1070
     2
1070
   140
1040
3.5
1070
   141
1040
1.5
1070
   146
1040
0.5142857142857144
1070
   147
1040
1.5
1070
   172
1070
     1
1070
   178
1070
     1
1070
   179
1070
     2
1070
   271
1070
     2
1070
   272
1070
     2
1070
   284
1070
     8
1070
   285
1070
     8
1070
   286
1070
     8
1002
}
  0
DIMENSION
  5
94D
330
1E
100
AcDbEntity
  8
BEM
100
AcDbDimension
  2
*D6
 10
65.2371577866529
 20
313.721812058822
 30
0.0
 11
58.73715778665285
 21
398.721812058822
 31
0.0
 70
    32
 71
     5
 42
169.9999999999999
  3
Standard
100
AcDbAlignedDimension
 13
137.8623967548035
 23
483.7218120588219
 33
0.0
 14
144.8623967548035
 24
313.721812058822
 34
0.0
 50
90.0
100
AcDbRotatedDimension
1001
ACAD
1000
DSTYLE
1002
{
1070
    40
1040
2.0
1070
    41
1040
3.5
1070
    42
1040
1.0
1070
    43
1040
7.0
1070
    44
1040
1.0
1070
    73
1070
     0
1070
    74
1070
     0
1070
    77
1070
     1
1070
    78
1070
     8
1070
    79
1070
     2
1070
   140
1040
3.5
1070
   141
1040
1.5
1070
   146
1040
0.5142857142857144
1070
   147
1040
1.5
1070
   172
1070
     1
1070
   178
1070
     1
1070
   179
1070
     2
1070
   271
1070
     2
1070
   272
1070
     2
1070
   284
1070
     8
1070
   285
1070
     8
1070
   286
1070
     8
1002
}
  0
DIMENSION
  5
95A
330
1E
100
AcDbEntity
  8
BEM
100
AcDbDimension
  2
*D7
 10
51.23715778665286
 20
173.7218120588219
 30
0.0
 11
44.73715778665285
 21
328.721812058822
 31
0.0
 70
    32
 71
     5
 42
310.0
  3
Standard
100
AcDbAlignedDimension
 13
137.8623967548035
 23
483.7218120588219
 33
0.0
 14
175.5546663879237
 24
173.7218120588219
 34
0.0
 50
90.0
100
AcDbRotatedDimension
1001
ACAD
1000
DSTYLE
1002
{
1070
    40
1040
2.0
1070
    41
1040
3.5
1070
    42
1040
1.0
1070
    43
1040
7.0
1070
    44
1040
1.0
1070
    73
1070
     0
1070
    74
1070
     0
1070
    77
1070
     1
1070
    78
1070
     8
1070
    79
1070
     2
1070
   140
1040
3.5
1070
   141
1040
1.5
1070
   146
1040
0.5142857142857144
1070
   147
1040
1.5
1070
   172
1070
     1
1070
   178
1070
     1
1070
   179
1070
     2
1070
   271
1070
     2
1070
   272
1070
     2
1070
   284
1070
     8
1070
   285
1070
     8
1070
   286
1070
     8
1002
}
  0
DIMENSION
  5
967
330
1E
100
AcDbEntity
  8
BEM
100
AcDbDimension
  2
*D8
 10
51.23715778665293
 20
483.7218120588219
 30
0.0
 11
44.73715778665286
 21
521.221812058822
 31
0.0
 70
    32
  1
77 - 107
 71
     5
 42
75.00000000000006
  3
Standard
100
AcDbAlignedDimension
 13
172.9653352393757
 23
558.721812058822
 33
0.0
 14
137.8623967548035
 24
483.7218120588219
 34
0.0
 50
90.0
100
AcDbRotatedDimension
1001
ACAD
1000
DSTYLE
1002
{
1070
    40
1040
2.0
1070
    41
1040
3.5
1070
    42
1040
1.0
1070
    43
1040
7.0
1070
    44
1040
1.0
1070
    73
1070
     0
1070
    74
1070
     0
1070
    77
1070
     1
1070
    78
1070
     8
1070
    79
1070
     2
1070
   140
1040
3.5
1070
   141
1040
1.5
1070
   146
1040
0.5142857142857144
1070
   147
1040
1.5
1070
   172
1070
     1
1070
   178
1070
     1
1070
   179
1070
     2
1070
   271
1070
     2
1070
   272
1070
     2
1070
   284
1070
     8
1070
   285
1070
     8
1070
   286
1070
     8
1002
}
  0
LINE
  5
9A4
330
1E
100
AcDbEntity
  8
TEXT
 62
     2
100
AcDbLine
 10
318.8236820672683
 20
567.6663117486891
 30
0.0
 11
359.7404933409726
 21
591.1849313398176
 31
0.0
  0
LINE
  5
9A8
330
1E
100
AcDbEntity
  8
TEXT
 62
     2
100
AcDbLine
 10
321.0122355522859
 20
631.2887158331533
 30
0.0
 11
359.3490997254321
 21
636.8667031267589
 31
0.0
  0
TEXT
  5
9AC
330
1E
100
AcDbEntity
  8
TEXT
 62
     1
100
AcDbText
 10
361.860386337018
 20
566.905431501809
 30
0.0
 40
7.0
  1
Dichelement DN70
 41
0.8
  7
GREEKS
100
AcDbText
  0
LINE
  5
9AD
330
1E
100
AcDbEntity
  8
TEXT
 62
     2
100
AcDbLine
 10
359.7404933409726
 20
563.5255260849126
 30
0.0
 11
467.8512027822125
 21
563.5255260849126
 31
0.0
  0
LINE
  5
9AE
330
1E
100
AcDbEntity
  8
TEXT
 62
     2
100
AcDbLine
 10
249.5645043572495
 20
555.2372125744081
 30
0.0
 11
359.7404933409726
 21
563.5255260849126
 31
0.0
  0
TEXT
  5
9AF
330
1E
100
AcDbEntity
  8
TEXT
 62
     1
100
AcDbText
 10
361.860386337018
 20
553.4980749743458
 30
0.0
 40
7.0
  1
EDV-Art.Nr. 00911.070X
 41
0.8
  7
GREEKS
100
AcDbText
  0
TEXT
  5
9B4
330
1E
100
AcDbEntity
  8
TEXT
 62
     1
100
AcDbText
 10
361.860386337018
 20
489.2266085384562
 30
0.0
 40
7.0
  1
EDV-Art.Nr. 00911.070X
 41
0.8
  7
GREEKS
100
AcDbText
  0
LINE
  5
9B5
330
1E
100
AcDbEntity
  8
TEXT
 62
     2
100
AcDbLine
 10
359.7404933409726
 20
499.254059649023
 30
0.0
 11
467.8512027822125
 21
499.254059649023
 31
0.0
  0
TEXT
  5
9B6
330
1E
100
AcDbEntity
  8
TEXT
 62
     1
100
AcDbText
 10
361.860386337018
 20
502.6339650659195
 30
0.0
 40
7.0
  1
Dichelement DN70
 41
0.8
  7
GREEKS
100
AcDbText
  0
LINE
  5
9B7
330
1E
100
AcDbEntity
  8
TEXT
 62
     2
100
AcDbLine
 10
249.467253372622
 20
485.893947361133
 30
0.0
 11
359.7404933409726
 21
499.254059649023
 31
0.0
  0
TEXT
  5
9B8
330
1E
100
AcDbEntity
  8
TEXT
 62
     1
100
AcDbText
 10
361.860386337018
 20
535.5714330871899
 30
0.0
 40
7.0
  1
Siebrohr DN70
 41
0.8
  7
GREEKS
100
AcDbText
  0
LINE
  5
9B9
330
1E
100
AcDbEntity
  8
TEXT
 62
     2
100
AcDbLine
 10
359.7404933409726
 20
532.1915276702934
 30
0.0
 11
467.8512027822125
 21
532.1915276702934
 31
0.0
  0
TEXT
  5
9BA
330
1E
100
AcDbEntity
  8
TEXT
 62
     1
100
AcDbText
 10
361.860386337018
 20
522.1640765597267
 30
0.0
 40
7.0
  1
EDV-Art.Nr. 15597.070X
 41
0.8
  7
GREEKS
100
AcDbText
  0
LINE
  5
9BB
330
1E
100
AcDbEntity
  8
TEXT
 62
     2
100
AcDbLine
 10
246.0535284993507
 20
502.582529059548
 30
0.0
 11
359.7404933409726
 21
532.1915276702934
 31
0.0
  0
TEXT
  5
9BC
330
1E
100
AcDbEntity
  8
TEXT
 62
     1
100
AcDbText
 10
361.860386337018
 20
387.4268735166274
 30
0.0
 40
7.0
  1
Flachdachdurchführung DN70
 41
0.8
  7
GREEKS
100
AcDbText
  0
LINE
  5
9BD
330
1E
100
AcDbEntity
  8
TEXT
 62
     2
100
AcDbLine
 10
359.7404933409726
 20
384.046968099731
 30
0.0
 11
486.1150419915629
 21
384.046968099731
 31
0.0
  0
TEXT
  5
9BE
330
1E
100
AcDbEntity
  8
TEXT
 62
     1
100
AcDbText
 10
361.860386337018
 20
374.0195169891642
 30
0.0
 40
7.0
  1
EDV-Art.Nr. 19480.070X
 41
0.8
  7
GREEKS
100
AcDbText
  0
LINE
  5
9BF
330
1E
100
AcDbEntity
  8
TEXT
 62
     2
100
AcDbLine
 10
276.7703797351943
 20
367.0529831417484
 30
0.0
 11
359.7404933409726
 21
384.046968099731
 31
0.0
  0
TEXT
  5
9CD
330
1E
100
AcDbEntity
  8
TEXT
 62
     1
100
AcDbText
 10
199.225061275799
 20
307.3755040618166
 30
0.0
 40
7.0
  1
DN70
 50
90.0
 41
0.8
  7
GREEKS
100
AcDbText
  0
DIMENSION
  5
B60
330
1E
100
AcDbEntity
  8
BEM
100
AcDbDimension
  2
*D9
 10
341.3623967548038
 20
698.472519471948
 30
0.0
 11
211.3623967548038
 21
704.9725194719481
 31
0.0
 70
    32
  1
%%c<>
 71
     5
 42
260.0
  3
Standard
100
AcDbAlignedDimension
 13
81.36239675480386
 23
584.221812058822
 33
0.0
 14
341.3623967548038
 24
584.2218120588208
 34
0.0
100
AcDbRotatedDimension
1001
ACAD
1000
DSTYLE
1002
{
1070
    40
1040
2.0
1070
    41
1040
3.5
1070
    42
1040
1.0
1070
    43
1040
7.0
1070
    44
1040
1.0
1070
    73
1070
     0
1070
    74
1070
     0
1070
    77
1070
     1
1070
    78
1070
     8
1070
    79
1070
     2
1070
   140
1040
3.5
1070
   141
1040
1.5
1070
   146
1040
0.5142857142857144
1070
   147
1040
1.5
1070
   172
1070
     1
1070
   178
1070
     1
1070
   179
1070
     2
1070
   271
1070
     2
1070
   272
1070
     2
1070
   284
1070
     8
1070
   285
1070
     8
1070
   286
1070
     8
1002
}
  0
DIMENSION
  5
B61
330
1E
100
AcDbEntity
  8
BEM
100
AcDbDimension
  2
*D10
 10
321.362396754804
 20
683.4593862645615
 30
0.0
 11
211.3623967548039
 21
689.9593862645615
 31
0.0
 70
    32
  1
%%c<>
 71
     5
 42
220.0000000000003
  3
Standard
100
AcDbAlignedDimension
 13
101.3623967548037
 23
653.2217540915064
 33
0.0
 14
321.362396754804
 24
653.2217540915056
 34
0.0
100
AcDbRotatedDimension
1001
ACAD
1000
DSTYLE
1002
{
1070
    40
1040
2.0
1070
    41
1040
3.5
1070
    42
1040
1.0
1070
    43
1040
7.0
1070
    44
1040
1.0
1070
    73
1070
     0
1070
    74
1070
     0
1070
    77
1070
     1
1070
    78
1070
     8
1070
    79
1070
     2
1070
   140
1040
3.5
1070
   141
1040
1.5
1070
   146
1040
0.5142857142857144
1070
   147
1040
1.5
1070
   172
1070
     1
1070
   178
1070
     1
1070
   179
1070
     2
1070
   271
1070
     2
1070
   272
1070
     2
1070
   284
1070
     8
1070
   285
1070
     8
1070
   286
1070
     8
1002
}
  0
DIMENSION
  5
B62
330
1E
100
AcDbEntity
  8
BEM
100
AcDbDimension
  2
*D11
 10
63.01005200710472
 20
673.2218120588214
 30
0.0
 11
56.51005200710461
 21
628.2218120588217
 31
0.0
 70
    32
 71
     5
 42
89.99999999999943
  3
Standard
100
AcDbAlignedDimension
 13
81.36239675480373
 23
583.221812058822
 33
0.0
 14
131.362396754804
 24
673.2218120588214
 34
0.0
 50
90.0
100
AcDbRotatedDimension
1001
ACAD
1000
DSTYLE
1002
{
1070
   279
1070
     1
1070
    40
1040
2.0
1070
    41
1040
3.5
1070
    42
1040
1.0
1070
    43
1040
7.0
1070
    44
1040
1.0
1070
    73
1070
     0
1070
    74
1070
     0
1070
    77
1070
     1
1070
    78
1070
     8
1070
    79
1070
     2
1070
   140
1040
3.5
1070
   141
1040
1.5
1070
   146
1040
0.5142857142857144
1070
   147
1040
1.5
1070
   172
1070
     1
1070
   178
1070
     1
1070
   179
1070
     2
1070
   271
1070
     2
1070
   272
1070
     2
1070
   284
1070
     8
1070
   285
1070
     8
1070
   286
1070
     8
1002
}
  0
DIMENSION
  5
B63
330
1E
100
AcDbEntity
  8
BEM
100
AcDbDimension
  2
*D12
 10
63.01005200710466
 20
583.221812058822
 30
0.0
 11
56.51005200710457
 21
575.721812058822
 31
0.0
 70
    32
 71
     5
 42
15.0
  3
Standard
100
AcDbAlignedDimension
 13
76.36239675480379
 23
568.221812058822
 33
0.0
 14
81.36239675480373
 24
583.221812058822
 34
0.0
 50
90.0
100
AcDbRotatedDimension
1001
ACAD
1000
DSTYLE
1002
{
1070
    40
1040
2.0
1070
    41
1040
3.5
1070
    42
1040
1.0
1070
    43
1040
7.0
1070
    44
1040
1.0
1070
    73
1070
     0
1070
    74
1070
     0
1070
    77
1070
     1
1070
    78
1070
     8
1070
    79
1070
     2
1070
   140
1040
3.5
1070
   141
1040
1.5
1070
   146
1040
0.5142857142857144
1070
   147
1040
1.5
1070
   172
1070
     1
1070
   178
1070
     1
1070
   179
1070
     2
1070
   271
1070
     2
1070
   272
1070
     2
1070
   284
1070
     8
1070
   285
1070
     8
1070
   286
1070
     8
1002
}
  0
ARC
  5
B64
330
1E
100
AcDbEntity
  8
STEMPEL
100
AcDbCircle
 10
278.9123967548038
 20
584.7718120588227
 30
0.0
 40
0.5500000000000009
100
AcDbArc
 50
270.0
 51
69.99999999999935
  0
LINE
  5
B65
330
1E
100
AcDbEntity
  8
STEMPEL
100
AcDbLine
 10
279.1005078336329
 20
585.2886430002549
 30
0.0
 11
278.1358994467001
 21
585.639731740822
 31
0.0
  0
LINE
  5
B66
330
1E
100
AcDbEntity
  8
STEMPEL
100
AcDbLine
 10
277.3623967548038
 20
590.8218120588228
 30
0.0
 11
272.2201733488849
 21
590.8218120588228
 31
0.0
  0
LINE
  5
B67
330
1E
100
AcDbEntity
  8
STEMPEL
100
AcDbLine
 10
278.1358994467001
 20
590.6145526371858
 30
0.0
 11
278.1358994467001
 21
585.639731740822
 31
0.0
  0
LINE
  5
B68
330
1E
100
AcDbEntity
  8
STEMPEL
100
AcDbLine
 10
275.249148100752
 20
590.6145526371858
 30
0.0
 11
275.249148100752
 21
585.639731740822
 31
0.0
  0
LINE
  5
B69
330
1E
100
AcDbEntity
  8
STEMPEL
100
AcDbLine
 10
278.9123967548038
 20
584.2218120588227
 30
0.0
 11
273.858196424989
 21
584.2218120588227
 31
0.0
  0
LINE
  5
B6A
330
1E
100
AcDbEntity
  8
STEMPEL
100
AcDbLine
 10
279.1005078336329
 20
585.2886430002549
 30
0.0
 11
273.1321499502632
 21
585.2886430002549
 31
0.0
  0
ARC
  5
B6B
330
1E
100
AcDbEntity
  8
STEMPEL
100
AcDbCircle
 10
276.692523773726
 20
585.6922749202997
 30
0.0
 40
5.129537138523076
100
AcDbArc
 50
73.65710669401657
 51
106.3428933059834
  0
LINE
  5
B6C
330
1E
100
AcDbEntity
  8
STEMPEL
100
AcDbLine
 10
277.3623967548038
 20
590.8218120588228
 30
0.0
 11
278.1358994467001
 21
590.6145526371858
 31
0.0
  0
ARC
  5
B6D
330
1E
100
AcDbEntity
  8
STEMPEL
100
AcDbCircle
 10
272.3623967548038
 20
570.6145526371858
 30
0.0
 40
20.20725942163691
100
AcDbArc
 50
81.78678929826011
 51
90.40326439207246
  0
ARC
  5
B6E
330
1E
100
AcDbEntity
  8
HILF
100
AcDbCircle
 10
276.692523773726
 20
582.0793387351182
 30
0.0
 40
3.841839622940954
100
AcDbArc
 50
67.9324721810082
 51
112.0675278189918
  0
ARC
  5
B6F
330
1E
100
AcDbEntity
  8
HILF
100
AcDbCircle
 10
272.3623967548038
 20
570.9805200315965
 30
0.0
 40
14.94074366520046
100
AcDbArc
 50
78.85962783889434
 51
88.16153752705751
  0
HATCH
  5
B70
330
1E
100
AcDbEntity
  8
SCHRAFF
100
AcDbHatch
 10
0.0
 20
0.0
 30
0.0
210
0.0
220
0.0
230
1.0
  2
_USER
 70
     0
 71
     0
 91
        4
 92
        7
 72
     0
 73
     1
 93
        9
 10
94.36239675480379
 20
583.221812058822
 10
92.3623967548038
 20
583.221812058822
 10
92.36239675480375
 20
572.8353120588222
 10
92.36239675480375
 20
570.4319642232124
 10
91.36239675480373
 20
570.4319642232124
 10
91.3623967548038
 20
569.1607810609507
 10
89.36239675480369
 20
568.6248826760884
 10
89.36239675480363
 20
568.221812058822
 10
94.36239675480374
 20
568.2218120588221
 97
        0
 92
       23
 72
     0
 73
     1
 93
        5
 10
92.36239675480362
 20
572.835312058822
 10
91.74889675480375
 20
572.2218120588222
 10
91.3623967548038
 20
572.2218120588222
 10
91.3623967548038
 20
570.4319642232124
 10
92.3623967548038
 20
570.4319642232124
 97
        0
 92
        7
 72
     0
 73
     1
 93
        9
 10
87.36239675480375
 20
570.4319642232126
 10
86.36239675480373
 20
570.4319642232126
 10
86.36239675480368
 20
572.8353120588222
 10
86.36239675480373
 20
583.221812058822
 10
84.36239675480374
 20
583.221812058822
 10
84.36239675480379
 20
568.221812058822
 10
89.36239675480379
 20
568.2218120588221
 10
89.36239675480374
 20
568.6248826760884
 10
87.36239675480367
 20
569.1607810609507
 97
        0
 92
       23
 72
     0
 73
     1
 93
        5
 10
87.36239675480396
 20
572.2218120588222
 10
86.97589675480367
 20
572.2218120588221
 10
86.36239675480373
 20
572.8353120588222
 10
86.36239675480368
 20
570.4319642232125
 10
87.36239675480375
 20
570.4319642232124
 97
        0
 75
     0
 76
     0
 52
45.0
 41
1.0
 77
     0
 78
     1
 53
45.0
 43
-398.89122706763
 44
229.528359967172
 45
-0.7071067811865475
 46
0.7071067811865476
 79
     0
 47
0.0420521955660228
 98
        4
 10
94.31163941416622
 20
578.2608106026893
 10
92.0820061113182
 20
571.3642502851289
 10
86.48689041227868
 20
569.4298490330636
 10
86.86550756721187
 20
571.0698845735407
  0
LINE
  5
B71
330
1E
100
AcDbEntity
  8
STEMPEL
100
AcDbLine
 10
86.36239675480368
 20
583.2218120588219
 30
0.0
 11
84.36239675480374
 21
583.221812058822
 31
0.0
  0
LINE
  5
B72
330
1E
100
AcDbEntity
  8
STEMPEL
100
AcDbLine
 10
86.36239675480373
 20
583.221812058822
 30
0.0
 11
81.36239675480362
 21
583.221812058822
 31
0.0
  0
ARC
  5
B73
330
1E
100
AcDbEntity
  8
HILF
100
AcDbCircle
 10
89.36239675480374
 20
570.980520031596
 30
0.0
 40
14.94074366520046
100
AcDbArc
 50
78.85962783889434
 51
101.1403721611056
  0
ARC
  5
B74
330
1E
100
AcDbEntity
  8
HILF
100
AcDbCircle
 10
85.03226973588153
 20
582.0805032970058
 30
0.0
 40
3.840760399790701
100
AcDbArc
 50
67.92594526323755
 51
112.0740547367624
  0
ARC
  5
B75
330
1E
100
AcDbEntity
  8
HILF
100
AcDbCircle
 10
93.69252377372594
 20
582.0793387351175
 30
0.0
 40
3.841839622940954
100
AcDbArc
 50
67.9324721810082
 51
112.0675278189918
  0
ARC
  5
B76
330
1E
100
AcDbEntity
  8
STEMPEL
100
AcDbCircle
 10
89.36239675480374
 20
570.6145526371853
 30
0.0
 40
20.20725942163691
100
AcDbArc
 50
81.78678929826011
 51
98.21321070173988
  0
ARC
  5
B77
330
1E
100
AcDbEntity
  8
STEMPEL
100
AcDbCircle
 10
85.03226973588153
 20
585.692274920299
 30
0.0
 40
5.129537138523076
100
AcDbArc
 50
73.65710669401657
 51
106.3428933059834
  0
LINE
  5
B78
330
1E
100
AcDbEntity
  8
STEMPEL
100
AcDbLine
 10
84.36239675480374
 20
590.8218120588221
 30
0.0
 11
83.58889406290746
 21
590.6145526371853
 31
0.0
  0
LINE
  5
B79
330
1E
100
AcDbEntity
  8
STEMPEL
100
AcDbLine
 10
94.36239675480374
 20
590.8218120588221
 30
0.0
 11
95.13589944670002
 21
590.6145526371853
 31
0.0
  0
ARC
  5
B7A
330
1E
100
AcDbEntity
  8
STEMPEL
100
AcDbCircle
 10
93.69252377372594
 20
585.692274920299
 30
0.0
 40
5.129537138523076
100
AcDbArc
 50
73.65710669401657
 51
106.3428933059834
  0
LINE
  5
B7B
330
1E
100
AcDbEntity
  8
HILF
100
AcDbLine
 10
86.97589675480372
 20
581.2218120588222
 30
0.0
 11
86.36239675480373
 21
584.2218120588222
 31
0.0
  0
LINE
  5
B7C
330
1E
100
AcDbEntity
  8
HILF
100
AcDbLine
 10
86.97589675480372
 20
581.2218120588222
 30
0.0
 11
86.97589675480372
 21
572.2218120588222
 31
0.0
  0
LINE
  5
B7D
330
1E
100
AcDbEntity
  8
HILF
100
AcDbLine
 10
86.36239675480373
 20
581.2218120588222
 30
0.0
 11
92.36239675480375
 21
581.2218120588222
 31
0.0
  0
LINE
  5
B7E
330
1E
100
AcDbEntity
  8
HILF
100
AcDbLine
 10
91.74889675480375
 20
581.2218120588222
 30
0.0
 11
92.36239675480375
 21
584.2218120588222
 31
0.0
  0
LINE
  5
B7F
330
1E
100
AcDbEntity
  8
HILF
100
AcDbLine
 10
91.74889675480375
 20
581.2218120588222
 30
0.0
 11
91.74889675480375
 21
572.2218120588222
 31
0.0
  0
LINE
  5
B80
330
1E
100
AcDbEntity
  8
STEMPEL
100
AcDbLine
 10
96.10050783363284
 20
585.2886430002545
 30
0.0
 11
82.62428567597465
 21
585.2886430002545
 31
0.0
  0
LINE
  5
B81
330
1E
100
AcDbEntity
  8
STEMPEL
100
AcDbLine
 10
95.91239675480375
 20
584.2218120588222
 30
0.0
 11
82.81239675480373
 21
584.2218120588222
 31
0.0
  0
LINE
  5
B82
330
1E
100
AcDbEntity
  8
STEMPEL
100
AcDbLine
 10
83.58889406290746
 20
590.6145526371853
 30
0.0
 11
83.58889406290746
 21
585.6397317408216
 31
0.0
  0
LINE
  5
B83
330
1E
100
AcDbEntity
  8
STEMPEL
100
AcDbLine
 10
86.47564540885559
 20
590.6145526371853
 30
0.0
 11
86.47564540885559
 21
585.6397317408216
 31
0.0
  0
LINE
  5
B84
330
1E
100
AcDbEntity
  8
STEMPEL
100
AcDbLine
 10
92.24914810075189
 20
590.6145526371853
 30
0.0
 11
92.24914810075189
 21
585.6397317408216
 31
0.0
  0
LINE
  5
B85
330
1E
100
AcDbEntity
  8
STEMPEL
100
AcDbLine
 10
95.13589944670002
 20
590.6145526371853
 30
0.0
 11
95.13589944669996
 21
585.6397317408216
 31
0.0
  0
LINE
  5
B86
330
1E
100
AcDbEntity
  8
STEMPEL
100
AcDbLine
 10
94.36239675480374
 20
590.8218120588221
 30
0.0
 11
84.36239675480374
 21
590.8218120588221
 31
0.0
  0
LINE
  5
B87
330
1E
100
AcDbEntity
  8
STEMPEL
100
AcDbLine
 10
91.74889675480375
 20
572.2218120588222
 30
0.0
 11
86.97589675480372
 21
572.2218120588222
 31
0.0
  0
LINE
  5
B88
330
1E
100
AcDbEntity
  8
STEMPEL
100
AcDbLine
 10
92.36239675480367
 20
572.8353120588222
 30
0.0
 11
86.36239675480368
 21
572.8353120588222
 31
0.0
  0
LINE
  5
B89
330
1E
100
AcDbEntity
  8
STEMPEL
100
AcDbLine
 10
83.58889406290746
 20
585.6397317408216
 30
0.0
 11
82.62428567597465
 21
585.2886430002545
 31
0.0
  0
LINE
  5
B8A
330
1E
100
AcDbEntity
  8
STEMPEL
100
AcDbLine
 10
96.10050783363284
 20
585.2886430002545
 30
0.0
 11
95.13589944669996
 21
585.6397317408216
 31
0.0
  0
ARC
  5
B8B
330
1E
100
AcDbEntity
  8
STEMPEL
100
AcDbCircle
 10
95.91239675480375
 20
584.7718120588222
 30
0.0
 40
0.5500000000000009
100
AcDbArc
 50
270.0
 51
69.99999999999935
  0
ARC
  5
B8C
330
1E
100
AcDbEntity
  8
STEMPEL
100
AcDbCircle
 10
82.81239675480373
 20
584.7718120588222
 30
0.0
 40
0.5500000000000003
100
AcDbArc
 50
110.0000000000006
 51
270.0
  0
LINE
  5
B8D
330
1E
100
AcDbEntity
  8
STEMPEL
100
AcDbLine
 10
86.36239675480373
 20
572.8353120588222
 30
0.0
 11
86.97589675480372
 21
572.2218120588222
 31
0.0
  0
LINE
  5
B8E
330
1E
100
AcDbEntity
  8
STEMPEL
100
AcDbLine
 10
91.74889675480375
 20
572.2218120588222
 30
0.0
 11
92.36239675480375
 21
572.8353120588222
 31
0.0
  0
LINE
  5
B8F
330
1E
100
AcDbEntity
  8
STEMPEL
100
AcDbLine
 10
86.36239675480373
 20
584.2218120588222
 30
0.0
 11
86.36239675480373
 21
572.8353120588222
 31
0.0
  0
LINE
  5
B90
330
1E
100
AcDbEntity
  8
STEMPEL
100
AcDbLine
 10
92.36239675480375
 20
572.8353120588222
 30
0.0
 11
92.36239675480375
 21
584.2218120588222
 31
0.0
  0
HATCH
  5
B91
330
1E
100
AcDbEntity
  8
SCHRAFF
100
AcDbHatch
 10
0.0
 20
0.0
 30
0.0
210
0.0
220
0.0
230
1.0
  2
ANSI31
 70
     0
 71
     0
 91
        5
 92
        7
 72
     1
 73
     1
 93
       39
 10
131.362396754804
 20
673.2218120588218
 42
0.0
 10
185.9228821597474
 20
673.2218120588213
 42
0.2679491924311848
 10
187.2219202654242
 20
673.9718120588213
 42
-0.2859076546239628
 10
188.6209583711016
 20
674.7184750135306
 42
-0.2859076546237491
 10
190.0199964767776
 20
673.9718120588211
 42
0.2679491924311245
 10
191.3190345824542
 20
673.2218120588211
 42
0.0
 10
197.7728821597477
 20
673.2218120588211
 42
0.2679491924311449
 10
199.0719202654246
 20
673.9718120588211
 42
-0.2859076546238214
 10
200.4709583711008
 20
674.7184750135309
 42
-0.3607372083888889
 10
202.023327125929
 20
673.5968120588211
 42
0.3419987131196436
 10
202.507450044205
 20
673.2218120588211
 42
0.0
 10
202.6961992368045
 20
673.2218120588211
 42
0.341998713119513
 10
203.18032215508
 20
673.5968120588211
 42
-0.3419987131196436
 10
204.6326909099078
 20
674.7218120588211
 42
0.0
 10
211.362396754804
 20
674.7218120588211
 42
0.0
 10
211.362396754804
 20
673.721812058821
 42
0.0
 10
204.6326909099078
 20
673.7218120588213
 42
0.3419987131195064
 10
204.1485679916321
 20
673.3468120588211
 42
-0.3596757619904947
 10
202.6018246405047
 20
672.2247838574924
 42
-0.3596757619905158
 10
201.0550812893774
 20
673.3468120588211
 42
0.3419987131196715
 10
200.5709583711014
 20
673.7218120588213
 42
0.0
 10
200.3709583711012
 20
673.7218120588213
 42
0.267949192431149
 10
199.9379456692089
 20
673.4718120588213
 42
-0.2679491924311241
 10
197.7728821597477
 20
672.2218120588213
 42
0.0
 10
191.3190345824537
 20
672.2218120588213
 42
-0.2679491924310771
 10
189.1539710729928
 20
673.4718120588208
 42
0.2679491924312612
 10
188.7209583711006
 20
673.721812058821
 42
0.0
 10
188.5209583711012
 20
673.721812058821
 42
0.2679491924313018
 10
188.0879456692087
 20
673.4718120588213
 42
-0.2679491924311406
 10
185.9228821597474
 20
672.2218120588213
 42
0.0
 10
131.362396754806
 20
672.2218120588218
 42
0.1340385084113211
 10
128.8218970796275
 20
671.5283026718878
 42
0.0
 10
104.8430431866769
 20
657.540649505703
 42
0.2667503951500854
 10
102.3623967548038
 20
653.2217540915062
 42
0.0
 10
102.3623967548038
 20
648.2218120588218
 42
0.0
 10
101.3623967548038
 20
648.2218120588218
 42
0.0
 10
101.3623967548037
 20
653.221754091506
 42
-0.2662608607120724
 10
104.3297021331292
 20
658.3988926188847
 42
0.0
 10
128.3623967548556
 20
672.4179644815579
 42
-0.1316524975848892
 97
        0
 92
        7
 72
     1
 73
     1
 93
        8
 10
101.3623967548037
 20
608.2218120588217
 42
0.0
 10
102.3623967548037
 20
608.2218120588217
 42
0.0
 10
102.3623967548036
 20
589.2218120588223
 42
-0.4142135623731166
 10
96.36239675480362
 20
583.221812058822
 42
0.0
 10
93.36239675480362
 20
583.221812058822
 42
0.0
 10
93.36239675480374
 20
584.2218120588222
 42
0.0
 10
96.36239675480386
 20
584.2218120588223
 42
0.4142135623730752
 10
101.3623967548035
 20
589.2218120588223
 42
0.0
 97
        0
 92
        7
 72
     0
 73
     1
 93
        4
 10
81.36239675480386
 20
584.221812058822
 10
85.36239675480373
 20
584.2218120588221
 10
85.36239675480363
 20
583.221812058822
 10
81.36239675480373
 20
583.221812058822
 97
        0
 92
        7
 72
     1
 73
     1
 93
        8
 10
320.3623967548036
 20
589.2218120588213
 42
0.0
 10
320.3623967548038
 20
608.2218120588207
 42
0.0
 10
321.3623967548038
 20
608.2218120588207
 42
0.0
 10
321.3623967548038
 20
589.2218120588213
 42
0.4142135623730909
 10
326.3623967548036
 20
584.2218120588213
 42
0.0
 10
341.3623967548038
 20
584.2218120588208
 42
0.0
 10
341.362396754804
 20
583.2218120588208
 42
0.0
 10
326.3623967548036
 20
583.2218120588208
 42
-0.4142135623731175
 97
        0
 92
        7
 72
     1
 73
     1
 93
       40
 10
234.4589710729936
 20
673.4718120588211
 42
0.2679491924310875
 10
234.0259583711013
 20
673.721812058821
 42
0.0
 10
233.8259583711011
 20
673.721812058821
 42
0.2679491924312574
 10
233.3929456692086
 20
673.4718120588213
 42
-0.267949192431145
 10
231.2278821597475
 20
672.2218120588211
 42
0.0
 10
229.169034582455
 20
672.2218120588211
 42
-0.2679491924311416
 10
227.0039710729937
 20
673.4718120588213
 42
0.2679491924310647
 10
226.5709583711017
 20
673.721812058821
 42
0.0
 10
226.3709583711011
 20
673.721812058821
 42
0.267949192430994
 10
225.9379456692093
 20
673.4718120588211
 42
-0.2679491924311175
 10
223.7728821597482
 20
672.2218120588211
 42
0.0
 10
217.319034582454
 20
672.2218120588211
 42
-0.2679491924310871
 10
215.1539710729931
 20
673.4718120588208
 42
0.2679491924312534
 10
214.7209583711009
 20
673.721812058821
 42
0.0
 10
211.362396754804
 20
673.721812058821
 42
0.0
 10
211.362396754804
 20
674.7218120588211
 42
0.0
 10
214.7209583711013
 20
674.7218120588211
 42
-0.2679491924310706
 10
216.0199964767776
 20
673.9718120588211
 42
0.2679491924311357
 10
217.3190345824544
 20
673.2218120588211
 42
0.0
 10
223.7728821597482
 20
673.2218120588211
 42
0.2679491924310962
 10
225.0719202654248
 20
673.9718120588211
 42
-0.2859076546238522
 10
226.4709583711013
 20
674.7184750135306
 42
-0.2859076546238809
 10
227.8699964767782
 20
673.9718120588211
 42
0.2679491924311237
 10
229.1690345824548
 20
673.2218120588211
 42
0.0
 10
231.2278821597473
 20
673.2218120588211
 42
0.2679491924311723
 10
232.5269202654243
 20
673.9718120588211
 42
-0.2859076546238861
 10
233.925958371101
 20
674.7184750135306
 42
-0.2859076546239122
 10
235.3249964767779
 20
673.9718120588211
 42
0.267949192431137
 10
236.6240345824545
 20
673.2218120588209
 42
0.0
 10
291.362396754804
 20
673.2218120588204
 42
-0.1316524975836561
 10
294.3623967547278
 20
672.4179644815713
 42
0.0
 10
318.3950913765087
 20
658.3988926188663
 42
-0.2662608607105233
 10
321.362396754804
 20
653.2217540915056
 42
0.0
 10
321.362396754804
 20
648.2218120588209
 42
0.0
 10
320.3623967548038
 20
648.2218120588209
 42
0.0
 10
320.3623967548038
 20
653.2217540915056
 42
0.2667503951500889
 10
317.8817503229309
 20
657.5406495057018
 42
0.0
 10
293.9028964299901
 20
671.5283026718812
 42
0.1340385084119114
 10
291.362396754804
 20
672.2218120588206
 42
0.0
 10
236.6240345824547
 20
672.2218120588209
 42
-0.2679491924311331
 97
        0
 75
     0
 76
     1
 52
0.0
 41
20.0
 77
     0
 78
     1
 53
134.9999999999997
 43
449.8058683094769
 44
166.3954617103068
 45
1.767766952966376
 46
1.767766952966361
 79
     0
 47
0.2376111440341236
 98
        5
 10
149.2523190930779
 20
673.0166348417395
 10
101.5716047810862
 20
599.3523399633345
 10
83.04172888141705
 20
584.0044189317475
 10
334.4894058572837
 20
583.580678600621
 10
284.0710952598743
 20
672.9224711214722
  0
LINE
  5
B92
330
1E
100
AcDbEntity
  8
STEMPEL
100
AcDbLine
 10
291.362396754804
 20
672.2218120588206
 30
0.0
 11
131.3623967548038
 21
672.2218120588218
 31
0.0
  0
LINE
  5
B93
330
1E
100
AcDbEntity
  8
STEMPEL
100
AcDbLine
 10
341.3623967548038
 20
583.2218120588208
 30
0.0
 11
92.36239675480375
 21
583.221812058822
 31
0.0
  0
LINE
  5
B94
330
1E
100
AcDbEntity
  8
HILF
100
AcDbLine
 10
109.0360636972733
 20
656.2218120588247
 30
0.0
 11
314.1887298123348
 21
656.2218120588235
 31
0.0
  0
LINE
  5
B95
330
1E
100
AcDbEntity
  8
STEMPEL
100
AcDbLine
 10
291.362396754804
 20
673.2218120588204
 30
0.0
 11
236.6240345824547
 21
673.2218120588209
 31
0.0
  0
LINE
  5
B96
330
1E
100
AcDbEntity
  8
STEMPEL
100
AcDbLine
 10
320.3623967548038
 20
653.2217540915056
 30
0.0
 11
320.3623967548036
 21
589.2218120588213
 31
0.0
  0
LINE
  5
B97
330
1E
100
AcDbEntity
  8
STEMPEL
100
AcDbLine
 10
321.362396754804
 20
653.2217540915056
 30
0.0
 11
321.3623967548038
 21
589.2218120588213
 31
0.0
  0
ELLIPSE
  5
B98
330
1E
100
AcDbEntity
  8
STEMPEL
100
AcDbEllipse
 10
305.5354422614669
 20
615.7218120588228
 30
0.0
 11
-0.0000000000000334
 21
-7.499999999999999
 31
0.0
210
0.0
220
0.0
230
1.0
 40
0.4999999999999926
 41
4.712388980384689
 42
7.853981633974482
  0
ELLIPSE
  5
B99
330
1E
100
AcDbEntity
  8
STEMPEL
100
AcDbEllipse
 10
306.4035062811559
 20
615.7218120588226
 30
0.0
 11
-0.0000000000000334
 21
-7.499999999999999
 31
0.0
210
0.0
220
0.0
230
1.0
 40
0.4999999999999926
 41
4.712388980384689
 42
6.167183451052224
  0
ELLIPSE
  5
B9A
330
1E
100
AcDbEntity
  8
STEMPEL
100
AcDbEllipse
 10
306.4035062811559
 20
640.7218120588213
 30
0.0
 11
0.0000000000000334
 21
7.499999999999999
 31
0.0
210
0.0
220
0.0
230
-1.0
 40
0.4999999999999926
 41
4.712388980384689
 42
6.167183451052224
  0
ELLIPSE
  5
B9B
330
1E
100
AcDbEntity
  8
STEMPEL
100
AcDbEllipse
 10
305.5354422614669
 20
640.7218120588213
 30
0.0
 11
0.0000000000000334
 21
7.499999999999999
 31
0.0
210
0.0
220
0.0
230
-1.0
 40
0.4999999999999926
 41
4.712388980384689
 42
7.853981633974482
  0
LWPOLYLINE
  5
B9C
330
1E
100
AcDbEntity
  8
STEMPEL
100
AcDbPolyline
 90
       10
 70
   128
 43
0.0
 10
306.562377872481
 20
583.2218120588209
 10
305.8046282473868
 20
583.3129655407478
 10
305.0699024612111
 20
583.5836563341056
 10
304.3805247851781
 20
584.0256596361144
 10
303.7574416111318
 20
584.6255454001073
 10
303.2195850060203
 20
585.365086400702
 10
302.7832974706212
 20
586.2218120588213
 10
302.4618353809261
 20
587.1696911988673
 10
302.2649661998619
 20
588.1799229928199
 10
302.1986716978752
 20
589.2218120588215
  0
LINE
  5
B9D
330
1E
100
AcDbEntity
  8
STEMPEL
100
AcDbLine
 10
341.3623967548038
 20
584.2218120588208
 30
0.0
 11
326.3623967548036
 21
584.2218120588213
 31
0.0
  0
LINE
  5
B9E
330
1E
100
AcDbEntity
  8
STEMPEL
100
AcDbLine
 10
341.3623967548038
 20
584.2218120588211
 30
0.0
 11
341.362396754804
 21
583.2218120588208
 31
0.0
  0
LWPOLYLINE
  5
B9F
330
1E
100
AcDbEntity
  8
STEMPEL
100
AcDbPolyline
 90
       18
 70
   128
 43
0.0
 10
-320.1527095137683
 20
595.7218120588191
 10
-320.1360410902917
 20
597.0999334424436
 10
-320.0866034430313
 20
598.4311245552232
 10
-320.0060801117707
 20
599.6700532804001
 10
-319.897213221979
 20
600.7745293861694
 10
-319.7637101050168
 20
601.7069412634222
 10
-319.6101170494126
 20
602.4355367439834
 10
-319.4416644824606
 20
602.9355043826167
 10
-319.2640888542917
 20
603.1898183810335
 10
-319.0834372899447
 20
603.1898183810335
 10
-318.9058616617757
 20
602.9355043826167
 10
-318.7374090948236
 20
602.4355367439835
 10
-318.5838160392196
 20
601.7069412634223
 10
-318.4503129222572
 20
600.7745293861694
 10
-318.3414460324655
 20
599.6700532804002
 10
-318.2609227012052
 20
598.4311245552234
 10
-318.2114850539447
 20
597.0999334424436
 10
-318.1948166304679
 20
595.7218120588192
210
0.0
220
0.0
230
-1.0
  0
LWPOLYLINE
  5
BA0
330
1E
100
AcDbEntity
  8
STEMPEL
100
AcDbPolyline
 90
        9
 70
   128
 43
0.0
 10
-312.2896237925477
 20
603.1235703034842
 10
-311.8005632492789
 20
602.7971374057268
 10
-311.340950281378
 20
602.2518683924696
 10
-310.9250004777537
 20
601.5046281493416
 10
-310.5655789484623
 20
600.5785284265641
 10
-310.2738024135748
 20
599.5022130045938
 10
-310.0586953688365
 20
598.308971756963
 10
-309.926910962729
 20
597.0357110118871
 10
-309.8825252180641
 20
595.7218120588207
210
0.0
220
0.0
230
-1.0
  0
LWPOLYLINE
  5
BA1
330
1E
100
AcDbEntity
  8
STEMPEL
100
AcDbPolyline
 90
       18
 70
   128
 43
0.0
 10
-314.6967223670345
 20
595.7218120588192
 10
-314.6478530221182
 20
597.0999334424436
 10
-314.5029091742982
 20
598.4311245552234
 10
-314.2668267124709
 20
599.6700532804002
 10
-313.9476451417243
 20
600.7745293861694
 10
-313.5562338076339
 20
601.7069412634223
 10
-313.1059217537359
 20
602.4355367439835
 10
-312.6120438169365
 20
602.9355043826168
 10
-312.0914184180315
 20
603.1898183810335
 10
-311.5617748305597
 20
603.1898183810335
 10
-311.0411494316548
 20
602.9355043826168
 10
-310.5472714948553
 20
602.4355367439835
 10
-310.0969594409574
 20
601.7069412634223
 10
-309.7055481068672
 20
600.7745293861694
 10
-309.3863665361203
 20
599.6700532804002
 10
-309.1502840742931
 20
598.4311245552234
 10
-309.0053402264731
 20
597.0999334424436
 10
-308.9564708815568
 20
595.7218120588192
210
0.0
220
0.0
230
-1.0
  0
ARC
  5
BA2
330
1E
100
AcDbEntity
  8
STEMPEL
100
AcDbCircle
 10
326.3623967548036
 20
589.2218120588213
 30
0.0
 40
6.0
100
AcDbArc
 50
180.0
 51
270.0
  0
ARC
  5
BA3
330
1E
100
AcDbEntity
  8
STEMPEL
100
AcDbCircle
 10
326.3623967548036
 20
589.2218120588213
 30
0.0
 40
5.0
100
AcDbArc
 50
180.0
 51
270.0
  0
LWPOLYLINE
  5
BA4
330
1E
100
AcDbEntity
  8
STEMPEL
100
AcDbPolyline
 90
       10
 70
   128
 43
0.0
 10
325.6586982447992
 20
583.221812058822
 10
324.8006252485264
 20
583.2879392733947
 10
323.9478130489043
 20
583.5404930231249
 10
323.1270547419872
 20
583.9715387394424
 10
322.3641363755883
 20
584.5675341098824
 10
321.6830268200891
 20
585.309754541603
 10
321.1051247301432
 20
586.1748814384005
 10
320.648586255737
 20
587.1357348091165
 10
320.3277546241396
 20
588.1621271908287
 10
320.1527095137683
 20
589.2218120588213
  0
LWPOLYLINE
  5
BA5
330
1E
100
AcDbEntity
  8
STEMPEL
100
AcDbPolyline
 90
       10
 70
   128
 43
0.0
 10
323.7008053614987
 20
583.2218120588208
 10
322.8427323652259
 20
583.2879392733936
 10
321.9899201656038
 20
583.5404930231239
 10
321.1691618586868
 20
583.9715387394413
 10
320.4062434922879
 20
584.5675341098813
 10
319.7251339367886
 20
585.3097545416019
 10
319.1472318468428
 20
586.1748814383993
 10
318.6906933724366
 20
587.1357348091155
 10
318.3698617408391
 20
588.1621271908277
 10
318.1948166304679
 20
589.2218120588203
  0
LINE
  5
BA6
330
1E
100
AcDbEntity
  8
STEMPEL
100
AcDbLine
 10
322.773168697439
 20
584.2218120588208
 30
0.0
 11
321.8090545276764
 21
584.2218120588208
 31
0.0
  0
LINE
  5
BA7
330
1E
100
AcDbEntity
  8
STEMPEL
100
AcDbLine
 10
316.8502939997032
 20
584.221812058821
 30
0.0
 11
312.0360968507317
 21
584.221812058821
 31
0.0
  0
LWPOLYLINE
  5
BA8
330
1E
100
AcDbEntity
  8
STEMPEL
100
AcDbPolyline
 90
       10
 70
   128
 43
0.0
 10
313.7718354081308
 20
583.2218120588209
 10
312.9356561332891
 20
583.3129655407478
 10
312.1248837425865
 20
583.5836563341056
 10
311.3641531448437
 20
584.0256596361143
 10
310.676578754325
 20
584.6255454001073
 10
310.0830521709566
 20
585.365086400702
 10
309.6016073996353
 20
586.2218120588212
 10
309.2468728961149
 20
587.1696911988672
 10
309.0296270887807
 20
588.1799229928198
 10
308.9564708815568
 20
589.2218120588214
  0
LINE
  5
BA9
330
1E
100
AcDbEntity
  8
STEMPEL
100
AcDbLine
 10
318.1948166304679
 20
595.7218120588192
 30
0.0
 11
318.1948166304679
 21
589.2218120588203
 31
0.0
  0
LINE
  5
BAA
330
1E
100
AcDbEntity
  8
STEMPEL
100
AcDbLine
 10
319.1885953440058
 20
595.7218120588191
 30
0.0
 11
319.1885953440058
 21
589.2218120588213
 31
0.0
  0
LINE
  5
BAB
330
1E
100
AcDbEntity
  8
STEMPEL
100
AcDbLine
 10
320.1527095137683
 20
595.7218120588191
 30
0.0
 11
320.1527095137683
 21
589.2218120588213
 31
0.0
  0
LINE
  5
BAC
330
1E
100
AcDbEntity
  8
STEMPEL
100
AcDbLine
 10
314.6967223670345
 20
595.7218120588192
 30
0.0
 11
314.6967223670345
 21
589.2218120588226
 31
0.0
  0
LWPOLYLINE
  5
BAD
330
1E
100
AcDbEntity
  8
STEMPEL
100
AcDbPolyline
 90
       10
 70
   128
 43
0.0
 10
319.5120868936086
 20
583.2218120588208
 10
318.6759076187669
 20
583.3129655407478
 10
317.8651352280643
 20
583.5836563341056
 10
317.1044046303214
 20
584.0256596361143
 10
316.4168302398028
 20
584.6255454001073
 10
315.8233036564344
 20
585.365086400702
 10
315.341858885113
 20
586.2218120588212
 10
314.9871243815927
 20
587.1696911988672
 10
314.7698785742585
 20
588.1799229928198
 10
314.6967223670345
 20
589.2218120588214
  0
LWPOLYLINE
  5
BAE
330
1E
100
AcDbEntity
  8
STEMPEL
100
AcDbPolyline
 90
        7
 70
   128
 43
0.0
 10
321.8090545276766
 20
584.2218120588213
 10
321.1323526525992
 20
584.8314127866804
 10
320.5328032289652
 20
585.5589718705921
 10
320.0265145558156
 20
586.3849417322723
 10
319.6270892637699
 20
587.2871307574753
 10
319.3452588485071
 20
588.241299525669
 10
319.1885953440056
 20
589.2218120588213
  0
LWPOLYLINE
  5
BAF
330
1E
100
AcDbEntity
  8
STEMPEL
100
AcDbPolyline
 90
        7
 70
   128
 43
0.0
 10
-319.6706524288873
 20
602.1838661146589
 10
-319.5328234193169
 20
601.4317598777203
 10
-319.4139591423507
 20
600.5090462670056
 10
-319.3176111404496
 20
599.4432950171013
 10
-319.2466581929114
 20
598.2663496802802
 10
-319.2032203009035
 20
597.0133761738784
 10
-319.1885953440058
 20
595.7218120588191
210
0.0
220
0.0
230
-1.0
  0
LINE
  5
BB0
330
1E
100
AcDbEntity
  8
STEMPEL
100
AcDbLine
 10
309.8825252180641
 20
595.7218120588192
 30
0.0
 11
309.8825252180641
 21
589.2218120588226
 31
0.0
  0
LINE
  5
BB1
330
1E
100
AcDbEntity
  8
STEMPEL
100
AcDbLine
 10
308.9564708815568
 20
595.7218120588192
 30
0.0
 11
308.9564708815568
 21
589.2218120588226
 31
0.0
  0
LWPOLYLINE
  5
BB2
330
1E
100
AcDbEntity
  8
STEMPEL
100
AcDbPolyline
 90
        7
 70
   128
 43
0.0
 10
312.0360968507328
 20
584.221812058821
 10
311.4160063276684
 20
584.8311499606618
 10
310.8841861808849
 20
585.558580233951
 10
310.4549403811537
 20
586.3845377278948
 10
310.1398140333563
 20
587.286807278357
 10
309.9472828563906
 20
588.2411212126003
 10
309.8825252180641
 20
589.2218120588214
  0
LINE
  5
BB3
330
1E
100
AcDbEntity
  8
STEMPEL
100
AcDbLine
 10
309.2854422614669
 20
640.7218120588213
 30
0.0
 11
309.2854422614669
 21
615.7218120588242
 31
0.0
  0
LINE
  5
BB4
330
1E
100
AcDbEntity
  8
STEMPEL
100
AcDbLine
 10
321.3623967548043
 20
608.2218120588207
 30
0.0
 11
320.362396754804
 21
608.2218120588207
 31
0.0
  0
LINE
  5
BB5
330
1E
100
AcDbEntity
  8
STEMPEL
100
AcDbLine
 10
321.362396754804
 20
648.2218120588209
 30
0.0
 11
320.362396754804
 21
648.2218120588209
 31
0.0
  0
LWPOLYLINE
  5
BB6
330
1E
100
AcDbEntity
  8
STEMPEL
100
AcDbPolyline
 90
       18
 70
   128
 43
0.0
 10
-283.5102790053916
 20
595.7218120588192
 10
-283.4089663935873
 20
597.0999334424439
 10
-283.108478637658
 20
598.4311245552235
 10
-282.6190484877368
 20
599.6700532804002
 10
-281.9573429005723
 20
600.7745293861695
 10
-281.1458954663072
 20
601.7069412634223
 10
-280.2123390540915
 20
602.4355367439836
 10
-279.1884648078654
 20
602.935504382617
 10
-278.1091395370828
 20
603.1898183810337
 10
-277.0111183693316
 20
603.1898183810337
 10
-275.9317930985488
 20
602.935504382617
 10
-274.9079188523227
 20
602.4355367439836
 10
-273.974362440107
 20
601.7069412634224
 10
-273.1629150058418
 20
600.7745293861696
 10
-272.5012094186776
 20
599.6700532804003
 10
-272.0117792687564
 20
598.4311245552235
 10
-271.7112915128272
 20
597.0999334424439
 10
-271.6099789010228
 20
595.7218120588192
210
0.0
220
0.0
230
-1.0
  0
LWPOLYLINE
  5
BB7
330
1E
100
AcDbEntity
  8
STEMPEL
100
AcDbPolyline
 90
        9
 70
   128
 43
0.0
 10
-277.8652261771266
 20
603.2119461366431
 10
-276.7488184557554
 20
603.004639000236
 10
-275.6835392040132
 20
602.5353842727821
 10
-274.7077042209749
 20
601.8210600356135
 10
-273.8564121881168
 20
600.8873589922172
 10
-273.1602822453804
 20
599.7678643570568
 10
-272.6443526866891
 20
598.5028419397181
 10
-272.3271803864732
 20
597.1377918705088
 10
-272.2201733488851
 20
595.7218120588208
210
0.0
220
0.0
230
-1.0
  0
LWPOLYLINE
  5
BB8
330
1E
100
AcDbEntity
  8
STEMPEL
100
AcDbPolyline
 90
       10
 70
   128
 43
0.0
 10
275.2725820365468
 20
583.2218120588211
 10
274.6365776765459
 20
583.3129655407478
 10
274.0198979871896
 20
583.5836563341057
 10
273.4412804687845
 20
584.0256596361146
 10
272.9183061218328
 20
584.6255454001074
 10
272.4668652572282
 20
585.3650864007021
 10
272.1006746772023
 20
586.2218120588213
 10
271.8308608972273
 20
587.1696911988674
 10
271.6656220724756
 20
588.1799229928199
 10
271.6099789010225
 20
589.2218120588215
  0
LWPOLYLINE
  5
BB9
330
1E
100
AcDbEntity
  8
STEMPEL
100
AcDbPolyline
 90
        7
 70
   128
 43
0.0
 10
273.8581964249902
 20
584.2218120588211
 10
273.3865508244235
 20
584.831149960662
 10
272.9820443480406
 20
585.5585802339512
 10
272.6555567055517
 20
586.3845377278948
 10
272.4158691921435
 20
587.2868072783571
 10
272.2694285045173
 20
588.2411212126005
 10
272.2201733488849
 20
589.2218120588215
  0
LWPOLYLINE
  5
BBA
330
1E
100
AcDbEntity
  8
STEMPEL
100
AcDbPolyline
 90
       18
 70
   128
 43
0.0
 10
-302.198671697875
 20
595.7218120588192
 10
-302.1209317966148
 20
597.0999334424438
 10
-301.890359431933
 20
598.4311245552235
 10
-301.5148064691678
 20
599.6700532804002
 10
-301.0070619140402
 20
600.7745293861694
 10
-300.3844163984023
 20
601.7069412634223
 10
-299.6680733685082
 20
602.4355367439836
 10
-298.8824270270823
 20
602.935504382617
 10
-298.0542316180029
 20
603.1898183810335
 10
-297.2116903426152
 20
603.1898183810335
 10
-296.3834949335358
 20
602.935504382617
 10
-295.5978485921099
 20
602.4355367439836
 10
-294.8815055622159
 20
601.7069412634223
 10
-294.2588600465779
 20
600.7745293861694
 10
-293.7511154914501
 20
599.6700532804002
 10
-293.3755625286849
 20
598.4311245552235
 10
-293.1449901640031
 20
597.0999334424439
 10
-293.0672502627431
 20
595.7218120588192
210
0.0
220
0.0
230
-1.0
  0
LWPOLYLINE
  5
BBB
330
1E
100
AcDbEntity
  8
STEMPEL
100
AcDbPolyline
 90
       10
 70
   128
 43
0.0
 10
-298.42818186713
 20
603.2218120588225
 10
-297.6353545212703
 20
603.107870206414
 10
-296.8666168331245
 20
602.7695067147166
 10
-296.145326508347
 20
602.2170025872055
 10
-295.4933995884656
 20
601.4671453822143
 10
-294.9306445430498
 20
600.5427191314709
 10
-294.4741603993869
 20
599.4718120588215
 10
-294.1378171971901
 20
598.2869631337639
 10
-293.9318345544601
 20
597.0241733913231
 10
-293.8624711495641
 20
595.7218120588208
210
0.0
220
0.0
230
-1.0
  0
LWPOLYLINE
  5
BBC
330
1E
100
AcDbEntity
  8
STEMPEL
100
AcDbPolyline
 90
       10
 70
   128
 43
0.0
 10
297.4309564373491
 20
583.2218120588211
 10
296.6732068122549
 20
583.3129655407478
 10
295.9384810260793
 20
583.5836563341056
 10
295.2491033500463
 20
584.0256596361144
 10
294.6260201759999
 20
584.6255454001073
 10
294.0881635708884
 20
585.365086400702
 10
293.6518760354894
 20
586.2218120588213
 10
293.3304139457942
 20
587.1696911988673
 10
293.1335447647301
 20
588.1799229928199
 10
293.0672502627434
 20
589.2218120588215
  0
LINE
  5
BBD
330
1E
100
AcDbEntity
  8
STEMPEL
100
AcDbLine
 10
304.1502485263935
 20
584.2218120588211
 30
0.0
 11
295.8140479780817
 21
584.2218120588211
 31
0.0
  0
LINE
  5
BBE
330
1E
100
AcDbEntity
  8
STEMPEL
100
AcDbLine
 10
302.198671697875
 20
595.7218120588192
 30
0.0
 11
302.198671697875
 21
589.2218120588227
 31
0.0
  0
LINE
  5
BBF
330
1E
100
AcDbEntity
  8
STEMPEL
100
AcDbLine
 10
293.8624711495639
 20
595.7218120588192
 30
0.0
 11
293.8624711495639
 21
589.2218120588227
 31
0.0
  0
LINE
  5
BC0
330
1E
100
AcDbEntity
  8
STEMPEL
100
AcDbLine
 10
293.0672502627431
 20
595.7218120588192
 30
0.0
 11
293.0672502627431
 21
589.2218120588227
 31
0.0
  0
LWPOLYLINE
  5
BC1
330
1E
100
AcDbEntity
  8
STEMPEL
100
AcDbPolyline
 90
        7
 70
   128
 43
0.0
 10
295.8140479780823
 20
584.2218120588211
 10
295.2521190048181
 20
584.8311499606618
 10
294.7701810652309
 20
585.5585802339512
 10
294.3811964854811
 20
586.3845377278948
 10
294.0956274943747
 20
587.2868072783571
 10
293.9211548285787
 20
588.2411212126003
 10
293.8624711495639
 20
589.2218120588215
  0
LINE
  5
BC2
330
1E
100
AcDbEntity
  8
STEMPEL
100
AcDbLine
 10
285.1483020814967
 20
584.2218120588211
 30
0.0
 11
273.8581964249898
 21
584.2218120588211
 31
0.0
  0
LINE
  5
BC3
330
1E
100
AcDbEntity
  8
STEMPEL
100
AcDbLine
 10
283.5102790053914
 20
595.7218120588192
 30
0.0
 11
283.5102790053914
 21
589.2218120588227
 31
0.0
  0
LWPOLYLINE
  5
BC4
330
1E
100
AcDbEntity
  8
STEMPEL
100
AcDbPolyline
 90
       10
 70
   128
 43
0.0
 10
287.1728821409156
 20
583.2218120588211
 10
286.5368777809147
 20
583.3129655407478
 10
285.9201980915585
 20
583.5836563341056
 10
285.3415805731534
 20
584.0256596361146
 10
284.8186062262016
 20
584.6255454001073
 10
284.3671653615971
 20
585.365086400702
 10
284.0009747815712
 20
586.2218120588213
 10
283.7311610015961
 20
587.1696911988674
 10
283.5659221768445
 20
588.1799229928199
 10
283.5102790053914
 20
589.2218120588215
  0
LINE
  5
BC5
330
1E
100
AcDbEntity
  8
STEMPEL
100
AcDbLine
 10
301.7854422614671
 20
640.7218120588213
 30
0.0
 11
301.7854422614669
 21
615.7218120588228
 31
0.0
  0
LINE
  5
BC6
330
1E
100
AcDbEntity
  8
STEMPEL
100
AcDbLine
 10
302.6535062811559
 20
615.7218120588212
 30
0.0
 11
302.6535062811559
 21
640.7218120588229
 31
0.0
  0
LWPOLYLINE
  5
BC7
330
1E
100
AcDbEntity
  8
STEMPEL
100
AcDbPolyline
 90
       18
 70
   128
 43
0.0
 10
-259.9051273675414
 20
595.7218120588193
 10
-259.7871463322602
 20
597.0999334424439
 10
-259.4372209290705
 20
598.4311245552236
 10
-258.8672674478888
 20
599.6700532804005
 10
-258.0966949709328
 20
600.7745293861696
 10
-257.1517444197052
 20
601.7069412634225
 10
-256.0645949518851
 20
602.4355367439838
 10
-254.872268138707
 20
602.9355043826171
 10
-253.615367239755
 20
603.1898183810337
 10
-252.3366945076567
 20
603.1898183810337
 10
-251.079793608705
 20
602.9355043826171
 10
-249.8874667955268
 20
602.4355367439839
 10
-248.8003173277066
 20
601.7069412634225
 10
-247.8553667764791
 20
600.7745293861696
 10
-247.0847942995229
 20
599.6700532804005
 10
-246.5148408183412
 20
598.4311245552237
 10
-246.1649154151515
 20
597.099933442444
 10
-246.0469343798705
 20
595.7218120588195
210
0.0
220
0.0
230
-1.0
  0
LWPOLYLINE
  5
BC8
330
1E
100
AcDbEntity
  8
STEMPEL
100
AcDbPolyline
 90
        9
 70
   128
 43
0.0
 10
-253.1678230065177
 20
603.2189384818596
 10
-251.8436135561879
 20
603.0401055748118
 10
-250.5756341590018
 20
602.5898296574876
 10
-249.4109154709164
 20
601.8848119253484
 10
-248.3926581023096
 20
600.951202208965
 10
-247.5586302630473
 20
599.8236290499889
 10
-246.9397669008534
 20
598.543915293037
 10
-246.5590222923793
 20
597.1595268335015
 10
-246.4305186455475
 20
595.7218120588211
210
0.0
220
0.0
230
-1.0
  0
LINE
  5
BC9
330
1E
100
AcDbEntity
  8
STEMPEL
100
AcDbLine
 10
261.1226388002704
 20
584.2218120588212
 30
0.0
 11
247.648030078276
 21
584.2218120588213
 31
0.0
  0
LINE
  5
BCA
330
1E
100
AcDbEntity
  8
STEMPEL
100
AcDbLine
 10
272.2201733488849
 20
595.7218120588192
 30
0.0
 11
272.2201733488849
 21
589.2218120588227
 31
0.0
  0
LINE
  5
BCB
330
1E
100
AcDbEntity
  8
STEMPEL
100
AcDbLine
 10
271.6099789010225
 20
595.7218120588192
 30
0.0
 11
271.6099789010225
 21
589.2218120588227
 31
0.0
  0
LINE
  5
BCC
330
1E
100
AcDbEntity
  8
STEMPEL
100
AcDbLine
 10
259.9051273675414
 20
595.7218120588193
 30
0.0
 11
259.9051273675414
 21
589.2218120588228
 31
0.0
  0
LWPOLYLINE
  5
BCD
330
1E
100
AcDbEntity
  8
STEMPEL
100
AcDbPolyline
 90
       10
 70
   128
 43
0.0
 10
262.6274706947504
 20
583.2218120588212
 10
262.1547407369968
 20
583.3129655407479
 10
261.6963744397966
 20
583.5836563341058
 10
261.2662990311458
 20
584.0256596361146
 10
260.8775821347077
 20
584.6255454001075
 10
260.5420347166799
 20
585.3650864007022
 10
260.2698522155643
 20
586.2218120588214
 10
260.0693047589262
 20
587.1696911988674
 10
259.9464858797538
 20
588.17992299282
 10
259.9051273675414
 20
589.2218120588217
  0
LWPOLYLINE
  5
BCE
330
1E
100
AcDbEntity
  8
STEMPEL
100
AcDbPolyline
 90
       10
 70
   128
 43
0.0
 10
248.7692777070795
 20
583.2218120588213
 10
248.2965477493258
 20
583.3129655407481
 10
247.8381814521256
 20
583.5836563341058
 10
247.4081060434749
 20
584.0256596361147
 10
247.0193891470367
 20
584.6255454001075
 10
246.683841729009
 20
585.3650864007022
 10
246.4116592278934
 20
586.2218120588216
 10
246.2111117712553
 20
587.1696911988675
 10
246.0882928920828
 20
588.1799229928201
 10
246.0469343798705
 20
589.2218120588218
  0
LINE
  5
BCF
330
1E
100
AcDbEntity
  8
STEMPEL
100
AcDbLine
 10
246.4305186455475
 20
595.7218120588195
 30
0.0
 11
246.4305186455475
 21
589.2218120588229
 31
0.0
  0
LINE
  5
BD0
330
1E
100
AcDbEntity
  8
STEMPEL
100
AcDbLine
 10
246.0469343798705
 20
595.7218120588179
 30
0.0
 11
246.0469343798705
 21
589.2218120588229
 31
0.0
  0
LWPOLYLINE
  5
BD1
330
1E
100
AcDbEntity
  8
STEMPEL
100
AcDbPolyline
 90
        7
 70
   128
 43
0.0
 10
247.6480300782764
 20
584.2218120588213
 10
247.2974648638645
 20
584.831149960662
 10
246.9968028849258
 20
585.5585802339513
 10
246.7541308229912
 20
586.3845377278951
 10
246.5759756479427
 20
587.2868072783574
 10
246.4671290669622
 20
588.2411212126005
 10
246.4305186455475
 20
589.2218120588218
  0
LINE
  5
BD2
330
1E
100
AcDbEntity
  8
STEMPEL
100
AcDbLine
 10
259.2380394001003
 20
640.7218120588216
 30
0.0
 11
259.2380394001001
 21
615.7218120588213
 31
0.0
  0
LINE
  5
BD3
330
1E
100
AcDbEntity
  8
STEMPEL
100
AcDbLine
 10
272.228420456866
 20
640.7218120588213
 30
0.0
 11
272.228420456866
 21
615.7218120588229
 31
0.0
  0
LINE
  5
BD4
330
1E
100
AcDbEntity
  8
STEMPEL
100
AcDbLine
 10
259.7392163955422
 20
640.7218120588216
 30
0.0
 11
259.7392163955422
 21
615.7218120588213
 31
0.0
  0
ELLIPSE
  5
BD5
330
1E
100
AcDbEntity
  8
STEMPEL
100
AcDbEllipse
 10
265.7332299284831
 20
615.7218120588213
 30
0.0
 11
-0.0000000000000334
 21
-7.5
 31
0.0
210
0.0
220
0.0
230
1.0
 40
0.8660254037843856
 41
4.712388980384689
 42
7.853981633974482
  0
ELLIPSE
  5
BD6
330
1E
100
AcDbEntity
  8
STEMPEL
100
AcDbEllipse
 10
266.2344069239251
 20
615.7218120588213
 30
0.0
 11
-0.0000000000000334
 21
-7.5
 31
0.0
210
0.0
220
0.0
230
1.0
 40
0.8660254037843856
 41
4.712388980384689
 42
6.24459510668465
  0
ELLIPSE
  5
BD7
330
1E
100
AcDbEntity
  8
STEMPEL
100
AcDbEllipse
 10
265.7332299284831
 20
640.7218120588213
 30
0.0
 11
0.0000000000000334
 21
7.5
 31
0.0
210
0.0
220
0.0
230
-1.0
 40
0.8660254037843856
 41
4.712388980384689
 42
7.853981633974482
  0
ELLIPSE
  5
BD8
330
1E
100
AcDbEntity
  8
STEMPEL
100
AcDbEllipse
 10
266.2344069239251
 20
640.7218120588213
 30
0.0
 11
0.0000000000000334
 21
7.5
 31
0.0
210
0.0
220
0.0
230
-1.0
 40
0.8660254037843856
 41
4.712388980384689
 42
6.24459510668465
  0
LINE
  5
BD9
330
1E
100
AcDbEntity
  8
STEMPEL
100
AcDbLine
 10
317.8817503229309
 20
657.5406495057018
 30
0.0
 11
293.9028964299799
 21
671.5283026718873
 31
0.0
  0
LINE
  5
BDA
330
1E
100
AcDbEntity
  8
STEMPEL
100
AcDbLine
 10
318.3950913765118
 20
658.3988926188644
 30
0.0
 11
294.408788501045
 21
672.390902629553
 31
0.0
  0
ARC
  5
BDB
330
1E
100
AcDbEntity
  8
STEMPEL
100
AcDbCircle
 10
315.3623967548038
 20
653.2217540915056
 30
0.0
 40
6.0
100
AcDbArc
 50
0.0
 51
59.74358352518112
  0
ARC
  5
BDC
330
1E
100
AcDbEntity
  8
STEMPEL
100
AcDbCircle
 10
320.8735403591157
 20
662.7416490412829
 30
0.0
 40
5.0
100
AcDbArc
 50
239.7435628364698
 51
239.9329541615142
  0
ARC
  5
BDD
330
1E
100
AcDbEntity
  8
STEMPEL
100
AcDbCircle
 10
315.3623967548038
 20
653.2217540915056
 30
0.0
 40
5.0
100
AcDbArc
 50
0.0
 51
59.74358352518112
  0
ARC
  5
BDE
330
1E
100
AcDbEntity
  8
STEMPEL
100
AcDbCircle
 10
291.362396754804
 20
667.2218120588206
 30
0.0
 40
5.0
100
AcDbArc
 50
59.46264995170093
 51
90.0
  0
ARC
  5
BDF
330
1E
100
AcDbEntity
  8
STEMPEL
100
AcDbCircle
 10
291.362396754804
 20
667.2218120588206
 30
0.0
 40
6.0
100
AcDbArc
 50
59.48712567238029
 51
90.0
  0
ARC
  5
BE0
330
1E
100
AcDbEntity
  8
STEMPEL
100
AcDbCircle
 10
291.362396754804
 20
667.2218120588206
 30
0.0
 40
6.0
100
AcDbArc
 50
90.0
 51
90.0
  0
LWPOLYLINE
  5
BE1
330
1E
100
AcDbEntity
  8
STEMPEL
100
AcDbPolyline
 90
       18
 70
   128
 43
0.0
 10
108.0280711425727
 20
595.72181205882
 10
108.0769404874889
 20
597.0999334424446
 10
108.221884335309
 20
598.4311245552243
 10
108.4579667971362
 20
599.6700532804011
 10
108.7771483678829
 20
600.7745293861703
 10
109.1685597019733
 20
601.7069412634232
 10
109.6188717558713
 20
602.4355367439844
 10
110.1127496926707
 20
602.9355043826178
 10
110.6333750915756
 20
603.1898183810344
 10
111.1630186790474
 20
603.1898183810344
 10
111.6836440779524
 20
602.9355043826178
 10
112.1775220147518
 20
602.4355367439844
 10
112.6278340686498
 20
601.7069412634232
 10
113.0192454027402
 20
600.7745293861703
 10
113.3384269734868
 20
599.6700532804011
 10
113.574509435314
 20
598.4311245552243
 10
113.7194532831341
 20
597.0999334424446
 10
113.7683226280504
 20
595.72181205882
  0
LINE
  5
BE2
330
1E
100
AcDbEntity
  8
STEMPEL
100
AcDbLine
 10
105.8744995099041
 20
584.2218120588219
 30
0.0
 11
110.6886966588755
 21
584.2218120588219
 31
0.0
  0
LINE
  5
BE3
330
1E
100
AcDbEntity
  8
STEMPEL
100
AcDbLine
 10
104.3297021330959
 20
658.3988926188653
 30
0.0
 11
128.3160050085628
 21
672.3909026295537
 31
0.0
  0
LINE
  5
BE4
330
1E
100
AcDbEntity
  8
STEMPEL
100
AcDbLine
 10
104.8430431866767
 20
657.5406495057027
 30
0.0
 11
128.8218970796279
 21
671.5283026718879
 31
0.0
  0
LWPOLYLINE
  5
BE5
330
1E
100
AcDbEntity
  8
STEMPEL
100
AcDbPolyline
 90
       18
 70
   128
 43
0.0
 10
162.8196661420659
 20
595.7218120588199
 10
162.9376471773469
 20
597.0999334424443
 10
163.2875725805366
 20
598.431124555224
 10
163.8575260617183
 20
599.6700532804009
 10
164.6280985386745
 20
600.7745293861701
 10
165.5730490899021
 20
601.706941263423
 10
166.660198557722
 20
602.4355367439841
 10
167.8525253709004
 20
602.9355043826174
 10
169.1094262698521
 20
603.1898183810342
 10
170.3880990019505
 20
603.1898183810342
 10
171.6449999009024
 20
602.9355043826174
 10
172.8373267140806
 20
602.4355367439841
 10
173.9244761819007
 20
601.7069412634229
 10
174.8694267331282
 20
600.7745293861701
 10
175.6399992100842
 20
599.6700532804007
 10
176.209952691266
 20
598.4311245552239
 10
176.5598780944556
 20
597.0999334424443
 10
176.6778591297368
 20
595.7218120588197
  0
LWPOLYLINE
  5
BE6
330
1E
100
AcDbEntity
  8
STEMPEL
100
AcDbPolyline
 90
        9
 70
   128
 43
0.0
 10
169.5569705030894
 20
603.21893848186
 10
170.8811799534192
 20
603.0401055748121
 10
172.1491593506053
 20
602.589829657488
 10
173.313878038691
 20
601.8848119253488
 10
174.3321354072976
 20
600.9512022089652
 10
175.1661632465598
 20
599.8236290499892
 10
175.7850266087537
 20
598.5439152930373
 10
176.165771217228
 20
597.159526833502
 10
176.2942748640599
 20
595.7218120588213
  0
LINE
  5
BE7
330
1E
100
AcDbEntity
  8
STEMPEL
100
AcDbLine
 10
161.6021547093367
 20
584.2218120588216
 30
0.0
 11
175.0767634313311
 21
584.2218120588215
 31
0.0
  0
LWPOLYLINE
  5
BE8
330
1E
100
AcDbEntity
  8
STEMPEL
100
AcDbPolyline
 90
       10
 70
   128
 43
0.0
 10
-173.9555158025278
 20
583.2218120588215
 10
-174.4282457602813
 20
583.3129655407483
 10
-174.8866120574815
 20
583.5836563341062
 10
-175.3166874661322
 20
584.025659636115
 10
-175.7054043625706
 20
584.6255454001078
 10
-176.0409517805982
 20
585.3650864007025
 10
-176.3131342817137
 20
586.2218120588218
 10
-176.5136817383518
 20
587.1696911988679
 10
-176.6365006175243
 20
588.1799229928203
 10
-176.6778591297368
 20
589.221812058822
210
0.0
220
0.0
230
-1.0
  0
ARC
  5
BE9
330
1E
100
AcDbEntity
  8
STEMPEL
100
AcDbCircle
 10
211.3623967548038
 20
615.7218120588216
 30
0.0
 40
7.5
100
AcDbArc
 50
180.000000000026
 51
0.0000000000130276
  0
ARC
  5
BEA
330
1E
100
AcDbEntity
  8
STEMPEL
100
AcDbCircle
 10
211.3623967548038
 20
640.7218120588216
 30
0.0
 40
7.5
100
AcDbArc
 50
359.999999999987
 51
179.9999999999739
  0
LWPOLYLINE
  5
BEB
330
1E
100
AcDbEntity
  8
STEMPEL
100
AcDbPolyline
 90
       18
 70
   128
 43
0.0
 10
-232.9918688590906
 20
595.7218120588195
 10
-232.8652596129141
 20
597.099933442444
 10
-232.4897434004125
 20
598.4311245552237
 10
-231.8781079758201
 20
599.6700532804005
 10
-231.0511818499459
 20
600.7745293861697
 10
-230.0371250002175
 20
601.7069412634225
 10
-228.8704699164258
 20
602.4355367439839
 10
-227.5909456382006
 20
602.9355043826171
 10
-226.2421248302165
 20
603.189818381034
 10
-224.8699399673572
 20
603.189818381034
 10
-223.5211191593731
 20
602.9355043826171
 10
-222.2415948811477
 20
602.4355367439839
 10
-221.074939797356
 20
601.7069412634226
 10
-220.0608829476278
 20
600.7745293861699
 10
-219.2339568217533
 20
599.6700532804005
 10
-218.622321397161
 20
598.4311245552237
 10
-218.2468051846593
 20
597.099933442444
 10
-218.120195938483
 20
595.7218120588195
210
0.0
220
0.0
230
-1.0
  0
LWPOLYLINE
  5
BEC
330
1E
100
AcDbEntity
  8
STEMPEL
100
AcDbPolyline
 90
        9
 70
   128
 43
0.0
 10
-225.6214491235303
 20
603.2215218185942
 10
-224.1801091396524
 20
603.0662204246706
 10
-222.7960282362029
 20
602.6318201776563
 10
-221.5218036236709
 20
601.9348289573811
 10
-220.405857803941
 20
601.0017335059353
 10
-219.490598440488
 20
599.8679928905919
 10
-218.810806801713
 20
598.5766910045225
 10
-218.3923160190635
 20
597.176899312363
 10
-218.2510293881697
 20
595.7218120588211
210
0.0
220
0.0
230
-1.0
  0
LINE
  5
BED
330
1E
100
AcDbEntity
  8
STEMPEL
100
AcDbLine
 10
233.5784433813477
 20
584.2218120588213
 30
0.0
 11
218.8376039104262
 21
584.2218120588213
 31
0.0
  0
LINE
  5
BEE
330
1E
100
AcDbEntity
  8
STEMPEL
100
AcDbLine
 10
232.9918688590908
 20
595.7218120588211
 30
0.0
 11
232.9918688590908
 21
589.2218120588229
 31
0.0
  0
LWPOLYLINE
  5
BEF
330
1E
100
AcDbEntity
  8
STEMPEL
100
AcDbPolyline
 90
       10
 70
   128
 43
0.0
 10
234.3034435955986
 20
583.2218120588213
 10
234.07569103273
 20
583.3129655407481
 10
233.8548586162358
 20
583.5836563341058
 10
233.6476562273445
 20
584.0256596361148
 10
233.4603796057934
 20
584.6255454001075
 10
233.2987190569614
 20
585.3650864007022
 10
233.1675865548207
 20
586.2218120588216
 10
233.0709664940928
 20
587.1696911988676
 10
233.0117946264307
 20
588.1799229928201
 10
232.9918688590906
 20
589.2218120588218
  0
LINE
  5
BF0
330
1E
100
AcDbEntity
  8
STEMPEL
100
AcDbLine
 10
218.2510293881697
 20
595.7218120588195
 30
0.0
 11
218.2510293881697
 21
589.2218120588229
 31
0.0
  0
LINE
  5
BF1
330
1E
100
AcDbEntity
  8
STEMPEL
100
AcDbLine
 10
218.120195938483
 20
595.7218120588179
 30
0.0
 11
218.120195938483
 21
589.2218120588229
 31
0.0
  0
LWPOLYLINE
  5
BF2
330
1E
100
AcDbEntity
  8
STEMPEL
100
AcDbPolyline
 90
       10
 70
   128
 43
0.0
 10
219.431770674991
 20
583.2218120588213
 10
219.2040181121225
 20
583.3129655407481
 10
218.9831856956283
 20
583.5836563341059
 10
218.7759833067369
 20
584.0256596361148
 10
218.5887066851858
 20
584.6255454001076
 10
218.4270461363538
 20
585.3650864007023
 10
218.2959136342132
 20
586.2218120588216
 10
218.1992935734852
 20
587.1696911988676
 10
218.1401217058231
 20
588.1799229928201
 10
218.120195938483
 20
589.2218120588218
  0
LWPOLYLINE
  5
BF3
330
1E
100
AcDbEntity
  8
STEMPEL
100
AcDbPolyline
 90
        7
 70
   128
 43
0.0
 10
218.8376039104267
 20
584.2218120588213
 10
218.6687080646582
 20
584.8311499606622
 10
218.5238546760855
 20
585.5585802339515
 10
218.4069397585184
 20
586.3845377278951
 10
218.3211078855007
 20
587.2868072783574
 10
218.268667613055
 20
588.2411212126007
 10
218.2510293881697
 20
589.2218120588218
  0
LINE
  5
BF4
330
1E
100
AcDbEntity
  8
STEMPEL
100
AcDbLine
 10
218.8623967548038
 20
640.72181205882
 30
0.0
 11
218.8623967548038
 21
615.72181205882
 31
0.0
  0
LWPOLYLINE
  5
BF5
330
1E
100
AcDbEntity
  8
STEMPEL
100
AcDbPolyline
 90
        9
 70
   128
 43
0.0
 10
197.103344386077
 20
603.2215218185945
 10
198.5446843699547
 20
603.0662204246707
 10
199.9287652734043
 20
602.6318201776564
 10
201.2029898859363
 20
601.9348289573812
 10
202.3189357056661
 20
601.0017335059355
 10
203.2341950691192
 20
599.8679928905921
 10
203.9139867078944
 20
598.5766910045226
 10
204.3324774905437
 20
597.176899312363
 10
204.4737641214377
 20
595.7218120588212
  0
LWPOLYLINE
  5
BF6
330
1E
100
AcDbEntity
  8
STEMPEL
100
AcDbPolyline
 90
       18
 70
   128
 43
0.0
 10
189.7329246505167
 20
595.7218120588197
 10
189.859533896693
 20
597.0999334424443
 10
190.2350501091946
 20
598.4311245552239
 10
190.846685533787
 20
599.6700532804006
 10
191.6736116596615
 20
600.7745293861699
 10
192.6876685093896
 20
601.7069412634228
 10
193.8543235931814
 20
602.4355367439841
 10
195.1338478714068
 20
602.9355043826174
 10
196.4826686793909
 20
603.189818381034
 10
197.8548535422501
 20
603.189818381034
 10
199.2036743502343
 20
602.9355043826174
 10
200.4831986284594
 20
602.4355367439841
 10
201.6498537122512
 20
601.7069412634228
 10
202.6639105619795
 20
600.7745293861699
 10
203.4908366878538
 20
599.6700532804006
 10
204.1024721124462
 20
598.4311245552238
 10
204.4779883249478
 20
597.099933442444
 10
204.6045975711243
 20
595.7218120588196
  0
LINE
  5
BF7
330
1E
100
AcDbEntity
  8
STEMPEL
100
AcDbLine
 10
189.1463501282595
 20
584.2218120588215
 30
0.0
 11
203.8871895991809
 21
584.2218120588215
 31
0.0
  0
LINE
  5
BF8
330
1E
100
AcDbEntity
  8
STEMPEL
100
AcDbLine
 10
204.6045975711241
 20
595.721812058818
 30
0.0
 11
204.6045975711241
 21
589.221812058823
 31
0.0
  0
LINE
  5
BF9
330
1E
100
AcDbEntity
  8
STEMPEL
100
AcDbLine
 10
204.4737641214377
 20
595.7218120588196
 30
0.0
 11
204.4737641214377
 21
589.221812058823
 31
0.0
  0
LWPOLYLINE
  5
BFA
330
1E
100
AcDbEntity
  8
STEMPEL
100
AcDbPolyline
 90
        7
 70
   128
 43
0.0
 10
-203.8871895991806
 20
584.2218120588215
 10
-204.0560854449491
 20
584.8311499606622
 10
-204.2009388335217
 20
585.5585802339516
 10
-204.3178537510887
 20
586.3845377278952
 10
-204.4036856241064
 20
587.2868072783575
 10
-204.4561258965521
 20
588.2411212126007
 10
-204.4737641214374
 20
589.2218120588219
210
0.0
220
0.0
230
-1.0
  0
LWPOLYLINE
  5
BFB
330
1E
100
AcDbEntity
  8
STEMPEL
100
AcDbPolyline
 90
       10
 70
   128
 43
0.0
 10
-203.2930228346164
 20
583.2218120588215
 10
-203.5207753974849
 20
583.3129655407483
 10
-203.7416078139791
 20
583.583656334106
 10
-203.9488102028702
 20
584.0256596361149
 10
-204.1360868244215
 20
584.6255454001077
 10
-204.2977473732534
 20
585.3650864007025
 10
-204.428879875394
 20
586.2218120588217
 10
-204.5254999361219
 20
587.1696911988676
 10
-204.5846718037843
 20
588.1799229928202
 10
-204.6045975711241
 20
589.2218120588219
210
0.0
220
0.0
230
-1.0
  0
LINE
  5
BFC
330
1E
100
AcDbEntity
  8
STEMPEL
100
AcDbLine
 10
189.7329246505165
 20
595.7218120588213
 30
0.0
 11
189.7329246505165
 21
589.2218120588231
 31
0.0
  0
LWPOLYLINE
  5
BFD
330
1E
100
AcDbEntity
  8
STEMPEL
100
AcDbPolyline
 90
       10
 70
   128
 43
0.0
 10
-188.4213499140088
 20
583.2218120588215
 10
-188.6491024768773
 20
583.3129655407483
 10
-188.8699348933715
 20
583.583656334106
 10
-189.0771372822626
 20
584.025659636115
 10
-189.2644139038139
 20
584.6255454001077
 10
-189.4260744526457
 20
585.3650864007025
 10
-189.5572069547864
 20
586.2218120588218
 10
-189.6538270155143
 20
587.1696911988679
 10
-189.7129988831764
 20
588.1799229928203
 10
-189.7329246505165
 20
589.221812058822
210
0.0
220
0.0
230
-1.0
  0
LINE
  5
BFE
330
1E
100
AcDbEntity
  8
STEMPEL
100
AcDbLine
 10
176.6778591297368
 20
595.7218120588181
 30
0.0
 11
176.6778591297368
 21
589.2218120588231
 31
0.0
  0
LINE
  5
BFF
330
1E
100
AcDbEntity
  8
STEMPEL
100
AcDbLine
 10
176.2942748640599
 20
595.7218120588197
 30
0.0
 11
176.2942748640599
 21
589.2218120588231
 31
0.0
  0
LWPOLYLINE
  5
C00
330
1E
100
AcDbEntity
  8
STEMPEL
100
AcDbPolyline
 90
        7
 70
   128
 43
0.0
 10
-175.0767634313306
 20
584.2218120588215
 10
-175.4273286457426
 20
584.8311499606625
 10
-175.7279906246813
 20
585.5585802339517
 10
-175.970662686616
 20
586.3845377278953
 10
-176.1488178616644
 20
587.2868072783576
 10
-176.2576644426449
 20
588.2411212126008
 10
-176.2942748640599
 20
589.221812058822
210
0.0
220
0.0
230
-1.0
  0
LINE
  5
C01
330
1E
100
AcDbEntity
  8
STEMPEL
100
AcDbLine
 10
203.8623967548038
 20
640.7218120588217
 30
0.0
 11
203.8623967548038
 21
615.7218120588217
 31
0.0
  0
LWPOLYLINE
  5
C02
330
1E
100
AcDbEntity
  8
STEMPEL
100
AcDbPolyline
 90
       18
 70
   128
 43
0.0
 10
139.2145145042157
 20
595.7218120588199
 10
139.3158271160201
 20
597.0999334424446
 10
139.6163148719493
 20
598.4311245552241
 10
140.1057450218705
 20
599.6700532804009
 10
140.7674506090348
 20
600.7745293861701
 10
141.5788980432999
 20
601.706941263423
 10
142.5124544555156
 20
602.4355367439843
 10
143.5363287017417
 20
602.9355043826176
 10
144.6156539725246
 20
603.1898183810342
 10
145.7136751402757
 20
603.1898183810342
 10
146.7930004110583
 20
602.9355043826176
 10
147.8168746572845
 20
602.4355367439843
 10
148.7504310695001
 20
601.706941263423
 10
149.5618785037653
 20
600.7745293861701
 10
150.2235840909298
 20
599.6700532804009
 10
150.713014240851
 20
598.4311245552241
 10
151.0135019967802
 20
597.0999334424444
 10
151.1148146085846
 20
595.7218120588199
  0
LINE
  5
C03
330
1E
100
AcDbEntity
  8
STEMPEL
100
AcDbLine
 10
137.5764914281104
 20
584.2218120588218
 30
0.0
 11
148.8665970846176
 21
584.2218120588218
 31
0.0
  0
LWPOLYLINE
  5
C04
330
1E
100
AcDbEntity
  8
STEMPEL
100
AcDbPolyline
 90
        9
 70
   128
 43
0.0
 10
144.8595673324806
 20
603.2119461366436
 10
145.9759750538517
 20
603.0046390002365
 10
147.0412543055941
 20
602.5353842727827
 10
148.0170892886324
 20
601.8210600356142
 10
148.8683813214903
 20
600.8873589922177
 10
149.5645112642267
 20
599.7678643570573
 10
150.0804408229181
 20
598.5028419397186
 10
150.3976131231339
 20
597.1377918705093
 10
150.5046201607222
 20
595.7218120588215
  0
LINE
  5
C05
330
1E
100
AcDbEntity
  8
STEMPEL
100
AcDbLine
 10
162.8196661420659
 20
595.7218120588199
 30
0.0
 11
162.8196661420659
 21
589.2218120588232
 31
0.0
  0
LWPOLYLINE
  5
C06
330
1E
100
AcDbEntity
  8
STEMPEL
100
AcDbPolyline
 90
       10
 70
   128
 43
0.0
 10
-160.0973228148569
 20
583.2218120588216
 10
-160.5700527726104
 20
583.3129655407484
 10
-161.0284190698106
 20
583.5836563341063
 10
-161.4584944784613
 20
584.025659636115
 10
-161.8472113748997
 20
584.6255454001079
 10
-162.1827587929272
 20
585.3650864007026
 10
-162.4549412940428
 20
586.2218120588218
 10
-162.6554887506809
 20
587.1696911988679
 10
-162.7783076298533
 20
588.1799229928204
 10
-162.8196661420659
 20
589.2218120588221
210
0.0
220
0.0
230
-1.0
  0
LWPOLYLINE
  5
C07
330
1E
100
AcDbEntity
  8
STEMPEL
100
AcDbPolyline
 90
       10
 70
   128
 43
0.0
 10
-147.4522114730605
 20
583.2218120588217
 10
-148.0882158330615
 20
583.3129655407486
 10
-148.7048955224175
 20
583.5836563341063
 10
-149.2835130408226
 20
584.0256596361151
 10
-149.8064873877745
 20
584.6255454001079
 10
-150.2579282523789
 20
585.3650864007026
 10
-150.624118832405
 20
586.221812058822
 10
-150.8939326123798
 20
587.169691198868
 10
-151.0591714371315
 20
588.1799229928206
 10
-151.1148146085846
 20
589.2218120588222
210
0.0
220
0.0
230
-1.0
  0
LWPOLYLINE
  5
C08
330
1E
100
AcDbEntity
  8
STEMPEL
100
AcDbPolyline
 90
        7
 70
   128
 43
0.0
 10
-148.8665970846169
 20
584.2218120588218
 10
-149.3382426851838
 20
584.8311499606626
 10
-149.7427491615665
 20
585.5585802339519
 10
-150.0692368040557
 20
586.3845377278956
 10
-150.3089243174639
 20
587.2868072783578
 10
-150.4553650050898
 20
588.241121212601
 10
-150.5046201607222
 20
589.2218120588222
210
0.0
220
0.0
230
-1.0
  0
LINE
  5
C09
330
1E
100
AcDbEntity
  8
STEMPEL
100
AcDbLine
 10
151.1148146085846
 20
595.7218120588199
 30
0.0
 11
151.1148146085846
 21
589.2218120588234
 31
0.0
  0
LINE
  5
C0A
330
1E
100
AcDbEntity
  8
STEMPEL
100
AcDbLine
 10
150.5046201607222
 20
595.7218120588199
 30
0.0
 11
150.5046201607222
 21
589.2218120588234
 31
0.0
  0
ELLIPSE
  5
C0B
330
1E
100
AcDbEntity
  8
STEMPEL
100
AcDbEllipse
 10
156.4903865856827
 20
615.7218120588217
 30
0.0
 11
-0.0000000000000334
 21
-7.5
 31
0.0
210
0.0
220
0.0
230
-1.0
 40
0.8660254037843856
 41
4.712388980384689
 42
6.24459510668465
  0
ELLIPSE
  5
C0C
330
1E
100
AcDbEntity
  8
STEMPEL
100
AcDbEllipse
 10
156.9915635811247
 20
615.7218120588217
 30
0.0
 11
-0.0000000000000334
 21
-7.5
 31
0.0
210
0.0
220
0.0
230
-1.0
 40
0.8660254037843856
 41
4.712388980384689
 42
7.853981633974482
  0
ELLIPSE
  5
C0D
330
1E
100
AcDbEntity
  8
STEMPEL
100
AcDbEllipse
 10
156.4903865856827
 20
640.721812058822
 30
0.0
 11
0.0000000000000334
 21
7.5
 31
0.0
210
0.0
220
0.0
230
1.0
 40
0.8660254037843856
 41
4.712388980384689
 42
6.24459510668465
  0
ELLIPSE
  5
C0E
330
1E
100
AcDbEntity
  8
STEMPEL
100
AcDbEllipse
 10
156.9915635811247
 20
640.721812058822
 30
0.0
 11
0.0000000000000334
 21
7.5
 31
0.0
210
0.0
220
0.0
230
1.0
 40
0.8660254037843856
 41
4.712388980384689
 42
7.853981633974482
  0
LINE
  5
C0F
330
1E
100
AcDbEntity
  8
STEMPEL
100
AcDbLine
 10
162.9855771140656
 20
640.7218120588217
 30
0.0
 11
162.9855771140656
 21
615.7218120588217
 31
0.0
  0
LINE
  5
C10
330
1E
100
AcDbEntity
  8
STEMPEL
100
AcDbLine
 10
163.4867541095075
 20
640.7218120588217
 30
0.0
 11
163.4867541095075
 21
615.7218120588217
 31
0.0
  0
LINE
  5
C11
330
1E
100
AcDbEntity
  8
STEMPEL
100
AcDbLine
 10
150.4963730527418
 20
640.721812058822
 30
0.0
 11
150.4963730527418
 21
615.7218120588234
 31
0.0
  0
LWPOLYLINE
  5
C12
330
1E
100
AcDbEntity
  8
STEMPEL
100
AcDbPolyline
 90
       10
 70
   128
 43
0.0
 10
124.2966116424773
 20
603.2218120588232
 10
125.089438988337
 20
603.1078702064148
 10
125.8581766764826
 20
602.7695067147174
 10
126.5794670012602
 20
602.2170025872062
 10
127.2313939211417
 20
601.4671453822152
 10
127.7941489665573
 20
600.5427191314716
 10
128.2506331102202
 20
599.4718120588223
 10
128.586976312417
 20
598.2869631337646
 10
128.792958955147
 20
597.0241733913237
 10
128.8623223600432
 20
595.7218120588215
  0
LWPOLYLINE
  5
C13
330
1E
100
AcDbEntity
  8
STEMPEL
100
AcDbPolyline
 90
       18
 70
   128
 43
0.0
 10
120.5261218117323
 20
595.7218120588199
 10
120.6038617129923
 20
597.0999334424446
 10
120.8344340776742
 20
598.4311245552241
 10
121.2099870404393
 20
599.670053280401
 10
121.7177315955671
 20
600.7745293861703
 10
122.3403771112051
 20
601.7069412634231
 10
123.0567201410991
 20
602.4355367439843
 10
123.842366482525
 20
602.9355043826176
 10
124.6705618916044
 20
603.1898183810344
 10
125.5131031669921
 20
603.1898183810344
 10
126.3412985760715
 20
602.9355043826176
 10
127.1269449174972
 20
602.4355367439843
 10
127.8432879473915
 20
601.706941263423
 10
128.4659334630294
 20
600.7745293861702
 10
128.973678018157
 20
599.6700532804009
 10
129.3492309809222
 20
598.4311245552241
 10
129.579803345604
 20
597.0999334424446
 10
129.6575432468642
 20
595.7218120588199
  0
LWPOLYLINE
  5
C14
330
1E
100
AcDbEntity
  8
STEMPEL
100
AcDbPolyline
 90
        9
 70
   128
 43
0.0
 10
110.4351697170594
 20
603.1235703034852
 10
110.9242302603282
 20
602.7971374057277
 10
111.3838432282292
 20
602.2518683924706
 10
111.7997930318535
 20
601.5046281493425
 10
112.159214561145
 20
600.578528426565
 10
112.4509910960325
 20
599.5022130045947
 10
112.6660981407707
 20
598.3089717569639
 10
112.7978825468782
 20
597.035711011888
 10
112.842268291543
 20
595.7218120588216
  0
LINE
  5
C15
330
1E
100
AcDbEntity
  8
STEMPEL
100
AcDbLine
 10
118.5745449832137
 20
584.2218120588218
 30
0.0
 11
126.9107455315257
 21
584.2218120588218
 31
0.0
  0
LINE
  5
C16
330
1E
100
AcDbEntity
  8
STEMPEL
100
AcDbLine
 10
139.2145145042157
 20
595.7218120588199
 30
0.0
 11
139.2145145042157
 21
589.2218120588234
 31
0.0
  0
LWPOLYLINE
  5
C17
330
1E
100
AcDbEntity
  8
STEMPEL
100
AcDbPolyline
 90
       10
 70
   128
 43
0.0
 10
-135.5519113686917
 20
583.2218120588217
 10
-136.1879157286926
 20
583.3129655407486
 10
-136.8045954180487
 20
583.5836563341063
 10
-137.3832129364537
 20
584.0256596361152
 10
-137.9061872834057
 20
584.6255454001079
 10
-138.35762814801
 20
585.3650864007026
 10
-138.7238187280362
 20
586.221812058822
 10
-138.993632508011
 20
587.1696911988681
 10
-139.1588713327626
 20
588.1799229928206
 10
-139.2145145042157
 20
589.2218120588222
210
0.0
220
0.0
230
-1.0
  0
LINE
  5
C18
330
1E
100
AcDbEntity
  8
STEMPEL
100
AcDbLine
 10
129.657543246864
 20
595.7218120588199
 30
0.0
 11
129.657543246864
 21
589.2218120588234
 31
0.0
  0
LINE
  5
C19
330
1E
100
AcDbEntity
  8
STEMPEL
100
AcDbLine
 10
128.8623223600432
 20
595.7218120588199
 30
0.0
 11
128.8623223600432
 21
589.2218120588234
 31
0.0
  0
LWPOLYLINE
  5
C1A
330
1E
100
AcDbEntity
  8
STEMPEL
100
AcDbPolyline
 90
       10
 70
   128
 43
0.0
 10
-125.2938370722582
 20
583.2218120588217
 10
-126.0515866973524
 20
583.3129655407486
 10
-126.7863124835278
 20
583.5836563341064
 10
-127.4756901595611
 20
584.0256596361152
 10
-128.0987733336074
 20
584.6255454001079
 10
-128.6366299387189
 20
585.3650864007026
 10
-129.0729174741178
 20
586.221812058822
 10
-129.3943795638131
 20
587.1696911988681
 10
-129.5912487448771
 20
588.1799229928206
 10
-129.657543246864
 20
589.2218120588222
210
0.0
220
0.0
230
-1.0
  0
LWPOLYLINE
  5
C1B
330
1E
100
AcDbEntity
  8
STEMPEL
100
AcDbPolyline
 90
        7
 70
   128
 43
0.0
 10
-126.910745531525
 20
584.2218120588218
 10
-127.472674504789
 20
584.8311499606627
 10
-127.9546124443762
 20
585.5585802339519
 10
-128.343597024126
 20
586.3845377278956
 10
-128.6291660152324
 20
587.2868072783578
 10
-128.8036386810284
 20
588.2411212126011
 10
-128.8623223600435
 20
589.2218120588222
210
0.0
220
0.0
230
-1.0
  0
LWPOLYLINE
  5
C1C
330
1E
100
AcDbEntity
  8
STEMPEL
100
AcDbPolyline
 90
       10
 70
   128
 43
0.0
 10
-116.1624156371263
 20
583.2218120588217
 10
-116.9201652622205
 20
583.3129655407486
 10
-117.654891048396
 20
583.5836563341064
 10
-118.3442687244292
 20
584.0256596361152
 10
-118.9673518984755
 20
584.625545400108
 10
-119.5052085035871
 20
585.3650864007028
 10
-119.9414960389859
 20
586.221812058822
 10
-120.2629581286813
 20
587.1696911988681
 10
-120.4598273097452
 20
588.1799229928206
 10
-120.5261218117321
 20
589.2218120588222
210
0.0
220
0.0
230
-1.0
  0
LINE
  5
C1D
330
1E
100
AcDbEntity
  8
STEMPEL
100
AcDbLine
 10
120.5261218117321
 20
595.7218120588199
 30
0.0
 11
120.5261218117321
 21
589.2218120588234
 31
0.0
  0
LINE
  5
C1E
330
1E
100
AcDbEntity
  8
STEMPEL
100
AcDbLine
 10
113.7683226280504
 20
595.72181205882
 30
0.0
 11
113.7683226280504
 21
589.2218120588235
 31
0.0
  0
LINE
  5
C1F
330
1E
100
AcDbEntity
  8
STEMPEL
100
AcDbLine
 10
112.8422682915432
 20
595.72181205882
 30
0.0
 11
112.8422682915432
 21
589.2218120588235
 31
0.0
  0
LWPOLYLINE
  5
C20
330
1E
100
AcDbEntity
  8
STEMPEL
100
AcDbPolyline
 90
       10
 70
   128
 43
0.0
 10
-108.9529581014765
 20
583.2218120588219
 10
-109.7891373763181
 20
583.3129655407486
 10
-110.5999097670206
 20
583.5836563341065
 10
-111.3606403647635
 20
584.0256596361152
 10
-112.0482147552823
 20
584.6255454001082
 10
-112.6417413386507
 20
585.3650864007029
 10
-113.1231861099718
 20
586.2218120588221
 10
-113.4779206134922
 20
587.1696911988681
 10
-113.6951664208264
 20
588.1799229928207
 10
-113.7683226280504
 20
589.2218120588223
210
0.0
220
0.0
230
-1.0
  0
LWPOLYLINE
  5
C21
330
1E
100
AcDbEntity
  8
STEMPEL
100
AcDbPolyline
 90
        7
 70
   128
 43
0.0
 10
-110.6886966588745
 20
584.2218120588219
 10
-111.3087871819388
 20
584.8311499606627
 10
-111.8406073287223
 20
585.5585802339519
 10
-112.2698531284535
 20
586.3845377278956
 10
-112.5849794762508
 20
587.2868072783579
 10
-112.7775106532167
 20
588.2411212126012
 10
-112.842268291543
 20
589.2218120588223
210
0.0
220
0.0
230
-1.0
  0
LINE
  5
C22
330
1E
100
AcDbEntity
  8
STEMPEL
100
AcDbLine
 10
120.0712872284517
 20
615.721812058822
 30
0.0
 11
120.0712872284517
 21
640.7218120588236
 31
0.0
  0
LINE
  5
C23
330
1E
100
AcDbEntity
  8
STEMPEL
100
AcDbLine
 10
120.9393512481407
 20
640.721812058822
 30
0.0
 11
120.9393512481407
 21
615.7218120588236
 31
0.0
  0
LINE
  5
C24
330
1E
100
AcDbEntity
  8
STEMPEL
100
AcDbLine
 10
113.4393512481409
 20
640.721812058822
 30
0.0
 11
113.4393512481406
 21
615.7218120588252
 31
0.0
  0
ELLIPSE
  5
C25
330
1E
100
AcDbEntity
  8
STEMPEL
100
AcDbEllipse
 10
117.1893512481406
 20
615.7218120588236
 30
0.0
 11
-0.0000000000000334
 21
-7.499999999999999
 31
0.0
210
0.0
220
0.0
230
-1.0
 40
0.4999999999999926
 41
4.712388980384689
 42
7.853981633974482
  0
ELLIPSE
  5
C26
330
1E
100
AcDbEntity
  8
STEMPEL
100
AcDbEllipse
 10
116.3212872284519
 20
615.7218120588236
 30
0.0
 11
-0.0000000000000334
 21
-7.499999999999999
 31
0.0
210
0.0
220
0.0
230
-1.0
 40
0.4999999999999926
 41
4.712388980384689
 42
6.167183451052224
  0
ELLIPSE
  5
C27
330
1E
100
AcDbEntity
  8
STEMPEL
100
AcDbEllipse
 10
117.1893512481406
 20
640.721812058822
 30
0.0
 11
0.0000000000000334
 21
7.499999999999999
 31
0.0
210
0.0
220
0.0
230
1.0
 40
0.4999999999999926
 41
4.712388980384689
 42
7.853981633974482
  0
ELLIPSE
  5
C28
330
1E
100
AcDbEntity
  8
STEMPEL
100
AcDbEllipse
 10
116.3212872284519
 20
640.721812058822
 30
0.0
 11
0.0000000000000334
 21
7.499999999999999
 31
0.0
210
0.0
220
0.0
230
1.0
 40
0.4999999999999926
 41
4.712388980384689
 42
6.167183451052224
  0
LINE
  5
C29
330
1E
100
AcDbEntity
  8
STEMPEL
100
AcDbLine
 10
185.9228821597472
 20
673.2218120588213
 30
0.0
 11
131.3623967548038
 21
673.2218120588218
 31
0.0
  0
LINE
  5
C2A
330
1E
100
AcDbEntity
  8
STEMPEL
100
AcDbLine
 10
234.0259583711011
 20
674.7218120588211
 30
0.0
 11
188.5209583711012
 21
674.7218120588211
 31
0.0
  0
LINE
  5
C2B
330
1E
100
AcDbEntity
  8
STEMPEL
100
AcDbLine
 10
214.7209583711013
 20
673.721812058821
 30
0.0
 11
204.6326909099078
 21
673.7218120588213
 31
0.0
  0
LINE
  5
C2C
330
1E
100
AcDbEntity
  8
STEMPEL
100
AcDbLine
 10
223.7728821597482
 20
673.2218120588211
 30
0.0
 11
217.319034582454
 21
673.2218120588211
 31
0.0
  0
LINE
  5
C2D
330
1E
100
AcDbEntity
  8
STEMPEL
100
AcDbLine
 10
223.7728821597482
 20
673.2218120588211
 30
0.0
 11
217.319034582454
 21
673.2218120588211
 31
0.0
  0
ARC
  5
C2E
330
1E
100
AcDbEntity
  8
STEMPEL
100
AcDbCircle
 10
223.7728821597482
 20
674.7218120588211
 30
0.0
 40
2.5
100
AcDbArc
 50
270.0
 51
329.9999999999995
  0
ARC
  5
C2F
330
1E
100
AcDbEntity
  8
STEMPEL
100
AcDbCircle
 10
229.169034582455
 20
674.7218120588211
 30
0.0
 40
2.5
100
AcDbArc
 50
209.9999999999989
 51
270.0
  0
ARC
  5
C30
330
1E
100
AcDbEntity
  8
STEMPEL
100
AcDbCircle
 10
231.2278821597473
 20
674.7218120588211
 30
0.0
 40
2.5
100
AcDbArc
 50
270.0
 51
330.0000000000076
  0
ARC
  5
C31
330
1E
100
AcDbEntity
  8
STEMPEL
100
AcDbCircle
 10
236.6240345824547
 20
674.7218120588208
 30
0.0
 40
2.5
100
AcDbArc
 50
209.9999999999997
 51
270.0
  0
ARC
  5
C32
330
1E
100
AcDbEntity
  8
STEMPEL
100
AcDbCircle
 10
231.2278821597473
 20
674.7218120588211
 30
0.0
 40
1.5
100
AcDbArc
 50
270.0
 51
330.0000000000011
  0
ARC
  5
C33
330
1E
100
AcDbEntity
  8
STEMPEL
100
AcDbCircle
 10
236.6240345824547
 20
674.7218120588208
 30
0.0
 40
1.5
100
AcDbArc
 50
209.9999999999989
 51
270.0
  0
ARC
  5
C34
330
1E
100
AcDbEntity
  8
STEMPEL
100
AcDbCircle
 10
234.0259583711011
 20
673.2218120588211
 30
0.0
 40
1.5
100
AcDbArc
 50
29.99999999999891
 51
90.0
  0
ARC
  5
C35
330
1E
100
AcDbEntity
  8
STEMPEL
100
AcDbCircle
 10
233.8259583711011
 20
673.2218120588211
 30
0.0
 40
1.5
100
AcDbArc
 50
90.0
 51
150.0000000000075
  0
ARC
  5
C36
330
1E
100
AcDbEntity
  8
STEMPEL
100
AcDbCircle
 10
233.8259583711011
 20
673.2218120588211
 30
0.0
 40
0.5
100
AcDbArc
 50
90.0
 51
149.9999999999994
  0
LINE
  5
C37
330
1E
100
AcDbEntity
  8
STEMPEL
100
AcDbLine
 10
234.0259583711011
 20
673.721812058821
 30
0.0
 11
233.8259583711011
 21
673.721812058821
 31
0.0
  0
ARC
  5
C38
330
1E
100
AcDbEntity
  8
STEMPEL
100
AcDbCircle
 10
234.0259583711011
 20
673.2218120588211
 30
0.0
 40
0.5
100
AcDbArc
 50
29.99999999999973
 51
90.0
  0
ARC
  5
C39
330
1E
100
AcDbEntity
  8
STEMPEL
100
AcDbCircle
 10
226.5709583711012
 20
673.2218120588211
 30
0.0
 40
1.5
100
AcDbArc
 50
29.99999999999891
 51
90.0
  0
LINE
  5
C3A
330
1E
100
AcDbEntity
  8
STEMPEL
100
AcDbLine
 10
231.2278821597473
 20
673.2218120588211
 30
0.0
 11
229.169034582455
 21
673.2218120588211
 31
0.0
  0
LINE
  5
C3B
330
1E
100
AcDbEntity
  8
STEMPEL
100
AcDbLine
 10
231.2278821597473
 20
673.2218120588211
 30
0.0
 11
229.169034582455
 21
673.2218120588211
 31
0.0
  0
ARC
  5
C3C
330
1E
100
AcDbEntity
  8
STEMPEL
100
AcDbCircle
 10
229.169034582455
 20
674.7218120588211
 30
0.0
 40
1.5
100
AcDbArc
 50
209.9999999999989
 51
270.0
  0
ARC
  5
C3D
330
1E
100
AcDbEntity
  8
STEMPEL
100
AcDbCircle
 10
226.3709583711011
 20
673.2218120588211
 30
0.0
 40
1.5
100
AcDbArc
 50
90.0
 51
149.9999999999994
  0
ARC
  5
C3E
330
1E
100
AcDbEntity
  8
STEMPEL
100
AcDbCircle
 10
226.3709583711011
 20
673.2218120588211
 30
0.0
 40
0.5
100
AcDbArc
 50
90.0
 51
149.9999999999994
  0
LINE
  5
C3F
330
1E
100
AcDbEntity
  8
STEMPEL
100
AcDbLine
 10
226.5709583711012
 20
673.721812058821
 30
0.0
 11
226.3709583711011
 21
673.721812058821
 31
0.0
  0
ARC
  5
C40
330
1E
100
AcDbEntity
  8
STEMPEL
100
AcDbCircle
 10
226.5709583711012
 20
673.2218120588211
 30
0.0
 40
0.5
100
AcDbArc
 50
29.99999999999891
 51
90.0
  0
ARC
  5
C41
330
1E
100
AcDbEntity
  8
STEMPEL
100
AcDbCircle
 10
223.7728821597482
 20
674.7218120588211
 30
0.0
 40
1.5
100
AcDbArc
 50
270.0
 51
329.9999999999995
  0
ARC
  5
C42
330
1E
100
AcDbEntity
  8
STEMPEL
100
AcDbCircle
 10
217.319034582454
 20
674.7218120588211
 30
0.0
 40
2.5
100
AcDbArc
 50
210.0000000000005
 51
270.0
  0
ARC
  5
C43
330
1E
100
AcDbEntity
  8
STEMPEL
100
AcDbCircle
 10
214.7209583711013
 20
673.2218120588211
 30
0.0
 40
1.5
100
AcDbArc
 50
30.00000000000055
 51
90.0
  0
ARC
  5
C44
330
1E
100
AcDbEntity
  8
STEMPEL
100
AcDbCircle
 10
217.319034582454
 20
674.7218120588211
 30
0.0
 40
1.5
100
AcDbArc
 50
210.0000000000005
 51
270.0
  0
ARC
  5
C45
330
1E
100
AcDbEntity
  8
STEMPEL
100
AcDbCircle
 10
214.7209583711013
 20
673.2218120588211
 30
0.0
 40
0.5
100
AcDbArc
 50
30.00000000000055
 51
90.0
  0
ARC
  5
C46
330
1E
100
AcDbEntity
  8
STEMPEL
100
AcDbCircle
 10
191.3190345824537
 20
674.7218120588211
 30
0.0
 40
2.5
100
AcDbArc
 50
210.000000000007
 51
270.0
  0
ARC
  5
C47
330
1E
100
AcDbEntity
  8
STEMPEL
100
AcDbCircle
 10
191.3190345824537
 20
674.7218120588211
 30
0.0
 40
1.5
100
AcDbArc
 50
210.000000000007
 51
270.0
  0
ARC
  5
C48
330
1E
100
AcDbEntity
  8
STEMPEL
100
AcDbCircle
 10
197.7728821597477
 20
674.7218120588211
 30
0.0
 40
2.5
100
AcDbArc
 50
270.0
 51
330.0000000000011
  0
ARC
  5
C49
330
1E
100
AcDbEntity
  8
STEMPEL
100
AcDbCircle
 10
202.5074500442052
 20
673.721812058821
 30
0.0
 40
1.5
100
AcDbArc
 50
194.4775121859299
 51
270.0
  0
ARC
  5
C4A
330
1E
100
AcDbEntity
  8
STEMPEL
100
AcDbCircle
 10
202.6961992368045
 20
673.721812058821
 30
0.0
 40
1.5
100
AcDbArc
 50
270.0
 51
345.5224878140701
  0
ARC
  5
C4B
330
1E
100
AcDbEntity
  8
STEMPEL
100
AcDbCircle
 10
197.7728821597477
 20
674.7218120588211
 30
0.0
 40
1.5
100
AcDbArc
 50
270.0
 51
330.0000000000011
  0
ARC
  5
C4C
330
1E
100
AcDbEntity
  8
STEMPEL
100
AcDbCircle
 10
202.6961992368045
 20
673.721812058821
 30
0.0
 40
0.5
100
AcDbArc
 50
270.0
 51
345.5224878140701
  0
ARC
  5
C4D
330
1E
100
AcDbEntity
  8
STEMPEL
100
AcDbCircle
 10
204.6326909099078
 20
673.2218120588211
 30
0.0
 40
1.5
100
AcDbArc
 50
90.0
 51
165.5224878140701
  0
ARC
  5
C4E
330
1E
100
AcDbEntity
  8
STEMPEL
100
AcDbCircle
 10
204.6326909099078
 20
673.2218120588211
 30
0.0
 40
0.5
100
AcDbArc
 50
90.0
 51
165.5224878140701
  0
ARC
  5
C4F
330
1E
100
AcDbEntity
  8
STEMPEL
100
AcDbCircle
 10
200.3709583711012
 20
673.2218120588211
 30
0.0
 40
0.5
100
AcDbArc
 50
90.0
 51
150.0000000000011
  0
LINE
  5
C50
330
1E
100
AcDbEntity
  8
STEMPEL
100
AcDbLine
 10
200.5709583711012
 20
673.7218120588213
 30
0.0
 11
200.3709583711012
 21
673.7218120588213
 31
0.0
  0
ARC
  5
C51
330
1E
100
AcDbEntity
  8
STEMPEL
100
AcDbCircle
 10
200.5709583711012
 20
673.2218120588211
 30
0.0
 40
0.5
100
AcDbArc
 50
14.47751218592986
 51
90.0
  0
LINE
  5
C52
330
1E
100
AcDbEntity
  8
STEMPEL
100
AcDbLine
 10
202.6961992368045
 20
673.2218120588211
 30
0.0
 11
202.5074500442052
 21
673.2218120588211
 31
0.0
  0
ARC
  5
C53
330
1E
100
AcDbEntity
  8
STEMPEL
100
AcDbCircle
 10
202.5074500442052
 20
673.721812058821
 30
0.0
 40
0.5
100
AcDbArc
 50
194.4775121859299
 51
270.0
  0
ARC
  5
C54
330
1E
100
AcDbEntity
  8
STEMPEL
100
AcDbCircle
 10
200.5709583711012
 20
673.2218120588211
 30
0.0
 40
1.5
100
AcDbArc
 50
14.47751218592986
 51
90.0
  0
ARC
  5
C55
330
1E
100
AcDbEntity
  8
STEMPEL
100
AcDbCircle
 10
200.3709583711012
 20
673.2218120588211
 30
0.0
 40
1.5
100
AcDbArc
 50
90.0
 51
150.0000000000011
  0
LINE
  5
C56
330
1E
100
AcDbEntity
  8
STEMPEL
100
AcDbLine
 10
197.7728821597477
 20
673.2218120588211
 30
0.0
 11
191.3190345824537
 21
673.2218120588211
 31
0.0
  0
LINE
  5
C57
330
1E
100
AcDbEntity
  8
STEMPEL
100
AcDbLine
 10
197.7728821597477
 20
673.2218120588213
 30
0.0
 11
191.3190345824537
 21
673.2218120588213
 31
0.0
  0
ARC
  5
C58
330
1E
100
AcDbEntity
  8
STEMPEL
100
AcDbCircle
 10
185.9228821597472
 20
674.7218120588211
 30
0.0
 40
2.5
100
AcDbArc
 50
270.0
 51
330.0000000000076
  0
ARC
  5
C59
330
1E
100
AcDbEntity
  8
STEMPEL
100
AcDbCircle
 10
185.9228821597472
 20
674.7218120588211
 30
0.0
 40
1.5
100
AcDbArc
 50
270.0
 51
330.0000000000076
  0
ARC
  5
C5A
330
1E
100
AcDbEntity
  8
STEMPEL
100
AcDbCircle
 10
188.5209583711012
 20
673.2218120588211
 30
0.0
 40
1.5
100
AcDbArc
 50
90.0
 51
150.0000000000075
  0
ARC
  5
C5B
330
1E
100
AcDbEntity
  8
STEMPEL
100
AcDbCircle
 10
188.5209583711012
 20
673.2218120588211
 30
0.0
 40
0.5
100
AcDbArc
 50
90.0
 51
150.0000000000075
  0
LINE
  5
C5C
330
1E
100
AcDbEntity
  8
STEMPEL
100
AcDbLine
 10
188.7209583711013
 20
673.721812058821
 30
0.0
 11
188.5209583711012
 21
673.721812058821
 31
0.0
  0
ARC
  5
C5D
330
1E
100
AcDbEntity
  8
STEMPEL
100
AcDbCircle
 10
188.7209583711013
 20
673.2218120588211
 30
0.0
 40
0.5
100
AcDbArc
 50
30.000000000007
 51
90.0
  0
ARC
  5
C5E
330
1E
100
AcDbEntity
  8
STEMPEL
100
AcDbCircle
 10
188.7209583711013
 20
673.2218120588211
 30
0.0
 40
1.5
100
AcDbArc
 50
30.000000000007
 51
90.0
  0
ARC
  5
C5F
330
1E
100
AcDbEntity
  8
STEMPEL
100
AcDbCircle
 10
131.362396754806
 20
667.221812058817
 30
0.0
 40
5.000000000004884
100
AcDbArc
 50
90.00000000002605
 51
120.5373500482901
  0
ARC
  5
C60
330
1E
100
AcDbEntity
  8
STEMPEL
100
AcDbCircle
 10
131.362396754804
 20
667.2218120588222
 30
0.0
 40
5.999999999999263
100
AcDbArc
 50
90.0
 51
120.5128743276253
  0
ARC
  5
C61
330
1E
100
AcDbEntity
  8
STEMPEL
100
AcDbCircle
 10
131.3623967548038
 20
667.2218120588215
 30
0.0
 40
6.0
100
AcDbArc
 50
90.0
 51
90.0
  0
LINE
  5
C62
330
1E
100
AcDbEntity
  8
STEMPEL
100
AcDbLine
 10
101.3623967548037
 20
653.2217540915064
 30
0.0
 11
101.3623967548035
 21
589.2218120588224
 31
0.0
  0
LINE
  5
C63
330
1E
100
AcDbEntity
  8
STEMPEL
100
AcDbLine
 10
102.3623967548038
 20
653.2217540915064
 30
0.0
 11
102.3623967548036
 21
589.2218120588223
 31
0.0
  0
LWPOLYLINE
  5
C64
330
1E
100
AcDbEntity
  8
STEMPEL
100
AcDbPolyline
 90
       18
 70
   128
 43
0.0
 10
102.5720839958388
 20
595.72181205882
 10
102.5887524193157
 20
597.0999334424446
 10
102.638190066576
 20
598.4311245552243
 10
102.7187133978365
 20
599.6700532804011
 10
102.8275802876281
 20
600.7745293861703
 10
102.9610834045904
 20
601.7069412634232
 10
103.1146764601945
 20
602.4355367439844
 10
103.2831290271466
 20
602.9355043826178
 10
103.4607046553155
 20
603.1898183810344
 10
103.6413562196626
 20
603.1898183810344
 10
103.8189318478315
 20
602.9355043826178
 10
103.9873844147836
 20
602.4355367439844
 10
104.1409774703877
 20
601.7069412634232
 10
104.27448058735
 20
600.7745293861703
 10
104.3833474771417
 20
599.6700532804011
 10
104.4638708084021
 20
598.4311245552243
 10
104.5133084556624
 20
597.0999334424446
 10
104.5299768791393
 20
595.72181205882
  0
LINE
  5
C65
330
1E
100
AcDbEntity
  8
STEMPEL
100
AcDbLine
 10
81.36239675480396
 20
584.221812058822
 30
0.0
 11
96.36239675480386
 21
584.2218120588223
 31
0.0
  0
LWPOLYLINE
  5
C66
330
1E
100
AcDbEntity
  8
STEMPEL
100
AcDbPolyline
 90
       10
 70
   128
 43
0.0
 10
-99.02398814810851
 20
583.221812058822
 10
-99.88206114438128
 20
583.2879392733945
 10
-100.7348733440035
 20
583.5404930231248
 10
-101.5556316509205
 20
583.9715387394424
 10
-102.3185500173195
 20
584.5675341098822
 10
-102.9996595728187
 20
585.3097545416028
 10
-103.5775616627644
 20
586.1748814384003
 10
-104.0341001371706
 20
587.1357348091164
 10
-104.3549317687682
 20
588.1621271908286
 10
-104.5299768791393
 20
589.2218120588212
210
0.0
220
0.0
230
-1.0
  0
ARC
  5
C67
330
1E
100
AcDbEntity
  8
STEMPEL
100
AcDbCircle
 10
96.36239675480362
 20
589.2218120588224
 30
0.0
 40
6.0
100
AcDbArc
 50
270.0
 51
0.0
  0
LWPOLYLINE
  5
C68
330
1E
100
AcDbEntity
  8
STEMPEL
100
AcDbPolyline
 90
       10
 70
   128
 43
0.0
 10
-97.06609526480804
 20
583.2218120588231
 10
-97.9241682610808
 20
583.2879392733957
 10
-98.77698046070305
 20
583.5404930231259
 10
-99.59773876762007
 20
583.9715387394435
 10
-100.3606571340191
 20
584.5675341098834
 10
-101.0417666895182
 20
585.3097545416041
 10
-101.6196687794639
 20
586.1748814384015
 10
-102.0762072538701
 20
587.1357348091176
 10
-102.3970388854677
 20
588.1621271908297
 10
-102.5720839958388
 20
589.2218120588223
210
0.0
220
0.0
230
-1.0
  0
ARC
  5
C69
330
1E
100
AcDbEntity
  8
STEMPEL
100
AcDbCircle
 10
96.36239675480362
 20
589.2218120588224
 30
0.0
 40
5.0
100
AcDbArc
 50
270.0
 51
0.0
  0
LINE
  5
C6A
330
1E
100
AcDbEntity
  8
STEMPEL
100
AcDbLine
 10
99.95162481216823
 20
584.221812058822
 30
0.0
 11
100.9157389819308
 21
584.221812058822
 31
0.0
  0
LINE
  5
C6B
330
1E
100
AcDbEntity
  8
STEMPEL
100
AcDbLine
 10
103.5361981656015
 20
595.72181205882
 30
0.0
 11
103.5361981656015
 21
589.2218120588223
 31
0.0
  0
LINE
  5
C6C
330
1E
100
AcDbEntity
  8
STEMPEL
100
AcDbLine
 10
104.5299768791393
 20
595.72181205882
 30
0.0
 11
104.5299768791393
 21
589.2218120588212
 31
0.0
  0
LINE
  5
C6D
330
1E
100
AcDbEntity
  8
STEMPEL
100
AcDbLine
 10
108.0280711425727
 20
595.72181205882
 30
0.0
 11
108.0280711425727
 21
589.2218120588235
 31
0.0
  0
LINE
  5
C6E
330
1E
100
AcDbEntity
  8
STEMPEL
100
AcDbLine
 10
102.5720839958388
 20
595.72181205882
 30
0.0
 11
102.5720839958388
 21
589.2218120588223
 31
0.0
  0
LWPOLYLINE
  5
C6F
330
1E
100
AcDbEntity
  8
STEMPEL
100
AcDbPolyline
 90
       10
 70
   128
 43
0.0
 10
-103.2127066159987
 20
583.2218120588219
 10
-104.0488858908403
 20
583.3129655407486
 10
-104.8596582815429
 20
583.5836563341065
 10
-105.6203888792857
 20
584.0256596361152
 10
-106.3079632698045
 20
584.6255454001082
 10
-106.9014898531729
 20
585.3650864007029
 10
-107.3829346244941
 20
586.2218120588221
 10
-107.7376691280145
 20
587.1696911988681
 10
-107.9549149353487
 20
588.1799229928207
 10
-108.0280711425727
 20
589.2218120588223
210
0.0
220
0.0
230
-1.0
  0
LWPOLYLINE
  5
C70
330
1E
100
AcDbEntity
  8
STEMPEL
100
AcDbPolyline
 90
        7
 70
   128
 43
0.0
 10
-100.9157389819306
 20
584.2218120588224
 10
-101.592440857008
 20
584.8314127866815
 10
-102.191990280642
 20
585.558971870593
 10
-102.6982789537916
 20
586.3849417322732
 10
-103.0977042458372
 20
587.2871307574763
 10
-103.3795346611001
 20
588.2412995256699
 10
-103.5361981656016
 20
589.2218120588223
210
0.0
220
0.0
230
-1.0
  0
LWPOLYLINE
  5
C71
330
1E
100
AcDbEntity
  8
STEMPEL
100
AcDbPolyline
 90
        7
 70
   128
 43
0.0
 10
103.05414108072
 20
602.1838661146598
 10
103.1919700902903
 20
601.4317598777213
 10
103.3108343672564
 20
600.5090462670066
 10
103.4071823691577
 20
599.4432950171024
 10
103.4781353166958
 20
598.2663496802812
 10
103.5215732087038
 20
597.0133761738793
 10
103.5361981656014
 20
595.72181205882
  0
LINE
  5
C72
330
1E
100
AcDbEntity
  8
STEMPEL
100
AcDbLine
 10
93.36239675480374
 20
584.2218120588224
 30
0.0
 11
93.36239675480374
 21
583.221812058822
 31
0.0
  0
LINE
  5
C73
330
1E
100
AcDbEntity
  8
STEMPEL
100
AcDbLine
 10
85.36239675480373
 20
584.221812058822
 30
0.0
 11
85.36239675480373
 21
583.221812058822
 31
0.0
  0
LINE
  5
C74
330
1E
100
AcDbEntity
  8
STEMPEL
100
AcDbLine
 10
81.36239675480386
 20
584.2218120588222
 30
0.0
 11
81.36239675480373
 21
583.221812058822
 31
0.0
  0
LINE
  5
C75
330
1E
100
AcDbEntity
  8
STEMPEL
100
AcDbLine
 10
101.3623967548039
 20
608.2218120588217
 30
0.0
 11
102.3623967548039
 21
608.2218120588217
 31
0.0
  0
LINE
  5
C76
330
1E
100
AcDbEntity
  8
STEMPEL
100
AcDbLine
 10
101.362396754804
 20
648.2218120588218
 30
0.0
 11
102.362396754804
 21
648.2218120588218
 31
0.0
  0
ARC
  5
C77
330
1E
100
AcDbEntity
  8
STEMPEL
100
AcDbCircle
 10
107.3623967548043
 20
653.2217540915062
 30
0.0
 40
5.000000000000511
100
AcDbArc
 50
120.2564164748189
 51
179.9999999999935
  0
ARC
  5
C78
330
1E
100
AcDbEntity
  8
STEMPEL
100
AcDbCircle
 10
107.3623967548042
 20
653.221754091506
 30
0.0
 40
6.000000000000454
100
AcDbArc
 50
120.2564164748174
 51
179.9999999999935
  0
ARC
  5
C79
330
1E
100
AcDbEntity
  8
STEMPEL
100
AcDbCircle
 10
101.8512531504923
 20
662.7416490412838
 30
0.0
 40
5.0
100
AcDbArc
 50
300.0670458384844
 51
300.2564371635288
  0
LINE
  5
C7A
330
1E
100
AcDbEntity
  8
STEMPEL
100
AcDbLine
 10
321.3640215510213
 20
568.2218120588224
 30
0.0
 11
76.36239675480379
 21
568.221812058822
 31
0.0
  0
LINE
  5
C7B
330
1E
100
AcDbEntity
  8
STEMPEL
100
AcDbLine
 10
76.36239675480379
 20
568.221812058822
 30
0.0
 11
76.36239675480374
 21
566.7218120588217
 31
0.0
  0
LINE
  5
C7C
330
1E
100
AcDbEntity
  8
STEMPEL
100
AcDbLine
 10
321.3640215510213
 20
568.2218120588224
 30
0.0
 11
321.3640215510213
 21
566.7218120588223
 31
0.0
  0
LINE
  5
C7D
102
{ACAD_REACTORS
330
C98
102
}
330
1E
100
AcDbEntity
  8
STEMPEL
100
AcDbLine
 10
247.429537242226
 20
526.721812058822
 30
0.0
 11
175.2952562673812
 21
526.721812058822
 31
0.0
  0
LINE
  5
C7E
102
{ACAD_REACTORS
330
C98
102
}
330
1E
100
AcDbEntity
  8
STEMPEL
100
AcDbLine
 10
174.8623967548037
 20
566.721812058822
 30
0.0
 11
174.8623967548037
 21
531.6694189273315
 31
0.0
  0
LINE
  5
C7F
102
{ACAD_REACTORS
330
C98
102
}
330
1E
100
AcDbEntity
  8
STEMPEL
100
AcDbLine
 10
247.8623967548038
 20
566.7218120588223
 30
0.0
 11
247.8623967548036
 21
531.6694189273325
 31
0.0
  0
LINE
  5
C80
102
{ACAD_REACTORS
330
C98
102
}
330
1E
100
AcDbEntity
  8
STEMPEL
100
AcDbLine
 10
246.6623967548037
 20
568.221812058822
 30
0.0
 11
246.6623967548037
 21
531.721812058822
 31
0.0
  0
LINE
  5
C81
102
{ACAD_REACTORS
330
C98
102
}
330
1E
100
AcDbEntity
  8
STEMPEL
100
AcDbLine
 10
176.0623967548037
 20
568.221812058822
 30
0.0
 11
176.0623967548036
 21
531.721812058822
 31
0.0
  0
LINE
  5
C82
102
{ACAD_REACTORS
330
C98
102
}
330
1E
100
AcDbEntity
  8
STEMPEL
100
AcDbLine
 10
321.3640215510213
 20
566.7218120588227
 30
0.0
 11
76.36239675480374
 21
566.721812058822
 31
0.0
  0
LINE
  5
C83
330
1E
100
AcDbEntity
  8
STEMPEL
100
AcDbLine
 10
94.36239675480374
 20
583.221812058822
 30
0.0
 11
92.36239675480375
 21
583.2218120588219
 31
0.0
  0
LINE
  5
C84
330
1E
100
AcDbEntity
  8
STEMPEL
100
AcDbLine
 10
84.36239675480374
 20
568.221812058822
 30
0.0
 11
84.36239675480374
 21
583.221812058822
 31
0.0
  0
LINE
  5
C85
330
1E
100
AcDbEntity
  8
STEMPEL
100
AcDbLine
 10
94.36239675480374
 20
568.221812058822
 30
0.0
 11
94.36239675480374
 21
583.221812058822
 31
0.0
  0
LINE
  5
C86
330
1E
100
AcDbEntity
  8
HILF
100
AcDbLine
 10
86.36239675480373
 20
570.4319642232126
 30
0.0
 11
86.36239675480368
 21
572.8353120588222
 31
0.0
  0
LINE
  5
C87
330
1E
100
AcDbEntity
  8
HILF
100
AcDbLine
 10
92.36239675480375
 20
570.4319642232126
 30
0.0
 11
92.36239675480367
 21
572.8353120588222
 31
0.0
  0
LINE
  5
C88
330
1E
100
AcDbEntity
  8
STEMPEL
100
AcDbLine
 10
92.36239675480375
 20
570.4319642232124
 30
0.0
 11
86.36239675480373
 21
570.4319642232126
 31
0.0
  0
LINE
  5
C89
330
1E
100
AcDbEntity
  8
STEMPEL
100
AcDbLine
 10
91.36239675480373
 20
569.1607810609503
 30
0.0
 11
91.3623967548038
 21
572.2218120588222
 31
0.0
  0
LINE
  5
C8A
330
1E
100
AcDbEntity
  8
STEMPEL
100
AcDbLine
 10
87.36239675480375
 20
569.1607810609505
 30
0.0
 11
87.3623967548038
 21
572.2218120588222
 31
0.0
  0
LINE
  5
C8B
330
1E
100
AcDbEntity
  8
STEMPEL
100
AcDbLine
 10
91.36239675480373
 20
569.1607810609507
 30
0.0
 11
87.36239675480375
 21
569.1607810609507
 31
0.0
  0
LINE
  5
C8C
330
1E
100
AcDbEntity
  8
STEMPEL
100
AcDbLine
 10
87.36239675480375
 20
569.1607810609507
 30
0.0
 11
89.36239675480374
 21
568.6248826760884
 31
0.0
  0
LINE
  5
C8D
330
1E
100
AcDbEntity
  8
STEMPEL
100
AcDbLine
 10
91.36239675480373
 20
569.1607810609507
 30
0.0
 11
89.36239675480374
 21
568.6248826760884
 31
0.0
  0
LINE
  5
C8E
330
1E
100
AcDbEntity
  8
MITTEL
100
AcDbLine
 10
89.36239675480374
 20
561.7218120588222
 30
0.0
 11
89.36239675480374
 21
588.221812058822
 31
0.0
  0
LINE
  5
C8F
330
1E
100
AcDbEntity
  8
MITTEL
100
AcDbLine
 10
272.3623967548038
 20
561.7218120588222
 30
0.0
 11
272.3623967548038
 21
588.221812058822
 31
0.0
  0
LINE
  5
C90
330
1E
100
AcDbEntity
  8
STEMPEL
100
AcDbLine
 10
277.3623967548038
 20
568.221812058822
 30
0.0
 11
277.3623967548038
 21
583.221812058822
 31
0.0
  0
LINE
  5
C91
330
1E
100
AcDbEntity
  8
STEMPEL
100
AcDbLine
 10
267.3623967548038
 20
568.221812058822
 30
0.0
 11
267.3623967548038
 21
583.221812058822
 31
0.0
  0
LINE
  5
C92
330
1E
100
AcDbEntity
  8
STEMPEL
100
AcDbLine
 10
277.3623967548038
 20
583.221812058822
 30
0.0
 11
267.3623967548038
 21
583.221812058822
 31
0.0
  0
LINE
  5
C93
330
1E
100
AcDbEntity
  8
HILF
100
AcDbLine
 10
245.4578129497516
 20
531.721812058822
 30
0.0
 11
177.2669805598556
 21
531.721812058822
 31
0.0
  0
LINE
  5
C94
102
{ACAD_REACTORS
330
C98
102
}
330
1E
100
AcDbEntity
  8
STEMPEL
100
AcDbLine
 10
176.0623967548036
 20
531.721812058822
 30
0.0
 11
176.4998400724333
 21
526.721812058822
 31
0.0
  0
LINE
  5
C95
102
{ACAD_REACTORS
330
C98
102
}
330
1E
100
AcDbEntity
  8
STEMPEL
100
AcDbLine
 10
174.8623967548037
 20
531.6694189273315
 30
0.0
 11
175.2952562673812
 21
526.721812058822
 31
0.0
  0
LINE
  5
C96
102
{ACAD_REACTORS
330
C98
102
}
330
1E
100
AcDbEntity
  8
STEMPEL
100
AcDbLine
 10
247.8623967548036
 20
531.6694189273325
 30
0.0
 11
247.429537242226
 21
526.721812058822
 31
0.0
  0
LINE
  5
C97
102
{ACAD_REACTORS
330
C98
102
}
330
1E
100
AcDbEntity
  8
STEMPEL
100
AcDbLine
 10
246.6623967548037
 20
531.721812058822
 30
0.0
 11
246.224953437174
 21
526.721812058822
 31
0.0
  0
HATCH
  5
C98
330
1E
100
AcDbEntity
  8
SCHRAFF
100
AcDbHatch
 10
0.0
 20
0.0
 30
0.0
210
0.0
220
0.0
230
1.0
  2
_USER
 70
     0
 71
     1
 91
        2
 92
        7
 72
     0
 73
     1
 93
        6
 10
246.6623967548037
 20
531.7218120588235
 10
246.2249534371741
 20
526.721812058822
 10
247.4295372422259
 20
526.7218120588219
 10
247.8623967548035
 20
531.6694189273322
 10
247.8623967548038
 20
566.7218120588223
 10
246.6623967548038
 20
566.7218120588224
 97
        6
330
C82
330
C80
330
C97
330
C7D
330
C96
330
C7F
 92
        7
 72
     0
 73
     1
 93
        6
 10
176.0623967548037
 20
566.7218120588223
 10
174.8623967548037
 20
566.7218120588221
 10
174.8623967548037
 20
531.6694189273313
 10
175.2952562673813
 20
526.721812058822
 10
176.4998400724333
 20
526.7218120588219
 10
176.0623967548036
 20
531.7218120588221
 97
        6
330
C82
330
C7E
330
C95
330
C7D
330
C94
330
C81
 75
     0
 76
     0
 52
45.0
 41
2.0
 77
     0
 78
     1
 53
45.0
 43
-13.6376032451962
 44
53.29529943118263
 45
-1.414213562373094
 46
1.414213562373095
 79
     0
 47
0.2778527412201284
 98
        2
 10
247.2466594572812
 20
558.5929163871896
 10
175.814130750704
 20
559.1486218265306
  0
HATCH
  5
C99
330
1E
100
AcDbEntity
  8
SCHRAFF
100
AcDbHatch
 10
0.0
 20
0.0
 30
0.0
210
0.0
220
0.0
230
1.0
  2
_USER
 70
     0
 71
     0
 91
        4
 92
        7
 72
     0
 73
     1
 93
        4
 10
321.4640215510213
 20
566.7218120588227
 10
321.4640215510213
 20
568.2218120588224
 10
272.3623967548038
 20
568.2218120588224
 10
272.3623967548037
 20
566.7218120588224
 97
        0
 92
        7
 72
     0
 73
     1
 93
        4
 10
246.6623967548037
 20
568.2218120588224
 10
246.6623967548037
 20
566.7218120588224
 10
272.3623967548038
 20
566.7218120588227
 10
272.3623967548038
 20
568.2218120588224
 97
        0
 92
        7
 72
     0
 73
     1
 93
        4
 10
176.0623967548037
 20
566.7218120588223
 10
176.0623967548036
 20
568.2218120588222
 10
89.36239675480369
 20
568.221812058822
 10
89.36239675480369
 20
566.721812058822
 97
        0
 92
        7
 72
     0
 73
     1
 93
        4
 10
89.36239675480374
 20
566.721812058822
 10
89.36239675480374
 20
568.2218120588222
 10
76.36239675480374
 20
568.221812058822
 10
76.36239675480374
 20
566.721812058822
 97
        0
 75
     0
 76
     0
 52
135.0
 41
2.0
 77
     0
 78
     1
 53
135.0
 43
-13.6376032451962
 44
53.29529943118263
 45
-1.414213562373095
 46
-1.414213562373094
 79
     0
 47
0.3414825388743071
 98
        4
 10
300.0620737652358
 20
567.2666337339037
 10
258.0453843039418
 20
567.6081165887207
 10
169.5712173884031
 20
567.2666337339037
 10
84.17144324256748
 20
566.9251508790867
  0
ARC
  5
C9A
330
1E
100
AcDbEntity
  8
STEMPEL
100
AcDbCircle
 10
211.3623967548038
 20
558.7218120588224
 30
0.0
 40
6.0
100
AcDbArc
 50
195.8034962890195
 51
344.1965037109804
  0
LINE
  5
C9B
330
1E
100
AcDbEntity
  8
STEMPEL
100
AcDbLine
 10
219.8623967548038
 20
566.7218120588224
 30
0.0
 11
217.1356050151195
 21
557.0877782822369
 31
0.0
  0
LINE
  5
C9C
330
1E
100
AcDbEntity
  8
STEMPEL
100
AcDbLine
 10
202.8623967548038
 20
566.7218120588224
 30
0.0
 11
205.589188494488
 21
557.0877782822369
 31
0.0
  0
ELLIPSE
  5
C9D
330
1E
100
AcDbEntity
  8
STEMPEL
100
AcDbEllipse
 10
241.9330935083945
 20
558.7218120588224
 30
0.0
 11
0.0
 21
5.999999999999943
 31
0.0
210
0.0
220
0.0
230
1.0
 40
0.4142502043711471
 41
3.141592653589793
 42
4.496892404783716
  0
LINE
  5
C9E
330
1E
100
AcDbEntity
  8
STEMPEL
100
AcDbLine
 10
245.2028648675468
 20
566.7218120588224
 30
0.0
 11
244.361105913037
 21
557.4388167911232
 31
0.0
  0
ELLIPSE
  5
C9F
330
1E
100
AcDbEntity
  8
STEMPEL
100
AcDbEllipse
 10
241.9330935083945
 20
558.7218120588224
 30
0.0
 11
0.0
 21
5.999999999999943
 31
0.0
210
0.0
220
0.0
230
1.0
 40
0.5528730833000856
 41
1.889213012932703
 42
3.141592653589793
  0
LINE
  5
CA0
330
1E
100
AcDbEntity
  8
STEMPEL
100
AcDbLine
 10
236.9823169223413
 20
566.7218120588224
 30
0.0
 11
238.7826050059008
 21
556.8434326826777
 31
0.0
  0
ELLIPSE
  5
CA1
330
1E
100
AcDbEntity
  8
STEMPEL
100
AcDbEllipse
 10
242.9723239929357
 20
558.7218120588224
 30
0.0
 11
0.0
 21
6.0
 31
0.0
210
0.0
220
0.0
230
1.0
 40
0.5716676357068783
 41
1.889213012932743
 42
2.964997179685858
  0
LINE
  5
CA2
330
1E
100
AcDbEntity
  8
STEMPEL
100
AcDbLine
 10
237.8532490526826
 20
566.7218120588224
 30
0.0
 11
239.7147367311506
 21
556.8434326826775
 31
0.0
  0
LINE
  5
CA3
330
1E
100
AcDbEntity
  8
STEMPEL
100
AcDbLine
 10
184.8715444569248
 20
566.7218120588224
 30
0.0
 11
183.0100567784569
 21
556.8434326826776
 31
0.0
  0
ELLIPSE
  5
CA4
330
1E
100
AcDbEntity
  8
STEMPEL
100
AcDbEllipse
 10
179.7524695166717
 20
558.7218120588227
 30
0.0
 11
0.0000000000000199
 21
6.0
 31
0.0
210
0.0
220
0.0
230
-1.0
 40
0.5716676357068783
 41
1.889213012932743
 42
2.964997179685858
  0
LINE
  5
CA5
330
1E
100
AcDbEntity
  8
STEMPEL
100
AcDbLine
 10
185.7424765872661
 20
566.7218120588224
 30
0.0
 11
183.9421885037066
 21
556.8434326826778
 31
0.0
  0
ELLIPSE
  5
CA6
330
1E
100
AcDbEntity
  8
STEMPEL
100
AcDbEllipse
 10
180.791700001213
 20
558.7218120588227
 30
0.0
 11
0.0000000000000199
 21
5.999999999999943
 31
0.0
210
0.0
220
0.0
230
-1.0
 40
0.5528730833000856
 41
1.889213012932703
 42
3.141592653589793
  0
LINE
  5
CA7
330
1E
100
AcDbEntity
  8
STEMPEL
100
AcDbLine
 10
177.5219286420607
 20
566.7218120588227
 30
0.0
 11
178.3636875965704
 21
557.4388167911234
 31
0.0
  0
ELLIPSE
  5
CA8
330
1E
100
AcDbEntity
  8
STEMPEL
100
AcDbEllipse
 10
180.791700001213
 20
558.7218120588227
 30
0.0
 11
0.0000000000000199
 21
5.999999999999943
 31
0.0
210
0.0
220
0.0
230
-1.0
 40
0.4142502043711471
 41
3.141592653589793
 42
4.496892404783716
  0
ARC
  5
CA9
330
1E
100
AcDbEntity
  8
SCHRAFF
100
AcDbCircle
 10
247.7073407902565
 20
566.7218120588224
 30
0.0
 40
1.828088629478462
100
AcDbArc
 50
124.8622016819257
 51
235.1377983180743
  0
HATCH
  5
CAA
330
1E
100
AcDbEntity
  8
SCHRAFF
100
AcDbHatch
 10
0.0
 20
0.0
 30
0.0
210
0.0
220
0.0
230
1.0
  2
_USER
 70
     0
 71
     0
 91
        2
 92
        7
 72
     1
 73
     1
 93
        3
 10
246.6623967548037
 20
568.221812058822
 42
0.2453357974240914
 10
245.8792521607784
 20
566.7218120588224
 42
0.0
 10
246.6623967548037
 20
566.7218120588224
 42
0.0
 97
        0
 92
        7
 72
     1
 73
     1
 93
        3
 10
246.6623967548037
 20
566.7218120588225
 42
0.0
 10
245.8792521607781
 20
566.7218120588225
 42
0.2453357974242161
 10
246.6623967548037
 20
565.2218120588225
 42
0.0
 97
        0
 75
     0
 76
     0
 52
0.0
 41
0.1
 77
     0
 78
     1
 53
0.0
 43
-13.6376032451962
 44
53.29529943118263
 45
0.0
 46
0.1
 79
     0
 47
0.0937308931428171
 98
        2
 10
246.3111495678609
 20
567.1666684002759
 10
246.4049145836357
 20
566.3230898707893
  0
HATCH
  5
CAB
330
1E
100
AcDbEntity
  8
SCHRAFF
100
AcDbHatch
 10
0.0
 20
0.0
 30
0.0
210
0.0
220
0.0
230
1.0
  2
_USER
 70
     0
 71
     0
 91
        2
 92
        7
 72
     1
 73
     1
 93
        3
 10
176.0623967548037
 20
568.221812058822
 42
-0.2453357974240878
 10
176.845541348829
 20
566.7218120588227
 42
0.0
 10
176.0623967548038
 20
566.7218120588227
 42
0.0
 97
        0
 92
        7
 72
     1
 73
     1
 93
        3
 10
176.0623967548037
 20
566.7218120588227
 42
0.0
 10
176.8455413488294
 20
566.7218120588227
 42
-0.2453357974242125
 10
176.0623967548037
 20
565.2218120588225
 42
0.0
 97
        0
 75
     0
 76
     0
 52
0.0
 41
0.1
 77
     0
 78
     1
 53
179.9999999999998
 43
436.3623967548021
 44
53.295299431182
 45
0.0000000000000003
 46
0.1
 79
     0
 47
0.0937308931428171
 98
        2
 10
176.4136439417465
 20
567.1666684002759
 10
176.3198789259717
 20
566.3230898707893
  0
ARC
  5
CAC
330
1E
100
AcDbEntity
  8
SCHRAFF
100
AcDbCircle
 10
175.0174527193508
 20
566.7218120588224
 30
0.0
 40
1.828088629478462
100
AcDbArc
 50
304.8622016819257
 51
55.13779831807428
  0
ARC
  5
CAD
330
1E
100
AcDbEntity
  8
SCHRAFF
100
AcDbCircle
 10
184.1669277162961
 20
566.7218120588223
 30
0.0
 40
5.0
100
AcDbArc
 50
342.5423968762804
 51
17.45760312371964
  0
ARC
  5
CAE
330
1E
100
AcDbEntity
  8
SCHRAFF
100
AcDbCircle
 10
189.1669277162961
 20
566.7218120588223
 30
0.0
 40
5.0
100
AcDbArc
 50
342.5423968762804
 51
17.45760312371964
  0
ARC
  5
CAF
330
1E
100
AcDbEntity
  8
SCHRAFF
100
AcDbCircle
 10
194.1669277162961
 20
566.7218120588223
 30
0.0
 40
5.0
100
AcDbArc
 50
342.5423968762804
 51
17.45760312371964
  0
ARC
  5
CB0
330
1E
100
AcDbEntity
  8
SCHRAFF
100
AcDbCircle
 10
229.1011865415448
 20
566.7218120588223
 30
0.0
 40
5.0
100
AcDbArc
 50
342.5423968762804
 51
17.45760312371964
  0
ARC
  5
CB1
330
1E
100
AcDbEntity
  8
SCHRAFF
100
AcDbCircle
 10
224.1011865415448
 20
566.7218120588223
 30
0.0
 40
5.0
100
AcDbArc
 50
342.5423968762804
 51
17.45760312371964
  0
ARC
  5
CB2
330
1E
100
AcDbEntity
  8
SCHRAFF
100
AcDbCircle
 10
219.1011865415448
 20
566.7218120588223
 30
0.0
 40
5.0
100
AcDbArc
 50
342.5423968762804
 51
17.45760312371964
  0
TEXT
  5
D17
330
1E
100
AcDbEntity
  8
TEXT
 62
     1
100
AcDbText
 10
361.860386337018
 20
581.157480229251
 30
0.0
 40
7.0
  1
EDV-Art.Nr. 17014.070X
 41
0.8
  7
GREEKS
100
AcDbText
  0
LINE
  5
D18
330
1E
100
AcDbEntity
  8
TEXT
 62
     2
100
AcDbLine
 10
359.7404933409726
 20
591.1849313398176
 30
0.0
 11
467.8512027822125
 21
591.1849313398176
 31
0.0
  0
TEXT
  5
D19
330
1E
100
AcDbEntity
  8
TEXT
 62
     1
100
AcDbText
 10
361.860386337018
 20
594.5648367567141
 30
0.0
 40
7.0
  1
Losflansch DN70
 41
0.8
  7
GREEKS
100
AcDbText
  0
TEXT
  5
D1A
330
1E
100
AcDbEntity
  8
TEXT
 62
     1
100
AcDbText
 10
361.4689927214775
 20
640.2466085436554
 30
0.0
 40
7.0
  1
Siebkorb
 41
0.8
  7
GREEKS
100
AcDbText
  0
LINE
  5
D1B
330
1E
100
AcDbEntity
  8
TEXT
 62
     2
100
AcDbLine
 10
359.3490997254321
 20
636.8667031267589
 30
0.0
 11
467.4598091666721
 21
636.8667031267589
 31
0.0
  0
TEXT
  5
D1C
330
1E
100
AcDbEntity
  8
TEXT
 62
     1
100
AcDbText
 10
361.4689927214775
 20
626.8392520161921
 30
0.0
 40
7.0
  1
EDV-Art.Nr. 21004.000X
 41
0.8
  7
GREEKS
100
AcDbText
  0
LINE
  5
D5F
330
1E
100
AcDbEntity
  8
STEMPEL
100
AcDbLine
 10
239.3607738055492
 20
558.721812058822
 30
0.0
 11
244.4774447373103
 21
558.721812058822
 31
0.0
  0
LINE
  5
D60
330
1E
100
AcDbEntity
  8
STEMPEL
100
AcDbLine
 10
205.1266958452318
 20
558.7218120588221
 30
0.0
 11
217.5980976643757
 21
558.7218120588221
 31
0.0
  0
LINE
  5
D61
330
1E
100
AcDbEntity
  8
STEMPEL
100
AcDbLine
 10
247.8623967548037
 20
558.721812058822
 30
0.0
 11
249.7594582702318
 21
558.721812058822
 31
0.0
  0
ENDSEC
  0
SECTION
  2
OBJECTS
  0
DICTIONARY
  5
C
330
0
100
AcDbDictionary
281
     1
  3
ACAD_COLOR
350
11A
  3
ACAD_GROUP
350
D
  3
ACAD_LAYOUT
350
19
  3
ACAD_MATERIAL
350
119
  3
ACAD_MLINESTYLE
350
16
  3
ACAD_PLOTSETTINGS
350
18
  3
ACAD_PLOTSTYLENAME
350
E
  3
AcDbVariableDictionary
350
125
  0
DICTIONARY
  5
DB
330
1E
100
AcDbDictionary
280
     1
281
     1
  3
ACAD_LAYOUTSELFREF
360
10F
  0
DICTIONARY
  5
DD
330
1A
100
AcDbDictionary
280
     1
281
     1
  3
ACAD_LAYOUTSELFREF
360
10E
  0
DICTIONARY
  5
11A
102
{ACAD_REACTORS
330
C
102
}
330
C
100
AcDbDictionary
281
     1
  0
DICTIONARY
  5
D
102
{ACAD_REACTORS
330
C
102
}
330
C
100
AcDbDictionary
281
     1
  0
DICTIONARY
  5
19
102
{ACAD_REACTORS
330
C
102
}
330
C
100
AcDbDictionary
281
     1
  3
Layout1
350
1D
  3
Model
350
21
  0
DICTIONARY
  5
119
102
{ACAD_REACTORS
330
C
102
}
330
C
100
AcDbDictionary
281
     1
  0
DICTIONARY
  5
16
102
{ACAD_REACTORS
330
C
102
}
330
C
100
AcDbDictionary
281
     1
  3
Standard
350
17
  0
DICTIONARY
  5
18
102
{ACAD_REACTORS
330
C
102
}
330
C
100
AcDbDictionary
281
     1
  0
ACDBDICTIONARYWDFLT
  5
E
102
{ACAD_REACTORS
330
C
102
}
330
C
100
AcDbDictionary
281
     1
  3
Normal
350
F
100
AcDbDictionaryWithDefault
340
F
  0
DICTIONARY
  5
125
102
{ACAD_REACTORS
330
C
102
}
330
C
100
AcDbDictionary
281
     1
  3
DIMASSOC
350
126
  3
PROJECTNAME
350
127
  0
XRECORD
  5
10F
102
{ACAD_REACTORS
330
DB
102
}
330
DB
100
AcDbXrecord
280
     1
340
1E
  0
XRECORD
  5
10E
102
{ACAD_REACTORS
330
DD
102
}
330
DD
100
AcDbXrecord
280
     1
340
1A
  0
LAYOUT
  5
1D
102
{ACAD_REACTORS
330
19
102
}
330
19
100
AcDbPlotSettings
  1

  2
\\NT_WORK01\HP LaserJet 5000 PCL 6
  4

  6

 40
0.0
 41
0.0
 42
0.0
 43
0.0
 44
0.0
 45
0.0
 46
0.0
 47
0.0
 48
0.0
 49
0.0
140
0.0
141
0.0
142
1.0
143
1.0
 70
   688
 72
     0
 73
     0
 74
     5
  7

 75
    16
147
1.0
 76
     0
 77
     2
 78
   300
148
0.0
149
0.0
100
AcDbLayout
  1
Layout1
 70
     0
 71
     1
 10
0.0
 20
0.0
 11
12.0
 21
9.0
 12
0.0
 22
0.0
 32
0.0
 14
1.000000000000000E+20
 24
1.000000000000000E+20
 34
1.000000000000000E+20
 15
-1.000000000000000E+20
 25
-1.000000000000000E+20
 35
-1.000000000000000E+20
146
0.0
 13
0.0
 23
0.0
 33
0.0
 16
1.0
 26
0.0
 36
0.0
 17
0.0
 27
1.0
 37
0.0
 76
     0
330
1A
  0
LAYOUT
  5
21
102
{ACAD_REACTORS
330
19
102
}
330
19
100
AcDbPlotSettings
  1

  2
none_device
  4
Letter_(8.50_x_11.00_Inches)
  6

 40
6.349999904632568
 41
6.349999904632568
 42
6.350006103515625
 43
6.350006103515625
 44
215.8999938964844
 45
279.3999938964844
 46
0.0
 47
0.0
 48
0.0
 49
0.0
140
0.0
141
0.0
142
1.0
143
1.0
 70
 11952
 72
     0
 73
     1
 74
     0
  7

 75
     0
147
1.0
 76
     0
 77
     2
 78
   300
148
3124.2
149
0.0
100
AcDbLayout
  1
Model
 70
     1
 71
     0
 10
0.0
 20
0.0
 11
12.0
 21
9.0
 12
0.0
 22
0.0
 32
0.0
 14
0.0
 24
0.0
 34
0.0
 15
0.0
 25
0.0
 35
0.0
146
0.0
 13
0.0
 23
0.0
 33
0.0
 16
1.0
 26
0.0
 36
0.0
 17
0.0
 27
1.0
 37
0.0
 76
     0
330
1E
  0
MLINESTYLE
  5
17
102
{ACAD_REACTORS
330
16
102
}
330
16
100
AcDbMlineStyle
  2
STANDARD
 70
     0
  3

 62
   256
 51
90.0
 52
90.0
 71
     2
 49
0.5
 62
   256
  6
BYLAYER
 49
-0.5
 62
   256
  6
BYLAYER
  0
ACDBPLACEHOLDER
  5
F
102
{ACAD_REACTORS
330
E
102
}
330
E
  0
DICTIONARYVAR
  5
126
102
{ACAD_REACTORS
330
125
102
}
330
125
100
DictionaryVariables
280
     0
  1
1
  0
DICTIONARYVAR
  5
127
102
{ACAD_REACTORS
330
125
102
}
330
125
100
DictionaryVariables
280
     0
  1

  0
ENDSEC
  0
EOF
