  0
SECTION
  2
HEADER
  9
$ACADVER
  1
AC1018
  9
$ACADMAINTVER
 70
   104
  9
$DWGCODEPAGE
  3
ANSI_1252
  9
$LASTSAVEDBY
  1
w.koehlhoff
  9
$INSBASE
 10
214.18963059078
 20
83.98788932831553
 30
0.0
  9
$EXTMIN
 10
-0.0256335921286564
 20
-0.0181266115766903
 30
-0.0000000349181948
  9
$EXTMAX
 10
420.025637503803
 20
297.0181293776892
 30
0.0000000814935746
  9
$LIMMIN
 10
0.0
 20
0.0
  9
$LIMMAX
 10
420.0
 20
297.0
  9
$ORTHOMODE
 70
     1
  9
$REGENMODE
 70
     1
  9
$FILLMODE
 70
     1
  9
$QTEXTMODE
 70
     0
  9
$MIRRTEXT
 70
     1
  9
$LTSCALE
 40
10.0
  9
$ATTMODE
 70
     1
  9
$TEXTSIZE
 40
3.5
  9
$TRACEWID
 40
1.0
  9
$TEXTSTYLE
  7
STANDARD
  9
$CLAYER
  8
VOLL
  9
$CELTYPE
  6
ByLayer
  9
$CECOLOR
 62
   256
  9
$CELTSCALE
 40
1.0
  9
$DISPSILH
 70
     0
  9
$DIMSCALE
 40
1.0
  9
$DIMASZ
 40
3.5
  9
$DIMEXO
 40
1.0
  9
$DIMDLI
 40
7.0
  9
$DIMRND
 40
0.0
  9
$DIMDLE
 40
0.0
  9
$DIMEXE
 40
1.0
  9
$DIMTP
 40
0.2
  9
$DIMTM
 40
0.2
  9
$DIMTXT
 40
3.5
  9
$DIMCEN
 40
1.5
  9
$DIMTSZ
 40
0.0
  9
$DIMTOL
 70
     0
  9
$DIMLIM
 70
     0
  9
$DIMTIH
 70
     0
  9
$DIMTOH
 70
     0
  9
$DIMSE1
 70
     0
  9
$DIMSE2
 70
     0
  9
$DIMTAD
 70
     1
  9
$DIMZIN
 70
     8
  9
$DIMBLK
  1

  9
$DIMASO
 70
     1
  9
$DIMSHO
 70
     0
  9
$DIMPOST
  1

  9
$DIMAPOST
  1

  9
$DIMALT
 70
     0
  9
$DIMALTD
 70
     2
  9
$DIMALTF
 40
25.4
  9
$DIMLFAC
 40
1.0
  9
$DIMTOFL
 70
     1
  9
$DIMTVP
 40
0.5714285714285714
  9
$DIMTIX
 70
     0
  9
$DIMSOXD
 70
     0
  9
$DIMSAH
 70
     0
  9
$DIMBLK1
  1

  9
$DIMBLK2
  1

  9
$DIMSTYLE
  2
Standard
  9
$DIMCLRD
 70
     0
  9
$DIMCLRE
 70
     0
  9
$DIMCLRT
 70
     1
  9
$DIMTFAC
 40
0.5
  9
$DIMGAP
 40
1.5
  9
$DIMJUST
 70
     0
  9
$DIMSD1
 70
     0
  9
$DIMSD2
 70
     0
  9
$DIMTOLJ
 70
     1
  9
$DIMTZIN
 70
     8
  9
$DIMALTZ
 70
     8
  9
$DIMALTTZ
 70
     8
  9
$DIMUPT
 70
     0
  9
$DIMDEC
 70
     2
  9
$DIMTDEC
 70
     2
  9
$DIMALTU
 70
     2
  9
$DIMALTTD
 70
     2
  9
$DIMTXSTY
  7
STANDARD
  9
$DIMAUNIT
 70
     0
  9
$DIMADEC
 70
     2
  9
$DIMALTRND
 40
0.0
  9
$DIMAZIN
 70
     2
  9
$DIMDSEP
 70
    46
  9
$DIMATFIT
 70
     3
  9
$DIMFRAC
 70
     0
  9
$DIMLDRBLK
  1

  9
$DIMLUNIT
 70
     2
  9
$DIMLWD
 70
    -2
  9
$DIMLWE
 70
    -2
  9
$DIMTMOVE
 70
     0
  9
$LUNITS
 70
     2
  9
$LUPREC
 70
     2
  9
$SKETCHINC
 40
1.0
  9
$FILLETRAD
 40
0.0
  9
$AUNITS
 70
     0
  9
$AUPREC
 70
     0
  9
$MENU
  1
ACAD
  9
$ELEVATION
 40
0.0
  9
$PELEVATION
 40
0.0
  9
$THICKNESS
 40
0.0
  9
$LIMCHECK
 70
     0
  9
$CHAMFERA
 40
0.0
  9
$CHAMFERB
 40
0.0
  9
$CHAMFERC
 40
0.0
  9
$CHAMFERD
 40
0.0
  9
$SKPOLY
 70
     0
  9
$TDCREATE
 40
2450582.751075926
  9
$TDUCREATE
 40
2450582.709409260
  9
$TDUPDATE
 40
2456345.328131586
  9
$TDUUPDATE
 40
2456345.286464919
  9
$TDINDWG
 40
0.0560132639
  9
$TDUSRTIMER
 40
0.0560132639
  9
$USRTIMER
 70
     1
  9
$ANGBASE
 50
0.0
  9
$ANGDIR
 70
     0
  9
$PDMODE
 70
     0
  9
$PDSIZE
 40
0.0
  9
$PLINEWID
 40
0.0
  9
$SPLFRAME
 70
     0
  9
$SPLINETYPE
 70
     6
  9
$SPLINESEGS
 70
     8
  9
$HANDSEED
  5
D4A
  9
$SURFTAB1
 70
     6
  9
$SURFTAB2
 70
     6
  9
$SURFTYPE
 70
     6
  9
$SURFU
 70
     6
  9
$SURFV
 70
     6
  9
$UCSBASE
  2

  9
$UCSNAME
  2

  9
$UCSORG
 10
0.0
 20
0.0
 30
0.0
  9
$UCSXDIR
 10
1.0
 20
0.0
 30
0.0
  9
$UCSYDIR
 10
0.0
 20
1.0
 30
0.0
  9
$UCSORTHOREF
  2

  9
$UCSORTHOVIEW
 70
     0
  9
$UCSORGTOP
 10
0.0
 20
0.0
 30
0.0
  9
$UCSORGBOTTOM
 10
0.0
 20
0.0
 30
0.0
  9
$UCSORGLEFT
 10
0.0
 20
0.0
 30
0.0
  9
$UCSORGRIGHT
 10
0.0
 20
0.0
 30
0.0
  9
$UCSORGFRONT
 10
0.0
 20
0.0
 30
0.0
  9
$UCSORGBACK
 10
0.0
 20
0.0
 30
0.0
  9
$PUCSBASE
  2

  9
$PUCSNAME
  2

  9
$PUCSORG
 10
0.0
 20
0.0
 30
0.0
  9
$PUCSXDIR
 10
1.0
 20
0.0
 30
0.0
  9
$PUCSYDIR
 10
0.0
 20
1.0
 30
0.0
  9
$PUCSORTHOREF
  2

  9
$PUCSORTHOVIEW
 70
     0
  9
$PUCSORGTOP
 10
0.0
 20
0.0
 30
0.0
  9
$PUCSORGBOTTOM
 10
0.0
 20
0.0
 30
0.0
  9
$PUCSORGLEFT
 10
0.0
 20
0.0
 30
0.0
  9
$PUCSORGRIGHT
 10
0.0
 20
0.0
 30
0.0
  9
$PUCSORGFRONT
 10
0.0
 20
0.0
 30
0.0
  9
$PUCSORGBACK
 10
0.0
 20
0.0
 30
0.0
  9
$USERI1
 70
     0
  9
$USERI2
 70
     0
  9
$USERI3
 70
     0
  9
$USERI4
 70
     0
  9
$USERI5
 70
     0
  9
$USERR1
 40
0.0
  9
$USERR2
 40
0.0
  9
$USERR3
 40
0.0
  9
$USERR4
 40
0.0
  9
$USERR5
 40
0.0
  9
$WORLDVIEW
 70
     1
  9
$SHADEDGE
 70
     3
  9
$SHADEDIF
 70
    70
  9
$TILEMODE
 70
     1
  9
$MAXACTVP
 70
    16
  9
$PINSBASE
 10
0.0
 20
0.0
 30
0.0
  9
$PLIMCHECK
 70
     0
  9
$PEXTMIN
 10
1.000000000000000E+20
 20
1.000000000000000E+20
 30
1.000000000000000E+20
  9
$PEXTMAX
 10
-1.000000000000000E+20
 20
-1.000000000000000E+20
 30
-1.000000000000000E+20
  9
$PLIMMIN
 10
0.0
 20
0.0
  9
$PLIMMAX
 10
12.0
 20
9.0
  9
$UNITMODE
 70
     0
  9
$VISRETAIN
 70
     0
  9
$PLINEGEN
 70
     0
  9
$PSLTSCALE
 70
     0
  9
$TREEDEPTH
 70
  3020
  9
$CMLSTYLE
  2
Standard
  9
$CMLJUST
 70
     0
  9
$CMLSCALE
 40
1.0
  9
$PROXYGRAPHICS
 70
     1
  9
$MEASUREMENT
 70
     0
  9
$CELWEIGHT
370
    -1
  9
$ENDCAPS
280
     0
  9
$JOINSTYLE
280
     0
  9
$LWDISPLAY
290
     0
  9
$INSUNITS
 70
     0
  9
$HYPERLINKBASE
  1

  9
$STYLESHEET
  1
monochrome1.ctb
  9
$XEDIT
290
     1
  9
$CEPSNTYPE
380
     0
  9
$PSTYLEMODE
290
     1
  9
$FINGERPRINTGUID
  2
{BF4623EA-AE5E-40F4-88B9-C3C720F5A3F1}
  9
$VERSIONGUID
  2
{094F7310-C74F-40C5-8C71-F7C56E78A586}
  9
$EXTNAMES
290
     1
  9
$PSVPSCALE
 40
0.0
  9
$OLESTARTUP
290
     0
  9
$SORTENTS
280
   127
  9
$INDEXCTL
280
     0
  9
$HIDETEXT
280
     1
  9
$XCLIPFRAME
290
     0
  9
$HALOGAP
280
     0
  9
$OBSCOLOR
 70
   257
  9
$OBSLTYPE
280
     0
  9
$INTERSECTIONDISPLAY
280
     0
  9
$INTERSECTIONCOLOR
 70
   257
  9
$DIMASSOC
280
     2
  9
$PROJECTNAME
  1

  0
ENDSEC
  0
SECTION
  2
CLASSES
  0
CLASS
  1
ACDBDICTIONARYWDFLT
  2
AcDbDictionaryWithDefault
  3
ObjectDBX Classes
 90
        0
 91
        1
280
     0
281
     0
  0
CLASS
  1
DICTIONARYVAR
  2
AcDbDictionaryVar
  3
ObjectDBX Classes
 90
        0
 91
       11
280
     0
281
     0
  0
CLASS
  1
DIMASSOC
  2
AcDbDimAssoc
  3
"AcDbDimAssoc|Product Desc:     AcDim ARX App For Dimension|Company:          Autodesk, Inc.|WEB Address:      www.autodesk.com"
 90
        0
 91
        3
280
     0
281
     0
  0
CLASS
  1
MATERIAL
  2
AcDbMaterial
  3
ObjectDBX Classes
 90
     1153
 91
        3
280
     0
281
     0
  0
CLASS
  1
VISUALSTYLE
  2
AcDbVisualStyle
  3
ObjectDBX Classes
 90
     4095
 91
       24
280
     0
281
     0
  0
CLASS
  1
TABLESTYLE
  2
AcDbTableStyle
  3
ObjectDBX Classes
 90
     4095
 91
        1
280
     0
281
     0
  0
CLASS
  1
SCALE
  2
AcDbScale
  3
ObjectDBX Classes
 90
     1153
 91
       17
280
     0
281
     0
  0
CLASS
  1
MLEADERSTYLE
  2
AcDbMLeaderStyle
  3
ACDB_MLEADERSTYLE_CLASS
 90
     4095
 91
        1
280
     0
281
     0
  0
CLASS
  1
ACDBSECTIONVIEWSTYLE
  2
AcDbSectionViewStyle
  3
ObjectDBX Classes
 90
     1025
 91
        1
280
     0
281
     0
  0
CLASS
  1
ACDBDETAILVIEWSTYLE
  2
AcDbDetailViewStyle
  3
ObjectDBX Classes
 90
     1025
 91
        1
280
     0
281
     0
  0
CLASS
  1
CELLSTYLEMAP
  2
AcDbCellStyleMap
  3
ObjectDBX Classes
 90
     1152
 91
        3
280
     0
281
     0
  0
ENDSEC
  0
SECTION
  2
TABLES
  0
TABLE
  2
VPORT
  5
8
102
{ACAD_XDICTIONARY
360
C6D
102
}
330
0
100
AcDbSymbolTable
 70
     1
  0
VPORT
  5
A30
330
8
100
AcDbSymbolTableRecord
100
AcDbViewportTableRecord
  2
*Active
 70
     0
 10
0.0
 20
0.0
 11
1.0
 21
1.0
 12
210.0000019558372
 22
148.5000013830562
 13
0.0
 23
0.0
 14
2.5
 24
2.5
 15
10.0
 25
10.0
 16
0.0
 26
0.0
 36
1.0
 17
0.0
 27
0.0
 37
0.0
 40
299.0410001241766
 41
1.699324324324324
 42
50.0
 43
0.0
 44
0.0
 50
0.0
 51
0.0
 71
     0
 72
   500
 73
     1
 74
     0
 75
     0
 76
     0
 77
     0
 78
     0
281
     0
 65
     1
110
0.0
120
0.0
130
0.0
111
1.0
121
0.0
131
0.0
112
0.0
122
1.0
132
0.0
 79
     0
146
0.0
1001
ACAD_NAV_VCDISPLAY
1070
     3
  0
ENDTAB
  0
TABLE
  2
LTYPE
  5
5
330
0
100
AcDbSymbolTable
 70
     4
  0
LTYPE
  5
13
330
5
100
AcDbSymbolTableRecord
100
AcDbLinetypeTableRecord
  2
ByBlock
 70
     0
  3

 72
    65
 73
     0
 40
0.0
  0
LTYPE
  5
14
330
5
100
AcDbSymbolTableRecord
100
AcDbLinetypeTableRecord
  2
ByLayer
 70
     0
  3

 72
    65
 73
     0
 40
0.0
  0
LTYPE
  5
15
330
5
100
AcDbSymbolTableRecord
100
AcDbLinetypeTableRecord
  2
Continuous
 70
     0
  3
Solid line
 72
    65
 73
     0
 40
0.0
  0
LTYPE
  5
44
330
5
100
AcDbSymbolTableRecord
100
AcDbLinetypeTableRecord
  2
STRICHPUNKT
 70
     0
  3
__ . __ . __ . __ . __ . __ . __ . __ . __ . __
 72
    65
 73
     4
 40
1.0
 49
0.5
 74
     0
 49
-0.25
 74
     0
 49
0.0
 74
     0
 49
-0.25
 74
     0
  0
LTYPE
  5
A81
330
5
100
AcDbSymbolTableRecord
100
AcDbLinetypeTableRecord
  2
PHANTOM2
 70
     0
  3
Phantom (.5x) ___ _ _ ___ _ _ ___ _ _ ___ _ _
 72
    65
 73
     6
 40
1.25
 49
0.625
 74
     0
 49
-0.125
 74
     0
 49
0.125
 74
     0
 49
-0.125
 74
     0
 49
0.125
 74
     0
 49
-0.125
 74
     0
  0
ENDTAB
  0
TABLE
  2
LAYER
  5
2
102
{ACAD_XDICTIONARY
360
CB4
102
}
330
0
100
AcDbSymbolTable
 70
     9
  0
LAYER
  5
10
102
{ACAD_XDICTIONARY
360
C5A
102
}
330
2
100
AcDbSymbolTableRecord
100
AcDbLayerTableRecord
  2
0
 70
     0
 62
     7
  6
Continuous
370
    -3
390
F
  0
LAYER
  5
47
102
{ACAD_XDICTIONARY
360
C5C
102
}
330
2
100
AcDbSymbolTableRecord
100
AcDbLayerTableRecord
  2
VOLL
 70
     0
 62
     1
  6
Continuous
370
    -3
390
F
  0
LAYER
  5
48
102
{ACAD_XDICTIONARY
360
C5E
102
}
330
2
100
AcDbSymbolTableRecord
100
AcDbLayerTableRecord
  2
MITTEL
 70
     0
 62
     2
  6
STRICHPUNKT
370
    -3
390
F
  0
LAYER
  5
49
102
{ACAD_XDICTIONARY
360
C60
102
}
330
2
100
AcDbSymbolTableRecord
100
AcDbLayerTableRecord
  2
BEM
 70
     0
 62
     7
  6
Continuous
370
    -3
390
F
  0
LAYER
  5
4A
102
{ACAD_XDICTIONARY
360
C62
102
}
330
2
100
AcDbSymbolTableRecord
100
AcDbLayerTableRecord
  2
HILF
 70
     0
 62
     2
  6
Continuous
370
    -3
390
F
  0
LAYER
  5
4B
330
2
100
AcDbSymbolTableRecord
100
AcDbLayerTableRecord
  2
DEFPOINTS
 70
     0
 62
     7
  6
Continuous
290
     0
370
    -3
390
F
  0
LAYER
  5
4C
102
{ACAD_XDICTIONARY
360
C64
102
}
330
2
100
AcDbSymbolTableRecord
100
AcDbLayerTableRecord
  2
STEMPEL
 70
     0
 62
     3
  6
Continuous
370
    -3
390
F
  0
LAYER
  5
4D
102
{ACAD_XDICTIONARY
360
C66
102
}
330
2
100
AcDbSymbolTableRecord
100
AcDbLayerTableRecord
  2
TEXT
 70
     0
 62
     7
  6
Continuous
370
    -3
390
F
  0
LAYER
  5
4E
102
{ACAD_XDICTIONARY
360
C68
102
}
330
2
100
AcDbSymbolTableRecord
100
AcDbLayerTableRecord
  2
SCHRAFF
 70
     0
 62
     7
  6
Continuous
370
    -3
390
F
  0
ENDTAB
  0
TABLE
  2
STYLE
  5
3
330
0
100
AcDbSymbolTable
 70
     3
  0
STYLE
  5
11
330
3
100
AcDbSymbolTableRecord
100
AcDbTextStyleTableRecord
  2
STANDARD
 70
     0
 40
0.0
 41
0.8
 50
0.0
 71
     0
 42
3.5
  3
simplex.shx
  4

  0
STYLE
  5
43
330
3
100
AcDbSymbolTableRecord
100
AcDbTextStyleTableRecord
  2
GREEKS
 70
     0
 40
0.0
 41
0.8
 50
0.0
 71
     0
 42
3.5
  3
SIMPLEX.shx
  4

  0
ENDTAB
  0
TABLE
  2
VIEW
  5
6
330
0
100
AcDbSymbolTable
 70
     1
  0
ENDTAB
  0
TABLE
  2
UCS
  5
7
330
0
100
AcDbSymbolTable
 70
     0
  0
ENDTAB
  0
TABLE
  2
APPID
  5
9
330
0
100
AcDbSymbolTable
 70
     5
  0
APPID
  5
12
330
9
100
AcDbSymbolTableRecord
100
AcDbRegAppTableRecord
  2
ACAD
 70
     0
  0
APPID
  5
AAC
330
9
100
AcDbSymbolTableRecord
100
AcDbRegAppTableRecord
  2
ACAD_NAV_VCDISPLAY
 70
     0
  0
APPID
  5
C54
330
9
100
AcDbSymbolTableRecord
100
AcDbRegAppTableRecord
  2
ACAD_EXEMPT_FROM_CAD_STANDARDS
 70
     0
  0
APPID
  5
CA4
330
9
100
AcDbSymbolTableRecord
100
AcDbRegAppTableRecord
  2
ACAD_MLEADERVER
 70
     0
  0
APPID
  5
CFF
330
9
100
AcDbSymbolTableRecord
100
AcDbRegAppTableRecord
  2
ACAD_PSEXT
 70
     0
  0
ENDTAB
  0
TABLE
  2
DIMSTYLE
  5
A
330
0
100
AcDbSymbolTable
 70
     2
100
AcDbDimStyleTable
 71
     1
340
594
  0
DIMSTYLE
105
594
102
{ACAD_REACTORS
330
569
330
57F
330
4DC
330
504
330
908
330
9AB
330
9CC
330
A10
102
}
330
A
100
AcDbSymbolTableRecord
100
AcDbDimStyleTableRecord
  2
Standard
 70
     0
340
11
  0
ENDTAB
  0
TABLE
  2
BLOCK_RECORD
  5
1
330
0
100
AcDbSymbolTable
 70
    10
  0
BLOCK_RECORD
  5
20
330
1
100
AcDbSymbolTableRecord
100
AcDbBlockTableRecord
  2
*Model_Space
340
23
  0
BLOCK_RECORD
  5
1C
330
1
100
AcDbSymbolTableRecord
100
AcDbBlockTableRecord
  2
*Paper_Space
340
1F
  0
BLOCK_RECORD
  5
3F
330
1
100
AcDbSymbolTableRecord
100
AcDbBlockTableRecord
  2
LORO
340
0
102
{BLKREFS
331
58D
102
}
  0
BLOCK_RECORD
  5
6FD
330
1
100
AcDbSymbolTableRecord
100
AcDbBlockTableRecord
  2
*D1
340
0
  0
BLOCK_RECORD
  5
73C
330
1
100
AcDbSymbolTableRecord
100
AcDbBlockTableRecord
  2
*D2
340
0
  0
BLOCK_RECORD
  5
75D
330
1
100
AcDbSymbolTableRecord
100
AcDbBlockTableRecord
  2
*D3
340
0
  0
BLOCK_RECORD
  5
799
330
1
100
AcDbSymbolTableRecord
100
AcDbBlockTableRecord
  2
*D4
340
0
  0
BLOCK_RECORD
  5
909
330
1
100
AcDbSymbolTableRecord
100
AcDbBlockTableRecord
  2
*D5
340
0
  0
BLOCK_RECORD
  5
9AC
330
1
100
AcDbSymbolTableRecord
100
AcDbBlockTableRecord
  2
*D6
340
0
  0
BLOCK_RECORD
  5
9CD
330
1
100
AcDbSymbolTableRecord
100
AcDbBlockTableRecord
  2
*D7
340
0
  0
BLOCK_RECORD
  5
A11
330
1
100
AcDbSymbolTableRecord
100
AcDbBlockTableRecord
  2
*D8
340
0
  0
ENDTAB
  0
ENDSEC
  0
SECTION
  2
BLOCKS
  0
BLOCK
  5
52
330
20
100
AcDbEntity
  8
0
100
AcDbBlockBegin
  2
*Model_Space
 70
     0
 10
0.0
 20
0.0
 30
0.0
  3
*Model_Space
  1

  0
ENDBLK
  5
53
330
20
100
AcDbEntity
  8
0
100
AcDbBlockEnd
  0
BLOCK
  5
50
330
1C
100
AcDbEntity
 67
     1
  8
0
100
AcDbBlockBegin
  2
*Paper_Space
 70
     0
 10
0.0
 20
0.0
 30
0.0
  3
*Paper_Space
  1

  0
ENDBLK
  5
51
330
1C
100
AcDbEntity
 67
     1
  8
0
100
AcDbBlockEnd
  0
BLOCK
  5
447
330
3F
100
AcDbEntity
  8
0
100
AcDbBlockBegin
  2
LORO
 70
     0
 10
0.0
 20
0.0
 30
0.0
  3
LORO
  1

  0
ARC
  5
448
330
3F
100
AcDbEntity
  8
TEXT
 62
     3
100
AcDbCircle
 10
33.3940879938213
 20
7.339059403255902
 30
0.0
 40
4.9
100
AcDbArc
 50
270.0
 51
229.0342866699857
  0
LINE
  5
449
330
3F
100
AcDbEntity
  8
TEXT
 62
     3
100
AcDbLine
 10
19.29408799382133
 20
12.2390594032559
 30
0.0
 11
19.29408799382133
 21
2.439059403255903
 31
0.0
  0
ARC
  5
44A
330
3F
100
AcDbEntity
  8
TEXT
 62
     3
100
AcDbCircle
 10
6.394087993821358
 20
4.439059403255903
 30
0.0
 40
2.0
100
AcDbArc
 50
180.0000000000003
 51
270.0
  0
ARC
  5
44B
330
3F
100
AcDbEntity
  8
TEXT
 62
     3
100
AcDbCircle
 10
27.29040028552345
 20
4.439059403255901
 30
0.0
 40
2.0
100
AcDbArc
 50
195.0
 51
270.0
  0
LINE
  5
44C
330
3F
100
AcDbEntity
  8
TEXT
 62
     3
100
AcDbLine
 10
20.49408799382133
 20
7.439059403256004
 30
0.0
 11
20.49408799382133
 21
2.439059403255901
 31
0.0
  0
ARC
  5
44D
330
3F
100
AcDbEntity
  8
TEXT
 62
     3
100
AcDbCircle
 10
13.3940879938213
 20
7.339059403255902
 30
0.0
 40
4.9
100
AcDbArc
 50
270.0
 51
229.0342866699857
  0
LINE
  5
44E
330
3F
100
AcDbEntity
  8
TEXT
 62
     3
100
AcDbLine
 10
33.3940879938213
 20
2.439059403255901
 30
0.0
 11
27.29040028552345
 21
2.439059403255901
 31
0.0
  0
LINE
  5
44F
330
3F
100
AcDbEntity
  8
TEXT
 62
     3
100
AcDbLine
 10
13.3940879938213
 20
2.439059403255903
 30
0.0
 11
6.394087993821358
 21
2.439059403255903
 31
0.0
  0
LINE
  5
450
330
3F
100
AcDbEntity
  8
TEXT
 62
     3
100
AcDbLine
 10
20.49408799382133
 20
2.439059403255901
 30
0.0
 11
19.29408799382133
 21
2.439059403255903
 31
0.0
  0
CIRCLE
  5
451
330
3F
100
AcDbEntity
  8
TEXT
 62
     3
100
AcDbCircle
 10
33.3940879938213
 20
7.339059403255902
 30
0.0
 40
3.7
  0
CIRCLE
  5
452
330
3F
100
AcDbEntity
  8
TEXT
 62
     3
100
AcDbCircle
 10
13.3940879938213
 20
7.339059403255902
 30
0.0
 40
3.7
  0
LINE
  5
453
330
3F
100
AcDbEntity
  8
TEXT
 62
     3
100
AcDbLine
 10
10.18161231297949
 20
3.639059403255902
 30
0.0
 11
6.394087993821358
 21
3.639059403255902
 31
0.0
  0
LINE
  5
454
330
3F
100
AcDbEntity
  8
TEXT
 62
     3
100
AcDbLine
 10
4.394087993821301
 20
12.2390594032559
 30
0.0
 11
4.394087993821358
 21
4.439059403255891
 31
0.0
  0
LINE
  5
455
330
3F
100
AcDbEntity
  8
TEXT
 62
     3
100
AcDbLine
 10
5.59408799382129
 20
12.2390594032559
 30
0.0
 11
5.594087993821347
 21
4.439059403255898
 31
0.0
  0
ARC
  5
456
330
3F
100
AcDbEntity
  8
TEXT
 62
     3
100
AcDbCircle
 10
6.394087993821358
 20
4.439059403255903
 30
0.0
 40
0.8
100
AcDbArc
 50
180.0000000000003
 51
270.0
  0
LINE
  5
457
330
3F
100
AcDbEntity
  8
TEXT
 62
     3
100
AcDbLine
 10
4.394087993821301
 20
12.2390594032559
 30
0.0
 11
5.59408799382129
 21
12.2390594032559
 31
0.0
  0
LINE
  5
458
330
3F
100
AcDbEntity
  8
TEXT
 62
     3
100
AcDbLine
 10
24.3940879938213
 20
11.03905940325589
 30
0.0
 11
20.49408799382133
 21
11.03905940325589
 31
0.0
  0
LINE
  5
459
330
3F
100
AcDbEntity
  8
TEXT
 62
     3
100
AcDbLine
 10
24.3940879938213
 20
12.2390594032559
 30
0.0
 11
19.29408799382133
 21
12.2390594032559
 31
0.0
  0
LINE
  5
45A
330
3F
100
AcDbEntity
  8
TEXT
 62
     3
100
AcDbLine
 10
24.3940879938213
 20
8.639059403256004
 30
0.0
 11
20.49408799382133
 21
8.639059403256004
 31
0.0
  0
LINE
  5
45B
330
3F
100
AcDbEntity
  8
TEXT
 62
     3
100
AcDbLine
 10
24.3940879938213
 20
7.439059403256003
 30
0.0
 11
20.49408799382133
 21
7.439059403256003
 31
0.0
  0
LINE
  5
45C
330
3F
100
AcDbEntity
  8
TEXT
 62
     3
100
AcDbLine
 10
20.49408799382133
 20
11.03905940325589
 30
0.0
 11
20.49408799382133
 21
8.639059403256004
 31
0.0
  0
ARC
  5
45D
330
3F
100
AcDbEntity
  8
TEXT
 62
     3
100
AcDbCircle
 10
24.3940879938213
 20
9.839059403256003
 30
0.0
 40
2.399999999999999
100
AcDbArc
 50
299.47751218593
 51
90.0
  0
ARC
  5
45E
330
3F
100
AcDbEntity
  8
TEXT
 62
     3
100
AcDbCircle
 10
24.3940879938213
 20
9.839059403256003
 30
0.0
 40
1.199999999999999
100
AcDbArc
 50
270.0
 51
90.0
  0
LINE
  5
45F
330
3F
100
AcDbEntity
  8
TEXT
 62
     3
100
AcDbLine
 10
30.1816123129795
 20
3.639059403255902
 30
0.0
 11
27.29040028552345
 21
3.639059403255901
 31
0.0
  0
ARC
  5
460
330
3F
100
AcDbEntity
  8
TEXT
 62
     3
100
AcDbCircle
 10
24.3940879938213
 20
9.839059403256003
 30
0.0
 40
2.399999999999999
100
AcDbArc
 50
270.0
 51
270.5224878140705
  0
LINE
  5
461
330
3F
100
AcDbEntity
  8
TEXT
 62
     3
100
AcDbLine
 10
24.4159736088659
 20
7.439159192860971
 30
0.0
 11
25.35854863294531
 21
3.921421313050858
 31
0.0
  0
ARC
  5
462
330
3F
100
AcDbEntity
  8
TEXT
 62
     3
100
AcDbCircle
 10
27.29040028552345
 20
4.439059403255901
 30
0.0
 40
0.8
100
AcDbArc
 50
195.0
 51
270.0
  0
LINE
  5
463
330
3F
100
AcDbEntity
  8
TEXT
 62
     3
100
AcDbLine
 10
25.57508460041276
 20
7.749742046984001
 30
0.0
 11
26.5176596244923
 21
4.232004167173904
 31
0.0
  0
ENDBLK
  5
464
330
3F
100
AcDbEntity
  8
0
100
AcDbBlockEnd
  0
BLOCK
  5
707
330
6FD
100
AcDbEntity
  8
0
100
AcDbBlockBegin
  2
*D1
 70
     1
 10
0.0
 20
0.0
 30
0.0
  3
*D1
  1

  0
LINE
  5
6FE
330
6FD
100
AcDbEntity
  8
BEM
 62
     0
440
 16777216
370
    -2
100
AcDbLine
 10
359.9851716736491
 20
119.7698427951904
 30
0.0
 11
379.3656838485408
 21
118.7541531907365
 31
0.0
  0
LINE
  5
6FF
330
6FD
100
AcDbEntity
  8
BEM
 62
     0
440
 16777216
370
    -2
100
AcDbLine
 10
362.7589773545249
 20
172.6972081371828
 30
0.0
 11
382.1394895294167
 21
171.6815185327289
 31
0.0
  0
LINE
  5
700
330
6FD
100
AcDbEntity
  8
BEM
 62
     0
440
 16777216
370
    -2
100
AcDbLine
 10
378.5502301606365
 20
122.3016925186204
 30
0.0
 11
380.9576841478119
 21
168.2386511173308
 31
0.0
  0
SOLID
  5
701
330
6FD
100
AcDbEntity
  8
BEM
 62
     0
440
 16777216
100
AcDbTrace
 10
377.9676962653631
 20
122.3322218264288
 30
0.0
 11
379.1327640559101
 21
122.271163210812
 31
0.0
 12
378.3670543137862
 22
118.8064891469794
 32
0.0
 13
378.3670543137862
 23
118.8064891469794
 33
0.0
  0
SOLID
  5
702
330
6FD
100
AcDbEntity
  8
BEM
 62
     0
440
 16777216
100
AcDbTrace
 10
380.3751502525384
 20
168.2691804251392
 30
0.0
 11
381.5402180430853
 21
168.2081218095225
 31
0.0
 12
381.1408599946621
 22
171.7338544889718
 32
0.0
 13
381.1408599946621
 23
171.7338544889718
 33
0.0
  0
MTEXT
  5
703
330
6FD
100
AcDbEntity
  8
BEM
 62
     1
440
 16777216
100
AcDbMText
 10
376.5084111662718
 20
145.4402636757652
 30
0.0
 40
3.5
 41
0.0
 71
     5
 72
     1
  1
\A1;%%C53
 11
0.0523359562429406
 21
0.9986295347545739
 31
0.0
 73
     1
 44
1.0
  0
POINT
  5
704
330
6FD
100
AcDbEntity
  8
DEFPOINTS
 62
     0
440
 16777216
100
AcDbPoint
 10
358.9865421388945
 20
119.8221787514334
 30
0.0
  0
POINT
  5
705
330
6FD
100
AcDbEntity
  8
DEFPOINTS
 62
     0
440
 16777216
100
AcDbPoint
 10
361.7603478197704
 20
172.7495440934258
 30
0.0
  0
POINT
  5
706
330
6FD
100
AcDbEntity
  8
DEFPOINTS
 62
     0
440
 16777216
100
AcDbPoint
 10
381.1408599946621
 20
171.7338544889718
 30
0.0
  0
ENDBLK
  5
708
330
6FD
100
AcDbEntity
  8
0
100
AcDbBlockEnd
  0
BLOCK
  5
746
330
73C
100
AcDbEntity
  8
0
100
AcDbBlockBegin
  2
*D2
 70
     1
 10
0.0
 20
0.0
 30
0.0
  3
*D2
  1

  0
LINE
  5
9A2
330
73C
100
AcDbEntity
  8
BEM
 62
     0
440
 16777216
370
    -2
100
AcDbLine
 10
195.998450061959
 20
120.6868843774306
 30
0.0
 11
195.998450061959
 21
67.13672965599027
 31
0.0
  0
LINE
  5
9A3
330
73C
100
AcDbEntity
  8
BEM
 62
     0
440
 16777216
370
    -2
100
AcDbLine
 10
367.2984500619591
 20
144.9229372845253
 30
0.0
 11
367.2984500619591
 21
67.13672965599027
 31
0.0
  0
LINE
  5
9A4
330
73C
100
AcDbEntity
  8
BEM
 62
     0
440
 16777216
370
    -2
100
AcDbLine
 10
199.498450061959
 20
68.13672965599026
 30
0.0
 11
363.7984500619591
 21
68.13672965599026
 31
0.0
  0
SOLID
  5
9A5
330
73C
100
AcDbEntity
  8
BEM
 62
     0
440
 16777216
100
AcDbTrace
 10
199.498450061959
 20
68.72006298932359
 30
0.0
 11
199.498450061959
 21
67.55339632265694
 31
0.0
 12
195.998450061959
 22
68.13672965599026
 32
0.0
 13
195.998450061959
 23
68.13672965599026
 33
0.0
  0
SOLID
  5
9A6
330
73C
100
AcDbEntity
  8
BEM
 62
     0
440
 16777216
100
AcDbTrace
 10
363.7984500619591
 20
68.72006298932359
 30
0.0
 11
363.7984500619591
 21
67.55339632265694
 31
0.0
 12
367.2984500619591
 22
68.13672965599026
 32
0.0
 13
367.2984500619591
 23
68.13672965599026
 33
0.0
  0
MTEXT
  5
9A7
330
73C
100
AcDbEntity
  8
BEM
 62
     1
440
 16777216
100
AcDbMText
 10
281.6484500619591
 20
71.38672965599027
 30
0.0
 40
3.5
 41
0.0
 71
     5
 72
     1
  1
\A1;171
 73
     1
 44
1.0
  0
POINT
  5
9A8
330
73C
100
AcDbEntity
  8
DEFPOINTS
 62
     0
440
 16777216
100
AcDbPoint
 10
195.998450061959
 20
121.6868843774306
 30
0.0
  0
POINT
  5
9A9
330
73C
100
AcDbEntity
  8
DEFPOINTS
 62
     0
440
 16777216
100
AcDbPoint
 10
367.2984500619591
 20
145.9229372845253
 30
0.0
  0
POINT
  5
9AA
330
73C
100
AcDbEntity
  8
DEFPOINTS
 62
     0
440
 16777216
100
AcDbPoint
 10
367.2984500619591
 20
68.13672965599026
 30
0.0
  0
ENDBLK
  5
747
330
73C
100
AcDbEntity
  8
0
100
AcDbBlockEnd
  0
BLOCK
  5
767
330
75D
100
AcDbEntity
  8
0
100
AcDbBlockBegin
  2
*D3
 70
     1
 10
0.0
 20
0.0
 30
0.0
  3
*D3
  1

  0
LINE
  5
75E
330
75D
100
AcDbEntity
  8
BEM
 62
     0
440
 16777216
370
    -2
100
AcDbLine
 10
49.99845006195903
 20
219.6868843774306
 30
0.0
 11
49.99845006195903
 21
242.6709422139661
 31
0.0
  0
LINE
  5
75F
330
75D
100
AcDbEntity
  8
BEM
 62
     0
440
 16777216
370
    -2
100
AcDbLine
 10
341.9984500619591
 20
219.6868843774306
 30
0.0
 11
341.9984500619591
 21
242.6709422139661
 31
0.0
  0
LINE
  5
760
330
75D
100
AcDbEntity
  8
BEM
 62
     0
440
 16777216
370
    -2
100
AcDbLine
 10
53.49845006195903
 20
241.6709422139661
 30
0.0
 11
338.498450061959
 21
241.6709422139661
 31
0.0
  0
SOLID
  5
761
330
75D
100
AcDbEntity
  8
BEM
 62
     0
440
 16777216
100
AcDbTrace
 10
53.49845006195903
 20
242.2542755472994
 30
0.0
 11
53.49845006195903
 21
241.0876088806328
 31
0.0
 12
49.99845006195903
 22
241.6709422139661
 32
0.0
 13
49.99845006195903
 23
241.6709422139661
 33
0.0
  0
SOLID
  5
762
330
75D
100
AcDbEntity
  8
BEM
 62
     0
440
 16777216
100
AcDbTrace
 10
338.498450061959
 20
242.2542755472994
 30
0.0
 11
338.498450061959
 21
241.0876088806328
 31
0.0
 12
341.9984500619591
 22
241.6709422139661
 32
0.0
 13
341.9984500619591
 23
241.6709422139661
 33
0.0
  0
MTEXT
  5
763
330
75D
100
AcDbEntity
  8
BEM
 62
     1
440
 16777216
100
AcDbMText
 10
195.998450061959
 20
244.9209422139661
 30
0.0
 40
3.5
 41
0.0
 71
     5
 72
     1
  1
\A1;%%C292
 73
     1
 44
1.0
  0
POINT
  5
764
330
75D
100
AcDbEntity
  8
DEFPOINTS
 62
     0
440
 16777216
100
AcDbPoint
 10
49.99845006195903
 20
218.6868843774306
 30
0.0
  0
POINT
  5
765
330
75D
100
AcDbEntity
  8
DEFPOINTS
 62
     0
440
 16777216
100
AcDbPoint
 10
341.9984500619591
 20
218.6868843774306
 30
0.0
  0
POINT
  5
766
330
75D
100
AcDbEntity
  8
DEFPOINTS
 62
     0
440
 16777216
100
AcDbPoint
 10
341.9984500619591
 20
241.6709422139661
 30
0.0
  0
ENDBLK
  5
768
330
75D
100
AcDbEntity
  8
0
100
AcDbBlockEnd
  0
BLOCK
  5
7A5
330
799
100
AcDbEntity
  8
0
100
AcDbBlockBegin
  2
*D4
 70
     1
 10
0.0
 20
0.0
 30
0.0
  3
*D4
  1

  0
LINE
  5
79A
330
799
100
AcDbEntity
  8
BEM
 62
     0
440
 16777216
370
    -2
100
AcDbLine
 10
48.99845006195903
 20
218.6868843774306
 30
0.0
 11
43.84089688755262
 21
218.6868843774306
 31
0.0
  0
LINE
  5
79B
330
799
100
AcDbEntity
  8
BEM
 62
     0
440
 16777216
370
    -2
100
AcDbLine
 10
48.99845006195903
 20
216.6868843774306
 30
0.0
 11
43.84089688755262
 21
216.6868843774306
 31
0.0
  0
LINE
  5
79C
330
799
100
AcDbEntity
  8
BEM
 62
     0
440
 16777216
370
    -2
100
AcDbLine
 10
44.84089688755261
 20
222.1868843774306
 30
0.0
 11
44.84089688755261
 21
225.6868843774306
 31
0.0
  0
LINE
  5
79D
330
799
100
AcDbEntity
  8
BEM
 62
     0
440
 16777216
370
    -2
100
AcDbLine
 10
44.84089688755261
 20
213.1868843774306
 30
0.0
 11
44.8408968875526
 21
204.8202177107639
 31
0.0
  0
LINE
  5
79E
330
799
100
AcDbEntity
  8
BEM
 62
     0
440
 16777216
370
    -2
100
AcDbLine
 10
44.84089688755261
 20
218.6868843774306
 30
0.0
 11
44.84089688755261
 21
216.6868843774306
 31
0.0
  0
SOLID
  5
79F
330
799
100
AcDbEntity
  8
BEM
 62
     0
440
 16777216
100
AcDbTrace
 10
44.25756355421928
 20
222.1868843774306
 30
0.0
 11
45.42423022088595
 21
222.1868843774306
 31
0.0
 12
44.84089688755261
 22
218.6868843774306
 32
0.0
 13
44.84089688755261
 23
218.6868843774306
 33
0.0
  0
SOLID
  5
7A0
330
799
100
AcDbEntity
  8
BEM
 62
     0
440
 16777216
100
AcDbTrace
 10
44.25756355421928
 20
213.1868843774306
 30
0.0
 11
45.42423022088595
 21
213.1868843774306
 31
0.0
 12
44.84089688755261
 22
216.6868843774306
 32
0.0
 13
44.84089688755261
 23
216.6868843774306
 33
0.0
  0
MTEXT
  5
7A1
330
799
100
AcDbEntity
  8
BEM
 62
     1
440
 16777216
100
AcDbMText
 10
41.59089688755257
 20
207.2535510440973
 30
0.0
 40
3.5
 41
0.0
 71
     5
 72
     1
  1
\A1;2
 11
0.0000000000000001
 21
1.0
 31
0.0
 73
     1
 44
1.0
  0
POINT
  5
7A2
330
799
100
AcDbEntity
  8
DEFPOINTS
 62
     0
440
 16777216
100
AcDbPoint
 10
49.99845006195903
 20
218.6868843774306
 30
0.0
  0
POINT
  5
7A3
330
799
100
AcDbEntity
  8
DEFPOINTS
 62
     0
440
 16777216
100
AcDbPoint
 10
49.99845006195903
 20
216.6868843774306
 30
0.0
  0
POINT
  5
7A4
330
799
100
AcDbEntity
  8
DEFPOINTS
 62
     0
440
 16777216
100
AcDbPoint
 10
44.84089688755261
 20
216.6868843774306
 30
0.0
  0
ENDBLK
  5
7A6
330
799
100
AcDbEntity
  8
0
100
AcDbBlockEnd
  0
BLOCK
  5
913
330
909
100
AcDbEntity
  8
0
100
AcDbBlockBegin
  2
*D5
 70
     1
 10
0.0
 20
0.0
 30
0.0
  3
*D5
  1

  0
ARC
  5
AA3
330
909
100
AcDbEntity
  8
BEM
 62
     0
440
 16777216
370
    -2
100
AcDbCircle
 10
195.998450061959
 20
154.9003898757104
 30
0.0
 40
23.28726520003211
100
AcDbArc
 50
5.619494568788762
 51
81.3805054312113
  0
SOLID
  5
AA4
330
909
100
AcDbEntity
  8
BEM
 62
     0
440
 16777216
100
AcDbTrace
 10
219.7569808624458
 20
157.1940476466471
 30
0.0
 11
218.59061900467
 21
157.1673806663752
 31
0.0
 12
219.2538008743735
 22
153.6816285831837
 32
0.0
 13
219.2538008743735
 23
153.6816285831837
 33
0.0
  0
SOLID
  5
AA5
330
909
100
AcDbEntity
  8
BEM
 62
     0
440
 16777216
100
AcDbTrace
 10
199.4447167857525
 20
177.3429519052431
 30
0.0
 11
199.5323898830067
 21
178.5063196627166
 31
0.0
 12
195.998450061959
 22
178.1876550757425
 32
0.0
 13
195.998450061959
 23
178.1876550757425
 33
0.0
  0
MTEXT
  5
AA6
330
909
100
AcDbEntity
  8
BEM
 62
     1
440
 16777216
100
AcDbMText
 10
215.2479021148186
 20
173.1674378025511
 30
0.0
 40
3.5
 41
0.0
 71
     5
 72
     1
  1
\A1;93°
 11
0.688354575693754
 21
-0.7253743710122878
 31
0.0
 73
     1
 44
1.0
  0
POINT
  5
AA7
330
909
100
AcDbEntity
  8
DEFPOINTS
 62
     0
440
 16777216
100
AcDbPoint
 10
216.5598848145949
 20
165.8330986621789
 30
0.0
  0
POINT
  5
AA8
330
909
100
AcDbEntity
  8
DEFPOINTS
 62
     0
440
 16777216
100
AcDbPoint
 10
195.998450061959
 20
221.6868843774306
 30
0.0
  0
POINT
  5
AA9
330
909
100
AcDbEntity
  8
DEFPOINTS
 62
     0
440
 16777216
100
AcDbPoint
 10
196.1153156490409
 20
154.8942652098168
 30
0.0
  0
POINT
  5
AAA
330
909
100
AcDbEntity
  8
DEFPOINTS
 62
     0
440
 16777216
100
AcDbPoint
 10
372.2915977357321
 20
145.6612575033106
 30
0.0
  0
POINT
  5
AAB
330
909
100
AcDbEntity
  8
DEFPOINTS
 62
     0
440
 16777216
100
AcDbPoint
 10
195.998450061959
 20
121.6868843774306
 30
0.0
  0
ENDBLK
  5
914
330
909
100
AcDbEntity
  8
0
100
AcDbBlockEnd
  0
BLOCK
  5
9B6
330
9AC
100
AcDbEntity
  8
0
100
AcDbBlockBegin
  2
*D6
 70
     1
 10
0.0
 20
0.0
 30
0.0
  3
*D6
  1

  0
LINE
  5
9C3
330
9AC
100
AcDbEntity
  8
BEM
 62
     0
440
 16777216
370
    -2
100
AcDbLine
 10
341.9984500619591
 20
219.6868843774306
 30
0.0
 11
341.9984500619591
 21
231.2206845172539
 31
0.0
  0
LINE
  5
9C4
330
9AC
100
AcDbEntity
  8
BEM
 62
     0
440
 16777216
370
    -2
100
AcDbLine
 10
96.9820125660491
 20
212.3147866400543
 30
0.0
 11
96.9820125660491
 21
231.2206845172539
 31
0.0
  0
LINE
  5
9C5
330
9AC
100
AcDbEntity
  8
BEM
 62
     0
440
 16777216
370
    -2
100
AcDbLine
 10
338.498450061959
 20
230.2206845172539
 30
0.0
 11
100.4820125660491
 21
230.2206845172539
 31
0.0
  0
SOLID
  5
9C6
330
9AC
100
AcDbEntity
  8
BEM
 62
     0
440
 16777216
100
AcDbTrace
 10
338.498450061959
 20
230.8040178505872
 30
0.0
 11
338.498450061959
 21
229.6373511839205
 31
0.0
 12
341.9984500619591
 22
230.2206845172539
 32
0.0
 13
341.9984500619591
 23
230.2206845172539
 33
0.0
  0
SOLID
  5
9C7
330
9AC
100
AcDbEntity
  8
BEM
 62
     0
440
 16777216
100
AcDbTrace
 10
100.4820125660491
 20
230.8040178505872
 30
0.0
 11
100.4820125660491
 21
229.6373511839205
 31
0.0
 12
96.9820125660491
 22
230.2206845172539
 32
0.0
 13
96.9820125660491
 23
230.2206845172539
 33
0.0
  0
MTEXT
  5
9C8
330
9AC
100
AcDbEntity
  8
BEM
 62
     1
440
 16777216
100
AcDbMText
 10
219.490231314004
 20
233.4706845172539
 30
0.0
 40
3.5
 41
0.0
 71
     5
 72
     1
  1
\A1;245
 73
     1
 44
1.0
  0
POINT
  5
9C9
330
9AC
100
AcDbEntity
  8
DEFPOINTS
 62
     0
440
 16777216
100
AcDbPoint
 10
341.9984500619591
 20
218.6868843774306
 30
0.0
  0
POINT
  5
9CA
330
9AC
100
AcDbEntity
  8
DEFPOINTS
 62
     0
440
 16777216
100
AcDbPoint
 10
96.9820125660491
 20
211.3147866400543
 30
0.0
  0
POINT
  5
9CB
330
9AC
100
AcDbEntity
  8
DEFPOINTS
 62
     0
440
 16777216
100
AcDbPoint
 10
96.9820125660491
 20
230.2206845172539
 30
0.0
  0
ENDBLK
  5
9B7
330
9AC
100
AcDbEntity
  8
0
100
AcDbBlockEnd
  0
BLOCK
  5
9D7
330
9CD
100
AcDbEntity
  8
0
100
AcDbBlockBegin
  2
*D7
 70
     1
 10
0.0
 20
0.0
 30
0.0
  3
*D7
  1

  0
LINE
  5
9E4
330
9CD
100
AcDbEntity
  8
BEM
 62
     0
440
 16777216
370
    -2
100
AcDbLine
 10
365.8909630130647
 20
119.0664845183637
 30
0.0
 11
363.6791806610645
 21
76.86316313634162
 31
0.0
  0
LINE
  5
9E5
330
9CD
100
AcDbEntity
  8
BEM
 62
     0
440
 16777216
370
    -2
100
AcDbLine
 10
335.221480861577
 20
87.68825484267599
 30
0.0
 11
334.7336628897196
 21
78.38013344293563
 31
0.0
  0
LINE
  5
9E6
330
9CD
100
AcDbEntity
  8
BEM
 62
     0
440
 16777216
370
    -2
100
AcDbLine
 10
360.2363132456663
 20
78.0449685179465
 30
0.0
 11
338.2812022176036
 21
79.1955871308399
 31
0.0
  0
SOLID
  5
9E7
330
9CD
100
AcDbEntity
  8
BEM
 62
     0
440
 16777216
100
AcDbTrace
 10
360.2668425534748
 20
78.62750241322001
 30
0.0
 11
360.205783937858
 21
77.46243462267301
 31
0.0
 12
363.7315166173074
 22
77.8617926710962
 32
0.0
 13
363.7315166173074
 23
77.8617926710962
 33
0.0
  0
SOLID
  5
9E8
330
9CD
100
AcDbEntity
  8
BEM
 62
     0
440
 16777216
100
AcDbTrace
 10
338.311731525412
 20
79.77812102611338
 30
0.0
 11
338.2506729097952
 21
78.61305323556639
 31
0.0
 12
334.7859988459626
 22
79.3787629776902
 32
0.0
 13
334.7859988459626
 23
79.3787629776902
 33
0.0
  0
MTEXT
  5
9E9
330
9CD
100
AcDbEntity
  8
BEM
 62
     1
440
 16777216
100
AcDbMText
 10
349.4288495894246
 20
81.86582381234556
 30
0.0
 40
3.5
 41
0.0
 71
     5
 72
     1
  1
\A1;29
 11
0.9986295347545738
 21
-0.0523359562429441
 31
0.0
 73
     1
 44
1.0
  0
POINT
  5
9EA
330
9CD
100
AcDbEntity
  8
DEFPOINTS
 62
     0
440
 16777216
100
AcDbPoint
 10
365.9432989693077
 20
120.0651140531183
 30
0.0
  0
POINT
  5
9EB
330
9CD
100
AcDbEntity
  8
DEFPOINTS
 62
     0
440
 16777216
100
AcDbPoint
 10
335.2738168178199
 20
88.68688437743058
 30
0.0
  0
POINT
  5
9EC
330
9CD
100
AcDbEntity
  8
DEFPOINTS
 62
     0
440
 16777216
100
AcDbPoint
 10
334.7859988459626
 20
79.3787629776902
 30
0.0
  0
ENDBLK
  5
9D8
330
9CD
100
AcDbEntity
  8
0
100
AcDbBlockEnd
  0
BLOCK
  5
A1B
330
A11
100
AcDbEntity
  8
0
100
AcDbBlockBegin
  2
*D8
 70
     1
 10
0.0
 20
0.0
 30
0.0
  3
*D8
  1

  0
LINE
  5
A1E
330
A11
100
AcDbEntity
  8
BEM
 62
     0
440
 16777216
370
    -2
100
AcDbLine
 10
48.99845006195903
 20
218.6868843774306
 30
0.0
 11
34.82964165277806
 21
218.6868843774306
 31
0.0
  0
LINE
  5
A1F
330
A11
100
AcDbEntity
  8
BEM
 62
     0
440
 16777216
370
    -2
100
AcDbLine
 10
149.856896937515
 20
88.6868843774306
 30
0.0
 11
34.82964165277803
 21
88.68688437743061
 31
0.0
  0
LINE
  5
A20
330
A11
100
AcDbEntity
  8
BEM
 62
     0
440
 16777216
370
    -2
100
AcDbLine
 10
35.82964165277807
 20
215.1868843774306
 30
0.0
 11
35.82964165277804
 21
92.18688437743061
 31
0.0
  0
SOLID
  5
A21
330
A11
100
AcDbEntity
  8
BEM
 62
     0
440
 16777216
100
AcDbTrace
 10
35.24630831944473
 20
215.1868843774306
 30
0.0
 11
36.4129749861114
 21
215.1868843774306
 31
0.0
 12
35.82964165277807
 22
218.6868843774306
 32
0.0
 13
35.82964165277807
 23
218.6868843774306
 33
0.0
  0
SOLID
  5
A22
330
A11
100
AcDbEntity
  8
BEM
 62
     0
440
 16777216
100
AcDbTrace
 10
35.2463083194447
 20
92.18688437743061
 30
0.0
 11
36.41297498611137
 21
92.18688437743061
 31
0.0
 12
35.82964165277804
 22
88.68688437743061
 32
0.0
 13
35.82964165277804
 23
88.68688437743061
 33
0.0
  0
MTEXT
  5
A23
330
A11
100
AcDbEntity
  8
BEM
 62
     1
440
 16777216
100
AcDbMText
 10
32.57964165277802
 20
153.6868843774306
 30
0.0
 40
3.5
 41
0.0
 71
     5
 72
     1
  1
\A1;130
 11
0.0000000000000001
 21
1.0
 31
0.0
 73
     1
 44
1.0
  0
POINT
  5
A24
330
A11
100
AcDbEntity
  8
DEFPOINTS
 62
     0
440
 16777216
100
AcDbPoint
 10
49.99845006195903
 20
218.6868843774306
 30
0.0
  0
POINT
  5
A25
330
A11
100
AcDbEntity
  8
DEFPOINTS
 62
     0
440
 16777216
100
AcDbPoint
 10
150.856896937515
 20
88.6868843774306
 30
0.0
  0
POINT
  5
A26
330
A11
100
AcDbEntity
  8
DEFPOINTS
 62
     0
440
 16777216
100
AcDbPoint
 10
35.82964165277804
 20
88.68688437743061
 30
0.0
  0
ENDBLK
  5
A1C
330
A11
100
AcDbEntity
  8
0
100
AcDbBlockEnd
  0
ENDSEC
  0
SECTION
  2
ENTITIES
  0
TEXT
  5
489
330
20
100
AcDbEntity
  8
TEXT
 62
     1
100
AcDbText
 10
327.4895586704976
 20
43.4970604199266
 30
0.0
 40
3.5
  1
Grundeinheit DN50
 41
0.8
  7
GREEKS
100
AcDbText
  0
LINE
  5
48A
330
20
100
AcDbEntity
  8
STEMPEL
100
AcDbLine
 10
415.0
 20
55.0
 30
0.0
 11
235.0
 21
55.0
 31
0.0
  0
LINE
  5
48B
330
20
100
AcDbEntity
  8
STEMPEL
100
AcDbLine
 10
235.0
 20
55.0
 30
0.0
 11
235.0
 21
5.0
 31
0.0
  0
LINE
  5
48C
330
20
100
AcDbEntity
  8
STEMPEL
100
AcDbLine
 10
283.0
 20
54.99999999999994
 30
0.0
 11
282.9999999999999
 21
4.999999999999943
 31
0.0
  0
LINE
  5
48D
330
20
100
AcDbEntity
  8
STEMPEL
100
AcDbLine
 10
324.9999999999999
 20
55.0
 30
0.0
 11
324.9999999999999
 21
5.0
 31
0.0
  0
LINE
  5
48E
330
20
100
AcDbEntity
  8
STEMPEL
100
AcDbLine
 10
376.0
 20
54.99999999999984
 30
0.0
 11
376.0
 21
20.0
 31
0.0
  0
LINE
  5
48F
330
20
100
AcDbEntity
  8
STEMPEL
100
AcDbLine
 10
282.9999999999999
 20
15.0
 30
0.0
 11
235.0
 21
15.0
 31
0.0
  0
LINE
  5
490
330
20
100
AcDbEntity
  8
STEMPEL
100
AcDbLine
 10
415.0
 20
20.0
 30
0.0
 11
282.9999999999999
 21
20.0
 31
0.0
  0
LINE
  5
491
330
20
100
AcDbEntity
  8
STEMPEL
100
AcDbLine
 10
415.0
 20
40.0
 30
0.0
 11
283.0
 21
40.0
 31
0.0
  0
LINE
  5
492
330
20
100
AcDbEntity
  8
VOLL
100
AcDbLine
 10
242.0
 20
55.0
 30
0.0
 11
241.9999999999999
 21
4.999999999999992
 31
0.0
  0
LINE
  5
493
330
20
100
AcDbEntity
  8
VOLL
100
AcDbLine
 10
262.0
 20
54.99999999999997
 30
0.0
 11
261.9999999999999
 21
4.999999999999971
 31
0.0
  0
LINE
  5
494
330
20
100
AcDbEntity
  8
VOLL
100
AcDbLine
 10
272.0
 20
54.99999999999996
 30
0.0
 11
271.9999999999999
 21
4.999999999999957
 31
0.0
  0
LINE
  5
495
330
20
100
AcDbEntity
  8
VOLL
100
AcDbLine
 10
292.0
 20
40.0
 30
0.0
 11
292.0
 21
20.0
 31
0.0
  0
LINE
  5
496
330
20
100
AcDbEntity
  8
VOLL
100
AcDbLine
 10
305.0
 20
54.99999999999992
 30
0.0
 11
304.9999999999999
 21
20.0
 31
0.0
  0
LINE
  5
497
330
20
100
AcDbEntity
  8
HILF
100
AcDbLine
 10
235.0
 20
50.0
 30
0.0
 11
283.0
 21
50.0
 31
0.0
  0
LINE
  5
498
330
20
100
AcDbEntity
  8
HILF
100
AcDbLine
 10
235.0
 20
45.0
 30
0.0
 11
283.0
 21
45.0
 31
0.0
  0
LINE
  5
499
330
20
100
AcDbEntity
  8
HILF
100
AcDbLine
 10
235.0
 20
40.0
 30
0.0
 11
283.0
 21
40.0
 31
0.0
  0
LINE
  5
49A
330
20
100
AcDbEntity
  8
HILF
100
AcDbLine
 10
235.0
 20
35.0
 30
0.0
 11
283.0
 21
35.0
 31
0.0
  0
LINE
  5
49B
330
20
100
AcDbEntity
  8
HILF
100
AcDbLine
 10
235.0
 20
30.0
 30
0.0
 11
283.0
 21
30.0
 31
0.0
  0
LINE
  5
49C
330
20
100
AcDbEntity
  8
HILF
100
AcDbLine
 10
235.0
 20
25.0
 30
0.0
 11
283.0
 21
25.0
 31
0.0
  0
LINE
  5
49D
330
20
100
AcDbEntity
  8
HILF
100
AcDbLine
 10
235.0
 20
20.0
 30
0.0
 11
283.0
 21
20.0
 31
0.0
  0
LINE
  5
49E
330
20
100
AcDbEntity
  8
HILF
100
AcDbLine
 10
283.0
 20
35.0
 30
0.0
 11
324.9999999999999
 21
35.0
 31
0.0
  0
LINE
  5
49F
330
20
100
AcDbEntity
  8
HILF
100
AcDbLine
 10
283.0
 20
30.0
 30
0.0
 11
324.9999999999999
 21
30.0
 31
0.0
  0
LINE
  5
4A0
330
20
100
AcDbEntity
  8
HILF
100
AcDbLine
 10
283.0
 20
25.0
 30
0.0
 11
324.9999999999999
 21
25.0
 31
0.0
  0
LINE
  5
4A1
330
20
100
AcDbEntity
  8
HILF
100
AcDbLine
 10
327.3868400548473
 20
42.01879123782068
 30
0.0
 11
373.3148921257405
 21
42.01879123782068
 31
0.0
  0
LINE
  5
4A2
330
20
100
AcDbEntity
  8
HILF
100
AcDbLine
 10
327.3868400548473
 20
35.0
 30
0.0
 11
373.3148921257405
 21
35.0
 31
0.0
  0
LINE
  5
4A3
330
20
100
AcDbEntity
  8
HILF
100
AcDbLine
 10
327.3868400548473
 20
30.0
 30
0.0
 11
373.3148921257405
 21
30.0
 31
0.0
  0
LINE
  5
4A4
330
20
100
AcDbEntity
  8
HILF
100
AcDbLine
 10
327.3868400548473
 20
25.0
 30
0.0
 11
373.3148921257405
 21
25.0
 31
0.0
  0
LINE
  5
4A5
330
20
100
AcDbEntity
  8
VOLL
100
AcDbLine
 10
376.0
 20
30.0
 30
0.0
 11
415.0
 21
30.0
 31
0.0
  0
LINE
  5
4A6
330
20
100
AcDbEntity
  8
HILF
100
AcDbLine
 10
378.3619308148496
 20
41.88991818477911
 30
0.0
 11
412.4294419663364
 21
41.88991818477911
 31
0.0
  0
LINE
  5
4A7
330
20
100
AcDbEntity
  8
HILF
100
AcDbLine
 10
327.3868400548473
 20
7.446991290141525
 30
0.0
 11
412.4294419663364
 21
7.446991290141525
 31
0.0
  0
TEXT
  5
4A8
330
20
100
AcDbEntity
  8
TEXT
100
AcDbText
 10
246.3266963118282
 20
9.336909474920645
 30
0.0
 40
2.0
  1
Änderung
 41
0.8
  7
GREEKS
 72
     1
 11
251.6981248832568
 21
9.336909474920645
 31
0.0
100
AcDbText
  0
TEXT
  5
4A9
330
20
100
AcDbEntity
  8
BEM
100
AcDbText
 10
286.7581786075188
 20
51.2310447543544
 30
0.0
 40
2.5
  1
Maßstab
 41
0.8
  7
GREEKS
100
AcDbText
  0
TEXT
  5
4AA
330
20
100
AcDbEntity
  8
BEM
100
AcDbText
 10
308.9823307452798
 20
51.20920842174092
 30
0.0
 40
2.5
  1
zul.Abw.
 41
0.8
  7
GREEKS
100
AcDbText
  0
TEXT
  5
4AB
330
20
100
AcDbEntity
  8
TEXT
100
AcDbText
 10
327.4389701904504
 20
51.27446640058896
 30
0.0
 40
2.5
  1
Benennung
 41
0.8
  7
GREEKS
100
AcDbText
  0
TEXT
  5
4AC
330
20
100
AcDbEntity
  8
TEXT
100
AcDbText
 10
378.089377478817
 20
51.15660172685679
 30
0.0
 40
2.5
  1
Zeichnungs Nr.
 41
0.8
  7
GREEKS
100
AcDbText
  0
TEXT
  5
4AD
330
20
100
AcDbEntity
  8
TEXT
100
AcDbText
 10
327.3711191955679
 20
15.42280285096527
 30
0.0
 40
2.5
  1
Bauvorhaben
 41
0.8
  7
GREEKS
100
AcDbText
  0
TEXT
  5
4AE
330
20
100
AcDbEntity
  8
TEXT
100
AcDbText
 10
378.3619308148496
 20
36.59059118549983
 30
0.0
 40
2.5
  1
Ersatz für:
 41
0.8
  7
GREEKS
100
AcDbText
  0
TEXT
  5
4AF
330
20
100
AcDbEntity
  8
TEXT
100
AcDbText
 10
239.1332055352287
 20
6.827329230135937
 30
0.0
 40
1.8
  1
Index
 50
90.0
 41
0.8
  7
GREEKS
100
AcDbText
  0
TEXT
  5
4B0
330
20
100
AcDbEntity
  8
TEXT
100
AcDbText
 10
264.9308591908306
 20
9.33578134669904
 30
0.0
 40
2.0
  1
Tag
 41
0.8
  7
GREEKS
 72
     1
 11
266.7975258574973
 21
9.33578134669904
 31
0.0
100
AcDbText
  0
TEXT
  5
4B1
330
20
100
AcDbEntity
  8
TEXT
100
AcDbText
 10
274.5086812872148
 20
9.296621084832022
 30
0.0
 40
2.0
  1
Name
 41
0.8
  7
GREEKS
 72
     1
 11
277.6705860491195
 21
9.296621084832022
 31
0.0
100
AcDbText
  0
TEXT
  5
4B2
330
20
100
AcDbEntity
  8
TEXT
100
AcDbText
 10
296.1655836576824
 20
36.6594025061496
 30
0.0
 40
1.8
  1
Tag
 41
0.8
  7
GREEKS
100
AcDbText
  0
TEXT
  5
4B3
330
20
100
AcDbEntity
  8
TEXT
100
AcDbText
 10
311.2313292113147
 20
36.6548054595761
 30
0.0
 40
1.8
  1
Name
 41
0.8
  7
GREEKS
100
AcDbText
  0
TEXT
  5
4B4
330
20
100
AcDbEntity
  8
TEXT
100
AcDbText
 10
283.7918063583806
 20
31.8149518480898
 30
0.0
 40
1.8
  1
Gez.
 41
0.8
  7
GREEKS
100
AcDbText
  0
TEXT
  5
4B5
330
20
100
AcDbEntity
  8
TEXT
100
AcDbText
 10
283.7757543285835
 20
26.84463145714186
 30
0.0
 40
1.8
  1
Gepr.
 41
0.8
  7
GREEKS
100
AcDbText
  0
TEXT
  5
4B6
330
20
100
AcDbEntity
  8
TEXT
100
AcDbText
 10
283.8003388693651
 20
21.76473194824902
 30
0.0
 40
1.8
  1
Norm.
 41
0.8
  7
GREEKS
100
AcDbText
  0
TEXT
  5
4B7
330
20
100
AcDbEntity
  8
TEXT
100
AcDbText
 10
311.8080450578568
 20
31.75126629375448
 30
0.0
 40
1.8
  1
Koeh
 41
0.8
  7
GREEKS
100
AcDbText
  0
TEXT
  5
4B8
330
20
100
AcDbEntity
  8
TEXT
100
AcDbText
 10
378.6200430748503
 20
26.03708088939298
 30
0.0
 40
2.5
  1
ersetzt durch:
 41
0.8
  7
GREEKS
100
AcDbText
  0
LINE
  5
4B9
330
20
100
AcDbEntity
  8
HILF
100
AcDbLine
 10
0.0
 20
0.0
 30
0.0
 11
420.0
 21
0.0
 31
0.0
  0
LINE
  5
4BA
330
20
100
AcDbEntity
  8
HILF
100
AcDbLine
 10
420.0
 20
0.0
 30
0.0
 11
420.0
 21
297.0
 31
0.0
  0
LINE
  5
4BB
330
20
100
AcDbEntity
  8
HILF
100
AcDbLine
 10
420.0
 20
297.0
 30
0.0
 11
0.0
 21
297.0
 31
0.0
  0
LINE
  5
4BC
330
20
100
AcDbEntity
  8
HILF
100
AcDbLine
 10
0.0
 20
297.0
 30
0.0
 11
0.0
 21
0.0
 31
0.0
  0
LINE
  5
4BD
330
20
100
AcDbEntity
  8
STEMPEL
100
AcDbLine
 10
415.0
 20
292.0
 30
0.0
 11
20.0
 21
292.0
 31
0.0
  0
LINE
  5
4BE
330
20
100
AcDbEntity
  8
STEMPEL
100
AcDbLine
 10
20.0
 20
5.0
 30
0.0
 11
415.0
 21
5.0
 31
0.0
  0
LINE
  5
4BF
330
20
100
AcDbEntity
  8
STEMPEL
100
AcDbLine
 10
415.0
 20
5.0
 30
0.0
 11
415.0
 21
292.0
 31
0.0
  0
LINE
  5
4C0
330
20
100
AcDbEntity
  8
STEMPEL
100
AcDbLine
 10
20.0
 20
292.0
 30
0.0
 11
20.0
 21
5.0
 31
0.0
  0
TEXT
  5
4C1
330
20
100
AcDbEntity
  8
TEXT
100
AcDbText
 10
284.2713005475914
 20
36.57291841952074
 30
0.0
 40
1.8
  1
2013
 41
0.8
  7
GREEKS
100
AcDbText
  0
TEXT
  5
4C2
330
20
100
AcDbEntity
  8
TEXT
100
AcDbText
 10
295.2882621785962
 20
31.70276617679749
 30
0.0
 40
1.8
  1
21.02.
 41
0.8
  7
GREEKS
100
AcDbText
  0
TEXT
  5
4C3
330
20
100
AcDbEntity
  8
TEXT
 62
     1
100
AcDbText
 10
289.4032155182224
 20
43.11205252186609
 30
0.0
 40
3.5
  1
1:1
  7
GREEKS
100
AcDbText
  0
TEXT
  5
4C4
330
20
100
AcDbEntity
  8
TEXT
100
AcDbText
 10
327.4105885577624
 20
36.15296550516098
 30
0.0
 40
2.5
  1
Auslauf 3%%d
 41
0.8
  7
GREEKS
100
AcDbText
  0
TEXT
  5
4C6
330
20
100
AcDbEntity
  8
TEXT
 62
     1
100
AcDbText
 10
382.6629667957844
 20
43.50931870881786
 30
0.0
 40
3.5
  1
19236050W
 41
0.8
  7
GREEKS
 72
     1
 11
394.3963001291178
 21
43.50931870881786
 31
0.0
100
AcDbText
  0
TEXT
  5
4C7
330
20
100
AcDbEntity
  8
TEXT
100
AcDbText
 10
327.4856700267283
 20
21.09752286506771
 30
0.0
 40
1.8
  1
19236050W.DWG
 41
0.8
  7
GREEKS
100
AcDbText
  0
TEXT
  5
4C8
330
20
100
AcDbEntity
  8
TEXT
100
AcDbText
 10
235.1015633051928
 20
56.79771096129536
 30
0.0
 40
2.5
  1
Erstellt mit AUTOCAD 2004
 41
0.8
  7
GREEKS
100
AcDbText
  0
DIMENSION
  5
4DC
330
20
100
AcDbEntity
  8
BEM
100
AcDbDimension
  2
*D3
 10
341.9984500619591
 20
241.6709422139661
 30
0.0
 11
195.998450061959
 21
244.9209422139661
 31
0.0
 70
    32
  1
%%C<>
 71
     5
 42
292.0
  3
Standard
100
AcDbAlignedDimension
 13
49.99845006195903
 23
218.6868843774306
 33
0.0
 14
341.9984500619591
 24
218.6868843774306
 34
0.0
100
AcDbRotatedDimension
1001
ACAD
1000
DSTYLE
1002
{
1070
    41
1040
3.5
1070
    42
1040
1.0
1070
    43
1040
7.0
1070
    44
1040
1.0
1070
    47
1040
0.2
1070
    48
1040
0.2
1070
    73
1070
     0
1070
    74
1070
     0
1070
    77
1070
     1
1070
    78
1070
     8
1070
    79
1070
     2
1070
   140
1040
3.5
1070
   141
1040
1.5
1070
   145
1040
0.5714285714285714
1070
   146
1040
0.5
1070
   147
1040
1.5
1070
   172
1070
     1
1070
   178
1070
     1
1070
   179
1070
     2
1070
   271
1070
     2
1070
   272
1070
     2
1070
   284
1070
     8
1070
   285
1070
     8
1070
   286
1070
     8
1002
}
  0
TEXT
  5
4E1
330
20
100
AcDbEntity
  8
VOLL
100
AcDbText
 10
576.5450018312136
 20
-30.64437854115025
 30
0.0
 40
1.8
  1

  7
GREEKS
100
AcDbText
  0
TEXT
  5
4E2
330
20
100
AcDbEntity
  8
TEXT
100
AcDbText
 10
908.3772700348065
 20
-25.08614300792471
 30
0.0
 40
2.5
  1
  
  7
GREEKS
 72
     1
 11
910.6391747967114
 21
-25.08614300792471
 31
0.0
100
AcDbText
  0
TEXT
  5
4E3
330
20
100
AcDbEntity
  8
BEM
100
AcDbText
 10
1152.496987347289
 20
110.4727390224775
 30
0.0
 40
2.5
  1
 
 72
     4
 11
1153.627939728241
 21
110.4727390224775
 31
0.0
100
AcDbText
  0
TEXT
  5
4E5
330
20
100
AcDbEntity
  8
VOLL
100
AcDbText
 10
734.0797189083753
 20
-25.08882290607905
 30
0.0
 40
1.8
  1

  7
GREEKS
100
AcDbText
  0
TEXT
  5
4E6
330
20
100
AcDbEntity
  8
BEM
100
AcDbText
 10
768.5677837476598
 20
-20.36309858285844
 30
0.0
 40
2.5
  1

 41
0.8
  7
GREEKS
100
AcDbText
  0
TEXT
  5
4E7
330
20
100
AcDbEntity
  8
BEM
100
AcDbText
 10
768.5677837476598
 20
-25.0568671369106
 30
0.0
 40
2.5
  1

 41
0.8
  7
GREEKS
100
AcDbText
  0
TEXT
  5
4E8
330
20
100
AcDbEntity
  8
BEM
100
AcDbText
 10
768.5677837476598
 20
-30.2947109555741
 30
0.0
 40
2.5
  1

 41
0.8
  7
GREEKS
100
AcDbText
  0
TEXT
  5
4E9
330
20
100
AcDbEntity
  8
BEM
100
AcDbText
 10
768.4948392702854
 20
-34.79989990567172
 30
0.0
 40
1.8
  1

 41
0.8
  7
GREEKS
100
AcDbText
  0
TEXT
  5
4EA
330
20
100
AcDbEntity
  8
TEXT
100
AcDbText
 10
1065.911987111968
 20
-19.53058737285349
 30
0.0
 40
2.5
  1
  
  7
GREEKS
 72
     1
 11
1068.173891873873
 21
-19.53058737285349
 31
0.0
100
AcDbText
  0
TEXT
  5
4EB
330
20
100
AcDbEntity
  8
BEM
100
AcDbText
 10
1310.03170442445
 20
116.0282946575487
 30
0.0
 40
2.5
  1
 
 72
     4
 11
1311.162656805402
 21
116.0282946575487
 31
0.0
100
AcDbText
  0
TEXT
  5
4FB
330
20
100
AcDbEntity
  8
VOLL
100
AcDbText
 10
534.4160165602213
 20
172.5724056536878
 30
0.0
 40
1.8
  1

  7
GREEKS
100
AcDbText
  0
DIMENSION
  5
504
330
20
100
AcDbEntity
  8
BEM
100
AcDbDimension
  2
*D4
 10
44.84089688755261
 20
216.6868843774306
 30
0.0
 11
41.59089688755257
 21
207.2535510440973
 31
0.0
 70
    32
 71
     5
 42
2.0
  3
Standard
100
AcDbAlignedDimension
 13
49.99845006195903
 23
218.6868843774306
 33
0.0
 14
49.99845006195903
 24
216.6868843774306
 34
0.0
 50
90.0
100
AcDbRotatedDimension
1001
ACAD
1000
DSTYLE
1002
{
1070
    41
1040
3.5
1070
    42
1040
1.0
1070
    43
1040
7.0
1070
    44
1040
1.0
1070
    47
1040
0.2
1070
    48
1040
0.2
1070
    73
1070
     0
1070
    74
1070
     0
1070
    77
1070
     1
1070
    78
1070
     8
1070
    79
1070
     2
1070
   140
1040
3.5
1070
   141
1040
1.5
1070
   145
1040
0.5714285714285714
1070
   146
1040
0.5
1070
   147
1040
1.5
1070
   172
1070
     1
1070
   178
1070
     1
1070
   179
1070
     2
1070
   271
1070
     2
1070
   272
1070
     2
1070
   284
1070
     8
1070
   285
1070
     8
1070
   286
1070
     8
1002
}
  0
TEXT
  5
507
330
20
100
AcDbEntity
  8
TEXT
 62
     1
100
AcDbText
 10
170.1670615673215
 20
175.1103745343695
 30
0.0
 40
3.5
  1
DN70
 41
0.8
  7
GREEKS
100
AcDbText
  0
TEXT
  5
514
330
20
100
AcDbEntity
  8
TEXT
100
AcDbText
 10
327.4105885577624
 20
26.15296550516098
 30
0.0
 40
2.5
  1
EDV-Art.Nr.19236.050X
 41
0.8
  7
GREEKS
100
AcDbText
  0
TEXT
  5
530
330
20
100
AcDbEntity
  8
VOLL
100
AcDbText
 10
485.18100284821
 20
287.3094900586244
 30
0.0
 40
1.8
  1

  7
GREEKS
100
AcDbText
  0
TEXT
  5
531
330
20
100
AcDbEntity
  8
TEXT
100
AcDbText
 10
817.013271051803
 20
292.8677255918499
 30
0.0
 40
2.5
  1
  
  7
GREEKS
 72
     1
 11
819.2751758137077
 21
292.8677255918499
 31
0.0
100
AcDbText
  0
TEXT
  5
532
330
20
100
AcDbEntity
  8
BEM
100
AcDbText
 10
1061.132988364285
 20
428.4266076222521
 30
0.0
 40
2.5
  1
 
 72
     4
 11
1062.263940745237
 21
428.4266076222521
 31
0.0
100
AcDbText
  0
TEXT
  5
533
330
20
100
AcDbEntity
  8
VOLL
100
AcDbText
 10
642.7157199253717
 20
292.8650456936956
 30
0.0
 40
1.8
  1

  7
GREEKS
100
AcDbText
  0
TEXT
  5
534
330
20
100
AcDbEntity
  8
BEM
100
AcDbText
 10
677.2037847646563
 20
297.5907700169162
 30
0.0
 40
2.5
  1

 41
0.8
  7
GREEKS
100
AcDbText
  0
TEXT
  5
535
330
20
100
AcDbEntity
  8
BEM
100
AcDbText
 10
677.2037847646563
 20
292.8970014628641
 30
0.0
 40
2.5
  1

 41
0.8
  7
GREEKS
100
AcDbText
  0
TEXT
  5
536
330
20
100
AcDbEntity
  8
BEM
100
AcDbText
 10
677.2037847646563
 20
287.6591576442006
 30
0.0
 40
2.5
  1

 41
0.8
  7
GREEKS
100
AcDbText
  0
TEXT
  5
537
330
20
100
AcDbEntity
  8
BEM
100
AcDbText
 10
677.1308402872818
 20
283.1539686941029
 30
0.0
 40
1.8
  1

 41
0.8
  7
GREEKS
100
AcDbText
  0
TEXT
  5
538
330
20
100
AcDbEntity
  8
TEXT
100
AcDbText
 10
974.5479881289645
 20
298.4232812269212
 30
0.0
 40
2.5
  1
  
  7
GREEKS
 72
     1
 11
976.8098928908694
 21
298.4232812269212
 31
0.0
100
AcDbText
  0
TEXT
  5
539
330
20
100
AcDbEntity
  8
BEM
100
AcDbText
 10
1218.667705441446
 20
433.9821632573233
 30
0.0
 40
2.5
  1
 
 72
     4
 11
1219.798657822399
 21
433.9821632573233
 31
0.0
100
AcDbText
  0
TEXT
  5
53A
330
20
100
AcDbEntity
  8
VOLL
100
AcDbText
 10
443.0520175772177
 20
490.5262742534624
 30
0.0
 40
1.8
  1

  7
GREEKS
100
AcDbText
  0
LINE
  5
54B
330
20
100
AcDbEntity
  8
TEXT
 62
     2
100
AcDbLine
 10
356.3892645022905
 20
240.1825814733129
 30
0.0
 11
340.7084642913093
 21
217.5250978447515
 31
0.0
  0
DIMENSION
  5
569
330
20
100
AcDbEntity
  8
BEM
100
AcDbDimension
  2
*D1
 10
381.1408599946621
 20
171.7338544889718
 30
0.0
 11
376.5084111662718
 21
145.4402636757652
 31
0.0
 70
    33
  1
%%C<>
 71
     5
 42
53.0
  3
Standard
100
AcDbAlignedDimension
 13
358.9865421388945
 23
119.8221787514334
 33
0.0
 14
361.7603478197704
 24
172.7495440934258
 34
0.0
1001
ACAD
1000
DSTYLE
1002
{
1070
    41
1040
3.5
1070
    42
1040
1.0
1070
    43
1040
7.0
1070
    44
1040
1.0
1070
    47
1040
0.2
1070
    48
1040
0.2
1070
    73
1070
     0
1070
    74
1070
     0
1070
    77
1070
     1
1070
    78
1070
     8
1070
    79
1070
     2
1070
   140
1040
3.5
1070
   141
1040
1.5
1070
   145
1040
0.5714285714285714
1070
   146
1040
0.5
1070
   147
1040
1.5
1070
   172
1070
     1
1070
   178
1070
     1
1070
   179
1070
     2
1070
   271
1070
     2
1070
   272
1070
     2
1070
   284
1070
     8
1070
   285
1070
     8
1070
   286
1070
     8
1002
}
  0
TEXT
  5
56C
330
20
100
AcDbEntity
  8
VOLL
100
AcDbText
 10
560.4703238567093
 20
57.69226750693924
 30
0.0
 40
1.8
  1

  7
GREEKS
100
AcDbText
  0
DIMENSION
  5
57F
330
20
100
AcDbEntity
  8
BEM
100
AcDbDimension
  2
*D2
 10
367.2984500619591
 20
68.13672965599026
 30
0.0
 11
281.6484500619591
 21
71.38672965599027
 31
0.0
 70
    32
  1
171
 71
     5
 42
171.3
  3
Standard
100
AcDbAlignedDimension
 13
195.998450061959
 23
121.6868843774306
 33
0.0
 14
367.2984500619591
 24
145.9229372845253
 34
0.0
100
AcDbRotatedDimension
1001
ACAD
1000
DSTYLE
1002
{
1070
    41
1040
3.5
1070
    42
1040
1.0
1070
    43
1040
7.0
1070
    44
1040
1.0
1070
    47
1040
0.2
1070
    48
1040
0.2
1070
    73
1070
     0
1070
    74
1070
     0
1070
    77
1070
     1
1070
    78
1070
     8
1070
    79
1070
     2
1070
   140
1040
3.5
1070
   141
1040
1.5
1070
   145
1040
0.5714285714285714
1070
   146
1040
0.5
1070
   147
1040
1.5
1070
   172
1070
     1
1070
   178
1070
     1
1070
   179
1070
     2
1070
   271
1070
     2
1070
   272
1070
     2
1070
   284
1070
     8
1070
   285
1070
     8
1070
   286
1070
     8
1002
}
  0
LINE
  5
580
330
20
100
AcDbEntity
  8
BEM
100
AcDbLine
 10
342.998450061959
 20
218.6868843774306
 30
0.0
 11
390.949196849419
 21
218.6868843774306
 31
0.0
  0
LINE
  5
581
330
20
100
AcDbEntity
  8
BEM
100
AcDbLine
 10
368.2984500619591
 20
145.9229372845253
 30
0.0
 11
373.8521023931619
 21
145.9229372845253
 31
0.0
  0
LINE
  5
582
330
20
100
AcDbEntity
  8
BEM
100
AcDbLine
 10
389.9491968494189
 20
215.1868843774306
 30
0.0
 11
389.9491968494189
 21
149.4229372845253
 31
0.0
  0
SOLID
  5
583
330
20
100
AcDbEntity
  8
BEM
100
AcDbTrace
 10
389.3658635160856
 20
215.1868843774306
 30
0.0
 11
390.5325301827522
 21
215.1868843774306
 31
0.0
 12
389.9491968494189
 22
218.6868843774306
 32
0.0
 13
389.9491968494189
 23
218.6868843774306
 33
0.0
  0
SOLID
  5
584
330
20
100
AcDbEntity
  8
BEM
100
AcDbTrace
 10
389.3658635160856
 20
149.4229372845253
 30
0.0
 11
390.5325301827522
 21
149.4229372845253
 31
0.0
 12
389.9491968494189
 22
145.9229372845253
 32
0.0
 13
389.9491968494189
 23
145.9229372845253
 33
0.0
  0
TEXT
  5
585
330
20
100
AcDbEntity
  8
BEM
 62
     1
100
AcDbText
 10
388.199196849419
 20
180.0382441643113
 30
0.0
 40
3.5
  1
73
 50
90.0
 41
0.8
  7
GREEKS
 72
     4
 11
386.449196849419
 21
182.3049108309779
 31
0.0
100
AcDbText
  0
POINT
  5
587
330
20
100
AcDbEntity
  8
BEM
100
AcDbPoint
 10
389.9491968494189
 20
145.9229372845253
 30
0.0
  0
LINE
  5
588
330
20
100
AcDbEntity
  8
BEM
100
AcDbLine
 10
380.8617914795994
 20
145.9229372845253
 30
0.0
 11
390.949196849419
 21
145.9229372845253
 31
0.0
  0
INSERT
  5
58D
330
20
100
AcDbEntity
  8
BEM
100
AcDbBlockReference
  2
LORO
 10
282.9999999999999
 20
5.0
 30
0.0
  0
TEXT
  5
6E6
330
20
100
AcDbEntity
  8
BEM
100
AcDbText
 10
418.6511461928582
 20
5.083950539994304
 30
0.0
 40
2.0
  1
Diese Zeichnung ist urheberrechtlich geschützt und bleibt unser Eigentum. Sie darf weder ganz noch teilweise verfielfältigt und nicht an Dritte weitergegeben werden.
 50
90.0
 41
0.8
  7
GREEKS
100
AcDbText
  0
TEXT
  5
6E7
330
20
100
AcDbEntity
  8
BEM
100
AcDbText
 10
306.9981736522005
 20
43.95228283670991
 30
0.0
 40
2.0
  1
DIN EN1123-2
 41
0.8
 72
     1
 11
315.4934117474386
 21
43.95228283670991
 31
0.0
100
AcDbText
  0
TEXT
  5
709
330
20
100
AcDbEntity
  8
TEXT
 62
     1
100
AcDbText
 10
337.541913568893
 20
152.6670420173171
 30
0.0
 40
3.5
  1
DN50
 50
357.0
 41
0.8
  7
GREEKS
100
AcDbText
  0
DIMENSION
  5
908
330
20
100
AcDbEntity
  8
BEM
100
AcDbDimension
  2
*D5
 10
195.998450061959
 20
121.6868843774306
 30
0.0
 11
215.2479021148186
 21
173.1674378025511
 31
0.0
 70
    34
 71
     5
 42
1.623156204354728
  3
Standard
100
AcDb2LineAngularDimension
 13
196.1153156490409
 23
154.8942652098167
 33
0.0
 14
372.291597735732
 24
145.6612575033106
 34
0.0
 15
195.998450061959
 25
221.6868843774306
 35
0.0
 16
216.5598848145949
 26
165.8330986621789
 36
0.0
1001
ACAD
1000
DSTYLE
1002
{
1070
    41
1040
3.5
1070
    42
1040
1.0
1070
    43
1040
7.0
1070
    44
1040
1.0
1070
    47
1040
0.2
1070
    48
1040
0.2
1070
    73
1070
     0
1070
    74
1070
     0
1070
    77
1070
     1
1070
    78
1070
     8
1070
    79
1070
     2
1070
   140
1040
3.5
1070
   141
1040
1.5
1070
   145
1040
0.5714285714285714
1070
   146
1040
0.5
1070
   147
1040
1.5
1070
   172
1070
     1
1070
   178
1070
     1
1070
   179
1070
     2
1070
   271
1070
     2
1070
   272
1070
     2
1070
   284
1070
     8
1070
   285
1070
     8
1070
   286
1070
     8
1002
}
  0
LINE
  5
931
330
20
100
AcDbEntity
  8
TEXT
 62
     2
100
AcDbLine
 10
232.060895902473
 20
198.330046700794
 30
0.0
 11
239.0219357327916
 21
227.9175481469823
 31
0.0
  0
TEXT
  5
932
330
20
100
AcDbEntity
  8
TEXT
 62
     1
100
AcDbText
 10
41.76805994383175
 20
253.2497336567746
 30
0.0
 40
3.5
  1
EDV-Art.Nr.19070.070X
 41
0.8
  7
GREEKS
100
AcDbText
  0
LINE
  5
933
330
20
100
AcDbEntity
  8
TEXT
 62
     2
100
AcDbLine
 10
41.13171633247293
 20
257.9283106854252
 30
0.0
 11
91.80805475231068
 21
257.9283106854252
 31
0.0
  0
TEXT
  5
934
330
20
100
AcDbEntity
  8
TEXT
 62
     1
100
AcDbText
 10
41.76805994383175
 20
259.693365592127
 30
0.0
 40
3.5
  1
Losflansch
 41
0.8
  7
GREEKS
100
AcDbText
  0
TEXT
  5
935
330
20
100
AcDbEntity
  8
TEXT
 62
     1
100
AcDbText
 10
250.4852019405344
 20
269.2581860326096
 30
0.0
 40
3.5
  1
U-Scheibe A8.4 DIN 125, 1.4401
 41
0.8
  7
GREEKS
100
AcDbText
  0
LINE
  5
936
330
20
100
AcDbEntity
  8
TEXT
 62
     2
100
AcDbLine
 10
249.8488583291756
 20
273.9367630612601
 30
0.0
 11
336.4712705827183
 21
273.9367630612601
 31
0.0
  0
TEXT
  5
937
330
20
100
AcDbEntity
  8
TEXT
 62
     1
100
AcDbText
 10
250.4852019405344
 20
275.701817967962
 30
0.0
 40
3.5
  1
Sechskantmutter M8 DIN 934,  1.4401
 41
0.8
  7
GREEKS
100
AcDbText
  0
LINE
  5
938
330
20
100
AcDbEntity
  8
TEXT
 62
     2
100
AcDbLine
 10
91.80805475231068
 20
257.9283106854252
 30
0.0
 11
96.65096745823138
 21
242.9484832377589
 31
0.0
  0
TEXT
  5
939
330
20
100
AcDbEntity
  8
TEXT
 62
     1
100
AcDbText
 10
292.0688126499092
 20
258.0663478875719
 30
0.0
 40
3.5
  1
Flanschdichtring DN70
 41
0.8
  7
GREEKS
100
AcDbText
  0
LINE
  5
93A
330
20
100
AcDbEntity
  8
TEXT
 62
     2
100
AcDbLine
 10
291.4324690385504
 20
256.3012929808699
 30
0.0
 11
342.4644383111629
 21
256.3012929808699
 31
0.0
  0
TEXT
  5
93B
330
20
100
AcDbEntity
  8
TEXT
 62
     1
100
AcDbText
 10
292.0688126499092
 20
251.6227159522194
 30
0.0
 40
3.5
  1
EDV-Art.Nr.19088.070X
 41
0.8
  7
GREEKS
100
AcDbText
  0
LINE
  5
93C
330
20
100
AcDbEntity
  8
TEXT
 62
     2
100
AcDbLine
 10
291.4324690385504
 20
256.3012929808699
 30
0.0
 11
287.2527735090514
 21
243.066621963865
 31
0.0
  0
TEXT
  5
93D
330
20
100
AcDbEntity
  8
TEXT
 62
     1
100
AcDbText
 10
357.0256081136494
 20
235.5040044446624
 30
0.0
 40
3.5
  1
EDV-Art.Nr.19006.050X
 41
0.8
  7
GREEKS
100
AcDbText
  0
LINE
  5
93E
330
20
100
AcDbEntity
  8
TEXT
 62
     2
100
AcDbLine
 10
356.3892645022905
 20
240.1825814733129
 30
0.0
 11
407.421233774903
 21
240.1825814733129
 31
0.0
  0
TEXT
  5
93F
330
20
100
AcDbEntity
  8
TEXT
 62
     1
100
AcDbText
 10
357.0256081136494
 20
241.9476363800148
 30
0.0
 40
3.5
  1
Ablauftorf DN50
 41
0.8
  7
GREEKS
100
AcDbText
  0
LINE
  5
941
330
20
100
AcDbEntity
  8
TEXT
 62
     2
100
AcDbLine
 10
97.55812228213235
 20
240.1425225369307
 30
0.0
 11
105.5134799919005
 21
215.5354538133712
 31
0.0
  0
HATCH
  5
985
330
20
100
AcDbEntity
  8
SCHRAFF
100
AcDbHatch
 10
0.0
 20
0.0
 30
0.0
210
0.0
220
0.0
230
1.0
  2
HONEY
 70
     0
 71
     0
 91
        2
 92
        7
 72
     1
 73
     1
 93
       10
 10
324.2610773423565
 20
174.7147975838811
 42
0.0
 10
325.0984526422435
 20
190.6928701399543
 42
0.0
 10
340.6033784090607
 20
190.3809775855659
 42
0.0
 10
341.9820125660491
 20
216.6868843774306
 42
0.0
 10
314.498450061959
 20
216.6868843774306
 42
0.1324846866320397
 10
295.3908839823562
 20
211.5335115789198
 42
0.0
 10
258.6209861951413
 20
190.1436974162772
 42
-0.5718485723578051
 10
255.998450061959
 20
185.6868843774306
 42
0.0
 10
255.998450061959
 20
181.2922902876727
 42
-0.42963390596684
 10
258.9943386662227
 20
178.1352824189439
 42
0.0
 97
        0
 92
        7
 72
     1
 73
     1
 93
       15
 10
335.2738168178198
 20
88.68688437743061
 42
0.0
 10
336.1024861721676
 20
104.4988375966727
 42
0.0
 10
320.6498963615932
 20
105.8093596858156
 42
0.0
 10
321.4872716614804
 20
121.7874322418888
 42
0.0
 10
226.6108083926727
 20
126.759696988036
 42
-0.0098113512637501
 10
225.7687713161361
 20
126.7068311017372
 42
-0.4460439066462858
 10
219.7508602762027
 20
126.6868843774306
 42
0.0
 10
167.1540398582471
 20
126.6868843774306
 42
-0.2149364488769877
 10
151.0461224717586
 20
133.9466246371707
 42
-0.1829859490764163
 10
135.998450061959
 20
173.6868843774306
 42
0.0
 10
135.998450061959
 20
185.6868843774305
 42
-0.5718485723578054
 10
133.3759139287769
 20
190.1436974162772
 42
0.0
 10
96.9820125660491
 20
211.3147866400542
 42
0.0
 10
100.9254201997863
 20
136.0700865652834
 42
0.3989595459737192
 10
150.856896937515
 20
88.6868843774306
 42
0.0
 97
        0
 75
     0
 76
     1
 52
0.0
 41
30.0
 77
     0
 78
     3
 53
0.0
 43
0.0
 44
0.0
 45
5.625
 46
3.247595249999999
 79
     2
 49
3.75
 49
-7.5
 53
120.0
 43
0.0
 44
0.0
 45
-5.624999987709673
 46
3.247595271287468
 79
     2
 49
3.749999999999998
 49
-7.499999999999997
 53
60.0
 43
0.0
 44
0.0
 45
0.0000000122903263
 46
6.495190521287468
 79
     2
 49
-7.5
 49
3.75
 47
0.3152467930968907
 98
        2
 10
304.6232585169536
 20
189.8966558891236
 10
244.6922487179771
 20
96.89885195400472
  0
LINE
  5
986
102
{ACAD_REACTORS
330
9C2
102
}
330
20
100
AcDbEntity
  8
STEMPEL
100
AcDbLine
 10
96.9820125660491
 20
211.3147866400543
 30
0.0
 11
100.9254201997863
 21
136.0700865652834
 31
0.0
  0
ARC
  5
987
330
20
100
AcDbEntity
  8
STEMPEL
100
AcDbCircle
 10
150.856896937515
 20
138.6868843774306
 30
0.0
 40
50.0
100
AcDbArc
 50
183.0000000000007
 51
270.0
  0
LINE
  5
988
102
{ACAD_REACTORS
330
A27
102
}
330
20
100
AcDbEntity
  8
STEMPEL
100
AcDbLine
 10
150.856896937515
 20
88.6868843774306
 30
0.0
 11
335.2738168178198
 21
88.68688437743061
 31
0.0
  0
HATCH
  5
989
330
20
100
AcDbEntity
  8
SCHRAFF
100
AcDbHatch
 10
0.0
 20
0.0
 30
0.0
210
0.0
220
0.0
230
1.0
  2
NET
 70
     0
 71
     0
 91
        2
 92
        7
 72
     1
 73
     1
 93
       14
 10
325.0984526422435
 20
190.6928701399543
 42
0.0
 10
324.8367728610288
 20
185.6997224661814
 42
0.0
 10
328.8312910000471
 20
185.4903786412097
 42
-1.0
 10
328.5172752625894
 20
179.4986014326823
 42
0.0
 10
324.5227571235711
 20
179.707945257654
 42
0.0
 10
324.2610773423565
 20
174.7147975838811
 42
0.0
 10
334.2473726899021
 20
174.1914380214517
 42
0.0
 10
334.456716514874
 20
178.18595616047
 42
0.0
 10
340.6316695702515
 20
181.3671437946532
 42
0.0
 10
340.8671813733448
 20
185.860976701049
 42
0.0
 10
342.864440442854
 20
185.7563047885631
 42
0.0
 10
343.1784561803116
 20
191.7480819970904
 42
0.0
 10
340.6818823434251
 20
191.8789218876977
 42
0.0
 10
340.6033784090607
 20
190.3809775855659
 42
0.0
 97
        0
 92
        7
 72
     1
 73
     1
 93
       14
 10
324.9060942818263
 20
110.5931635346167
 42
0.0
 10
320.911576142808
 20
110.8025073595884
 42
0.0
 10
320.6498963615932
 20
105.8093596858156
 42
0.0
 10
336.1024861721675
 20
104.4988375966726
 42
0.0
 10
336.0239822378032
 20
103.0008932945408
 42
0.0
 10
338.5205560746895
 20
102.8700534039334
 42
0.0
 10
338.8345718121473
 20
108.8618306124609
 42
0.0
 10
336.8373127426381
 20
108.9665025249467
 42
0.0
 10
337.0728245457313
 20
113.4603354313423
 42
0.0
 10
331.2642231840536
 20
117.2695545404414
 42
0.0
 10
331.4735670090254
 20
121.2640726794594
 42
0.0
 10
321.4872716614804
 20
121.7874322418888
 42
0.0
 10
321.2255918802657
 20
116.7942845681159
 42
0.0
 10
325.220110019284
 20
116.5849407431441
 42
-1.0
 97
        0
 75
     0
 76
     1
 52
42.0
 41
15.0
 77
     0
 78
     2
 53
42.0
 43
0.0
 44
0.0
 45
-1.254619886922859
 46
1.393396547770114
 79
     0
 53
132.0
 43
0.0
 44
0.0
 45
-1.393396547770114
 46
-1.254619886922859
 79
     0
 47
0.3152467930968907
 98
        2
 10
335.2196158236469
 20
187.6899283089815
 10
326.3876777558293
 20
118.0203867499301
  0
LINE
  5
98A
330
20
100
AcDbEntity
  8
STEMPEL
100
AcDbLine
 10
334.2473726899021
 20
174.1914380214517
 30
0.0
 11
334.456716514874
 21
178.18595616047
 31
0.0
  0
LINE
  5
98B
330
20
100
AcDbEntity
  8
STEMPEL
100
AcDbLine
 10
320.6498963615933
 20
105.8093596858156
 30
0.0
 11
321.4872716614804
 21
121.7874322418888
 31
0.0
  0
LINE
  5
98C
330
20
100
AcDbEntity
  8
STEMPEL
100
AcDbLine
 10
338.5205560746896
 20
102.8700534039334
 30
0.0
 11
339.4626032870626
 21
120.8453850295158
 31
0.0
  0
LINE
  5
98D
330
20
100
AcDbEntity
  8
STEMPEL
100
AcDbLine
 10
336.0239822378031
 20
103.0008932945408
 30
0.0
 11
338.5205560746896
 21
102.8700534039334
 31
0.0
  0
LINE
  5
98E
330
20
100
AcDbEntity
  8
STEMPEL
100
AcDbLine
 10
320.6498963615933
 20
105.8093596858156
 30
0.0
 11
336.1024861721676
 21
104.4988375966726
 31
0.0
  0
LINE
  5
98F
330
20
100
AcDbEntity
  8
STEMPEL
100
AcDbLine
 10
324.9060942818263
 20
110.5931635346167
 30
0.0
 11
320.911576142808
 21
110.8025073595884
 31
0.0
  0
LINE
  5
990
330
20
100
AcDbEntity
  8
STEMPEL
100
AcDbLine
 10
325.220110019284
 20
116.5849407431441
 30
0.0
 11
321.2255918802657
 21
116.7942845681159
 31
0.0
  0
ARC
  5
991
330
20
100
AcDbEntity
  8
STEMPEL
100
AcDbCircle
 10
325.0631021505551
 20
113.5890521388804
 30
0.0
 40
3.0
100
AcDbArc
 50
266.9999999999977
 51
86.99999999999766
  0
LINE
  5
992
330
20
100
AcDbEntity
  8
STEMPEL
100
AcDbLine
 10
336.8373127426381
 20
108.9665025249467
 30
0.0
 11
337.4653442175534
 21
120.9500569420017
 31
0.0
  0
LINE
  5
993
330
20
100
AcDbEntity
  8
STEMPEL
100
AcDbLine
 10
336.8373127426381
 20
108.9665025249467
 30
0.0
 11
338.8345718121473
 21
108.8618306124609
 31
0.0
  0
LINE
  5
994
330
20
100
AcDbEntity
  8
STEMPEL
100
AcDbLine
 10
331.2642231840543
 20
117.269554540441
 30
0.0
 11
337.0728245457314
 21
113.4603354313423
 31
0.0
  0
LINE
  5
995
102
{ACAD_REACTORS
330
9E3
102
}
330
20
100
AcDbEntity
  8
STEMPEL
100
AcDbLine
 10
336.1024861721676
 20
104.4988375966726
 30
0.0
 11
335.2738168178198
 21
88.68688437743061
 31
0.0
  0
LINE
  5
996
330
20
100
AcDbEntity
  8
STEMPEL
100
AcDbLine
 10
341.9820125660491
 20
216.6868843774306
 30
0.0
 11
340.6033784090607
 21
190.3809775855659
 31
0.0
  0
LINE
  5
997
330
20
100
AcDbEntity
  8
STEMPEL
100
AcDbLine
 10
340.6818823434252
 20
191.8789218876977
 30
0.0
 11
343.1784561803116
 21
191.7480819970904
 31
0.0
  0
LINE
  5
998
330
20
100
AcDbEntity
  8
STEMPEL
100
AcDbLine
 10
325.0984526422435
 20
190.6928701399543
 30
0.0
 11
340.6033784090607
 21
190.3809775855659
 31
0.0
  0
LINE
  5
999
330
20
100
AcDbEntity
  8
STEMPEL
100
AcDbLine
 10
328.8312910000471
 20
185.4903786412097
 30
0.0
 11
324.8367728610288
 21
185.6997224661814
 31
0.0
  0
LINE
  5
99A
330
20
100
AcDbEntity
  8
STEMPEL
100
AcDbLine
 10
328.5172752625895
 20
179.4986014326823
 30
0.0
 11
324.5227571235712
 21
179.707945257654
 31
0.0
  0
ARC
  5
99B
330
20
100
AcDbEntity
  8
STEMPEL
100
AcDbCircle
 10
328.6742831313183
 20
182.494490036946
 30
0.0
 40
3.0
100
AcDbArc
 50
266.9999999999977
 51
86.99999999999766
  0
LINE
  5
99C
330
20
100
AcDbEntity
  8
STEMPEL
100
AcDbLine
 10
334.456716514874
 20
178.18595616047
 30
0.0
 11
340.6316695702517
 21
181.3671437946533
 31
0.0
  0
LINE
  5
99D
330
20
100
AcDbEntity
  8
STEMPEL
100
AcDbLine
 10
340.8671813733448
 20
185.860976701049
 30
0.0
 11
342.8644404428541
 21
185.756304788563
 31
0.0
  0
LINE
  5
99E
330
20
100
AcDbEntity
  8
STEMPEL
100
AcDbLine
 10
342.2364089679386
 20
173.7727503715082
 30
0.0
 11
343.1784561803116
 21
191.7480819970904
 31
0.0
  0
LINE
  5
99F
330
20
100
AcDbEntity
  8
STEMPEL
100
AcDbLine
 10
340.2391498984294
 20
173.877422283994
 30
0.0
 11
340.8671813733448
 21
185.860976701049
 31
0.0
  0
LINE
  5
9A0
330
20
100
AcDbEntity
  8
STEMPEL
100
AcDbLine
 10
331.2642231840537
 20
117.2695545404414
 30
0.0
 11
331.4735670090254
 21
121.2640726794593
 31
0.0
  0
LINE
  5
9A1
330
20
100
AcDbEntity
  8
STEMPEL
100
AcDbLine
 10
324.2610773423564
 20
174.7147975838812
 30
0.0
 11
325.0984526422435
 21
190.6928701399543
 31
0.0
  0
DIMENSION
  5
9AB
102
{ACAD_XDICTIONARY
360
9B8
102
}
102
{ACAD_REACTORS
330
9C2
102
}
330
20
100
AcDbEntity
  8
BEM
100
AcDbDimension
  2
*D6
 10
96.9820125660491
 20
230.2206845172539
 30
0.0
 11
219.490231314004
 21
233.4706845172539
 31
0.0
 70
    32
  1
245
 71
     5
 42
245.0164374959099
  3
Standard
100
AcDbAlignedDimension
 13
341.9984500619591
 23
218.6868843774306
 33
0.0
 14
96.9820125660491
 24
211.3147866400543
 34
0.0
100
AcDbRotatedDimension
1001
ACAD
1000
DSTYLE
1002
{
1070
    41
1040
3.5
1070
    42
1040
1.0
1070
    43
1040
7.0
1070
    44
1040
1.0
1070
    47
1040
0.2
1070
    48
1040
0.2
1070
    73
1070
     0
1070
    74
1070
     0
1070
    77
1070
     1
1070
    78
1070
     8
1070
    79
1070
     2
1070
   140
1040
3.5
1070
   141
1040
1.5
1070
   145
1040
0.5714285714285714
1070
   146
1040
0.5
1070
   147
1040
1.5
1070
   172
1070
     1
1070
   178
1070
     1
1070
   179
1070
     2
1070
   271
1070
     2
1070
   272
1070
     2
1070
   284
1070
     8
1070
   285
1070
     8
1070
   286
1070
     8
1002
}
  0
DIMENSION
  5
9CC
102
{ACAD_XDICTIONARY
360
9D9
102
}
102
{ACAD_REACTORS
330
9E3
102
}
330
20
100
AcDbEntity
  8
BEM
100
AcDbDimension
  2
*D7
 10
334.7859988459626
 20
79.3787629776902
 30
0.0
 11
349.4288495894246
 21
81.86582381234556
 31
0.0
 70
    32
  1
29
 71
     5
 42
28.98524103681604
 51
3.000000000000016
  3
Standard
100
AcDbAlignedDimension
 13
365.9432989693077
 23
120.0651140531183
 33
0.0
 14
335.2738168178199
 24
88.68688437743058
 34
0.0
 50
357.0
100
AcDbRotatedDimension
1001
ACAD
1000
DSTYLE
1002
{
1070
    41
1040
3.5
1070
    42
1040
1.0
1070
    43
1040
7.0
1070
    44
1040
1.0
1070
    47
1040
0.2
1070
    48
1040
0.2
1070
    73
1070
     0
1070
    74
1070
     0
1070
    77
1070
     1
1070
    78
1070
     8
1070
    79
1070
     2
1070
   140
1040
3.5
1070
   141
1040
1.5
1070
   145
1040
0.5714285714285714
1070
   146
1040
0.5
1070
   147
1040
1.5
1070
   172
1070
     1
1070
   178
1070
     1
1070
   179
1070
     2
1070
   271
1070
     2
1070
   272
1070
     2
1070
   284
1070
     8
1070
   285
1070
     8
1070
   286
1070
     8
1002
}
  0
TEXT
  5
9ED
330
20
100
AcDbEntity
  8
TEXT
100
AcDbText
 10
327.4105885577624
 20
31.15296550516098
 30
0.0
 40
2.5
  1
mit Wärmedämmung
 41
0.8
  7
GREEKS
100
AcDbText
  0
LINE
  5
A02
330
20
100
AcDbEntity
  8
TEXT
 62
     2
100
AcDbLine
 10
286.4321243616032
 20
240.4681021888698
 30
0.0
 11
283.6650463220881
 21
231.7063712750029
 31
0.0
  0
LINE
  5
A03
330
20
100
AcDbEntity
  8
TEXT
 62
     2
100
AcDbLine
 10
282.6811512696811
 20
228.5909464212158
 30
0.0
 11
274.5392821552619
 21
202.810370196859
 31
0.0
  0
LINE
  5
A04
330
20
100
AcDbEntity
  8
TEXT
 62
     2
100
AcDbLine
 10
242.8034887842074
 20
243.9908229888072
 30
0.0
 11
249.8488583291756
 21
273.9367630612601
 31
0.0
  0
LINE
  5
A05
330
20
100
AcDbEntity
  8
TEXT
 62
     2
100
AcDbLine
 10
240.0701784345208
 20
232.3730437639278
 30
0.0
 11
241.6714875811695
 21
239.1793166552142
 31
0.0
  0
DIMENSION
  5
A10
102
{ACAD_XDICTIONARY
360
A1D
102
}
102
{ACAD_REACTORS
330
A27
102
}
330
20
100
AcDbEntity
  8
BEM
100
AcDbDimension
  2
*D8
 10
35.82964165277804
 20
88.68688437743061
 30
0.0
 11
32.57964165277802
 21
153.6868843774306
 31
0.0
 70
    32
 71
     5
 42
130.0
  3
Standard
100
AcDbAlignedDimension
 13
49.99845006195903
 23
218.6868843774306
 33
0.0
 14
150.856896937515
 24
88.6868843774306
 34
0.0
 50
90.0
100
AcDbRotatedDimension
1001
ACAD
1000
DSTYLE
1002
{
1070
    41
1040
3.5
1070
    42
1040
1.0
1070
    43
1040
7.0
1070
    44
1040
1.0
1070
    47
1040
0.2
1070
    48
1040
0.2
1070
    73
1070
     0
1070
    74
1070
     0
1070
    77
1070
     1
1070
    78
1070
     8
1070
    79
1070
     2
1070
   140
1040
3.5
1070
   141
1040
1.5
1070
   145
1040
0.5714285714285714
1070
   146
1040
0.5
1070
   147
1040
1.5
1070
   172
1070
     1
1070
   178
1070
     1
1070
   179
1070
     2
1070
   271
1070
     2
1070
   272
1070
     2
1070
   284
1070
     8
1070
   285
1070
     8
1070
   286
1070
     8
1002
}
  0
HATCH
  5
B82
330
20
100
AcDbEntity
  8
SCHRAFF
100
AcDbHatch
 10
0.0
 20
0.0
 30
0.0
210
0.0
220
0.0
230
1.0
  2
_USER
 70
     0
 71
     0
 91
        2
 92
        7
 72
     1
 73
     1
 93
        3
 10
239.2337823059351
 20
188.6868843774306
 42
0.0
 10
235.233782305935
 20
188.6868843774306
 42
-0.0407178024160013
 10
236.6453585940166
 20
184.9442312565913
 42
0.3121143469966602
 97
        0
 92
        7
 72
     1
 73
     1
 93
        3
 10
152.7631178179829
 20
188.6868843774306
 42
0.3121143469966569
 10
155.3515415299012
 20
184.9442312565913
 42
-0.0407178024160017
 10
156.7631178179829
 20
188.6868843774306
 42
0.0
 97
        0
 75
     0
 76
     0
 52
0.0
 41
0.1
 77
     0
 78
     1
 53
0.0
 43
16.59149947434963
 44
-35.59708579274584
 45
0.0
 46
0.1
 79
     0
 47
0.1692858034627372
 98
        2
 10
237.7291787210541
 20
187.1907768860756
 10
154.7511576696091
 20
188.0372057571821
  0
ARC
  5
B83
330
20
100
AcDbEntity
  8
SCHRAFF
100
AcDbCircle
 10
156.7631178179829
 20
188.6868843774303
 30
0.0
 40
4.0
100
AcDbArc
 50
179.9999999999935
 51
249.3355679969586
  0
ARC
  5
B84
330
20
100
AcDbEntity
  8
SCHRAFF
100
AcDbCircle
 10
235.2337823059351
 20
188.6868843774304
 30
0.0
 40
4.0
100
AcDbArc
 50
290.6644320030414
 51
0.0
  0
LINE
  5
B85
330
20
100
AcDbEntity
  8
STEMPEL
100
AcDbLine
 10
155.598450061959
 20
178.163101787506
 30
0.0
 11
155.598450061959
 21
169.0568843774306
 31
0.0
  0
ARC
  5
B86
330
20
100
AcDbEntity
  8
STEMPEL
100
AcDbCircle
 10
178.9984500619589
 20
178.163101787506
 30
0.0
 40
23.4
100
AcDbArc
 50
153.273361889139
 51
180.0
  0
ARC
  5
B87
330
20
100
AcDbEntity
  8
STEMPEL
100
AcDbCircle
 10
178.9984500619589
 20
178.163101787506
 30
0.0
 40
24.6
100
AcDbArc
 50
154.6722275782257
 51
180.0
  0
LINE
  5
B88
330
20
100
AcDbEntity
  8
STEMPEL
100
AcDbLine
 10
154.3984500619589
 20
178.163101787506
 30
0.0
 11
154.3984500619589
 21
169.0568843774306
 31
0.0
  0
LINE
  5
B89
330
20
100
AcDbEntity
  8
STEMPEL
100
AcDbLine
 10
237.598450061959
 20
178.163101787506
 30
0.0
 11
237.598450061959
 21
169.0568843774306
 31
0.0
  0
ARC
  5
B8A
330
20
100
AcDbEntity
  8
STEMPEL
100
AcDbCircle
 10
212.998450061959
 20
178.163101787506
 30
0.0
 40
24.6
100
AcDbArc
 50
0.0
 51
25.32777242177427
  0
ARC
  5
B8B
330
20
100
AcDbEntity
  8
STEMPEL
100
AcDbCircle
 10
210.6591485256369
 20
169.4663689770491
 30
0.0
 40
25.7425585600001
100
AcDbArc
 50
322.1952425834786
 51
359.0885626690254
  0
ARC
  5
B8C
330
20
100
AcDbEntity
  8
STEMPEL
100
AcDbCircle
 10
212.998450061959
 20
178.163101787506
 30
0.0
 40
23.4
100
AcDbArc
 50
0.0
 51
26.726638110861
  0
LINE
  5
B8D
330
20
100
AcDbEntity
  8
STEMPEL
100
AcDbLine
 10
236.398450061959
 20
178.163101787506
 30
0.0
 11
236.398450061959
 21
169.0568843774306
 31
0.0
  0
LINE
  5
B8E
330
20
100
AcDbEntity
  8
STEMPEL
100
AcDbLine
 10
341.998450061959
 20
218.6868843774306
 30
0.0
 11
49.99845006195897
 21
218.6868843774306
 31
0.0
  0
LINE
  5
B8F
330
20
100
AcDbEntity
  8
MITTEL
100
AcDbLine
 10
195.9984500619589
 20
223.6868843774306
 30
0.0
 11
195.9984500619591
 21
121.6868843774306
 31
0.0
  0
LINE
  5
B90
330
20
100
AcDbEntity
  8
STEMPEL
100
AcDbLine
 10
341.998450061959
 20
216.6868843774306
 30
0.0
 11
341.998450061959
 21
218.6868843774306
 31
0.0
  0
LINE
  5
B91
330
20
100
AcDbEntity
  8
STEMPEL
100
AcDbLine
 10
341.998450061959
 20
216.6868843774306
 30
0.0
 11
314.498450061959
 21
216.6868843774306
 31
0.0
  0
LINE
  5
B92
330
20
100
AcDbEntity
  8
STEMPEL
100
AcDbLine
 10
254.498450061959
 20
190.6868843774305
 30
0.0
 11
137.4984500619591
 21
190.6868843774304
 31
0.0
  0
LINE
  5
B93
330
20
100
AcDbEntity
  8
STEMPEL
100
AcDbLine
 10
233.7984500619592
 20
188.6868843774304
 30
0.0
 11
233.798450061959
 21
190.6868843774304
 31
0.0
  0
LINE
  5
B94
330
20
100
AcDbEntity
  8
MITTEL
100
AcDbLine
 10
246.998450061959
 20
215.6868843774306
 30
0.0
 11
246.998450061959
 21
188.6868843774306
 31
0.0
  0
ARC
  5
B95
330
20
100
AcDbEntity
  8
STEMPEL
100
AcDbCircle
 10
314.498450061959
 20
178.6868843774305
 30
0.0
 40
38.0
100
AcDbArc
 50
90.0
 51
120.1874540748214
  0
ARC
  5
B96
330
20
100
AcDbEntity
  8
STEMPEL
100
AcDbCircle
 10
314.498450061959
 20
178.6868843774305
 30
0.0
 40
40.0
100
AcDbArc
 50
90.0
 51
120.1874540748214
  0
ARC
  5
B97
330
20
100
AcDbEntity
  8
STEMPEL
100
AcDbCircle
 10
254.498450061959
 20
194.6868843774305
 30
0.0
 40
4.0
100
AcDbArc
 50
270.0
 51
300.1874540748215
  0
ARC
  5
B98
330
20
100
AcDbEntity
  8
STEMPEL
100
AcDbCircle
 10
254.498450061959
 20
194.6868843774305
 30
0.0
 40
6.0
100
AcDbArc
 50
270.0
 51
300.1874540748215
  0
LINE
  5
B99
330
20
100
AcDbEntity
  8
STEMPEL
100
AcDbLine
 10
295.3908839823562
 20
211.5335115789197
 30
0.0
 11
257.515434179791
 21
189.5005748193005
 31
0.0
  0
LINE
  5
B9A
330
20
100
AcDbEntity
  8
STEMPEL
100
AcDbLine
 10
96.60601614156195
 20
211.5335115789196
 30
0.0
 11
134.481465944127
 21
189.5005748193007
 31
0.0
  0
ARC
  5
B9B
330
20
100
AcDbEntity
  8
STEMPEL
100
AcDbCircle
 10
137.4984500619591
 20
194.6868843774304
 30
0.0
 40
6.0
100
AcDbArc
 50
239.8125459251785
 51
270.0
  0
ARC
  5
B9C
330
20
100
AcDbEntity
  8
STEMPEL
100
AcDbCircle
 10
137.4984500619591
 20
194.6868843774304
 30
0.0
 40
4.0
100
AcDbArc
 50
239.8125459251785
 51
270.0
  0
ARC
  5
B9D
330
20
100
AcDbEntity
  8
STEMPEL
100
AcDbCircle
 10
77.49845006195897
 20
178.6868843774303
 30
0.0
 40
40.0
100
AcDbArc
 50
59.81254592517853
 51
90.0
  0
ARC
  5
B9E
330
20
100
AcDbEntity
  8
STEMPEL
100
AcDbCircle
 10
77.49845006195897
 20
178.6868843774303
 30
0.0
 40
38.0
100
AcDbArc
 50
59.81254592517853
 51
90.0
  0
LINE
  5
B9F
330
20
100
AcDbEntity
  8
MITTEL
100
AcDbLine
 10
144.9984500619589
 20
215.6868843774306
 30
0.0
 11
144.9984500619589
 21
188.6868843774304
 31
0.0
  0
LINE
  5
BA0
330
20
100
AcDbEntity
  8
STEMPEL
100
AcDbLine
 10
158.198450061959
 20
188.6868843774304
 30
0.0
 11
158.198450061959
 21
190.6868843774304
 31
0.0
  0
LINE
  5
BA1
330
20
100
AcDbEntity
  8
STEMPEL
100
AcDbLine
 10
49.99845006195897
 20
216.6868843774303
 30
0.0
 11
49.99845006195897
 21
218.6868843774303
 31
0.0
  0
LINE
  5
BA2
330
20
100
AcDbEntity
  8
STEMPEL
100
AcDbLine
 10
77.49845006195897
 20
216.6868843774306
 30
0.0
 11
49.99845006195897
 21
216.6868843774306
 31
0.0
  0
LINE
  5
BA3
102
{ACAD_REACTORS
330
C52
102
}
330
20
100
AcDbEntity
  8
STEMPEL
100
AcDbLine
 10
294.3852226097456
 20
213.2622814316298
 30
0.0
 11
256.5097728071803
 21
191.2293446720107
 31
0.0
  0
LINE
  5
BA4
102
{ACAD_REACTORS
330
C52
102
}
330
20
100
AcDbEntity
  8
STEMPEL
100
AcDbLine
 10
97.61167751417254
 20
213.2622814316296
 30
0.0
 11
135.4871273167377
 21
191.2293446720106
 31
0.0
  0
LINE
  5
BA5
330
20
100
AcDbEntity
  8
STEMPEL
100
AcDbLine
 10
254.498450061959
 20
188.6868843774306
 30
0.0
 11
137.4984500619591
 21
188.6868843774306
 31
0.0
  0
LINE
  5
BA6
330
20
100
AcDbEntity
  8
STEMPEL
100
AcDbLine
 10
140.9984500619589
 20
209.6868843774305
 30
0.0
 11
140.9984500619589
 21
204.7662668208698
 31
0.0
  0
LINE
  5
BA7
330
20
100
AcDbEntity
  8
STEMPEL
100
AcDbLine
 10
148.9984500619589
 20
209.6868843774306
 30
0.0
 11
148.9984500619589
 21
204.7662668208698
 31
0.0
  0
LINE
  5
BA8
330
20
100
AcDbEntity
  8
HILF
100
AcDbLine
 10
147.998450061959
 20
210.6868843774306
 30
0.0
 11
147.998450061959
 21
204.7662668208698
 31
0.0
  0
LINE
  5
BA9
330
20
100
AcDbEntity
  8
HILF
100
AcDbLine
 10
141.9984500619589
 20
210.6868843774305
 30
0.0
 11
141.9984500619589
 21
204.7662668208698
 31
0.0
  0
LINE
  5
BAA
330
20
100
AcDbEntity
  8
STEMPEL
100
AcDbLine
 10
148.9984500619589
 20
209.6868843774305
 30
0.0
 11
147.998450061959
 21
210.6868843774305
 31
0.0
  0
LINE
  5
BAB
330
20
100
AcDbEntity
  8
STEMPEL
100
AcDbLine
 10
147.998450061959
 20
210.6868843774305
 30
0.0
 11
141.9984500619589
 21
210.6868843774305
 31
0.0
  0
LINE
  5
BAC
330
20
100
AcDbEntity
  8
STEMPEL
100
AcDbLine
 10
141.9984500619589
 20
210.6868843774305
 30
0.0
 11
140.9984500619589
 21
209.6868843774305
 31
0.0
  0
LINE
  5
BAD
330
20
100
AcDbEntity
  8
STEMPEL
100
AcDbLine
 10
140.9984500619589
 20
209.6868843774305
 30
0.0
 11
148.9984500619589
 21
209.6868843774305
 31
0.0
  0
LINE
  5
BAE
330
20
100
AcDbEntity
  8
STEMPEL
100
AcDbLine
 10
242.9984500619591
 20
209.6868843774306
 30
0.0
 11
250.9984500619591
 21
209.6868843774306
 31
0.0
  0
LINE
  5
BAF
330
20
100
AcDbEntity
  8
STEMPEL
100
AcDbLine
 10
243.9984500619591
 20
210.6868843774306
 30
0.0
 11
242.9984500619591
 21
209.6868843774306
 31
0.0
  0
LINE
  5
BB0
330
20
100
AcDbEntity
  8
STEMPEL
100
AcDbLine
 10
249.9984500619591
 20
210.6868843774306
 30
0.0
 11
243.9984500619591
 21
210.6868843774306
 31
0.0
  0
LINE
  5
BB1
330
20
100
AcDbEntity
  8
STEMPEL
100
AcDbLine
 10
250.9984500619591
 20
209.6868843774306
 30
0.0
 11
249.9984500619591
 21
210.6868843774306
 31
0.0
  0
LINE
  5
BB2
330
20
100
AcDbEntity
  8
HILF
100
AcDbLine
 10
243.998450061959
 20
210.6868843774306
 30
0.0
 11
243.998450061959
 21
204.7662668208698
 31
0.0
  0
LINE
  5
BB3
330
20
100
AcDbEntity
  8
HILF
100
AcDbLine
 10
249.998450061959
 20
210.6868843774307
 30
0.0
 11
249.998450061959
 21
204.7662668208698
 31
0.0
  0
LINE
  5
BB4
330
20
100
AcDbEntity
  8
STEMPEL
100
AcDbLine
 10
250.998450061959
 20
209.6868843774307
 30
0.0
 11
250.998450061959
 21
204.7662668208698
 31
0.0
  0
LINE
  5
BB5
330
20
100
AcDbEntity
  8
STEMPEL
100
AcDbLine
 10
242.998450061959
 20
209.6868843774306
 30
0.0
 11
242.998450061959
 21
204.7662668208698
 31
0.0
  0
LINE
  5
BB6
330
20
100
AcDbEntity
  8
STEMPEL
100
AcDbLine
 10
191.9984500619591
 20
209.6868843774305
 30
0.0
 11
199.9984500619591
 21
209.6868843774305
 31
0.0
  0
LINE
  5
BB7
330
20
100
AcDbEntity
  8
STEMPEL
100
AcDbLine
 10
192.9984500619591
 20
210.6868843774305
 30
0.0
 11
191.9984500619591
 21
209.6868843774305
 31
0.0
  0
LINE
  5
BB8
330
20
100
AcDbEntity
  8
STEMPEL
100
AcDbLine
 10
198.9984500619591
 20
210.6868843774305
 30
0.0
 11
192.9984500619591
 21
210.6868843774305
 31
0.0
  0
LINE
  5
BB9
330
20
100
AcDbEntity
  8
STEMPEL
100
AcDbLine
 10
199.9984500619591
 20
209.6868843774305
 30
0.0
 11
198.9984500619591
 21
210.6868843774305
 31
0.0
  0
LINE
  5
BBA
330
20
100
AcDbEntity
  8
HILF
100
AcDbLine
 10
192.9984500619589
 20
210.6868843774305
 30
0.0
 11
192.998450061959
 21
204.7662668208698
 31
0.0
  0
LINE
  5
BBB
330
20
100
AcDbEntity
  8
HILF
100
AcDbLine
 10
198.9984500619589
 20
210.6868843774306
 30
0.0
 11
198.9984500619589
 21
204.7662668208698
 31
0.0
  0
LINE
  5
BBC
330
20
100
AcDbEntity
  8
STEMPEL
100
AcDbLine
 10
199.9984500619589
 20
209.6868843774306
 30
0.0
 11
199.9984500619589
 21
204.7662668208698
 31
0.0
  0
LINE
  5
BBD
330
20
100
AcDbEntity
  8
STEMPEL
100
AcDbLine
 10
191.9984500619589
 20
209.6868843774305
 30
0.0
 11
191.9984500619589
 21
204.7662668208698
 31
0.0
  0
LINE
  5
BBE
330
20
100
AcDbEntity
  8
STEMPEL
100
AcDbLine
 10
232.497402291207
 20
153.6868843774305
 30
0.0
 11
159.499497832711
 21
153.6868843774305
 31
0.0
  0
ARC
  5
BBF
330
20
100
AcDbEntity
  8
STEMPEL
100
AcDbCircle
 10
210.6591485256369
 20
169.4663689770491
 30
0.0
 40
26.9425585600001
100
AcDbArc
 50
324.1495681366804
 51
359.0885626690254
  0
ARC
  5
BC0
330
20
100
AcDbEntity
  8
STEMPEL
100
AcDbCircle
 10
181.3377515982811
 20
169.4663689770491
 30
0.0
 40
26.9425585600001
100
AcDbArc
 50
180.9114373309746
 51
215.8504318633195
  0
ARC
  5
BC1
330
20
100
AcDbEntity
  8
STEMPEL
100
AcDbCircle
 10
181.3377515982811
 20
169.4663689770491
 30
0.0
 40
25.7425585600001
100
AcDbArc
 50
180.9114373309746
 51
217.8047574165191
  0
HATCH
  5
BC2
330
20
100
AcDbEntity
  8
SCHRAFF
100
AcDbHatch
 10
0.0
 20
0.0
 30
0.0
210
0.0
220
0.0
230
1.0
  2
_USER
 70
     0
 71
     0
 91
        2
 92
        7
 72
     1
 73
     1
 93
        3
 10
238.7638473902355
 20
188.6868843774306
 42
0.0
 10
235.7638473902344
 20
188.6868843774306
 42
-0.030027048709652
 10
236.8642465966757
 20
185.8959845966289
 42
0.3080300353357485
 97
        0
 92
        7
 72
     1
 73
     1
 93
        3
 10
156.2330527336835
 20
188.6868843774306
 42
0.0
 10
153.2330527336824
 20
188.6868843774306
 42
0.3080300353357486
 10
155.1326535272422
 20
185.8959845966288
 42
-0.0300270487096521
 97
        0
 75
     0
 76
     0
 52
0.0
 41
0.1
 77
     0
 78
     1
 53
0.0
 43
-0.0000000000000568
 44
-0.0000000000000284
 45
0.0
 46
0.1
 79
     0
 47
0.1747977489331403
 98
        2
 10
236.7124859385836
 20
187.674866377893
 10
153.7997522781489
 20
187.5000684186269
  0
HATCH
  5
BC3
330
20
100
AcDbEntity
  8
SCHRAFF
100
AcDbHatch
 10
0.0
 20
0.0
 30
0.0
210
0.0
220
0.0
230
1.0
  2
_USER
 70
     0
 71
     1
 91
        1
 92
        7
 72
     1
 73
     1
 93
        3
 10
258.9943386662227
 20
178.1352824189438
 42
0.4296339059668342
 10
255.998450061959
 20
181.2922902876726
 42
0.0
 10
255.998450061959
 20
178.2922902876726
 42
0.0
 97
        3
330
BDD
330
BD6
330
BCB
 75
     0
 76
     0
 52
0.0
 41
0.1
 77
     0
 78
     1
 53
0.0
 43
-0.0000000000000568
 44
-0.0000000000000284
 45
0.0
 46
0.1
 79
     0
 47
0.1747977489331403
 98
        1
 10
257.1782871487335
 20
179.2845741298366
  0
HATCH
  5
BC4
330
20
100
AcDbEntity
  8
SCHRAFF
100
AcDbHatch
 10
0.0
 20
0.0
 30
0.0
210
0.0
220
0.0
230
1.0
  2
_USER
 70
     0
 71
     0
 91
        3
 92
        7
 72
     1
 73
     1
 93
        5
 10
258.6209861951411
 20
190.1436974162772
 42
0.0
 10
257.5154341797912
 20
189.5005748193007
 42
-0.0686551179814979
 10
255.998450061959
 20
188.8774093581194
 42
0.0
 10
255.998450061959
 20
186.0602523816189
 42
0.0
 10
258.4143652607439
 20
186.9083024275952
 42
0.2934265064481116
 97
        0
 92
        7
 72
     1
 73
     1
 93
        3
 10
258.4143652607439
 20
186.9083024275952
 42
0.0
 10
255.998450061959
 20
186.0602523816189
 42
0.0
 10
255.998450061959
 20
185.6868843774305
 42
0.2384167939012163
 97
        0
 92
        7
 72
     1
 73
     1
 93
        4
 10
135.998450061959
 20
188.8774093581194
 42
-0.0686551179814928
 10
134.481465944127
 20
189.5005748193007
 42
0.0
 10
133.3759139287768
 20
190.1436974162771
 42
0.5718485723578022
 10
135.998450061959
 20
185.6868843774305
 42
0.0
 97
        0
 75
     0
 76
     0
 52
0.0
 41
0.1
 77
     0
 78
     1
 53
0.0
 43
-0.0000000000000568
 44
-0.0000000000000284
 45
0.0
 46
0.1
 79
     0
 47
0.1747977489331403
 98
        3
 10
257.0033656787605
 20
188.374057515192
 10
257.0033656787605
 20
186.2764841032951
 10
134.9082429506712
 20
187.674866377893
  0
HATCH
  5
BC5
330
20
100
AcDbEntity
  8
SCHRAFF
100
AcDbHatch
 10
0.0
 20
0.0
 30
0.0
210
0.0
220
0.0
230
1.0
  2
_USER
 70
     0
 71
     1
 91
        2
 92
        7
 72
     0
 73
     1
 93
        6
 10
361.6164422247505
 20
171.2550273470902
 10
368.5747973479703
 20
170.2770943099172
 10
368.6536011546106
 20
171.7807605159323
 10
361.7603478197702
 20
172.7495440934258
 10
250.2051017420172
 20
178.5959068077339
 10
249.4280949080791
 20
177.1345694913916
 97
        6
330
BCD
330
BD3
330
BD1
330
BD8
330
BD0
330
BD6
 92
        7
 72
     0
 73
     1
 93
        6
 10
223.5278671101407
 20
128.4233256133104
 10
222.7508602762025
 20
126.961988296968
 10
358.9865421388948
 20
119.8221787514333
 10
365.9432989693077
 20
120.0651140531183
 10
366.022102775948
 20
121.5687802591334
 10
358.9996444126039
 20
121.3235506093616
 97
        6
330
BCD
330
BD5
330
BCF
330
BD8
330
BCE
330
BD4
 75
     0
 76
     0
 52
45.0
 41
2.0
 77
     0
 78
     1
 53
45.0
 43
-0.0000000000000568
 44
-0.0000000000000284
 45
-1.414213562373094
 46
1.414213562373095
 79
     0
 47
0.2392312174357125
 98
        2
 10
315.8616324432115
 20
174.3252311958603
 10
285.9353412765741
 20
124.5651380133945
  0
HATCH
  5
BC6
330
20
100
AcDbEntity
  8
SCHRAFF
100
AcDbHatch
 10
0.0
 20
0.0
 30
0.0
210
0.0
220
0.0
230
1.0
  2
_USER
 70
     0
 71
     0
 91
        7
 92
        7
 72
     1
 73
     1
 93
        4
 10
255.998450061959
 20
188.8774093581194
 42
-0.0632542239299175
 10
254.498450061959
 20
188.6868843774306
 42
0.0
 10
254.498450061959
 20
185.5337127623458
 42
0.0
 10
255.998450061959
 20
186.060252381619
 42
0.0
 97
        0
 92
        7
 72
     0
 73
     1
 93
        4
 10
255.998450061959
 20
186.060252381619
 10
254.498450061959
 20
185.5337127623458
 10
254.498450061959
 20
178.3709019565973
 10
255.998450061959
 20
178.3709019565973
 97
        0
 92
        7
 72
     1
 73
     1
 93
        6
 10
137.4984500619589
 20
188.6868843774306
 42
-0.0632542239299186
 10
135.998450061959
 20
188.8774093581194
 42
0.0
 10
135.998450061959
 20
173.6868843774306
 42
0.0791521200345153
 10
138.9683482125218
 20
155.0437225468066
 42
0.0
 10
140.3941007587578
 20
155.5098015925722
 42
-0.0791521200345152
 10
137.4984500619589
 20
173.6868843774306
 42
0.0
 97
        0
 92
        7
 72
     1
 73
     1
 93
        4
 10
140.3941007587578
 20
155.5098015925722
 42
0.0
 10
138.9683482125218
 20
155.0437225468066
 42
0.0936274442301131
 10
149.699672787197
 20
135.5237709973356
 42
0.0
 10
151.1014621102409
 20
136.1834115667257
 42
-0.0952770923651019
 97
        0
 92
        7
 72
     1
 73
     1
 93
        8
 10
173.9984500619589
 20
128.1868843774305
 42
0.0
 10
167.154039858247
 20
128.1868843774305
 42
-0.214936448876987
 10
152.1699306615135
 20
134.9401311306772
 42
-0.007005986486658
 10
151.1014621102406
 20
136.1834115667257
 42
0.0
 10
149.699672787197
 20
135.5237709973356
 42
0.0086411479502983
 10
151.0461224717585
 20
133.9466246371707
 42
0.2149364488769861
 10
167.154039858247
 20
126.6868843774306
 42
0.0
 10
173.9984500619589
 20
126.6868843774306
 42
0.0
 97
        0
 92
        7
 72
     0
 73
     1
 93
        4
 10
195.9984500619589
 20
128.1868843774305
 10
173.9984500619589
 20
128.1868843774305
 10
173.9984500619589
 20
126.6868843774306
 10
195.9984500619589
 20
126.6868843774306
 97
        0
 92
        7
 72
     0
 73
     1
 93
        4
 10
222.7508602762025
 20
128.1868843774305
 10
195.9984500619589
 20
128.1868843774305
 10
195.9984500619589
 20
126.6868843774306
 10
222.7508602762025
 20
126.6868843774306
 97
        0
 75
     0
 76
     0
 52
135.0
 41
2.0
 77
     0
 78
     1
 53
135.0
 43
-0.0000000000000568
 44
-0.0000000000000284
 45
-1.414213562373095
 46
-1.414213562373094
 79
     0
 47
0.2142807174551973
 98
        7
 10
255.0624289536436
 20
187.7717128868662
 10
255.0624289536436
 20
182.62897648148
 10
136.6909180207249
 20
176.20055439981
 10
141.1941819407307
 20
151.7725517494141
 10
172.2881494263911
 20
127.3445506739551
 10
179.364705272184
 20
127.5588303075549
 10
205.5265258335813
 20
127.5588303075549
  0
HATCH
  5
BC7
330
20
100
AcDbEntity
  8
SCHRAFF
100
AcDbHatch
 10
0.0
 20
0.0
 30
0.0
210
0.0
220
0.0
230
1.0
  2
_USER
 70
     0
 71
     0
 91
        2
 92
        7
 72
     1
 73
     1
 93
        5
 10
222.7508602762025
 20
126.9619882969678
 42
0.0
 10
222.7508602762025
 20
126.6868843774306
 42
0.0
 10
224.8428602656709
 20
126.6868843774306
 42
0.0107701547312275
 10
225.7687713161361
 20
126.7068311017372
 42
0.0075851545848748
 10
225.8490422159899
 20
126.7996194616888
 42
0.0
 97
        0
 92
        7
 72
     1
 73
     1
 93
        3
 10
225.7687713161361
 20
126.7068311017372
 42
-0.0107701547312279
 10
224.8428602656709
 20
126.6868843774306
 42
0.0
 10
219.7508602762026
 20
126.6868843774306
 42
0.446043906646286
 97
        0
 75
     0
 76
     0
 52
0.0
 41
0.1
 77
     0
 78
     1
 53
0.0
 43
-0.0000000000000568
 44
-0.0000000000000284
 45
0.0
 46
0.1
 79
     0
 47
0.0126977264163002
 98
        2
 10
222.9397101450627
 20
126.8167593488219
 10
222.9015866691507
 20
126.1437793029954
  0
ARC
  5
BC8
330
20
100
AcDbEntity
  8
SCHRAFF
100
AcDbCircle
 10
222.7508602762025
 20
129.3987310721365
 30
0.0
 40
4.044021821848617
100
AcDbArc
 50
222.111970205804
 51
320.0062049863963
  0
ARC
  5
BC9
330
20
100
AcDbEntity
  8
STEMPEL
100
AcDbCircle
 10
224.8428602656709
 20
148.1868843774305
 30
0.0
 40
21.5
100
AcDbArc
 50
270.0
 51
274.7167661377559
  0
LINE
  5
BCA
330
20
100
AcDbEntity
  8
STEMPEL
100
AcDbLine
 10
222.7508602762025
 20
126.6868843774306
 30
0.0
 11
222.7508602762025
 21
128.1868843774305
 31
0.0
  0
ARC
  5
BCB
102
{ACAD_REACTORS
330
BC3
102
}
330
20
100
AcDbEntity
  8
SCHRAFF
100
AcDbCircle
 10
255.998450061959
 20
178.2922902876727
 30
0.0
 40
3.0
100
AcDbArc
 50
357.0000000000009
 51
90.0
  0
LINE
  5
BCC
330
20
100
AcDbEntity
  8
STEMPEL
100
AcDbLine
 10
254.498450061959
 20
178.3709019565973
 30
0.0
 11
255.998450061959
 21
178.3709019565973
 31
0.0
  0
LINE
  5
BCD
102
{ACAD_REACTORS
330
BC5
102
}
330
20
100
AcDbEntity
  8
STEMPEL
100
AcDbLine
 10
250.2051017420172
 20
178.5959068077339
 30
0.0
 11
222.7508602762025
 21
126.961988296968
 31
0.0
  0
LINE
  5
BCE
102
{ACAD_REACTORS
330
BC5
102
}
330
20
100
AcDbEntity
  8
STEMPEL
100
AcDbLine
 10
358.9996444126037
 20
121.3235506093616
 30
0.0
 11
366.0221027759476
 21
121.5687802591334
 31
0.0
  0
LINE
  5
BCF
102
{ACAD_REACTORS
330
BC5
102
}
330
20
100
AcDbEntity
  8
STEMPEL
100
AcDbLine
 10
358.9865421388946
 20
119.8221787514333
 30
0.0
 11
365.9432989693076
 21
120.0651140531183
 31
0.0
  0
LINE
  5
BD0
102
{ACAD_REACTORS
330
BC5
102
}
330
20
100
AcDbEntity
  8
STEMPEL
100
AcDbLine
 10
361.7603478197703
 20
172.7495440934258
 30
0.0
 11
368.6536011546105
 21
171.7807605159323
 31
0.0
  0
LINE
  5
BD1
102
{ACAD_REACTORS
330
BC5
102
}
330
20
100
AcDbEntity
  8
STEMPEL
100
AcDbLine
 10
361.6164422247508
 20
171.2550273470902
 30
0.0
 11
368.5747973479702
 21
170.2770943099172
 31
0.0
  0
LINE
  5
BD2
330
20
100
AcDbEntity
  8
HILF
100
AcDbLine
 10
361.5379382903862
 20
169.7570830449584
 30
0.0
 11
359.0781483469678
 21
122.8214949114934
 31
0.0
  0
LINE
  5
BD3
102
{ACAD_REACTORS
330
BC5
102
}
330
20
100
AcDbEntity
  8
STEMPEL
100
AcDbLine
 10
249.428094908079
 20
177.1345694913916
 30
0.0
 11
361.6164422247508
 21
171.2550273470902
 31
0.0
  0
LINE
  5
BD4
102
{ACAD_REACTORS
330
BC5
102
}
330
20
100
AcDbEntity
  8
STEMPEL
100
AcDbLine
 10
223.5278671101408
 20
128.4233256133104
 30
0.0
 11
358.9996444126037
 21
121.3235506093616
 31
0.0
  0
LINE
  5
BD5
102
{ACAD_REACTORS
330
BC5
102
}
330
20
100
AcDbEntity
  8
STEMPEL
100
AcDbLine
 10
222.7508602762025
 20
126.961988296968
 30
0.0
 11
358.9865421388946
 21
119.8221787514333
 31
0.0
  0
LINE
  5
BD6
102
{ACAD_REACTORS
330
BC5
330
BC3
102
}
330
20
100
AcDbEntity
  8
STEMPEL
100
AcDbLine
 10
250.2051017420172
 20
178.5959068077339
 30
0.0
 11
361.7603478197703
 21
172.7495440934258
 31
0.0
  0
LINE
  5
BD7
330
20
100
AcDbEntity
  8
MITTEL
100
AcDbLine
 10
195.998450061959
 20
154.9003898757101
 30
0.0
 11
372.2915977357321
 21
145.6612575033105
 31
0.0
  0
LINE
  5
BD8
102
{ACAD_REACTORS
330
BC5
102
}
330
20
100
AcDbEntity
  8
STEMPEL
100
AcDbLine
 10
368.6536011546105
 20
171.7807605159323
 30
0.0
 11
365.9432989693076
 21
120.0651140531183
 31
0.0
  0
POINT
  5
BD9
330
20
100
AcDbEntity
  8
DEFPOINTS
  6
ByBlock
 62
     0
100
AcDbPoint
 10
195.9984500619589
 20
156.6868843774306
 30
0.0
  0
POINT
  5
BDA
330
20
100
AcDbEntity
  8
DEFPOINTS
  6
ByBlock
 62
     0
100
AcDbPoint
 10
143.8358590644807
 20
147.204548747245
 30
0.0
  0
LINE
  5
BDB
330
20
100
AcDbEntity
  8
STEMPEL
100
AcDbLine
 10
254.498450061959
 20
188.6868843774306
 30
0.0
 11
254.498450061959
 21
178.3709019565973
 31
0.0
  0
LINE
  5
BDC
330
20
100
AcDbEntity
  8
STEMPEL
100
AcDbLine
 10
137.4984500619589
 20
188.6868843774306
 30
0.0
 11
137.4984500619589
 21
173.6868843774306
 31
0.0
  0
LINE
  5
BDD
102
{ACAD_REACTORS
330
BC3
102
}
330
20
100
AcDbEntity
  8
STEMPEL
100
AcDbLine
 10
255.998450061959
 20
188.8774093581194
 30
0.0
 11
255.998450061959
 21
178.2922902876727
 31
0.0
  0
LINE
  5
BDE
330
20
100
AcDbEntity
  8
STEMPEL
100
AcDbLine
 10
135.998450061959
 20
188.8774093581194
 30
0.0
 11
135.998450061959
 21
173.6868843774306
 31
0.0
  0
ARC
  5
BDF
330
20
100
AcDbEntity
  8
STEMPEL
100
AcDbCircle
 10
167.154039858247
 20
148.1868843774305
 30
0.0
 40
21.5
100
AcDbArc
 50
221.4784008302645
 51
270.0
  0
ARC
  5
BE0
330
20
100
AcDbEntity
  8
STEMPEL
100
AcDbCircle
 10
167.154039858247
 20
148.1868843774305
 30
0.0
 40
20.0
100
AcDbArc
 50
221.4784008302645
 51
270.0
  0
LINE
  5
BE1
330
20
100
AcDbEntity
  8
STEMPEL
100
AcDbLine
 10
167.154039858247
 20
128.1868843774305
 30
0.0
 11
223.4021490749897
 21
128.1868843774305
 31
0.0
  0
ARC
  5
BE2
330
20
100
AcDbEntity
  8
STEMPEL
100
AcDbCircle
 10
195.9984500619589
 20
173.6868843774306
 30
0.0
 40
60.0
100
AcDbArc
 50
180.0
 51
221.4784008302645
  0
ARC
  5
BE3
330
20
100
AcDbEntity
  8
STEMPEL
100
AcDbCircle
 10
195.9984500619589
 20
173.6868843774306
 30
0.0
 40
58.5
100
AcDbArc
 50
180.0
 51
221.4784008302645
  0
LINE
  5
BE4
330
20
100
AcDbEntity
  8
STEMPEL
100
AcDbLine
 10
167.154039858247
 20
126.6868843774306
 30
0.0
 11
224.8428602656709
 21
126.6868843774306
 31
0.0
  0
ARC
  5
BE5
330
20
100
AcDbEntity
  8
SCHRAFF
100
AcDbCircle
 10
255.998450061959
 20
188.6868843774306
 30
0.0
 40
3.0
100
AcDbArc
 50
270.0
 51
29.05207512097188
  0
ARC
  5
BE6
330
20
100
AcDbEntity
  8
SCHRAFF
100
AcDbCircle
 10
135.998450061959
 20
188.6868843774306
 30
0.0
 40
3.0
100
AcDbArc
 50
150.9479248790281
 51
270.0
  0
ARC
  5
BE7
330
20
100
AcDbEntity
  8
STEMPEL
100
AcDbCircle
 10
254.498450061959
 20
194.6868843774305
 30
0.0
 40
6.0
100
AcDbArc
 50
270.0
 51
300.1874540748215
  0
ARC
  5
BE8
330
20
100
AcDbEntity
  8
STEMPEL
100
AcDbCircle
 10
254.498450061959
 20
194.6868843774305
 30
0.0
 40
4.0
100
AcDbArc
 50
270.0
 51
300.1874540748215
  0
HATCH
  5
BE9
330
20
100
AcDbEntity
  8
SCHRAFF
100
AcDbHatch
 10
0.0
 20
0.0
 30
0.0
210
0.0
220
0.0
230
1.0
  2
_USER
 70
     0
 71
     0
 91
        2
 92
        7
 72
     1
 73
     1
 93
        8
 10
158.0984500619588
 20
188.6868843774306
 42
0.0
 10
156.7631178179829
 20
188.6868843774306
 42
0.1109653701492537
 10
154.3984500619589
 20
178.163101787506
 42
0.0
 10
154.3984500619589
 20
169.0474483471636
 42
0.1537339299409156
 10
159.499497832711
 20
153.6868843774305
 42
0.0
 10
160.998450061959
 20
153.6868843774305
 42
-0.1623825529114442
 10
155.598450061959
 20
169.0568843774306
 42
0.0
 10
155.598450061959
 20
178.163101787506
 42
-0.117148494586948
 97
        0
 92
        7
 72
     1
 73
     1
 93
        8
 10
237.598450061959
 20
178.163101787506
 42
0.1109653701492535
 10
235.2337823059351
 20
188.6868843774306
 42
0.0
 10
233.898450061959
 20
188.6868843774306
 42
-0.1171484945869499
 10
236.398450061959
 20
178.1631017875059
 42
0.0
 10
236.398450061959
 20
169.0568843774306
 42
-0.162382552911444
 10
230.9984500619591
 20
153.6868843774305
 42
0.0
 10
232.497402291207
 20
153.6868843774305
 42
0.1537339299408629
 10
237.598450061959
 20
169.0474483471581
 42
0.0
 97
        0
 75
     0
 76
     0
 52
135.0
 41
2.0
 77
     0
 78
     1
 53
135.0
 43
-24.38424618390303
 44
-401.5132250977748
 45
-1.414213562373095
 46
-1.414213562373094
 79
     0
 47
0.1137702466669554
 98
        2
 10
155.0458448173786
 20
181.2599164553249
 10
236.9007482460593
 20
176.1402540956474
  0
HATCH
  5
BEA
330
20
100
AcDbEntity
  8
SCHRAFF
100
AcDbHatch
 10
0.0
 20
0.0
 30
0.0
210
0.0
220
0.0
230
1.0
  2
_USER
 70
     0
 71
     0
 91
        4
 92
        7
 72
     1
 73
     1
 93
       12
 10
77.49845006195895
 20
218.6868843774306
 42
0.0
 10
49.99845006195897
 20
218.6868843774307
 42
0.0
 10
49.99845006195897
 20
216.6868843774306
 42
0.0
 10
77.49845006195897
 20
216.6868843774306
 42
-0.1324846866320371
 10
96.60601614156144
 20
211.5335115789199
 42
0.0
 10
134.481465944127
 20
189.5005748193007
 42
0.1324846866320406
 10
137.4984500619591
 20
188.6868843774306
 42
0.0
 10
144.998450061959
 20
188.6868843774306
 42
0.0
 10
144.998450061959
 20
190.6868843774304
 42
0.0
 10
137.4984500619591
 20
190.6868843774304
 42
-0.1324846866320424
 10
135.4871273167377
 20
191.2293446720106
 42
0.0
 10
97.61167751417254
 20
213.2622814316296
 42
0.1324846866320406
 97
        0
 92
        7
 72
     0
 73
     1
 93
        4
 10
158.198450061959
 20
190.6868843774304
 10
144.9984500619589
 20
190.6868843774304
 10
144.9984500619589
 20
188.6868843774306
 10
158.1984500619589
 20
188.6868843774306
 97
        0
 92
        7
 72
     0
 73
     1
 93
        4
 10
246.998450061959
 20
190.6868843774305
 10
233.798450061959
 20
190.6868843774305
 10
233.7984500619591
 20
188.6868843774306
 10
246.9984500619589
 20
188.6868843774306
 97
        0
 92
        7
 72
     1
 73
     1
 93
       12
 10
295.3908839823562
 20
211.5335115789197
 42
-0.1324846866320395
 10
314.498450061959
 20
216.6868843774306
 42
0.0
 10
341.998450061959
 20
216.6868843774305
 42
0.0
 10
341.998450061959
 20
218.6868843774307
 42
0.0
 10
314.498450061959
 20
218.6868843774307
 42
0.1324846866320392
 10
294.3852226097456
 20
213.2622814316298
 42
0.0
 10
256.5097728071803
 20
191.2293446720107
 42
-0.1324846866320424
 10
254.498450061959
 20
190.6868843774305
 42
0.0
 10
246.998450061959
 20
190.6868843774305
 42
0.0
 10
246.998450061959
 20
188.6868843774306
 42
0.0
 10
254.498450061959
 20
188.6868843774306
 42
0.1324846866320405
 10
257.515434179791
 20
189.5005748193005
 42
0.0
 97
        0
 75
     0
 76
     0
 52
45.0
 41
2.0
 77
     0
 78
     1
 53
45.0
 43
-24.38424618390303
 44
-401.5132250977748
 45
-1.414213562373094
 46
1.414213562373095
 79
     0
 47
0.2470068222831111
 98
        4
 10
77.96086958641359
 20
218.0289678562568
 10
152.3590891202466
 20
189.6231848161884
 10
241.0931797835411
 20
189.8701915224497
 10
251.7214981101461
 20
189.8701915224497
  0
LINE
  5
BEB
102
{ACAD_REACTORS
330
C52
102
}
330
20
100
AcDbEntity
  8
STEMPEL
100
AcDbLine
 10
104.5223516204527
 20
211.5977689170236
 30
0.0
 11
103.4984500619589
 21
209.8378234267808
 31
0.0
  0
LINE
  5
BEC
102
{ACAD_REACTORS
330
C52
102
}
330
20
100
AcDbEntity
  8
STEMPEL
100
AcDbLine
 10
130.435736068322
 20
196.4816279890997
 30
0.0
 11
129.4299978782087
 21
194.7529028227284
 31
0.0
  0
HATCH
  5
BED
330
20
100
AcDbEntity
  8
SCHRAFF
100
AcDbHatch
 10
0.0
 20
0.0
 30
0.0
210
0.0
220
0.0
230
1.0
  2
_USER
 70
     0
 71
     0
 91
        4
 92
        7
 72
     1
 73
     1
 93
       12
 10
256.998450061959
 20
194.7662668208698
 42
0.1327909774928471
 10
260.0216762151036
 20
195.5835934154792
 42
0.0
 10
284.0216762151035
 20
209.5835934154791
 42
0.2667502984552046
 10
286.998450061959
 20
214.7662668208698
 42
0.0
 10
286.998450061959
 20
216.7662668208699
 42
0.0
 10
284.998450061959
 20
216.7662668208699
 42
0.0
 10
284.998450061959
 20
214.7662668208698
 42
-0.2667502984552046
 10
283.0139341640554
 20
211.3111512172761
 42
0.0
 10
259.0139341640553
 20
197.311151217276
 42
-0.1327909774928444
 10
256.998450061959
 20
196.7662668208698
 42
0.0
 10
252.498450061959
 20
196.7662668208698
 42
0.0
 10
252.498450061959
 20
194.7662668208699
 42
0.0
 97
        0
 92
        7
 72
     0
 73
     1
 93
        4
 10
241.4984500619589
 20
194.7662668208698
 10
241.4984500619589
 20
196.7662668208698
 10
236.9984500619589
 20
196.7662668208698
 10
236.998450061959
 20
194.7662668208699
 97
        0
 92
        7
 72
     0
 73
     1
 93
        4
 10
150.4984500619589
 20
196.7662668208698
 10
150.498450061959
 20
194.7662668208698
 10
154.9984500619589
 20
194.7662668208698
 10
154.9984500619589
 20
196.7662668208698
 97
        0
 92
        7
 72
     1
 73
     1
 93
       12
 10
134.9984500619589
 20
196.7662668208698
 42
-0.1327909774928425
 10
132.9829659598626
 20
197.3111512172761
 42
0.0
 10
108.9829659598627
 20
211.3111512172762
 42
-0.2667502984552051
 10
106.9984500619589
 20
214.7662668208699
 42
0.0
 10
106.9984500619589
 20
216.7662668208699
 42
0.0
 10
104.9984500619589
 20
216.7662668208699
 42
0.0
 10
104.9984500619589
 20
214.7662668208699
 42
0.2667502984552038
 10
107.9752239088144
 20
209.5835934154793
 42
0.0
 10
131.9752239088144
 20
195.5835934154792
 42
0.1327909774928459
 10
134.998450061959
 20
194.7662668208698
 42
0.0
 10
139.4984500619589
 20
194.7662668208698
 42
0.0
 10
139.498450061959
 20
196.7662668208698
 42
0.0
 97
        0
 75
     0
 76
     0
 52
45.0
 41
2.0
 77
     0
 78
     1
 53
45.0
 43
-48.4754624740626
 44
-171.9583787032502
 45
-1.414213562373094
 46
1.414213562373095
 79
     0
 47
0.2375292043459171
 98
        4
 10
255.6742497001479
 20
195.3394737905623
 10
239.275398939697
 20
195.5770032851839
 10
153.9538415622196
 20
195.8145327798056
 10
137.3173262606815
 20
195.8145327798056
  0
LINE
  5
BEE
330
20
100
AcDbEntity
  8
STEMPEL
100
AcDbLine
 10
104.9984500619589
 20
216.7662668208699
 30
0.0
 11
286.998450061959
 21
216.7662668208698
 31
0.0
  0
LINE
  5
BEF
330
20
100
AcDbEntity
  8
STEMPEL
100
AcDbLine
 10
134.9984500619589
 20
194.7662668208698
 30
0.0
 11
140.9984500619589
 21
194.7662668208698
 31
0.0
  0
LINE
  5
BF0
330
20
100
AcDbEntity
  8
STEMPEL
100
AcDbLine
 10
134.9984500619589
 20
196.7662668208698
 30
0.0
 11
256.998450061959
 21
196.7662668208698
 31
0.0
  0
LINE
  5
BF1
330
20
100
AcDbEntity
  8
STEMPEL
100
AcDbLine
 10
104.9984500619589
 20
216.7662668208699
 30
0.0
 11
104.9984500619589
 21
214.7662668208699
 31
0.0
  0
LINE
  5
BF2
330
20
100
AcDbEntity
  8
STEMPEL
100
AcDbLine
 10
286.998450061959
 20
216.7662668208698
 30
0.0
 11
286.998450061959
 21
214.7662668208698
 31
0.0
  0
LINE
  5
BF3
330
20
100
AcDbEntity
  8
STEMPEL
100
AcDbLine
 10
284.998450061959
 20
216.7662668208698
 30
0.0
 11
284.998450061959
 21
214.7662668208698
 31
0.0
  0
LINE
  5
BF4
330
20
100
AcDbEntity
  8
STEMPEL
100
AcDbLine
 10
106.9984500619589
 20
216.7662668208699
 30
0.0
 11
106.9984500619589
 21
214.7662668208699
 31
0.0
  0
ARC
  5
BF5
330
20
100
AcDbEntity
  8
STEMPEL
100
AcDbCircle
 10
280.998450061959
 20
214.7662668208698
 30
0.0
 40
4.0
100
AcDbArc
 50
300.2564371635316
 51
0.0
  0
ARC
  5
BF6
330
20
100
AcDbEntity
  8
STEMPEL
100
AcDbCircle
 10
256.998450061959
 20
200.7662668208698
 30
0.0
 40
4.0
100
AcDbArc
 50
270.0
 51
300.2564371635316
  0
ARC
  5
BF7
330
20
100
AcDbEntity
  8
STEMPEL
100
AcDbCircle
 10
134.9984500619589
 20
200.7662668208698
 30
0.0
 40
4.0
100
AcDbArc
 50
239.7435628364706
 51
270.0
  0
ARC
  5
BF8
330
20
100
AcDbEntity
  8
STEMPEL
100
AcDbCircle
 10
110.9984500619589
 20
214.7662668208699
 30
0.0
 40
4.0
100
AcDbArc
 50
180.0
 51
239.7435628364706
  0
LINE
  5
BF9
330
20
100
AcDbEntity
  8
STEMPEL
100
AcDbLine
 10
283.0139341640554
 20
211.3111512172761
 30
0.0
 11
259.0139341640553
 21
197.311151217276
 31
0.0
  0
LINE
  5
BFA
330
20
100
AcDbEntity
  8
STEMPEL
100
AcDbLine
 10
132.9829659598627
 20
197.3111512172761
 30
0.0
 11
108.9829659598627
 21
211.3111512172762
 31
0.0
  0
ARC
  5
BFB
330
20
100
AcDbEntity
  8
STEMPEL
100
AcDbCircle
 10
110.9984500619589
 20
214.7662668208699
 30
0.0
 40
6.0
100
AcDbArc
 50
180.0
 51
239.7435628364706
  0
LINE
  5
BFC
102
{ACAD_REACTORS
330
C52
102
}
330
20
100
AcDbEntity
  8
STEMPEL
100
AcDbLine
 10
131.9752239088144
 20
195.5835934154792
 30
0.0
 11
104.5223516204527
 21
211.5977689170236
 31
0.0
  0
ARC
  5
BFD
330
20
100
AcDbEntity
  8
STEMPEL
100
AcDbCircle
 10
134.9984500619589
 20
200.7662668208698
 30
0.0
 40
6.0
100
AcDbArc
 50
239.7435628364706
 51
270.0
  0
ARC
  5
BFE
330
20
100
AcDbEntity
  8
STEMPEL
100
AcDbCircle
 10
256.998450061959
 20
200.7662668208698
 30
0.0
 40
6.0
100
AcDbArc
 50
270.0
 51
300.2564371635316
  0
LINE
  5
BFF
102
{ACAD_REACTORS
330
C52
102
}
330
20
100
AcDbEntity
  8
STEMPEL
100
AcDbLine
 10
287.4745485034655
 20
211.5977689170236
 30
0.0
 11
260.0216762151036
 21
195.5835934154792
 31
0.0
  0
ARC
  5
C00
330
20
100
AcDbEntity
  8
STEMPEL
100
AcDbCircle
 10
280.998450061959
 20
214.7662668208698
 30
0.0
 40
6.0
100
AcDbArc
 50
300.2564371635316
 51
0.0
  0
LINE
  5
C01
330
20
100
AcDbEntity
  8
STEMPEL
100
AcDbLine
 10
154.9984500619589
 20
196.7662668208698
 30
0.0
 11
154.9984500619589
 21
194.7662668208698
 31
0.0
  0
LINE
  5
C02
330
20
100
AcDbEntity
  8
STEMPEL
100
AcDbLine
 10
236.9984500619589
 20
196.7662668208698
 30
0.0
 11
236.9984500619589
 21
194.7662668208698
 31
0.0
  0
LINE
  5
C03
330
20
100
AcDbEntity
  8
STEMPEL
100
AcDbLine
 10
241.4984500619589
 20
196.7662668208698
 30
0.0
 11
241.4984500619589
 21
194.7662668208698
 31
0.0
  0
LINE
  5
C04
330
20
100
AcDbEntity
  8
STEMPEL
100
AcDbLine
 10
252.498450061959
 20
196.7662668208698
 30
0.0
 11
252.498450061959
 21
194.7662668208698
 31
0.0
  0
LINE
  5
C05
330
20
100
AcDbEntity
  8
STEMPEL
100
AcDbLine
 10
150.4984500619589
 20
196.7662668208698
 30
0.0
 11
150.4984500619589
 21
194.7662668208698
 31
0.0
  0
LINE
  5
C06
330
20
100
AcDbEntity
  8
STEMPEL
100
AcDbLine
 10
139.4984500619589
 20
196.7662668208698
 30
0.0
 11
139.4984500619589
 21
194.7662668208699
 31
0.0
  0
POINT
  5
C07
330
20
100
AcDbEntity
  8
DEFPOINTS
  6
ByBlock
 62
     0
100
AcDbPoint
 10
260.0216762151033
 20
195.583593415479
 30
0.0
  0
POINT
  5
C08
330
20
100
AcDbEntity
  8
DEFPOINTS
  6
ByBlock
 62
     0
100
AcDbPoint
 10
284.0216762151034
 20
209.583593415479
 30
0.0
  0
LINE
  5
C09
102
{ACAD_REACTORS
330
C52
102
}
330
20
100
AcDbEntity
  8
STEMPEL
100
AcDbLine
 10
287.4745485034655
 20
211.5977689170236
 30
0.0
 11
288.498450061959
 21
209.8378234267812
 31
0.0
  0
LINE
  5
C0A
102
{ACAD_REACTORS
330
C52
102
}
330
20
100
AcDbEntity
  8
STEMPEL
100
AcDbLine
 10
261.5611640555961
 20
196.4816279890999
 30
0.0
 11
262.5669022457094
 21
194.7529028227286
 31
0.0
  0
LINE
  5
C0B
330
20
100
AcDbEntity
  8
STEMPEL
100
AcDbLine
 10
138.4984500619589
 20
204.7662668208698
 30
0.0
 11
151.4984500619589
 21
204.7662668208698
 31
0.0
  0
LINE
  5
C0C
330
20
100
AcDbEntity
  8
STEMPEL
100
AcDbLine
 10
152.5040035614241
 20
198.3121268749803
 30
0.0
 11
152.5040035614241
 21
204.4968295727418
 31
0.0
  0
LINE
  5
C0D
330
20
100
AcDbEntity
  8
STEMPEL
100
AcDbLine
 10
148.7512268116915
 20
198.3121268749803
 30
0.0
 11
148.7512268116915
 21
204.4968295727418
 31
0.0
  0
LINE
  5
C0E
330
20
100
AcDbEntity
  8
STEMPEL
100
AcDbLine
 10
141.2456733122264
 20
198.3121268749803
 30
0.0
 11
141.2456733122264
 21
204.4968295727418
 31
0.0
  0
LINE
  5
C0F
330
20
100
AcDbEntity
  8
HILF
100
AcDbLine
 10
153.5536621479543
 20
197.9300823933414
 30
0.0
 11
136.4432379759636
 21
197.9300823933414
 31
0.0
  0
LINE
  5
C10
330
20
100
AcDbEntity
  8
STEMPEL
100
AcDbLine
 10
153.348450061959
 20
196.7662668208698
 30
0.0
 11
136.6484500619589
 21
196.7662668208698
 31
0.0
  0
LINE
  5
C11
330
20
100
AcDbEntity
  8
STEMPEL
100
AcDbLine
 10
137.4928965624938
 20
198.3121268749803
 30
0.0
 11
137.4928965624938
 21
204.4968295727418
 31
0.0
  0
LINE
  5
C12
330
20
100
AcDbEntity
  8
STEMPEL
100
AcDbLine
 10
138.4984500619589
 20
204.7662668208698
 30
0.0
 11
137.4928965624938
 21
204.4968295727418
 31
0.0
  0
LINE
  5
C13
330
20
100
AcDbEntity
  8
STEMPEL
100
AcDbLine
 10
152.5040035614241
 20
204.4968295727418
 30
0.0
 11
151.4984500619589
 21
204.7662668208698
 31
0.0
  0
LINE
  5
C14
330
20
100
AcDbEntity
  8
STEMPEL
100
AcDbLine
 10
153.5536621479543
 20
197.9300823933414
 30
0.0
 11
152.5040035614241
 21
198.3121268749803
 31
0.0
  0
LINE
  5
C15
330
20
100
AcDbEntity
  8
STEMPEL
100
AcDbLine
 10
137.4928965624938
 20
198.3121268749803
 30
0.0
 11
136.4432379759636
 21
197.9300823933414
 31
0.0
  0
ARC
  5
C16
330
20
100
AcDbEntity
  8
STEMPEL
100
AcDbCircle
 10
136.6484500619589
 20
197.3662668208698
 30
0.0
 40
0.5999999999999993
100
AcDbArc
 50
110.0000000000001
 51
270.0
  0
ARC
  5
C17
330
20
100
AcDbEntity
  8
STEMPEL
100
AcDbCircle
 10
153.348450061959
 20
197.3662668208698
 30
0.0
 40
0.5999999999999999
100
AcDbArc
 50
270.0
 51
69.99999999999992
  0
ARC
  5
C18
330
20
100
AcDbEntity
  8
STEMPEL
100
AcDbCircle
 10
144.9984500619589
 20
178.4968295727424
 30
0.0
 40
26.26943724812735
100
AcDbArc
 50
81.78678929826196
 51
98.21321070173805
  0
ARC
  5
C19
330
20
100
AcDbEntity
  8
STEMPEL
100
AcDbCircle
 10
139.3692849373601
 20
198.0978685407899
 30
0.0
 40
6.668398280079905
100
AcDbArc
 50
73.65710669401547
 51
106.3428933059845
  0
ARC
  5
C1A
330
20
100
AcDbEntity
  8
STEMPEL
100
AcDbCircle
 10
150.6276151865578
 20
198.0978685407899
 30
0.0
 40
6.668398280079882
100
AcDbArc
 50
73.65710669401547
 51
106.3428933059845
  0
ARC
  5
C1B
330
20
100
AcDbEntity
  8
STEMPEL
100
AcDbCircle
 10
144.9984500619589
 20
179.2551516529921
 30
0.0
 40
19.42296676475576
100
AcDbArc
 50
78.85962783889116
 51
101.1403721611088
  0
ARC
  5
C1C
330
20
100
AcDbEntity
  8
STEMPEL
100
AcDbCircle
 10
139.3692849373601
 20
193.6836159675662
 30
0.0
 40
4.994391509822305
100
AcDbArc
 50
67.93247218100519
 51
112.0675278189948
  0
ARC
  5
C1D
330
20
100
AcDbEntity
  8
STEMPEL
100
AcDbCircle
 10
150.6276151865578
 20
193.6836159675662
 30
0.0
 40
4.994391509822305
100
AcDbArc
 50
67.93247218100519
 51
112.0675278189948
  0
ARC
  5
C1E
330
20
100
AcDbEntity
  8
STEMPEL
100
AcDbCircle
 10
201.6276151865579
 20
193.6836159675662
 30
0.0
 40
4.994391509822305
100
AcDbArc
 50
67.93247218100519
 51
112.0675278189948
  0
ARC
  5
C1F
330
20
100
AcDbEntity
  8
STEMPEL
100
AcDbCircle
 10
190.3692849373601
 20
193.6836159675662
 30
0.0
 40
4.994391509822305
100
AcDbArc
 50
67.93247218100519
 51
112.0675278189948
  0
ARC
  5
C20
330
20
100
AcDbEntity
  8
STEMPEL
100
AcDbCircle
 10
195.998450061959
 20
179.2551516529921
 30
0.0
 40
19.42296676475576
100
AcDbArc
 50
78.85962783889116
 51
101.1403721611088
  0
ARC
  5
C21
330
20
100
AcDbEntity
  8
STEMPEL
100
AcDbCircle
 10
201.6276151865579
 20
198.0978685407899
 30
0.0
 40
6.668398280079882
100
AcDbArc
 50
73.65710669401547
 51
106.3428933059845
  0
ARC
  5
C22
330
20
100
AcDbEntity
  8
STEMPEL
100
AcDbCircle
 10
190.3692849373601
 20
198.0978685407899
 30
0.0
 40
6.668398280079905
100
AcDbArc
 50
73.65710669401547
 51
106.3428933059845
  0
ARC
  5
C23
330
20
100
AcDbEntity
  8
STEMPEL
100
AcDbCircle
 10
195.998450061959
 20
178.4968295727424
 30
0.0
 40
26.26943724812735
100
AcDbArc
 50
81.78678929826196
 51
98.21321070173805
  0
ARC
  5
C24
330
20
100
AcDbEntity
  8
STEMPEL
100
AcDbCircle
 10
204.348450061959
 20
197.3662668208698
 30
0.0
 40
0.5999999999999999
100
AcDbArc
 50
270.0
 51
69.99999999999992
  0
ARC
  5
C25
330
20
100
AcDbEntity
  8
STEMPEL
100
AcDbCircle
 10
187.648450061959
 20
197.3662668208698
 30
0.0
 40
0.5999999999999993
100
AcDbArc
 50
110.0000000000001
 51
270.0
  0
LINE
  5
C26
330
20
100
AcDbEntity
  8
STEMPEL
100
AcDbLine
 10
188.4928965624939
 20
198.3121268749803
 30
0.0
 11
187.4432379759636
 21
197.9300823933414
 31
0.0
  0
LINE
  5
C27
330
20
100
AcDbEntity
  8
STEMPEL
100
AcDbLine
 10
204.5536621479544
 20
197.9300823933414
 30
0.0
 11
203.5040035614242
 21
198.3121268749803
 31
0.0
  0
LINE
  5
C28
330
20
100
AcDbEntity
  8
STEMPEL
100
AcDbLine
 10
203.5040035614242
 20
204.4968295727418
 30
0.0
 11
202.498450061959
 21
204.7662668208698
 31
0.0
  0
LINE
  5
C29
330
20
100
AcDbEntity
  8
STEMPEL
100
AcDbLine
 10
189.498450061959
 20
204.7662668208698
 30
0.0
 11
188.4928965624939
 21
204.4968295727418
 31
0.0
  0
LINE
  5
C2A
330
20
100
AcDbEntity
  8
STEMPEL
100
AcDbLine
 10
188.4928965624939
 20
198.3121268749803
 30
0.0
 11
188.4928965624939
 21
204.4968295727418
 31
0.0
  0
LINE
  5
C2B
330
20
100
AcDbEntity
  8
STEMPEL
100
AcDbLine
 10
204.348450061959
 20
196.7662668208698
 30
0.0
 11
187.648450061959
 21
196.7662668208698
 31
0.0
  0
LINE
  5
C2C
330
20
100
AcDbEntity
  8
HILF
100
AcDbLine
 10
204.5536621479544
 20
197.9300823933414
 30
0.0
 11
187.4432379759636
 21
197.9300823933414
 31
0.0
  0
LINE
  5
C2D
330
20
100
AcDbEntity
  8
STEMPEL
100
AcDbLine
 10
192.2456733122265
 20
198.3121268749803
 30
0.0
 11
192.2456733122265
 21
204.4968295727418
 31
0.0
  0
LINE
  5
C2E
330
20
100
AcDbEntity
  8
STEMPEL
100
AcDbLine
 10
199.7512268116916
 20
198.3121268749803
 30
0.0
 11
199.7512268116916
 21
204.4968295727418
 31
0.0
  0
LINE
  5
C2F
330
20
100
AcDbEntity
  8
STEMPEL
100
AcDbLine
 10
203.5040035614242
 20
198.3121268749803
 30
0.0
 11
203.5040035614242
 21
204.4968295727418
 31
0.0
  0
LINE
  5
C30
330
20
100
AcDbEntity
  8
STEMPEL
100
AcDbLine
 10
189.498450061959
 20
204.7662668208698
 30
0.0
 11
202.498450061959
 21
204.7662668208698
 31
0.0
  0
ARC
  5
C31
330
20
100
AcDbEntity
  8
STEMPEL
100
AcDbCircle
 10
252.6276151865579
 20
193.6836159675662
 30
0.0
 40
4.994391509822305
100
AcDbArc
 50
67.93247218100519
 51
112.0675278189948
  0
ARC
  5
C32
330
20
100
AcDbEntity
  8
STEMPEL
100
AcDbCircle
 10
241.3692849373601
 20
193.6836159675662
 30
0.0
 40
4.994391509822305
100
AcDbArc
 50
67.93247218100519
 51
112.0675278189948
  0
ARC
  5
C33
330
20
100
AcDbEntity
  8
STEMPEL
100
AcDbCircle
 10
246.998450061959
 20
179.2551516529921
 30
0.0
 40
19.42296676475576
100
AcDbArc
 50
78.85962783889116
 51
101.1403721611088
  0
ARC
  5
C34
330
20
100
AcDbEntity
  8
STEMPEL
100
AcDbCircle
 10
252.6276151865578
 20
198.0978685407899
 30
0.0
 40
6.668398280079882
100
AcDbArc
 50
73.65710669401547
 51
106.3428933059845
  0
ARC
  5
C35
330
20
100
AcDbEntity
  8
STEMPEL
100
AcDbCircle
 10
241.3692849373601
 20
198.0978685407899
 30
0.0
 40
6.668398280079905
100
AcDbArc
 50
73.65710669401547
 51
106.3428933059845
  0
ARC
  5
C36
330
20
100
AcDbEntity
  8
STEMPEL
100
AcDbCircle
 10
246.998450061959
 20
178.4968295727424
 30
0.0
 40
26.26943724812735
100
AcDbArc
 50
81.78678929826196
 51
98.21321070173805
  0
ARC
  5
C37
330
20
100
AcDbEntity
  8
STEMPEL
100
AcDbCircle
 10
255.348450061959
 20
197.3662668208698
 30
0.0
 40
0.5999999999999999
100
AcDbArc
 50
270.0
 51
69.99999999999992
  0
ARC
  5
C38
330
20
100
AcDbEntity
  8
STEMPEL
100
AcDbCircle
 10
238.648450061959
 20
197.3662668208698
 30
0.0
 40
0.5999999999999993
100
AcDbArc
 50
110.0000000000001
 51
270.0
  0
LINE
  5
C39
330
20
100
AcDbEntity
  8
STEMPEL
100
AcDbLine
 10
239.4928965624938
 20
198.3121268749803
 30
0.0
 11
238.4432379759636
 21
197.9300823933414
 31
0.0
  0
LINE
  5
C3A
330
20
100
AcDbEntity
  8
STEMPEL
100
AcDbLine
 10
255.5536621479543
 20
197.9300823933414
 30
0.0
 11
254.5040035614241
 21
198.3121268749803
 31
0.0
  0
LINE
  5
C3B
330
20
100
AcDbEntity
  8
STEMPEL
100
AcDbLine
 10
254.5040035614241
 20
204.4968295727418
 30
0.0
 11
253.498450061959
 21
204.7662668208698
 31
0.0
  0
LINE
  5
C3C
330
20
100
AcDbEntity
  8
STEMPEL
100
AcDbLine
 10
240.498450061959
 20
204.7662668208698
 30
0.0
 11
239.4928965624938
 21
204.4968295727418
 31
0.0
  0
LINE
  5
C3D
330
20
100
AcDbEntity
  8
STEMPEL
100
AcDbLine
 10
239.4928965624938
 20
198.3121268749803
 30
0.0
 11
239.4928965624938
 21
204.4968295727418
 31
0.0
  0
LINE
  5
C3E
330
20
100
AcDbEntity
  8
STEMPEL
100
AcDbLine
 10
255.348450061959
 20
196.7662668208698
 30
0.0
 11
238.648450061959
 21
196.7662668208698
 31
0.0
  0
LINE
  5
C3F
330
20
100
AcDbEntity
  8
HILF
100
AcDbLine
 10
255.5536621479543
 20
197.9300823933414
 30
0.0
 11
238.4432379759636
 21
197.9300823933414
 31
0.0
  0
LINE
  5
C40
330
20
100
AcDbEntity
  8
STEMPEL
100
AcDbLine
 10
243.2456733122264
 20
198.3121268749803
 30
0.0
 11
243.2456733122264
 21
204.4968295727418
 31
0.0
  0
LINE
  5
C41
330
20
100
AcDbEntity
  8
STEMPEL
100
AcDbLine
 10
250.7512268116915
 20
198.3121268749803
 30
0.0
 11
250.7512268116915
 21
204.4968295727418
 31
0.0
  0
LINE
  5
C42
330
20
100
AcDbEntity
  8
STEMPEL
100
AcDbLine
 10
254.5040035614241
 20
198.3121268749803
 30
0.0
 11
254.5040035614241
 21
204.4968295727418
 31
0.0
  0
LINE
  5
C43
330
20
100
AcDbEntity
  8
STEMPEL
100
AcDbLine
 10
240.498450061959
 20
204.7662668208698
 30
0.0
 11
253.498450061959
 21
204.7662668208698
 31
0.0
  0
LINE
  5
C44
330
20
100
AcDbEntity
  8
HILF
100
AcDbLine
 10
243.9984500619591
 20
196.7662668208698
 30
0.0
 11
243.998450061959
 21
190.6868843774308
 31
0.0
  0
LINE
  5
C45
330
20
100
AcDbEntity
  8
STEMPEL
100
AcDbLine
 10
242.998450061959
 20
196.7662668208698
 30
0.0
 11
242.998450061959
 21
190.6868843774308
 31
0.0
  0
LINE
  5
C46
330
20
100
AcDbEntity
  8
HILF
100
AcDbLine
 10
249.998450061959
 20
196.7662668208698
 30
0.0
 11
249.998450061959
 21
190.6868843774308
 31
0.0
  0
LINE
  5
C47
330
20
100
AcDbEntity
  8
STEMPEL
100
AcDbLine
 10
250.998450061959
 20
196.7662668208697
 30
0.0
 11
250.998450061959
 21
190.6868843774308
 31
0.0
  0
LINE
  5
C48
330
20
100
AcDbEntity
  8
STEMPEL
100
AcDbLine
 10
250.998450061959
 20
194.7662668208698
 30
0.0
 11
256.998450061959
 21
194.7662668208698
 31
0.0
  0
LINE
  5
C49
330
20
100
AcDbEntity
  8
STEMPEL
100
AcDbLine
 10
191.998450061959
 20
194.7662668208698
 30
0.0
 11
191.9984500619589
 21
190.6868843774307
 31
0.0
  0
LINE
  5
C4A
330
20
100
AcDbEntity
  8
HILF
100
AcDbLine
 10
192.998450061959
 20
194.7662668208698
 30
0.0
 11
192.9984500619589
 21
190.6868843774307
 31
0.0
  0
LINE
  5
C4B
330
20
100
AcDbEntity
  8
HILF
100
AcDbLine
 10
198.998450061959
 20
194.7662668208698
 30
0.0
 11
198.9984500619589
 21
190.6868843774307
 31
0.0
  0
LINE
  5
C4C
330
20
100
AcDbEntity
  8
STEMPEL
100
AcDbLine
 10
199.998450061959
 20
194.7662668208698
 30
0.0
 11
199.9984500619589
 21
190.6868843774307
 31
0.0
  0
LINE
  5
C4D
330
20
100
AcDbEntity
  8
STEMPEL
100
AcDbLine
 10
140.9984500619589
 20
196.7662668208697
 30
0.0
 11
140.9984500619589
 21
190.6868843774307
 31
0.0
  0
LINE
  5
C4E
330
20
100
AcDbEntity
  8
HILF
100
AcDbLine
 10
141.9984500619589
 20
196.7662668208698
 30
0.0
 11
141.9984500619589
 21
190.6868843774307
 31
0.0
  0
LINE
  5
C4F
330
20
100
AcDbEntity
  8
HILF
100
AcDbLine
 10
147.998450061959
 20
196.7662668208698
 30
0.0
 11
147.998450061959
 21
190.6868843774307
 31
0.0
  0
LINE
  5
C50
330
20
100
AcDbEntity
  8
STEMPEL
100
AcDbLine
 10
148.9984500619589
 20
196.7662668208698
 30
0.0
 11
148.9984500619589
 21
190.6868843774307
 31
0.0
  0
LINE
  5
C51
330
20
100
AcDbEntity
  8
STEMPEL
100
AcDbLine
 10
148.9984500619589
 20
194.7662668208698
 30
0.0
 11
242.998450061959
 21
194.7662668208698
 31
0.0
  0
HATCH
  5
C52
330
20
100
AcDbEntity
  8
SCHRAFF
100
AcDbHatch
 10
0.0
 20
0.0
 30
0.0
210
0.0
220
0.0
230
1.0
  2
NET
 70
     0
 71
     1
 91
        2
 92
        7
 72
     0
 73
     1
 93
        4
 10
261.5611640555961
 20
196.4816279890998
 10
262.5669022457094
 20
194.7529028227286
 10
288.498450061959
 20
209.837823426781
 10
287.4745485034655
 20
211.5977689170236
 97
        4
330
C09
330
BFF
330
C0A
330
BA3
 92
        7
 72
     0
 73
     1
 93
        4
 10
104.5223516204526
 20
211.5977689170236
 10
103.498450061959
 20
209.8378234267809
 10
129.4299978782087
 20
194.7529028227285
 10
130.435736068322
 20
196.4816279890998
 97
        4
330
BEB
330
BA4
330
BEC
330
BFC
 75
     0
 76
     1
 52
45.0
 41
10.0
 77
     0
 78
     2
 53
45.0
 43
-7.7341982277905
 44
-12.44583181758153
 45
-0.8838834764831842
 46
0.8838834764831844
 79
     0
 53
135.0
 43
-7.7341982277905
 44
-12.44583181758153
 45
-0.8838834764831844
 46
-0.8838834764831842
 79
     0
 47
0.1923885238500694
 98
        2
 10
268.832856228004
 20
199.5925795665162
 10
126.6024958230442
 20
198.0534719455107
  0
ENDSEC
  0
SECTION
  2
OBJECTS
  0
DICTIONARY
  5
C
330
0
100
AcDbDictionary
281
     1
  3
ACAD_CIP_PREVIOUS_PRODUCT_INFO
350
A86
  3
ACAD_COLOR
350
1B
  3
ACAD_DETAILVIEWSTYLE
350
A83
  3
ACAD_GROUP
350
D
  3
ACAD_LAYOUT
350
19
  3
ACAD_MATERIAL
350
1A
  3
ACAD_MLEADERSTYLE
350
A7E
  3
ACAD_MLINESTYLE
350
16
  3
ACAD_PLOTSETTINGS
350
18
  3
ACAD_PLOTSTYLENAME
350
E
  3
ACAD_SCALELIST
350
A6C
  3
ACAD_SECTIONVIEWSTYLE
350
A80
  3
ACAD_TABLESTYLE
350
A6A
  3
ACAD_VISUALSTYLE
350
A51
  3
ACDB_RECOMPOSE_DATA
350
D0B
  3
AcDbVariableDictionary
350
72A
  3
AcDsDecomposeData
350
D11
  0
DICTIONARY
  5
C6D
330
8
100
AcDbDictionary
280
     1
281
     1
  0
DICTIONARY
  5
CB4
330
2
100
AcDbDictionary
280
     1
281
     1
  3
ACAD_LAYERSTATES
360
CB5
  0
DICTIONARY
  5
C5A
330
10
100
AcDbDictionary
280
     1
281
     1
  3
ADSK_XREC_LAYER_RECONCILED
360
C5B
  0
DICTIONARY
  5
C5C
330
47
100
AcDbDictionary
280
     1
281
     1
  3
ADSK_XREC_LAYER_RECONCILED
360
C5D
  0
DICTIONARY
  5
C5E
330
48
100
AcDbDictionary
280
     1
281
     1
  3
ADSK_XREC_LAYER_RECONCILED
360
C5F
  0
DICTIONARY
  5
C60
330
49
100
AcDbDictionary
280
     1
281
     1
  3
ADSK_XREC_LAYER_RECONCILED
360
C61
  0
DICTIONARY
  5
C62
330
4A
100
AcDbDictionary
280
     1
281
     1
  3
ADSK_XREC_LAYER_RECONCILED
360
C63
  0
DICTIONARY
  5
C64
330
4C
100
AcDbDictionary
280
     1
281
     1
  3
ADSK_XREC_LAYER_RECONCILED
360
C65
  0
DICTIONARY
  5
C66
330
4D
100
AcDbDictionary
280
     1
281
     1
  3
ADSK_XREC_LAYER_RECONCILED
360
C67
  0
DICTIONARY
  5
C68
330
4E
100
AcDbDictionary
280
     1
281
     1
  3
ADSK_XREC_LAYER_RECONCILED
360
C69
  0
DICTIONARY
  5
9B8
330
9AB
100
AcDbDictionary
280
     1
281
     1
  3
ACAD_DIMASSOC
360
9C2
  0
DICTIONARY
  5
9D9
330
9CC
100
AcDbDictionary
280
     1
281
     1
  3
ACAD_DIMASSOC
360
9E3
  0
DICTIONARY
  5
A1D
330
A10
100
AcDbDictionary
280
     1
281
     1
  3
ACAD_DIMASSOC
360
A27
  0
XRECORD
  5
A86
102
{ACAD_REACTORS
330
C
102
}
330
C
100
AcDbXrecord
280
     1
300
ACD
300
2013
300
ACD_F_S
  0
DICTIONARY
  5
1B
102
{ACAD_REACTORS
330
C
102
}
330
C
100
AcDbDictionary
281
     1
  0
DICTIONARY
  5
A83
102
{ACAD_REACTORS
330
C
102
}
330
C
100
AcDbDictionary
281
     1
  3
Imperial24
350
A84
  0
DICTIONARY
  5
D
102
{ACAD_REACTORS
330
C
102
}
330
C
100
AcDbDictionary
281
     1
  0
DICTIONARY
  5
19
102
{ACAD_REACTORS
330
C
102
}
330
C
100
AcDbDictionary
281
     1
  3
Layout1
350
1F
  3
Model
350
23
  0
DICTIONARY
  5
1A
102
{ACAD_REACTORS
330
C
102
}
330
C
100
AcDbDictionary
281
     1
  3
ByBlock
350
A41
  3
ByLayer
350
A39
  3
Global
350
A49
  0
DICTIONARY
  5
A7E
102
{ACAD_REACTORS
330
C
102
}
330
C
100
AcDbDictionary
281
     1
  3
Standard
350
A7F
  0
DICTIONARY
  5
16
102
{ACAD_REACTORS
330
C
102
}
330
C
100
AcDbDictionary
281
     1
  3
Standard
350
17
  0
DICTIONARY
  5
18
102
{ACAD_REACTORS
330
C
102
}
330
C
100
AcDbDictionary
281
     1
  0
ACDBDICTIONARYWDFLT
  5
E
102
{ACAD_REACTORS
330
C
102
}
330
C
100
AcDbDictionary
281
     1
  3
Normal
350
F
100
AcDbDictionaryWithDefault
340
F
  0
DICTIONARY
  5
A6C
102
{ACAD_REACTORS
330
C
102
}
330
C
100
AcDbDictionary
281
     1
  3
A0
350
A6D
  3
A1
350
A6E
  3
A2
350
A6F
  3
A3
350
A70
  3
A4
350
A71
  3
A5
350
A72
  3
A6
350
A73
  3
A7
350
A74
  3
A8
350
A75
  3
A9
350
A76
  3
B0
350
A77
  3
B1
350
A78
  3
B2
350
A79
  3
B3
350
A7A
  3
B4
350
A7B
  3
B5
350
A7C
  3
B6
350
A7D
  0
DICTIONARY
  5
A80
102
{ACAD_REACTORS
330
C
102
}
330
C
100
AcDbDictionary
281
     1
  3
Imperial24
350
A82
  0
DICTIONARY
  5
A6A
102
{ACAD_REACTORS
330
C
102
}
330
C
100
AcDbDictionary
281
     1
  3
Standard
350
A6B
  0
DICTIONARY
  5
A51
102
{ACAD_REACTORS
330
C
102
}
330
C
100
AcDbDictionary
281
     1
  3
2dWireframe
350
A57
  3
Basic
350
A56
  3
Brighten
350
A5D
  3
ColorChange
350
A61
  3
Conceptual
350
A5A
  3
Dim
350
A5C
  3
EdgeColorOff
350
A69
  3
Facepattern
350
A60
  3
Flat
350
A52
  3
FlatWithEdges
350
A53
  3
Gouraud
350
A54
  3
GouraudWithEdges
350
A55
  3
Hidden
350
A59
  3
JitterOff
350
A67
  3
Linepattern
350
A5F
  3
OverhangOff
350
A68
  3
Realistic
350
A5B
  3
Shaded
350
A66
  3
Shaded with edges
350
A65
  3
Shades of Gray
350
A62
  3
Sketchy
350
A63
  3
Thicken
350
A5E
  3
Wireframe
350
A58
  3
X-Ray
350
A64
  0
XRECORD
  5
D0B
102
{ACAD_REACTORS
330
C
102
}
330
C
100
AcDbXrecord
280
     1
 90
        1
330
A6B
  0
DICTIONARY
  5
72A
102
{ACAD_REACTORS
330
C
102
}
330
C
100
AcDbDictionary
281
     1
  3
CANNOSCALE
350
CAB
  3
CMLEADERSTYLE
350
CA8
  3
CTABLESTYLE
350
CA7
  3
CVIEWDETAILSTYLE
350
CA9
  3
CVIEWSECTIONSTYLE
350
CAA
  3
DIMASSOC
350
72C
  3
HIDETEXT
350
72B
  3
PROJECTNAME
350
72D
  3
XCLIPFRAME
350
D09
  0
DICTIONARY
  5
D11
102
{ACAD_REACTORS
330
C
102
}
330
C
100
AcDbDictionary
281
     1
  3
AcDsRecords
350
D13
  3
AcDsSchemas
350
D12
1001
ACAD
1070
     2
  0
DICTIONARY
  5
CB5
102
{ACAD_REACTORS
330
CB4
102
}
330
CB4
100
AcDbDictionary
281
     1
  0
XRECORD
  5
C5B
102
{ACAD_REACTORS
330
C5A
102
}
330
C5A
100
AcDbXrecord
280
     1
290
     1
  0
XRECORD
  5
C5D
102
{ACAD_REACTORS
330
C5C
102
}
330
C5C
100
AcDbXrecord
280
     1
290
     1
  0
XRECORD
  5
C5F
102
{ACAD_REACTORS
330
C5E
102
}
330
C5E
100
AcDbXrecord
280
     1
290
     1
  0
XRECORD
  5
C61
102
{ACAD_REACTORS
330
C60
102
}
330
C60
100
AcDbXrecord
280
     1
290
     1
  0
XRECORD
  5
C63
102
{ACAD_REACTORS
330
C62
102
}
330
C62
100
AcDbXrecord
280
     1
290
     1
  0
XRECORD
  5
C65
102
{ACAD_REACTORS
330
C64
102
}
330
C64
100
AcDbXrecord
280
     1
290
     1
  0
XRECORD
  5
C67
102
{ACAD_REACTORS
330
C66
102
}
330
C66
100
AcDbXrecord
280
     1
290
     1
  0
XRECORD
  5
C69
102
{ACAD_REACTORS
330
C68
102
}
330
C68
100
AcDbXrecord
280
     1
290
     1
  0
DIMASSOC
  5
9C2
102
{ACAD_REACTORS
330
9B8
102
}
330
9B8
100
AcDbDimAssoc
330
9AB
 90
        2
 70
     0
 71
     0
  1
AcDbOsnapPointRef
 72
    13
331
986
 73
     2
 91
        0
 40
0.0
 10
0.0
 20
0.0
 30
2.000000000000000E+50
 75
     0
  0
DIMASSOC
  5
9E3
102
{ACAD_REACTORS
330
9D9
102
}
330
9D9
100
AcDbDimAssoc
330
9CC
 90
        2
 70
     0
 71
     0
  1
AcDbOsnapPointRef
 72
     1
331
995
 73
     2
 91
        0
 40
1.0
 10
0.0
 20
0.0
 30
2.000000000000000E+50
 75
     0
  0
DIMASSOC
  5
A27
102
{ACAD_REACTORS
330
A1D
102
}
330
A1D
100
AcDbDimAssoc
330
A10
 90
        2
 70
     0
 71
     0
  1
AcDbOsnapPointRef
 72
    13
331
988
 73
     2
 91
        0
 40
0.0
 10
0.0
 20
0.0
 30
2.000000000000000E+50
 75
     0
  0
ACDBDETAILVIEWSTYLE
  5
A84
102
{ACAD_REACTORS
330
A83
102
}
330
A83
100
AcDbModelDocViewStyle
 70
     0
  3
Imperial24
290
     0
100
AcDbDetailViewStyle
 70
     0
 71
     0
 90
        3
 71
     1
340
11
 62
   256
 40
0.24
340
0
 62
   256
 40
0.24
300

 40
0.36
280
     3
 71
     2
340
15
 90
       25
 62
   256
 71
     3
340
11
 62
   256
 40
0.24
 90
        1
 40
0.75
 90
        1
300
%<\AcVar ViewType \f "%tc1">% %<\AcVar ViewDetailId>%\PVARIA %<\AcVar ViewScale \f "%sn">%
 71
     4
340
15
 90
       25
 62
   256
340
15
 90
       25
 62
   256
280
     0
  0
LAYOUT
  5
1F
102
{ACAD_REACTORS
330
19
102
}
330
19
100
AcDbPlotSettings
  1

  2
RICOH Aficio 2027 PCL 6
  4

  6

 40
0.0
 41
0.0
 42
0.0
 43
0.0
 44
0.0
 45
0.0
 46
0.0
 47
0.0
 48
0.0
 49
0.0
140
0.0
141
0.0
142
1.0
143
1.0
 70
   688
 72
     0
 73
     0
 74
     5
  7
monochrome1.ctb
 75
    16
147
1.0
 76
     0
 77
     2
 78
   300
148
0.0
149
0.0
100
AcDbLayout
  1
Layout1
 70
     0
 71
     1
 10
0.0
 20
0.0
 11
12.0
 21
9.0
 12
0.0
 22
0.0
 32
0.0
 14
1.000000000000000E+20
 24
1.000000000000000E+20
 34
1.000000000000000E+20
 15
-1.000000000000000E+20
 25
-1.000000000000000E+20
 35
-1.000000000000000E+20
146
0.0
 13
0.0
 23
0.0
 33
0.0
 16
1.0
 26
0.0
 36
0.0
 17
0.0
 27
1.0
 37
0.0
 76
     0
330
1C
  0
LAYOUT
  5
23
102
{ACAD_REACTORS
330
19
102
}
330
19
100
AcDbPlotSettings
  1

  2
none_device
  4
Letter_(8.50_x_11.00_Inches)
  6

 40
6.349999904632568
 41
6.349999904632568
 42
6.350006103515625
 43
6.350006103515625
 44
215.8999938964844
 45
279.3999938964844
 46
0.0
 47
0.0
 48
0.0
 49
0.0
140
0.0
141
0.0
142
1.0
143
48.39692081511778
 70
 11952
 72
     0
 73
     1
 74
     0
  7
monochrome1.ctb
 75
     0
147
0.0206624715613649
 76
     0
 77
     2
 78
   300
148
1119.729047934074
149
25.92066644741394
100
AcDbLayout
  1
Model
 70
     1
 71
     0
 10
0.0
 20
0.0
 11
12.0
 21
9.0
 12
0.0
 22
0.0
 32
0.0
 14
0.0
 24
0.0
 34
0.0
 15
0.0
 25
0.0
 35
0.0
146
0.0
 13
0.0
 23
0.0
 33
0.0
 16
1.0
 26
0.0
 36
0.0
 17
0.0
 27
1.0
 37
0.0
 76
     0
330
20
331
A30
1001
ACAD_PSEXT
1000
Kein
1000
Kein
1000
Nicht anwendbar
1000
Das Layout wird erst geplottet, wenn ein neuer Plotter-Konfigurationsname ausgewählt wird.
1070
     0
  0
MATERIAL
  5
A41
102
{ACAD_XDICTIONARY
360
A42
102
}
102
{ACAD_REACTORS
330
1A
102
}
330
1A
100
AcDbMaterial
  1
ByBlock
 72
     0
 43
0.0208333333333333
 43
0.0
 43
0.0
 43
0.0
 43
0.0
 43
0.0208333333333333
 43
0.0
 43
0.0
 43
0.0
 43
0.0
 43
1.0
 43
0.0
 43
0.0
 43
0.0
 43
0.0
 43
1.0
 77
     0
 47
0.0208333333333333
 47
0.0
 47
0.0
 47
0.0
 47
0.0
 47
0.0208333333333333
 47
0.0
 47
0.0
 47
0.0
 47
0.0
 47
1.0
 47
0.0
 47
0.0
 47
0.0
 47
0.0
 47
1.0
171
     0
 49
0.0208333333333333
 49
0.0
 49
0.0
 49
0.0
 49
0.0
 49
0.0208333333333333
 49
0.0
 49
0.0
 49
0.0
 49
0.0
 49
1.0
 49
0.0
 49
0.0
 49
0.0
 49
0.0
 49
1.0
175
     0
142
0.0208333333333333
142
0.0
142
0.0
142
0.0
142
0.0
142
0.0208333333333333
142
0.0
142
0.0
142
0.0
142
0.0
142
1.0
142
0.0
142
0.0
142
0.0
142
0.0
142
1.0
179
     0
144
0.0208333333333333
144
0.0
144
0.0
144
0.0
144
0.0
144
0.0208333333333333
144
0.0
144
0.0
144
0.0
144
0.0
144
1.0
144
0.0
144
0.0
144
0.0
144
0.0
144
1.0
147
0.0208333333333333
147
0.0
147
0.0
147
0.0
147
0.0
147
0.0208333333333333
147
0.0
147
0.0
147
0.0
147
0.0
147
1.0
147
0.0
147
0.0
147
0.0
147
0.0
147
1.0
  0
MATERIAL
  5
A39
102
{ACAD_XDICTIONARY
360
A3A
102
}
102
{ACAD_REACTORS
330
1A
102
}
330
1A
100
AcDbMaterial
  1
ByLayer
 72
     0
 43
0.0208333333333333
 43
0.0
 43
0.0
 43
0.0
 43
0.0
 43
0.0208333333333333
 43
0.0
 43
0.0
 43
0.0
 43
0.0
 43
1.0
 43
0.0
 43
0.0
 43
0.0
 43
0.0
 43
1.0
 77
     0
 47
0.0208333333333333
 47
0.0
 47
0.0
 47
0.0
 47
0.0
 47
0.0208333333333333
 47
0.0
 47
0.0
 47
0.0
 47
0.0
 47
1.0
 47
0.0
 47
0.0
 47
0.0
 47
0.0
 47
1.0
171
     0
 49
0.0208333333333333
 49
0.0
 49
0.0
 49
0.0
 49
0.0
 49
0.0208333333333333
 49
0.0
 49
0.0
 49
0.0
 49
0.0
 49
1.0
 49
0.0
 49
0.0
 49
0.0
 49
0.0
 49
1.0
175
     0
142
0.0208333333333333
142
0.0
142
0.0
142
0.0
142
0.0
142
0.0208333333333333
142
0.0
142
0.0
142
0.0
142
0.0
142
1.0
142
0.0
142
0.0
142
0.0
142
0.0
142
1.0
179
     0
144
0.0208333333333333
144
0.0
144
0.0
144
0.0
144
0.0
144
0.0208333333333333
144
0.0
144
0.0
144
0.0
144
0.0
144
1.0
144
0.0
144
0.0
144
0.0
144
0.0
144
1.0
147
0.0208333333333333
147
0.0
147
0.0
147
0.0
147
0.0
147
0.0208333333333333
147
0.0
147
0.0
147
0.0
147
0.0
147
1.0
147
0.0
147
0.0
147
0.0
147
0.0
147
1.0
  0
MATERIAL
  5
A49
102
{ACAD_XDICTIONARY
360
A4A
102
}
102
{ACAD_REACTORS
330
1A
102
}
330
1A
100
AcDbMaterial
  1
Global
 72
     0
 43
0.0208333333333333
 43
0.0
 43
0.0
 43
0.0
 43
0.0
 43
0.0208333333333333
 43
0.0
 43
0.0
 43
0.0
 43
0.0
 43
1.0
 43
0.0
 43
0.0
 43
0.0
 43
0.0
 43
1.0
 77
     0
 47
0.0208333333333333
 47
0.0
 47
0.0
 47
0.0
 47
0.0
 47
0.0208333333333333
 47
0.0
 47
0.0
 47
0.0
 47
0.0
 47
1.0
 47
0.0
 47
0.0
 47
0.0
 47
0.0
 47
1.0
171
     0
 49
0.0208333333333333
 49
0.0
 49
0.0
 49
0.0
 49
0.0
 49
0.0208333333333333
 49
0.0
 49
0.0
 49
0.0
 49
0.0
 49
1.0
 49
0.0
 49
0.0
 49
0.0
 49
0.0
 49
1.0
175
     0
142
0.0208333333333333
142
0.0
142
0.0
142
0.0
142
0.0
142
0.0208333333333333
142
0.0
142
0.0
142
0.0
142
0.0
142
1.0
142
0.0
142
0.0
142
0.0
142
0.0
142
1.0
179
     0
144
0.0208333333333333
144
0.0
144
0.0
144
0.0
144
0.0
144
0.0208333333333333
144
0.0
144
0.0
144
0.0
144
0.0
144
1.0
144
0.0
144
0.0
144
0.0
144
0.0
144
1.0
147
0.0208333333333333
147
0.0
147
0.0
147
0.0
147
0.0
147
0.0208333333333333
147
0.0
147
0.0
147
0.0
147
0.0
147
1.0
147
0.0
147
0.0
147
0.0
147
0.0
147
1.0
  0
MLEADERSTYLE
  5
A7F
102
{ACAD_XDICTIONARY
360
D48
102
}
102
{ACAD_REACTORS
330
A7E
102
}
330
A7E
100
AcDbMLeaderStyle
170
     2
171
     1
172
     0
 90
        2
 40
0.0
 41
0.0
173
     1
 91
-1056964608
340
13
 92
       -2
290
     1
 42
0.09
291
     1
 43
0.36
  3
Standard
 44
0.18
300

342
11
174
     1
178
     6
175
     1
176
     0
 93
-1056964608
 45
0.18
292
     0
297
     0
 46
0.18
 94
-1056964608
 47
1.0
 49
1.0
140
1.0
293
     1
141
0.0
294
     1
177
     0
142
1.0
295
     0
296
     0
143
0.125
1001
ACAD_MLEADERVER
1070
     2
  0
MLINESTYLE
  5
17
102
{ACAD_REACTORS
330
16
102
}
330
16
100
AcDbMlineStyle
  2
STANDARD
 70
     0
  3

 62
   256
 51
90.0
 52
90.0
 71
     2
 49
0.5
 62
   256
  6
BYLAYER
 49
-0.5
 62
   256
  6
BYLAYER
  0
ACDBPLACEHOLDER
  5
F
102
{ACAD_REACTORS
330
E
102
}
330
E
  0
SCALE
  5
A6D
102
{ACAD_REACTORS
330
A6C
102
}
330
A6C
100
AcDbScale
 70
     0
300
1:1
140
1.0
141
1.0
290
     1
  0
SCALE
  5
A6E
102
{ACAD_REACTORS
330
A6C
102
}
330
A6C
100
AcDbScale
 70
     0
300
1/128" = 1'-0"
140
0.0078125
141
12.0
290
     0
  0
SCALE
  5
A6F
102
{ACAD_REACTORS
330
A6C
102
}
330
A6C
100
AcDbScale
 70
     0
300
1/64" = 1'-0"
140
0.015625
141
12.0
290
     0
  0
SCALE
  5
A70
102
{ACAD_REACTORS
330
A6C
102
}
330
A6C
100
AcDbScale
 70
     0
300
1/32" = 1'-0"
140
0.03125
141
12.0
290
     0
  0
SCALE
  5
A71
102
{ACAD_REACTORS
330
A6C
102
}
330
A6C
100
AcDbScale
 70
     0
300
1/16" = 1'-0"
140
0.0625
141
12.0
290
     0
  0
SCALE
  5
A72
102
{ACAD_REACTORS
330
A6C
102
}
330
A6C
100
AcDbScale
 70
     0
300
3/32" = 1'-0"
140
0.09375
141
12.0
290
     0
  0
SCALE
  5
A73
102
{ACAD_REACTORS
330
A6C
102
}
330
A6C
100
AcDbScale
 70
     0
300
1/8" = 1'-0"
140
0.125
141
12.0
290
     0
  0
SCALE
  5
A74
102
{ACAD_REACTORS
330
A6C
102
}
330
A6C
100
AcDbScale
 70
     0
300
3/16" = 1'-0"
140
0.1875
141
12.0
290
     0
  0
SCALE
  5
A75
102
{ACAD_REACTORS
330
A6C
102
}
330
A6C
100
AcDbScale
 70
     0
300
1/4" = 1'-0"
140
0.25
141
12.0
290
     0
  0
SCALE
  5
A76
102
{ACAD_REACTORS
330
A6C
102
}
330
A6C
100
AcDbScale
 70
     0
300
3/8" = 1'-0"
140
0.375
141
12.0
290
     0
  0
SCALE
  5
A77
102
{ACAD_REACTORS
330
A6C
102
}
330
A6C
100
AcDbScale
 70
     0
300
1/2" = 1'-0"
140
0.5
141
12.0
290
     0
  0
SCALE
  5
A78
102
{ACAD_REACTORS
330
A6C
102
}
330
A6C
100
AcDbScale
 70
     0
300
3/4" = 1'-0"
140
0.75
141
12.0
290
     0
  0
SCALE
  5
A79
102
{ACAD_REACTORS
330
A6C
102
}
330
A6C
100
AcDbScale
 70
     0
300
1" = 1'-0"
140
1.0
141
12.0
290
     0
  0
SCALE
  5
A7A
102
{ACAD_REACTORS
330
A6C
102
}
330
A6C
100
AcDbScale
 70
     0
300
1-1/2" = 1'-0"
140
1.5
141
12.0
290
     0
  0
SCALE
  5
A7B
102
{ACAD_REACTORS
330
A6C
102
}
330
A6C
100
AcDbScale
 70
     0
300
3" = 1'-0"
140
3.0
141
12.0
290
     0
  0
SCALE
  5
A7C
102
{ACAD_REACTORS
330
A6C
102
}
330
A6C
100
AcDbScale
 70
     0
300
6" = 1'-0"
140
6.0
141
12.0
290
     0
  0
SCALE
  5
A7D
102
{ACAD_REACTORS
330
A6C
102
}
330
A6C
100
AcDbScale
 70
     0
300
1'-0" = 1'-0"
140
12.0
141
12.0
290
     0
  0
ACDBSECTIONVIEWSTYLE
  5
A82
102
{ACAD_REACTORS
330
A80
102
}
330
A80
100
AcDbModelDocViewStyle
 70
     0
  3
Imperial24
290
     0
100
AcDbSectionViewStyle
 70
     0
 71
     0
 90
       78
 71
     1
340
11
 62
   256
 40
0.24
340
0
340
0
 62
   256
 40
0.24
300
I, O, Q, S, X, Z
 40
0.48
 90
        3
 40
0.18
 90
        1
 71
     2
340
A81
 90
       25
 62
   256
340
15
 90
       50
 62
   256
 40
0.24
 40
0.0
 40
0.24
 71
     3
340
11
 62
   256
 40
0.24
 90
        1
 40
0.75
 90
        1
300
%<\AcVar ViewType \f "%tc1">% %<\AcVar ViewSectionStartId>%-%<\AcVar ViewSectionEndId>%\PVARIA %<\AcVar ViewScale \f "%sn">%
 71
     4
 62
   256
 62
   257
300
ANSI31
 40
1.0
 90
        0
290
     0
290
     0
 90
        6
 40
0.0
 40
1.570796326794896
 40
0.2617993877991494
 40
1.308996938995747
 40
-0.2617993877991494
 40
1.832595714594046
  0
TABLESTYLE
  5
A6B
102
{ACAD_XDICTIONARY
360
C6A
102
}
102
{ACAD_REACTORS
330
A6A
102
}
330
A6A
100
AcDbTableStyle
  3
Standard
 70
     0
 71
     0
 40
0.06
 41
0.06
280
     0
281
     0
  7
STANDARD
140
0.18
170
     2
 62
     0
 63
     7
283
     0
274
    -2
284
     1
 64
     0
275
    -2
285
     1
 65
     0
276
    -2
286
     1
 66
     0
277
    -2
287
     1
 67
     0
278
    -2
288
     1
 68
     0
279
    -2
289
     1
 69
     0
  7
STANDARD
140
0.25
170
     5
 62
     0
 63
     7
283
     0
274
    -2
284
     1
 64
     0
275
    -2
285
     1
 65
     0
276
    -2
286
     1
 66
     0
277
    -2
287
     1
 67
     0
278
    -2
288
     1
 68
     0
279
    -2
289
     1
 69
     0
  7
STANDARD
140
0.18
170
     5
 62
     0
 63
     7
283
     0
274
    -2
284
     1
 64
     0
275
    -2
285
     1
 65
     0
276
    -2
286
     1
 66
     0
277
    -2
287
     1
 67
     0
278
    -2
288
     1
 68
     0
279
    -2
289
     1
 69
     0
  0
VISUALSTYLE
  5
A57
102
{ACAD_XDICTIONARY
360
D21
102
}
102
{ACAD_REACTORS
330
A51
102
}
330
A51
100
AcDbVisualStyle
  2
2dWireframe
 70
     4
 71
     0
 72
     2
 73
     0
 90
        0
 40
-0.6
 41
-30.0
 62
     5
 63
     7
421
 16777215
 74
     1
 91
        4
 64
     7
 65
   257
 75
     1
175
     1
 42
1.0
 92
        0
 66
   257
 43
1.0
 76
     1
 77
     6
 78
     2
 67
     7
 79
     5
170
     0
171
     0
290
     0
174
     0
 93
        1
 44
0.0
173
     0
291
     0
 45
0.0
1001
ACAD
1000
AcDbSavedByObjectVersion
1070
     0
  0
VISUALSTYLE
  5
A56
102
{ACAD_XDICTIONARY
360
D1F
102
}
102
{ACAD_REACTORS
330
A51
102
}
330
A51
100
AcDbVisualStyle
  2
Basic
 70
     7
 71
     1
 72
     0
 73
     1
 90
        0
 40
-0.6
 41
-30.0
 62
     5
 63
     7
421
 16777215
 74
     0
 91
        4
 64
     7
 65
   257
 75
     1
175
     1
 42
1.0
 92
        8
 66
     7
 43
1.0
 76
     1
 77
     6
 78
     2
 67
     7
 79
     5
170
     0
171
     0
290
     0
174
     0
 93
        1
 44
0.0
173
     0
291
     1
 45
0.0
1001
ACAD
1000
AcDbSavedByObjectVersion
1070
     0
  0
VISUALSTYLE
  5
A5D
102
{ACAD_XDICTIONARY
360
D2D
102
}
102
{ACAD_REACTORS
330
A51
102
}
330
A51
100
AcDbVisualStyle
  2
Brighten
 70
    12
 71
     2
 72
     2
 73
     0
 90
        0
 40
-0.6
 41
-30.0
 62
     5
 63
     7
421
 16777215
 74
     1
 91
        4
 64
     7
 65
   257
 75
     1
175
     1
 42
1.0
 92
        8
 66
     7
 43
1.0
 76
     1
 77
     6
 78
     2
 67
     7
 79
     5
170
     0
171
     0
290
     0
174
     0
 93
        1
 44
50.0
173
     0
291
     1
 45
0.0
1001
ACAD
1000
AcDbSavedByObjectVersion
1070
     0
  0
VISUALSTYLE
  5
A61
102
{ACAD_XDICTIONARY
360
D35
102
}
102
{ACAD_REACTORS
330
A51
102
}
330
A51
100
AcDbVisualStyle
  2
ColorChange
 70
    16
 71
     2
 72
     2
 73
     3
 90
        0
 40
-0.6
 41
-30.0
 62
     5
 63
     8
421
  8421504
 74
     1
 91
        4
 64
     7
 65
   257
 75
     1
175
     1
 42
1.0
 92
        8
 66
     8
424
  8421504
 43
1.0
 76
     1
 77
     6
 78
     2
 67
     7
 79
     5
170
     0
171
     0
290
     0
174
     0
 93
        1
 44
0.0
173
     0
291
     1
 45
0.0
1001
ACAD
1000
AcDbSavedByObjectVersion
1070
     0
  0
VISUALSTYLE
  5
A5A
102
{ACAD_XDICTIONARY
360
D27
102
}
102
{ACAD_REACTORS
330
A51
102
}
330
A51
100
AcDbVisualStyle
  2
Conceptual
 70
     9
 71
     3
 72
     2
 73
     0
 90
        0
 40
-0.6
 41
-30.0
 62
     5
 63
     7
421
 16777215
 74
     2
 91
        2
 64
     7
 65
   257
 75
     1
175
     1
 42
179.0
 92
        8
 66
     7
 43
1.0
 76
     1
 77
     6
 78
     2
 67
     7
 79
     3
170
     0
171
     0
290
     0
174
     0
 93
        1
 44
0.0
173
     0
291
     0
 45
0.0
1001
ACAD
1000
AcDbSavedByObjectVersion
1070
     0
  0
VISUALSTYLE
  5
A5C
102
{ACAD_XDICTIONARY
360
D2B
102
}
102
{ACAD_REACTORS
330
A51
102
}
330
A51
100
AcDbVisualStyle
  2
Dim
 70
    11
 71
     2
 72
     2
 73
     0
 90
        0
 40
-0.6
 41
-30.0
 62
     5
 63
     7
421
 16777215
 74
     1
 91
        4
 64
     7
 65
   257
 75
     1
175
     1
 42
1.0
 92
        8
 66
     7
 43
1.0
 76
     1
 77
     6
 78
     2
 67
     7
 79
     5
170
     0
171
     0
290
     0
174
     0
 93
        1
 44
-50.0
173
     0
291
     1
 45
0.0
1001
ACAD
1000
AcDbSavedByObjectVersion
1070
     0
  0
VISUALSTYLE
  5
A69
102
{ACAD_XDICTIONARY
360
D45
102
}
102
{ACAD_REACTORS
330
A51
102
}
330
A51
100
AcDbVisualStyle
  2
EdgeColorOff
 70
    22
 71
     2
 72
     2
 73
     0
 90
        0
 40
-0.6
 41
-30.0
 62
     5
 63
     7
421
 16777215
 74
     1
 91
        4
 64
     7
 65
   257
 75
     1
175
     1
 42
1.0
 92
        8
 66
     7
 43
1.0
 76
     1
 77
     6
 78
     2
 67
     7
 79
     5
170
     0
171
     0
290
     0
174
     0
 93
        1
 44
0.0
173
     0
291
     1
 45
0.0
1001
ACAD
1000
AcDbSavedByObjectVersion
1070
     0
  0
VISUALSTYLE
  5
A60
102
{ACAD_XDICTIONARY
360
D33
102
}
102
{ACAD_REACTORS
330
A51
102
}
330
A51
100
AcDbVisualStyle
  2
Facepattern
 70
    15
 71
     2
 72
     2
 73
     0
 90
        0
 40
-0.6
 41
-30.0
 62
     5
 63
     7
421
 16777215
 74
     1
 91
        4
 64
     7
 65
   257
 75
     1
175
     1
 42
1.0
 92
        8
 66
     7
 43
1.0
 76
     1
 77
     6
 78
     2
 67
     7
 79
     5
170
     0
171
     0
290
     0
174
     0
 93
        1
 44
0.0
173
     0
291
     1
 45
0.0
1001
ACAD
1000
AcDbSavedByObjectVersion
1070
     0
  0
VISUALSTYLE
  5
A52
102
{ACAD_XDICTIONARY
360
D17
102
}
102
{ACAD_REACTORS
330
A51
102
}
330
A51
100
AcDbVisualStyle
  2
Flat
 70
     0
 71
     2
 72
     1
 73
     1
 90
        2
 40
-0.6
 41
30.0
 62
     5
 63
     7
421
 16777215
 74
     0
 91
        0
 64
     7
 65
   257
 75
     1
175
     1
 42
1.0
 92
        8
 66
     7
 43
1.0
 76
     1
 77
     6
 78
     2
 67
     7
 79
     5
170
     0
171
     0
290
     0
174
     0
 93
       13
 44
0.0
173
     0
291
     1
 45
0.0
1001
ACAD
1000
AcDbSavedByObjectVersion
1070
     0
  0
VISUALSTYLE
  5
A53
102
{ACAD_XDICTIONARY
360
D19
102
}
102
{ACAD_REACTORS
330
A51
102
}
330
A51
100
AcDbVisualStyle
  2
FlatWithEdges
 70
     1
 71
     2
 72
     1
 73
     1
 90
        2
 40
-0.6
 41
30.0
 62
     5
 63
     7
421
 16777215
 74
     1
 91
        0
 64
     7
 65
   257
 75
     1
175
     1
 42
1.0
 92
        0
 66
   257
 43
1.0
 76
     1
 77
     6
 78
     2
 67
     7
 79
     5
170
     0
171
     0
290
     0
174
     0
 93
       13
 44
0.0
173
     0
291
     1
 45
0.0
1001
ACAD
1000
AcDbSavedByObjectVersion
1070
     0
  0
VISUALSTYLE
  5
A54
102
{ACAD_XDICTIONARY
360
D1B
102
}
102
{ACAD_REACTORS
330
A51
102
}
330
A51
100
AcDbVisualStyle
  2
Gouraud
 70
     2
 71
     2
 72
     2
 73
     1
 90
        2
 40
-0.6
 41
30.0
 62
     5
 63
     7
421
 16777215
 74
     0
 91
        0
 64
     7
 65
   257
 75
     1
175
     1
 42
1.0
 92
        0
 66
     7
 43
1.0
 76
     1
 77
     6
 78
     2
 67
     7
 79
     5
170
     0
171
     0
290
     0
174
     0
 93
       13
 44
0.0
173
     0
291
     1
 45
0.0
1001
ACAD
1000
AcDbSavedByObjectVersion
1070
     0
  0
VISUALSTYLE
  5
A55
102
{ACAD_XDICTIONARY
360
D1D
102
}
102
{ACAD_REACTORS
330
A51
102
}
330
A51
100
AcDbVisualStyle
  2
GouraudWithEdges
 70
     3
 71
     2
 72
     2
 73
     1
 90
        2
 40
-0.6
 41
30.0
 62
     5
 63
     7
421
 16777215
 74
     1
 91
        0
 64
     7
 65
   257
 75
     1
175
     1
 42
1.0
 92
        0
 66
   257
 43
1.0
 76
     1
 77
     6
 78
     2
 67
     7
 79
     5
170
     0
171
     0
290
     0
174
     0
 93
       13
 44
0.0
173
     0
291
     1
 45
0.0
1001
ACAD
1000
AcDbSavedByObjectVersion
1070
     0
  0
VISUALSTYLE
  5
A59
102
{ACAD_XDICTIONARY
360
D25
102
}
102
{ACAD_REACTORS
330
A51
102
}
330
A51
100
AcDbVisualStyle
  2
Hidden
 70
     6
 71
     1
 72
     2
 73
     2
 90
        0
 40
-0.6
 41
-30.0
 62
     5
 63
     7
421
 16777215
 74
     2
 91
        2
 64
     7
 65
   257
 75
     2
175
     1
 42
40.0
 92
        0
 66
   257
 43
1.0
 76
     1
 77
     6
 78
     2
 67
     7
 79
     3
170
     0
171
     0
290
     0
174
     0
 93
        1
 44
0.0
173
     0
291
     0
 45
0.0
1001
ACAD
1000
AcDbSavedByObjectVersion
1070
     0
  0
VISUALSTYLE
  5
A67
102
{ACAD_XDICTIONARY
360
D41
102
}
102
{ACAD_REACTORS
330
A51
102
}
330
A51
100
AcDbVisualStyle
  2
JitterOff
 70
    20
 71
     2
 72
     2
 73
     0
 90
        0
 40
-0.6
 41
-30.0
 62
     5
 63
     7
421
 16777215
 74
     1
 91
        4
 64
     7
 65
   257
 75
     1
175
     1
 42
1.0
 92
       10
 66
     7
 43
1.0
 76
     1
 77
     6
 78
     2
 67
     7
 79
     5
170
     0
171
     0
290
     0
174
     0
 93
        1
 44
0.0
173
     0
291
     1
 45
0.0
1001
ACAD
1000
AcDbSavedByObjectVersion
1070
     0
  0
VISUALSTYLE
  5
A5F
102
{ACAD_XDICTIONARY
360
D31
102
}
102
{ACAD_REACTORS
330
A51
102
}
330
A51
100
AcDbVisualStyle
  2
Linepattern
 70
    14
 71
     2
 72
     2
 73
     0
 90
        0
 40
-0.6
 41
-30.0
 62
     5
 63
     7
421
 16777215
 74
     1
 91
        4
 64
     7
 65
   257
 75
     7
175
     7
 42
1.0
 92
        8
 66
     7
 43
1.0
 76
     1
 77
     6
 78
     2
 67
     7
 79
     5
170
     0
171
     0
290
     0
174
     0
 93
        1
 44
0.0
173
     0
291
     1
 45
0.0
1001
ACAD
1000
AcDbSavedByObjectVersion
1070
     0
  0
VISUALSTYLE
  5
A68
102
{ACAD_XDICTIONARY
360
D43
102
}
102
{ACAD_REACTORS
330
A51
102
}
330
A51
100
AcDbVisualStyle
  2
OverhangOff
 70
    21
 71
     2
 72
     2
 73
     0
 90
        0
 40
-0.6
 41
-30.0
 62
     5
 63
     7
421
 16777215
 74
     1
 91
        4
 64
     7
 65
   257
 75
     1
175
     1
 42
1.0
 92
        9
 66
     7
 43
1.0
 76
     1
 77
     6
 78
     2
 67
     7
 79
     5
170
     0
171
     0
290
     0
174
     0
 93
        1
 44
0.0
173
     0
291
     1
 45
0.0
1001
ACAD
1000
AcDbSavedByObjectVersion
1070
     0
  0
VISUALSTYLE
  5
A5B
102
{ACAD_XDICTIONARY
360
D29
102
}
102
{ACAD_REACTORS
330
A51
102
}
330
A51
100
AcDbVisualStyle
  2
Realistic
 70
     8
 71
     2
 72
     2
 73
     0
 90
        2
 40
-0.6
 41
30.0
 62
     5
 63
     7
421
 16777215
 74
     0
 91
        0
 64
     7
 65
   257
 75
     1
175
     1
 42
1.0
 92
        8
 66
   257
 43
1.0
 76
     1
 77
     6
 78
     2
 67
     7
 79
     3
170
     0
171
     0
290
     0
174
     0
 93
       13
 44
0.0
173
     0
291
     0
 45
0.0
1001
ACAD
1000
AcDbSavedByObjectVersion
1070
     0
  0
VISUALSTYLE
  5
A66
102
{ACAD_XDICTIONARY
360
D3F
102
}
102
{ACAD_REACTORS
330
A51
102
}
330
A51
100
AcDbVisualStyle
  2
Shaded
 70
    27
 71
     2
 72
     2
 73
     1
 90
        2
 40
-0.6
 41
30.0
 62
     5
 63
     7
421
 16777215
 74
     0
 91
        4
 64
     7
 65
   257
 75
     1
175
     1
 42
1.0
 92
        8
 66
   257
 43
1.0
 76
     1
 77
     6
 78
     2
 67
     8
425
  7895160
 79
     3
170
     0
171
     0
290
     0
174
     0
 93
        5
 44
0.0
173
     0
291
     0
 45
0.0
1001
ACAD
1000
AcDbSavedByObjectVersion
1070
     0
  0
VISUALSTYLE
  5
A65
102
{ACAD_XDICTIONARY
360
D3D
102
}
102
{ACAD_REACTORS
330
A51
102
}
330
A51
100
AcDbVisualStyle
  2
Shaded with edges
 70
    26
 71
     2
 72
     2
 73
     1
 90
        2
 40
-0.6
 41
30.0
 62
     5
 63
     7
421
 16777215
 74
     1
 91
       10
 64
     7
 65
   257
 75
     2
175
     1
 42
1.0
 92
        8
 66
   257
 43
1.0
 76
     1
 77
     6
 78
     2
 67
     7
 79
     3
170
     0
171
     0
290
     0
174
     0
 93
        5
 44
0.0
173
     0
291
     0
 45
0.0
1001
ACAD
1000
AcDbSavedByObjectVersion
1070
     0
  0
VISUALSTYLE
  5
A62
102
{ACAD_XDICTIONARY
360
D37
102
}
102
{ACAD_REACTORS
330
A51
102
}
330
A51
100
AcDbVisualStyle
  2
Shades of Gray
 70
    23
 71
     2
 72
     2
 73
     3
 90
        0
 40
-0.6
 41
-30.0
 62
     5
 63
     7
421
 16777215
 74
     2
 91
        2
 64
     7
 65
     7
 75
     1
175
     1
 42
40.0
 92
        8
 66
     7
 43
1.0
 76
     1
 77
     6
 78
     2
 67
     7
 79
     3
170
     0
171
     0
290
     0
174
     0
 93
        1
 44
0.0
173
     0
291
     0
 45
0.0
1001
ACAD
1000
AcDbSavedByObjectVersion
1070
     0
  0
VISUALSTYLE
  5
A63
102
{ACAD_XDICTIONARY
360
D39
102
}
102
{ACAD_REACTORS
330
A51
102
}
330
A51
100
AcDbVisualStyle
  2
Sketchy
 70
    24
 71
     1
 72
     2
 73
     2
 90
        0
 40
-0.6
 41
-30.0
 62
     5
 63
     7
421
 16777215
 74
     2
 91
        2
 64
     7
 65
     7
 75
     1
175
     1
 42
40.0
 92
       11
 66
     7
 43
1.0
 76
     1
 77
     6
 78
     2
 67
     7
 79
     6
170
     0
171
     0
290
     0
174
     0
 93
        1
 44
0.0
173
     0
291
     0
 45
0.0
1001
ACAD
1000
AcDbSavedByObjectVersion
1070
     0
  0
VISUALSTYLE
  5
A5E
102
{ACAD_XDICTIONARY
360
D2F
102
}
102
{ACAD_REACTORS
330
A51
102
}
330
A51
100
AcDbVisualStyle
  2
Thicken
 70
    13
 71
     2
 72
     2
 73
     0
 90
        0
 40
-0.6
 41
-30.0
 62
     5
 63
     7
421
 16777215
 74
     1
 91
        4
 64
     7
 65
   257
 75
     1
175
     1
 42
1.0
 92
       12
 66
     7
 43
1.0
 76
     1
 77
     6
 78
     2
 67
     7
 79
     5
170
     0
171
     0
290
     0
174
     0
 93
        1
 44
0.0
173
     0
291
     1
 45
0.0
1001
ACAD
1000
AcDbSavedByObjectVersion
1070
     0
  0
VISUALSTYLE
  5
A58
102
{ACAD_XDICTIONARY
360
D23
102
}
102
{ACAD_REACTORS
330
A51
102
}
330
A51
100
AcDbVisualStyle
  2
Wireframe
 70
     5
 71
     0
 72
     2
 73
     0
 90
        0
 40
-0.6
 41
-30.0
 62
     5
 63
     7
421
 16777215
 74
     1
 91
        4
 64
     7
 65
   257
 75
     1
175
     1
 42
1.0
 92
        0
 66
   257
 43
1.0
 76
     1
 77
     6
 78
     2
 67
     7
 79
     3
170
     0
171
     0
290
     0
174
     0
 93
        1
 44
0.0
173
     0
291
     0
 45
0.0
1001
ACAD
1000
AcDbSavedByObjectVersion
1070
     0
  0
VISUALSTYLE
  5
A64
102
{ACAD_XDICTIONARY
360
D3B
102
}
102
{ACAD_REACTORS
330
A51
102
}
330
A51
100
AcDbVisualStyle
  2
X-Ray
 70
    25
 71
     2
 72
     2
 73
     1
 90
        1
 40
0.5
 41
-30.0
 62
     5
 63
     7
421
 16777215
 74
     1
 91
        0
 64
     7
 65
   257
 75
     1
175
     1
 42
1.0
 92
        8
 66
     7
 43
1.0
 76
     1
 77
     6
 78
     2
 67
     7
 79
     3
170
     0
171
     0
290
     0
174
     0
 93
       13
 44
0.0
173
     0
291
     0
 45
0.0
1001
ACAD
1000
AcDbSavedByObjectVersion
1070
     0
  0
DICTIONARYVAR
  5
CAB
102
{ACAD_REACTORS
330
72A
102
}
330
72A
100
DictionaryVariables
280
     0
  1
1:1
  0
DICTIONARYVAR
  5
CA8
102
{ACAD_REACTORS
330
72A
102
}
330
72A
100
DictionaryVariables
280
     0
  1
STANDARD
  0
DICTIONARYVAR
  5
CA7
102
{ACAD_REACTORS
330
72A
102
}
330
72A
100
DictionaryVariables
280
     0
  1
STANDARD
  0
DICTIONARYVAR
  5
CA9
102
{ACAD_REACTORS
330
72A
102
}
330
72A
100
DictionaryVariables
280
     0
  1
Imperial24
  0
DICTIONARYVAR
  5
CAA
102
{ACAD_REACTORS
330
72A
102
}
330
72A
100
DictionaryVariables
280
     0
  1
Imperial24
  0
DICTIONARYVAR
  5
72C
102
{ACAD_REACTORS
330
72A
102
}
330
72A
100
DictionaryVariables
280
     0
  1
2
  0
DICTIONARYVAR
  5
72B
102
{ACAD_REACTORS
330
72A
102
}
330
72A
100
DictionaryVariables
280
     0
  1
1
  0
DICTIONARYVAR
  5
72D
102
{ACAD_REACTORS
330
72A
102
}
330
72A
100
DictionaryVariables
280
     0
  1

  0
DICTIONARYVAR
  5
D09
102
{ACAD_REACTORS
330
72A
102
}
330
72A
100
DictionaryVariables
280
     0
  1
2
  0
DICTIONARY
  5
D13
102
{ACAD_REACTORS
330
D11
102
}
330
D11
100
AcDbDictionary
281
     1
  0
DICTIONARY
  5
D12
102
{ACAD_REACTORS
330
D11
102
}
330
D11
100
AcDbDictionary
281
     1
  3
8796083728192
350
D0C
  3
8796083728208
350
D0D
  3
8796083728224
350
D0E
  3
8796083728240
350
D0F
  3
8796083752960
350
D10
  0
DICTIONARY
  5
A42
330
A41
100
AcDbDictionary
280
     1
281
     1
  3
ACAD_XREC_ROUNDTRIP
360
D15
  3
BUMPTILE
360
A44
  3
DIFFUSETILE
360
A43
  3
OPACITYTILE
360
A47
  3
REFLECTIONTILE
360
A46
  3
REFRACTIONTILE
360
A48
  3
SPECULARTILE
360
A45
  0
DICTIONARY
  5
A3A
330
A39
100
AcDbDictionary
280
     1
281
     1
  3
ACAD_XREC_ROUNDTRIP
360
D14
  3
BUMPTILE
360
A3C
  3
DIFFUSETILE
360
A3B
  3
OPACITYTILE
360
A3F
  3
REFLECTIONTILE
360
A3E
  3
REFRACTIONTILE
360
A40
  3
SPECULARTILE
360
A3D
  0
DICTIONARY
  5
A4A
330
A49
100
AcDbDictionary
280
     1
281
     1
  3
ACAD_XREC_ROUNDTRIP
360
D16
  3
BUMPTILE
360
A4C
  3
DIFFUSETILE
360
A4B
  3
OPACITYTILE
360
A4F
  3
REFLECTIONTILE
360
A4E
  3
REFRACTIONTILE
360
A50
  3
SPECULARTILE
360
A4D
  0
DICTIONARY
  5
D48
330
A7F
100
AcDbDictionary
280
     1
281
     1
  3
ACAD_XREC_ROUNDTRIP
360
D49
  0
DICTIONARY
  5
C6A
330
A6B
100
AcDbDictionary
280
     1
281
     1
  3
ACAD_ROUNDTRIP_2008_TABLESTYLE_CELLSTYLEMAP
360
D0A
  3
ACAD_XREC_ROUNDTRIP
360
D47
  0
DICTIONARY
  5
D21
330
A57
100
AcDbDictionary
280
     1
281
     1
  3
ACAD_XREC_ROUNDTRIP
360
D22
  0
DICTIONARY
  5
D1F
330
A56
100
AcDbDictionary
280
     1
281
     1
  3
ACAD_XREC_ROUNDTRIP
360
D20
  0
DICTIONARY
  5
D2D
330
A5D
100
AcDbDictionary
280
     1
281
     1
  3
ACAD_XREC_ROUNDTRIP
360
D2E
  0
DICTIONARY
  5
D35
330
A61
100
AcDbDictionary
280
     1
281
     1
  3
ACAD_XREC_ROUNDTRIP
360
D36
  0
DICTIONARY
  5
D27
330
A5A
100
AcDbDictionary
280
     1
281
     1
  3
ACAD_XREC_ROUNDTRIP
360
D28
  0
DICTIONARY
  5
D2B
330
A5C
100
AcDbDictionary
280
     1
281
     1
  3
ACAD_XREC_ROUNDTRIP
360
D2C
  0
DICTIONARY
  5
D45
330
A69
100
AcDbDictionary
280
     1
281
     1
  3
ACAD_XREC_ROUNDTRIP
360
D46
  0
DICTIONARY
  5
D33
330
A60
100
AcDbDictionary
280
     1
281
     1
  3
ACAD_XREC_ROUNDTRIP
360
D34
  0
DICTIONARY
  5
D17
330
A52
100
AcDbDictionary
280
     1
281
     1
  3
ACAD_XREC_ROUNDTRIP
360
D18
  0
DICTIONARY
  5
D19
330
A53
100
AcDbDictionary
280
     1
281
     1
  3
ACAD_XREC_ROUNDTRIP
360
D1A
  0
DICTIONARY
  5
D1B
330
A54
100
AcDbDictionary
280
     1
281
     1
  3
ACAD_XREC_ROUNDTRIP
360
D1C
  0
DICTIONARY
  5
D1D
330
A55
100
AcDbDictionary
280
     1
281
     1
  3
ACAD_XREC_ROUNDTRIP
360
D1E
  0
DICTIONARY
  5
D25
330
A59
100
AcDbDictionary
280
     1
281
     1
  3
ACAD_XREC_ROUNDTRIP
360
D26
  0
DICTIONARY
  5
D41
330
A67
100
AcDbDictionary
280
     1
281
     1
  3
ACAD_XREC_ROUNDTRIP
360
D42
  0
DICTIONARY
  5
D31
330
A5F
100
AcDbDictionary
280
     1
281
     1
  3
ACAD_XREC_ROUNDTRIP
360
D32
  0
DICTIONARY
  5
D43
330
A68
100
AcDbDictionary
280
     1
281
     1
  3
ACAD_XREC_ROUNDTRIP
360
D44
  0
DICTIONARY
  5
D29
330
A5B
100
AcDbDictionary
280
     1
281
     1
  3
ACAD_XREC_ROUNDTRIP
360
D2A
  0
DICTIONARY
  5
D3F
330
A66
100
AcDbDictionary
280
     1
281
     1
  3
ACAD_XREC_ROUNDTRIP
360
D40
  0
DICTIONARY
  5
D3D
330
A65
100
AcDbDictionary
280
     1
281
     1
  3
ACAD_XREC_ROUNDTRIP
360
D3E
  0
DICTIONARY
  5
D37
330
A62
100
AcDbDictionary
280
     1
281
     1
  3
ACAD_XREC_ROUNDTRIP
360
D38
  0
DICTIONARY
  5
D39
330
A63
100
AcDbDictionary
280
     1
281
     1
  3
ACAD_XREC_ROUNDTRIP
360
D3A
  0
DICTIONARY
  5
D2F
330
A5E
100
AcDbDictionary
280
     1
281
     1
  3
ACAD_XREC_ROUNDTRIP
360
D30
  0
DICTIONARY
  5
D23
330
A58
100
AcDbDictionary
280
     1
281
     1
  3
ACAD_XREC_ROUNDTRIP
360
D24
  0
DICTIONARY
  5
D3B
330
A64
100
AcDbDictionary
280
     1
281
     1
  3
ACAD_XREC_ROUNDTRIP
360
D3C
  0
XRECORD
  5
D0C
102
{ACAD_REACTORS
330
D12
102
}
330
D12
100
AcDbXrecord
280
     1
  1
AcDb_Thumbnail_Schema
102
{ATTRRECORD
341
D0D
  2
AcDbDs::TreatedAsObjectData
280
     1
291
     1
102
ATTRRECORD}
102
{ATTRRECORD
341
D0E
  2
AcDbDs::Legacy
280
     1
291
     1
102
ATTRRECORD}
  2
AcDbDs::ID
280
    10
 91
        8
102
{ATTRRECORD
341
D0F
  2
AcDs:Indexable
280
     1
291
     1
102
ATTRRECORD}
102
{ATTRRECORD
341
D10
  2
AcDbDs::HandleAttribute
280
     7
282
     1
102
ATTRRECORD}
  2
Thumbnail_Data
280
    15
 91
        0
  0
XRECORD
  5
D0D
102
{ACAD_REACTORS
330
D12
102
}
330
D12
100
AcDbXrecord
280
     1
  1
AcDbDs::TreatedAsObjectDataSchema
  2
AcDbDs::TreatedAsObjectData
280
     1
 91
        0
  0
XRECORD
  5
D0E
102
{ACAD_REACTORS
330
D12
102
}
330
D12
100
AcDbXrecord
280
     1
  1
AcDbDs::LegacySchema
  2
AcDbDs::Legacy
280
     1
 91
        0
  0
XRECORD
  5
D0F
102
{ACAD_REACTORS
330
D12
102
}
330
D12
100
AcDbXrecord
280
     1
  1
AcDbDs::IndexedPropertySchema
  2
AcDs:Indexable
280
     1
 91
        0
  0
XRECORD
  5
D10
102
{ACAD_REACTORS
330
D12
102
}
330
D12
100
AcDbXrecord
280
     1
  1
AcDbDs::HandleAttributeSchema
  2
AcDbDs::HandleAttribute
280
     7
 91
        1
284
     1
  0
XRECORD
  5
D15
102
{ACAD_REACTORS
330
A42
102
}
330
A42
100
AcDbXrecord
280
     1
102
MATERIAL
148
0.0
149
0.0
149
0.0
 93
        0
 94
      127
282
     0
 72
     0
 77
     0
171
     0
175
     0
179
     0
273
     0
  0
XRECORD
  5
A44
102
{ACAD_REACTORS
330
A42
102
}
330
A42
100
AcDbXrecord
280
     1
270
     1
271
     1
  0
XRECORD
  5
A43
102
{ACAD_REACTORS
330
A42
102
}
330
A42
100
AcDbXrecord
280
     1
270
     1
271
     1
  0
XRECORD
  5
A47
102
{ACAD_REACTORS
330
A42
102
}
330
A42
100
AcDbXrecord
280
     1
270
     1
271
     1
  0
XRECORD
  5
A46
102
{ACAD_REACTORS
330
A42
102
}
330
A42
100
AcDbXrecord
280
     1
270
     1
271
     1
  0
XRECORD
  5
A48
102
{ACAD_REACTORS
330
A42
102
}
330
A42
100
AcDbXrecord
280
     1
270
     1
271
     1
  0
XRECORD
  5
A45
102
{ACAD_REACTORS
330
A42
102
}
330
A42
100
AcDbXrecord
280
     1
270
     1
271
     1
  0
XRECORD
  5
D14
102
{ACAD_REACTORS
330
A3A
102
}
330
A3A
100
AcDbXrecord
280
     1
102
MATERIAL
148
0.0
149
0.0
149
0.0
 93
        0
 94
      127
282
     0
 72
     0
 77
     0
171
     0
175
     0
179
     0
273
     0
  0
XRECORD
  5
A3C
102
{ACAD_REACTORS
330
A3A
102
}
330
A3A
100
AcDbXrecord
280
     1
270
     1
271
     1
  0
XRECORD
  5
A3B
102
{ACAD_REACTORS
330
A3A
102
}
330
A3A
100
AcDbXrecord
280
     1
270
     1
271
     1
  0
XRECORD
  5
A3F
102
{ACAD_REACTORS
330
A3A
102
}
330
A3A
100
AcDbXrecord
280
     1
270
     1
271
     1
  0
XRECORD
  5
A3E
102
{ACAD_REACTORS
330
A3A
102
}
330
A3A
100
AcDbXrecord
280
     1
270
     1
271
     1
  0
XRECORD
  5
A40
102
{ACAD_REACTORS
330
A3A
102
}
330
A3A
100
AcDbXrecord
280
     1
270
     1
271
     1
  0
XRECORD
  5
A3D
102
{ACAD_REACTORS
330
A3A
102
}
330
A3A
100
AcDbXrecord
280
     1
270
     1
271
     1
  0
XRECORD
  5
D16
102
{ACAD_REACTORS
330
A4A
102
}
330
A4A
100
AcDbXrecord
280
     1
102
MATERIAL
148
0.0
149
0.0
149
0.0
 93
        0
 94
      127
282
     0
 72
     0
 77
     0
171
     0
175
     0
179
     0
273
     0
  0
XRECORD
  5
A4C
102
{ACAD_REACTORS
330
A4A
102
}
330
A4A
100
AcDbXrecord
280
     1
270
     1
271
     1
  0
XRECORD
  5
A4B
102
{ACAD_REACTORS
330
A4A
102
}
330
A4A
100
AcDbXrecord
280
     1
270
     1
271
     1
  0
XRECORD
  5
A4F
102
{ACAD_REACTORS
330
A4A
102
}
330
A4A
100
AcDbXrecord
280
     1
270
     1
271
     1
  0
XRECORD
  5
A4E
102
{ACAD_REACTORS
330
A4A
102
}
330
A4A
100
AcDbXrecord
280
     1
270
     1
271
     1
  0
XRECORD
  5
A50
102
{ACAD_REACTORS
330
A4A
102
}
330
A4A
100
AcDbXrecord
280
     1
270
     1
271
     1
  0
XRECORD
  5
A4D
102
{ACAD_REACTORS
330
A4A
102
}
330
A4A
100
AcDbXrecord
280
     1
270
     1
271
     1
  0
XRECORD
  5
D49
102
{ACAD_REACTORS
330
D48
102
}
330
D48
100
AcDbXrecord
280
     1
102
ACAD_ROUNDTRIP_2012_MLEADER_STYLE
298
     1
  0
CELLSTYLEMAP
  5
D0A
102
{ACAD_REACTORS
330
C6A
102
}
330
C6A
100
AcDbCellStyleMap
 90
        3
300
CELLSTYLE
  1
TABLEFORMAT_BEGIN
 90
        5
170
     1
 91
        0
 92
    32768
 62
   257
 93
        1
300
CONTENTFORMAT
  1
CONTENTFORMAT_BEGIN
 90
        0
 91
        0
 92
      512
 93
        0
300

 40
0.0
140
1.0
 94
        5
 62
     0
340
11
144
0.25
309
CONTENTFORMAT_END
171
     0
 94
        0
309
TABLEFORMAT_END
  1
CELLSTYLE_BEGIN
 90
        1
 91
        1
300
_TITLE
309
CELLSTYLE_END
300
CELLSTYLE
  1
TABLEFORMAT_BEGIN
 90
        5
170
     1
 91
        0
 92
        0
 62
   257
 93
        1
300
CONTENTFORMAT
  1
CONTENTFORMAT_BEGIN
 90
        0
 91
        0
 92
      512
 93
        0
300

 40
0.0
140
1.0
 94
        5
 62
     0
340
11
144
0.18
309
CONTENTFORMAT_END
171
     0
 94
        0
309
TABLEFORMAT_END
  1
CELLSTYLE_BEGIN
 90
        2
 91
        1
300
_HEADER
309
CELLSTYLE_END
300
CELLSTYLE
  1
TABLEFORMAT_BEGIN
 90
        5
170
     1
 91
        0
 92
        0
 62
   257
 93
        1
300
CONTENTFORMAT
  1
CONTENTFORMAT_BEGIN
 90
        0
 91
        0
 92
      512
 93
        0
300

 40
0.0
140
1.0
 94
        2
 62
     0
340
11
144
0.18
309
CONTENTFORMAT_END
171
     0
 94
        0
309
TABLEFORMAT_END
  1
CELLSTYLE_BEGIN
 90
        3
 91
        2
300
_DATA
309
CELLSTYLE_END
  0
XRECORD
  5
D47
102
{ACAD_REACTORS
330
C6A
102
}
330
C6A
100
AcDbXrecord
280
     1
102
ACAD_ROUNDTRIP_PRE2007_TABLESTYLE
 90
      512
 91
        0
  1

 92
      512
 93
        0
  2

 94
      512
 95
        0
  3

  0
XRECORD
  5
D22
102
{ACAD_REACTORS
330
D21
102
}
330
D21
100
AcDbXrecord
280
     1
102
RTVSPost2010Prop28
280
     1
102
RTVSPost2010PropOp28
 70
     1
102
RTVSPost2010Prop29
280
     1
102
RTVSPost2010PropOp29
 70
     1
102
RTVSPost2010Prop30
280
     0
102
RTVSPost2010PropOp30
 70
     1
102
RTVSPost2010Prop31
280
     0
102
RTVSPost2010PropOp31
 70
     1
102
RTVSPost2010Prop32
280
     0
102
RTVSPost2010PropOp32
 70
     1
102
RTVSPost2010Prop33
280
     0
102
RTVSPost2010PropOp33
 70
     1
102
RTVSPost2010Prop34
280
     0
102
RTVSPost2010PropOp34
 70
     1
102
RTVSPost2010Prop35
280
     0
102
RTVSPost2010PropOp35
 70
     1
102
RTVSPost2010Prop36
280
     0
102
RTVSPost2010PropOp36
 70
     1
102
RTVSPost2010Prop37
 90
       50
102
RTVSPost2010PropOp37
 70
     1
102
RTVSPost2010Prop38
140
0.0
102
RTVSPost2010PropOp38
 70
     1
102
RTVSPost2010Prop39
140
1.0
102
RTVSPost2010PropOp39
 70
     1
102
RTVSPost2010Prop40
 90
        0
102
RTVSPost2010PropOp40
 70
     1
102
RTVSPost2010Prop41ColorIndex
 90
       18
102
RTVSPost2010Prop41ColorRGB
 90
        0
102
RTVSPost2010PropOp41
 70
     1
102
RTVSPost2010Prop42
 90
       50
102
RTVSPost2010PropOp42
 70
     1
102
RTVSPost2010Prop43
 90
        3
102
RTVSPost2010PropOp43
 70
     1
102
RTVSPost2010Prop44ColorIndex
 90
        5
102
RTVSPost2010Prop44ColorRGB
 90
      255
102
RTVSPost2010PropOp44
 70
     1
102
RTVSPost2010Prop45
280
     0
102
RTVSPost2010PropOp45
 70
     1
102
RTVSPost2010Prop46
 90
       50
102
RTVSPost2010PropOp46
 70
     1
102
RTVSPost2010Prop47
 90
       50
102
RTVSPost2010PropOp47
 70
     1
102
RTVSPost2010Prop48
 90
       50
102
RTVSPost2010PropOp48
 70
     1
102
RTVSPost2010Prop49
280
     0
102
RTVSPost2010PropOp49
 70
     1
102
RTVSPost2010Prop50
 90
       50
102
RTVSPost2010PropOp50
 70
     1
102
RTVSPost2010Prop51ColorIndex
 90
      256
102
RTVSPost2010Prop51ColorRGB
 90
-16777216
102
RTVSPost2010PropOp51
 70
     0
102
RTVSPost2010Prop52
140
1.0
102
RTVSPost2010PropOp52
 70
     0
102
RTVSPost2010Prop53
 90
        2
102
RTVSPost2010PropOp53
 70
     1
102
RTVSPost2010Prop54
  1
strokes_ogs.tif
102
RTVSPost2010PropOp54
 70
     1
102
RTVSPost2010Prop55
280
     0
102
RTVSPost2010PropOp55
 70
     1
102
RTVSPost2010Prop56
140
1.0
102
RTVSPost2010PropOp56
 70
     1
102
RTVSPost2010Prop57
140
1.0
102
RTVSPost2010PropOp57
 70
     1
102
RTVSPropertyOp0
 70
     1
102
RTVSPropertyOp1
 70
     1
102
RTVSPropertyOp2
 70
     1
102
RTVSPropertyOp3
 70
     1
102
RTVSPropertyOp4
 70
     1
102
RTVSPropertyOp5
 70
     1
102
RTVSPropertyOp6
 70
     1
102
RTVSPropertyOp7
 70
     1
102
RTVSPropertyOp8
 70
     1
102
RTVSPropertyOp9
 70
     1
102
RTVSPropertyOp10
 70
     1
102
RTVSPropertyOp11
 70
     1
102
RTVSPropertyOp12
 70
     1
102
RTVSPropertyOp13
 70
     1
102
RTVSPropertyOp14
 70
     1
102
RTVSPropertyOp15
 70
     1
102
RTVSPropertyOp16
 70
     1
102
RTVSPropertyOp17
 70
     1
102
RTVSPropertyOp18
 70
     1
102
RTVSPropertyOp19
 70
     1
102
RTVSPropertyOp20
 70
     1
102
RTVSPropertyOp21
 70
     1
102
RTVSPropertyOp22
 70
     1
102
RTVSPropertyOp23
 70
     1
102
RTVSPropertyOp24
 70
     1
102
RTVSPropertyOp25
 70
     1
102
RTVSPropertyOp26
 70
     1
102
RTVSPropertyOp27
 70
     1
102
RTVSPropertyOp28
 70
     1
102
RTVSPropertyOp29
 70
     1
102
RTVSPropertyOp30
 70
     1
102
RTVSPropertyOp31
 70
     1
102
RTVSPropertyOp32
 70
     1
102
RTVSPropertyOp33
 70
     1
102
RTVSPropertyOp34
 70
     1
102
RTVSPropertyOp35
 70
     1
102
RTVSPropertyOp36
 70
     1
102
RTVSPropertyOp37
 70
     1
102
RTVSPropertyOp38
 70
     1
102
RTVSPropertyOp39
 70
     1
102
RTVSPropertyOp40
 70
     1
102
RTVSPropertyOp41
 70
     1
102
RTVSPropertyOp42
 70
     1
102
RTVSPropertyOp43
 70
     1
102
RTVSPropertyOp44
 70
     1
102
RTVSPropertyOp45
 70
     1
102
RTVSPropertyOp46
 70
     1
102
RTVSPropertyOp47
 70
     1
102
RTVSPropertyOp48
 70
     1
102
RTVSPropertyOp49
 70
     1
102
RTVSPropertyOp50
 70
     1
102
RTVSPropertyOp51
 70
     0
102
RTVSPropertyOp52
 70
     0
102
RTVSPropertyOp53
 70
     1
102
RTVSPropertyOp54
 70
     1
102
RTVSPropertyOp55
 70
     1
102
RTVSPropertyOp56
 70
     1
102
RTVSPropertyOp57
 70
     1
102
RTVSPropertyOp58
 70
     1
102
RTVSPropertyOp59
 70
     1
102
RTVSPropertyOp60
 70
     1
102
RTVSPropertyOp61
 70
     1
102
RTVSPropertyOp62
 70
     1
  0
XRECORD
  5
D20
102
{ACAD_REACTORS
330
D1F
102
}
330
D1F
100
AcDbXrecord
280
     1
102
RTVSPost2010Prop28
280
     0
102
RTVSPost2010PropOp28
 70
     1
102
RTVSPost2010Prop29
280
     1
102
RTVSPost2010PropOp29
 70
     1
102
RTVSPost2010Prop30
280
     1
102
RTVSPost2010PropOp30
 70
     1
102
RTVSPost2010Prop31
280
     0
102
RTVSPost2010PropOp31
 70
     1
102
RTVSPost2010Prop32
280
     0
102
RTVSPost2010PropOp32
 70
     1
102
RTVSPost2010Prop33
280
     0
102
RTVSPost2010PropOp33
 70
     1
102
RTVSPost2010Prop34
280
     0
102
RTVSPost2010PropOp34
 70
     1
102
RTVSPost2010Prop35
280
     0
102
RTVSPost2010PropOp35
 70
     1
102
RTVSPost2010Prop36
280
     0
102
RTVSPost2010PropOp36
 70
     1
102
RTVSPost2010Prop37
 90
       50
102
RTVSPost2010PropOp37
 70
     1
102
RTVSPost2010Prop38
140
0.0
102
RTVSPost2010PropOp38
 70
     1
102
RTVSPost2010Prop39
140
1.0
102
RTVSPost2010PropOp39
 70
     1
102
RTVSPost2010Prop40
 90
        0
102
RTVSPost2010PropOp40
 70
     1
102
RTVSPost2010Prop41ColorIndex
 90
       18
102
RTVSPost2010Prop41ColorRGB
 90
        0
102
RTVSPost2010PropOp41
 70
     1
102
RTVSPost2010Prop42
 90
       50
102
RTVSPost2010PropOp42
 70
     1
102
RTVSPost2010Prop43
 90
        3
102
RTVSPost2010PropOp43
 70
     1
102
RTVSPost2010Prop44ColorIndex
 90
        5
102
RTVSPost2010Prop44ColorRGB
 90
      255
102
RTVSPost2010PropOp44
 70
     1
102
RTVSPost2010Prop45
280
     0
102
RTVSPost2010PropOp45
 70
     1
102
RTVSPost2010Prop46
 90
       50
102
RTVSPost2010PropOp46
 70
     1
102
RTVSPost2010Prop47
 90
       50
102
RTVSPost2010PropOp47
 70
     1
102
RTVSPost2010Prop48
 90
       50
102
RTVSPost2010PropOp48
 70
     1
102
RTVSPost2010Prop49
280
     0
102
RTVSPost2010PropOp49
 70
     1
102
RTVSPost2010Prop50
 90
       50
102
RTVSPost2010PropOp50
 70
     1
102
RTVSPost2010Prop51ColorIndex
 90
      256
102
RTVSPost2010Prop51ColorRGB
 90
-16777216
102
RTVSPost2010PropOp51
 70
     0
102
RTVSPost2010Prop52
140
1.0
102
RTVSPost2010PropOp52
 70
     0
102
RTVSPost2010Prop53
 90
        2
102
RTVSPost2010PropOp53
 70
     1
102
RTVSPost2010Prop54
  1
strokes_ogs.tif
102
RTVSPost2010PropOp54
 70
     1
102
RTVSPost2010Prop55
280
     0
102
RTVSPost2010PropOp55
 70
     1
102
RTVSPost2010Prop56
140
1.0
102
RTVSPost2010PropOp56
 70
     1
102
RTVSPost2010Prop57
140
1.0
102
RTVSPost2010PropOp57
 70
     1
102
RTVSPropertyOp0
 70
     1
102
RTVSPropertyOp1
 70
     1
102
RTVSPropertyOp2
 70
     1
102
RTVSPropertyOp3
 70
     1
102
RTVSPropertyOp4
 70
     1
102
RTVSPropertyOp5
 70
     1
102
RTVSPropertyOp6
 70
     1
102
RTVSPropertyOp7
 70
     1
102
RTVSPropertyOp8
 70
     1
102
RTVSPropertyOp9
 70
     1
102
RTVSPropertyOp10
 70
     1
102
RTVSPropertyOp11
 70
     1
102
RTVSPropertyOp12
 70
     1
102
RTVSPropertyOp13
 70
     1
102
RTVSPropertyOp14
 70
     1
102
RTVSPropertyOp15
 70
     1
102
RTVSPropertyOp16
 70
     1
102
RTVSPropertyOp17
 70
     1
102
RTVSPropertyOp18
 70
     1
102
RTVSPropertyOp19
 70
     1
102
RTVSPropertyOp20
 70
     1
102
RTVSPropertyOp21
 70
     1
102
RTVSPropertyOp22
 70
     1
102
RTVSPropertyOp23
 70
     1
102
RTVSPropertyOp24
 70
     1
102
RTVSPropertyOp25
 70
     1
102
RTVSPropertyOp26
 70
     1
102
RTVSPropertyOp27
 70
     1
102
RTVSPropertyOp28
 70
     1
102
RTVSPropertyOp29
 70
     1
102
RTVSPropertyOp30
 70
     1
102
RTVSPropertyOp31
 70
     1
102
RTVSPropertyOp32
 70
     1
102
RTVSPropertyOp33
 70
     1
102
RTVSPropertyOp34
 70
     1
102
RTVSPropertyOp35
 70
     1
102
RTVSPropertyOp36
 70
     1
102
RTVSPropertyOp37
 70
     1
102
RTVSPropertyOp38
 70
     1
102
RTVSPropertyOp39
 70
     1
102
RTVSPropertyOp40
 70
     1
102
RTVSPropertyOp41
 70
     1
102
RTVSPropertyOp42
 70
     1
102
RTVSPropertyOp43
 70
     1
102
RTVSPropertyOp44
 70
     1
102
RTVSPropertyOp45
 70
     1
102
RTVSPropertyOp46
 70
     1
102
RTVSPropertyOp47
 70
     1
102
RTVSPropertyOp48
 70
     1
102
RTVSPropertyOp49
 70
     1
102
RTVSPropertyOp50
 70
     1
102
RTVSPropertyOp51
 70
     0
102
RTVSPropertyOp52
 70
     0
102
RTVSPropertyOp53
 70
     1
102
RTVSPropertyOp54
 70
     1
102
RTVSPropertyOp55
 70
     1
102
RTVSPropertyOp56
 70
     1
102
RTVSPropertyOp57
 70
     1
102
RTVSPropertyOp58
 70
     1
102
RTVSPropertyOp59
 70
     1
102
RTVSPropertyOp60
 70
     1
102
RTVSPropertyOp61
 70
     1
102
RTVSPropertyOp62
 70
     1
  0
XRECORD
  5
D2E
102
{ACAD_REACTORS
330
D2D
102
}
330
D2D
100
AcDbXrecord
280
     1
102
RTVSPost2010Prop28
280
     0
102
RTVSPost2010PropOp28
 70
     1
102
RTVSPost2010Prop29
280
     1
102
RTVSPost2010PropOp29
 70
     1
102
RTVSPost2010Prop30
280
     1
102
RTVSPost2010PropOp30
 70
     1
102
RTVSPost2010Prop31
280
     0
102
RTVSPost2010PropOp31
 70
     1
102
RTVSPost2010Prop32
280
     0
102
RTVSPost2010PropOp32
 70
     1
102
RTVSPost2010Prop33
280
     0
102
RTVSPost2010PropOp33
 70
     1
102
RTVSPost2010Prop34
280
     0
102
RTVSPost2010PropOp34
 70
     1
102
RTVSPost2010Prop35
280
     0
102
RTVSPost2010PropOp35
 70
     1
102
RTVSPost2010Prop36
280
     0
102
RTVSPost2010PropOp36
 70
     1
102
RTVSPost2010Prop37
 90
       50
102
RTVSPost2010PropOp37
 70
     1
102
RTVSPost2010Prop38
140
0.0
102
RTVSPost2010PropOp38
 70
     1
102
RTVSPost2010Prop39
140
1.0
102
RTVSPost2010PropOp39
 70
     1
102
RTVSPost2010Prop40
 90
        0
102
RTVSPost2010PropOp40
 70
     1
102
RTVSPost2010Prop41ColorIndex
 90
       18
102
RTVSPost2010Prop41ColorRGB
 90
        0
102
RTVSPost2010PropOp41
 70
     1
102
RTVSPost2010Prop42
 90
       50
102
RTVSPost2010PropOp42
 70
     1
102
RTVSPost2010Prop43
 90
        3
102
RTVSPost2010PropOp43
 70
     1
102
RTVSPost2010Prop44ColorIndex
 90
        5
102
RTVSPost2010Prop44ColorRGB
 90
      255
102
RTVSPost2010PropOp44
 70
     1
102
RTVSPost2010Prop45
280
     0
102
RTVSPost2010PropOp45
 70
     1
102
RTVSPost2010Prop46
 90
       50
102
RTVSPost2010PropOp46
 70
     1
102
RTVSPost2010Prop47
 90
       50
102
RTVSPost2010PropOp47
 70
     1
102
RTVSPost2010Prop48
 90
       50
102
RTVSPost2010PropOp48
 70
     1
102
RTVSPost2010Prop49
280
     0
102
RTVSPost2010PropOp49
 70
     1
102
RTVSPost2010Prop50
 90
       50
102
RTVSPost2010PropOp50
 70
     1
102
RTVSPost2010Prop51ColorIndex
 90
      256
102
RTVSPost2010Prop51ColorRGB
 90
-16777216
102
RTVSPost2010PropOp51
 70
     0
102
RTVSPost2010Prop52
140
1.0
102
RTVSPost2010PropOp52
 70
     0
102
RTVSPost2010Prop53
 90
        2
102
RTVSPost2010PropOp53
 70
     1
102
RTVSPost2010Prop54
  1
strokes_ogs.tif
102
RTVSPost2010PropOp54
 70
     1
102
RTVSPost2010Prop55
280
     0
102
RTVSPost2010PropOp55
 70
     1
102
RTVSPost2010Prop56
140
1.0
102
RTVSPost2010PropOp56
 70
     1
102
RTVSPost2010Prop57
140
1.0
102
RTVSPost2010PropOp57
 70
     1
102
RTVSPropertyOp0
 70
     1
102
RTVSPropertyOp1
 70
     1
102
RTVSPropertyOp2
 70
     1
102
RTVSPropertyOp3
 70
     1
102
RTVSPropertyOp4
 70
     1
102
RTVSPropertyOp5
 70
     1
102
RTVSPropertyOp6
 70
     1
102
RTVSPropertyOp7
 70
     1
102
RTVSPropertyOp8
 70
     1
102
RTVSPropertyOp9
 70
     1
102
RTVSPropertyOp10
 70
     1
102
RTVSPropertyOp11
 70
     1
102
RTVSPropertyOp12
 70
     1
102
RTVSPropertyOp13
 70
     1
102
RTVSPropertyOp14
 70
     1
102
RTVSPropertyOp15
 70
     1
102
RTVSPropertyOp16
 70
     1
102
RTVSPropertyOp17
 70
     1
102
RTVSPropertyOp18
 70
     1
102
RTVSPropertyOp19
 70
     1
102
RTVSPropertyOp20
 70
     1
102
RTVSPropertyOp21
 70
     1
102
RTVSPropertyOp22
 70
     1
102
RTVSPropertyOp23
 70
     1
102
RTVSPropertyOp24
 70
     1
102
RTVSPropertyOp25
 70
     1
102
RTVSPropertyOp26
 70
     1
102
RTVSPropertyOp27
 70
     1
102
RTVSPropertyOp28
 70
     1
102
RTVSPropertyOp29
 70
     1
102
RTVSPropertyOp30
 70
     1
102
RTVSPropertyOp31
 70
     1
102
RTVSPropertyOp32
 70
     1
102
RTVSPropertyOp33
 70
     1
102
RTVSPropertyOp34
 70
     1
102
RTVSPropertyOp35
 70
     1
102
RTVSPropertyOp36
 70
     1
102
RTVSPropertyOp37
 70
     1
102
RTVSPropertyOp38
 70
     1
102
RTVSPropertyOp39
 70
     1
102
RTVSPropertyOp40
 70
     1
102
RTVSPropertyOp41
 70
     1
102
RTVSPropertyOp42
 70
     1
102
RTVSPropertyOp43
 70
     1
102
RTVSPropertyOp44
 70
     1
102
RTVSPropertyOp45
 70
     1
102
RTVSPropertyOp46
 70
     1
102
RTVSPropertyOp47
 70
     1
102
RTVSPropertyOp48
 70
     1
102
RTVSPropertyOp49
 70
     1
102
RTVSPropertyOp50
 70
     1
102
RTVSPropertyOp51
 70
     0
102
RTVSPropertyOp52
 70
     0
102
RTVSPropertyOp53
 70
     1
102
RTVSPropertyOp54
 70
     1
102
RTVSPropertyOp55
 70
     1
102
RTVSPropertyOp56
 70
     1
102
RTVSPropertyOp57
 70
     1
102
RTVSPropertyOp58
 70
     1
102
RTVSPropertyOp59
 70
     1
102
RTVSPropertyOp60
 70
     1
102
RTVSPropertyOp61
 70
     1
102
RTVSPropertyOp62
 70
     1
  0
XRECORD
  5
D36
102
{ACAD_REACTORS
330
D35
102
}
330
D35
100
AcDbXrecord
280
     1
102
RTVSPost2010Prop28
280
     0
102
RTVSPost2010PropOp28
 70
     1
102
RTVSPost2010Prop29
280
     1
102
RTVSPost2010PropOp29
 70
     1
102
RTVSPost2010Prop30
280
     1
102
RTVSPost2010PropOp30
 70
     1
102
RTVSPost2010Prop31
280
     0
102
RTVSPost2010PropOp31
 70
     1
102
RTVSPost2010Prop32
280
     0
102
RTVSPost2010PropOp32
 70
     1
102
RTVSPost2010Prop33
280
     0
102
RTVSPost2010PropOp33
 70
     1
102
RTVSPost2010Prop34
280
     0
102
RTVSPost2010PropOp34
 70
     1
102
RTVSPost2010Prop35
280
     0
102
RTVSPost2010PropOp35
 70
     1
102
RTVSPost2010Prop36
280
     0
102
RTVSPost2010PropOp36
 70
     1
102
RTVSPost2010Prop37
 90
       50
102
RTVSPost2010PropOp37
 70
     1
102
RTVSPost2010Prop38
140
0.0
102
RTVSPost2010PropOp38
 70
     1
102
RTVSPost2010Prop39
140
1.0
102
RTVSPost2010PropOp39
 70
     1
102
RTVSPost2010Prop40
 90
        0
102
RTVSPost2010PropOp40
 70
     1
102
RTVSPost2010Prop41ColorIndex
 90
       18
102
RTVSPost2010Prop41ColorRGB
 90
        0
102
RTVSPost2010PropOp41
 70
     1
102
RTVSPost2010Prop42
 90
       50
102
RTVSPost2010PropOp42
 70
     1
102
RTVSPost2010Prop43
 90
        3
102
RTVSPost2010PropOp43
 70
     1
102
RTVSPost2010Prop44ColorIndex
 90
        5
102
RTVSPost2010Prop44ColorRGB
 90
      255
102
RTVSPost2010PropOp44
 70
     1
102
RTVSPost2010Prop45
280
     0
102
RTVSPost2010PropOp45
 70
     1
102
RTVSPost2010Prop46
 90
       50
102
RTVSPost2010PropOp46
 70
     1
102
RTVSPost2010Prop47
 90
       50
102
RTVSPost2010PropOp47
 70
     1
102
RTVSPost2010Prop48
 90
       50
102
RTVSPost2010PropOp48
 70
     1
102
RTVSPost2010Prop49
280
     0
102
RTVSPost2010PropOp49
 70
     1
102
RTVSPost2010Prop50
 90
       50
102
RTVSPost2010PropOp50
 70
     1
102
RTVSPost2010Prop51ColorIndex
 90
      256
102
RTVSPost2010Prop51ColorRGB
 90
-16777216
102
RTVSPost2010PropOp51
 70
     0
102
RTVSPost2010Prop52
140
1.0
102
RTVSPost2010PropOp52
 70
     0
102
RTVSPost2010Prop53
 90
        2
102
RTVSPost2010PropOp53
 70
     1
102
RTVSPost2010Prop54
  1
strokes_ogs.tif
102
RTVSPost2010PropOp54
 70
     1
102
RTVSPost2010Prop55
280
     0
102
RTVSPost2010PropOp55
 70
     1
102
RTVSPost2010Prop56
140
1.0
102
RTVSPost2010PropOp56
 70
     1
102
RTVSPost2010Prop57
140
1.0
102
RTVSPost2010PropOp57
 70
     1
102
RTVSPropertyOp0
 70
     1
102
RTVSPropertyOp1
 70
     1
102
RTVSPropertyOp2
 70
     1
102
RTVSPropertyOp3
 70
     1
102
RTVSPropertyOp4
 70
     1
102
RTVSPropertyOp5
 70
     1
102
RTVSPropertyOp6
 70
     1
102
RTVSPropertyOp7
 70
     1
102
RTVSPropertyOp8
 70
     1
102
RTVSPropertyOp9
 70
     1
102
RTVSPropertyOp10
 70
     1
102
RTVSPropertyOp11
 70
     1
102
RTVSPropertyOp12
 70
     1
102
RTVSPropertyOp13
 70
     1
102
RTVSPropertyOp14
 70
     1
102
RTVSPropertyOp15
 70
     1
102
RTVSPropertyOp16
 70
     1
102
RTVSPropertyOp17
 70
     1
102
RTVSPropertyOp18
 70
     1
102
RTVSPropertyOp19
 70
     1
102
RTVSPropertyOp20
 70
     1
102
RTVSPropertyOp21
 70
     1
102
RTVSPropertyOp22
 70
     1
102
RTVSPropertyOp23
 70
     1
102
RTVSPropertyOp24
 70
     1
102
RTVSPropertyOp25
 70
     1
102
RTVSPropertyOp26
 70
     1
102
RTVSPropertyOp27
 70
     1
102
RTVSPropertyOp28
 70
     1
102
RTVSPropertyOp29
 70
     1
102
RTVSPropertyOp30
 70
     1
102
RTVSPropertyOp31
 70
     1
102
RTVSPropertyOp32
 70
     1
102
RTVSPropertyOp33
 70
     1
102
RTVSPropertyOp34
 70
     1
102
RTVSPropertyOp35
 70
     1
102
RTVSPropertyOp36
 70
     1
102
RTVSPropertyOp37
 70
     1
102
RTVSPropertyOp38
 70
     1
102
RTVSPropertyOp39
 70
     1
102
RTVSPropertyOp40
 70
     1
102
RTVSPropertyOp41
 70
     1
102
RTVSPropertyOp42
 70
     1
102
RTVSPropertyOp43
 70
     1
102
RTVSPropertyOp44
 70
     1
102
RTVSPropertyOp45
 70
     1
102
RTVSPropertyOp46
 70
     1
102
RTVSPropertyOp47
 70
     1
102
RTVSPropertyOp48
 70
     1
102
RTVSPropertyOp49
 70
     1
102
RTVSPropertyOp50
 70
     1
102
RTVSPropertyOp51
 70
     0
102
RTVSPropertyOp52
 70
     0
102
RTVSPropertyOp53
 70
     1
102
RTVSPropertyOp54
 70
     1
102
RTVSPropertyOp55
 70
     1
102
RTVSPropertyOp56
 70
     1
102
RTVSPropertyOp57
 70
     1
102
RTVSPropertyOp58
 70
     1
102
RTVSPropertyOp59
 70
     1
102
RTVSPropertyOp60
 70
     1
102
RTVSPropertyOp61
 70
     1
102
RTVSPropertyOp62
 70
     1
  0
XRECORD
  5
D28
102
{ACAD_REACTORS
330
D27
102
}
330
D27
100
AcDbXrecord
280
     1
102
RTVSPost2010Prop28
280
     0
102
RTVSPost2010PropOp28
 70
     1
102
RTVSPost2010Prop29
280
     1
102
RTVSPost2010PropOp29
 70
     1
102
RTVSPost2010Prop30
280
     1
102
RTVSPost2010PropOp30
 70
     1
102
RTVSPost2010Prop31
280
     0
102
RTVSPost2010PropOp31
 70
     1
102
RTVSPost2010Prop32
280
     0
102
RTVSPost2010PropOp32
 70
     1
102
RTVSPost2010Prop33
280
     0
102
RTVSPost2010PropOp33
 70
     1
102
RTVSPost2010Prop34
280
     0
102
RTVSPost2010PropOp34
 70
     1
102
RTVSPost2010Prop35
280
     0
102
RTVSPost2010PropOp35
 70
     1
102
RTVSPost2010Prop36
280
     0
102
RTVSPost2010PropOp36
 70
     1
102
RTVSPost2010Prop37
 90
       50
102
RTVSPost2010PropOp37
 70
     1
102
RTVSPost2010Prop38
140
0.0
102
RTVSPost2010PropOp38
 70
     1
102
RTVSPost2010Prop39
140
1.0
102
RTVSPost2010PropOp39
 70
     1
102
RTVSPost2010Prop40
 90
        0
102
RTVSPost2010PropOp40
 70
     1
102
RTVSPost2010Prop41ColorIndex
 90
       18
102
RTVSPost2010Prop41ColorRGB
 90
        0
102
RTVSPost2010PropOp41
 70
     1
102
RTVSPost2010Prop42
 90
       50
102
RTVSPost2010PropOp42
 70
     1
102
RTVSPost2010Prop43
 90
        3
102
RTVSPost2010PropOp43
 70
     1
102
RTVSPost2010Prop44ColorIndex
 90
        5
102
RTVSPost2010Prop44ColorRGB
 90
      255
102
RTVSPost2010PropOp44
 70
     1
102
RTVSPost2010Prop45
280
     0
102
RTVSPost2010PropOp45
 70
     1
102
RTVSPost2010Prop46
 90
       50
102
RTVSPost2010PropOp46
 70
     1
102
RTVSPost2010Prop47
 90
       50
102
RTVSPost2010PropOp47
 70
     1
102
RTVSPost2010Prop48
 90
       50
102
RTVSPost2010PropOp48
 70
     1
102
RTVSPost2010Prop49
280
     0
102
RTVSPost2010PropOp49
 70
     1
102
RTVSPost2010Prop50
 90
       50
102
RTVSPost2010PropOp50
 70
     1
102
RTVSPost2010Prop51ColorIndex
 90
      256
102
RTVSPost2010Prop51ColorRGB
 90
-16777216
102
RTVSPost2010PropOp51
 70
     0
102
RTVSPost2010Prop52
140
1.0
102
RTVSPost2010PropOp52
 70
     0
102
RTVSPost2010Prop53
 90
        2
102
RTVSPost2010PropOp53
 70
     1
102
RTVSPost2010Prop54
  1
strokes_ogs.tif
102
RTVSPost2010PropOp54
 70
     1
102
RTVSPost2010Prop55
280
     0
102
RTVSPost2010PropOp55
 70
     1
102
RTVSPost2010Prop56
140
1.0
102
RTVSPost2010PropOp56
 70
     1
102
RTVSPost2010Prop57
140
1.0
102
RTVSPost2010PropOp57
 70
     1
102
RTVSPropertyOp0
 70
     1
102
RTVSPropertyOp1
 70
     1
102
RTVSPropertyOp2
 70
     1
102
RTVSPropertyOp3
 70
     1
102
RTVSPropertyOp4
 70
     1
102
RTVSPropertyOp5
 70
     1
102
RTVSPropertyOp6
 70
     1
102
RTVSPropertyOp7
 70
     1
102
RTVSPropertyOp8
 70
     1
102
RTVSPropertyOp9
 70
     1
102
RTVSPropertyOp10
 70
     1
102
RTVSPropertyOp11
 70
     1
102
RTVSPropertyOp12
 70
     1
102
RTVSPropertyOp13
 70
     1
102
RTVSPropertyOp14
 70
     1
102
RTVSPropertyOp15
 70
     1
102
RTVSPropertyOp16
 70
     1
102
RTVSPropertyOp17
 70
     1
102
RTVSPropertyOp18
 70
     1
102
RTVSPropertyOp19
 70
     1
102
RTVSPropertyOp20
 70
     1
102
RTVSPropertyOp21
 70
     1
102
RTVSPropertyOp22
 70
     1
102
RTVSPropertyOp23
 70
     1
102
RTVSPropertyOp24
 70
     1
102
RTVSPropertyOp25
 70
     1
102
RTVSPropertyOp26
 70
     1
102
RTVSPropertyOp27
 70
     1
102
RTVSPropertyOp28
 70
     1
102
RTVSPropertyOp29
 70
     1
102
RTVSPropertyOp30
 70
     1
102
RTVSPropertyOp31
 70
     1
102
RTVSPropertyOp32
 70
     1
102
RTVSPropertyOp33
 70
     1
102
RTVSPropertyOp34
 70
     1
102
RTVSPropertyOp35
 70
     1
102
RTVSPropertyOp36
 70
     1
102
RTVSPropertyOp37
 70
     1
102
RTVSPropertyOp38
 70
     1
102
RTVSPropertyOp39
 70
     1
102
RTVSPropertyOp40
 70
     1
102
RTVSPropertyOp41
 70
     1
102
RTVSPropertyOp42
 70
     1
102
RTVSPropertyOp43
 70
     1
102
RTVSPropertyOp44
 70
     1
102
RTVSPropertyOp45
 70
     1
102
RTVSPropertyOp46
 70
     1
102
RTVSPropertyOp47
 70
     1
102
RTVSPropertyOp48
 70
     1
102
RTVSPropertyOp49
 70
     1
102
RTVSPropertyOp50
 70
     1
102
RTVSPropertyOp51
 70
     0
102
RTVSPropertyOp52
 70
     0
102
RTVSPropertyOp53
 70
     1
102
RTVSPropertyOp54
 70
     1
102
RTVSPropertyOp55
 70
     1
102
RTVSPropertyOp56
 70
     1
102
RTVSPropertyOp57
 70
     1
102
RTVSPropertyOp58
 70
     1
102
RTVSPropertyOp59
 70
     1
102
RTVSPropertyOp60
 70
     1
102
RTVSPropertyOp61
 70
     1
102
RTVSPropertyOp62
 70
     1
  0
XRECORD
  5
D2C
102
{ACAD_REACTORS
330
D2B
102
}
330
D2B
100
AcDbXrecord
280
     1
102
RTVSPost2010Prop28
280
     0
102
RTVSPost2010PropOp28
 70
     1
102
RTVSPost2010Prop29
280
     1
102
RTVSPost2010PropOp29
 70
     1
102
RTVSPost2010Prop30
280
     1
102
RTVSPost2010PropOp30
 70
     1
102
RTVSPost2010Prop31
280
     0
102
RTVSPost2010PropOp31
 70
     1
102
RTVSPost2010Prop32
280
     0
102
RTVSPost2010PropOp32
 70
     1
102
RTVSPost2010Prop33
280
     0
102
RTVSPost2010PropOp33
 70
     1
102
RTVSPost2010Prop34
280
     0
102
RTVSPost2010PropOp34
 70
     1
102
RTVSPost2010Prop35
280
     0
102
RTVSPost2010PropOp35
 70
     1
102
RTVSPost2010Prop36
280
     0
102
RTVSPost2010PropOp36
 70
     1
102
RTVSPost2010Prop37
 90
       50
102
RTVSPost2010PropOp37
 70
     1
102
RTVSPost2010Prop38
140
0.0
102
RTVSPost2010PropOp38
 70
     1
102
RTVSPost2010Prop39
140
1.0
102
RTVSPost2010PropOp39
 70
     1
102
RTVSPost2010Prop40
 90
        0
102
RTVSPost2010PropOp40
 70
     1
102
RTVSPost2010Prop41ColorIndex
 90
       18
102
RTVSPost2010Prop41ColorRGB
 90
        0
102
RTVSPost2010PropOp41
 70
     1
102
RTVSPost2010Prop42
 90
       50
102
RTVSPost2010PropOp42
 70
     1
102
RTVSPost2010Prop43
 90
        3
102
RTVSPost2010PropOp43
 70
     1
102
RTVSPost2010Prop44ColorIndex
 90
        5
102
RTVSPost2010Prop44ColorRGB
 90
      255
102
RTVSPost2010PropOp44
 70
     1
102
RTVSPost2010Prop45
280
     0
102
RTVSPost2010PropOp45
 70
     1
102
RTVSPost2010Prop46
 90
       50
102
RTVSPost2010PropOp46
 70
     1
102
RTVSPost2010Prop47
 90
       50
102
RTVSPost2010PropOp47
 70
     1
102
RTVSPost2010Prop48
 90
       50
102
RTVSPost2010PropOp48
 70
     1
102
RTVSPost2010Prop49
280
     0
102
RTVSPost2010PropOp49
 70
     1
102
RTVSPost2010Prop50
 90
       50
102
RTVSPost2010PropOp50
 70
     1
102
RTVSPost2010Prop51ColorIndex
 90
      256
102
RTVSPost2010Prop51ColorRGB
 90
-16777216
102
RTVSPost2010PropOp51
 70
     0
102
RTVSPost2010Prop52
140
1.0
102
RTVSPost2010PropOp52
 70
     0
102
RTVSPost2010Prop53
 90
        2
102
RTVSPost2010PropOp53
 70
     1
102
RTVSPost2010Prop54
  1
strokes_ogs.tif
102
RTVSPost2010PropOp54
 70
     1
102
RTVSPost2010Prop55
280
     0
102
RTVSPost2010PropOp55
 70
     1
102
RTVSPost2010Prop56
140
1.0
102
RTVSPost2010PropOp56
 70
     1
102
RTVSPost2010Prop57
140
1.0
102
RTVSPost2010PropOp57
 70
     1
102
RTVSPropertyOp0
 70
     1
102
RTVSPropertyOp1
 70
     1
102
RTVSPropertyOp2
 70
     1
102
RTVSPropertyOp3
 70
     1
102
RTVSPropertyOp4
 70
     1
102
RTVSPropertyOp5
 70
     1
102
RTVSPropertyOp6
 70
     1
102
RTVSPropertyOp7
 70
     1
102
RTVSPropertyOp8
 70
     1
102
RTVSPropertyOp9
 70
     1
102
RTVSPropertyOp10
 70
     1
102
RTVSPropertyOp11
 70
     1
102
RTVSPropertyOp12
 70
     1
102
RTVSPropertyOp13
 70
     1
102
RTVSPropertyOp14
 70
     1
102
RTVSPropertyOp15
 70
     1
102
RTVSPropertyOp16
 70
     1
102
RTVSPropertyOp17
 70
     1
102
RTVSPropertyOp18
 70
     1
102
RTVSPropertyOp19
 70
     1
102
RTVSPropertyOp20
 70
     1
102
RTVSPropertyOp21
 70
     1
102
RTVSPropertyOp22
 70
     1
102
RTVSPropertyOp23
 70
     1
102
RTVSPropertyOp24
 70
     1
102
RTVSPropertyOp25
 70
     1
102
RTVSPropertyOp26
 70
     1
102
RTVSPropertyOp27
 70
     1
102
RTVSPropertyOp28
 70
     1
102
RTVSPropertyOp29
 70
     1
102
RTVSPropertyOp30
 70
     1
102
RTVSPropertyOp31
 70
     1
102
RTVSPropertyOp32
 70
     1
102
RTVSPropertyOp33
 70
     1
102
RTVSPropertyOp34
 70
     1
102
RTVSPropertyOp35
 70
     1
102
RTVSPropertyOp36
 70
     1
102
RTVSPropertyOp37
 70
     1
102
RTVSPropertyOp38
 70
     1
102
RTVSPropertyOp39
 70
     1
102
RTVSPropertyOp40
 70
     1
102
RTVSPropertyOp41
 70
     1
102
RTVSPropertyOp42
 70
     1
102
RTVSPropertyOp43
 70
     1
102
RTVSPropertyOp44
 70
     1
102
RTVSPropertyOp45
 70
     1
102
RTVSPropertyOp46
 70
     1
102
RTVSPropertyOp47
 70
     1
102
RTVSPropertyOp48
 70
     1
102
RTVSPropertyOp49
 70
     1
102
RTVSPropertyOp50
 70
     1
102
RTVSPropertyOp51
 70
     0
102
RTVSPropertyOp52
 70
     0
102
RTVSPropertyOp53
 70
     1
102
RTVSPropertyOp54
 70
     1
102
RTVSPropertyOp55
 70
     1
102
RTVSPropertyOp56
 70
     1
102
RTVSPropertyOp57
 70
     1
102
RTVSPropertyOp58
 70
     1
102
RTVSPropertyOp59
 70
     1
102
RTVSPropertyOp60
 70
     1
102
RTVSPropertyOp61
 70
     1
102
RTVSPropertyOp62
 70
     1
  0
XRECORD
  5
D46
102
{ACAD_REACTORS
330
D45
102
}
330
D45
100
AcDbXrecord
280
     1
102
RTVSPost2010Prop28
280
     0
102
RTVSPost2010PropOp28
 70
     0
102
RTVSPost2010Prop29
280
     1
102
RTVSPost2010PropOp29
 70
     0
102
RTVSPost2010Prop30
280
     1
102
RTVSPost2010PropOp30
 70
     0
102
RTVSPost2010Prop31
280
     0
102
RTVSPost2010PropOp31
 70
     0
102
RTVSPost2010Prop32
280
     0
102
RTVSPost2010PropOp32
 70
     0
102
RTVSPost2010Prop33
280
     0
102
RTVSPost2010PropOp33
 70
     0
102
RTVSPost2010Prop34
280
     0
102
RTVSPost2010PropOp34
 70
     0
102
RTVSPost2010Prop35
280
     0
102
RTVSPost2010PropOp35
 70
     0
102
RTVSPost2010Prop36
280
     0
102
RTVSPost2010PropOp36
 70
     0
102
RTVSPost2010Prop37
 90
       50
102
RTVSPost2010PropOp37
 70
     0
102
RTVSPost2010Prop38
140
0.0
102
RTVSPost2010PropOp38
 70
     0
102
RTVSPost2010Prop39
140
1.0
102
RTVSPost2010PropOp39
 70
     0
102
RTVSPost2010Prop40
 90
        0
102
RTVSPost2010PropOp40
 70
     0
102
RTVSPost2010Prop41ColorIndex
 90
       18
102
RTVSPost2010Prop41ColorRGB
 90
        0
102
RTVSPost2010PropOp41
 70
     0
102
RTVSPost2010Prop42
 90
       50
102
RTVSPost2010PropOp42
 70
     0
102
RTVSPost2010Prop43
 90
        3
102
RTVSPost2010PropOp43
 70
     0
102
RTVSPost2010Prop44ColorIndex
 90
        5
102
RTVSPost2010Prop44ColorRGB
 90
      255
102
RTVSPost2010PropOp44
 70
     0
102
RTVSPost2010Prop45
280
     0
102
RTVSPost2010PropOp45
 70
     0
102
RTVSPost2010Prop46
 90
       50
102
RTVSPost2010PropOp46
 70
     0
102
RTVSPost2010Prop47
 90
       50
102
RTVSPost2010PropOp47
 70
     0
102
RTVSPost2010Prop48
 90
       50
102
RTVSPost2010PropOp48
 70
     0
102
RTVSPost2010Prop49
280
     0
102
RTVSPost2010PropOp49
 70
     0
102
RTVSPost2010Prop50
 90
       50
102
RTVSPost2010PropOp50
 70
     0
102
RTVSPost2010Prop51ColorIndex
 90
      256
102
RTVSPost2010Prop51ColorRGB
 90
-16777216
102
RTVSPost2010PropOp51
 70
     0
102
RTVSPost2010Prop52
140
1.0
102
RTVSPost2010PropOp52
 70
     0
102
RTVSPost2010Prop53
 90
        2
102
RTVSPost2010PropOp53
 70
     0
102
RTVSPost2010Prop54
  1
strokes_ogs.tif
102
RTVSPost2010PropOp54
 70
     0
102
RTVSPost2010Prop55
280
     0
102
RTVSPost2010PropOp55
 70
     0
102
RTVSPost2010Prop56
140
1.0
102
RTVSPost2010PropOp56
 70
     0
102
RTVSPost2010Prop57
140
1.0
102
RTVSPost2010PropOp57
 70
     0
102
RTVSPropertyOp0
 70
     0
102
RTVSPropertyOp1
 70
     0
102
RTVSPropertyOp2
 70
     0
102
RTVSPropertyOp3
 70
     0
102
RTVSPropertyOp4
 70
     0
102
RTVSPropertyOp5
 70
     0
102
RTVSPropertyOp6
 70
     0
102
RTVSPropertyOp7
 70
     0
102
RTVSPropertyOp8
 70
     0
102
RTVSPropertyOp9
 70
     0
102
RTVSPropertyOp10
 70
     0
102
RTVSPropertyOp11
 70
     0
102
RTVSPropertyOp12
 70
     0
102
RTVSPropertyOp13
 70
     0
102
RTVSPropertyOp14
 70
     2
102
RTVSPropertyOp15
 70
     0
102
RTVSPropertyOp16
 70
     0
102
RTVSPropertyOp17
 70
     0
102
RTVSPropertyOp18
 70
     0
102
RTVSPropertyOp19
 70
     0
102
RTVSPropertyOp20
 70
     0
102
RTVSPropertyOp21
 70
     0
102
RTVSPropertyOp22
 70
     0
102
RTVSPropertyOp23
 70
     0
102
RTVSPropertyOp24
 70
     0
102
RTVSPropertyOp25
 70
     0
102
RTVSPropertyOp26
 70
     0
102
RTVSPropertyOp27
 70
     0
102
RTVSPropertyOp28
 70
     0
102
RTVSPropertyOp29
 70
     0
102
RTVSPropertyOp30
 70
     0
102
RTVSPropertyOp31
 70
     0
102
RTVSPropertyOp32
 70
     0
102
RTVSPropertyOp33
 70
     0
102
RTVSPropertyOp34
 70
     0
102
RTVSPropertyOp35
 70
     0
102
RTVSPropertyOp36
 70
     0
102
RTVSPropertyOp37
 70
     0
102
RTVSPropertyOp38
 70
     0
102
RTVSPropertyOp39
 70
     0
102
RTVSPropertyOp40
 70
     0
102
RTVSPropertyOp41
 70
     0
102
RTVSPropertyOp42
 70
     0
102
RTVSPropertyOp43
 70
     0
102
RTVSPropertyOp44
 70
     0
102
RTVSPropertyOp45
 70
     0
102
RTVSPropertyOp46
 70
     0
102
RTVSPropertyOp47
 70
     0
102
RTVSPropertyOp48
 70
     0
102
RTVSPropertyOp49
 70
     0
102
RTVSPropertyOp50
 70
     0
102
RTVSPropertyOp51
 70
     0
102
RTVSPropertyOp52
 70
     0
102
RTVSPropertyOp53
 70
     0
102
RTVSPropertyOp54
 70
     0
102
RTVSPropertyOp55
 70
     0
102
RTVSPropertyOp56
 70
     0
102
RTVSPropertyOp57
 70
     0
102
RTVSPropertyOp58
 70
     0
102
RTVSPropertyOp59
 70
     0
102
RTVSPropertyOp60
 70
     0
102
RTVSPropertyOp61
 70
     0
102
RTVSPropertyOp62
 70
     0
  0
XRECORD
  5
D34
102
{ACAD_REACTORS
330
D33
102
}
330
D33
100
AcDbXrecord
280
     1
102
RTVSPost2010Prop28
280
     0
102
RTVSPost2010PropOp28
 70
     1
102
RTVSPost2010Prop29
280
     1
102
RTVSPost2010PropOp29
 70
     1
102
RTVSPost2010Prop30
280
     1
102
RTVSPost2010PropOp30
 70
     1
102
RTVSPost2010Prop31
280
     0
102
RTVSPost2010PropOp31
 70
     1
102
RTVSPost2010Prop32
280
     0
102
RTVSPost2010PropOp32
 70
     1
102
RTVSPost2010Prop33
280
     0
102
RTVSPost2010PropOp33
 70
     1
102
RTVSPost2010Prop34
280
     0
102
RTVSPost2010PropOp34
 70
     1
102
RTVSPost2010Prop35
280
     0
102
RTVSPost2010PropOp35
 70
     1
102
RTVSPost2010Prop36
280
     0
102
RTVSPost2010PropOp36
 70
     1
102
RTVSPost2010Prop37
 90
       50
102
RTVSPost2010PropOp37
 70
     1
102
RTVSPost2010Prop38
140
0.0
102
RTVSPost2010PropOp38
 70
     1
102
RTVSPost2010Prop39
140
1.0
102
RTVSPost2010PropOp39
 70
     1
102
RTVSPost2010Prop40
 90
        0
102
RTVSPost2010PropOp40
 70
     1
102
RTVSPost2010Prop41ColorIndex
 90
       18
102
RTVSPost2010Prop41ColorRGB
 90
        0
102
RTVSPost2010PropOp41
 70
     1
102
RTVSPost2010Prop42
 90
       50
102
RTVSPost2010PropOp42
 70
     1
102
RTVSPost2010Prop43
 90
        3
102
RTVSPost2010PropOp43
 70
     1
102
RTVSPost2010Prop44ColorIndex
 90
        5
102
RTVSPost2010Prop44ColorRGB
 90
      255
102
RTVSPost2010PropOp44
 70
     1
102
RTVSPost2010Prop45
280
     0
102
RTVSPost2010PropOp45
 70
     1
102
RTVSPost2010Prop46
 90
       50
102
RTVSPost2010PropOp46
 70
     1
102
RTVSPost2010Prop47
 90
       50
102
RTVSPost2010PropOp47
 70
     1
102
RTVSPost2010Prop48
 90
       50
102
RTVSPost2010PropOp48
 70
     1
102
RTVSPost2010Prop49
280
     0
102
RTVSPost2010PropOp49
 70
     1
102
RTVSPost2010Prop50
 90
       50
102
RTVSPost2010PropOp50
 70
     1
102
RTVSPost2010Prop51ColorIndex
 90
      256
102
RTVSPost2010Prop51ColorRGB
 90
-16777216
102
RTVSPost2010PropOp51
 70
     0
102
RTVSPost2010Prop52
140
1.0
102
RTVSPost2010PropOp52
 70
     0
102
RTVSPost2010Prop53
 90
        2
102
RTVSPost2010PropOp53
 70
     1
102
RTVSPost2010Prop54
  1
strokes_ogs.tif
102
RTVSPost2010PropOp54
 70
     1
102
RTVSPost2010Prop55
280
     0
102
RTVSPost2010PropOp55
 70
     1
102
RTVSPost2010Prop56
140
1.0
102
RTVSPost2010PropOp56
 70
     1
102
RTVSPost2010Prop57
140
1.0
102
RTVSPost2010PropOp57
 70
     1
102
RTVSPropertyOp0
 70
     1
102
RTVSPropertyOp1
 70
     1
102
RTVSPropertyOp2
 70
     1
102
RTVSPropertyOp3
 70
     1
102
RTVSPropertyOp4
 70
     1
102
RTVSPropertyOp5
 70
     1
102
RTVSPropertyOp6
 70
     1
102
RTVSPropertyOp7
 70
     1
102
RTVSPropertyOp8
 70
     1
102
RTVSPropertyOp9
 70
     1
102
RTVSPropertyOp10
 70
     1
102
RTVSPropertyOp11
 70
     1
102
RTVSPropertyOp12
 70
     1
102
RTVSPropertyOp13
 70
     1
102
RTVSPropertyOp14
 70
     1
102
RTVSPropertyOp15
 70
     1
102
RTVSPropertyOp16
 70
     1
102
RTVSPropertyOp17
 70
     1
102
RTVSPropertyOp18
 70
     1
102
RTVSPropertyOp19
 70
     1
102
RTVSPropertyOp20
 70
     1
102
RTVSPropertyOp21
 70
     1
102
RTVSPropertyOp22
 70
     1
102
RTVSPropertyOp23
 70
     1
102
RTVSPropertyOp24
 70
     1
102
RTVSPropertyOp25
 70
     1
102
RTVSPropertyOp26
 70
     1
102
RTVSPropertyOp27
 70
     1
102
RTVSPropertyOp28
 70
     1
102
RTVSPropertyOp29
 70
     1
102
RTVSPropertyOp30
 70
     1
102
RTVSPropertyOp31
 70
     1
102
RTVSPropertyOp32
 70
     1
102
RTVSPropertyOp33
 70
     1
102
RTVSPropertyOp34
 70
     1
102
RTVSPropertyOp35
 70
     1
102
RTVSPropertyOp36
 70
     1
102
RTVSPropertyOp37
 70
     1
102
RTVSPropertyOp38
 70
     1
102
RTVSPropertyOp39
 70
     1
102
RTVSPropertyOp40
 70
     1
102
RTVSPropertyOp41
 70
     1
102
RTVSPropertyOp42
 70
     1
102
RTVSPropertyOp43
 70
     1
102
RTVSPropertyOp44
 70
     1
102
RTVSPropertyOp45
 70
     1
102
RTVSPropertyOp46
 70
     1
102
RTVSPropertyOp47
 70
     1
102
RTVSPropertyOp48
 70
     1
102
RTVSPropertyOp49
 70
     1
102
RTVSPropertyOp50
 70
     1
102
RTVSPropertyOp51
 70
     0
102
RTVSPropertyOp52
 70
     0
102
RTVSPropertyOp53
 70
     1
102
RTVSPropertyOp54
 70
     1
102
RTVSPropertyOp55
 70
     1
102
RTVSPropertyOp56
 70
     1
102
RTVSPropertyOp57
 70
     1
102
RTVSPropertyOp58
 70
     1
102
RTVSPropertyOp59
 70
     1
102
RTVSPropertyOp60
 70
     1
102
RTVSPropertyOp61
 70
     1
102
RTVSPropertyOp62
 70
     1
  0
XRECORD
  5
D18
102
{ACAD_REACTORS
330
D17
102
}
330
D17
100
AcDbXrecord
280
     1
102
RTVSPost2010Prop28
280
     0
102
RTVSPost2010PropOp28
 70
     1
102
RTVSPost2010Prop29
280
     1
102
RTVSPost2010PropOp29
 70
     1
102
RTVSPost2010Prop30
280
     1
102
RTVSPost2010PropOp30
 70
     1
102
RTVSPost2010Prop31
280
     0
102
RTVSPost2010PropOp31
 70
     1
102
RTVSPost2010Prop32
280
     0
102
RTVSPost2010PropOp32
 70
     1
102
RTVSPost2010Prop33
280
     0
102
RTVSPost2010PropOp33
 70
     1
102
RTVSPost2010Prop34
280
     0
102
RTVSPost2010PropOp34
 70
     1
102
RTVSPost2010Prop35
280
     0
102
RTVSPost2010PropOp35
 70
     1
102
RTVSPost2010Prop36
280
     0
102
RTVSPost2010PropOp36
 70
     1
102
RTVSPost2010Prop37
 90
       50
102
RTVSPost2010PropOp37
 70
     1
102
RTVSPost2010Prop38
140
0.0
102
RTVSPost2010PropOp38
 70
     1
102
RTVSPost2010Prop39
140
1.0
102
RTVSPost2010PropOp39
 70
     1
102
RTVSPost2010Prop40
 90
        0
102
RTVSPost2010PropOp40
 70
     1
102
RTVSPost2010Prop41ColorIndex
 90
       18
102
RTVSPost2010Prop41ColorRGB
 90
        0
102
RTVSPost2010PropOp41
 70
     1
102
RTVSPost2010Prop42
 90
       50
102
RTVSPost2010PropOp42
 70
     1
102
RTVSPost2010Prop43
 90
        3
102
RTVSPost2010PropOp43
 70
     1
102
RTVSPost2010Prop44ColorIndex
 90
        5
102
RTVSPost2010Prop44ColorRGB
 90
      255
102
RTVSPost2010PropOp44
 70
     1
102
RTVSPost2010Prop45
280
     0
102
RTVSPost2010PropOp45
 70
     1
102
RTVSPost2010Prop46
 90
       50
102
RTVSPost2010PropOp46
 70
     1
102
RTVSPost2010Prop47
 90
       50
102
RTVSPost2010PropOp47
 70
     1
102
RTVSPost2010Prop48
 90
       50
102
RTVSPost2010PropOp48
 70
     1
102
RTVSPost2010Prop49
280
     0
102
RTVSPost2010PropOp49
 70
     1
102
RTVSPost2010Prop50
 90
       50
102
RTVSPost2010PropOp50
 70
     1
102
RTVSPost2010Prop51ColorIndex
 90
      256
102
RTVSPost2010Prop51ColorRGB
 90
-16777216
102
RTVSPost2010PropOp51
 70
     0
102
RTVSPost2010Prop52
140
1.0
102
RTVSPost2010PropOp52
 70
     0
102
RTVSPost2010Prop53
 90
        2
102
RTVSPost2010PropOp53
 70
     1
102
RTVSPost2010Prop54
  1
strokes_ogs.tif
102
RTVSPost2010PropOp54
 70
     1
102
RTVSPost2010Prop55
280
     0
102
RTVSPost2010PropOp55
 70
     1
102
RTVSPost2010Prop56
140
1.0
102
RTVSPost2010PropOp56
 70
     1
102
RTVSPost2010Prop57
140
1.0
102
RTVSPost2010PropOp57
 70
     1
102
RTVSPropertyOp0
 70
     1
102
RTVSPropertyOp1
 70
     1
102
RTVSPropertyOp2
 70
     1
102
RTVSPropertyOp3
 70
     1
102
RTVSPropertyOp4
 70
     1
102
RTVSPropertyOp5
 70
     1
102
RTVSPropertyOp6
 70
     1
102
RTVSPropertyOp7
 70
     1
102
RTVSPropertyOp8
 70
     1
102
RTVSPropertyOp9
 70
     1
102
RTVSPropertyOp10
 70
     1
102
RTVSPropertyOp11
 70
     1
102
RTVSPropertyOp12
 70
     1
102
RTVSPropertyOp13
 70
     1
102
RTVSPropertyOp14
 70
     1
102
RTVSPropertyOp15
 70
     1
102
RTVSPropertyOp16
 70
     1
102
RTVSPropertyOp17
 70
     1
102
RTVSPropertyOp18
 70
     1
102
RTVSPropertyOp19
 70
     1
102
RTVSPropertyOp20
 70
     1
102
RTVSPropertyOp21
 70
     1
102
RTVSPropertyOp22
 70
     1
102
RTVSPropertyOp23
 70
     1
102
RTVSPropertyOp24
 70
     1
102
RTVSPropertyOp25
 70
     1
102
RTVSPropertyOp26
 70
     1
102
RTVSPropertyOp27
 70
     1
102
RTVSPropertyOp28
 70
     1
102
RTVSPropertyOp29
 70
     1
102
RTVSPropertyOp30
 70
     1
102
RTVSPropertyOp31
 70
     1
102
RTVSPropertyOp32
 70
     1
102
RTVSPropertyOp33
 70
     1
102
RTVSPropertyOp34
 70
     1
102
RTVSPropertyOp35
 70
     1
102
RTVSPropertyOp36
 70
     1
102
RTVSPropertyOp37
 70
     1
102
RTVSPropertyOp38
 70
     1
102
RTVSPropertyOp39
 70
     1
102
RTVSPropertyOp40
 70
     1
102
RTVSPropertyOp41
 70
     1
102
RTVSPropertyOp42
 70
     1
102
RTVSPropertyOp43
 70
     1
102
RTVSPropertyOp44
 70
     1
102
RTVSPropertyOp45
 70
     1
102
RTVSPropertyOp46
 70
     1
102
RTVSPropertyOp47
 70
     1
102
RTVSPropertyOp48
 70
     1
102
RTVSPropertyOp49
 70
     1
102
RTVSPropertyOp50
 70
     1
102
RTVSPropertyOp51
 70
     0
102
RTVSPropertyOp52
 70
     0
102
RTVSPropertyOp53
 70
     1
102
RTVSPropertyOp54
 70
     1
102
RTVSPropertyOp55
 70
     1
102
RTVSPropertyOp56
 70
     1
102
RTVSPropertyOp57
 70
     1
102
RTVSPropertyOp58
 70
     1
102
RTVSPropertyOp59
 70
     1
102
RTVSPropertyOp60
 70
     1
102
RTVSPropertyOp61
 70
     1
102
RTVSPropertyOp62
 70
     1
  0
XRECORD
  5
D1A
102
{ACAD_REACTORS
330
D19
102
}
330
D19
100
AcDbXrecord
280
     1
102
RTVSPost2010Prop28
280
     0
102
RTVSPost2010PropOp28
 70
     1
102
RTVSPost2010Prop29
280
     1
102
RTVSPost2010PropOp29
 70
     1
102
RTVSPost2010Prop30
280
     1
102
RTVSPost2010PropOp30
 70
     1
102
RTVSPost2010Prop31
280
     0
102
RTVSPost2010PropOp31
 70
     1
102
RTVSPost2010Prop32
280
     0
102
RTVSPost2010PropOp32
 70
     1
102
RTVSPost2010Prop33
280
     0
102
RTVSPost2010PropOp33
 70
     1
102
RTVSPost2010Prop34
280
     0
102
RTVSPost2010PropOp34
 70
     1
102
RTVSPost2010Prop35
280
     0
102
RTVSPost2010PropOp35
 70
     1
102
RTVSPost2010Prop36
280
     0
102
RTVSPost2010PropOp36
 70
     1
102
RTVSPost2010Prop37
 90
       50
102
RTVSPost2010PropOp37
 70
     1
102
RTVSPost2010Prop38
140
0.0
102
RTVSPost2010PropOp38
 70
     1
102
RTVSPost2010Prop39
140
1.0
102
RTVSPost2010PropOp39
 70
     1
102
RTVSPost2010Prop40
 90
        0
102
RTVSPost2010PropOp40
 70
     1
102
RTVSPost2010Prop41ColorIndex
 90
       18
102
RTVSPost2010Prop41ColorRGB
 90
        0
102
RTVSPost2010PropOp41
 70
     1
102
RTVSPost2010Prop42
 90
       50
102
RTVSPost2010PropOp42
 70
     1
102
RTVSPost2010Prop43
 90
        3
102
RTVSPost2010PropOp43
 70
     1
102
RTVSPost2010Prop44ColorIndex
 90
        5
102
RTVSPost2010Prop44ColorRGB
 90
      255
102
RTVSPost2010PropOp44
 70
     1
102
RTVSPost2010Prop45
280
     0
102
RTVSPost2010PropOp45
 70
     1
102
RTVSPost2010Prop46
 90
       50
102
RTVSPost2010PropOp46
 70
     1
102
RTVSPost2010Prop47
 90
       50
102
RTVSPost2010PropOp47
 70
     1
102
RTVSPost2010Prop48
 90
       50
102
RTVSPost2010PropOp48
 70
     1
102
RTVSPost2010Prop49
280
     0
102
RTVSPost2010PropOp49
 70
     1
102
RTVSPost2010Prop50
 90
       50
102
RTVSPost2010PropOp50
 70
     1
102
RTVSPost2010Prop51ColorIndex
 90
      256
102
RTVSPost2010Prop51ColorRGB
 90
-16777216
102
RTVSPost2010PropOp51
 70
     0
102
RTVSPost2010Prop52
140
1.0
102
RTVSPost2010PropOp52
 70
     0
102
RTVSPost2010Prop53
 90
        2
102
RTVSPost2010PropOp53
 70
     1
102
RTVSPost2010Prop54
  1
strokes_ogs.tif
102
RTVSPost2010PropOp54
 70
     1
102
RTVSPost2010Prop55
280
     0
102
RTVSPost2010PropOp55
 70
     1
102
RTVSPost2010Prop56
140
1.0
102
RTVSPost2010PropOp56
 70
     1
102
RTVSPost2010Prop57
140
1.0
102
RTVSPost2010PropOp57
 70
     1
102
RTVSPropertyOp0
 70
     1
102
RTVSPropertyOp1
 70
     1
102
RTVSPropertyOp2
 70
     1
102
RTVSPropertyOp3
 70
     1
102
RTVSPropertyOp4
 70
     1
102
RTVSPropertyOp5
 70
     1
102
RTVSPropertyOp6
 70
     1
102
RTVSPropertyOp7
 70
     1
102
RTVSPropertyOp8
 70
     1
102
RTVSPropertyOp9
 70
     1
102
RTVSPropertyOp10
 70
     1
102
RTVSPropertyOp11
 70
     1
102
RTVSPropertyOp12
 70
     1
102
RTVSPropertyOp13
 70
     1
102
RTVSPropertyOp14
 70
     1
102
RTVSPropertyOp15
 70
     1
102
RTVSPropertyOp16
 70
     1
102
RTVSPropertyOp17
 70
     1
102
RTVSPropertyOp18
 70
     1
102
RTVSPropertyOp19
 70
     1
102
RTVSPropertyOp20
 70
     1
102
RTVSPropertyOp21
 70
     1
102
RTVSPropertyOp22
 70
     1
102
RTVSPropertyOp23
 70
     1
102
RTVSPropertyOp24
 70
     1
102
RTVSPropertyOp25
 70
     1
102
RTVSPropertyOp26
 70
     1
102
RTVSPropertyOp27
 70
     1
102
RTVSPropertyOp28
 70
     1
102
RTVSPropertyOp29
 70
     1
102
RTVSPropertyOp30
 70
     1
102
RTVSPropertyOp31
 70
     1
102
RTVSPropertyOp32
 70
     1
102
RTVSPropertyOp33
 70
     1
102
RTVSPropertyOp34
 70
     1
102
RTVSPropertyOp35
 70
     1
102
RTVSPropertyOp36
 70
     1
102
RTVSPropertyOp37
 70
     1
102
RTVSPropertyOp38
 70
     1
102
RTVSPropertyOp39
 70
     1
102
RTVSPropertyOp40
 70
     1
102
RTVSPropertyOp41
 70
     1
102
RTVSPropertyOp42
 70
     1
102
RTVSPropertyOp43
 70
     1
102
RTVSPropertyOp44
 70
     1
102
RTVSPropertyOp45
 70
     1
102
RTVSPropertyOp46
 70
     1
102
RTVSPropertyOp47
 70
     1
102
RTVSPropertyOp48
 70
     1
102
RTVSPropertyOp49
 70
     1
102
RTVSPropertyOp50
 70
     1
102
RTVSPropertyOp51
 70
     0
102
RTVSPropertyOp52
 70
     0
102
RTVSPropertyOp53
 70
     1
102
RTVSPropertyOp54
 70
     1
102
RTVSPropertyOp55
 70
     1
102
RTVSPropertyOp56
 70
     1
102
RTVSPropertyOp57
 70
     1
102
RTVSPropertyOp58
 70
     1
102
RTVSPropertyOp59
 70
     1
102
RTVSPropertyOp60
 70
     1
102
RTVSPropertyOp61
 70
     1
102
RTVSPropertyOp62
 70
     1
  0
XRECORD
  5
D1C
102
{ACAD_REACTORS
330
D1B
102
}
330
D1B
100
AcDbXrecord
280
     1
102
RTVSPost2010Prop28
280
     0
102
RTVSPost2010PropOp28
 70
     1
102
RTVSPost2010Prop29
280
     1
102
RTVSPost2010PropOp29
 70
     1
102
RTVSPost2010Prop30
280
     1
102
RTVSPost2010PropOp30
 70
     1
102
RTVSPost2010Prop31
280
     0
102
RTVSPost2010PropOp31
 70
     1
102
RTVSPost2010Prop32
280
     0
102
RTVSPost2010PropOp32
 70
     1
102
RTVSPost2010Prop33
280
     0
102
RTVSPost2010PropOp33
 70
     1
102
RTVSPost2010Prop34
280
     0
102
RTVSPost2010PropOp34
 70
     1
102
RTVSPost2010Prop35
280
     0
102
RTVSPost2010PropOp35
 70
     1
102
RTVSPost2010Prop36
280
     0
102
RTVSPost2010PropOp36
 70
     1
102
RTVSPost2010Prop37
 90
       50
102
RTVSPost2010PropOp37
 70
     1
102
RTVSPost2010Prop38
140
0.0
102
RTVSPost2010PropOp38
 70
     1
102
RTVSPost2010Prop39
140
1.0
102
RTVSPost2010PropOp39
 70
     1
102
RTVSPost2010Prop40
 90
        0
102
RTVSPost2010PropOp40
 70
     1
102
RTVSPost2010Prop41ColorIndex
 90
       18
102
RTVSPost2010Prop41ColorRGB
 90
        0
102
RTVSPost2010PropOp41
 70
     1
102
RTVSPost2010Prop42
 90
       50
102
RTVSPost2010PropOp42
 70
     1
102
RTVSPost2010Prop43
 90
        3
102
RTVSPost2010PropOp43
 70
     1
102
RTVSPost2010Prop44ColorIndex
 90
        5
102
RTVSPost2010Prop44ColorRGB
 90
      255
102
RTVSPost2010PropOp44
 70
     1
102
RTVSPost2010Prop45
280
     0
102
RTVSPost2010PropOp45
 70
     1
102
RTVSPost2010Prop46
 90
       50
102
RTVSPost2010PropOp46
 70
     1
102
RTVSPost2010Prop47
 90
       50
102
RTVSPost2010PropOp47
 70
     1
102
RTVSPost2010Prop48
 90
       50
102
RTVSPost2010PropOp48
 70
     1
102
RTVSPost2010Prop49
280
     0
102
RTVSPost2010PropOp49
 70
     1
102
RTVSPost2010Prop50
 90
       50
102
RTVSPost2010PropOp50
 70
     1
102
RTVSPost2010Prop51ColorIndex
 90
      256
102
RTVSPost2010Prop51ColorRGB
 90
-16777216
102
RTVSPost2010PropOp51
 70
     0
102
RTVSPost2010Prop52
140
1.0
102
RTVSPost2010PropOp52
 70
     0
102
RTVSPost2010Prop53
 90
        2
102
RTVSPost2010PropOp53
 70
     1
102
RTVSPost2010Prop54
  1
strokes_ogs.tif
102
RTVSPost2010PropOp54
 70
     1
102
RTVSPost2010Prop55
280
     0
102
RTVSPost2010PropOp55
 70
     1
102
RTVSPost2010Prop56
140
1.0
102
RTVSPost2010PropOp56
 70
     1
102
RTVSPost2010Prop57
140
1.0
102
RTVSPost2010PropOp57
 70
     1
102
RTVSPropertyOp0
 70
     1
102
RTVSPropertyOp1
 70
     1
102
RTVSPropertyOp2
 70
     1
102
RTVSPropertyOp3
 70
     1
102
RTVSPropertyOp4
 70
     1
102
RTVSPropertyOp5
 70
     1
102
RTVSPropertyOp6
 70
     1
102
RTVSPropertyOp7
 70
     1
102
RTVSPropertyOp8
 70
     1
102
RTVSPropertyOp9
 70
     1
102
RTVSPropertyOp10
 70
     1
102
RTVSPropertyOp11
 70
     1
102
RTVSPropertyOp12
 70
     1
102
RTVSPropertyOp13
 70
     1
102
RTVSPropertyOp14
 70
     1
102
RTVSPropertyOp15
 70
     1
102
RTVSPropertyOp16
 70
     1
102
RTVSPropertyOp17
 70
     1
102
RTVSPropertyOp18
 70
     1
102
RTVSPropertyOp19
 70
     1
102
RTVSPropertyOp20
 70
     1
102
RTVSPropertyOp21
 70
     1
102
RTVSPropertyOp22
 70
     1
102
RTVSPropertyOp23
 70
     1
102
RTVSPropertyOp24
 70
     1
102
RTVSPropertyOp25
 70
     1
102
RTVSPropertyOp26
 70
     1
102
RTVSPropertyOp27
 70
     1
102
RTVSPropertyOp28
 70
     1
102
RTVSPropertyOp29
 70
     1
102
RTVSPropertyOp30
 70
     1
102
RTVSPropertyOp31
 70
     1
102
RTVSPropertyOp32
 70
     1
102
RTVSPropertyOp33
 70
     1
102
RTVSPropertyOp34
 70
     1
102
RTVSPropertyOp35
 70
     1
102
RTVSPropertyOp36
 70
     1
102
RTVSPropertyOp37
 70
     1
102
RTVSPropertyOp38
 70
     1
102
RTVSPropertyOp39
 70
     1
102
RTVSPropertyOp40
 70
     1
102
RTVSPropertyOp41
 70
     1
102
RTVSPropertyOp42
 70
     1
102
RTVSPropertyOp43
 70
     1
102
RTVSPropertyOp44
 70
     1
102
RTVSPropertyOp45
 70
     1
102
RTVSPropertyOp46
 70
     1
102
RTVSPropertyOp47
 70
     1
102
RTVSPropertyOp48
 70
     1
102
RTVSPropertyOp49
 70
     1
102
RTVSPropertyOp50
 70
     1
102
RTVSPropertyOp51
 70
     0
102
RTVSPropertyOp52
 70
     0
102
RTVSPropertyOp53
 70
     1
102
RTVSPropertyOp54
 70
     1
102
RTVSPropertyOp55
 70
     1
102
RTVSPropertyOp56
 70
     1
102
RTVSPropertyOp57
 70
     1
102
RTVSPropertyOp58
 70
     1
102
RTVSPropertyOp59
 70
     1
102
RTVSPropertyOp60
 70
     1
102
RTVSPropertyOp61
 70
     1
102
RTVSPropertyOp62
 70
     1
  0
XRECORD
  5
D1E
102
{ACAD_REACTORS
330
D1D
102
}
330
D1D
100
AcDbXrecord
280
     1
102
RTVSPost2010Prop28
280
     0
102
RTVSPost2010PropOp28
 70
     1
102
RTVSPost2010Prop29
280
     1
102
RTVSPost2010PropOp29
 70
     1
102
RTVSPost2010Prop30
280
     1
102
RTVSPost2010PropOp30
 70
     1
102
RTVSPost2010Prop31
280
     0
102
RTVSPost2010PropOp31
 70
     1
102
RTVSPost2010Prop32
280
     0
102
RTVSPost2010PropOp32
 70
     1
102
RTVSPost2010Prop33
280
     0
102
RTVSPost2010PropOp33
 70
     1
102
RTVSPost2010Prop34
280
     0
102
RTVSPost2010PropOp34
 70
     1
102
RTVSPost2010Prop35
280
     0
102
RTVSPost2010PropOp35
 70
     1
102
RTVSPost2010Prop36
280
     0
102
RTVSPost2010PropOp36
 70
     1
102
RTVSPost2010Prop37
 90
       50
102
RTVSPost2010PropOp37
 70
     1
102
RTVSPost2010Prop38
140
0.0
102
RTVSPost2010PropOp38
 70
     1
102
RTVSPost2010Prop39
140
1.0
102
RTVSPost2010PropOp39
 70
     1
102
RTVSPost2010Prop40
 90
        0
102
RTVSPost2010PropOp40
 70
     1
102
RTVSPost2010Prop41ColorIndex
 90
       18
102
RTVSPost2010Prop41ColorRGB
 90
        0
102
RTVSPost2010PropOp41
 70
     1
102
RTVSPost2010Prop42
 90
       50
102
RTVSPost2010PropOp42
 70
     1
102
RTVSPost2010Prop43
 90
        3
102
RTVSPost2010PropOp43
 70
     1
102
RTVSPost2010Prop44ColorIndex
 90
        5
102
RTVSPost2010Prop44ColorRGB
 90
      255
102
RTVSPost2010PropOp44
 70
     1
102
RTVSPost2010Prop45
280
     0
102
RTVSPost2010PropOp45
 70
     1
102
RTVSPost2010Prop46
 90
       50
102
RTVSPost2010PropOp46
 70
     1
102
RTVSPost2010Prop47
 90
       50
102
RTVSPost2010PropOp47
 70
     1
102
RTVSPost2010Prop48
 90
       50
102
RTVSPost2010PropOp48
 70
     1
102
RTVSPost2010Prop49
280
     0
102
RTVSPost2010PropOp49
 70
     1
102
RTVSPost2010Prop50
 90
       50
102
RTVSPost2010PropOp50
 70
     1
102
RTVSPost2010Prop51ColorIndex
 90
      256
102
RTVSPost2010Prop51ColorRGB
 90
-16777216
102
RTVSPost2010PropOp51
 70
     0
102
RTVSPost2010Prop52
140
1.0
102
RTVSPost2010PropOp52
 70
     0
102
RTVSPost2010Prop53
 90
        2
102
RTVSPost2010PropOp53
 70
     1
102
RTVSPost2010Prop54
  1
strokes_ogs.tif
102
RTVSPost2010PropOp54
 70
     1
102
RTVSPost2010Prop55
280
     0
102
RTVSPost2010PropOp55
 70
     1
102
RTVSPost2010Prop56
140
1.0
102
RTVSPost2010PropOp56
 70
     1
102
RTVSPost2010Prop57
140
1.0
102
RTVSPost2010PropOp57
 70
     1
102
RTVSPropertyOp0
 70
     1
102
RTVSPropertyOp1
 70
     1
102
RTVSPropertyOp2
 70
     1
102
RTVSPropertyOp3
 70
     1
102
RTVSPropertyOp4
 70
     1
102
RTVSPropertyOp5
 70
     1
102
RTVSPropertyOp6
 70
     1
102
RTVSPropertyOp7
 70
     1
102
RTVSPropertyOp8
 70
     1
102
RTVSPropertyOp9
 70
     1
102
RTVSPropertyOp10
 70
     1
102
RTVSPropertyOp11
 70
     1
102
RTVSPropertyOp12
 70
     1
102
RTVSPropertyOp13
 70
     1
102
RTVSPropertyOp14
 70
     1
102
RTVSPropertyOp15
 70
     1
102
RTVSPropertyOp16
 70
     1
102
RTVSPropertyOp17
 70
     1
102
RTVSPropertyOp18
 70
     1
102
RTVSPropertyOp19
 70
     1
102
RTVSPropertyOp20
 70
     1
102
RTVSPropertyOp21
 70
     1
102
RTVSPropertyOp22
 70
     1
102
RTVSPropertyOp23
 70
     1
102
RTVSPropertyOp24
 70
     1
102
RTVSPropertyOp25
 70
     1
102
RTVSPropertyOp26
 70
     1
102
RTVSPropertyOp27
 70
     1
102
RTVSPropertyOp28
 70
     1
102
RTVSPropertyOp29
 70
     1
102
RTVSPropertyOp30
 70
     1
102
RTVSPropertyOp31
 70
     1
102
RTVSPropertyOp32
 70
     1
102
RTVSPropertyOp33
 70
     1
102
RTVSPropertyOp34
 70
     1
102
RTVSPropertyOp35
 70
     1
102
RTVSPropertyOp36
 70
     1
102
RTVSPropertyOp37
 70
     1
102
RTVSPropertyOp38
 70
     1
102
RTVSPropertyOp39
 70
     1
102
RTVSPropertyOp40
 70
     1
102
RTVSPropertyOp41
 70
     1
102
RTVSPropertyOp42
 70
     1
102
RTVSPropertyOp43
 70
     1
102
RTVSPropertyOp44
 70
     1
102
RTVSPropertyOp45
 70
     1
102
RTVSPropertyOp46
 70
     1
102
RTVSPropertyOp47
 70
     1
102
RTVSPropertyOp48
 70
     1
102
RTVSPropertyOp49
 70
     1
102
RTVSPropertyOp50
 70
     1
102
RTVSPropertyOp51
 70
     0
102
RTVSPropertyOp52
 70
     0
102
RTVSPropertyOp53
 70
     1
102
RTVSPropertyOp54
 70
     1
102
RTVSPropertyOp55
 70
     1
102
RTVSPropertyOp56
 70
     1
102
RTVSPropertyOp57
 70
     1
102
RTVSPropertyOp58
 70
     1
102
RTVSPropertyOp59
 70
     1
102
RTVSPropertyOp60
 70
     1
102
RTVSPropertyOp61
 70
     1
102
RTVSPropertyOp62
 70
     1
  0
XRECORD
  5
D26
102
{ACAD_REACTORS
330
D25
102
}
330
D25
100
AcDbXrecord
280
     1
102
RTVSPost2010Prop28
280
     0
102
RTVSPost2010PropOp28
 70
     1
102
RTVSPost2010Prop29
280
     1
102
RTVSPost2010PropOp29
 70
     1
102
RTVSPost2010Prop30
280
     1
102
RTVSPost2010PropOp30
 70
     1
102
RTVSPost2010Prop31
280
     0
102
RTVSPost2010PropOp31
 70
     1
102
RTVSPost2010Prop32
280
     0
102
RTVSPost2010PropOp32
 70
     1
102
RTVSPost2010Prop33
280
     0
102
RTVSPost2010PropOp33
 70
     1
102
RTVSPost2010Prop34
280
     0
102
RTVSPost2010PropOp34
 70
     1
102
RTVSPost2010Prop35
280
     0
102
RTVSPost2010PropOp35
 70
     1
102
RTVSPost2010Prop36
280
     0
102
RTVSPost2010PropOp36
 70
     1
102
RTVSPost2010Prop37
 90
       50
102
RTVSPost2010PropOp37
 70
     1
102
RTVSPost2010Prop38
140
0.0
102
RTVSPost2010PropOp38
 70
     1
102
RTVSPost2010Prop39
140
1.0
102
RTVSPost2010PropOp39
 70
     1
102
RTVSPost2010Prop40
 90
        0
102
RTVSPost2010PropOp40
 70
     1
102
RTVSPost2010Prop41ColorIndex
 90
       18
102
RTVSPost2010Prop41ColorRGB
 90
        0
102
RTVSPost2010PropOp41
 70
     1
102
RTVSPost2010Prop42
 90
       50
102
RTVSPost2010PropOp42
 70
     1
102
RTVSPost2010Prop43
 90
        3
102
RTVSPost2010PropOp43
 70
     1
102
RTVSPost2010Prop44ColorIndex
 90
        5
102
RTVSPost2010Prop44ColorRGB
 90
      255
102
RTVSPost2010PropOp44
 70
     1
102
RTVSPost2010Prop45
280
     0
102
RTVSPost2010PropOp45
 70
     1
102
RTVSPost2010Prop46
 90
       50
102
RTVSPost2010PropOp46
 70
     1
102
RTVSPost2010Prop47
 90
       50
102
RTVSPost2010PropOp47
 70
     1
102
RTVSPost2010Prop48
 90
       50
102
RTVSPost2010PropOp48
 70
     1
102
RTVSPost2010Prop49
280
     0
102
RTVSPost2010PropOp49
 70
     1
102
RTVSPost2010Prop50
 90
       50
102
RTVSPost2010PropOp50
 70
     1
102
RTVSPost2010Prop51ColorIndex
 90
      256
102
RTVSPost2010Prop51ColorRGB
 90
-16777216
102
RTVSPost2010PropOp51
 70
     0
102
RTVSPost2010Prop52
140
1.0
102
RTVSPost2010PropOp52
 70
     0
102
RTVSPost2010Prop53
 90
        2
102
RTVSPost2010PropOp53
 70
     1
102
RTVSPost2010Prop54
  1
strokes_ogs.tif
102
RTVSPost2010PropOp54
 70
     1
102
RTVSPost2010Prop55
280
     0
102
RTVSPost2010PropOp55
 70
     1
102
RTVSPost2010Prop56
140
1.0
102
RTVSPost2010PropOp56
 70
     1
102
RTVSPost2010Prop57
140
1.0
102
RTVSPost2010PropOp57
 70
     1
102
RTVSPropertyOp0
 70
     1
102
RTVSPropertyOp1
 70
     1
102
RTVSPropertyOp2
 70
     1
102
RTVSPropertyOp3
 70
     1
102
RTVSPropertyOp4
 70
     1
102
RTVSPropertyOp5
 70
     1
102
RTVSPropertyOp6
 70
     1
102
RTVSPropertyOp7
 70
     1
102
RTVSPropertyOp8
 70
     1
102
RTVSPropertyOp9
 70
     1
102
RTVSPropertyOp10
 70
     1
102
RTVSPropertyOp11
 70
     1
102
RTVSPropertyOp12
 70
     1
102
RTVSPropertyOp13
 70
     1
102
RTVSPropertyOp14
 70
     1
102
RTVSPropertyOp15
 70
     1
102
RTVSPropertyOp16
 70
     1
102
RTVSPropertyOp17
 70
     1
102
RTVSPropertyOp18
 70
     1
102
RTVSPropertyOp19
 70
     1
102
RTVSPropertyOp20
 70
     1
102
RTVSPropertyOp21
 70
     1
102
RTVSPropertyOp22
 70
     1
102
RTVSPropertyOp23
 70
     1
102
RTVSPropertyOp24
 70
     1
102
RTVSPropertyOp25
 70
     1
102
RTVSPropertyOp26
 70
     1
102
RTVSPropertyOp27
 70
     1
102
RTVSPropertyOp28
 70
     1
102
RTVSPropertyOp29
 70
     1
102
RTVSPropertyOp30
 70
     1
102
RTVSPropertyOp31
 70
     1
102
RTVSPropertyOp32
 70
     1
102
RTVSPropertyOp33
 70
     1
102
RTVSPropertyOp34
 70
     1
102
RTVSPropertyOp35
 70
     1
102
RTVSPropertyOp36
 70
     1
102
RTVSPropertyOp37
 70
     1
102
RTVSPropertyOp38
 70
     1
102
RTVSPropertyOp39
 70
     1
102
RTVSPropertyOp40
 70
     1
102
RTVSPropertyOp41
 70
     1
102
RTVSPropertyOp42
 70
     1
102
RTVSPropertyOp43
 70
     1
102
RTVSPropertyOp44
 70
     1
102
RTVSPropertyOp45
 70
     1
102
RTVSPropertyOp46
 70
     1
102
RTVSPropertyOp47
 70
     1
102
RTVSPropertyOp48
 70
     1
102
RTVSPropertyOp49
 70
     1
102
RTVSPropertyOp50
 70
     1
102
RTVSPropertyOp51
 70
     0
102
RTVSPropertyOp52
 70
     0
102
RTVSPropertyOp53
 70
     1
102
RTVSPropertyOp54
 70
     1
102
RTVSPropertyOp55
 70
     1
102
RTVSPropertyOp56
 70
     1
102
RTVSPropertyOp57
 70
     1
102
RTVSPropertyOp58
 70
     1
102
RTVSPropertyOp59
 70
     1
102
RTVSPropertyOp60
 70
     1
102
RTVSPropertyOp61
 70
     1
102
RTVSPropertyOp62
 70
     1
  0
XRECORD
  5
D42
102
{ACAD_REACTORS
330
D41
102
}
330
D41
100
AcDbXrecord
280
     1
102
RTVSPost2010Prop28
280
     0
102
RTVSPost2010PropOp28
 70
     0
102
RTVSPost2010Prop29
280
     1
102
RTVSPost2010PropOp29
 70
     0
102
RTVSPost2010Prop30
280
     1
102
RTVSPost2010PropOp30
 70
     0
102
RTVSPost2010Prop31
280
     0
102
RTVSPost2010PropOp31
 70
     0
102
RTVSPost2010Prop32
280
     0
102
RTVSPost2010PropOp32
 70
     0
102
RTVSPost2010Prop33
280
     0
102
RTVSPost2010PropOp33
 70
     0
102
RTVSPost2010Prop34
280
     0
102
RTVSPost2010PropOp34
 70
     0
102
RTVSPost2010Prop35
280
     0
102
RTVSPost2010PropOp35
 70
     0
102
RTVSPost2010Prop36
280
     0
102
RTVSPost2010PropOp36
 70
     0
102
RTVSPost2010Prop37
 90
       50
102
RTVSPost2010PropOp37
 70
     0
102
RTVSPost2010Prop38
140
0.0
102
RTVSPost2010PropOp38
 70
     0
102
RTVSPost2010Prop39
140
1.0
102
RTVSPost2010PropOp39
 70
     0
102
RTVSPost2010Prop40
 90
        0
102
RTVSPost2010PropOp40
 70
     0
102
RTVSPost2010Prop41ColorIndex
 90
       18
102
RTVSPost2010Prop41ColorRGB
 90
        0
102
RTVSPost2010PropOp41
 70
     0
102
RTVSPost2010Prop42
 90
       50
102
RTVSPost2010PropOp42
 70
     0
102
RTVSPost2010Prop43
 90
        3
102
RTVSPost2010PropOp43
 70
     0
102
RTVSPost2010Prop44ColorIndex
 90
        5
102
RTVSPost2010Prop44ColorRGB
 90
      255
102
RTVSPost2010PropOp44
 70
     0
102
RTVSPost2010Prop45
280
     0
102
RTVSPost2010PropOp45
 70
     0
102
RTVSPost2010Prop46
 90
       50
102
RTVSPost2010PropOp46
 70
     0
102
RTVSPost2010Prop47
 90
       50
102
RTVSPost2010PropOp47
 70
     0
102
RTVSPost2010Prop48
 90
       50
102
RTVSPost2010PropOp48
 70
     0
102
RTVSPost2010Prop49
280
     0
102
RTVSPost2010PropOp49
 70
     0
102
RTVSPost2010Prop50
 90
       50
102
RTVSPost2010PropOp50
 70
     0
102
RTVSPost2010Prop51ColorIndex
 90
      256
102
RTVSPost2010Prop51ColorRGB
 90
-16777216
102
RTVSPost2010PropOp51
 70
     0
102
RTVSPost2010Prop52
140
1.0
102
RTVSPost2010PropOp52
 70
     0
102
RTVSPost2010Prop53
 90
        2
102
RTVSPost2010PropOp53
 70
     0
102
RTVSPost2010Prop54
  1
strokes_ogs.tif
102
RTVSPost2010PropOp54
 70
     0
102
RTVSPost2010Prop55
280
     0
102
RTVSPost2010PropOp55
 70
     0
102
RTVSPost2010Prop56
140
1.0
102
RTVSPost2010PropOp56
 70
     0
102
RTVSPost2010Prop57
140
1.0
102
RTVSPost2010PropOp57
 70
     0
102
RTVSPropertyOp0
 70
     0
102
RTVSPropertyOp1
 70
     0
102
RTVSPropertyOp2
 70
     0
102
RTVSPropertyOp3
 70
     0
102
RTVSPropertyOp4
 70
     0
102
RTVSPropertyOp5
 70
     0
102
RTVSPropertyOp6
 70
     0
102
RTVSPropertyOp7
 70
     0
102
RTVSPropertyOp8
 70
     0
102
RTVSPropertyOp9
 70
     0
102
RTVSPropertyOp10
 70
     0
102
RTVSPropertyOp11
 70
     0
102
RTVSPropertyOp12
 70
     0
102
RTVSPropertyOp13
 70
     0
102
RTVSPropertyOp14
 70
     2
102
RTVSPropertyOp15
 70
     0
102
RTVSPropertyOp16
 70
     0
102
RTVSPropertyOp17
 70
     0
102
RTVSPropertyOp18
 70
     0
102
RTVSPropertyOp19
 70
     0
102
RTVSPropertyOp20
 70
     0
102
RTVSPropertyOp21
 70
     0
102
RTVSPropertyOp22
 70
     0
102
RTVSPropertyOp23
 70
     0
102
RTVSPropertyOp24
 70
     0
102
RTVSPropertyOp25
 70
     0
102
RTVSPropertyOp26
 70
     0
102
RTVSPropertyOp27
 70
     0
102
RTVSPropertyOp28
 70
     0
102
RTVSPropertyOp29
 70
     0
102
RTVSPropertyOp30
 70
     0
102
RTVSPropertyOp31
 70
     0
102
RTVSPropertyOp32
 70
     0
102
RTVSPropertyOp33
 70
     0
102
RTVSPropertyOp34
 70
     0
102
RTVSPropertyOp35
 70
     0
102
RTVSPropertyOp36
 70
     0
102
RTVSPropertyOp37
 70
     0
102
RTVSPropertyOp38
 70
     0
102
RTVSPropertyOp39
 70
     0
102
RTVSPropertyOp40
 70
     0
102
RTVSPropertyOp41
 70
     0
102
RTVSPropertyOp42
 70
     0
102
RTVSPropertyOp43
 70
     0
102
RTVSPropertyOp44
 70
     0
102
RTVSPropertyOp45
 70
     0
102
RTVSPropertyOp46
 70
     0
102
RTVSPropertyOp47
 70
     0
102
RTVSPropertyOp48
 70
     0
102
RTVSPropertyOp49
 70
     0
102
RTVSPropertyOp50
 70
     0
102
RTVSPropertyOp51
 70
     0
102
RTVSPropertyOp52
 70
     0
102
RTVSPropertyOp53
 70
     0
102
RTVSPropertyOp54
 70
     0
102
RTVSPropertyOp55
 70
     0
102
RTVSPropertyOp56
 70
     0
102
RTVSPropertyOp57
 70
     0
102
RTVSPropertyOp58
 70
     0
102
RTVSPropertyOp59
 70
     0
102
RTVSPropertyOp60
 70
     0
102
RTVSPropertyOp61
 70
     0
102
RTVSPropertyOp62
 70
     0
  0
XRECORD
  5
D32
102
{ACAD_REACTORS
330
D31
102
}
330
D31
100
AcDbXrecord
280
     1
102
RTVSPost2010Prop28
280
     0
102
RTVSPost2010PropOp28
 70
     1
102
RTVSPost2010Prop29
280
     1
102
RTVSPost2010PropOp29
 70
     1
102
RTVSPost2010Prop30
280
     1
102
RTVSPost2010PropOp30
 70
     1
102
RTVSPost2010Prop31
280
     0
102
RTVSPost2010PropOp31
 70
     1
102
RTVSPost2010Prop32
280
     0
102
RTVSPost2010PropOp32
 70
     1
102
RTVSPost2010Prop33
280
     0
102
RTVSPost2010PropOp33
 70
     1
102
RTVSPost2010Prop34
280
     0
102
RTVSPost2010PropOp34
 70
     1
102
RTVSPost2010Prop35
280
     0
102
RTVSPost2010PropOp35
 70
     1
102
RTVSPost2010Prop36
280
     0
102
RTVSPost2010PropOp36
 70
     1
102
RTVSPost2010Prop37
 90
       50
102
RTVSPost2010PropOp37
 70
     1
102
RTVSPost2010Prop38
140
0.0
102
RTVSPost2010PropOp38
 70
     1
102
RTVSPost2010Prop39
140
1.0
102
RTVSPost2010PropOp39
 70
     1
102
RTVSPost2010Prop40
 90
        0
102
RTVSPost2010PropOp40
 70
     1
102
RTVSPost2010Prop41ColorIndex
 90
       18
102
RTVSPost2010Prop41ColorRGB
 90
        0
102
RTVSPost2010PropOp41
 70
     1
102
RTVSPost2010Prop42
 90
       50
102
RTVSPost2010PropOp42
 70
     1
102
RTVSPost2010Prop43
 90
        3
102
RTVSPost2010PropOp43
 70
     1
102
RTVSPost2010Prop44ColorIndex
 90
        5
102
RTVSPost2010Prop44ColorRGB
 90
      255
102
RTVSPost2010PropOp44
 70
     1
102
RTVSPost2010Prop45
280
     0
102
RTVSPost2010PropOp45
 70
     1
102
RTVSPost2010Prop46
 90
       50
102
RTVSPost2010PropOp46
 70
     1
102
RTVSPost2010Prop47
 90
       50
102
RTVSPost2010PropOp47
 70
     1
102
RTVSPost2010Prop48
 90
       50
102
RTVSPost2010PropOp48
 70
     1
102
RTVSPost2010Prop49
280
     0
102
RTVSPost2010PropOp49
 70
     1
102
RTVSPost2010Prop50
 90
       50
102
RTVSPost2010PropOp50
 70
     1
102
RTVSPost2010Prop51ColorIndex
 90
      256
102
RTVSPost2010Prop51ColorRGB
 90
-16777216
102
RTVSPost2010PropOp51
 70
     0
102
RTVSPost2010Prop52
140
1.0
102
RTVSPost2010PropOp52
 70
     0
102
RTVSPost2010Prop53
 90
        2
102
RTVSPost2010PropOp53
 70
     1
102
RTVSPost2010Prop54
  1
strokes_ogs.tif
102
RTVSPost2010PropOp54
 70
     1
102
RTVSPost2010Prop55
280
     0
102
RTVSPost2010PropOp55
 70
     1
102
RTVSPost2010Prop56
140
1.0
102
RTVSPost2010PropOp56
 70
     1
102
RTVSPost2010Prop57
140
1.0
102
RTVSPost2010PropOp57
 70
     1
102
RTVSPropertyOp0
 70
     1
102
RTVSPropertyOp1
 70
     1
102
RTVSPropertyOp2
 70
     1
102
RTVSPropertyOp3
 70
     1
102
RTVSPropertyOp4
 70
     1
102
RTVSPropertyOp5
 70
     1
102
RTVSPropertyOp6
 70
     1
102
RTVSPropertyOp7
 70
     1
102
RTVSPropertyOp8
 70
     1
102
RTVSPropertyOp9
 70
     1
102
RTVSPropertyOp10
 70
     1
102
RTVSPropertyOp11
 70
     1
102
RTVSPropertyOp12
 70
     1
102
RTVSPropertyOp13
 70
     1
102
RTVSPropertyOp14
 70
     1
102
RTVSPropertyOp15
 70
     1
102
RTVSPropertyOp16
 70
     1
102
RTVSPropertyOp17
 70
     1
102
RTVSPropertyOp18
 70
     1
102
RTVSPropertyOp19
 70
     1
102
RTVSPropertyOp20
 70
     1
102
RTVSPropertyOp21
 70
     1
102
RTVSPropertyOp22
 70
     1
102
RTVSPropertyOp23
 70
     1
102
RTVSPropertyOp24
 70
     1
102
RTVSPropertyOp25
 70
     1
102
RTVSPropertyOp26
 70
     1
102
RTVSPropertyOp27
 70
     1
102
RTVSPropertyOp28
 70
     1
102
RTVSPropertyOp29
 70
     1
102
RTVSPropertyOp30
 70
     1
102
RTVSPropertyOp31
 70
     1
102
RTVSPropertyOp32
 70
     1
102
RTVSPropertyOp33
 70
     1
102
RTVSPropertyOp34
 70
     1
102
RTVSPropertyOp35
 70
     1
102
RTVSPropertyOp36
 70
     1
102
RTVSPropertyOp37
 70
     1
102
RTVSPropertyOp38
 70
     1
102
RTVSPropertyOp39
 70
     1
102
RTVSPropertyOp40
 70
     1
102
RTVSPropertyOp41
 70
     1
102
RTVSPropertyOp42
 70
     1
102
RTVSPropertyOp43
 70
     1
102
RTVSPropertyOp44
 70
     1
102
RTVSPropertyOp45
 70
     1
102
RTVSPropertyOp46
 70
     1
102
RTVSPropertyOp47
 70
     1
102
RTVSPropertyOp48
 70
     1
102
RTVSPropertyOp49
 70
     1
102
RTVSPropertyOp50
 70
     1
102
RTVSPropertyOp51
 70
     0
102
RTVSPropertyOp52
 70
     0
102
RTVSPropertyOp53
 70
     1
102
RTVSPropertyOp54
 70
     1
102
RTVSPropertyOp55
 70
     1
102
RTVSPropertyOp56
 70
     1
102
RTVSPropertyOp57
 70
     1
102
RTVSPropertyOp58
 70
     1
102
RTVSPropertyOp59
 70
     1
102
RTVSPropertyOp60
 70
     1
102
RTVSPropertyOp61
 70
     1
102
RTVSPropertyOp62
 70
     1
  0
XRECORD
  5
D44
102
{ACAD_REACTORS
330
D43
102
}
330
D43
100
AcDbXrecord
280
     1
102
RTVSPost2010Prop28
280
     0
102
RTVSPost2010PropOp28
 70
     0
102
RTVSPost2010Prop29
280
     1
102
RTVSPost2010PropOp29
 70
     0
102
RTVSPost2010Prop30
280
     1
102
RTVSPost2010PropOp30
 70
     0
102
RTVSPost2010Prop31
280
     0
102
RTVSPost2010PropOp31
 70
     0
102
RTVSPost2010Prop32
280
     0
102
RTVSPost2010PropOp32
 70
     0
102
RTVSPost2010Prop33
280
     0
102
RTVSPost2010PropOp33
 70
     0
102
RTVSPost2010Prop34
280
     0
102
RTVSPost2010PropOp34
 70
     0
102
RTVSPost2010Prop35
280
     0
102
RTVSPost2010PropOp35
 70
     0
102
RTVSPost2010Prop36
280
     0
102
RTVSPost2010PropOp36
 70
     0
102
RTVSPost2010Prop37
 90
       50
102
RTVSPost2010PropOp37
 70
     0
102
RTVSPost2010Prop38
140
0.0
102
RTVSPost2010PropOp38
 70
     0
102
RTVSPost2010Prop39
140
1.0
102
RTVSPost2010PropOp39
 70
     0
102
RTVSPost2010Prop40
 90
        0
102
RTVSPost2010PropOp40
 70
     0
102
RTVSPost2010Prop41ColorIndex
 90
       18
102
RTVSPost2010Prop41ColorRGB
 90
        0
102
RTVSPost2010PropOp41
 70
     0
102
RTVSPost2010Prop42
 90
       50
102
RTVSPost2010PropOp42
 70
     0
102
RTVSPost2010Prop43
 90
        3
102
RTVSPost2010PropOp43
 70
     0
102
RTVSPost2010Prop44ColorIndex
 90
        5
102
RTVSPost2010Prop44ColorRGB
 90
      255
102
RTVSPost2010PropOp44
 70
     0
102
RTVSPost2010Prop45
280
     0
102
RTVSPost2010PropOp45
 70
     0
102
RTVSPost2010Prop46
 90
       50
102
RTVSPost2010PropOp46
 70
     0
102
RTVSPost2010Prop47
 90
       50
102
RTVSPost2010PropOp47
 70
     0
102
RTVSPost2010Prop48
 90
       50
102
RTVSPost2010PropOp48
 70
     0
102
RTVSPost2010Prop49
280
     0
102
RTVSPost2010PropOp49
 70
     0
102
RTVSPost2010Prop50
 90
       50
102
RTVSPost2010PropOp50
 70
     0
102
RTVSPost2010Prop51ColorIndex
 90
      256
102
RTVSPost2010Prop51ColorRGB
 90
-16777216
102
RTVSPost2010PropOp51
 70
     0
102
RTVSPost2010Prop52
140
1.0
102
RTVSPost2010PropOp52
 70
     0
102
RTVSPost2010Prop53
 90
        2
102
RTVSPost2010PropOp53
 70
     0
102
RTVSPost2010Prop54
  1
strokes_ogs.tif
102
RTVSPost2010PropOp54
 70
     0
102
RTVSPost2010Prop55
280
     0
102
RTVSPost2010PropOp55
 70
     0
102
RTVSPost2010Prop56
140
1.0
102
RTVSPost2010PropOp56
 70
     0
102
RTVSPost2010Prop57
140
1.0
102
RTVSPost2010PropOp57
 70
     0
102
RTVSPropertyOp0
 70
     0
102
RTVSPropertyOp1
 70
     0
102
RTVSPropertyOp2
 70
     0
102
RTVSPropertyOp3
 70
     0
102
RTVSPropertyOp4
 70
     0
102
RTVSPropertyOp5
 70
     0
102
RTVSPropertyOp6
 70
     0
102
RTVSPropertyOp7
 70
     0
102
RTVSPropertyOp8
 70
     0
102
RTVSPropertyOp9
 70
     0
102
RTVSPropertyOp10
 70
     0
102
RTVSPropertyOp11
 70
     0
102
RTVSPropertyOp12
 70
     0
102
RTVSPropertyOp13
 70
     0
102
RTVSPropertyOp14
 70
     2
102
RTVSPropertyOp15
 70
     0
102
RTVSPropertyOp16
 70
     0
102
RTVSPropertyOp17
 70
     0
102
RTVSPropertyOp18
 70
     0
102
RTVSPropertyOp19
 70
     0
102
RTVSPropertyOp20
 70
     0
102
RTVSPropertyOp21
 70
     0
102
RTVSPropertyOp22
 70
     0
102
RTVSPropertyOp23
 70
     0
102
RTVSPropertyOp24
 70
     0
102
RTVSPropertyOp25
 70
     0
102
RTVSPropertyOp26
 70
     0
102
RTVSPropertyOp27
 70
     0
102
RTVSPropertyOp28
 70
     0
102
RTVSPropertyOp29
 70
     0
102
RTVSPropertyOp30
 70
     0
102
RTVSPropertyOp31
 70
     0
102
RTVSPropertyOp32
 70
     0
102
RTVSPropertyOp33
 70
     0
102
RTVSPropertyOp34
 70
     0
102
RTVSPropertyOp35
 70
     0
102
RTVSPropertyOp36
 70
     0
102
RTVSPropertyOp37
 70
     0
102
RTVSPropertyOp38
 70
     0
102
RTVSPropertyOp39
 70
     0
102
RTVSPropertyOp40
 70
     0
102
RTVSPropertyOp41
 70
     0
102
RTVSPropertyOp42
 70
     0
102
RTVSPropertyOp43
 70
     0
102
RTVSPropertyOp44
 70
     0
102
RTVSPropertyOp45
 70
     0
102
RTVSPropertyOp46
 70
     0
102
RTVSPropertyOp47
 70
     0
102
RTVSPropertyOp48
 70
     0
102
RTVSPropertyOp49
 70
     0
102
RTVSPropertyOp50
 70
     0
102
RTVSPropertyOp51
 70
     0
102
RTVSPropertyOp52
 70
     0
102
RTVSPropertyOp53
 70
     0
102
RTVSPropertyOp54
 70
     0
102
RTVSPropertyOp55
 70
     0
102
RTVSPropertyOp56
 70
     0
102
RTVSPropertyOp57
 70
     0
102
RTVSPropertyOp58
 70
     0
102
RTVSPropertyOp59
 70
     0
102
RTVSPropertyOp60
 70
     0
102
RTVSPropertyOp61
 70
     0
102
RTVSPropertyOp62
 70
     0
  0
XRECORD
  5
D2A
102
{ACAD_REACTORS
330
D29
102
}
330
D29
100
AcDbXrecord
280
     1
102
RTVSPost2010Prop28
280
     0
102
RTVSPost2010PropOp28
 70
     1
102
RTVSPost2010Prop29
280
     1
102
RTVSPost2010PropOp29
 70
     1
102
RTVSPost2010Prop30
280
     1
102
RTVSPost2010PropOp30
 70
     1
102
RTVSPost2010Prop31
280
     0
102
RTVSPost2010PropOp31
 70
     1
102
RTVSPost2010Prop32
280
     0
102
RTVSPost2010PropOp32
 70
     1
102
RTVSPost2010Prop33
280
     0
102
RTVSPost2010PropOp33
 70
     1
102
RTVSPost2010Prop34
280
     0
102
RTVSPost2010PropOp34
 70
     1
102
RTVSPost2010Prop35
280
     0
102
RTVSPost2010PropOp35
 70
     1
102
RTVSPost2010Prop36
280
     0
102
RTVSPost2010PropOp36
 70
     1
102
RTVSPost2010Prop37
 90
       50
102
RTVSPost2010PropOp37
 70
     1
102
RTVSPost2010Prop38
140
0.0
102
RTVSPost2010PropOp38
 70
     1
102
RTVSPost2010Prop39
140
1.0
102
RTVSPost2010PropOp39
 70
     1
102
RTVSPost2010Prop40
 90
        0
102
RTVSPost2010PropOp40
 70
     1
102
RTVSPost2010Prop41ColorIndex
 90
       18
102
RTVSPost2010Prop41ColorRGB
 90
        0
102
RTVSPost2010PropOp41
 70
     1
102
RTVSPost2010Prop42
 90
       50
102
RTVSPost2010PropOp42
 70
     1
102
RTVSPost2010Prop43
 90
        3
102
RTVSPost2010PropOp43
 70
     1
102
RTVSPost2010Prop44ColorIndex
 90
        5
102
RTVSPost2010Prop44ColorRGB
 90
      255
102
RTVSPost2010PropOp44
 70
     1
102
RTVSPost2010Prop45
280
     0
102
RTVSPost2010PropOp45
 70
     1
102
RTVSPost2010Prop46
 90
       50
102
RTVSPost2010PropOp46
 70
     1
102
RTVSPost2010Prop47
 90
       50
102
RTVSPost2010PropOp47
 70
     1
102
RTVSPost2010Prop48
 90
       50
102
RTVSPost2010PropOp48
 70
     1
102
RTVSPost2010Prop49
280
     0
102
RTVSPost2010PropOp49
 70
     1
102
RTVSPost2010Prop50
 90
       50
102
RTVSPost2010PropOp50
 70
     1
102
RTVSPost2010Prop51ColorIndex
 90
      256
102
RTVSPost2010Prop51ColorRGB
 90
-16777216
102
RTVSPost2010PropOp51
 70
     0
102
RTVSPost2010Prop52
140
1.0
102
RTVSPost2010PropOp52
 70
     0
102
RTVSPost2010Prop53
 90
        2
102
RTVSPost2010PropOp53
 70
     1
102
RTVSPost2010Prop54
  1
strokes_ogs.tif
102
RTVSPost2010PropOp54
 70
     1
102
RTVSPost2010Prop55
280
     0
102
RTVSPost2010PropOp55
 70
     1
102
RTVSPost2010Prop56
140
1.0
102
RTVSPost2010PropOp56
 70
     1
102
RTVSPost2010Prop57
140
1.0
102
RTVSPost2010PropOp57
 70
     1
102
RTVSPropertyOp0
 70
     1
102
RTVSPropertyOp1
 70
     1
102
RTVSPropertyOp2
 70
     1
102
RTVSPropertyOp3
 70
     1
102
RTVSPropertyOp4
 70
     1
102
RTVSPropertyOp5
 70
     1
102
RTVSPropertyOp6
 70
     1
102
RTVSPropertyOp7
 70
     1
102
RTVSPropertyOp8
 70
     1
102
RTVSPropertyOp9
 70
     1
102
RTVSPropertyOp10
 70
     1
102
RTVSPropertyOp11
 70
     1
102
RTVSPropertyOp12
 70
     1
102
RTVSPropertyOp13
 70
     1
102
RTVSPropertyOp14
 70
     1
102
RTVSPropertyOp15
 70
     1
102
RTVSPropertyOp16
 70
     1
102
RTVSPropertyOp17
 70
     1
102
RTVSPropertyOp18
 70
     1
102
RTVSPropertyOp19
 70
     1
102
RTVSPropertyOp20
 70
     1
102
RTVSPropertyOp21
 70
     1
102
RTVSPropertyOp22
 70
     1
102
RTVSPropertyOp23
 70
     1
102
RTVSPropertyOp24
 70
     1
102
RTVSPropertyOp25
 70
     1
102
RTVSPropertyOp26
 70
     1
102
RTVSPropertyOp27
 70
     1
102
RTVSPropertyOp28
 70
     1
102
RTVSPropertyOp29
 70
     1
102
RTVSPropertyOp30
 70
     1
102
RTVSPropertyOp31
 70
     1
102
RTVSPropertyOp32
 70
     1
102
RTVSPropertyOp33
 70
     1
102
RTVSPropertyOp34
 70
     1
102
RTVSPropertyOp35
 70
     1
102
RTVSPropertyOp36
 70
     1
102
RTVSPropertyOp37
 70
     1
102
RTVSPropertyOp38
 70
     1
102
RTVSPropertyOp39
 70
     1
102
RTVSPropertyOp40
 70
     1
102
RTVSPropertyOp41
 70
     1
102
RTVSPropertyOp42
 70
     1
102
RTVSPropertyOp43
 70
     1
102
RTVSPropertyOp44
 70
     1
102
RTVSPropertyOp45
 70
     1
102
RTVSPropertyOp46
 70
     1
102
RTVSPropertyOp47
 70
     1
102
RTVSPropertyOp48
 70
     1
102
RTVSPropertyOp49
 70
     1
102
RTVSPropertyOp50
 70
     1
102
RTVSPropertyOp51
 70
     0
102
RTVSPropertyOp52
 70
     0
102
RTVSPropertyOp53
 70
     1
102
RTVSPropertyOp54
 70
     1
102
RTVSPropertyOp55
 70
     1
102
RTVSPropertyOp56
 70
     1
102
RTVSPropertyOp57
 70
     1
102
RTVSPropertyOp58
 70
     1
102
RTVSPropertyOp59
 70
     1
102
RTVSPropertyOp60
 70
     1
102
RTVSPropertyOp61
 70
     1
102
RTVSPropertyOp62
 70
     1
  0
XRECORD
  5
D40
102
{ACAD_REACTORS
330
D3F
102
}
330
D3F
100
AcDbXrecord
280
     1
102
RTVSPost2010Prop28
280
     0
102
RTVSPost2010PropOp28
 70
     1
102
RTVSPost2010Prop29
280
     1
102
RTVSPost2010PropOp29
 70
     1
102
RTVSPost2010Prop30
280
     1
102
RTVSPost2010PropOp30
 70
     1
102
RTVSPost2010Prop31
280
     0
102
RTVSPost2010PropOp31
 70
     1
102
RTVSPost2010Prop32
280
     0
102
RTVSPost2010PropOp32
 70
     1
102
RTVSPost2010Prop33
280
     0
102
RTVSPost2010PropOp33
 70
     1
102
RTVSPost2010Prop34
280
     0
102
RTVSPost2010PropOp34
 70
     1
102
RTVSPost2010Prop35
280
     0
102
RTVSPost2010PropOp35
 70
     1
102
RTVSPost2010Prop36
280
     0
102
RTVSPost2010PropOp36
 70
     1
102
RTVSPost2010Prop37
 90
       50
102
RTVSPost2010PropOp37
 70
     1
102
RTVSPost2010Prop38
140
0.0
102
RTVSPost2010PropOp38
 70
     1
102
RTVSPost2010Prop39
140
1.0
102
RTVSPost2010PropOp39
 70
     1
102
RTVSPost2010Prop40
 90
        0
102
RTVSPost2010PropOp40
 70
     1
102
RTVSPost2010Prop41ColorIndex
 90
       18
102
RTVSPost2010Prop41ColorRGB
 90
        0
102
RTVSPost2010PropOp41
 70
     1
102
RTVSPost2010Prop42
 90
       50
102
RTVSPost2010PropOp42
 70
     1
102
RTVSPost2010Prop43
 90
        3
102
RTVSPost2010PropOp43
 70
     1
102
RTVSPost2010Prop44ColorIndex
 90
        5
102
RTVSPost2010Prop44ColorRGB
 90
      255
102
RTVSPost2010PropOp44
 70
     1
102
RTVSPost2010Prop45
280
     0
102
RTVSPost2010PropOp45
 70
     1
102
RTVSPost2010Prop46
 90
       50
102
RTVSPost2010PropOp46
 70
     1
102
RTVSPost2010Prop47
 90
       50
102
RTVSPost2010PropOp47
 70
     1
102
RTVSPost2010Prop48
 90
       50
102
RTVSPost2010PropOp48
 70
     1
102
RTVSPost2010Prop49
280
     0
102
RTVSPost2010PropOp49
 70
     1
102
RTVSPost2010Prop50
 90
       50
102
RTVSPost2010PropOp50
 70
     1
102
RTVSPost2010Prop51ColorIndex
 90
      256
102
RTVSPost2010Prop51ColorRGB
 90
-16777216
102
RTVSPost2010PropOp51
 70
     0
102
RTVSPost2010Prop52
140
1.0
102
RTVSPost2010PropOp52
 70
     0
102
RTVSPost2010Prop53
 90
        2
102
RTVSPost2010PropOp53
 70
     1
102
RTVSPost2010Prop54
  1
strokes_ogs.tif
102
RTVSPost2010PropOp54
 70
     1
102
RTVSPost2010Prop55
280
     0
102
RTVSPost2010PropOp55
 70
     1
102
RTVSPost2010Prop56
140
1.0
102
RTVSPost2010PropOp56
 70
     1
102
RTVSPost2010Prop57
140
1.0
102
RTVSPost2010PropOp57
 70
     1
102
RTVSPropertyOp0
 70
     1
102
RTVSPropertyOp1
 70
     1
102
RTVSPropertyOp2
 70
     1
102
RTVSPropertyOp3
 70
     1
102
RTVSPropertyOp4
 70
     1
102
RTVSPropertyOp5
 70
     1
102
RTVSPropertyOp6
 70
     1
102
RTVSPropertyOp7
 70
     1
102
RTVSPropertyOp8
 70
     1
102
RTVSPropertyOp9
 70
     1
102
RTVSPropertyOp10
 70
     1
102
RTVSPropertyOp11
 70
     1
102
RTVSPropertyOp12
 70
     1
102
RTVSPropertyOp13
 70
     1
102
RTVSPropertyOp14
 70
     1
102
RTVSPropertyOp15
 70
     1
102
RTVSPropertyOp16
 70
     1
102
RTVSPropertyOp17
 70
     1
102
RTVSPropertyOp18
 70
     1
102
RTVSPropertyOp19
 70
     1
102
RTVSPropertyOp20
 70
     1
102
RTVSPropertyOp21
 70
     1
102
RTVSPropertyOp22
 70
     1
102
RTVSPropertyOp23
 70
     1
102
RTVSPropertyOp24
 70
     1
102
RTVSPropertyOp25
 70
     1
102
RTVSPropertyOp26
 70
     1
102
RTVSPropertyOp27
 70
     1
102
RTVSPropertyOp28
 70
     1
102
RTVSPropertyOp29
 70
     1
102
RTVSPropertyOp30
 70
     1
102
RTVSPropertyOp31
 70
     1
102
RTVSPropertyOp32
 70
     1
102
RTVSPropertyOp33
 70
     1
102
RTVSPropertyOp34
 70
     1
102
RTVSPropertyOp35
 70
     1
102
RTVSPropertyOp36
 70
     1
102
RTVSPropertyOp37
 70
     1
102
RTVSPropertyOp38
 70
     1
102
RTVSPropertyOp39
 70
     1
102
RTVSPropertyOp40
 70
     1
102
RTVSPropertyOp41
 70
     1
102
RTVSPropertyOp42
 70
     1
102
RTVSPropertyOp43
 70
     1
102
RTVSPropertyOp44
 70
     1
102
RTVSPropertyOp45
 70
     1
102
RTVSPropertyOp46
 70
     1
102
RTVSPropertyOp47
 70
     1
102
RTVSPropertyOp48
 70
     1
102
RTVSPropertyOp49
 70
     1
102
RTVSPropertyOp50
 70
     1
102
RTVSPropertyOp51
 70
     0
102
RTVSPropertyOp52
 70
     0
102
RTVSPropertyOp53
 70
     1
102
RTVSPropertyOp54
 70
     1
102
RTVSPropertyOp55
 70
     1
102
RTVSPropertyOp56
 70
     1
102
RTVSPropertyOp57
 70
     1
102
RTVSPropertyOp58
 70
     1
102
RTVSPropertyOp59
 70
     1
102
RTVSPropertyOp60
 70
     1
102
RTVSPropertyOp61
 70
     1
102
RTVSPropertyOp62
 70
     1
  0
XRECORD
  5
D3E
102
{ACAD_REACTORS
330
D3D
102
}
330
D3D
100
AcDbXrecord
280
     1
102
RTVSPost2010Prop28
280
     0
102
RTVSPost2010PropOp28
 70
     1
102
RTVSPost2010Prop29
280
     1
102
RTVSPost2010PropOp29
 70
     1
102
RTVSPost2010Prop30
280
     1
102
RTVSPost2010PropOp30
 70
     1
102
RTVSPost2010Prop31
280
     0
102
RTVSPost2010PropOp31
 70
     1
102
RTVSPost2010Prop32
280
     0
102
RTVSPost2010PropOp32
 70
     1
102
RTVSPost2010Prop33
280
     0
102
RTVSPost2010PropOp33
 70
     1
102
RTVSPost2010Prop34
280
     0
102
RTVSPost2010PropOp34
 70
     1
102
RTVSPost2010Prop35
280
     0
102
RTVSPost2010PropOp35
 70
     1
102
RTVSPost2010Prop36
280
     0
102
RTVSPost2010PropOp36
 70
     1
102
RTVSPost2010Prop37
 90
       50
102
RTVSPost2010PropOp37
 70
     1
102
RTVSPost2010Prop38
140
0.0
102
RTVSPost2010PropOp38
 70
     1
102
RTVSPost2010Prop39
140
1.0
102
RTVSPost2010PropOp39
 70
     1
102
RTVSPost2010Prop40
 90
        0
102
RTVSPost2010PropOp40
 70
     1
102
RTVSPost2010Prop41ColorIndex
 90
       18
102
RTVSPost2010Prop41ColorRGB
 90
        0
102
RTVSPost2010PropOp41
 70
     1
102
RTVSPost2010Prop42
 90
       50
102
RTVSPost2010PropOp42
 70
     1
102
RTVSPost2010Prop43
 90
        3
102
RTVSPost2010PropOp43
 70
     1
102
RTVSPost2010Prop44ColorIndex
 90
        5
102
RTVSPost2010Prop44ColorRGB
 90
      255
102
RTVSPost2010PropOp44
 70
     1
102
RTVSPost2010Prop45
280
     0
102
RTVSPost2010PropOp45
 70
     1
102
RTVSPost2010Prop46
 90
       50
102
RTVSPost2010PropOp46
 70
     1
102
RTVSPost2010Prop47
 90
       50
102
RTVSPost2010PropOp47
 70
     1
102
RTVSPost2010Prop48
 90
       50
102
RTVSPost2010PropOp48
 70
     1
102
RTVSPost2010Prop49
280
     0
102
RTVSPost2010PropOp49
 70
     1
102
RTVSPost2010Prop50
 90
       50
102
RTVSPost2010PropOp50
 70
     1
102
RTVSPost2010Prop51ColorIndex
 90
      256
102
RTVSPost2010Prop51ColorRGB
 90
-16777216
102
RTVSPost2010PropOp51
 70
     0
102
RTVSPost2010Prop52
140
1.0
102
RTVSPost2010PropOp52
 70
     0
102
RTVSPost2010Prop53
 90
        2
102
RTVSPost2010PropOp53
 70
     1
102
RTVSPost2010Prop54
  1
strokes_ogs.tif
102
RTVSPost2010PropOp54
 70
     1
102
RTVSPost2010Prop55
280
     0
102
RTVSPost2010PropOp55
 70
     1
102
RTVSPost2010Prop56
140
1.0
102
RTVSPost2010PropOp56
 70
     1
102
RTVSPost2010Prop57
140
1.0
102
RTVSPost2010PropOp57
 70
     1
102
RTVSPropertyOp0
 70
     1
102
RTVSPropertyOp1
 70
     1
102
RTVSPropertyOp2
 70
     1
102
RTVSPropertyOp3
 70
     1
102
RTVSPropertyOp4
 70
     1
102
RTVSPropertyOp5
 70
     1
102
RTVSPropertyOp6
 70
     1
102
RTVSPropertyOp7
 70
     1
102
RTVSPropertyOp8
 70
     1
102
RTVSPropertyOp9
 70
     1
102
RTVSPropertyOp10
 70
     1
102
RTVSPropertyOp11
 70
     1
102
RTVSPropertyOp12
 70
     1
102
RTVSPropertyOp13
 70
     1
102
RTVSPropertyOp14
 70
     1
102
RTVSPropertyOp15
 70
     1
102
RTVSPropertyOp16
 70
     1
102
RTVSPropertyOp17
 70
     1
102
RTVSPropertyOp18
 70
     1
102
RTVSPropertyOp19
 70
     1
102
RTVSPropertyOp20
 70
     1
102
RTVSPropertyOp21
 70
     1
102
RTVSPropertyOp22
 70
     1
102
RTVSPropertyOp23
 70
     1
102
RTVSPropertyOp24
 70
     1
102
RTVSPropertyOp25
 70
     1
102
RTVSPropertyOp26
 70
     1
102
RTVSPropertyOp27
 70
     1
102
RTVSPropertyOp28
 70
     1
102
RTVSPropertyOp29
 70
     1
102
RTVSPropertyOp30
 70
     1
102
RTVSPropertyOp31
 70
     1
102
RTVSPropertyOp32
 70
     1
102
RTVSPropertyOp33
 70
     1
102
RTVSPropertyOp34
 70
     1
102
RTVSPropertyOp35
 70
     1
102
RTVSPropertyOp36
 70
     1
102
RTVSPropertyOp37
 70
     1
102
RTVSPropertyOp38
 70
     1
102
RTVSPropertyOp39
 70
     1
102
RTVSPropertyOp40
 70
     1
102
RTVSPropertyOp41
 70
     1
102
RTVSPropertyOp42
 70
     1
102
RTVSPropertyOp43
 70
     1
102
RTVSPropertyOp44
 70
     1
102
RTVSPropertyOp45
 70
     1
102
RTVSPropertyOp46
 70
     1
102
RTVSPropertyOp47
 70
     1
102
RTVSPropertyOp48
 70
     1
102
RTVSPropertyOp49
 70
     1
102
RTVSPropertyOp50
 70
     1
102
RTVSPropertyOp51
 70
     0
102
RTVSPropertyOp52
 70
     0
102
RTVSPropertyOp53
 70
     1
102
RTVSPropertyOp54
 70
     1
102
RTVSPropertyOp55
 70
     1
102
RTVSPropertyOp56
 70
     1
102
RTVSPropertyOp57
 70
     1
102
RTVSPropertyOp58
 70
     1
102
RTVSPropertyOp59
 70
     1
102
RTVSPropertyOp60
 70
     1
102
RTVSPropertyOp61
 70
     1
102
RTVSPropertyOp62
 70
     1
  0
XRECORD
  5
D38
102
{ACAD_REACTORS
330
D37
102
}
330
D37
100
AcDbXrecord
280
     1
102
RTVSPost2010Prop28
280
     0
102
RTVSPost2010PropOp28
 70
     1
102
RTVSPost2010Prop29
280
     1
102
RTVSPost2010PropOp29
 70
     1
102
RTVSPost2010Prop30
280
     1
102
RTVSPost2010PropOp30
 70
     1
102
RTVSPost2010Prop31
280
     0
102
RTVSPost2010PropOp31
 70
     1
102
RTVSPost2010Prop32
280
     0
102
RTVSPost2010PropOp32
 70
     1
102
RTVSPost2010Prop33
280
     0
102
RTVSPost2010PropOp33
 70
     1
102
RTVSPost2010Prop34
280
     0
102
RTVSPost2010PropOp34
 70
     1
102
RTVSPost2010Prop35
280
     0
102
RTVSPost2010PropOp35
 70
     1
102
RTVSPost2010Prop36
280
     0
102
RTVSPost2010PropOp36
 70
     1
102
RTVSPost2010Prop37
 90
       50
102
RTVSPost2010PropOp37
 70
     1
102
RTVSPost2010Prop38
140
0.0
102
RTVSPost2010PropOp38
 70
     1
102
RTVSPost2010Prop39
140
1.0
102
RTVSPost2010PropOp39
 70
     1
102
RTVSPost2010Prop40
 90
        0
102
RTVSPost2010PropOp40
 70
     1
102
RTVSPost2010Prop41ColorIndex
 90
       18
102
RTVSPost2010Prop41ColorRGB
 90
        0
102
RTVSPost2010PropOp41
 70
     1
102
RTVSPost2010Prop42
 90
       50
102
RTVSPost2010PropOp42
 70
     1
102
RTVSPost2010Prop43
 90
        3
102
RTVSPost2010PropOp43
 70
     1
102
RTVSPost2010Prop44ColorIndex
 90
        5
102
RTVSPost2010Prop44ColorRGB
 90
      255
102
RTVSPost2010PropOp44
 70
     1
102
RTVSPost2010Prop45
280
     0
102
RTVSPost2010PropOp45
 70
     1
102
RTVSPost2010Prop46
 90
       50
102
RTVSPost2010PropOp46
 70
     1
102
RTVSPost2010Prop47
 90
       50
102
RTVSPost2010PropOp47
 70
     1
102
RTVSPost2010Prop48
 90
       50
102
RTVSPost2010PropOp48
 70
     1
102
RTVSPost2010Prop49
280
     0
102
RTVSPost2010PropOp49
 70
     1
102
RTVSPost2010Prop50
 90
       50
102
RTVSPost2010PropOp50
 70
     1
102
RTVSPost2010Prop51ColorIndex
 90
      256
102
RTVSPost2010Prop51ColorRGB
 90
-16777216
102
RTVSPost2010PropOp51
 70
     0
102
RTVSPost2010Prop52
140
1.0
102
RTVSPost2010PropOp52
 70
     0
102
RTVSPost2010Prop53
 90
        2
102
RTVSPost2010PropOp53
 70
     1
102
RTVSPost2010Prop54
  1
strokes_ogs.tif
102
RTVSPost2010PropOp54
 70
     1
102
RTVSPost2010Prop55
280
     0
102
RTVSPost2010PropOp55
 70
     1
102
RTVSPost2010Prop56
140
1.0
102
RTVSPost2010PropOp56
 70
     1
102
RTVSPost2010Prop57
140
1.0
102
RTVSPost2010PropOp57
 70
     1
102
RTVSPropertyOp0
 70
     1
102
RTVSPropertyOp1
 70
     1
102
RTVSPropertyOp2
 70
     1
102
RTVSPropertyOp3
 70
     1
102
RTVSPropertyOp4
 70
     1
102
RTVSPropertyOp5
 70
     1
102
RTVSPropertyOp6
 70
     1
102
RTVSPropertyOp7
 70
     1
102
RTVSPropertyOp8
 70
     1
102
RTVSPropertyOp9
 70
     1
102
RTVSPropertyOp10
 70
     1
102
RTVSPropertyOp11
 70
     1
102
RTVSPropertyOp12
 70
     1
102
RTVSPropertyOp13
 70
     1
102
RTVSPropertyOp14
 70
     1
102
RTVSPropertyOp15
 70
     1
102
RTVSPropertyOp16
 70
     1
102
RTVSPropertyOp17
 70
     1
102
RTVSPropertyOp18
 70
     1
102
RTVSPropertyOp19
 70
     1
102
RTVSPropertyOp20
 70
     1
102
RTVSPropertyOp21
 70
     1
102
RTVSPropertyOp22
 70
     1
102
RTVSPropertyOp23
 70
     1
102
RTVSPropertyOp24
 70
     1
102
RTVSPropertyOp25
 70
     1
102
RTVSPropertyOp26
 70
     1
102
RTVSPropertyOp27
 70
     1
102
RTVSPropertyOp28
 70
     1
102
RTVSPropertyOp29
 70
     1
102
RTVSPropertyOp30
 70
     1
102
RTVSPropertyOp31
 70
     1
102
RTVSPropertyOp32
 70
     1
102
RTVSPropertyOp33
 70
     1
102
RTVSPropertyOp34
 70
     1
102
RTVSPropertyOp35
 70
     1
102
RTVSPropertyOp36
 70
     1
102
RTVSPropertyOp37
 70
     1
102
RTVSPropertyOp38
 70
     1
102
RTVSPropertyOp39
 70
     1
102
RTVSPropertyOp40
 70
     1
102
RTVSPropertyOp41
 70
     1
102
RTVSPropertyOp42
 70
     1
102
RTVSPropertyOp43
 70
     1
102
RTVSPropertyOp44
 70
     1
102
RTVSPropertyOp45
 70
     1
102
RTVSPropertyOp46
 70
     1
102
RTVSPropertyOp47
 70
     1
102
RTVSPropertyOp48
 70
     1
102
RTVSPropertyOp49
 70
     1
102
RTVSPropertyOp50
 70
     1
102
RTVSPropertyOp51
 70
     0
102
RTVSPropertyOp52
 70
     0
102
RTVSPropertyOp53
 70
     1
102
RTVSPropertyOp54
 70
     1
102
RTVSPropertyOp55
 70
     1
102
RTVSPropertyOp56
 70
     1
102
RTVSPropertyOp57
 70
     1
102
RTVSPropertyOp58
 70
     1
102
RTVSPropertyOp59
 70
     1
102
RTVSPropertyOp60
 70
     1
102
RTVSPropertyOp61
 70
     1
102
RTVSPropertyOp62
 70
     1
  0
XRECORD
  5
D3A
102
{ACAD_REACTORS
330
D39
102
}
330
D39
100
AcDbXrecord
280
     1
102
RTVSPost2010Prop28
280
     0
102
RTVSPost2010PropOp28
 70
     1
102
RTVSPost2010Prop29
280
     1
102
RTVSPost2010PropOp29
 70
     1
102
RTVSPost2010Prop30
280
     1
102
RTVSPost2010PropOp30
 70
     1
102
RTVSPost2010Prop31
280
     0
102
RTVSPost2010PropOp31
 70
     1
102
RTVSPost2010Prop32
280
     0
102
RTVSPost2010PropOp32
 70
     1
102
RTVSPost2010Prop33
280
     0
102
RTVSPost2010PropOp33
 70
     1
102
RTVSPost2010Prop34
280
     0
102
RTVSPost2010PropOp34
 70
     1
102
RTVSPost2010Prop35
280
     0
102
RTVSPost2010PropOp35
 70
     1
102
RTVSPost2010Prop36
280
     0
102
RTVSPost2010PropOp36
 70
     1
102
RTVSPost2010Prop37
 90
       50
102
RTVSPost2010PropOp37
 70
     1
102
RTVSPost2010Prop38
140
0.0
102
RTVSPost2010PropOp38
 70
     1
102
RTVSPost2010Prop39
140
1.0
102
RTVSPost2010PropOp39
 70
     1
102
RTVSPost2010Prop40
 90
        0
102
RTVSPost2010PropOp40
 70
     1
102
RTVSPost2010Prop41ColorIndex
 90
       18
102
RTVSPost2010Prop41ColorRGB
 90
        0
102
RTVSPost2010PropOp41
 70
     1
102
RTVSPost2010Prop42
 90
       50
102
RTVSPost2010PropOp42
 70
     1
102
RTVSPost2010Prop43
 90
        3
102
RTVSPost2010PropOp43
 70
     1
102
RTVSPost2010Prop44ColorIndex
 90
        5
102
RTVSPost2010Prop44ColorRGB
 90
      255
102
RTVSPost2010PropOp44
 70
     1
102
RTVSPost2010Prop45
280
     0
102
RTVSPost2010PropOp45
 70
     1
102
RTVSPost2010Prop46
 90
       50
102
RTVSPost2010PropOp46
 70
     1
102
RTVSPost2010Prop47
 90
       50
102
RTVSPost2010PropOp47
 70
     1
102
RTVSPost2010Prop48
 90
       50
102
RTVSPost2010PropOp48
 70
     1
102
RTVSPost2010Prop49
280
     0
102
RTVSPost2010PropOp49
 70
     1
102
RTVSPost2010Prop50
 90
       50
102
RTVSPost2010PropOp50
 70
     1
102
RTVSPost2010Prop51ColorIndex
 90
      256
102
RTVSPost2010Prop51ColorRGB
 90
-16777216
102
RTVSPost2010PropOp51
 70
     0
102
RTVSPost2010Prop52
140
1.0
102
RTVSPost2010PropOp52
 70
     0
102
RTVSPost2010Prop53
 90
        2
102
RTVSPost2010PropOp53
 70
     1
102
RTVSPost2010Prop54
  1
strokes_ogs.tif
102
RTVSPost2010PropOp54
 70
     1
102
RTVSPost2010Prop55
280
     0
102
RTVSPost2010PropOp55
 70
     1
102
RTVSPost2010Prop56
140
1.0
102
RTVSPost2010PropOp56
 70
     1
102
RTVSPost2010Prop57
140
1.0
102
RTVSPost2010PropOp57
 70
     1
102
RTVSPropertyOp0
 70
     1
102
RTVSPropertyOp1
 70
     1
102
RTVSPropertyOp2
 70
     1
102
RTVSPropertyOp3
 70
     1
102
RTVSPropertyOp4
 70
     1
102
RTVSPropertyOp5
 70
     1
102
RTVSPropertyOp6
 70
     1
102
RTVSPropertyOp7
 70
     1
102
RTVSPropertyOp8
 70
     1
102
RTVSPropertyOp9
 70
     1
102
RTVSPropertyOp10
 70
     1
102
RTVSPropertyOp11
 70
     1
102
RTVSPropertyOp12
 70
     1
102
RTVSPropertyOp13
 70
     1
102
RTVSPropertyOp14
 70
     1
102
RTVSPropertyOp15
 70
     1
102
RTVSPropertyOp16
 70
     1
102
RTVSPropertyOp17
 70
     1
102
RTVSPropertyOp18
 70
     1
102
RTVSPropertyOp19
 70
     1
102
RTVSPropertyOp20
 70
     1
102
RTVSPropertyOp21
 70
     1
102
RTVSPropertyOp22
 70
     1
102
RTVSPropertyOp23
 70
     1
102
RTVSPropertyOp24
 70
     1
102
RTVSPropertyOp25
 70
     1
102
RTVSPropertyOp26
 70
     1
102
RTVSPropertyOp27
 70
     1
102
RTVSPropertyOp28
 70
     1
102
RTVSPropertyOp29
 70
     1
102
RTVSPropertyOp30
 70
     1
102
RTVSPropertyOp31
 70
     1
102
RTVSPropertyOp32
 70
     1
102
RTVSPropertyOp33
 70
     1
102
RTVSPropertyOp34
 70
     1
102
RTVSPropertyOp35
 70
     1
102
RTVSPropertyOp36
 70
     1
102
RTVSPropertyOp37
 70
     1
102
RTVSPropertyOp38
 70
     1
102
RTVSPropertyOp39
 70
     1
102
RTVSPropertyOp40
 70
     1
102
RTVSPropertyOp41
 70
     1
102
RTVSPropertyOp42
 70
     1
102
RTVSPropertyOp43
 70
     1
102
RTVSPropertyOp44
 70
     1
102
RTVSPropertyOp45
 70
     1
102
RTVSPropertyOp46
 70
     1
102
RTVSPropertyOp47
 70
     1
102
RTVSPropertyOp48
 70
     1
102
RTVSPropertyOp49
 70
     1
102
RTVSPropertyOp50
 70
     1
102
RTVSPropertyOp51
 70
     0
102
RTVSPropertyOp52
 70
     0
102
RTVSPropertyOp53
 70
     1
102
RTVSPropertyOp54
 70
     1
102
RTVSPropertyOp55
 70
     1
102
RTVSPropertyOp56
 70
     1
102
RTVSPropertyOp57
 70
     1
102
RTVSPropertyOp58
 70
     1
102
RTVSPropertyOp59
 70
     1
102
RTVSPropertyOp60
 70
     1
102
RTVSPropertyOp61
 70
     1
102
RTVSPropertyOp62
 70
     1
  0
XRECORD
  5
D30
102
{ACAD_REACTORS
330
D2F
102
}
330
D2F
100
AcDbXrecord
280
     1
102
RTVSPost2010Prop28
280
     0
102
RTVSPost2010PropOp28
 70
     1
102
RTVSPost2010Prop29
280
     1
102
RTVSPost2010PropOp29
 70
     1
102
RTVSPost2010Prop30
280
     1
102
RTVSPost2010PropOp30
 70
     1
102
RTVSPost2010Prop31
280
     0
102
RTVSPost2010PropOp31
 70
     1
102
RTVSPost2010Prop32
280
     0
102
RTVSPost2010PropOp32
 70
     1
102
RTVSPost2010Prop33
280
     0
102
RTVSPost2010PropOp33
 70
     1
102
RTVSPost2010Prop34
280
     0
102
RTVSPost2010PropOp34
 70
     1
102
RTVSPost2010Prop35
280
     0
102
RTVSPost2010PropOp35
 70
     1
102
RTVSPost2010Prop36
280
     0
102
RTVSPost2010PropOp36
 70
     1
102
RTVSPost2010Prop37
 90
       50
102
RTVSPost2010PropOp37
 70
     1
102
RTVSPost2010Prop38
140
0.0
102
RTVSPost2010PropOp38
 70
     1
102
RTVSPost2010Prop39
140
1.0
102
RTVSPost2010PropOp39
 70
     1
102
RTVSPost2010Prop40
 90
        0
102
RTVSPost2010PropOp40
 70
     1
102
RTVSPost2010Prop41ColorIndex
 90
       18
102
RTVSPost2010Prop41ColorRGB
 90
        0
102
RTVSPost2010PropOp41
 70
     1
102
RTVSPost2010Prop42
 90
       50
102
RTVSPost2010PropOp42
 70
     1
102
RTVSPost2010Prop43
 90
        3
102
RTVSPost2010PropOp43
 70
     1
102
RTVSPost2010Prop44ColorIndex
 90
        5
102
RTVSPost2010Prop44ColorRGB
 90
      255
102
RTVSPost2010PropOp44
 70
     1
102
RTVSPost2010Prop45
280
     0
102
RTVSPost2010PropOp45
 70
     1
102
RTVSPost2010Prop46
 90
       50
102
RTVSPost2010PropOp46
 70
     1
102
RTVSPost2010Prop47
 90
       50
102
RTVSPost2010PropOp47
 70
     1
102
RTVSPost2010Prop48
 90
       50
102
RTVSPost2010PropOp48
 70
     1
102
RTVSPost2010Prop49
280
     0
102
RTVSPost2010PropOp49
 70
     1
102
RTVSPost2010Prop50
 90
       50
102
RTVSPost2010PropOp50
 70
     1
102
RTVSPost2010Prop51ColorIndex
 90
      256
102
RTVSPost2010Prop51ColorRGB
 90
-16777216
102
RTVSPost2010PropOp51
 70
     0
102
RTVSPost2010Prop52
140
1.0
102
RTVSPost2010PropOp52
 70
     0
102
RTVSPost2010Prop53
 90
        2
102
RTVSPost2010PropOp53
 70
     1
102
RTVSPost2010Prop54
  1
strokes_ogs.tif
102
RTVSPost2010PropOp54
 70
     1
102
RTVSPost2010Prop55
280
     0
102
RTVSPost2010PropOp55
 70
     1
102
RTVSPost2010Prop56
140
1.0
102
RTVSPost2010PropOp56
 70
     1
102
RTVSPost2010Prop57
140
1.0
102
RTVSPost2010PropOp57
 70
     1
102
RTVSPropertyOp0
 70
     1
102
RTVSPropertyOp1
 70
     1
102
RTVSPropertyOp2
 70
     1
102
RTVSPropertyOp3
 70
     1
102
RTVSPropertyOp4
 70
     1
102
RTVSPropertyOp5
 70
     1
102
RTVSPropertyOp6
 70
     1
102
RTVSPropertyOp7
 70
     1
102
RTVSPropertyOp8
 70
     1
102
RTVSPropertyOp9
 70
     1
102
RTVSPropertyOp10
 70
     1
102
RTVSPropertyOp11
 70
     1
102
RTVSPropertyOp12
 70
     1
102
RTVSPropertyOp13
 70
     1
102
RTVSPropertyOp14
 70
     1
102
RTVSPropertyOp15
 70
     1
102
RTVSPropertyOp16
 70
     1
102
RTVSPropertyOp17
 70
     1
102
RTVSPropertyOp18
 70
     1
102
RTVSPropertyOp19
 70
     1
102
RTVSPropertyOp20
 70
     1
102
RTVSPropertyOp21
 70
     1
102
RTVSPropertyOp22
 70
     1
102
RTVSPropertyOp23
 70
     1
102
RTVSPropertyOp24
 70
     1
102
RTVSPropertyOp25
 70
     1
102
RTVSPropertyOp26
 70
     1
102
RTVSPropertyOp27
 70
     1
102
RTVSPropertyOp28
 70
     1
102
RTVSPropertyOp29
 70
     1
102
RTVSPropertyOp30
 70
     1
102
RTVSPropertyOp31
 70
     1
102
RTVSPropertyOp32
 70
     1
102
RTVSPropertyOp33
 70
     1
102
RTVSPropertyOp34
 70
     1
102
RTVSPropertyOp35
 70
     1
102
RTVSPropertyOp36
 70
     1
102
RTVSPropertyOp37
 70
     1
102
RTVSPropertyOp38
 70
     1
102
RTVSPropertyOp39
 70
     1
102
RTVSPropertyOp40
 70
     1
102
RTVSPropertyOp41
 70
     1
102
RTVSPropertyOp42
 70
     1
102
RTVSPropertyOp43
 70
     1
102
RTVSPropertyOp44
 70
     1
102
RTVSPropertyOp45
 70
     1
102
RTVSPropertyOp46
 70
     1
102
RTVSPropertyOp47
 70
     1
102
RTVSPropertyOp48
 70
     1
102
RTVSPropertyOp49
 70
     1
102
RTVSPropertyOp50
 70
     1
102
RTVSPropertyOp51
 70
     0
102
RTVSPropertyOp52
 70
     0
102
RTVSPropertyOp53
 70
     1
102
RTVSPropertyOp54
 70
     1
102
RTVSPropertyOp55
 70
     1
102
RTVSPropertyOp56
 70
     1
102
RTVSPropertyOp57
 70
     1
102
RTVSPropertyOp58
 70
     1
102
RTVSPropertyOp59
 70
     1
102
RTVSPropertyOp60
 70
     1
102
RTVSPropertyOp61
 70
     1
102
RTVSPropertyOp62
 70
     1
  0
XRECORD
  5
D24
102
{ACAD_REACTORS
330
D23
102
}
330
D23
100
AcDbXrecord
280
     1
102
RTVSPost2010Prop28
280
     0
102
RTVSPost2010PropOp28
 70
     1
102
RTVSPost2010Prop29
280
     1
102
RTVSPost2010PropOp29
 70
     1
102
RTVSPost2010Prop30
280
     1
102
RTVSPost2010PropOp30
 70
     1
102
RTVSPost2010Prop31
280
     0
102
RTVSPost2010PropOp31
 70
     1
102
RTVSPost2010Prop32
280
     0
102
RTVSPost2010PropOp32
 70
     1
102
RTVSPost2010Prop33
280
     0
102
RTVSPost2010PropOp33
 70
     1
102
RTVSPost2010Prop34
280
     0
102
RTVSPost2010PropOp34
 70
     1
102
RTVSPost2010Prop35
280
     0
102
RTVSPost2010PropOp35
 70
     1
102
RTVSPost2010Prop36
280
     0
102
RTVSPost2010PropOp36
 70
     1
102
RTVSPost2010Prop37
 90
       50
102
RTVSPost2010PropOp37
 70
     1
102
RTVSPost2010Prop38
140
0.0
102
RTVSPost2010PropOp38
 70
     1
102
RTVSPost2010Prop39
140
1.0
102
RTVSPost2010PropOp39
 70
     1
102
RTVSPost2010Prop40
 90
        0
102
RTVSPost2010PropOp40
 70
     1
102
RTVSPost2010Prop41ColorIndex
 90
       18
102
RTVSPost2010Prop41ColorRGB
 90
        0
102
RTVSPost2010PropOp41
 70
     1
102
RTVSPost2010Prop42
 90
       50
102
RTVSPost2010PropOp42
 70
     1
102
RTVSPost2010Prop43
 90
        3
102
RTVSPost2010PropOp43
 70
     1
102
RTVSPost2010Prop44ColorIndex
 90
        5
102
RTVSPost2010Prop44ColorRGB
 90
      255
102
RTVSPost2010PropOp44
 70
     1
102
RTVSPost2010Prop45
280
     0
102
RTVSPost2010PropOp45
 70
     1
102
RTVSPost2010Prop46
 90
       50
102
RTVSPost2010PropOp46
 70
     1
102
RTVSPost2010Prop47
 90
       50
102
RTVSPost2010PropOp47
 70
     1
102
RTVSPost2010Prop48
 90
       50
102
RTVSPost2010PropOp48
 70
     1
102
RTVSPost2010Prop49
280
     0
102
RTVSPost2010PropOp49
 70
     1
102
RTVSPost2010Prop50
 90
       50
102
RTVSPost2010PropOp50
 70
     1
102
RTVSPost2010Prop51ColorIndex
 90
      256
102
RTVSPost2010Prop51ColorRGB
 90
-16777216
102
RTVSPost2010PropOp51
 70
     0
102
RTVSPost2010Prop52
140
1.0
102
RTVSPost2010PropOp52
 70
     0
102
RTVSPost2010Prop53
 90
        2
102
RTVSPost2010PropOp53
 70
     1
102
RTVSPost2010Prop54
  1
strokes_ogs.tif
102
RTVSPost2010PropOp54
 70
     1
102
RTVSPost2010Prop55
280
     0
102
RTVSPost2010PropOp55
 70
     1
102
RTVSPost2010Prop56
140
1.0
102
RTVSPost2010PropOp56
 70
     1
102
RTVSPost2010Prop57
140
1.0
102
RTVSPost2010PropOp57
 70
     1
102
RTVSPropertyOp0
 70
     1
102
RTVSPropertyOp1
 70
     1
102
RTVSPropertyOp2
 70
     1
102
RTVSPropertyOp3
 70
     1
102
RTVSPropertyOp4
 70
     1
102
RTVSPropertyOp5
 70
     1
102
RTVSPropertyOp6
 70
     1
102
RTVSPropertyOp7
 70
     1
102
RTVSPropertyOp8
 70
     1
102
RTVSPropertyOp9
 70
     1
102
RTVSPropertyOp10
 70
     1
102
RTVSPropertyOp11
 70
     1
102
RTVSPropertyOp12
 70
     1
102
RTVSPropertyOp13
 70
     1
102
RTVSPropertyOp14
 70
     1
102
RTVSPropertyOp15
 70
     1
102
RTVSPropertyOp16
 70
     1
102
RTVSPropertyOp17
 70
     1
102
RTVSPropertyOp18
 70
     1
102
RTVSPropertyOp19
 70
     1
102
RTVSPropertyOp20
 70
     1
102
RTVSPropertyOp21
 70
     1
102
RTVSPropertyOp22
 70
     1
102
RTVSPropertyOp23
 70
     1
102
RTVSPropertyOp24
 70
     1
102
RTVSPropertyOp25
 70
     1
102
RTVSPropertyOp26
 70
     1
102
RTVSPropertyOp27
 70
     1
102
RTVSPropertyOp28
 70
     1
102
RTVSPropertyOp29
 70
     1
102
RTVSPropertyOp30
 70
     1
102
RTVSPropertyOp31
 70
     1
102
RTVSPropertyOp32
 70
     1
102
RTVSPropertyOp33
 70
     1
102
RTVSPropertyOp34
 70
     1
102
RTVSPropertyOp35
 70
     1
102
RTVSPropertyOp36
 70
     1
102
RTVSPropertyOp37
 70
     1
102
RTVSPropertyOp38
 70
     1
102
RTVSPropertyOp39
 70
     1
102
RTVSPropertyOp40
 70
     1
102
RTVSPropertyOp41
 70
     1
102
RTVSPropertyOp42
 70
     1
102
RTVSPropertyOp43
 70
     1
102
RTVSPropertyOp44
 70
     1
102
RTVSPropertyOp45
 70
     1
102
RTVSPropertyOp46
 70
     1
102
RTVSPropertyOp47
 70
     1
102
RTVSPropertyOp48
 70
     1
102
RTVSPropertyOp49
 70
     1
102
RTVSPropertyOp50
 70
     1
102
RTVSPropertyOp51
 70
     0
102
RTVSPropertyOp52
 70
     0
102
RTVSPropertyOp53
 70
     1
102
RTVSPropertyOp54
 70
     1
102
RTVSPropertyOp55
 70
     1
102
RTVSPropertyOp56
 70
     1
102
RTVSPropertyOp57
 70
     1
102
RTVSPropertyOp58
 70
     1
102
RTVSPropertyOp59
 70
     1
102
RTVSPropertyOp60
 70
     1
102
RTVSPropertyOp61
 70
     1
102
RTVSPropertyOp62
 70
     1
  0
XRECORD
  5
D3C
102
{ACAD_REACTORS
330
D3B
102
}
330
D3B
100
AcDbXrecord
280
     1
102
RTVSPost2010Prop28
280
     0
102
RTVSPost2010PropOp28
 70
     1
102
RTVSPost2010Prop29
280
     1
102
RTVSPost2010PropOp29
 70
     1
102
RTVSPost2010Prop30
280
     1
102
RTVSPost2010PropOp30
 70
     1
102
RTVSPost2010Prop31
280
     0
102
RTVSPost2010PropOp31
 70
     1
102
RTVSPost2010Prop32
280
     0
102
RTVSPost2010PropOp32
 70
     1
102
RTVSPost2010Prop33
280
     0
102
RTVSPost2010PropOp33
 70
     1
102
RTVSPost2010Prop34
280
     0
102
RTVSPost2010PropOp34
 70
     1
102
RTVSPost2010Prop35
280
     0
102
RTVSPost2010PropOp35
 70
     1
102
RTVSPost2010Prop36
280
     0
102
RTVSPost2010PropOp36
 70
     1
102
RTVSPost2010Prop37
 90
       50
102
RTVSPost2010PropOp37
 70
     1
102
RTVSPost2010Prop38
140
0.0
102
RTVSPost2010PropOp38
 70
     1
102
RTVSPost2010Prop39
140
1.0
102
RTVSPost2010PropOp39
 70
     1
102
RTVSPost2010Prop40
 90
        0
102
RTVSPost2010PropOp40
 70
     1
102
RTVSPost2010Prop41ColorIndex
 90
       18
102
RTVSPost2010Prop41ColorRGB
 90
        0
102
RTVSPost2010PropOp41
 70
     1
102
RTVSPost2010Prop42
 90
       50
102
RTVSPost2010PropOp42
 70
     1
102
RTVSPost2010Prop43
 90
        3
102
RTVSPost2010PropOp43
 70
     1
102
RTVSPost2010Prop44ColorIndex
 90
        5
102
RTVSPost2010Prop44ColorRGB
 90
      255
102
RTVSPost2010PropOp44
 70
     1
102
RTVSPost2010Prop45
280
     0
102
RTVSPost2010PropOp45
 70
     1
102
RTVSPost2010Prop46
 90
       50
102
RTVSPost2010PropOp46
 70
     1
102
RTVSPost2010Prop47
 90
       50
102
RTVSPost2010PropOp47
 70
     1
102
RTVSPost2010Prop48
 90
       50
102
RTVSPost2010PropOp48
 70
     1
102
RTVSPost2010Prop49
280
     0
102
RTVSPost2010PropOp49
 70
     1
102
RTVSPost2010Prop50
 90
       50
102
RTVSPost2010PropOp50
 70
     1
102
RTVSPost2010Prop51ColorIndex
 90
      256
102
RTVSPost2010Prop51ColorRGB
 90
-16777216
102
RTVSPost2010PropOp51
 70
     0
102
RTVSPost2010Prop52
140
1.0
102
RTVSPost2010PropOp52
 70
     0
102
RTVSPost2010Prop53
 90
        2
102
RTVSPost2010PropOp53
 70
     1
102
RTVSPost2010Prop54
  1
strokes_ogs.tif
102
RTVSPost2010PropOp54
 70
     1
102
RTVSPost2010Prop55
280
     0
102
RTVSPost2010PropOp55
 70
     1
102
RTVSPost2010Prop56
140
1.0
102
RTVSPost2010PropOp56
 70
     1
102
RTVSPost2010Prop57
140
1.0
102
RTVSPost2010PropOp57
 70
     1
102
RTVSPropertyOp0
 70
     1
102
RTVSPropertyOp1
 70
     1
102
RTVSPropertyOp2
 70
     1
102
RTVSPropertyOp3
 70
     1
102
RTVSPropertyOp4
 70
     1
102
RTVSPropertyOp5
 70
     1
102
RTVSPropertyOp6
 70
     1
102
RTVSPropertyOp7
 70
     1
102
RTVSPropertyOp8
 70
     1
102
RTVSPropertyOp9
 70
     1
102
RTVSPropertyOp10
 70
     1
102
RTVSPropertyOp11
 70
     1
102
RTVSPropertyOp12
 70
     1
102
RTVSPropertyOp13
 70
     1
102
RTVSPropertyOp14
 70
     1
102
RTVSPropertyOp15
 70
     1
102
RTVSPropertyOp16
 70
     1
102
RTVSPropertyOp17
 70
     1
102
RTVSPropertyOp18
 70
     1
102
RTVSPropertyOp19
 70
     1
102
RTVSPropertyOp20
 70
     1
102
RTVSPropertyOp21
 70
     1
102
RTVSPropertyOp22
 70
     1
102
RTVSPropertyOp23
 70
     1
102
RTVSPropertyOp24
 70
     1
102
RTVSPropertyOp25
 70
     1
102
RTVSPropertyOp26
 70
     1
102
RTVSPropertyOp27
 70
     1
102
RTVSPropertyOp28
 70
     1
102
RTVSPropertyOp29
 70
     1
102
RTVSPropertyOp30
 70
     1
102
RTVSPropertyOp31
 70
     1
102
RTVSPropertyOp32
 70
     1
102
RTVSPropertyOp33
 70
     1
102
RTVSPropertyOp34
 70
     1
102
RTVSPropertyOp35
 70
     1
102
RTVSPropertyOp36
 70
     1
102
RTVSPropertyOp37
 70
     1
102
RTVSPropertyOp38
 70
     1
102
RTVSPropertyOp39
 70
     1
102
RTVSPropertyOp40
 70
     1
102
RTVSPropertyOp41
 70
     1
102
RTVSPropertyOp42
 70
     1
102
RTVSPropertyOp43
 70
     1
102
RTVSPropertyOp44
 70
     1
102
RTVSPropertyOp45
 70
     1
102
RTVSPropertyOp46
 70
     1
102
RTVSPropertyOp47
 70
     1
102
RTVSPropertyOp48
 70
     1
102
RTVSPropertyOp49
 70
     1
102
RTVSPropertyOp50
 70
     1
102
RTVSPropertyOp51
 70
     0
102
RTVSPropertyOp52
 70
     0
102
RTVSPropertyOp53
 70
     1
102
RTVSPropertyOp54
 70
     1
102
RTVSPropertyOp55
 70
     1
102
RTVSPropertyOp56
 70
     1
102
RTVSPropertyOp57
 70
     1
102
RTVSPropertyOp58
 70
     1
102
RTVSPropertyOp59
 70
     1
102
RTVSPropertyOp60
 70
     1
102
RTVSPropertyOp61
 70
     1
102
RTVSPropertyOp62
 70
     1
  0
ENDSEC
  0
EOF
