  0
SECTION
  2
HEADER
  9
$ACADVER
  1
AC1018
  9
$ACADMAINTVER
 70
     2
  9
$DWGCODEPAGE
  3
ANSI_1252
  9
$INSBASE
 10
0.0
 20
0.0
 30
0.0
  9
$EXTMIN
 10
-0.0000000000001137
 20
-0.0000000000001137
 30
0.0
  9
$EXTMAX
 10
420.0
 20
594.0000000000002
 30
0.0
  9
$LIMMIN
 10
0.0
 20
0.0
  9
$LIMMAX
 10
419.9999999999999
 20
594.0
  9
$ORTHOMODE
 70
     1
  9
$REGENMODE
 70
     1
  9
$FILLMODE
 70
     1
  9
$QTEXTMODE
 70
     0
  9
$MIRRTEXT
 70
     1
  9
$LTSCALE
 40
20.0
  9
$ATTMODE
 70
     1
  9
$TEXTSIZE
 40
3.5
  9
$TRACEWID
 40
0.5
  9
$TEXTSTYLE
  7
STANDARD
  9
$CLAYER
  8
VOLL
  9
$CELTYPE
  6
ByLayer
  9
$CECOLOR
 62
   256
  9
$CELTSCALE
 40
1.0
  9
$DISPSILH
 70
     0
  9
$DIMSCALE
 40
2.0
  9
$DIMASZ
 40
3.5
  9
$DIMEXO
 40
1.0
  9
$DIMDLI
 40
7.0
  9
$DIMRND
 40
0.0
  9
$DIMDLE
 40
0.0
  9
$DIMEXE
 40
1.0
  9
$DIMTP
 40
0.0
  9
$DIMTM
 40
0.0
  9
$DIMTXT
 40
3.5
  9
$DIMCEN
 40
1.5
  9
$DIMTSZ
 40
0.0
  9
$DIMTOL
 70
     0
  9
$DIMLIM
 70
     0
  9
$DIMTIH
 70
     0
  9
$DIMTOH
 70
     0
  9
$DIMSE1
 70
     0
  9
$DIMSE2
 70
     0
  9
$DIMTAD
 70
     1
  9
$DIMZIN
 70
     8
  9
$DIMBLK
  1

  9
$DIMASO
 70
     1
  9
$DIMSHO
 70
     0
  9
$DIMPOST
  1

  9
$DIMAPOST
  1

  9
$DIMALT
 70
     0
  9
$DIMALTD
 70
     2
  9
$DIMALTF
 40
25.4
  9
$DIMLFAC
 40
1.0
  9
$DIMTOFL
 70
     1
  9
$DIMTVP
 40
0.0
  9
$DIMTIX
 70
     0
  9
$DIMSOXD
 70
     0
  9
$DIMSAH
 70
     0
  9
$DIMBLK1
  1

  9
$DIMBLK2
  1

  9
$DIMSTYLE
  2
Standard
  9
$DIMCLRD
 70
     0
  9
$DIMCLRE
 70
     0
  9
$DIMCLRT
 70
     1
  9
$DIMTFAC
 40
0.5142857142857144
  9
$DIMGAP
 40
1.5
  9
$DIMJUST
 70
     0
  9
$DIMSD1
 70
     0
  9
$DIMSD2
 70
     0
  9
$DIMTOLJ
 70
     1
  9
$DIMTZIN
 70
     8
  9
$DIMALTZ
 70
     8
  9
$DIMALTTZ
 70
     8
  9
$DIMUPT
 70
     0
  9
$DIMDEC
 70
     2
  9
$DIMTDEC
 70
     2
  9
$DIMALTU
 70
     2
  9
$DIMALTTD
 70
     2
  9
$DIMTXSTY
  7
STANDARD
  9
$DIMAUNIT
 70
     0
  9
$DIMADEC
 70
     2
  9
$DIMALTRND
 40
0.0
  9
$DIMAZIN
 70
     2
  9
$DIMDSEP
 70
    46
  9
$DIMATFIT
 70
     3
  9
$DIMFRAC
 70
     0
  9
$DIMLDRBLK
  1

  9
$DIMLUNIT
 70
     2
  9
$DIMLWD
 70
    -2
  9
$DIMLWE
 70
    -2
  9
$DIMTMOVE
 70
     0
  9
$LUNITS
 70
     2
  9
$LUPREC
 70
     2
  9
$SKETCHINC
 40
1.0
  9
$FILLETRAD
 40
13.2
  9
$AUNITS
 70
     0
  9
$AUPREC
 70
     0
  9
$MENU
  1
ACAD
  9
$ELEVATION
 40
0.0
  9
$PELEVATION
 40
0.0
  9
$THICKNESS
 40
0.0
  9
$LIMCHECK
 70
     0
  9
$CHAMFERA
 40
0.0
  9
$CHAMFERB
 40
0.0
  9
$CHAMFERC
 40
0.0
  9
$CHAMFERD
 40
0.0
  9
$SKPOLY
 70
     0
  9
$TDCREATE
 40
2455397.864709028
  9
$TDUCREATE
 40
2455397.781375695
  9
$TDUPDATE
 40
2456094.358571551
  9
$TDUUPDATE
 40
2456094.275238218
  9
$TDINDWG
 40
0.2457975810
  9
$TDUSRTIMER
 40
0.2457975810
  9
$USRTIMER
 70
     1
  9
$ANGBASE
 50
0.0
  9
$ANGDIR
 70
     0
  9
$PDMODE
 70
     0
  9
$PDSIZE
 40
0.0
  9
$PLINEWID
 40
0.0
  9
$SPLFRAME
 70
     0
  9
$SPLINETYPE
 70
     6
  9
$SPLINESEGS
 70
     8
  9
$HANDSEED
  5
18D7
  9
$SURFTAB1
 70
     6
  9
$SURFTAB2
 70
     6
  9
$SURFTYPE
 70
     6
  9
$SURFU
 70
     6
  9
$SURFV
 70
     6
  9
$UCSBASE
  2

  9
$UCSNAME
  2

  9
$UCSORG
 10
0.0
 20
0.0
 30
0.0
  9
$UCSXDIR
 10
1.0
 20
0.0
 30
0.0
  9
$UCSYDIR
 10
0.0
 20
1.0
 30
0.0
  9
$UCSORTHOREF
  2

  9
$UCSORTHOVIEW
 70
     0
  9
$UCSORGTOP
 10
0.0
 20
0.0
 30
0.0
  9
$UCSORGBOTTOM
 10
0.0
 20
0.0
 30
0.0
  9
$UCSORGLEFT
 10
0.0
 20
0.0
 30
0.0
  9
$UCSORGRIGHT
 10
0.0
 20
0.0
 30
0.0
  9
$UCSORGFRONT
 10
0.0
 20
0.0
 30
0.0
  9
$UCSORGBACK
 10
0.0
 20
0.0
 30
0.0
  9
$PUCSBASE
  2

  9
$PUCSNAME
  2

  9
$PUCSORG
 10
0.0
 20
0.0
 30
0.0
  9
$PUCSXDIR
 10
1.0
 20
0.0
 30
0.0
  9
$PUCSYDIR
 10
0.0
 20
1.0
 30
0.0
  9
$PUCSORTHOREF
  2

  9
$PUCSORTHOVIEW
 70
     0
  9
$PUCSORGTOP
 10
0.0
 20
0.0
 30
0.0
  9
$PUCSORGBOTTOM
 10
0.0
 20
0.0
 30
0.0
  9
$PUCSORGLEFT
 10
0.0
 20
0.0
 30
0.0
  9
$PUCSORGRIGHT
 10
0.0
 20
0.0
 30
0.0
  9
$PUCSORGFRONT
 10
0.0
 20
0.0
 30
0.0
  9
$PUCSORGBACK
 10
0.0
 20
0.0
 30
0.0
  9
$USERI1
 70
     0
  9
$USERI2
 70
     0
  9
$USERI3
 70
     0
  9
$USERI4
 70
     0
  9
$USERI5
 70
     0
  9
$USERR1
 40
0.0
  9
$USERR2
 40
0.0
  9
$USERR3
 40
0.0
  9
$USERR4
 40
0.0
  9
$USERR5
 40
0.0
  9
$WORLDVIEW
 70
     1
  9
$SHADEDGE
 70
     3
  9
$SHADEDIF
 70
    70
  9
$TILEMODE
 70
     1
  9
$MAXACTVP
 70
    16
  9
$PINSBASE
 10
0.0
 20
0.0
 30
0.0
  9
$PLIMCHECK
 70
     0
  9
$PEXTMIN
 10
1.000000000000000E+20
 20
1.000000000000000E+20
 30
1.000000000000000E+20
  9
$PEXTMAX
 10
-1.000000000000000E+20
 20
-1.000000000000000E+20
 30
-1.000000000000000E+20
  9
$PLIMMIN
 10
0.0
 20
0.0
  9
$PLIMMAX
 10
12.0
 20
9.0
  9
$UNITMODE
 70
     0
  9
$VISRETAIN
 70
     0
  9
$PLINEGEN
 70
     0
  9
$PSLTSCALE
 70
     0
  9
$TREEDEPTH
 70
  3020
  9
$CMLSTYLE
  2
Standard
  9
$CMLJUST
 70
     0
  9
$CMLSCALE
 40
1.0
  9
$PROXYGRAPHICS
 70
     1
  9
$MEASUREMENT
 70
     0
  9
$CELWEIGHT
370
    -1
  9
$ENDCAPS
280
     0
  9
$JOINSTYLE
280
     0
  9
$LWDISPLAY
290
     0
  9
$INSUNITS
 70
     0
  9
$HYPERLINKBASE
  1

  9
$STYLESHEET
  1
monochrome 1.ctb
  9
$XEDIT
290
     1
  9
$CEPSNTYPE
380
     0
  9
$PSTYLEMODE
290
     1
  9
$FINGERPRINTGUID
  2
{D68B0D02-A558-11D7-B632-000102183313}
  9
$VERSIONGUID
  2
{0CC54A8A-B8E0-4F11-ABB7-85AD9CCF85BB}
  9
$EXTNAMES
290
     1
  9
$PSVPSCALE
 40
0.0
  9
$OLESTARTUP
290
     0
  9
$SORTENTS
280
   127
  9
$INDEXCTL
280
     0
  9
$HIDETEXT
280
     0
  9
$XCLIPFRAME
290
     0
  9
$HALOGAP
280
     0
  9
$OBSCOLOR
 70
   257
  9
$OBSLTYPE
280
     0
  9
$INTERSECTIONDISPLAY
280
     0
  9
$INTERSECTIONCOLOR
 70
   257
  9
$DIMASSOC
280
     1
  9
$PROJECTNAME
  1

  0
ENDSEC
  0
SECTION
  2
CLASSES
  0
CLASS
  1
ACDBDICTIONARYWDFLT
  2
AcDbDictionaryWithDefault
  3
ObjectDBX Classes
 90
        0
 91
        1
280
     0
281
     0
  0
CLASS
  1
DICTIONARYVAR
  2
AcDbDictionaryVar
  3
ObjectDBX Classes
 90
        0
 91
        2
280
     0
281
     0
  0
ENDSEC
  0
SECTION
  2
TABLES
  0
TABLE
  2
VPORT
  5
8
330
0
100
AcDbSymbolTable
 70
     3
  0
VPORT
  5
18D6
330
8
100
AcDbSymbolTableRecord
100
AcDbViewportTableRecord
  2
*Active
 70
     0
 10
0.0
 20
0.0
 11
1.0
 21
1.0
 12
221.9096242270492
 22
297.0
 13
0.0
 23
0.0
 14
1.0
 24
1.0
 15
10.0
 25
10.0
 16
0.0
 26
0.0
 36
1.0
 17
0.0
 27
0.0
 37
0.0
 40
594.0
 41
1.374331550802138
 42
50.0
 43
0.0
 44
0.0
 50
0.0
 51
0.0
 71
     0
 72
  1500
 73
     1
 74
     0
 75
     0
 76
     0
 77
     0
 78
     0
281
     0
 65
     1
110
0.0
120
0.0
130
0.0
111
1.0
121
0.0
131
0.0
112
0.0
122
1.0
132
0.0
 79
     0
146
0.0
  0
ENDTAB
  0
TABLE
  2
LTYPE
  5
5
330
0
100
AcDbSymbolTable
 70
     2
  0
LTYPE
  5
13
330
5
100
AcDbSymbolTableRecord
100
AcDbLinetypeTableRecord
  2
ByBlock
 70
     0
  3

 72
    65
 73
     0
 40
0.0
  0
LTYPE
  5
14
330
5
100
AcDbSymbolTableRecord
100
AcDbLinetypeTableRecord
  2
ByLayer
 70
     0
  3

 72
    65
 73
     0
 40
0.0
  0
LTYPE
  5
15
330
5
100
AcDbSymbolTableRecord
100
AcDbLinetypeTableRecord
  2
Continuous
 70
     0
  3
Solid line
 72
    65
 73
     0
 40
0.0
  0
LTYPE
  5
25
330
5
100
AcDbSymbolTableRecord
100
AcDbLinetypeTableRecord
  2
STRICHPUNKT
 70
     0
  3
__ . __ . __ . __ . __ . __ . __ . __ . __ . __
 72
    65
 73
     4
 40
1.0
 49
0.5
 74
     0
 49
-0.25
 74
     0
 49
0.0
 74
     0
 49
-0.25
 74
     0
  0
ENDTAB
  0
TABLE
  2
LAYER
  5
2
330
0
100
AcDbSymbolTable
 70
     9
  0
LAYER
  5
10
330
2
100
AcDbSymbolTableRecord
100
AcDbLayerTableRecord
  2
0
 70
     0
 62
     7
  6
Continuous
370
    -3
390
F
  0
LAYER
  5
2A
330
2
100
AcDbSymbolTableRecord
100
AcDbLayerTableRecord
  2
VOLL
 70
     0
 62
     1
  6
Continuous
370
    -3
390
F
  0
LAYER
  5
2B
330
2
100
AcDbSymbolTableRecord
100
AcDbLayerTableRecord
  2
HILF
 70
     0
 62
     2
  6
Continuous
370
    -3
390
F
  0
LAYER
  5
2C
330
2
100
AcDbSymbolTableRecord
100
AcDbLayerTableRecord
  2
MITTEL
 70
     0
 62
     2
  6
STRICHPUNKT
370
    -3
390
F
  0
LAYER
  5
2F
330
2
100
AcDbSymbolTableRecord
100
AcDbLayerTableRecord
  2
BEM
 70
     0
 62
     7
  6
Continuous
370
    -3
390
F
  0
LAYER
  5
30
330
2
100
AcDbSymbolTableRecord
100
AcDbLayerTableRecord
  2
STEMPEL
 70
     0
 62
     3
  6
Continuous
370
    -3
390
F
  0
LAYER
  5
31
330
2
100
AcDbSymbolTableRecord
100
AcDbLayerTableRecord
  2
TEXT
 70
     0
 62
     7
  6
Continuous
370
    -3
390
F
  0
LAYER
  5
4E8
330
2
100
AcDbSymbolTableRecord
100
AcDbLayerTableRecord
  2
DEFPOINTS
 70
     0
 62
     7
  6
Continuous
290
     0
370
    -3
390
F
  0
LAYER
  5
4E9
330
2
100
AcDbSymbolTableRecord
100
AcDbLayerTableRecord
  2
SCHRAFF
 70
     0
 62
     7
  6
Continuous
370
    -3
390
F
  0
ENDTAB
  0
TABLE
  2
STYLE
  5
3
330
0
100
AcDbSymbolTable
 70
     2
  0
STYLE
  5
11
330
3
100
AcDbSymbolTableRecord
100
AcDbTextStyleTableRecord
  2
STANDARD
 70
     0
 40
0.0
 41
0.8
 50
0.0
 71
     0
 42
3.5
  3
simplex.shx
  4

  0
STYLE
  5
24
330
3
100
AcDbSymbolTableRecord
100
AcDbTextStyleTableRecord
  2
GREEKS
 70
     0
 40
0.0
 41
0.8
 50
0.0
 71
     0
 42
2.5
  3
SIMPLEX.shx
  4

  0
ENDTAB
  0
TABLE
  2
VIEW
  5
6
330
0
100
AcDbSymbolTable
 70
     0
  0
ENDTAB
  0
TABLE
  2
UCS
  5
7
330
0
100
AcDbSymbolTable
 70
     0
  0
ENDTAB
  0
TABLE
  2
APPID
  5
9
330
0
100
AcDbSymbolTable
 70
     1
  0
APPID
  5
12
330
9
100
AcDbSymbolTableRecord
100
AcDbRegAppTableRecord
  2
ACAD
 70
     0
  0
ENDTAB
  0
TABLE
  2
DIMSTYLE
  5
A
330
0
100
AcDbSymbolTable
 70
     1
100
AcDbDimStyleTable
 71
     1
340
9D
  0
DIMSTYLE
105
9D
102
{ACAD_REACTORS
330
DF8
330
1740
330
1755
330
1816
330
1817
330
1818
330
18A8
102
}
330
A
100
AcDbSymbolTableRecord
100
AcDbDimStyleTableRecord
  2
Standard
 70
     0
340
11
  0
ENDTAB
  0
TABLE
  2
BLOCK_RECORD
  5
1
330
0
100
AcDbSymbolTable
 70
     8
  0
BLOCK_RECORD
  5
1E
102
{ACAD_XDICTIONARY
360
A0
102
}
330
1
100
AcDbSymbolTableRecord
100
AcDbBlockTableRecord
  2
*Model_Space
340
21
  0
BLOCK_RECORD
  5
1A
102
{ACAD_XDICTIONARY
360
A2
102
}
330
1
100
AcDbSymbolTableRecord
100
AcDbBlockTableRecord
  2
*Paper_Space
340
1D
  0
BLOCK_RECORD
  5
22
330
1
100
AcDbSymbolTableRecord
100
AcDbBlockTableRecord
  2
LOGO
340
0
102
{BLKREFS
331
9B
102
}
  0
BLOCK_RECORD
  5
ECC
330
1
100
AcDbSymbolTableRecord
100
AcDbBlockTableRecord
  2
*D1
340
0
  0
BLOCK_RECORD
  5
1757
330
1
100
AcDbSymbolTableRecord
100
AcDbBlockTableRecord
  2
*D2
340
0
  0
BLOCK_RECORD
  5
1763
330
1
100
AcDbSymbolTableRecord
100
AcDbBlockTableRecord
  2
*D3
340
0
  0
BLOCK_RECORD
  5
1819
330
1
100
AcDbSymbolTableRecord
100
AcDbBlockTableRecord
  2
*D4
340
0
  0
BLOCK_RECORD
  5
1825
330
1
100
AcDbSymbolTableRecord
100
AcDbBlockTableRecord
  2
*D5
340
0
  0
BLOCK_RECORD
  5
1831
330
1
100
AcDbSymbolTableRecord
100
AcDbBlockTableRecord
  2
*D6
340
0
  0
BLOCK_RECORD
  5
18A9
330
1
100
AcDbSymbolTableRecord
100
AcDbBlockTableRecord
  2
*D7
340
0
  0
ENDTAB
  0
ENDSEC
  0
SECTION
  2
BLOCKS
  0
BLOCK
  5
35
330
1E
100
AcDbEntity
  8
0
100
AcDbBlockBegin
  2
*Model_Space
 70
     0
 10
0.0
 20
0.0
 30
0.0
  3
*Model_Space
  1

  0
ENDBLK
  5
36
330
1E
100
AcDbEntity
  8
0
100
AcDbBlockEnd
  0
BLOCK
  5
33
330
1A
100
AcDbEntity
 67
     1
  8
0
100
AcDbBlockBegin
  2
*Paper_Space
 70
     0
 10
0.0
 20
0.0
 30
0.0
  3
*Paper_Space
  1

  0
ENDBLK
  5
34
330
1A
100
AcDbEntity
 67
     1
  8
0
100
AcDbBlockEnd
  0
BLOCK
  5
37
330
22
100
AcDbEntity
  8
0
100
AcDbBlockBegin
  2
LOGO
 70
     0
 10
0.0
 20
0.0
 30
0.0
  3
LOGO
  1

  0
ARC
  5
38
330
22
100
AcDbEntity
  8
0
100
AcDbCircle
 10
11.59973089678112
 20
-9.271599258481501
 30
0.0
 40
4.5
100
AcDbArc
 50
270.0
 51
231.0575587310159
  0
LINE
  5
39
330
22
100
AcDbEntity
  8
0
100
AcDbLine
 10
3.599730896781125
 20
-4.771599258481529
 30
0.0
 11
3.599730896781153
 21
-11.77159925848133
 31
0.0
  0
LINE
  5
3A
330
22
100
AcDbEntity
  8
0
100
AcDbLine
 10
2.599730896781125
 20
-4.771599258481529
 30
0.0
 11
2.599730896781153
 21
-11.77159925848133
 31
0.0
  0
CIRCLE
  5
3B
330
22
100
AcDbEntity
  8
0
100
AcDbCircle
 10
11.59973089678112
 20
-9.271599258481501
 30
0.0
 40
3.5
  0
ARC
  5
3C
330
22
100
AcDbEntity
  8
0
100
AcDbCircle
 10
31.59973089678115
 20
-9.271599258481472
 30
0.0
 40
4.5
100
AcDbArc
 50
270.0
 51
231.0575587310182
  0
LINE
  5
3D
330
22
100
AcDbEntity
  8
0
100
AcDbLine
 10
17.59973089678112
 20
-4.771599258481472
 30
0.0
 11
17.59973089678115
 21
-13.77159925848147
 31
0.0
  0
ARC
  5
3E
330
22
100
AcDbEntity
  8
0
100
AcDbCircle
 10
22.59973089678116
 20
-7.271599258481472
 30
0.0
 40
2.5
100
AcDbArc
 50
293.1161887722295
 51
90.0
  0
CIRCLE
  5
3F
330
22
100
AcDbEntity
  8
0
100
AcDbCircle
 10
31.59973089678115
 20
-9.271599258481472
 30
0.0
 40
3.5
  0
ARC
  5
40
330
22
100
AcDbEntity
  8
0
100
AcDbCircle
 10
4.599730896781153
 20
-11.77159925848133
 30
0.0
 40
1.0
100
AcDbArc
 50
180.0
 51
270.0
  0
ARC
  5
41
330
22
100
AcDbEntity
  8
0
100
AcDbCircle
 10
4.599730896781153
 20
-11.77159925848133
 30
0.0
 40
2.0
100
AcDbArc
 50
179.9999999999992
 51
270.0
  0
LINE
  5
42
330
22
100
AcDbEntity
  8
0
100
AcDbLine
 10
11.59973089678115
 20
-13.77159925848144
 30
0.0
 11
4.599730896781153
 21
-13.77159925848147
 31
0.0
  0
LINE
  5
43
330
22
100
AcDbEntity
  8
0
100
AcDbLine
 10
8.771303772034769
 20
-12.77159925848136
 30
0.0
 11
4.599730896781153
 21
-12.77159925848133
 31
0.0
  0
LINE
  5
44
330
22
100
AcDbEntity
  8
0
100
AcDbLine
 10
31.59973089678115
 20
-13.77159925848147
 30
0.0
 11
23.6715276665056
 21
-13.77159925848144
 31
0.0
  0
LINE
  5
45
330
22
100
AcDbEntity
  8
0
100
AcDbLine
 10
23.56565672307022
 20
-9.51278021337896
 30
0.0
 11
24.4388546544846
 21
-12.77159925848144
 31
0.0
  0
LINE
  5
46
330
22
100
AcDbEntity
  8
0
100
AcDbLine
 10
22.59973089678116
 20
-9.771599258481472
 30
0.0
 11
18.59973089678112
 21
-9.771599258481472
 31
0.0
  0
LINE
  5
47
330
22
100
AcDbEntity
  8
0
100
AcDbLine
 10
18.59973089678115
 20
-13.77159925848144
 30
0.0
 11
17.59973089678115
 21
-13.77159925848144
 31
0.0
  0
LINE
  5
48
330
22
100
AcDbEntity
  8
0
100
AcDbLine
 10
18.59973089678115
 20
-9.771599258481472
 30
0.0
 11
18.59973089678115
 21
-13.77159925848144
 31
0.0
  0
LINE
  5
49
330
22
100
AcDbEntity
  8
0
100
AcDbLine
 10
22.59973089678116
 20
-9.771599258481472
 30
0.0
 11
23.67152766650562
 21
-13.77159925848147
 31
0.0
  0
ARC
  5
4A
330
22
100
AcDbEntity
  8
0
100
AcDbCircle
 10
22.59973089678116
 20
-7.271599258481472
 30
0.0
 40
2.5
100
AcDbArc
 50
270.0
 51
270.0000000000007
  0
LINE
  5
4B
330
22
100
AcDbEntity
  8
0
100
AcDbLine
 10
28.77130377203494
 20
-12.77159925848147
 30
0.0
 11
24.43885465448463
 21
-12.77159925848144
 31
0.0
  0
LINE
  5
4C
330
22
100
AcDbEntity
  8
0
100
AcDbLine
 10
3.599730896781125
 20
-4.771599258481472
 30
0.0
 11
2.599730896781125
 21
-4.771599258481472
 31
0.0
  0
LINE
  5
4D
330
22
100
AcDbEntity
  8
0
100
AcDbLine
 10
22.59973089678116
 20
-8.771599258481472
 30
0.0
 11
18.59973089678115
 21
-8.771599258481472
 31
0.0
  0
LINE
  5
4E
330
22
100
AcDbEntity
  8
0
100
AcDbLine
 10
22.59973089678116
 20
-5.771599258481472
 30
0.0
 11
18.59973089678115
 21
-5.771599258481472
 31
0.0
  0
LINE
  5
4F
330
22
100
AcDbEntity
  8
0
100
AcDbLine
 10
22.59973089678116
 20
-4.771599258481472
 30
0.0
 11
17.59973089678115
 21
-4.771599258481472
 31
0.0
  0
LINE
  5
50
330
22
100
AcDbEntity
  8
0
100
AcDbLine
 10
18.59973089678115
 20
-5.771599258481472
 30
0.0
 11
18.59973089678115
 21
-8.771599258481472
 31
0.0
  0
ARC
  5
51
330
22
100
AcDbEntity
  8
0
100
AcDbCircle
 10
22.59973089678116
 20
-7.271599258481472
 30
0.0
 40
1.5
100
AcDbArc
 50
270.0
 51
90.0
  0
ENDBLK
  5
52
330
22
100
AcDbEntity
  8
0
100
AcDbBlockEnd
  0
BLOCK
  5
ED7
330
ECC
100
AcDbEntity
  8
0
100
AcDbBlockBegin
  2
*D1
 70
     1
 10
0.0
 20
0.0
 30
0.0
  3
*D1
  1

  0
LINE
  5
186A
330
ECC
100
AcDbEntity
  8
BEM
 62
     0
370
    -2
100
AcDbLine
 10
73.42343682469754
 20
446.9938426144674
 30
0.0
 11
73.42343682469754
 21
473.5616326994952
 31
0.0
  0
LINE
  5
186B
330
ECC
100
AcDbEntity
  8
BEM
 62
     0
370
    -2
100
AcDbLine
 10
365.4234368246975
 20
446.9938426144674
 30
0.0
 11
365.4234368246975
 21
473.5616326994952
 31
0.0
  0
LINE
  5
186C
330
ECC
100
AcDbEntity
  8
BEM
 62
     0
370
    -2
100
AcDbLine
 10
80.42343682469754
 20
471.5616326994951
 30
0.0
 11
358.4234368246975
 21
471.5616326994951
 31
0.0
  0
SOLID
  5
186D
330
ECC
100
AcDbEntity
  8
BEM
 62
     0
100
AcDbTrace
 10
80.42343682469754
 20
472.7282993661618
 30
0.0
 11
80.42343682469754
 21
470.3949660328285
 31
0.0
 12
73.42343682469754
 22
471.5616326994951
 32
0.0
 13
73.42343682469754
 23
471.5616326994951
 33
0.0
  0
SOLID
  5
186E
330
ECC
100
AcDbEntity
  8
BEM
 62
     0
100
AcDbTrace
 10
358.4234368246975
 20
472.7282993661618
 30
0.0
 11
358.4234368246975
 21
470.3949660328285
 31
0.0
 12
365.4234368246975
 22
471.5616326994951
 32
0.0
 13
365.4234368246975
 23
471.5616326994951
 33
0.0
  0
MTEXT
  5
186F
330
ECC
100
AcDbEntity
  8
BEM
 62
     1
100
AcDbMText
 10
219.4234368246975
 20
478.0616326994952
 30
0.0
 40
7.0
 41
0.0
 71
     5
 72
     1
  1
\A1;%%C292
 73
     1
 44
1.0
  0
POINT
  5
1870
330
ECC
100
AcDbEntity
  8
DEFPOINTS
 62
     0
100
AcDbPoint
 10
73.42343682469754
 20
444.9938426144674
 30
0.0
  0
POINT
  5
1871
330
ECC
100
AcDbEntity
  8
DEFPOINTS
 62
     0
100
AcDbPoint
 10
365.4234368246975
 20
444.9938426144674
 30
0.0
  0
POINT
  5
1872
330
ECC
100
AcDbEntity
  8
DEFPOINTS
 62
     0
100
AcDbPoint
 10
365.4234368246975
 20
471.5616326994951
 30
0.0
  0
ENDBLK
  5
ED8
330
ECC
100
AcDbEntity
  8
0
100
AcDbBlockEnd
  0
BLOCK
  5
1761
330
1757
100
AcDbEntity
  8
0
100
AcDbBlockBegin
  2
*D2
 70
     1
 10
0.0
 20
0.0
 30
0.0
  3
*D2
  1

  0
LINE
  5
178A
330
1757
100
AcDbEntity
  8
BEM
 62
     0
370
    -2
100
AcDbLine
 10
182.9234368246975
 20
199.9938426144675
 30
0.0
 11
182.9234368246975
 21
167.8700810231857
 31
0.0
  0
LINE
  5
178B
330
1757
100
AcDbEntity
  8
BEM
 62
     0
370
    -2
100
AcDbLine
 10
255.9234368246963
 20
199.9938426144675
 30
0.0
 11
255.9234368246963
 21
167.8700810231857
 31
0.0
  0
LINE
  5
178C
330
1757
100
AcDbEntity
  8
BEM
 62
     0
370
    -2
100
AcDbLine
 10
189.9234368246976
 20
169.8700810231857
 30
0.0
 11
248.9234368246963
 21
169.8700810231857
 31
0.0
  0
SOLID
  5
178D
330
1757
100
AcDbEntity
  8
BEM
 62
     0
100
AcDbTrace
 10
189.9234368246976
 20
171.0367476898524
 30
0.0
 11
189.9234368246976
 21
168.7034143565191
 31
0.0
 12
182.9234368246975
 22
169.8700810231857
 32
0.0
 13
182.9234368246975
 23
169.8700810231857
 33
0.0
  0
SOLID
  5
178E
330
1757
100
AcDbEntity
  8
BEM
 62
     0
100
AcDbTrace
 10
248.9234368246963
 20
171.0367476898524
 30
0.0
 11
248.9234368246963
 21
168.7034143565191
 31
0.0
 12
255.9234368246963
 22
169.8700810231857
 32
0.0
 13
255.9234368246963
 23
169.8700810231857
 33
0.0
  0
MTEXT
  5
178F
330
1757
100
AcDbEntity
  8
BEM
 62
     1
100
AcDbMText
 10
219.4234368246969
 20
176.3700810231858
 30
0.0
 40
7.0
 41
0.0
 71
     5
 72
     1
  1
\A1;%%c73
 73
     1
 44
1.0
  0
POINT
  5
1790
330
1757
100
AcDbEntity
  8
DEFPOINTS
 62
     0
100
AcDbPoint
 10
182.9234368246975
 20
201.9938426144675
 30
0.0
  0
POINT
  5
1791
330
1757
100
AcDbEntity
  8
DEFPOINTS
 62
     0
100
AcDbPoint
 10
255.9234368246963
 20
201.9938426144675
 30
0.0
  0
POINT
  5
1792
330
1757
100
AcDbEntity
  8
DEFPOINTS
 62
     0
100
AcDbPoint
 10
255.9234368246963
 20
169.8700810231857
 30
0.0
  0
ENDBLK
  5
1762
330
1757
100
AcDbEntity
  8
0
100
AcDbBlockEnd
  0
BLOCK
  5
176D
330
1763
100
AcDbEntity
  8
0
100
AcDbBlockBegin
  2
*D3
 70
     1
 10
0.0
 20
0.0
 30
0.0
  3
*D3
  1

  0
LINE
  5
1781
330
1763
100
AcDbEntity
  8
BEM
 62
     0
370
    -2
100
AcDbLine
 10
71.42343682469754
 20
444.9938426144674
 30
0.0
 11
61.79528060521628
 21
444.9938426144674
 31
0.0
  0
LINE
  5
1782
330
1763
100
AcDbEntity
  8
BEM
 62
     0
370
    -2
100
AcDbLine
 10
181.535857469379
 20
194.9938426144675
 30
0.0
 11
61.79528060521622
 21
194.9938426144675
 31
0.0
  0
LINE
  5
1783
330
1763
100
AcDbEntity
  8
BEM
 62
     0
370
    -2
100
AcDbLine
 10
63.79528060521628
 20
437.9938426144674
 30
0.0
 11
63.79528060521622
 21
201.9938426144676
 31
0.0
  0
SOLID
  5
1784
330
1763
100
AcDbEntity
  8
BEM
 62
     0
100
AcDbTrace
 10
62.62861393854961
 20
437.9938426144674
 30
0.0
 11
64.96194727188295
 21
437.9938426144674
 31
0.0
 12
63.79528060521628
 22
444.9938426144674
 32
0.0
 13
63.79528060521628
 23
444.9938426144674
 33
0.0
  0
SOLID
  5
1785
330
1763
100
AcDbEntity
  8
BEM
 62
     0
100
AcDbTrace
 10
62.62861393854955
 20
201.9938426144676
 30
0.0
 11
64.96194727188289
 21
201.9938426144675
 31
0.0
 12
63.79528060521622
 22
194.9938426144675
 32
0.0
 13
63.79528060521622
 23
194.9938426144675
 33
0.0
  0
MTEXT
  5
1786
330
1763
100
AcDbEntity
  8
BEM
 62
     1
100
AcDbMText
 10
57.29528060521619
 20
319.9938426144675
 30
0.0
 40
7.0
 41
0.0
 71
     5
 72
     1
  1
\A1;250
 11
0.0000000000000001
 21
1.0
 31
0.0
 73
     1
 44
1.0
  0
POINT
  5
1787
330
1763
100
AcDbEntity
  8
DEFPOINTS
 62
     0
100
AcDbPoint
 10
73.42343682469754
 20
444.9938426144674
 30
0.0
  0
POINT
  5
1788
330
1763
100
AcDbEntity
  8
DEFPOINTS
 62
     0
100
AcDbPoint
 10
183.535857469379
 20
194.9938426144675
 30
0.0
  0
POINT
  5
1789
330
1763
100
AcDbEntity
  8
DEFPOINTS
 62
     0
100
AcDbPoint
 10
63.79528060521622
 20
194.9938426144675
 30
0.0
  0
ENDBLK
  5
176E
330
1763
100
AcDbEntity
  8
0
100
AcDbBlockEnd
  0
BLOCK
  5
1823
330
1819
100
AcDbEntity
  8
0
100
AcDbBlockBegin
  2
*D4
 70
     1
 10
0.0
 20
0.0
 30
0.0
  3
*D4
  1

  0
LINE
  5
1861
330
1819
100
AcDbEntity
  8
BEM
 62
     0
370
    -2
100
AcDbLine
 10
144.4234368246977
 20
419.833675823343
 30
0.0
 11
144.4234368246977
 21
459.5766107755279
 31
0.0
  0
LINE
  5
1862
330
1819
100
AcDbEntity
  8
BEM
 62
     0
370
    -2
100
AcDbLine
 10
294.4234368246979
 20
419.8336758233433
 30
0.0
 11
294.4234368246979
 21
459.5766107755279
 31
0.0
  0
LINE
  5
1863
330
1819
100
AcDbEntity
  8
BEM
 62
     0
370
    -2
100
AcDbLine
 10
151.4234368246977
 20
457.576610775528
 30
0.0
 11
287.4234368246979
 21
457.576610775528
 31
0.0
  0
SOLID
  5
1864
330
1819
100
AcDbEntity
  8
BEM
 62
     0
100
AcDbTrace
 10
151.4234368246977
 20
458.7432774421946
 30
0.0
 11
151.4234368246977
 21
456.4099441088613
 31
0.0
 12
144.4234368246977
 22
457.576610775528
 32
0.0
 13
144.4234368246977
 23
457.576610775528
 33
0.0
  0
SOLID
  5
1865
330
1819
100
AcDbEntity
  8
BEM
 62
     0
100
AcDbTrace
 10
287.4234368246979
 20
458.7432774421946
 30
0.0
 11
287.4234368246979
 21
456.4099441088613
 31
0.0
 12
294.4234368246979
 22
457.576610775528
 32
0.0
 13
294.4234368246979
 23
457.576610775528
 33
0.0
  0
MTEXT
  5
1866
330
1819
100
AcDbEntity
  8
BEM
 62
     1
100
AcDbMText
 10
219.4234368246978
 20
464.0766107755279
 30
0.0
 40
7.0
 41
0.0
 71
     5
 72
     1
  1
\A1;%%c150
  7
GREEKS
 73
     1
 44
1.0
  0
POINT
  5
1867
330
1819
100
AcDbEntity
  8
DEFPOINTS
 62
     0
100
AcDbPoint
 10
144.4234368246977
 20
417.833675823343
 30
0.0
  0
POINT
  5
1868
330
1819
100
AcDbEntity
  8
DEFPOINTS
 62
     0
100
AcDbPoint
 10
294.4234368246979
 20
417.8336758233433
 30
0.0
  0
POINT
  5
1869
330
1819
100
AcDbEntity
  8
DEFPOINTS
 62
     0
100
AcDbPoint
 10
294.4234368246979
 20
457.576610775528
 30
0.0
  0
ENDBLK
  5
1824
330
1819
100
AcDbEntity
  8
0
100
AcDbBlockEnd
  0
BLOCK
  5
182F
330
1825
100
AcDbEntity
  8
0
100
AcDbBlockBegin
  2
*D5
 70
     1
 10
0.0
 20
0.0
 30
0.0
  3
*D5
  1

  0
LINE
  5
1858
330
1825
100
AcDbEntity
  8
BEM
 62
     0
370
    -2
100
AcDbLine
 10
142.4234368246977
 20
417.833675823343
 30
0.0
 11
81.01283614670432
 21
417.833675823343
 31
0.0
  0
LINE
  5
1859
330
1825
100
AcDbEntity
  8
BEM
 62
     0
370
    -2
100
AcDbLine
 10
152.4258921901759
 20
257.833675823343
 30
0.0
 11
81.01283614670427
 21
257.8336758233431
 31
0.0
  0
LINE
  5
185A
330
1825
100
AcDbEntity
  8
BEM
 62
     0
370
    -2
100
AcDbLine
 10
83.01283614670429
 20
410.8336758233431
 30
0.0
 11
83.01283614670428
 21
264.8336758233431
 31
0.0
  0
SOLID
  5
185B
330
1825
100
AcDbEntity
  8
BEM
 62
     0
100
AcDbTrace
 10
81.84616948003762
 20
410.8336758233431
 30
0.0
 11
84.17950281337096
 21
410.8336758233431
 31
0.0
 12
83.01283614670431
 22
417.833675823343
 32
0.0
 13
83.01283614670431
 23
417.833675823343
 33
0.0
  0
SOLID
  5
185C
330
1825
100
AcDbEntity
  8
BEM
 62
     0
100
AcDbTrace
 10
81.8461694800376
 20
264.8336758233431
 30
0.0
 11
84.17950281337095
 21
264.8336758233431
 31
0.0
 12
83.01283614670428
 22
257.8336758233431
 32
0.0
 13
83.01283614670428
 23
257.8336758233431
 33
0.0
  0
MTEXT
  5
185D
330
1825
100
AcDbEntity
  8
BEM
 62
     1
100
AcDbMText
 10
76.51283614670423
 20
337.8336758233431
 30
0.0
 40
7.0
 41
0.0
 71
     5
 72
     1
  1
\A1;160
  7
GREEKS
 11
0.0000000000000001
 21
1.0
 31
0.0
 73
     1
 44
1.0
  0
POINT
  5
185E
330
1825
100
AcDbEntity
  8
DEFPOINTS
 62
     0
100
AcDbPoint
 10
144.4234368246977
 20
417.833675823343
 30
0.0
  0
POINT
  5
185F
330
1825
100
AcDbEntity
  8
DEFPOINTS
 62
     0
100
AcDbPoint
 10
154.4258921901759
 20
257.833675823343
 30
0.0
  0
POINT
  5
1860
330
1825
100
AcDbEntity
  8
DEFPOINTS
 62
     0
100
AcDbPoint
 10
83.01283614670428
 20
257.8336758233431
 30
0.0
  0
ENDBLK
  5
1830
330
1825
100
AcDbEntity
  8
0
100
AcDbBlockEnd
  0
BLOCK
  5
183B
330
1831
100
AcDbEntity
  8
0
100
AcDbBlockBegin
  2
*D6
 70
     1
 10
0.0
 20
0.0
 30
0.0
  3
*D6
  1

  0
LINE
  5
1878
330
1831
100
AcDbEntity
  8
BEM
 62
     0
370
    -2
100
AcDbLine
 10
154.4258921901759
 20
255.833675823343
 30
0.0
 11
154.4258921901759
 21
238.2851771286
 31
0.0
  0
LINE
  5
1879
330
1831
100
AcDbEntity
  8
BEM
 62
     0
370
    -2
100
AcDbLine
 10
284.4209814592193
 20
255.8336758233413
 30
0.0
 11
284.4209814592193
 21
238.2851771286
 31
0.0
  0
LINE
  5
187A
330
1831
100
AcDbEntity
  8
BEM
 62
     0
370
    -2
100
AcDbLine
 10
161.4258921901759
 20
240.2851771286
 30
0.0
 11
277.4209814592193
 21
240.2851771286
 31
0.0
  0
SOLID
  5
187B
330
1831
100
AcDbEntity
  8
BEM
 62
     0
100
AcDbTrace
 10
161.4258921901759
 20
241.4518437952666
 30
0.0
 11
161.4258921901759
 21
239.1185104619333
 31
0.0
 12
154.4258921901759
 22
240.2851771286
 32
0.0
 13
154.4258921901759
 23
240.2851771286
 33
0.0
  0
SOLID
  5
187C
330
1831
100
AcDbEntity
  8
BEM
 62
     0
100
AcDbTrace
 10
277.4209814592193
 20
241.4518437952666
 30
0.0
 11
277.4209814592193
 21
239.1185104619333
 31
0.0
 12
284.4209814592193
 22
240.2851771286
 32
0.0
 13
284.4209814592193
 23
240.2851771286
 33
0.0
  0
MTEXT
  5
187D
330
1831
100
AcDbEntity
  8
BEM
 62
     1
100
AcDbMText
 10
219.4234368246976
 20
246.7851771285999
 30
0.0
 40
7.0
 41
0.0
 71
     5
 72
     1
  1
\A1;%%c130
  7
GREEKS
 73
     1
 44
1.0
  0
POINT
  5
187E
330
1831
100
AcDbEntity
  8
DEFPOINTS
 62
     0
100
AcDbPoint
 10
154.4258921901759
 20
257.833675823343
 30
0.0
  0
POINT
  5
187F
330
1831
100
AcDbEntity
  8
DEFPOINTS
 62
     0
100
AcDbPoint
 10
284.4209814592193
 20
257.8336758233413
 30
0.0
  0
POINT
  5
1880
330
1831
100
AcDbEntity
  8
DEFPOINTS
 62
     0
100
AcDbPoint
 10
284.4209814592193
 20
240.2851771286
 30
0.0
  0
ENDBLK
  5
183C
330
1831
100
AcDbEntity
  8
0
100
AcDbBlockEnd
  0
BLOCK
  5
18B3
330
18A9
100
AcDbEntity
  8
0
100
AcDbBlockBegin
  2
*D7
 70
     1
 10
0.0
 20
0.0
 30
0.0
  3
*D7
  1

  0
LINE
  5
18BE
330
18A9
100
AcDbEntity
  8
BEM
 62
     0
370
    -2
100
AcDbLine
 10
181.535857469379
 20
194.9938426144675
 30
0.0
 11
81.01283614670427
 21
194.9938426144675
 31
0.0
  0
LINE
  5
18BF
330
18A9
100
AcDbEntity
  8
BEM
 62
     0
370
    -2
100
AcDbLine
 10
152.4258921901759
 20
257.833675823343
 30
0.0
 11
81.01283614670427
 21
257.8336758233431
 31
0.0
  0
LINE
  5
18C0
330
18A9
100
AcDbEntity
  8
BEM
 62
     0
370
    -2
100
AcDbLine
 10
83.01283614670426
 20
201.9938426144675
 30
0.0
 11
83.01283614670428
 21
250.8336758233431
 31
0.0
  0
SOLID
  5
18C1
330
18A9
100
AcDbEntity
  8
BEM
 62
     0
100
AcDbTrace
 10
81.84616948003759
 20
201.9938426144675
 30
0.0
 11
84.17950281337093
 21
201.9938426144675
 31
0.0
 12
83.01283614670426
 22
194.9938426144675
 32
0.0
 13
83.01283614670426
 23
194.9938426144675
 33
0.0
  0
SOLID
  5
18C2
330
18A9
100
AcDbEntity
  8
BEM
 62
     0
100
AcDbTrace
 10
81.8461694800376
 20
250.8336758233431
 30
0.0
 11
84.17950281337095
 21
250.8336758233431
 31
0.0
 12
83.01283614670428
 22
257.8336758233431
 32
0.0
 13
83.01283614670428
 23
257.8336758233431
 33
0.0
  0
MTEXT
  5
18C3
330
18A9
100
AcDbEntity
  8
BEM
 62
     1
100
AcDbMText
 10
76.51283614670423
 20
226.4137592189053
 30
0.0
 40
7.0
 41
0.0
 71
     5
 72
     1
  1
\A1;63
 11
0.0000000000000001
 21
1.0
 31
0.0
 73
     1
 44
1.0
  0
POINT
  5
18C4
330
18A9
100
AcDbEntity
  8
DEFPOINTS
 62
     0
100
AcDbPoint
 10
183.535857469379
 20
194.9938426144675
 30
0.0
  0
POINT
  5
18C5
330
18A9
100
AcDbEntity
  8
DEFPOINTS
 62
     0
100
AcDbPoint
 10
154.4258921901759
 20
257.833675823343
 30
0.0
  0
POINT
  5
18C6
330
18A9
100
AcDbEntity
  8
DEFPOINTS
 62
     0
100
AcDbPoint
 10
83.01283614670428
 20
257.8336758233431
 30
0.0
  0
ENDBLK
  5
18B4
330
18A9
100
AcDbEntity
  8
0
100
AcDbBlockEnd
  0
ENDSEC
  0
SECTION
  2
ENTITIES
  0
LINE
  5
57
330
1E
100
AcDbEntity
  8
STEMPEL
100
AcDbLine
 10
410.0
 20
110.0
 30
0.0
 11
39.99999999999997
 21
110.0
 31
0.0
  0
LINE
  5
58
330
1E
100
AcDbEntity
  8
STEMPEL
100
AcDbLine
 10
136.0000000000001
 20
109.9999999999999
 30
0.0
 11
136.0
 21
9.999999999999971
 31
0.0
  0
LINE
  5
59
330
1E
100
AcDbEntity
  8
STEMPEL
100
AcDbLine
 10
220.0
 20
110.0
 30
0.0
 11
220.0
 21
9.999999999999971
 31
0.0
  0
LINE
  5
5A
330
1E
100
AcDbEntity
  8
STEMPEL
100
AcDbLine
 10
332.0
 20
109.9999999999997
 30
0.0
 11
332.0
 21
40.0
 31
0.0
  0
LINE
  5
5B
330
1E
100
AcDbEntity
  8
STEMPEL
100
AcDbLine
 10
135.9999999999999
 20
29.99999999999997
 30
0.0
 11
39.99999999999997
 21
29.99999999999997
 31
0.0
  0
LINE
  5
5C
330
1E
100
AcDbEntity
  8
STEMPEL
100
AcDbLine
 10
410.0
 20
40.0
 30
0.0
 11
136.0000000000001
 21
39.99999999999997
 31
0.0
  0
LINE
  5
5D
330
1E
100
AcDbEntity
  8
STEMPEL
100
AcDbLine
 10
410.0
 20
80.0
 30
0.0
 11
136.0000000000001
 21
79.99999999999994
 31
0.0
  0
LINE
  5
5E
330
1E
100
AcDbEntity
  8
VOLL
100
AcDbLine
 10
54.00000000000009
 20
110.0
 30
0.0
 11
53.99999999999997
 21
9.999999999999971
 31
0.0
  0
LINE
  5
5F
330
1E
100
AcDbEntity
  8
VOLL
100
AcDbLine
 10
94.00000000000011
 20
109.9999999999999
 30
0.0
 11
94.0
 21
9.999999999999971
 31
0.0
  0
LINE
  5
60
330
1E
100
AcDbEntity
  8
VOLL
100
AcDbLine
 10
114.0000000000001
 20
109.9999999999999
 30
0.0
 11
114.0
 21
9.999999999999971
 31
0.0
  0
LINE
  5
61
330
1E
100
AcDbEntity
  8
VOLL
100
AcDbLine
 10
154.0000000000001
 20
79.99999999999994
 30
0.0
 11
154.0000000000001
 21
39.99999999999997
 31
0.0
  0
LINE
  5
62
330
1E
100
AcDbEntity
  8
VOLL
100
AcDbLine
 10
180.0000000000001
 20
109.9999999999998
 30
0.0
 11
180.0
 21
39.99999999999997
 31
0.0
  0
LINE
  5
63
330
1E
100
AcDbEntity
  8
HILF
100
AcDbLine
 10
40.00000000000008
 20
100.0
 30
0.0
 11
136.0000000000001
 21
100.0
 31
0.0
  0
LINE
  5
64
330
1E
100
AcDbEntity
  8
HILF
100
AcDbLine
 10
40.00000000000008
 20
90.00000000000005
 30
0.0
 11
136.0000000000001
 21
90.00000000000005
 31
0.0
  0
LINE
  5
65
330
1E
100
AcDbEntity
  8
HILF
100
AcDbLine
 10
40.00000000000008
 20
79.99999999999994
 30
0.0
 11
136.0000000000001
 21
79.99999999999994
 31
0.0
  0
LINE
  5
66
330
1E
100
AcDbEntity
  8
HILF
100
AcDbLine
 10
40.00000000000008
 20
69.99999999999994
 30
0.0
 11
136.0000000000001
 21
69.99999999999994
 31
0.0
  0
LINE
  5
67
330
1E
100
AcDbEntity
  8
HILF
100
AcDbLine
 10
40.00000000000008
 20
59.99999999999997
 30
0.0
 11
136.0000000000001
 21
59.99999999999997
 31
0.0
  0
LINE
  5
68
330
1E
100
AcDbEntity
  8
HILF
100
AcDbLine
 10
40.00000000000008
 20
49.99999999999997
 30
0.0
 11
136.0000000000001
 21
49.99999999999997
 31
0.0
  0
LINE
  5
69
330
1E
100
AcDbEntity
  8
HILF
100
AcDbLine
 10
40.00000000000008
 20
39.99999999999997
 30
0.0
 11
136.0000000000001
 21
39.99999999999997
 31
0.0
  0
LINE
  5
6A
330
1E
100
AcDbEntity
  8
HILF
100
AcDbLine
 10
136.0000000000001
 20
69.99999999999994
 30
0.0
 11
220.0
 21
69.99999999999994
 31
0.0
  0
LINE
  5
6B
330
1E
100
AcDbEntity
  8
HILF
100
AcDbLine
 10
136.0000000000001
 20
59.99999999999997
 30
0.0
 11
220.0
 21
59.99999999999997
 31
0.0
  0
LINE
  5
6C
330
1E
100
AcDbEntity
  8
HILF
100
AcDbLine
 10
136.0000000000001
 20
49.99999999999997
 30
0.0
 11
220.0
 21
49.99999999999997
 31
0.0
  0
LINE
  5
6D
330
1E
100
AcDbEntity
  8
HILF
100
AcDbLine
 10
224.7736801096948
 20
84.03758247564139
 30
0.0
 11
324.8353916556311
 21
84.03758247564139
 31
0.0
  0
LINE
  5
6E
330
1E
100
AcDbEntity
  8
HILF
100
AcDbLine
 10
224.7736801096948
 20
69.99999999999994
 30
0.0
 11
324.835391655631
 21
69.99999999999994
 31
0.0
  0
LINE
  5
6F
330
1E
100
AcDbEntity
  8
HILF
100
AcDbLine
 10
224.7736801096948
 20
59.99999999999997
 30
0.0
 11
324.835391655631
 21
59.99999999999997
 31
0.0
  0
LINE
  5
70
330
1E
100
AcDbEntity
  8
HILF
100
AcDbLine
 10
224.7736801096948
 20
49.99999999999997
 30
0.0
 11
324.835391655631
 21
49.99999999999997
 31
0.0
  0
LINE
  5
71
330
1E
100
AcDbEntity
  8
VOLL
100
AcDbLine
 10
332.0
 20
60.0
 30
0.0
 11
410.0
 21
60.0
 31
0.0
  0
LINE
  5
72
330
1E
100
AcDbEntity
  8
HILF
100
AcDbLine
 10
336.7238616296993
 20
83.77983636955827
 30
0.0
 11
404.8588839326728
 21
83.77983636955827
 31
0.0
  0
LINE
  5
73
330
1E
100
AcDbEntity
  8
HILF
100
AcDbLine
 10
223.4909699289885
 20
14.89398258028314
 30
0.0
 11
404.8588839326728
 21
14.89398258028314
 31
0.0
  0
TEXT
  5
74
330
1E
100
AcDbEntity
  8
TEXT
100
AcDbText
 10
63.86165979631819
 20
18.67381894984132
 30
0.0
 40
4.0
  1
Änderung
 41
0.8
  7
GREEKS
 72
     1
 11
74.60451693917534
 21
18.67381894984132
 31
0.0
100
AcDbText
  0
TEXT
  5
75
330
1E
100
AcDbEntity
  8
TEXT
100
AcDbText
 10
143.5163572150377
 20
102.4620895087088
 30
0.0
 40
5.0
  1
Maßstab
 41
0.8
  7
GREEKS
100
AcDbText
  0
TEXT
  5
76
330
1E
100
AcDbEntity
  8
TEXT
100
AcDbText
 10
184.2858954734051
 20
102.4184168434819
 30
0.0
 40
5.0
  1
Zul. Abw.
 41
0.8
  7
GREEKS
100
AcDbText
  0
TEXT
  5
77
330
1E
100
AcDbEntity
  8
TEXT
100
AcDbText
 10
224.877940380901
 20
102.5489328011779
 30
0.0
 40
5.0
  1
Benennung
 41
0.8
  7
GREEKS
100
AcDbText
  0
TEXT
  5
78
330
1E
100
AcDbEntity
  8
TEXT
100
AcDbText
 10
336.178754957634
 20
102.3132034537136
 30
0.0
 40
5.0
  1
Zeichnungs Nr.
 41
0.8
  7
GREEKS
100
AcDbText
  0
TEXT
  5
79
330
1E
100
AcDbEntity
  8
TEXT
100
AcDbText
 10
224.742238391136
 20
30.84560570193057
 30
0.0
 40
5.0
  1
Bauvorhaben
 41
0.8
  7
GREEKS
100
AcDbText
  0
TEXT
  5
7A
330
1E
100
AcDbEntity
  8
TEXT
100
AcDbText
 10
336.7238616296993
 20
73.1811823709997
 30
0.0
 40
5.0
  1
Ersatz für:
 41
0.8
  7
GREEKS
100
AcDbText
  0
TEXT
  5
7B
330
1E
100
AcDbEntity
  8
TEXT
100
AcDbText
 10
48.26641107045756
 20
13.65465846027192
 30
0.0
 40
4.0
  1
Index
 50
90.0
 41
0.8
  7
GREEKS
100
AcDbText
  0
TEXT
  5
7C
330
1E
100
AcDbEntity
  8
TEXT
100
AcDbText
 10
100.0934676075481
 20
18.6715626933981
 30
0.0
 40
4.0
  1
Tag
 41
0.8
  7
GREEKS
 72
     1
 11
103.8268009408814
 21
18.6715626933981
 31
0.0
100
AcDbText
  0
TEXT
  5
7D
330
1E
100
AcDbEntity
  8
TEXT
100
AcDbText
 10
119.0122744386592
 20
18.59324216966408
 30
0.0
 40
4.0
  1
Name
 41
0.8
  7
GREEKS
 72
     1
 11
125.3360839624688
 21
18.59324216966408
 31
0.0
100
AcDbText
  0
TEXT
  5
7E
330
1E
100
AcDbEntity
  8
TEXT
100
AcDbText
 10
162.3311673153651
 20
73.31880501229926
 30
0.0
 40
4.0
  1
Tag
 41
0.8
  7
GREEKS
100
AcDbText
  0
TEXT
  5
7F
330
1E
100
AcDbEntity
  8
TEXT
100
AcDbText
 10
192.4626584226295
 20
73.30961091915225
 30
0.0
 40
4.0
  1
Name
 41
0.8
  7
GREEKS
100
AcDbText
  0
TEXT
  5
80
330
1E
100
AcDbEntity
  8
TEXT
100
AcDbText
 10
137.5836127167615
 20
63.62990369617964
 30
0.0
 40
4.0
  1
Gez.
 41
0.8
  7
GREEKS
100
AcDbText
  0
TEXT
  5
81
330
1E
100
AcDbEntity
  8
TEXT
100
AcDbText
 10
137.5515086571672
 20
53.68926291428377
 30
0.0
 40
4.0
  1
Gepr.
 41
0.8
  7
GREEKS
100
AcDbText
  0
TEXT
  5
82
330
1E
100
AcDbEntity
  8
TEXT
100
AcDbText
 10
137.6006777387304
 20
43.52946389649807
 30
0.0
 40
4.0
  1
Norm.
 41
0.8
  7
GREEKS
100
AcDbText
  0
LINE
  5
83
330
1E
100
AcDbEntity
  8
STEMPEL
100
AcDbLine
 10
49.99999999999989
 20
10.0
 30
0.0
 11
410.0
 21
10.0
 31
0.0
  0
TEXT
  5
84
330
1E
100
AcDbEntity
  8
TEXT
100
AcDbText
 10
337.2400861497006
 20
52.07416177878602
 30
0.0
 40
5.0
  1
ersetzt durch:
 41
0.8
  7
GREEKS
100
AcDbText
  0
LINE
  5
85
330
1E
100
AcDbEntity
  8
STEMPEL
100
AcDbLine
 10
410.0
 20
10.0
 30
0.0
 11
39.99999999999989
 21
10.0
 31
0.0
  0
LINE
  5
86
330
1E
100
AcDbEntity
  8
STEMPEL
100
AcDbLine
 10
410.0
 20
10.0
 30
0.0
 11
410.0
 21
584.0
 31
0.0
  0
LINE
  5
87
330
1E
100
AcDbEntity
  8
STEMPEL
100
AcDbLine
 10
40.0
 20
10.0
 30
0.0
 11
39.99999999999989
 21
584.0
 31
0.0
  0
LINE
  5
88
330
1E
100
AcDbEntity
  8
STEMPEL
100
AcDbLine
 10
410.0
 20
584.0
 30
0.0
 11
39.99999999999989
 21
584.0
 31
0.0
  0
LINE
  5
89
330
1E
100
AcDbEntity
  8
HILF
100
AcDbLine
 10
0.0
 20
0.0
 30
0.0
 11
-0.0000000000001137
 21
594.0
 31
0.0
  0
LINE
  5
8A
330
1E
100
AcDbEntity
  8
HILF
100
AcDbLine
 10
419.9999999999999
 20
594.0000000000002
 30
0.0
 11
0.0
 21
594.0
 31
0.0
  0
LINE
  5
8B
330
1E
100
AcDbEntity
  8
HILF
100
AcDbLine
 10
420.0
 20
0.0
 30
0.0
 11
0.0
 21
0.0
 31
0.0
  0
LINE
  5
8C
330
1E
100
AcDbEntity
  8
HILF
100
AcDbLine
 10
31.08767135713856
 20
297.0
 30
0.0
 11
0.0000000000001137
 21
297.0
 31
0.0
  0
TEXT
  5
8D
330
1E
100
AcDbEntity
  8
TEXT
100
AcDbText
 10
138.622109822104
 20
73.14025471151666
 30
0.0
 40
4.0
  1
2012
 41
0.8
  7
GREEKS
100
AcDbText
  0
LINE
  5
8E
330
1E
100
AcDbEntity
  8
HILF
100
AcDbLine
 10
420.0
 20
-0.0000000000001137
 30
0.0
 11
419.9999999999999
 21
594.0
 31
0.0
  0
TEXT
  5
8F
330
1E
100
AcDbEntity
  8
VOLL
100
AcDbText
 10
78.07675471698113
 20
31.02594776470585
 30
0.0
 40
1.8
  1

  7
GREEKS
100
AcDbText
  0
TEXT
  5
90
330
1E
100
AcDbEntity
  8
TEXT
100
AcDbText
 10
41.85509950977674
 20
111.6719999999999
 30
0.0
 40
5.0
  1
Erstellt mit AUTOCAD 2004
 41
0.8
  7
GREEKS
100
AcDbText
  0
TEXT
  5
91
330
1E
100
AcDbEntity
  8
TEXT
100
AcDbText
 10
194.4216048581257
 20
63.0896391972351
 30
0.0
 40
4.0
  1
Koeh
 41
0.8
  7
GREEKS
 72
     1
 11
199.6787477152685
 21
63.0896391972351
 31
0.0
100
AcDbText
  0
TEXT
  5
92
330
1E
100
AcDbEntity
  8
TEXT
 62
     1
100
AcDbText
 10
346.687434236943
 20
88.14901428913959
 30
0.0
 40
7.0
  1
19232070W
 41
0.8
  7
GREEKS
 72
     1
 11
370.1541009036097
 21
88.14901428913959
 31
0.0
100
AcDbText
  0
TEXT
  5
93
330
1E
100
AcDbEntity
  8
TEXT
 62
     1
100
AcDbText
 10
150.5006306481887
 20
88.14901428913959
 30
0.0
 40
7.0
  1
1:2
 41
0.8
  7
GREEKS
100
AcDbText
  0
TEXT
  5
94
330
1E
100
AcDbEntity
  8
TEXT
100
AcDbText
 10
160.7037590129979
 20
63.10765040825732
 30
0.0
 40
4.0
  1
15.06.
 41
0.8
  7
GREEKS
 72
     1
 11
167.4085209177598
 21
63.10765040825732
 31
0.0
100
AcDbText
  0
TEXT
  5
95
330
1E
100
AcDbEntity
  8
TEXT
 62
     1
100
AcDbText
 10
226.8935731057402
 20
87.41748789253779
 30
0.0
 40
7.0
  1
Grundeinheit DN70
 41
0.8
  7
GREEKS
100
AcDbText
  0
TEXT
  5
96
330
1E
100
AcDbEntity
  8
TEXT
100
AcDbText
 10
225.1296391125315
 20
71.50334417585288
 30
0.0
 40
5.0
  1

 41
0.8
  7
GREEKS
100
AcDbText
  0
TEXT
  5
98
330
1E
100
AcDbEntity
  8
TEXT
100
AcDbText
 10
225.1296391125315
 20
51.64011943042158
 30
0.0
 40
5.0
  1
EDV-Art.Nr. 19232.070X
 41
0.8
  7
GREEKS
100
AcDbText
  0
TEXT
  5
99
330
1E
100
AcDbEntity
  8
TEXT
100
AcDbText
 10
224.9837501577827
 20
42.62974153022632
 30
0.0
 40
4.0
  1
19232070W.DWG
 41
0.8
  7
GREEKS
100
AcDbText
  0
TEXT
  5
9A
330
1E
100
AcDbEntity
  8
TEXT
100
AcDbText
 10
182.626132208084
 20
90.76363841023022
 30
0.0
 40
4.0
  1
DIN EN1124-3
 41
0.8
  7
GREEKS
 72
     1
 11
199.6166083985602
 21
90.76363841023022
 31
0.0
100
AcDbText
  0
INSERT
  5
9B
330
1E
100
AcDbEntity
  8
STEMPEL
100
AcDbBlockReference
  2
LOGO
 10
140.9955485457794
 20
45.02105276448322
 30
0.0
 41
2.0
 42
2.0
 43
2.0
  0
TEXT
  5
118
330
1E
100
AcDbEntity
  8
BEM
100
AcDbText
 10
417.3022923857165
 20
10.16790107998849
 30
0.0
 40
4.0
  1
Diese Zeichnung ist urheberrechtlich geschützt und bleibt unser Eigentum. Sie darf weder ganz noch teilweise verfielfältigt und nicht an Dritte weitergegeben werden.
 50
90.0
 41
0.8
  7
GREEKS
100
AcDbText
  0
LINE
  5
5BF
330
1E
100
AcDbEntity
  8
TEXT
 62
     2
100
AcDbLine
 10
276.7427418761816
 20
205.8573704421258
 30
0.0
 11
254.6362618369655
 21
212.9425964792263
 31
0.0
  0
LINE
  5
630
330
1E
100
AcDbEntity
  8
TEXT
 62
     2
100
AcDbLine
 10
276.7427418761816
 20
205.8573704421258
 30
0.0
 11
382.2194539131837
 21
205.8573704421258
 31
0.0
  0
TEXT
  5
631
330
1E
100
AcDbEntity
  8
TEXT
 62
     1
100
AcDbText
 10
278.0154290988993
 20
196.5002163848248
 30
0.0
 40
7.0
  1
EDV-Art.Nr. 19001.070X
 41
0.8
  7
GREEKS
100
AcDbText
  0
TEXT
  5
632
330
1E
100
AcDbEntity
  8
TEXT
 62
     1
100
AcDbText
 10
278.0154290988993
 20
209.3874802555297
 30
0.0
 40
7.0
  1
Ablauftopf DN70
 41
0.8
  7
GREEKS
100
AcDbText
  0
TEXT
  5
948
330
1E
100
AcDbEntity
  8
TEXT
 62
     1
100
AcDbText
 10
234.6057658946468
 20
129.0783465745483
 30
0.0
 40
7.0
  1

 41
0.8
  7
GREEKS
100
AcDbText
  0
LINE
  5
DEF
330
1E
100
AcDbEntity
  8
MITTEL
100
AcDbLine
 10
219.4234368246974
 20
449.9938426144673
 30
0.0
 11
219.4234368246976
 21
252.6479657161849
 31
0.0
  0
LINE
  5
DF2
330
1E
100
AcDbEntity
  8
STEMPEL
100
AcDbLine
 10
172.4234368246975
 20
416.9938426144674
 30
0.0
 11
266.4234368246976
 21
416.9938426144674
 31
0.0
  0
DIMENSION
  5
DF8
330
1E
100
AcDbEntity
  8
BEM
100
AcDbDimension
  2
*D1
 10
365.4234368246975
 20
471.5616326994951
 30
0.0
 11
219.4234368246975
 21
478.0616326994952
 31
0.0
 70
    32
  1
%%C<>
 71
     5
 42
292.0
  3
Standard
100
AcDbAlignedDimension
 13
73.42343682469754
 23
444.9938426144674
 33
0.0
 14
365.4234368246975
 24
444.9938426144674
 34
0.0
100
AcDbRotatedDimension
1001
ACAD
1000
DSTYLE
1002
{
1070
    40
1040
2.0
1070
    41
1040
3.5
1070
    42
1040
1.0
1070
    43
1040
7.0
1070
    44
1040
1.0
1070
    73
1070
     0
1070
    74
1070
     0
1070
    77
1070
     1
1070
    78
1070
     8
1070
    79
1070
     2
1070
   140
1040
3.5
1070
   141
1040
1.5
1070
   146
1040
0.5142857142857144
1070
   147
1040
1.5
1070
   172
1070
     1
1070
   178
1070
     1
1070
   179
1070
     2
1070
   271
1070
     2
1070
   272
1070
     2
1070
   284
1070
     8
1070
   285
1070
     8
1070
   286
1070
     8
1002
}
  0
LINE
  5
E12
102
{ACAD_REACTORS
330
1285
102
}
330
1E
100
AcDbEntity
  8
STEMPEL
100
AcDbLine
 10
160.9234368246975
 20
414.9938426144674
 30
0.0
 11
277.9234368246975
 21
414.9938426144674
 31
0.0
  0
LINE
  5
E13
102
{ACAD_REACTORS
330
1285
102
}
330
1E
100
AcDbEntity
  8
STEMPEL
100
AcDbLine
 10
160.9234368246975
 20
416.9938426144674
 30
0.0
 11
277.9234368246975
 21
416.9938426144675
 31
0.0
  0
LINE
  5
E16
330
1E
100
AcDbEntity
  8
STEMPEL
100
AcDbLine
 10
171.4234368246975
 20
436.9938426144675
 30
0.0
 11
172.4234368246975
 21
435.9938426144675
 31
0.0
  0
LINE
  5
E17
330
1E
100
AcDbEntity
  8
STEMPEL
100
AcDbLine
 10
164.4234368246975
 20
435.9938426144675
 30
0.0
 11
165.4234368246975
 21
436.9938426144675
 31
0.0
  0
LINE
  5
E18
330
1E
100
AcDbEntity
  8
STEMPEL
100
AcDbLine
 10
164.4234368246975
 20
435.9938426144675
 30
0.0
 11
172.4234368246974
 21
435.9938426144675
 31
0.0
  0
LINE
  5
E19
330
1E
100
AcDbEntity
  8
STEMPEL
100
AcDbLine
 10
165.4234368246975
 20
436.9938426144675
 30
0.0
 11
171.4234368246975
 21
436.9938426144675
 31
0.0
  0
LINE
  5
E29
330
1E
100
AcDbEntity
  8
HILF
100
AcDbLine
 10
165.4234368246975
 20
436.9938426144675
 30
0.0
 11
165.4234368246975
 21
431.0523171229682
 31
0.0
  0
LINE
  5
E2A
330
1E
100
AcDbEntity
  8
STEMPEL
100
AcDbLine
 10
164.4234368246975
 20
435.9938426144675
 30
0.0
 11
164.4234368246975
 21
431.0523171229683
 31
0.0
  0
LINE
  5
E2B
330
1E
100
AcDbEntity
  8
HILF
100
AcDbLine
 10
171.4234368246975
 20
436.9938426144675
 30
0.0
 11
171.4234368246975
 21
431.0523171229682
 31
0.0
  0
LINE
  5
E2C
330
1E
100
AcDbEntity
  8
STEMPEL
100
AcDbLine
 10
172.4234368246975
 20
435.9938426144675
 30
0.0
 11
172.4234368246975
 21
431.0523171229683
 31
0.0
  0
LINE
  5
E2D
102
{ACAD_REACTORS
330
1285
102
}
330
1E
100
AcDbEntity
  8
MITTEL
100
AcDbLine
 10
168.4234368246974
 20
441.9938426144675
 30
0.0
 11
168.4234368246975
 21
414.9938426144674
 31
0.0
  0
LINE
  5
E2E
330
1E
100
AcDbEntity
  8
STEMPEL
100
AcDbLine
 10
273.4234368246975
 20
436.9938426144675
 30
0.0
 11
274.4234368246976
 21
435.9938426144675
 31
0.0
  0
LINE
  5
E2F
330
1E
100
AcDbEntity
  8
STEMPEL
100
AcDbLine
 10
266.4234368246976
 20
435.9938426144675
 30
0.0
 11
267.4234368246975
 21
436.9938426144675
 31
0.0
  0
LINE
  5
E30
330
1E
100
AcDbEntity
  8
STEMPEL
100
AcDbLine
 10
266.4234368246976
 20
435.9938426144675
 30
0.0
 11
274.4234368246976
 21
435.9938426144675
 31
0.0
  0
LINE
  5
E31
330
1E
100
AcDbEntity
  8
STEMPEL
100
AcDbLine
 10
267.4234368246975
 20
436.9938426144675
 30
0.0
 11
273.4234368246975
 21
436.9938426144675
 31
0.0
  0
LINE
  5
E41
330
1E
100
AcDbEntity
  8
HILF
100
AcDbLine
 10
267.4234368246975
 20
436.9938426144675
 30
0.0
 11
267.4234368246975
 21
431.0523171229683
 31
0.0
  0
LINE
  5
E42
330
1E
100
AcDbEntity
  8
STEMPEL
100
AcDbLine
 10
266.4234368246976
 20
435.9938426144675
 30
0.0
 11
266.4234368246976
 21
431.0523171229683
 31
0.0
  0
LINE
  5
E43
330
1E
100
AcDbEntity
  8
HILF
100
AcDbLine
 10
273.4234368246975
 20
436.9938426144675
 30
0.0
 11
273.4234368246975
 21
431.0523171229683
 31
0.0
  0
LINE
  5
E44
330
1E
100
AcDbEntity
  8
STEMPEL
100
AcDbLine
 10
274.4234368246976
 20
435.9938426144675
 30
0.0
 11
274.4234368246975
 21
431.0523171229683
 31
0.0
  0
LINE
  5
E45
102
{ACAD_REACTORS
330
1285
102
}
330
1E
100
AcDbEntity
  8
MITTEL
100
AcDbLine
 10
270.4234368246976
 20
441.9938426144675
 30
0.0
 11
270.4234368246976
 21
414.9938426144673
 31
0.0
  0
LINE
  5
E55
102
{ACAD_REACTORS
330
1285
330
1626
102
}
330
1E
100
AcDbEntity
  8
STEMPEL
100
AcDbLine
 10
317.810209372484
 20
439.5692396686666
 30
0.0
 11
279.9347595699189
 21
417.5363029090475
 31
0.0
  0
LINE
  5
E56
102
{ACAD_REACTORS
330
1285
102
}
330
1E
100
AcDbEntity
  8
STEMPEL
100
AcDbLine
 10
121.0366642769111
 20
439.5692396686666
 30
0.0
 11
158.9121140794761
 21
417.5363029090475
 31
0.0
  0
LINE
  5
E57
102
{ACAD_REACTORS
330
1285
102
}
330
1E
100
AcDbEntity
  8
STEMPEL
100
AcDbLine
 10
257.4234368246976
 20
416.9938426144674
 30
0.0
 11
257.4234368246976
 21
414.9938426144674
 31
0.0
  0
LINE
  5
E58
102
{ACAD_REACTORS
330
1285
102
}
330
1E
100
AcDbEntity
  8
STEMPEL
100
AcDbLine
 10
181.4234368246975
 20
416.9938426144674
 30
0.0
 11
181.4234368246975
 21
414.9938426144674
 31
0.0
  0
ARC
  5
E59
102
{ACAD_REACTORS
330
1285
102
}
330
1E
100
AcDbEntity
  8
STEMPEL
100
AcDbCircle
 10
160.9234368246975
 20
420.9938426144674
 30
0.0
 40
6.0
100
AcDbArc
 50
239.8125459251749
 51
270.0
  0
LINE
  5
E5A
102
{ACAD_REACTORS
330
1285
102
}
330
1E
100
AcDbEntity
  8
STEMPEL
100
AcDbLine
 10
120.0310029043004
 20
437.8404698159566
 30
0.0
 11
157.9064527068655
 21
415.8075330563375
 31
0.0
  0
ARC
  5
E5B
102
{ACAD_REACTORS
330
1285
102
}
330
1E
100
AcDbEntity
  8
STEMPEL
100
AcDbCircle
 10
100.9234368246975
 20
404.9938426144674
 30
0.0
 40
38.0
100
AcDbArc
 50
59.8125459251749
 51
90.0
  0
LINE
  5
E5C
102
{ACAD_REACTORS
330
1285
102
}
330
1E
100
AcDbEntity
  8
STEMPEL
100
AcDbLine
 10
337.9234368246975
 20
442.9938426144674
 30
0.0
 11
365.4234368246975
 21
442.9938426144674
 31
0.0
  0
ARC
  5
E5D
102
{ACAD_REACTORS
330
1285
102
}
330
1E
100
AcDbEntity
  8
STEMPEL
100
AcDbCircle
 10
277.9234368246975
 20
420.9938426144674
 30
0.0
 40
6.0
100
AcDbArc
 50
270.0
 51
300.1874540748251
  0
LINE
  5
E5E
102
{ACAD_REACTORS
330
1285
102
}
330
1E
100
AcDbEntity
  8
STEMPEL
100
AcDbLine
 10
318.8158707450947
 20
437.8404698159566
 30
0.0
 11
280.9404209425295
 21
415.8075330563375
 31
0.0
  0
ARC
  5
E5F
102
{ACAD_REACTORS
330
1285
102
}
330
1E
100
AcDbEntity
  8
STEMPEL
100
AcDbCircle
 10
337.9234368246975
 20
404.9938426144674
 30
0.0
 40
38.0
100
AcDbArc
 50
90.0
 51
120.1874540748251
  0
ARC
  5
E60
102
{ACAD_REACTORS
330
1285
102
}
330
1E
100
AcDbEntity
  8
STEMPEL
100
AcDbCircle
 10
100.9234368246975
 20
404.9938426144674
 30
0.0
 40
40.0
100
AcDbArc
 50
59.8125459251749
 51
90.0
  0
ARC
  5
E61
102
{ACAD_REACTORS
330
1285
102
}
330
1E
100
AcDbEntity
  8
STEMPEL
100
AcDbCircle
 10
337.9234368246975
 20
404.9938426144674
 30
0.0
 40
40.0
100
AcDbArc
 50
90.0
 51
120.1874540748251
  0
ARC
  5
E62
102
{ACAD_REACTORS
330
1285
102
}
330
1E
100
AcDbEntity
  8
STEMPEL
100
AcDbCircle
 10
277.9234368246975
 20
420.9938426144674
 30
0.0
 40
4.0
100
AcDbArc
 50
270.0
 51
300.1874540748251
  0
ARC
  5
E63
102
{ACAD_REACTORS
330
1285
102
}
330
1E
100
AcDbEntity
  8
STEMPEL
100
AcDbCircle
 10
160.9234368246975
 20
420.9938426144674
 30
0.0
 40
4.0
100
AcDbArc
 50
239.8125459251749
 51
270.0
  0
LINE
  5
E64
102
{ACAD_REACTORS
330
1285
102
}
330
1E
100
AcDbEntity
  8
STEMPEL
100
AcDbLine
 10
365.4234368246975
 20
444.9938426144674
 30
0.0
 11
365.4234368246975
 21
442.9938426144674
 31
0.0
  0
LINE
  5
E65
102
{ACAD_REACTORS
330
1285
102
}
330
1E
100
AcDbEntity
  8
STEMPEL
100
AcDbLine
 10
73.42343682469754
 20
444.9938426144674
 30
0.0
 11
73.42343682469754
 21
442.9938426144674
 31
0.0
  0
LINE
  5
E67
102
{ACAD_REACTORS
330
1285
102
}
330
1E
100
AcDbEntity
  8
STEMPEL
100
AcDbLine
 10
73.42343682469754
 20
442.9938426144674
 30
0.0
 11
100.9234368246975
 21
442.9938426144674
 31
0.0
  0
LINE
  5
E6A
102
{ACAD_REACTORS
330
1285
102
}
330
1E
100
AcDbEntity
  8
STEMPEL
100
AcDbLine
 10
73.42343682469754
 20
444.9938426144674
 30
0.0
 11
365.4234368246975
 21
444.9938426144674
 31
0.0
  0
LINE
  5
E72
330
1E
100
AcDbEntity
  8
STEMPEL
100
AcDbLine
 10
223.4234368246975
 20
435.9938426144675
 30
0.0
 11
223.4234368246975
 21
431.0523171229683
 31
0.0
  0
LINE
  5
E73
330
1E
100
AcDbEntity
  8
HILF
100
AcDbLine
 10
222.4234368246976
 20
436.9938426144675
 30
0.0
 11
222.4234368246976
 21
431.0523171229682
 31
0.0
  0
LINE
  5
E74
330
1E
100
AcDbEntity
  8
STEMPEL
100
AcDbLine
 10
215.4234368246975
 20
435.9938426144675
 30
0.0
 11
215.4234368246975
 21
431.0523171229683
 31
0.0
  0
LINE
  5
E75
330
1E
100
AcDbEntity
  8
HILF
100
AcDbLine
 10
216.4234368246976
 20
436.9938426144675
 30
0.0
 11
216.4234368246975
 21
431.0523171229682
 31
0.0
  0
LINE
  5
E76
330
1E
100
AcDbEntity
  8
STEMPEL
100
AcDbLine
 10
222.4234368246976
 20
436.9938426144675
 30
0.0
 11
223.4234368246975
 21
435.9938426144675
 31
0.0
  0
LINE
  5
E77
330
1E
100
AcDbEntity
  8
STEMPEL
100
AcDbLine
 10
215.4234368246975
 20
435.9938426144675
 30
0.0
 11
216.4234368246976
 21
436.9938426144675
 31
0.0
  0
LINE
  5
E78
330
1E
100
AcDbEntity
  8
STEMPEL
100
AcDbLine
 10
216.4234368246976
 20
436.9938426144675
 30
0.0
 11
222.4234368246976
 21
436.9938426144675
 31
0.0
  0
LINE
  5
E79
330
1E
100
AcDbEntity
  8
STEMPEL
100
AcDbLine
 10
215.4234368246975
 20
435.9938426144675
 30
0.0
 11
223.4234368246974
 21
435.9938426144675
 31
0.0
  0
HATCH
  5
1285
330
1E
100
AcDbEntity
  8
SCHRAFF
100
AcDbHatch
 10
0.0
 20
0.0
 30
0.0
210
0.0
220
0.0
230
1.0
  2
_USER
 70
     0
 71
     1
 91
        4
 92
        7
 72
     1
 73
     1
 93
       12
 10
337.9234368246975
 20
444.9938426144675
 42
0.1324846866320394
 10
317.8102093724841
 20
439.5692396686666
 42
0.0
 10
279.9347595699189
 20
417.5363029090475
 42
-0.1324846866320413
 10
277.9234368246975
 20
416.9938426144675
 42
0.0
 10
270.4234368246976
 20
416.9938426144675
 42
0.0
 10
270.4234368246976
 20
414.9938426144674
 42
0.0
 10
277.9234368246975
 20
414.9938426144674
 42
0.1324846866320368
 10
280.9404209425295
 20
415.8075330563375
 42
0.0
 10
318.8158707450947
 20
437.8404698159566
 42
-0.1324846866320403
 10
337.9234368246976
 20
442.9938426144674
 42
0.0
 10
365.4234368246975
 20
442.9938426144674
 42
0.0
 10
365.4234368246975
 20
444.9938426144674
 42
0.0
 97
       12
330
E6A
330
E61
330
E55
330
E62
330
E13
330
E45
330
E12
330
E5D
330
E5E
330
E5F
330
E5C
330
E64
 92
        7
 72
     1
 73
     1
 93
       12
 10
73.42343682469753
 20
444.9938426144675
 42
0.0
 10
73.42343682469753
 20
442.9938426144674
 42
0.0
 10
100.9234368246975
 20
442.9938426144674
 42
-0.1324846866320399
 10
120.0310029043004
 20
437.8404698159566
 42
0.0
 10
157.9064527068655
 20
415.8075330563375
 42
0.132484686632038
 10
160.9234368246974
 20
414.9938426144674
 42
0.0
 10
168.4234368246974
 20
414.9938426144673
 42
0.0
 10
168.4234368246975
 20
416.9938426144674
 42
0.0
 10
160.9234368246975
 20
416.9938426144674
 42
-0.1324846866320423
 10
158.9121140794761
 20
417.5363029090475
 42
0.0
 10
121.0366642769111
 20
439.5692396686666
 42
0.1324846866320404
 10
100.9234368246975
 20
444.9938426144674
 42
0.0
 97
       12
330
E65
330
E67
330
E5B
330
E5A
330
E59
330
E12
330
E2D
330
E13
330
E63
330
E56
330
E60
330
E6A
 92
        7
 72
     0
 73
     1
 93
        4
 10
181.4234368246975
 20
414.9938426144674
 10
181.4234368246975
 20
416.9938426144674
 10
168.4234368246975
 20
416.9938426144674
 10
168.4234368246975
 20
414.9938426144674
 97
        4
330
E13
330
E2D
330
E12
330
E58
 92
        7
 72
     0
 73
     1
 93
        4
 10
257.4234368246976
 20
416.9938426144675
 10
257.4234368246976
 20
414.9938426144674
 10
270.4234368246976
 20
414.9938426144673
 10
270.4234368246976
 20
416.9938426144675
 97
        4
330
E13
330
E57
330
E12
330
E45
 75
     0
 76
     0
 52
45.0
 41
2.0
 77
     0
 78
     1
 53
45.0
 43
-12.03918477251955
 44
0.0
 45
-1.414213562373094
 46
1.414213562373095
 79
     0
 47
0.3060430538636909
 98
        4
 10
344.0011995619375
 20
444.2107141066109
 10
83.16064602374899
 20
444.2107141066109
 10
176.8428169057056
 20
415.7487107363715
 10
262.2589126584226
 20
416.0547532726759
  0
LINE
  5
15D4
102
{ACAD_REACTORS
330
1626
102
}
330
1E
100
AcDbEntity
  8
STEMPEL
100
AcDbLine
 10
310.9177754520867
 20
437.8735515165277
 30
0.0
 11
284.9862276614373
 21
422.7886309273676
 31
0.0
  0
LINE
  5
15D5
330
1E
100
AcDbEntity
  8
STEMPEL
100
AcDbLine
 10
127.9290981973082
 20
437.8735515165278
 30
0.0
 11
153.8606459879575
 21
422.7886309273675
 31
0.0
  0
HATCH
  5
15FA
330
1E
100
AcDbEntity
  8
SCHRAFF
100
AcDbHatch
 10
0.0
 20
0.0
 30
0.0
210
0.0
220
0.0
230
1.0
  2
_USER
 70
     0
 71
     0
 91
        4
 92
        7
 72
     1
 73
     1
 93
       12
 10
280.4234368246974
 20
421.0523171229683
 42
0.1327909774928473
 10
283.446662977842
 20
421.8696437175777
 42
0.0
 10
307.4466629778421
 20
435.8696437175777
 42
0.2667502984552007
 10
310.4234368246974
 20
441.0523171229683
 42
0.0
 10
310.4234368246974
 20
443.0523171229682
 42
0.0
 10
308.4234368246975
 20
443.0523171229682
 42
0.0
 10
308.4234368246975
 20
441.0523171229683
 42
-0.2667502984552046
 10
306.4389209267938
 20
437.5972015193745
 42
0.0
 10
282.4389209267938
 20
423.5972015193745
 42
-0.1327909774928444
 10
280.4234368246974
 20
423.0523171229682
 42
0.0
 10
275.9234368246975
 20
423.0523171229682
 42
0.0
 10
275.9234368246974
 20
421.0523171229683
 42
0.0
 97
        0
 92
        7
 72
     0
 73
     1
 93
        4
 10
264.9234368246975
 20
421.0523171229683
 10
264.9234368246975
 20
423.0523171229682
 10
260.4234368246974
 20
423.0523171229682
 10
260.4234368246975
 20
421.0523171229683
 97
        0
 92
        7
 72
     0
 73
     1
 93
        4
 10
173.9234368246974
 20
423.0523171229683
 10
173.9234368246974
 20
421.0523171229684
 10
178.4234368246974
 20
421.0523171229683
 10
178.4234368246974
 20
423.0523171229682
 97
        0
 92
        7
 72
     1
 73
     1
 93
       12
 10
158.4234368246974
 20
423.0523171229682
 42
-0.1327909774928438
 10
156.4079527226011
 20
423.5972015193746
 42
0.0
 10
132.4079527226012
 20
437.5972015193746
 42
-0.2667502984552084
 10
130.4234368246974
 20
441.0523171229684
 42
0.0
 10
130.4234368246974
 20
443.0523171229684
 42
0.0
 10
128.4234368246974
 20
443.0523171229684
 42
0.0
 10
128.4234368246974
 20
441.0523171229684
 42
0.2667502984552073
 10
131.4002106715529
 20
435.8696437175777
 42
0.0
 10
155.4002106715529
 20
421.8696437175777
 42
0.1327909774928451
 10
158.4234368246975
 20
421.0523171229683
 42
0.0
 10
162.9234368246975
 20
421.0523171229683
 42
0.0
 10
162.9234368246974
 20
423.0523171229682
 42
0.0
 97
        0
 75
     0
 76
     0
 52
135.0
 41
2.0
 77
     0
 78
     1
 53
135.0
 43
-12.03918477251955
 44
-123.2492099591267
 45
-1.414213562373095
 46
-1.414213562373094
 79
     0
 47
0.2375292043459171
 98
        4
 10
279.0992364628863
 20
421.6255240926607
 10
262.7003857024355
 20
421.8630535872824
 10
177.3788283249581
 20
422.1005830819041
 10
160.74231302342
 20
422.1005830819041
  0
LINE
  5
15FB
330
1E
100
AcDbEntity
  8
STEMPEL
100
AcDbLine
 10
128.4234368246974
 20
443.0523171229684
 30
0.0
 11
310.4234368246974
 21
443.0523171229682
 31
0.0
  0
LINE
  5
15FD
330
1E
100
AcDbEntity
  8
STEMPEL
100
AcDbLine
 10
158.4234368246974
 20
421.0523171229683
 30
0.0
 11
164.4234368246975
 21
421.0523171229683
 31
0.0
  0
LINE
  5
15FE
330
1E
100
AcDbEntity
  8
STEMPEL
100
AcDbLine
 10
158.4234368246974
 20
423.0523171229682
 30
0.0
 11
280.4234368246974
 21
423.0523171229682
 31
0.0
  0
LINE
  5
15FF
330
1E
100
AcDbEntity
  8
STEMPEL
100
AcDbLine
 10
128.4234368246974
 20
443.0523171229684
 30
0.0
 11
128.4234368246974
 21
441.0523171229684
 31
0.0
  0
LINE
  5
1600
330
1E
100
AcDbEntity
  8
STEMPEL
100
AcDbLine
 10
310.4234368246974
 20
443.0523171229682
 30
0.0
 11
310.4234368246974
 21
441.0523171229683
 31
0.0
  0
LINE
  5
1601
330
1E
100
AcDbEntity
  8
STEMPEL
100
AcDbLine
 10
308.4234368246975
 20
443.0523171229682
 30
0.0
 11
308.4234368246975
 21
441.0523171229683
 31
0.0
  0
LINE
  5
1602
330
1E
100
AcDbEntity
  8
STEMPEL
100
AcDbLine
 10
130.4234368246974
 20
443.0523171229684
 30
0.0
 11
130.4234368246974
 21
441.0523171229684
 31
0.0
  0
ARC
  5
1603
330
1E
100
AcDbEntity
  8
STEMPEL
100
AcDbCircle
 10
304.4234368246975
 20
441.0523171229683
 30
0.0
 40
4.0
100
AcDbArc
 50
300.2564371635316
 51
0.0
  0
ARC
  5
1604
330
1E
100
AcDbEntity
  8
STEMPEL
100
AcDbCircle
 10
280.4234368246974
 20
427.0523171229682
 30
0.0
 40
4.0
100
AcDbArc
 50
270.0
 51
300.2564371635316
  0
ARC
  5
1605
330
1E
100
AcDbEntity
  8
STEMPEL
100
AcDbCircle
 10
158.4234368246974
 20
427.0523171229682
 30
0.0
 40
4.0
100
AcDbArc
 50
239.7435628364698
 51
270.0
  0
ARC
  5
1606
330
1E
100
AcDbEntity
  8
STEMPEL
100
AcDbCircle
 10
134.4234368246974
 20
441.0523171229684
 30
0.0
 40
4.0
100
AcDbArc
 50
180.0
 51
239.7435628364698
  0
LINE
  5
1607
330
1E
100
AcDbEntity
  8
STEMPEL
100
AcDbLine
 10
306.4389209267938
 20
437.5972015193745
 30
0.0
 11
282.4389209267938
 21
423.5972015193745
 31
0.0
  0
LINE
  5
1608
330
1E
100
AcDbEntity
  8
STEMPEL
100
AcDbLine
 10
156.4079527226012
 20
423.5972015193745
 30
0.0
 11
132.4079527226012
 21
437.5972015193746
 31
0.0
  0
ARC
  5
1609
330
1E
100
AcDbEntity
  8
STEMPEL
100
AcDbCircle
 10
134.4234368246974
 20
441.0523171229684
 30
0.0
 40
6.0
100
AcDbArc
 50
180.0
 51
239.7435628364698
  0
LINE
  5
160A
330
1E
100
AcDbEntity
  8
STEMPEL
100
AcDbLine
 10
155.4002106715529
 20
421.8696437175777
 30
0.0
 11
131.4002106715529
 21
435.8696437175777
 31
0.0
  0
ARC
  5
160B
330
1E
100
AcDbEntity
  8
STEMPEL
100
AcDbCircle
 10
158.4234368246974
 20
427.0523171229682
 30
0.0
 40
6.0
100
AcDbArc
 50
239.7435628364698
 51
270.0
  0
ARC
  5
160C
330
1E
100
AcDbEntity
  8
STEMPEL
100
AcDbCircle
 10
280.4234368246974
 20
427.0523171229682
 30
0.0
 40
6.0
100
AcDbArc
 50
270.0
 51
300.2564371635316
  0
LINE
  5
160D
102
{ACAD_REACTORS
330
1626
102
}
330
1E
100
AcDbEntity
  8
STEMPEL
100
AcDbLine
 10
307.4466629778421
 20
435.8696437175777
 30
0.0
 11
283.446662977842
 21
421.8696437175777
 31
0.0
  0
ARC
  5
160E
330
1E
100
AcDbEntity
  8
STEMPEL
100
AcDbCircle
 10
304.4234368246975
 20
441.0523171229683
 30
0.0
 40
6.0
100
AcDbArc
 50
300.2564371635316
 51
0.0
  0
LINE
  5
160F
330
1E
100
AcDbEntity
  8
STEMPEL
100
AcDbLine
 10
178.4234368246974
 20
423.0523171229682
 30
0.0
 11
178.4234368246974
 21
421.0523171229683
 31
0.0
  0
LINE
  5
1610
330
1E
100
AcDbEntity
  8
STEMPEL
100
AcDbLine
 10
260.4234368246974
 20
423.0523171229682
 30
0.0
 11
260.4234368246974
 21
421.0523171229683
 31
0.0
  0
LINE
  5
1613
330
1E
100
AcDbEntity
  8
STEMPEL
100
AcDbLine
 10
264.9234368246975
 20
423.0523171229682
 30
0.0
 11
264.9234368246975
 21
421.0523171229683
 31
0.0
  0
LINE
  5
1614
330
1E
100
AcDbEntity
  8
STEMPEL
100
AcDbLine
 10
275.9234368246974
 20
423.0523171229682
 30
0.0
 11
275.9234368246974
 21
421.0523171229683
 31
0.0
  0
LINE
  5
1615
330
1E
100
AcDbEntity
  8
STEMPEL
100
AcDbLine
 10
173.9234368246974
 20
423.0523171229682
 30
0.0
 11
173.9234368246974
 21
421.0523171229683
 31
0.0
  0
LINE
  5
1616
330
1E
100
AcDbEntity
  8
STEMPEL
100
AcDbLine
 10
162.9234368246974
 20
423.0523171229682
 30
0.0
 11
162.9234368246974
 21
421.0523171229684
 31
0.0
  0
POINT
  5
1617
330
1E
100
AcDbEntity
  8
DEFPOINTS
  6
ByBlock
 62
     0
100
AcDbPoint
 10
283.4466629778418
 20
421.8696437175775
 30
0.0
  0
POINT
  5
1618
330
1E
100
AcDbEntity
  8
DEFPOINTS
  6
ByBlock
 62
     0
100
AcDbPoint
 10
307.4466629778418
 20
435.8696437175774
 30
0.0
  0
LINE
  5
1619
102
{ACAD_REACTORS
330
1626
102
}
330
1E
100
AcDbEntity
  8
STEMPEL
100
AcDbLine
 10
311.9234368246975
 20
436.1447816638178
 30
0.0
 11
310.9177754520867
 21
437.8735515165277
 31
0.0
  0
LINE
  5
161A
102
{ACAD_REACTORS
330
1626
102
}
330
1E
100
AcDbEntity
  8
STEMPEL
100
AcDbLine
 10
285.9918890340482
 20
421.0598610746574
 30
0.0
 11
284.9862276614373
 21
422.7886309273676
 31
0.0
  0
LINE
  5
161B
330
1E
100
AcDbEntity
  8
STEMPEL
100
AcDbLine
 10
126.9234368246975
 20
436.1447816638178
 30
0.0
 11
127.9290981973082
 21
437.8735515165278
 31
0.0
  0
LINE
  5
161C
330
1E
100
AcDbEntity
  8
STEMPEL
100
AcDbLine
 10
152.8549846153463
 20
421.0598610746568
 30
0.0
 11
153.8606459879575
 21
422.7886309273675
 31
0.0
  0
HATCH
  5
1626
330
1E
100
AcDbEntity
  8
SCHRAFF
100
AcDbHatch
 10
0.0
 20
0.0
 30
0.0
210
0.0
220
0.0
230
1.0
  2
NET
 70
     0
 71
     1
 91
        1
 92
        7
 72
     0
 73
     1
 93
        5
 10
284.9953086524524
 20
422.7730203611004
 10
285.9918890340481
 20
421.0598610746576
 10
311.9234368246975
 20
436.1447816638178
 10
310.9177754520867
 20
437.8735515165277
 10
297.9520015567111
 20
430.3310912219171
 97
        5
330
1619
330
15D4
330
160D
330
161A
330
E55
 75
     0
 76
     1
 52
75.0
 41
10.0
 77
     0
 78
     2
 53
75.0
 43
-12.03918477251955
 44
0.0
 45
-1.207407282861335
 46
0.3235238063781509
 79
     0
 53
165.0
 43
-12.03918477251955
 44
0.0
 45
-0.323523806378151
 46
-1.207407282861335
 79
     0
 47
0.2040341236788785
 98
        1
 10
291.4856149359561
 20
425.476115478952
  0
HATCH
  5
1627
330
1E
100
AcDbEntity
  8
SCHRAFF
100
AcDbHatch
 10
0.0
 20
0.0
 30
0.0
210
0.0
220
0.0
230
1.0
  2
NET
 70
     0
 71
     0
 91
        1
 92
        7
 72
     0
 73
     1
 93
        5
 10
153.8515649969425
 20
422.7730203611003
 10
152.8549846153469
 20
421.0598610746575
 10
126.9234368246975
 20
436.1447816638176
 10
127.9290981973083
 20
437.8735515165276
 10
140.8948720926703
 20
430.3310912219297
 97
        0
 75
     0
 76
     1
 52
75.0
 41
10.0
 77
     0
 78
     2
 53
105.0000000000001
 43
450.886058421915
 44
0.0000000000003979
 45
1.207407282861334
 46
0.3235238063781529
 79
     0
 53
15.00000000000009
 43
450.886058421915
 44
0.0000000000003979
 45
0.3235238063781527
 46
-1.207407282861334
 79
     0
 47
0.2040341236788785
 98
        1
 10
147.3612587134388
 20
425.476115478952
  0
LINE
  5
1658
330
1E
100
AcDbEntity
  8
STEMPEL
100
AcDbLine
 10
263.9234368246976
 20
431.0523171229682
 30
0.0
 11
276.9234368246975
 21
431.0523171229682
 31
0.0
  0
LINE
  5
165B
330
1E
100
AcDbEntity
  8
STEMPEL
100
AcDbLine
 10
277.9289903241627
 20
424.5981771770788
 30
0.0
 11
277.9289903241627
 21
430.7828798748403
 31
0.0
  0
LINE
  5
165C
330
1E
100
AcDbEntity
  8
STEMPEL
100
AcDbLine
 10
274.1762135744301
 20
424.5981771770788
 30
0.0
 11
274.1762135744301
 21
430.7828798748403
 31
0.0
  0
LINE
  5
165D
330
1E
100
AcDbEntity
  8
STEMPEL
100
AcDbLine
 10
266.670660074965
 20
424.5981771770788
 30
0.0
 11
266.670660074965
 21
430.7828798748403
 31
0.0
  0
LINE
  5
165E
330
1E
100
AcDbEntity
  8
HILF
100
AcDbLine
 10
278.9786489106929
 20
424.2161326954398
 30
0.0
 11
261.8682247387021
 21
424.2161326954398
 31
0.0
  0
LINE
  5
165F
330
1E
100
AcDbEntity
  8
STEMPEL
100
AcDbLine
 10
278.7734368246976
 20
423.0523171229682
 30
0.0
 11
262.0734368246975
 21
423.0523171229682
 31
0.0
  0
LINE
  5
1660
330
1E
100
AcDbEntity
  8
STEMPEL
100
AcDbLine
 10
262.9178833252324
 20
424.5981771770788
 30
0.0
 11
262.9178833252324
 21
430.7828798748403
 31
0.0
  0
LINE
  5
1661
330
1E
100
AcDbEntity
  8
STEMPEL
100
AcDbLine
 10
263.9234368246976
 20
431.0523171229682
 30
0.0
 11
262.9178833252324
 21
430.7828798748403
 31
0.0
  0
LINE
  5
1662
330
1E
100
AcDbEntity
  8
STEMPEL
100
AcDbLine
 10
277.9289903241627
 20
430.7828798748403
 30
0.0
 11
276.9234368246975
 21
431.0523171229682
 31
0.0
  0
LINE
  5
1669
330
1E
100
AcDbEntity
  8
STEMPEL
100
AcDbLine
 10
278.9786489106929
 20
424.2161326954398
 30
0.0
 11
277.9289903241627
 21
424.5981771770788
 31
0.0
  0
LINE
  5
166A
330
1E
100
AcDbEntity
  8
STEMPEL
100
AcDbLine
 10
262.9178833252324
 20
424.5981771770788
 30
0.0
 11
261.8682247387021
 21
424.2161326954398
 31
0.0
  0
ARC
  5
166B
330
1E
100
AcDbEntity
  8
STEMPEL
100
AcDbCircle
 10
262.0734368246975
 20
423.6523171229682
 30
0.0
 40
0.5999999999999993
100
AcDbArc
 50
109.9999999999995
 51
270.0
  0
ARC
  5
166C
330
1E
100
AcDbEntity
  8
STEMPEL
100
AcDbCircle
 10
278.7734368246976
 20
423.6523171229682
 30
0.0
 40
0.5999999999999999
100
AcDbArc
 50
270.0
 51
70.00000000000047
  0
ARC
  5
166E
330
1E
100
AcDbEntity
  8
STEMPEL
100
AcDbCircle
 10
270.4234368246976
 20
404.7828798748409
 30
0.0
 40
26.26943724812735
100
AcDbArc
 50
81.78678929826059
 51
98.2132107017394
  0
ARC
  5
166F
330
1E
100
AcDbEntity
  8
STEMPEL
100
AcDbCircle
 10
264.7942717000987
 20
424.3839188428884
 30
0.0
 40
6.668398280079905
100
AcDbArc
 50
73.65710669401657
 51
106.3428933059834
  0
ARC
  5
1670
330
1E
100
AcDbEntity
  8
STEMPEL
100
AcDbCircle
 10
276.0526019492964
 20
424.3839188428884
 30
0.0
 40
6.668398280079882
100
AcDbArc
 50
73.65710669401657
 51
106.3428933059834
  0
ARC
  5
1671
330
1E
100
AcDbEntity
  8
STEMPEL
100
AcDbCircle
 10
270.4234368246976
 20
405.5412019550905
 30
0.0
 40
19.42296676475576
100
AcDbArc
 50
78.85962783889116
 51
101.1403721611088
  0
ARC
  5
1672
330
1E
100
AcDbEntity
  8
STEMPEL
100
AcDbCircle
 10
264.7942717000987
 20
419.9696662696646
 30
0.0
 40
4.994391509822305
100
AcDbArc
 50
67.93247218100519
 51
112.0675278189948
  0
ARC
  5
1673
330
1E
100
AcDbEntity
  8
STEMPEL
100
AcDbCircle
 10
276.0526019492965
 20
419.9696662696646
 30
0.0
 40
4.994391509822305
100
AcDbArc
 50
67.93247218100519
 51
112.0675278189948
  0
ARC
  5
1674
330
1E
100
AcDbEntity
  8
STEMPEL
100
AcDbCircle
 10
174.0526019492963
 20
419.9696662696646
 30
0.0
 40
4.994391509822305
100
AcDbArc
 50
67.93247218100519
 51
112.0675278189948
  0
ARC
  5
1675
330
1E
100
AcDbEntity
  8
STEMPEL
100
AcDbCircle
 10
162.7942717000986
 20
419.9696662696646
 30
0.0
 40
4.994391509822305
100
AcDbArc
 50
67.93247218100519
 51
112.0675278189948
  0
ARC
  5
1676
330
1E
100
AcDbEntity
  8
STEMPEL
100
AcDbCircle
 10
168.4234368246974
 20
405.5412019550905
 30
0.0
 40
19.42296676475576
100
AcDbArc
 50
78.85962783889116
 51
101.1403721611088
  0
ARC
  5
1677
330
1E
100
AcDbEntity
  8
STEMPEL
100
AcDbCircle
 10
174.0526019492963
 20
424.3839188428884
 30
0.0
 40
6.668398280079882
100
AcDbArc
 50
73.65710669401657
 51
106.3428933059834
  0
ARC
  5
1678
330
1E
100
AcDbEntity
  8
STEMPEL
100
AcDbCircle
 10
162.7942717000985
 20
424.3839188428884
 30
0.0
 40
6.668398280079905
100
AcDbArc
 50
73.65710669401657
 51
106.3428933059834
  0
ARC
  5
1679
330
1E
100
AcDbEntity
  8
STEMPEL
100
AcDbCircle
 10
168.4234368246974
 20
404.7828798748409
 30
0.0
 40
26.26943724812735
100
AcDbArc
 50
81.78678929826059
 51
98.2132107017394
  0
ARC
  5
167A
330
1E
100
AcDbEntity
  8
STEMPEL
100
AcDbCircle
 10
176.7734368246975
 20
423.6523171229682
 30
0.0
 40
0.5999999999999999
100
AcDbArc
 50
270.0
 51
70.00000000000047
  0
ARC
  5
167B
330
1E
100
AcDbEntity
  8
STEMPEL
100
AcDbCircle
 10
160.0734368246974
 20
423.6523171229682
 30
0.0
 40
0.5999999999999993
100
AcDbArc
 50
109.9999999999995
 51
270.0
  0
LINE
  5
167C
330
1E
100
AcDbEntity
  8
STEMPEL
100
AcDbLine
 10
160.9178833252323
 20
424.5981771770788
 30
0.0
 11
159.868224738702
 21
424.2161326954398
 31
0.0
  0
LINE
  5
167D
330
1E
100
AcDbEntity
  8
STEMPEL
100
AcDbLine
 10
176.9786489106928
 20
424.2161326954398
 30
0.0
 11
175.9289903241626
 21
424.5981771770788
 31
0.0
  0
LINE
  5
167E
330
1E
100
AcDbEntity
  8
STEMPEL
100
AcDbLine
 10
175.9289903241626
 20
430.7828798748403
 30
0.0
 11
174.9234368246974
 21
431.0523171229682
 31
0.0
  0
LINE
  5
167F
330
1E
100
AcDbEntity
  8
STEMPEL
100
AcDbLine
 10
161.9234368246974
 20
431.0523171229682
 30
0.0
 11
160.9178833252323
 21
430.7828798748403
 31
0.0
  0
LINE
  5
1680
330
1E
100
AcDbEntity
  8
STEMPEL
100
AcDbLine
 10
160.9178833252323
 20
424.5981771770788
 30
0.0
 11
160.9178833252323
 21
430.7828798748403
 31
0.0
  0
LINE
  5
1681
330
1E
100
AcDbEntity
  8
STEMPEL
100
AcDbLine
 10
176.7734368246975
 20
423.0523171229682
 30
0.0
 11
160.0734368246974
 21
423.0523171229682
 31
0.0
  0
LINE
  5
1682
330
1E
100
AcDbEntity
  8
HILF
100
AcDbLine
 10
176.9786489106928
 20
424.2161326954398
 30
0.0
 11
159.868224738702
 21
424.2161326954398
 31
0.0
  0
LINE
  5
1683
330
1E
100
AcDbEntity
  8
STEMPEL
100
AcDbLine
 10
164.6706600749649
 20
424.5981771770788
 30
0.0
 11
164.6706600749649
 21
430.7828798748403
 31
0.0
  0
LINE
  5
1684
330
1E
100
AcDbEntity
  8
STEMPEL
100
AcDbLine
 10
172.17621357443
 20
424.5981771770788
 30
0.0
 11
172.17621357443
 21
430.7828798748403
 31
0.0
  0
LINE
  5
1685
330
1E
100
AcDbEntity
  8
STEMPEL
100
AcDbLine
 10
175.9289903241626
 20
424.5981771770788
 30
0.0
 11
175.9289903241626
 21
430.7828798748403
 31
0.0
  0
LINE
  5
1686
330
1E
100
AcDbEntity
  8
STEMPEL
100
AcDbLine
 10
161.9234368246974
 20
431.0523171229682
 30
0.0
 11
174.9234368246974
 21
431.0523171229682
 31
0.0
  0
ARC
  5
1687
330
1E
100
AcDbEntity
  8
STEMPEL
100
AcDbCircle
 10
225.0526019492964
 20
419.9696662696646
 30
0.0
 40
4.994391509822305
100
AcDbArc
 50
67.93247218100519
 51
112.0675278189948
  0
ARC
  5
1688
330
1E
100
AcDbEntity
  8
STEMPEL
100
AcDbCircle
 10
213.7942717000986
 20
419.9696662696646
 30
0.0
 40
4.994391509822305
100
AcDbArc
 50
67.93247218100519
 51
112.0675278189948
  0
ARC
  5
1689
330
1E
100
AcDbEntity
  8
STEMPEL
100
AcDbCircle
 10
219.4234368246975
 20
405.5412019550905
 30
0.0
 40
19.42296676475576
100
AcDbArc
 50
78.85962783889116
 51
101.1403721611088
  0
ARC
  5
168A
330
1E
100
AcDbEntity
  8
STEMPEL
100
AcDbCircle
 10
225.0526019492963
 20
424.3839188428884
 30
0.0
 40
6.668398280079882
100
AcDbArc
 50
73.65710669401657
 51
106.3428933059834
  0
ARC
  5
168B
330
1E
100
AcDbEntity
  8
STEMPEL
100
AcDbCircle
 10
213.7942717000986
 20
424.3839188428884
 30
0.0
 40
6.668398280079905
100
AcDbArc
 50
73.65710669401657
 51
106.3428933059834
  0
ARC
  5
168C
330
1E
100
AcDbEntity
  8
STEMPEL
100
AcDbCircle
 10
219.4234368246975
 20
404.7828798748409
 30
0.0
 40
26.26943724812735
100
AcDbArc
 50
81.78678929826059
 51
98.2132107017394
  0
ARC
  5
168D
330
1E
100
AcDbEntity
  8
STEMPEL
100
AcDbCircle
 10
227.7734368246975
 20
423.6523171229682
 30
0.0
 40
0.5999999999999999
100
AcDbArc
 50
270.0
 51
70.00000000000047
  0
ARC
  5
168E
330
1E
100
AcDbEntity
  8
STEMPEL
100
AcDbCircle
 10
211.0734368246975
 20
423.6523171229682
 30
0.0
 40
0.5999999999999993
100
AcDbArc
 50
109.9999999999995
 51
270.0
  0
LINE
  5
168F
330
1E
100
AcDbEntity
  8
STEMPEL
100
AcDbLine
 10
211.9178833252324
 20
424.5981771770788
 30
0.0
 11
210.8682247387021
 21
424.2161326954398
 31
0.0
  0
LINE
  5
1690
330
1E
100
AcDbEntity
  8
STEMPEL
100
AcDbLine
 10
227.9786489106929
 20
424.2161326954398
 30
0.0
 11
226.9289903241626
 21
424.5981771770788
 31
0.0
  0
LINE
  5
1691
330
1E
100
AcDbEntity
  8
STEMPEL
100
AcDbLine
 10
226.9289903241626
 20
430.7828798748403
 30
0.0
 11
225.9234368246975
 21
431.0523171229682
 31
0.0
  0
LINE
  5
1692
330
1E
100
AcDbEntity
  8
STEMPEL
100
AcDbLine
 10
212.9234368246975
 20
431.0523171229682
 30
0.0
 11
211.9178833252324
 21
430.7828798748403
 31
0.0
  0
LINE
  5
1693
330
1E
100
AcDbEntity
  8
STEMPEL
100
AcDbLine
 10
211.9178833252324
 20
424.5981771770788
 30
0.0
 11
211.9178833252324
 21
430.7828798748403
 31
0.0
  0
LINE
  5
1694
330
1E
100
AcDbEntity
  8
STEMPEL
100
AcDbLine
 10
227.7734368246975
 20
423.0523171229682
 30
0.0
 11
211.0734368246975
 21
423.0523171229682
 31
0.0
  0
LINE
  5
1695
330
1E
100
AcDbEntity
  8
HILF
100
AcDbLine
 10
227.9786489106929
 20
424.2161326954398
 30
0.0
 11
210.8682247387021
 21
424.2161326954398
 31
0.0
  0
LINE
  5
1696
330
1E
100
AcDbEntity
  8
STEMPEL
100
AcDbLine
 10
215.6706600749649
 20
424.5981771770788
 30
0.0
 11
215.6706600749649
 21
430.7828798748403
 31
0.0
  0
LINE
  5
1697
330
1E
100
AcDbEntity
  8
STEMPEL
100
AcDbLine
 10
223.17621357443
 20
424.5981771770788
 30
0.0
 11
223.17621357443
 21
430.7828798748403
 31
0.0
  0
LINE
  5
1698
330
1E
100
AcDbEntity
  8
STEMPEL
100
AcDbLine
 10
226.9289903241626
 20
424.5981771770788
 30
0.0
 11
226.9289903241626
 21
430.7828798748403
 31
0.0
  0
LINE
  5
1699
330
1E
100
AcDbEntity
  8
STEMPEL
100
AcDbLine
 10
212.9234368246975
 20
431.0523171229682
 30
0.0
 11
225.9234368246975
 21
431.0523171229682
 31
0.0
  0
LINE
  5
169A
330
1E
100
AcDbEntity
  8
HILF
100
AcDbLine
 10
267.4234368246975
 20
423.0523171229683
 30
0.0
 11
267.4234368246975
 21
416.9938426144675
 31
0.0
  0
LINE
  5
169B
330
1E
100
AcDbEntity
  8
STEMPEL
100
AcDbLine
 10
266.4234368246976
 20
423.0523171229682
 30
0.0
 11
266.4234368246976
 21
416.9938426144675
 31
0.0
  0
LINE
  5
169C
330
1E
100
AcDbEntity
  8
HILF
100
AcDbLine
 10
273.4234368246975
 20
423.0523171229683
 30
0.0
 11
273.4234368246975
 21
416.9938426144675
 31
0.0
  0
LINE
  5
169D
330
1E
100
AcDbEntity
  8
STEMPEL
100
AcDbLine
 10
274.4234368246975
 20
423.0523171229682
 30
0.0
 11
274.4234368246976
 21
416.9938426144675
 31
0.0
  0
LINE
  5
169E
330
1E
100
AcDbEntity
  8
STEMPEL
100
AcDbLine
 10
274.4234368246976
 20
421.0523171229684
 30
0.0
 11
280.4234368246974
 21
421.0523171229683
 31
0.0
  0
LINE
  5
169F
330
1E
100
AcDbEntity
  8
STEMPEL
100
AcDbLine
 10
215.4234368246975
 20
421.0523171229684
 30
0.0
 11
215.4234368246975
 21
416.9938426144674
 31
0.0
  0
LINE
  5
16A0
330
1E
100
AcDbEntity
  8
HILF
100
AcDbLine
 10
216.4234368246976
 20
421.0523171229684
 30
0.0
 11
216.4234368246976
 21
416.9938426144675
 31
0.0
  0
LINE
  5
16A1
330
1E
100
AcDbEntity
  8
HILF
100
AcDbLine
 10
222.4234368246976
 20
421.0523171229684
 30
0.0
 11
222.4234368246976
 21
416.9938426144675
 31
0.0
  0
LINE
  5
16A2
330
1E
100
AcDbEntity
  8
STEMPEL
100
AcDbLine
 10
223.4234368246975
 20
421.0523171229684
 30
0.0
 11
223.4234368246975
 21
416.9938426144674
 31
0.0
  0
LINE
  5
16A3
330
1E
100
AcDbEntity
  8
HILF
100
AcDbLine
 10
165.4234368246975
 20
423.0523171229683
 30
0.0
 11
165.4234368246975
 21
416.9938426144675
 31
0.0
  0
LINE
  5
16A4
330
1E
100
AcDbEntity
  8
STEMPEL
100
AcDbLine
 10
164.4234368246975
 20
423.0523171229683
 30
0.0
 11
164.4234368246975
 21
416.9938426144674
 31
0.0
  0
LINE
  5
16A5
330
1E
100
AcDbEntity
  8
HILF
100
AcDbLine
 10
171.4234368246975
 20
423.0523171229683
 30
0.0
 11
171.4234368246975
 21
416.9938426144675
 31
0.0
  0
LINE
  5
16A6
330
1E
100
AcDbEntity
  8
STEMPEL
100
AcDbLine
 10
172.4234368246975
 20
423.0523171229683
 30
0.0
 11
172.4234368246975
 21
416.9938426144674
 31
0.0
  0
LINE
  5
16A7
330
1E
100
AcDbEntity
  8
STEMPEL
100
AcDbLine
 10
172.4234368246975
 20
421.0523171229683
 30
0.0
 11
266.4234368246976
 21
421.0523171229684
 31
0.0
  0
TEXT
  5
16B1
330
1E
100
AcDbEntity
  8
TEXT
 62
     1
100
AcDbText
 10
157.6731295726835
 20
499.7231711531949
 30
0.0
 40
7.0
  1
Losflansch
 41
0.8
  7
GREEKS
100
AcDbText
  0
TEXT
  5
16B2
330
1E
100
AcDbEntity
  8
TEXT
 62
     1
100
AcDbText
 10
157.6731295726835
 20
486.83590728249
 30
0.0
 40
7.0
  1
EDV-Art.Nr. 19070.000X
 41
0.8
  7
GREEKS
100
AcDbText
  0
LINE
  5
16B3
330
1E
100
AcDbEntity
  8
TEXT
 62
     2
100
AcDbLine
 10
156.4004423499659
 20
496.1930613397909
 30
0.0
 11
262.3356229979071
 21
496.1930613397909
 31
0.0
  0
LINE
  5
16B5
330
1E
100
AcDbEntity
  8
TEXT
 62
     2
100
AcDbLine
 10
292.0805186197462
 20
497.3323316521657
 30
0.0
 11
290.4537879843846
 21
473.5569676595129
 31
0.0
  0
LINE
  5
16B6
330
1E
100
AcDbEntity
  8
TEXT
 62
     2
100
AcDbLine
 10
292.0805186197462
 20
497.3323316521657
 30
0.0
 11
399.060645889925
 21
497.3323316521657
 31
0.0
  0
TEXT
  5
16B7
330
1E
100
AcDbEntity
  8
TEXT
 62
     1
100
AcDbText
 10
293.3532058424638
 20
487.9751775948648
 30
0.0
 40
7.0
  1
EDV-Art.Nr. 19088.070X
 41
0.8
  7
GREEKS
100
AcDbText
  0
TEXT
  5
16B8
330
1E
100
AcDbEntity
  8
TEXT
 62
     1
100
AcDbText
 10
293.3532058424638
 20
500.8624414655696
 30
0.0
 40
7.0
  1
Flanschdichtring DN70
 41
0.8
  7
GREEKS
100
AcDbText
  0
HATCH
  5
1729
330
1E
100
AcDbEntity
  8
SCHRAFF
100
AcDbHatch
 10
0.0
 20
0.0
 30
0.0
210
0.0
220
0.0
230
1.0
  2
_USER
 70
     0
 71
     0
 91
        2
 92
        7
 72
     1
 73
     1
 93
       20
 10
255.9234368246976
 20
355.0461158637263
 42
-0.1257737761160444
 10
257.1007953152634
 20
359.6525363833444
 42
0.1257737761160551
 10
258.5234368246975
 20
365.2186278445499
 42
0.0
 10
258.5234368246975
 20
382.0691068141593
 42
-0.0932053832641477
 10
259.3431089558452
 20
386.4280365847525
 42
0.0932053832641367
 10
261.0234368246975
 20
395.3638426144676
 42
0.0
 10
261.0234368246975
 20
404.4700600245429
 42
0.1109653701492531
 10
258.6587690686735
 20
414.9938426144674
 42
0.0
 10
257.3234368246976
 20
414.9938426144674
 42
-0.1171484945869472
 10
259.8234368246975
 20
404.470060024543
 42
0.0
 10
259.8234368246975
 20
395.3638426144676
 42
-0.0932053832641468
 10
258.2250761689595
 20
386.8639295618109
 42
0.093205383264128
 10
257.3234368246975
 20
382.0691068141593
 42
0.0
 10
257.3234368246975
 20
365.2186278445498
 42
-0.1257737761160455
 10
256.0479651265844
 20
360.2283389482969
 42
0.1257737761160562
 10
254.7234368246977
 20
355.0461158637262
 42
0.0
 10
254.7234368246977
 20
202.0462357459584
 42
0.0
 10
254.1064323749642
 20
194.9938426144675
 42
0.0
 10
255.3110161800163
 20
194.9938426144675
 42
0.0
 10
255.9234368246963
 20
201.9938426144502
 42
0.0
 97
        0
 92
        7
 72
     1
 73
     1
 93
       20
 10
184.1234368246976
 20
355.0461158637262
 42
0.1257737761160501
 10
182.7989085228107
 20
360.2283389482967
 42
-0.1257737761160518
 10
181.5234368246975
 20
365.2186278445498
 42
0.0
 10
181.5234368246975
 20
382.0691068141592
 42
0.0932053832641409
 10
180.6217974804352
 20
386.8639295618114
 42
-0.0932053832641394
 10
179.0234368246975
 20
395.3638426144674
 42
0.0
 10
179.0234368246975
 20
404.4700600245429
 42
-0.1171484945869484
 10
181.5234368246975
 20
414.9938426144674
 42
0.0
 10
180.1881045807214
 20
414.9938426144674
 42
0.1109653701492537
 10
177.8234368246975
 20
404.4700600245429
 42
0.0
 10
177.8234368246975
 20
395.3638426144674
 42
0.0932053832641405
 10
179.50376469355
 20
386.4280365847521
 42
-0.0932053832641402
 10
180.3234368246975
 20
382.0691068141592
 42
0.0
 10
180.3234368246975
 20
365.2186278445498
 42
0.1257737761160508
 10
181.7460783341314
 20
359.6525363833444
 42
-0.1257737761160527
 10
182.9234368246976
 20
355.0461158637262
 42
0.0
 10
182.9234368246975
 20
201.9938426144675
 42
0.0
 10
183.535857469379
 20
194.9938426144675
 42
0.0
 10
184.740441274431
 20
194.9938426144675
 42
0.0
 10
184.1234368246976
 20
202.0462357459568
 42
0.0
 97
        0
 75
     0
 76
     0
 52
135.0
 41
2.0
 77
     0
 78
     1
 53
135.0
 43
-12.03918477251955
 44
0.0
 45
-1.414213562373095
 46
-1.414213562373094
 79
     0
 47
0.3506939688898622
 98
        2
 10
255.0635712201433
 20
334.9228038600306
 10
183.4996674865906
 20
345.0929296694067
  0
LINE
  5
172A
330
1E
100
AcDbEntity
  8
HILF
  6
Continuous
100
AcDbLine
 10
253.7612652885702
 20
357.4233665351358
 30
0.0
 11
185.0856083608248
 21
357.4233665351358
 31
0.0
  0
LINE
  5
172B
330
1E
100
AcDbEntity
  8
HILF
  6
Continuous
100
AcDbLine
 10
255.6634985662004
 20
362.3461166165967
 30
0.0
 11
183.1833750831946
 21
362.3461166165967
 31
0.0
  0
LINE
  5
172C
330
1E
100
AcDbEntity
  8
HILF
  6
Continuous
100
AcDbLine
 10
256.295226564334
 20
384.2867706270231
 30
0.0
 11
182.551647085061
 21
384.286770627023
 31
0.0
  0
ARC
  5
172D
330
1E
100
AcDbEntity
  8
STEMPEL
100
AcDbCircle
 10
246.9234368246975
 20
365.2186278445498
 30
0.0
 40
11.6
100
AcDbArc
 50
331.3253430949261
 51
0.0
  0
ARC
  5
172E
330
1E
100
AcDbEntity
  8
STEMPEL
100
AcDbCircle
 10
246.9234368246975
 20
365.2186278445498
 30
0.0
 40
10.4
100
AcDbArc
 50
331.3253430949261
 51
0.0
  0
ARC
  5
172F
330
1E
100
AcDbEntity
  8
STEMPEL
100
AcDbCircle
 10
265.5234368246975
 20
355.0461158637263
 30
0.0
 40
9.600000000000001
100
AcDbArc
 50
151.3253430949261
 51
180.0
  0
ARC
  5
1730
330
1E
100
AcDbEntity
  8
STEMPEL
100
AcDbCircle
 10
265.5234368246975
 20
355.0461158637263
 30
0.0
 40
10.8
100
AcDbArc
 50
151.3253430949261
 51
180.0
  0
ARC
  5
1731
330
1E
100
AcDbEntity
  8
STEMPEL
100
AcDbCircle
 10
270.5234368246975
 20
382.0691068141593
 30
0.0
 40
13.2
100
AcDbArc
 50
158.7004355745895
 51
180.0
  0
ARC
  5
1732
330
1E
100
AcDbEntity
  8
STEMPEL
100
AcDbCircle
 10
270.5234368246975
 20
382.0691068141593
 30
0.0
 40
12.0
100
AcDbArc
 50
158.7004355745895
 51
180.0
  0
LINE
  5
1733
330
1E
100
AcDbEntity
  8
STEMPEL
100
AcDbLine
 10
258.5234368246975
 20
382.0691068141593
 30
0.0
 11
258.5234368246975
 21
365.2186278445499
 31
0.0
  0
LINE
  5
1734
330
1E
100
AcDbEntity
  8
STEMPEL
100
AcDbLine
 10
257.3234368246975
 20
382.0691068141593
 30
0.0
 11
257.3234368246975
 21
365.2186278445498
 31
0.0
  0
ARC
  5
1735
330
1E
100
AcDbEntity
  8
STEMPEL
100
AcDbCircle
 10
236.4234368246975
 20
395.3638426144676
 30
0.0
 40
24.6
100
AcDbArc
 50
338.7004355745895
 51
0.0
  0
LINE
  5
1736
330
1E
100
AcDbEntity
  8
STEMPEL
100
AcDbLine
 10
261.0234368246975
 20
404.4700600245429
 30
0.0
 11
261.0234368246975
 21
395.3638426144676
 31
0.0
  0
ARC
  5
1737
330
1E
100
AcDbEntity
  8
STEMPEL
100
AcDbCircle
 10
236.4234368246975
 20
404.4700600245429
 30
0.0
 40
24.6
100
AcDbArc
 50
0.0
 51
25.32777242177722
  0
ARC
  5
1738
330
1E
100
AcDbEntity
  8
STEMPEL
100
AcDbCircle
 10
236.4234368246975
 20
395.3638426144676
 30
0.0
 40
23.4
100
AcDbArc
 50
338.7004355745895
 51
0.0
  0
ARC
  5
1739
330
1E
100
AcDbEntity
  8
STEMPEL
100
AcDbCircle
 10
236.4234368246975
 20
404.4700600245429
 30
0.0
 40
23.4
100
AcDbArc
 50
0.0
 51
26.72663811086465
  0
LINE
  5
173A
330
1E
100
AcDbEntity
  8
STEMPEL
100
AcDbLine
 10
259.8234368246975
 20
404.4700600245429
 30
0.0
 11
259.8234368246975
 21
395.3638426144676
 31
0.0
  0
HATCH
  5
173B
330
1E
100
AcDbEntity
  8
SCHRAFF
100
AcDbHatch
 10
0.0
 20
0.0
 30
0.0
210
0.0
220
0.0
230
1.0
  2
_USER
 70
     0
 71
     0
 91
        2
 92
        7
 72
     1
 73
     1
 93
        3
 10
258.6587690686735
 20
414.9938426144673
 42
-0.0305161962876784
 10
259.774426091395
 20
412.2090069985553
 42
0.3065326142826381
 10
261.6587690686736
 20
414.9938426144674
 42
0.0
 97
        0
 92
        7
 72
     1
 73
     1
 93
        3
 10
177.1881045807213
 20
414.9938426144674
 42
0.3065326142826505
 10
179.0724475579999
 20
412.2090069985553
 42
-0.0305161962876796
 10
180.1881045807214
 20
414.9938426144674
 42
0.0
 97
        0
 75
     0
 76
     0
 52
0.0
 41
0.1
 77
     0
 78
     1
 53
0.0
 43
-12.03918477251955
 44
0.0
 45
0.0
 46
0.1
 79
     0
 47
0.1014887106367553
 98
        2
 10
260.2984692870978
 20
414.5544352295194
 10
179.1804188400983
 20
414.7574131329625
  0
ARC
  5
173C
330
1E
100
AcDbEntity
  8
SCHRAFF
100
AcDbCircle
 10
258.6587690686735
 20
414.9938426144674
 30
0.0
 40
3.0
100
AcDbArc
 50
291.8319587893876
 51
0.0
  0
LINE
  5
173D
330
1E
100
AcDbEntity
  8
STEMPEL
100
AcDbLine
 10
254.7234368246977
 20
355.0461158637263
 30
0.0
 11
254.7234368246977
 21
202.046235745958
 31
0.0
  0
LINE
  5
173E
102
{ACAD_REACTORS
330
18A7
102
}
330
1E
100
AcDbEntity
  8
STEMPEL
100
AcDbLine
 10
255.9234368246976
 20
355.0461158637263
 30
0.0
 11
255.9234368246963
 21
201.9938426144675
 31
0.0
  0
TEXT
  5
173F
330
1E
100
AcDbEntity
  8
TEXT
 62
     1
100
AcDbText
 10
215.7529309821706
 20
311.48228589704
 30
0.0
 40
7.0
  1
DN70
 50
90.0
 41
0.8
  7
GREEKS
100
AcDbText
  0
DIMENSION
  5
1740
330
1E
100
AcDbEntity
  8
BEM
100
AcDbDimension
  2
*D2
 10
255.9234368246963
 20
169.8700810231857
 30
0.0
 11
219.4234368246969
 21
176.3700810231858
 31
0.0
 70
    32
  1
%%c<>
 71
     5
 42
72.99999999999872
  3
Standard
100
AcDbAlignedDimension
 13
182.9234368246975
 23
201.9938426144675
 33
0.0
 14
255.9234368246963
 24
201.9938426144675
 34
0.0
100
AcDbRotatedDimension
1001
ACAD
1000
DSTYLE
1002
{
1070
    40
1040
2.0
1070
    41
1040
3.5
1070
    42
1040
1.0
1070
    43
1040
7.0
1070
    44
1040
1.0
1070
    73
1070
     0
1070
    74
1070
     0
1070
    77
1070
     1
1070
    78
1070
     8
1070
    79
1070
     2
1070
   140
1040
3.5
1070
   141
1040
1.5
1070
   146
1040
0.5142857142857144
1070
   147
1040
1.5
1070
   172
1070
     1
1070
   178
1070
     1
1070
   179
1070
     2
1070
   271
1070
     2
1070
   272
1070
     2
1070
   284
1070
     8
1070
   285
1070
     8
1070
   286
1070
     8
1002
}
  0
LINE
  5
1741
330
1E
100
AcDbEntity
  8
STEMPEL
100
AcDbLine
 10
184.1234368246976
 20
202.0462357459568
 30
0.0
 11
184.740441274431
 21
194.9938426144675
 31
0.0
  0
LINE
  5
1742
330
1E
100
AcDbEntity
  8
STEMPEL
100
AcDbLine
 10
182.9234368246975
 20
201.9938426144675
 30
0.0
 11
183.535857469379
 21
194.9938426144675
 31
0.0
  0
LINE
  5
1743
330
1E
100
AcDbEntity
  8
HILF
100
AcDbLine
 10
185.3326044348016
 20
201.9938426144675
 30
0.0
 11
253.5142692145937
 21
201.9938426144675
 31
0.0
  0
LINE
  5
1744
330
1E
100
AcDbEntity
  8
STEMPEL
100
AcDbLine
 10
179.0234368246975
 20
404.4700600245429
 30
0.0
 11
179.0234368246975
 21
395.3638426144674
 31
0.0
  0
ARC
  5
1745
330
1E
100
AcDbEntity
  8
STEMPEL
100
AcDbCircle
 10
202.4234368246975
 20
404.4700600245429
 30
0.0
 40
23.4
100
AcDbArc
 50
153.2733618891353
 51
180.0
  0
ARC
  5
1746
330
1E
100
AcDbEntity
  8
STEMPEL
100
AcDbCircle
 10
202.4234368246975
 20
395.3638426144675
 30
0.0
 40
23.4
100
AcDbArc
 50
180.0
 51
201.2995644254105
  0
ARC
  5
1747
330
1E
100
AcDbEntity
  8
STEMPEL
100
AcDbCircle
 10
202.4234368246975
 20
404.4700600245429
 30
0.0
 40
24.6
100
AcDbArc
 50
154.6722275782228
 51
180.0
  0
LINE
  5
1748
330
1E
100
AcDbEntity
  8
STEMPEL
100
AcDbLine
 10
177.8234368246975
 20
404.4700600245429
 30
0.0
 11
177.8234368246975
 21
395.3638426144674
 31
0.0
  0
ARC
  5
1749
330
1E
100
AcDbEntity
  8
STEMPEL
100
AcDbCircle
 10
202.4234368246975
 20
395.3638426144675
 30
0.0
 40
24.6
100
AcDbArc
 50
180.0
 51
201.2995644254105
  0
LINE
  5
174A
330
1E
100
AcDbEntity
  8
STEMPEL
100
AcDbLine
 10
181.5234368246975
 20
382.0691068141592
 30
0.0
 11
181.5234368246975
 21
365.2186278445498
 31
0.0
  0
LINE
  5
174B
330
1E
100
AcDbEntity
  8
STEMPEL
100
AcDbLine
 10
180.3234368246975
 20
382.0691068141592
 30
0.0
 11
180.3234368246975
 21
365.2186278445498
 31
0.0
  0
ARC
  5
174C
330
1E
100
AcDbEntity
  8
STEMPEL
100
AcDbCircle
 10
168.3234368246975
 20
382.0691068141592
 30
0.0
 40
12.0
100
AcDbArc
 50
0.0
 51
21.29956442541051
  0
ARC
  5
174D
330
1E
100
AcDbEntity
  8
STEMPEL
100
AcDbCircle
 10
168.3234368246975
 20
382.0691068141592
 30
0.0
 40
13.2
100
AcDbArc
 50
0.0
 51
21.29956442541051
  0
ARC
  5
174E
330
1E
100
AcDbEntity
  8
STEMPEL
100
AcDbCircle
 10
173.3234368246975
 20
355.0461158637262
 30
0.0
 40
10.8
100
AcDbArc
 50
0.0
 51
28.67465690507389
  0
ARC
  5
174F
330
1E
100
AcDbEntity
  8
STEMPEL
100
AcDbCircle
 10
173.3234368246975
 20
355.0461158637262
 30
0.0
 40
9.600000000000001
100
AcDbArc
 50
0.0
 51
28.67465690507389
  0
ARC
  5
1750
330
1E
100
AcDbEntity
  8
STEMPEL
100
AcDbCircle
 10
191.9234368246975
 20
365.2186278445498
 30
0.0
 40
10.4
100
AcDbArc
 50
180.0
 51
208.6746569050739
  0
ARC
  5
1751
330
1E
100
AcDbEntity
  8
STEMPEL
100
AcDbCircle
 10
191.9234368246975
 20
365.2186278445498
 30
0.0
 40
11.6
100
AcDbArc
 50
180.0
 51
208.6746569050739
  0
ARC
  5
1752
330
1E
100
AcDbEntity
  8
SCHRAFF
100
AcDbCircle
 10
180.1881045807213
 20
414.9938426144673
 30
0.0
 40
3.0
100
AcDbArc
 50
180.0
 51
248.1680412106124
  0
LINE
  5
1753
102
{ACAD_REACTORS
330
18A7
102
}
330
1E
100
AcDbEntity
  8
STEMPEL
100
AcDbLine
 10
182.9234368246976
 20
355.0461158637262
 30
0.0
 11
182.9234368246975
 21
201.9938426144675
 31
0.0
  0
LINE
  5
1754
330
1E
100
AcDbEntity
  8
STEMPEL
100
AcDbLine
 10
184.1234368246976
 20
355.0461158637262
 30
0.0
 11
184.1234368246976
 21
202.0462357459568
 31
0.0
  0
DIMENSION
  5
1755
330
1E
100
AcDbEntity
  8
BEM
100
AcDbDimension
  2
*D3
 10
63.79528060521622
 20
194.9938426144675
 30
0.0
 11
57.29528060521619
 21
319.9938426144675
 31
0.0
 70
    32
 71
     5
 42
249.9999999999999
  3
Standard
100
AcDbAlignedDimension
 13
73.42343682469754
 23
444.9938426144674
 33
0.0
 14
183.535857469379
 24
194.9938426144675
 34
0.0
 50
90.0
100
AcDbRotatedDimension
1001
ACAD
1000
DSTYLE
1002
{
1070
    40
1040
2.0
1070
    41
1040
3.5
1070
    42
1040
1.0
1070
    43
1040
7.0
1070
    44
1040
1.0
1070
    73
1070
     0
1070
    74
1070
     0
1070
    77
1070
     1
1070
    78
1070
     8
1070
    79
1070
     2
1070
   140
1040
3.5
1070
   141
1040
1.5
1070
   146
1040
0.5142857142857144
1070
   147
1040
1.5
1070
   172
1070
     1
1070
   178
1070
     1
1070
   179
1070
     2
1070
   271
1070
     2
1070
   272
1070
     2
1070
   284
1070
     8
1070
   285
1070
     8
1070
   286
1070
     8
1002
}
  0
LINE
  5
1756
330
1E
100
AcDbEntity
  8
STEMPEL
100
AcDbLine
 10
183.535857469379
 20
194.9938426144675
 30
0.0
 11
255.3110161800163
 21
194.9938426144675
 31
0.0
  0
LINE
  5
1798
330
1E
100
AcDbEntity
  8
STEMPEL
100
AcDbLine
 10
255.9234368246977
 20
201.9938426144675
 30
0.0
 11
255.3110161800163
 21
194.9938426144675
 31
0.0
  0
LINE
  5
1799
330
1E
100
AcDbEntity
  8
STEMPEL
100
AcDbLine
 10
254.7234368246977
 20
202.0462357459568
 30
0.0
 11
254.1064323749643
 21
194.9938426144675
 31
0.0
  0
LINE
  5
179F
330
1E
100
AcDbEntity
  8
TEXT
 62
     2
100
AcDbLine
 10
156.4004423499659
 20
496.1930613397909
 30
0.0
 11
148.476686193419
 21
473.4502852552007
 31
0.0
  0
ARC
  5
17C6
102
{ACAD_REACTORS
330
18A7
102
}
330
1E
100
AcDbEntity
  8
STEMPEL
100
AcDbCircle
 10
157.2417904888004
 20
260.833675823343
 30
0.0
 40
3.0
100
AcDbArc
 50
183.5763343749981
 51
270.0
  0
ARC
  5
17C7
102
{ACAD_REACTORS
330
18A7
102
}
330
1E
100
AcDbEntity
  8
STEMPEL
100
AcDbCircle
 10
281.6050831605947
 20
260.8336758233414
 30
0.0
 40
3.0
100
AcDbArc
 50
270.0
 51
356.4236656250018
  0
LINE
  5
17C8
102
{ACAD_REACTORS
330
18A7
102
}
330
1E
100
AcDbEntity
  8
STEMPEL
100
AcDbLine
 10
261.9234368246979
 20
259.8336758233415
 30
0.0
 11
261.9234368246979
 21
257.8336758233415
 31
0.0
  0
LINE
  5
17C9
102
{ACAD_REACTORS
330
18A7
102
}
330
1E
100
AcDbEntity
  8
STEMPEL
100
AcDbLine
 10
176.9234368246979
 20
259.8336758233427
 30
0.0
 11
176.9234368246979
 21
257.8336758233428
 31
0.0
  0
LINE
  5
17CA
102
{ACAD_REACTORS
330
18A7
102
}
330
1E
100
AcDbEntity
  8
STEMPEL
100
AcDbLine
 10
261.9234368246979
 20
259.8336758233417
 30
0.0
 11
255.9234368246968
 21
259.8336758233417
 31
0.0
  0
LINE
  5
17CB
102
{ACAD_REACTORS
330
18A7
102
}
330
1E
100
AcDbEntity
  8
STEMPEL
100
AcDbLine
 10
171.9234368246974
 20
347.833675823343
 30
0.0
 11
165.9234368246976
 21
353.8336758233429
 31
0.0
  0
LINE
  5
17CC
102
{ACAD_REACTORS
330
18A7
102
}
330
1E
100
AcDbEntity
  8
STEMPEL
100
AcDbLine
 10
171.9234368246974
 20
347.833675823343
 30
0.0
 11
171.9234368246979
 21
281.8336758233412
 31
0.0
  0
LINE
  5
17CD
102
{ACAD_REACTORS
330
18A7
102
}
330
1E
100
AcDbEntity
  8
STEMPEL
100
AcDbLine
 10
182.9234368246975
 20
266.8736758233431
 30
0.0
 11
171.9234368246979
 21
281.8336758233412
 31
0.0
  0
LINE
  5
17CE
102
{ACAD_REACTORS
330
18A7
102
}
330
1E
100
AcDbEntity
  8
STEMPEL
100
AcDbLine
 10
266.9234368246977
 20
347.8336758233433
 30
0.0
 11
272.9234368246974
 21
353.8336758233431
 31
0.0
  0
LINE
  5
17CF
330
1E
100
AcDbEntity
  8
STEMPEL
100
AcDbLine
 10
266.9234368246977
 20
347.8336758233433
 30
0.0
 11
255.9234368246976
 21
347.8336758233433
 31
0.0
  0
LINE
  5
17D0
330
1E
100
AcDbEntity
  8
STEMPEL
100
AcDbLine
 10
266.9234368246977
 20
281.8336758233414
 30
0.0
 11
255.923436824697
 21
281.8336758233416
 31
0.0
  0
LINE
  5
17D1
102
{ACAD_REACTORS
330
18A7
102
}
330
1E
100
AcDbEntity
  8
STEMPEL
100
AcDbLine
 10
255.9234368246968
 20
266.8736758233416
 30
0.0
 11
266.9234368246977
 21
281.8336758233414
 31
0.0
  0
LINE
  5
17D2
102
{ACAD_REACTORS
330
18A7
102
}
330
1E
100
AcDbEntity
  8
STEMPEL
100
AcDbLine
 10
266.9234368246977
 20
347.8336758233433
 30
0.0
 11
266.9234368246977
 21
281.8336758233414
 31
0.0
  0
LINE
  5
17D3
102
{ACAD_REACTORS
330
18A7
102
}
330
1E
100
AcDbEntity
  8
STEMPEL
100
AcDbLine
 10
294.4234368246979
 20
417.8336758233433
 30
0.0
 11
284.4234368246978
 21
417.8336758233433
 31
0.0
  0
LINE
  5
17D4
102
{ACAD_REACTORS
330
18A7
102
}
330
1E
100
AcDbEntity
  8
STEMPEL
100
AcDbLine
 10
281.6050831605947
 20
257.8336758233414
 30
0.0
 11
255.9234368246968
 21
257.8336758233418
 31
0.0
  0
LINE
  5
17D5
330
1E
100
AcDbEntity
  8
STEMPEL
100
AcDbLine
 10
272.9234368246979
 20
407.8336758233432
 30
0.0
 11
260.7923943066674
 21
407.8336758233432
 31
0.0
  0
LINE
  5
17D6
330
1E
100
AcDbEntity
  8
STEMPEL
100
AcDbLine
 10
272.9234368246972
 20
353.8336758233431
 30
0.0
 11
255.9234368246976
 21
353.8336758233431
 31
0.0
  0
LINE
  5
17D8
102
{ACAD_REACTORS
330
18A7
102
}
330
1E
100
AcDbEntity
  8
STEMPEL
100
AcDbLine
 10
144.4234368246977
 20
417.833675823343
 30
0.0
 11
154.2476327533518
 21
260.6465409648775
 31
0.0
  0
LINE
  5
17DA
102
{ACAD_REACTORS
330
18A7
102
}
330
1E
100
AcDbEntity
  8
STEMPEL
100
AcDbLine
 10
165.9234368246979
 20
353.8336758233429
 30
0.0
 11
165.9234368246977
 21
407.8336758233431
 31
0.0
  0
LINE
  5
17DB
102
{ACAD_REACTORS
330
18A7
102
}
330
1E
100
AcDbEntity
  8
STEMPEL
100
AcDbLine
 10
154.4234368246977
 20
417.8336758233431
 30
0.0
 11
165.9234368246977
 21
407.8336758233431
 31
0.0
  0
LINE
  5
17DC
102
{ACAD_REACTORS
330
18A7
102
}
330
1E
100
AcDbEntity
  8
STEMPEL
100
AcDbLine
 10
294.4234368246977
 20
417.833675823343
 30
0.0
 11
284.5992408960434
 21
260.6465409648758
 31
0.0
  0
LINE
  5
17DF
102
{ACAD_REACTORS
330
18A7
102
}
330
1E
100
AcDbEntity
  8
STEMPEL
100
AcDbLine
 10
284.4234368246977
 20
417.8336758233431
 30
0.0
 11
272.9234368246977
 21
407.8336758233431
 31
0.0
  0
LINE
  5
17E0
102
{ACAD_REACTORS
330
18A7
102
}
330
1E
100
AcDbEntity
  8
STEMPEL
100
AcDbLine
 10
272.9234368246974
 20
353.8336758233429
 30
0.0
 11
272.9234368246977
 21
407.8336758233431
 31
0.0
  0
LINE
  5
17E3
330
1E
100
AcDbEntity
  8
TEXT
 62
     2
100
AcDbLine
 10
289.2238758525033
 20
455.5812758155102
 30
0.0
 11
287.0034056020374
 21
423.1281534041579
 31
0.0
  0
TEXT
  5
17E4
330
1E
100
AcDbEntity
  8
TEXT
 62
     1
100
AcDbText
 10
301.4158386946418
 20
338.0521847431519
 30
0.0
 40
7.0
  1
Wärmedämmung DN70
 41
0.8
  7
GREEKS
100
AcDbText
  0
TEXT
  5
17E5
330
1E
100
AcDbEntity
  8
TEXT
 62
     1
100
AcDbText
 10
301.4158386946418
 20
325.1649208724471
 30
0.0
 40
7.0
  1
EDV-Art.Nr. 19842.070X
 41
0.8
  7
GREEKS
100
AcDbText
  0
LINE
  5
17E6
330
1E
100
AcDbEntity
  8
TEXT
 62
     2
100
AcDbLine
 10
300.1431514719242
 20
334.522074929748
 30
0.0
 11
407.1232787421029
 21
334.522074929748
 31
0.0
  0
LINE
  5
17E7
330
1E
100
AcDbEntity
  8
TEXT
 62
     2
100
AcDbLine
 10
300.1431514719242
 20
334.522074929748
 30
0.0
 11
282.5612057409998
 21
342.5745245653922
 31
0.0
  0
DIMENSION
  5
1816
330
1E
100
AcDbEntity
  8
BEM
100
AcDbDimension
  2
*D4
 10
294.4234368246979
 20
457.576610775528
 30
0.0
 11
219.4234368246978
 21
464.0766107755279
 31
0.0
 70
    32
  1
%%c<>
 71
     5
 42
150.0000000000002
  3
Standard
100
AcDbAlignedDimension
 13
144.4234368246977
 23
417.833675823343
 33
0.0
 14
294.4234368246979
 24
417.8336758233433
 34
0.0
100
AcDbRotatedDimension
1001
ACAD
1000
DSTYLE
1002
{
1070
    40
1040
2.0
1070
    41
1040
3.5
1070
    42
1040
1.0
1070
    43
1040
7.0
1070
    44
1040
1.0
1070
    73
1070
     0
1070
    74
1070
     0
1070
    77
1070
     1
1070
    78
1070
     8
1070
    79
1070
     2
1070
   140
1040
3.5
1070
   141
1040
1.5
1070
   146
1040
0.5
1070
   147
1040
1.5
1070
   172
1070
     1
1070
   178
1070
     1
1070
   179
1070
     2
1070
   271
1070
     2
1070
   272
1070
     2
1070
   284
1070
     8
1070
   285
1070
     8
1070
   286
1070
     8
1070
   340
1005
24
1002
}
  0
DIMENSION
  5
1817
330
1E
100
AcDbEntity
  8
BEM
100
AcDbDimension
  2
*D5
 10
83.01283614670428
 20
257.8336758233431
 30
0.0
 11
76.51283614670423
 21
337.8336758233431
 31
0.0
 70
    32
 71
     5
 42
160.0
  3
Standard
100
AcDbAlignedDimension
 13
144.4234368246977
 23
417.833675823343
 33
0.0
 14
154.4258921901759
 24
257.833675823343
 34
0.0
 50
90.0
100
AcDbRotatedDimension
1001
ACAD
1000
DSTYLE
1002
{
1070
    40
1040
2.0
1070
    41
1040
3.5
1070
    42
1040
1.0
1070
    43
1040
7.0
1070
    44
1040
1.0
1070
    73
1070
     0
1070
    74
1070
     0
1070
    77
1070
     1
1070
    78
1070
     8
1070
    79
1070
     2
1070
   140
1040
3.5
1070
   141
1040
1.5
1070
   146
1040
0.5
1070
   147
1040
1.5
1070
   172
1070
     1
1070
   178
1070
     1
1070
   179
1070
     2
1070
   271
1070
     2
1070
   272
1070
     2
1070
   284
1070
     8
1070
   285
1070
     8
1070
   286
1070
     8
1070
   340
1005
24
1002
}
  0
DIMENSION
  5
1818
330
1E
100
AcDbEntity
  8
BEM
100
AcDbDimension
  2
*D6
 10
284.4209814592193
 20
240.2851771286
 30
0.0
 11
219.4234368246976
 21
246.7851771285999
 31
0.0
 70
    32
  1
%%c<>
 71
     5
 42
129.9950892690433
  3
Standard
100
AcDbAlignedDimension
 13
154.4258921901759
 23
257.833675823343
 33
0.0
 14
284.4209814592193
 24
257.8336758233413
 34
0.0
100
AcDbRotatedDimension
1001
ACAD
1000
DSTYLE
1002
{
1070
    40
1040
2.0
1070
    41
1040
3.5
1070
    42
1040
1.0
1070
    43
1040
7.0
1070
    44
1040
1.0
1070
    73
1070
     0
1070
    74
1070
     0
1070
    77
1070
     1
1070
    78
1070
     8
1070
    79
1070
     2
1070
   140
1040
3.5
1070
   141
1040
1.5
1070
   146
1040
0.5
1070
   147
1040
1.5
1070
   172
1070
     1
1070
   178
1070
     1
1070
   179
1070
     2
1070
   271
1070
     2
1070
   272
1070
     2
1070
   284
1070
     8
1070
   285
1070
     8
1070
   286
1070
     8
1070
   340
1005
24
1002
}
  0
LINE
  5
1875
330
1E
100
AcDbEntity
  8
TEXT
 62
     2
100
AcDbLine
 10
290.1807429527063
 20
469.5662977394774
 30
0.0
 11
289.4969208841816
 21
459.5719457355456
 31
0.0
  0
LINE
  5
1876
330
1E
100
AcDbEntity
  8
TEXT
 62
     2
100
AcDbLine
 10
147.1606443645598
 20
469.6729801437895
 30
0.0
 11
134.9665822129733
 21
434.6735657756469
 31
0.0
  0
TEXT
  5
1877
330
1E
100
AcDbEntity
  8
TEXT
100
AcDbText
 10
225.1296391125315
 20
71.64011943042154
 30
0.0
 40
5.0
  1
mit Wärmedämmung
 41
0.8
  7
GREEKS
100
AcDbText
  0
LINE
  5
1881
330
1E
100
AcDbEntity
  8
MITTEL
100
AcDbLine
 10
219.4234368246976
 20
237.7560848928688
 30
0.0
 11
219.4234368246977
 21
189.9938426144674
 31
0.0
  0
LINE
  5
1882
102
{ACAD_REACTORS
330
18A7
102
}
330
1E
100
AcDbEntity
  8
STEMPEL
100
AcDbLine
 10
154.4234368246979
 20
417.8336758233432
 30
0.0
 11
144.4234368246979
 21
417.8336758233431
 31
0.0
  0
LINE
  5
1883
330
1E
100
AcDbEntity
  8
STEMPEL
100
AcDbLine
 10
178.0544793427275
 20
407.8336758233431
 30
0.0
 11
165.9234368246977
 21
407.8336758233431
 31
0.0
  0
LINE
  5
1884
330
1E
100
AcDbEntity
  8
STEMPEL
100
AcDbLine
 10
182.9234368246975
 20
347.8336758233432
 30
0.0
 11
171.9234368246974
 21
347.8336758233432
 31
0.0
  0
LINE
  5
1885
330
1E
100
AcDbEntity
  8
STEMPEL
100
AcDbLine
 10
182.9234368246975
 20
353.8336758233429
 30
0.0
 11
165.9234368246979
 21
353.8336758233429
 31
0.0
  0
LINE
  5
1886
102
{ACAD_REACTORS
330
18A7
102
}
330
1E
100
AcDbEntity
  8
STEMPEL
100
AcDbLine
 10
182.9234368246975
 20
257.8336758233427
 30
0.0
 11
157.2417904888004
 21
257.833675823343
 31
0.0
  0
LINE
  5
1887
102
{ACAD_REACTORS
330
18A7
102
}
330
1E
100
AcDbEntity
  8
STEMPEL
100
AcDbLine
 10
182.9234368246976
 20
259.8336758233427
 30
0.0
 11
176.9234368246979
 21
259.8336758233427
 31
0.0
  0
LINE
  5
1888
330
1E
100
AcDbEntity
  8
STEMPEL
100
AcDbLine
 10
182.9234368246976
 20
281.8336758233428
 30
0.0
 11
171.9234368246979
 21
281.8336758233429
 31
0.0
  0
HATCH
  5
18A7
330
1E
100
AcDbEntity
  8
SCHRAFF
100
AcDbHatch
 10
0.0
 20
0.0
 30
0.0
210
0.0
220
0.0
230
1.0
  2
HONEY
 70
     0
 71
     1
 91
        2
 92
        7
 72
     1
 73
     1
 93
       12
 10
272.9234368246975
 20
353.8336758233431
 42
0.0
 10
266.9234368246977
 20
347.8336758233433
 42
0.0
 10
266.9234368246976
 20
281.8336758233414
 42
0.0
 10
255.9234368246968
 20
266.8736758233416
 42
0.0
 10
255.9234368246968
 20
259.8336758233417
 42
0.0
 10
261.9234368246979
 20
259.8336758233417
 42
0.0
 10
261.9234368246979
 20
257.8336758233417
 42
0.0
 10
281.6050831605947
 20
257.8336758233414
 42
0.3960474615044482
 10
284.5992408960434
 20
260.6465409648758
 42
0.0
 10
294.4234368246977
 20
417.8336758233433
 42
0.0
 10
284.423436824698
 20
417.8336758233434
 42
0.0
 10
272.9234368246977
 20
407.8336758233431
 42
0.0
 97
       12
330
17D3
330
17DF
330
17E0
330
17CE
330
17D2
330
17D1
330
173E
330
17CA
330
17C8
330
17D4
330
17C7
330
17DC
 92
        7
 72
     1
 73
     1
 93
       12
 10
165.9234368246977
 20
407.8336758233431
 42
0.0
 10
154.4234368246977
 20
417.8336758233432
 42
0.0
 10
144.4234368246977
 20
417.833675823343
 42
0.0
 10
154.2476327533518
 20
260.6465409648775
 42
0.3960474615044429
 10
157.2417904888004
 20
257.833675823343
 42
0.0
 10
176.9234368246979
 20
257.8336758233427
 42
0.0
 10
176.9234368246979
 20
259.8336758233427
 42
0.0
 10
182.9234368246975
 20
259.8336758233427
 42
0.0
 10
182.9234368246975
 20
266.8736758233432
 42
0.0
 10
171.9234368246979
 20
281.8336758233411
 42
0.0
 10
171.9234368246974
 20
347.8336758233429
 42
0.0
 10
165.9234368246979
 20
353.8336758233426
 42
0.0
 97
       12
330
17DB
330
1882
330
17D8
330
17C6
330
1886
330
17C9
330
1887
330
1753
330
17CD
330
17CC
330
17CB
330
17DA
 75
     0
 76
     1
 52
0.0
 41
30.0
 77
     0
 78
     3
 53
0.0
 43
0.0
 44
0.0
 45
5.625
 46
3.247595249999999
 79
     2
 49
3.75
 49
-7.5
 53
120.0
 43
0.0
 44
0.0
 45
-5.624999987709673
 46
3.247595271287468
 79
     2
 49
3.75
 49
-7.5
 53
60.0
 43
0.0
 44
0.0
 45
0.0000000122903263
 46
6.495190521287468
 79
     2
 49
-7.5
 49
3.75
 47
0.3960763832002043
 98
        2
 10
279.4449426167548
 20
379.4295677852729
 10
157.8084806203515
 20
369.9237338660005
  0
DIMENSION
  5
18A8
330
1E
100
AcDbEntity
  8
BEM
100
AcDbDimension
  2
*D7
 10
83.01283614670428
 20
257.8336758233431
 30
0.0
 11
76.51283614670423
 21
226.4137592189053
 31
0.0
 70
    32
  1
63
 71
     5
 42
62.83983320887552
  3
Standard
100
AcDbAlignedDimension
 13
183.535857469379
 23
194.9938426144675
 33
0.0
 14
154.4258921901759
 24
257.833675823343
 34
0.0
 50
90.0
100
AcDbRotatedDimension
1001
ACAD
1000
DSTYLE
1002
{
1070
    40
1040
2.0
1070
    41
1040
3.5
1070
    42
1040
1.0
1070
    43
1040
7.0
1070
    44
1040
1.0
1070
    73
1070
     0
1070
    74
1070
     0
1070
    77
1070
     1
1070
    78
1070
     8
1070
    79
1070
     2
1070
   140
1040
3.5
1070
   141
1040
1.5
1070
   146
1040
0.5142857142857144
1070
   147
1040
1.5
1070
   172
1070
     1
1070
   178
1070
     1
1070
   179
1070
     2
1070
   271
1070
     2
1070
   272
1070
     2
1070
   284
1070
     8
1070
   285
1070
     8
1070
   286
1070
     8
1002
}
  0
ENDSEC
  0
SECTION
  2
OBJECTS
  0
DICTIONARY
  5
C
330
0
100
AcDbDictionary
281
     1
  3
ACAD_COLOR
350
DF
  3
ACAD_GROUP
350
D
  3
ACAD_LAYOUT
350
19
  3
ACAD_MATERIAL
350
DE
  3
ACAD_MLINESTYLE
350
16
  3
ACAD_PLOTSETTINGS
350
18
  3
ACAD_PLOTSTYLENAME
350
E
  3
AcDbVariableDictionary
350
EA
  0
DICTIONARY
  5
A0
330
1E
100
AcDbDictionary
280
     1
281
     1
  3
ACAD_LAYOUTSELFREF
360
D4
  0
DICTIONARY
  5
A2
330
1A
100
AcDbDictionary
280
     1
281
     1
  3
ACAD_LAYOUTSELFREF
360
D3
  0
DICTIONARY
  5
DF
102
{ACAD_REACTORS
330
C
102
}
330
C
100
AcDbDictionary
281
     1
  0
DICTIONARY
  5
D
102
{ACAD_REACTORS
330
C
102
}
330
C
100
AcDbDictionary
281
     1
  0
DICTIONARY
  5
19
102
{ACAD_REACTORS
330
C
102
}
330
C
100
AcDbDictionary
281
     1
  3
Layout1
350
1D
  3
Model
350
21
  0
DICTIONARY
  5
DE
102
{ACAD_REACTORS
330
C
102
}
330
C
100
AcDbDictionary
281
     1
  0
DICTIONARY
  5
16
102
{ACAD_REACTORS
330
C
102
}
330
C
100
AcDbDictionary
281
     1
  3
Standard
350
17
  0
DICTIONARY
  5
18
102
{ACAD_REACTORS
330
C
102
}
330
C
100
AcDbDictionary
281
     1
  0
ACDBDICTIONARYWDFLT
  5
E
102
{ACAD_REACTORS
330
C
102
}
330
C
100
AcDbDictionary
281
     1
  3
Normal
350
F
100
AcDbDictionaryWithDefault
340
F
  0
DICTIONARY
  5
EA
102
{ACAD_REACTORS
330
C
102
}
330
C
100
AcDbDictionary
281
     1
  3
DIMASSOC
350
EB
  3
PROJECTNAME
350
EC
  0
XRECORD
  5
D4
102
{ACAD_REACTORS
330
A0
102
}
330
A0
100
AcDbXrecord
280
     1
340
1E
  0
XRECORD
  5
D3
102
{ACAD_REACTORS
330
A2
102
}
330
A2
100
AcDbXrecord
280
     1
340
1A
  0
LAYOUT
  5
1D
102
{ACAD_REACTORS
330
19
102
}
330
19
100
AcDbPlotSettings
  1

  2
\\NT_WORK01\HP LaserJet 5000 PCL 6
  4

  6

 40
0.0
 41
0.0
 42
0.0
 43
0.0
 44
0.0
 45
0.0
 46
0.0
 47
0.0
 48
0.0
 49
0.0
140
0.0
141
0.0
142
1.0
143
1.0
 70
   688
 72
     0
 73
     0
 74
     5
  7

 75
    16
147
1.0
 76
     0
 77
     2
 78
   300
148
0.0
149
0.0
100
AcDbLayout
  1
Layout1
 70
     0
 71
     1
 10
0.0
 20
0.0
 11
12.0
 21
9.0
 12
0.0
 22
0.0
 32
0.0
 14
1.000000000000000E+20
 24
1.000000000000000E+20
 34
1.000000000000000E+20
 15
-1.000000000000000E+20
 25
-1.000000000000000E+20
 35
-1.000000000000000E+20
146
0.0
 13
0.0
 23
0.0
 33
0.0
 16
1.0
 26
0.0
 36
0.0
 17
0.0
 27
1.0
 37
0.0
 76
     0
330
1A
  0
LAYOUT
  5
21
102
{ACAD_REACTORS
330
19
102
}
330
19
100
AcDbPlotSettings
  1

  2
none_device
  4
Letter_(8.50_x_11.00_Inches)
  6

 40
6.349999904632568
 41
6.349999904632568
 42
6.350006103515625
 43
6.350006103515625
 44
215.8999938964844
 45
279.3999938964844
 46
0.0
 47
0.0
 48
0.0
 49
0.0
140
0.0
141
0.0
142
1.0
143
1.0
 70
 11952
 72
     0
 73
     1
 74
     0
  7

 75
     0
147
1.0
 76
     0
 77
     2
 78
   300
148
2209.800000000001
149
0.0
100
AcDbLayout
  1
Model
 70
     1
 71
     0
 10
0.0
 20
0.0
 11
12.0
 21
9.0
 12
0.0
 22
0.0
 32
0.0
 14
0.0
 24
0.0
 34
0.0
 15
0.0
 25
0.0
 35
0.0
146
0.0
 13
0.0
 23
0.0
 33
0.0
 16
1.0
 26
0.0
 36
0.0
 17
0.0
 27
1.0
 37
0.0
 76
     0
330
1E
  0
MLINESTYLE
  5
17
102
{ACAD_REACTORS
330
16
102
}
330
16
100
AcDbMlineStyle
  2
STANDARD
 70
     0
  3

 62
   256
 51
90.0
 52
90.0
 71
     2
 49
0.5
 62
   256
  6
BYLAYER
 49
-0.5
 62
   256
  6
BYLAYER
  0
ACDBPLACEHOLDER
  5
F
102
{ACAD_REACTORS
330
E
102
}
330
E
  0
DICTIONARYVAR
  5
EB
102
{ACAD_REACTORS
330
EA
102
}
330
EA
100
DictionaryVariables
280
     0
  1
1
  0
DICTIONARYVAR
  5
EC
102
{ACAD_REACTORS
330
EA
102
}
330
EA
100
DictionaryVariables
280
     0
  1

  0
ENDSEC
  0
EOF
