  0
SECTION
  2
HEADER
  9
$ACADVER
  1
AC1018
  9
$ACADMAINTVER
 70
   104
  9
$DWGCODEPAGE
  3
ANSI_1252
  9
$LASTSAVEDBY
  1
w.koehlhoff
  9
$INSBASE
 10
214.18963059078
 20
83.98788932831553
 30
0.0
  9
$EXTMIN
 10
-0.0207365320223971
 20
-0.0181221163693408
 30
-0.000000000000013
  9
$EXTMAX
 10
420.0139642344882
 20
297.0181314522948
 30
0.0000000000000023
  9
$LIMMIN
 10
0.0
 20
0.0
  9
$LIMMAX
 10
420.0
 20
297.0
  9
$ORTHOMODE
 70
     1
  9
$REGENMODE
 70
     1
  9
$FILLMODE
 70
     1
  9
$QTEXTMODE
 70
     0
  9
$MIRRTEXT
 70
     1
  9
$LTSCALE
 40
10.0
  9
$ATTMODE
 70
     1
  9
$TEXTSIZE
 40
3.5
  9
$TRACEWID
 40
1.0
  9
$TEXTSTYLE
  7
STANDARD
  9
$CLAYER
  8
VOLL
  9
$CELTYPE
  6
ByLayer
  9
$CECOLOR
 62
   256
  9
$CELTSCALE
 40
1.0
  9
$DISPSILH
 70
     0
  9
$DIMSCALE
 40
1.0
  9
$DIMASZ
 40
3.5
  9
$DIMEXO
 40
1.0
  9
$DIMDLI
 40
7.0
  9
$DIMRND
 40
0.0
  9
$DIMDLE
 40
0.0
  9
$DIMEXE
 40
1.0
  9
$DIMTP
 40
0.2
  9
$DIMTM
 40
0.2
  9
$DIMTXT
 40
3.5
  9
$DIMCEN
 40
1.5
  9
$DIMTSZ
 40
0.0
  9
$DIMTOL
 70
     0
  9
$DIMLIM
 70
     0
  9
$DIMTIH
 70
     0
  9
$DIMTOH
 70
     0
  9
$DIMSE1
 70
     0
  9
$DIMSE2
 70
     0
  9
$DIMTAD
 70
     1
  9
$DIMZIN
 70
     8
  9
$DIMBLK
  1

  9
$DIMASO
 70
     1
  9
$DIMSHO
 70
     0
  9
$DIMPOST
  1

  9
$DIMAPOST
  1

  9
$DIMALT
 70
     0
  9
$DIMALTD
 70
     2
  9
$DIMALTF
 40
25.4
  9
$DIMLFAC
 40
1.0
  9
$DIMTOFL
 70
     1
  9
$DIMTVP
 40
0.5714285714285714
  9
$DIMTIX
 70
     0
  9
$DIMSOXD
 70
     0
  9
$DIMSAH
 70
     0
  9
$DIMBLK1
  1

  9
$DIMBLK2
  1

  9
$DIMSTYLE
  2
Standard
  9
$DIMCLRD
 70
     0
  9
$DIMCLRE
 70
     0
  9
$DIMCLRT
 70
     1
  9
$DIMTFAC
 40
0.5
  9
$DIMGAP
 40
1.5
  9
$DIMJUST
 70
     0
  9
$DIMSD1
 70
     0
  9
$DIMSD2
 70
     0
  9
$DIMTOLJ
 70
     1
  9
$DIMTZIN
 70
     8
  9
$DIMALTZ
 70
     8
  9
$DIMALTTZ
 70
     8
  9
$DIMUPT
 70
     0
  9
$DIMDEC
 70
     2
  9
$DIMTDEC
 70
     2
  9
$DIMALTU
 70
     2
  9
$DIMALTTD
 70
     2
  9
$DIMTXSTY
  7
STANDARD
  9
$DIMAUNIT
 70
     0
  9
$DIMADEC
 70
     2
  9
$DIMALTRND
 40
0.0
  9
$DIMAZIN
 70
     2
  9
$DIMDSEP
 70
    46
  9
$DIMATFIT
 70
     3
  9
$DIMFRAC
 70
     0
  9
$DIMLDRBLK
  1

  9
$DIMLUNIT
 70
     2
  9
$DIMLWD
 70
    -2
  9
$DIMLWE
 70
    -2
  9
$DIMTMOVE
 70
     0
  9
$LUNITS
 70
     2
  9
$LUPREC
 70
     2
  9
$SKETCHINC
 40
1.0
  9
$FILLETRAD
 40
0.0
  9
$AUNITS
 70
     0
  9
$AUPREC
 70
     0
  9
$MENU
  1
ACAD
  9
$ELEVATION
 40
0.0
  9
$PELEVATION
 40
0.0
  9
$THICKNESS
 40
0.0
  9
$LIMCHECK
 70
     0
  9
$CHAMFERA
 40
0.0
  9
$CHAMFERB
 40
0.0
  9
$CHAMFERC
 40
0.0
  9
$CHAMFERD
 40
0.0
  9
$SKPOLY
 70
     0
  9
$TDCREATE
 40
2450582.751075926
  9
$TDUCREATE
 40
2450582.709409260
  9
$TDUPDATE
 40
2456345.320603299
  9
$TDUUPDATE
 40
2456345.278936632
  9
$TDINDWG
 40
0.1000293981
  9
$TDUSRTIMER
 40
0.1000293981
  9
$USRTIMER
 70
     1
  9
$ANGBASE
 50
0.0
  9
$ANGDIR
 70
     0
  9
$PDMODE
 70
     0
  9
$PDSIZE
 40
0.0
  9
$PLINEWID
 40
0.0
  9
$SPLFRAME
 70
     0
  9
$SPLINETYPE
 70
     6
  9
$SPLINESEGS
 70
     8
  9
$HANDSEED
  5
C8C
  9
$SURFTAB1
 70
     6
  9
$SURFTAB2
 70
     6
  9
$SURFTYPE
 70
     6
  9
$SURFU
 70
     6
  9
$SURFV
 70
     6
  9
$UCSBASE
  2

  9
$UCSNAME
  2

  9
$UCSORG
 10
0.0
 20
0.0
 30
0.0
  9
$UCSXDIR
 10
1.0
 20
0.0
 30
0.0
  9
$UCSYDIR
 10
0.0
 20
1.0
 30
0.0
  9
$UCSORTHOREF
  2

  9
$UCSORTHOVIEW
 70
     0
  9
$UCSORGTOP
 10
0.0
 20
0.0
 30
0.0
  9
$UCSORGBOTTOM
 10
0.0
 20
0.0
 30
0.0
  9
$UCSORGLEFT
 10
0.0
 20
0.0
 30
0.0
  9
$UCSORGRIGHT
 10
0.0
 20
0.0
 30
0.0
  9
$UCSORGFRONT
 10
0.0
 20
0.0
 30
0.0
  9
$UCSORGBACK
 10
0.0
 20
0.0
 30
0.0
  9
$PUCSBASE
  2

  9
$PUCSNAME
  2

  9
$PUCSORG
 10
0.0
 20
0.0
 30
0.0
  9
$PUCSXDIR
 10
1.0
 20
0.0
 30
0.0
  9
$PUCSYDIR
 10
0.0
 20
1.0
 30
0.0
  9
$PUCSORTHOREF
  2

  9
$PUCSORTHOVIEW
 70
     0
  9
$PUCSORGTOP
 10
0.0
 20
0.0
 30
0.0
  9
$PUCSORGBOTTOM
 10
0.0
 20
0.0
 30
0.0
  9
$PUCSORGLEFT
 10
0.0
 20
0.0
 30
0.0
  9
$PUCSORGRIGHT
 10
0.0
 20
0.0
 30
0.0
  9
$PUCSORGFRONT
 10
0.0
 20
0.0
 30
0.0
  9
$PUCSORGBACK
 10
0.0
 20
0.0
 30
0.0
  9
$USERI1
 70
     0
  9
$USERI2
 70
     0
  9
$USERI3
 70
     0
  9
$USERI4
 70
     0
  9
$USERI5
 70
     0
  9
$USERR1
 40
0.0
  9
$USERR2
 40
0.0
  9
$USERR3
 40
0.0
  9
$USERR4
 40
0.0
  9
$USERR5
 40
0.0
  9
$WORLDVIEW
 70
     1
  9
$SHADEDGE
 70
     3
  9
$SHADEDIF
 70
    70
  9
$TILEMODE
 70
     1
  9
$MAXACTVP
 70
    16
  9
$PINSBASE
 10
0.0
 20
0.0
 30
0.0
  9
$PLIMCHECK
 70
     0
  9
$PEXTMIN
 10
1.000000000000000E+20
 20
1.000000000000000E+20
 30
1.000000000000000E+20
  9
$PEXTMAX
 10
-1.000000000000000E+20
 20
-1.000000000000000E+20
 30
-1.000000000000000E+20
  9
$PLIMMIN
 10
0.0
 20
0.0
  9
$PLIMMAX
 10
12.0
 20
9.0
  9
$UNITMODE
 70
     0
  9
$VISRETAIN
 70
     0
  9
$PLINEGEN
 70
     0
  9
$PSLTSCALE
 70
     0
  9
$TREEDEPTH
 70
  3020
  9
$CMLSTYLE
  2
Standard
  9
$CMLJUST
 70
     0
  9
$CMLSCALE
 40
1.0
  9
$PROXYGRAPHICS
 70
     1
  9
$MEASUREMENT
 70
     0
  9
$CELWEIGHT
370
    -1
  9
$ENDCAPS
280
     0
  9
$JOINSTYLE
280
     0
  9
$LWDISPLAY
290
     0
  9
$INSUNITS
 70
     0
  9
$HYPERLINKBASE
  1

  9
$STYLESHEET
  1
monochrome1.ctb
  9
$XEDIT
290
     1
  9
$CEPSNTYPE
380
     0
  9
$PSTYLEMODE
290
     1
  9
$FINGERPRINTGUID
  2
{BF4623EA-AE5E-40F4-88B9-C3C720F5A3F1}
  9
$VERSIONGUID
  2
{B64E4697-17E6-4867-9246-661F30945386}
  9
$EXTNAMES
290
     1
  9
$PSVPSCALE
 40
0.0
  9
$OLESTARTUP
290
     0
  9
$SORTENTS
280
   127
  9
$INDEXCTL
280
     0
  9
$HIDETEXT
280
     1
  9
$XCLIPFRAME
290
     0
  9
$HALOGAP
280
     0
  9
$OBSCOLOR
 70
   257
  9
$OBSLTYPE
280
     0
  9
$INTERSECTIONDISPLAY
280
     0
  9
$INTERSECTIONCOLOR
 70
   257
  9
$DIMASSOC
280
     2
  9
$PROJECTNAME
  1

  0
ENDSEC
  0
SECTION
  2
CLASSES
  0
CLASS
  1
ACDBDICTIONARYWDFLT
  2
AcDbDictionaryWithDefault
  3
ObjectDBX Classes
 90
        0
 91
        1
280
     0
281
     0
  0
CLASS
  1
DICTIONARYVAR
  2
AcDbDictionaryVar
  3
ObjectDBX Classes
 90
        0
 91
       11
280
     0
281
     0
  0
CLASS
  1
DIMASSOC
  2
AcDbDimAssoc
  3
"AcDbDimAssoc|Product Desc:     AcDim ARX App For Dimension|Company:          Autodesk, Inc.|WEB Address:      www.autodesk.com"
 90
        0
 91
        0
280
     0
281
     0
  0
CLASS
  1
MATERIAL
  2
AcDbMaterial
  3
ObjectDBX Classes
 90
     1153
 91
        3
280
     0
281
     0
  0
CLASS
  1
VISUALSTYLE
  2
AcDbVisualStyle
  3
ObjectDBX Classes
 90
     4095
 91
       24
280
     0
281
     0
  0
CLASS
  1
TABLESTYLE
  2
AcDbTableStyle
  3
ObjectDBX Classes
 90
     4095
 91
        1
280
     0
281
     0
  0
CLASS
  1
SCALE
  2
AcDbScale
  3
ObjectDBX Classes
 90
     1153
 91
       17
280
     0
281
     0
  0
CLASS
  1
MLEADERSTYLE
  2
AcDbMLeaderStyle
  3
ACDB_MLEADERSTYLE_CLASS
 90
     4095
 91
        1
280
     0
281
     0
  0
CLASS
  1
ACDBSECTIONVIEWSTYLE
  2
AcDbSectionViewStyle
  3
ObjectDBX Classes
 90
     1025
 91
        1
280
     0
281
     0
  0
CLASS
  1
ACDBDETAILVIEWSTYLE
  2
AcDbDetailViewStyle
  3
ObjectDBX Classes
 90
     1025
 91
        1
280
     0
281
     0
  0
CLASS
  1
SORTENTSTABLE
  2
AcDbSortentsTable
  3
ObjectDBX Classes
 90
        0
 91
        1
280
     0
281
     0
  0
CLASS
  1
CELLSTYLEMAP
  2
AcDbCellStyleMap
  3
ObjectDBX Classes
 90
     1152
 91
        3
280
     0
281
     0
  0
ENDSEC
  0
SECTION
  2
TABLES
  0
TABLE
  2
VPORT
  5
8
102
{ACAD_XDICTIONARY
360
B72
102
}
330
0
100
AcDbSymbolTable
 70
     1
  0
VPORT
  5
9A8
330
8
100
AcDbSymbolTableRecord
100
AcDbViewportTableRecord
  2
*Active
 70
     0
 10
0.0
 20
0.0
 11
1.0
 21
1.0
 12
209.9966138512328
 22
148.5000046679627
 13
0.0
 23
0.0
 14
2.5
 24
2.5
 15
10.0
 25
10.0
 16
0.0
 26
0.0
 36
1.0
 17
0.0
 27
0.0
 37
0.0
 40
299.0409976872378
 41
1.699324324324324
 42
50.0
 43
0.0
 44
0.0
 50
0.0
 51
0.0
 71
     0
 72
   500
 73
     1
 74
     0
 75
     0
 76
     0
 77
     0
 78
     0
281
     0
 65
     1
110
0.0
120
0.0
130
0.0
111
1.0
121
0.0
131
0.0
112
0.0
122
1.0
132
0.0
 79
     0
146
0.0
1001
ACAD_NAV_VCDISPLAY
1070
     3
  0
ENDTAB
  0
TABLE
  2
LTYPE
  5
5
330
0
100
AcDbSymbolTable
 70
     4
  0
LTYPE
  5
13
330
5
100
AcDbSymbolTableRecord
100
AcDbLinetypeTableRecord
  2
ByBlock
 70
     0
  3

 72
    65
 73
     0
 40
0.0
  0
LTYPE
  5
14
330
5
100
AcDbSymbolTableRecord
100
AcDbLinetypeTableRecord
  2
ByLayer
 70
     0
  3

 72
    65
 73
     0
 40
0.0
  0
LTYPE
  5
15
330
5
100
AcDbSymbolTableRecord
100
AcDbLinetypeTableRecord
  2
Continuous
 70
     0
  3
Solid line
 72
    65
 73
     0
 40
0.0
  0
LTYPE
  5
44
330
5
100
AcDbSymbolTableRecord
100
AcDbLinetypeTableRecord
  2
STRICHPUNKT
 70
     0
  3
__ . __ . __ . __ . __ . __ . __ . __ . __ . __
 72
    65
 73
     4
 40
1.0
 49
0.5
 74
     0
 49
-0.25
 74
     0
 49
0.0
 74
     0
 49
-0.25
 74
     0
  0
LTYPE
  5
9F9
330
5
100
AcDbSymbolTableRecord
100
AcDbLinetypeTableRecord
  2
PHANTOM2
 70
     0
  3
Phantom (.5x) ___ _ _ ___ _ _ ___ _ _ ___ _ _
 72
    65
 73
     6
 40
1.25
 49
0.625
 74
     0
 49
-0.125
 74
     0
 49
0.125
 74
     0
 49
-0.125
 74
     0
 49
0.125
 74
     0
 49
-0.125
 74
     0
  0
ENDTAB
  0
TABLE
  2
LAYER
  5
2
102
{ACAD_XDICTIONARY
360
A2E
102
}
330
0
100
AcDbSymbolTable
 70
     9
  0
LAYER
  5
10
102
{ACAD_XDICTIONARY
360
B5F
102
}
330
2
100
AcDbSymbolTableRecord
100
AcDbLayerTableRecord
  2
0
 70
     0
 62
     7
  6
Continuous
370
    -3
390
F
  0
LAYER
  5
47
102
{ACAD_XDICTIONARY
360
B61
102
}
330
2
100
AcDbSymbolTableRecord
100
AcDbLayerTableRecord
  2
VOLL
 70
     0
 62
     1
  6
Continuous
370
    -3
390
F
  0
LAYER
  5
48
102
{ACAD_XDICTIONARY
360
B63
102
}
330
2
100
AcDbSymbolTableRecord
100
AcDbLayerTableRecord
  2
MITTEL
 70
     0
 62
     2
  6
STRICHPUNKT
370
    -3
390
F
  0
LAYER
  5
49
102
{ACAD_XDICTIONARY
360
B65
102
}
330
2
100
AcDbSymbolTableRecord
100
AcDbLayerTableRecord
  2
BEM
 70
     0
 62
     7
  6
Continuous
370
    -3
390
F
  0
LAYER
  5
4A
102
{ACAD_XDICTIONARY
360
B67
102
}
330
2
100
AcDbSymbolTableRecord
100
AcDbLayerTableRecord
  2
HILF
 70
     0
 62
     2
  6
Continuous
370
    -3
390
F
  0
LAYER
  5
4B
330
2
100
AcDbSymbolTableRecord
100
AcDbLayerTableRecord
  2
DEFPOINTS
 70
     0
 62
     7
  6
Continuous
290
     0
370
    -3
390
F
  0
LAYER
  5
4C
102
{ACAD_XDICTIONARY
360
B69
102
}
330
2
100
AcDbSymbolTableRecord
100
AcDbLayerTableRecord
  2
STEMPEL
 70
     0
 62
     3
  6
Continuous
370
    -3
390
F
  0
LAYER
  5
4D
102
{ACAD_XDICTIONARY
360
B6B
102
}
330
2
100
AcDbSymbolTableRecord
100
AcDbLayerTableRecord
  2
TEXT
 70
     0
 62
     7
  6
Continuous
370
    -3
390
F
  0
LAYER
  5
4E
102
{ACAD_XDICTIONARY
360
B6D
102
}
330
2
100
AcDbSymbolTableRecord
100
AcDbLayerTableRecord
  2
SCHRAFF
 70
     0
 62
     7
  6
Continuous
370
    -3
390
F
  0
ENDTAB
  0
TABLE
  2
STYLE
  5
3
330
0
100
AcDbSymbolTable
 70
     3
  0
STYLE
  5
11
330
3
100
AcDbSymbolTableRecord
100
AcDbTextStyleTableRecord
  2
STANDARD
 70
     0
 40
0.0
 41
0.8
 50
0.0
 71
     0
 42
3.5
  3
simplex.shx
  4

  0
STYLE
  5
43
330
3
100
AcDbSymbolTableRecord
100
AcDbTextStyleTableRecord
  2
GREEKS
 70
     0
 40
0.0
 41
0.8
 50
0.0
 71
     0
 42
3.5
  3
SIMPLEX.shx
  4

  0
ENDTAB
  0
TABLE
  2
VIEW
  5
6
330
0
100
AcDbSymbolTable
 70
     1
  0
ENDTAB
  0
TABLE
  2
UCS
  5
7
330
0
100
AcDbSymbolTable
 70
     0
  0
ENDTAB
  0
TABLE
  2
APPID
  5
9
330
0
100
AcDbSymbolTable
 70
     5
  0
APPID
  5
12
330
9
100
AcDbSymbolTableRecord
100
AcDbRegAppTableRecord
  2
ACAD
 70
     0
  0
APPID
  5
9FF
330
9
100
AcDbSymbolTableRecord
100
AcDbRegAppTableRecord
  2
ACAD_NAV_VCDISPLAY
 70
     0
  0
APPID
  5
B59
330
9
100
AcDbSymbolTableRecord
100
AcDbRegAppTableRecord
  2
ACAD_EXEMPT_FROM_CAD_STANDARDS
 70
     0
  0
APPID
  5
BA9
330
9
100
AcDbSymbolTableRecord
100
AcDbRegAppTableRecord
  2
ACAD_MLEADERVER
 70
     0
  0
APPID
  5
C41
330
9
100
AcDbSymbolTableRecord
100
AcDbRegAppTableRecord
  2
ACAD_PSEXT
 70
     0
  0
ENDTAB
  0
TABLE
  2
DIMSTYLE
  5
A
330
0
100
AcDbSymbolTable
 70
     2
100
AcDbDimStyleTable
 71
     1
340
594
  0
DIMSTYLE
105
594
102
{ACAD_REACTORS
330
569
330
57F
330
4DC
330
504
330
895
330
8AD
330
938
330
959
102
}
330
A
100
AcDbSymbolTableRecord
100
AcDbDimStyleTableRecord
  2
Standard
 70
     0
340
11
  0
ENDTAB
  0
TABLE
  2
BLOCK_RECORD
  5
1
330
0
100
AcDbSymbolTable
 70
    10
  0
BLOCK_RECORD
  5
20
102
{ACAD_XDICTIONARY
360
B4C
102
}
330
1
100
AcDbSymbolTableRecord
100
AcDbBlockTableRecord
  2
*Model_Space
340
23
  0
BLOCK_RECORD
  5
1C
330
1
100
AcDbSymbolTableRecord
100
AcDbBlockTableRecord
  2
*Paper_Space
340
1F
  0
BLOCK_RECORD
  5
3F
330
1
100
AcDbSymbolTableRecord
100
AcDbBlockTableRecord
  2
LORO
340
0
102
{BLKREFS
331
58D
102
}
  0
BLOCK_RECORD
  5
6FD
330
1
100
AcDbSymbolTableRecord
100
AcDbBlockTableRecord
  2
*D1
340
0
  0
BLOCK_RECORD
  5
73C
330
1
100
AcDbSymbolTableRecord
100
AcDbBlockTableRecord
  2
*D2
340
0
  0
BLOCK_RECORD
  5
75D
330
1
100
AcDbSymbolTableRecord
100
AcDbBlockTableRecord
  2
*D3
340
0
  0
BLOCK_RECORD
  5
799
330
1
100
AcDbSymbolTableRecord
100
AcDbBlockTableRecord
  2
*D4
340
0
  0
BLOCK_RECORD
  5
896
330
1
100
AcDbSymbolTableRecord
100
AcDbBlockTableRecord
  2
*D5
340
0
  0
BLOCK_RECORD
  5
8AE
330
1
100
AcDbSymbolTableRecord
100
AcDbBlockTableRecord
  2
*D6
340
0
  0
BLOCK_RECORD
  5
939
330
1
100
AcDbSymbolTableRecord
100
AcDbBlockTableRecord
  2
*D7
340
0
  0
BLOCK_RECORD
  5
95A
330
1
100
AcDbSymbolTableRecord
100
AcDbBlockTableRecord
  2
*D8
340
0
  0
ENDTAB
  0
ENDSEC
  0
SECTION
  2
BLOCKS
  0
BLOCK
  5
52
330
20
100
AcDbEntity
  8
0
100
AcDbBlockBegin
  2
*Model_Space
 70
     0
 10
0.0
 20
0.0
 30
0.0
  3
*Model_Space
  1

  0
ENDBLK
  5
53
330
20
100
AcDbEntity
  8
0
100
AcDbBlockEnd
  0
BLOCK
  5
50
330
1C
100
AcDbEntity
 67
     1
  8
0
100
AcDbBlockBegin
  2
*Paper_Space
 70
     0
 10
0.0
 20
0.0
 30
0.0
  3
*Paper_Space
  1

  0
ENDBLK
  5
51
330
1C
100
AcDbEntity
 67
     1
  8
0
100
AcDbBlockEnd
  0
BLOCK
  5
447
330
3F
100
AcDbEntity
  8
0
100
AcDbBlockBegin
  2
LORO
 70
     0
 10
0.0
 20
0.0
 30
0.0
  3
LORO
  1

  0
ARC
  5
448
330
3F
100
AcDbEntity
  8
TEXT
 62
     3
100
AcDbCircle
 10
33.3940879938213
 20
7.339059403255902
 30
0.0
 40
4.9
100
AcDbArc
 50
270.0
 51
229.0342866699857
  0
LINE
  5
449
330
3F
100
AcDbEntity
  8
TEXT
 62
     3
100
AcDbLine
 10
19.29408799382133
 20
12.2390594032559
 30
0.0
 11
19.29408799382133
 21
2.439059403255903
 31
0.0
  0
ARC
  5
44A
330
3F
100
AcDbEntity
  8
TEXT
 62
     3
100
AcDbCircle
 10
6.394087993821358
 20
4.439059403255903
 30
0.0
 40
2.0
100
AcDbArc
 50
180.0000000000003
 51
270.0
  0
ARC
  5
44B
330
3F
100
AcDbEntity
  8
TEXT
 62
     3
100
AcDbCircle
 10
27.29040028552345
 20
4.439059403255901
 30
0.0
 40
2.0
100
AcDbArc
 50
195.0
 51
270.0
  0
LINE
  5
44C
330
3F
100
AcDbEntity
  8
TEXT
 62
     3
100
AcDbLine
 10
20.49408799382133
 20
7.439059403256004
 30
0.0
 11
20.49408799382133
 21
2.439059403255901
 31
0.0
  0
ARC
  5
44D
330
3F
100
AcDbEntity
  8
TEXT
 62
     3
100
AcDbCircle
 10
13.3940879938213
 20
7.339059403255902
 30
0.0
 40
4.9
100
AcDbArc
 50
270.0
 51
229.0342866699857
  0
LINE
  5
44E
330
3F
100
AcDbEntity
  8
TEXT
 62
     3
100
AcDbLine
 10
33.3940879938213
 20
2.439059403255901
 30
0.0
 11
27.29040028552345
 21
2.439059403255901
 31
0.0
  0
LINE
  5
44F
330
3F
100
AcDbEntity
  8
TEXT
 62
     3
100
AcDbLine
 10
13.3940879938213
 20
2.439059403255903
 30
0.0
 11
6.394087993821358
 21
2.439059403255903
 31
0.0
  0
LINE
  5
450
330
3F
100
AcDbEntity
  8
TEXT
 62
     3
100
AcDbLine
 10
20.49408799382133
 20
2.439059403255901
 30
0.0
 11
19.29408799382133
 21
2.439059403255903
 31
0.0
  0
CIRCLE
  5
451
330
3F
100
AcDbEntity
  8
TEXT
 62
     3
100
AcDbCircle
 10
33.3940879938213
 20
7.339059403255902
 30
0.0
 40
3.7
  0
CIRCLE
  5
452
330
3F
100
AcDbEntity
  8
TEXT
 62
     3
100
AcDbCircle
 10
13.3940879938213
 20
7.339059403255902
 30
0.0
 40
3.7
  0
LINE
  5
453
330
3F
100
AcDbEntity
  8
TEXT
 62
     3
100
AcDbLine
 10
10.18161231297949
 20
3.639059403255902
 30
0.0
 11
6.394087993821358
 21
3.639059403255902
 31
0.0
  0
LINE
  5
454
330
3F
100
AcDbEntity
  8
TEXT
 62
     3
100
AcDbLine
 10
4.394087993821301
 20
12.2390594032559
 30
0.0
 11
4.394087993821358
 21
4.439059403255891
 31
0.0
  0
LINE
  5
455
330
3F
100
AcDbEntity
  8
TEXT
 62
     3
100
AcDbLine
 10
5.59408799382129
 20
12.2390594032559
 30
0.0
 11
5.594087993821347
 21
4.439059403255898
 31
0.0
  0
ARC
  5
456
330
3F
100
AcDbEntity
  8
TEXT
 62
     3
100
AcDbCircle
 10
6.394087993821358
 20
4.439059403255903
 30
0.0
 40
0.8
100
AcDbArc
 50
180.0000000000003
 51
270.0
  0
LINE
  5
457
330
3F
100
AcDbEntity
  8
TEXT
 62
     3
100
AcDbLine
 10
4.394087993821301
 20
12.2390594032559
 30
0.0
 11
5.59408799382129
 21
12.2390594032559
 31
0.0
  0
LINE
  5
458
330
3F
100
AcDbEntity
  8
TEXT
 62
     3
100
AcDbLine
 10
24.3940879938213
 20
11.03905940325589
 30
0.0
 11
20.49408799382133
 21
11.03905940325589
 31
0.0
  0
LINE
  5
459
330
3F
100
AcDbEntity
  8
TEXT
 62
     3
100
AcDbLine
 10
24.3940879938213
 20
12.2390594032559
 30
0.0
 11
19.29408799382133
 21
12.2390594032559
 31
0.0
  0
LINE
  5
45A
330
3F
100
AcDbEntity
  8
TEXT
 62
     3
100
AcDbLine
 10
24.3940879938213
 20
8.639059403256004
 30
0.0
 11
20.49408799382133
 21
8.639059403256004
 31
0.0
  0
LINE
  5
45B
330
3F
100
AcDbEntity
  8
TEXT
 62
     3
100
AcDbLine
 10
24.3940879938213
 20
7.439059403256003
 30
0.0
 11
20.49408799382133
 21
7.439059403256003
 31
0.0
  0
LINE
  5
45C
330
3F
100
AcDbEntity
  8
TEXT
 62
     3
100
AcDbLine
 10
20.49408799382133
 20
11.03905940325589
 30
0.0
 11
20.49408799382133
 21
8.639059403256004
 31
0.0
  0
ARC
  5
45D
330
3F
100
AcDbEntity
  8
TEXT
 62
     3
100
AcDbCircle
 10
24.3940879938213
 20
9.839059403256003
 30
0.0
 40
2.399999999999999
100
AcDbArc
 50
299.47751218593
 51
90.0
  0
ARC
  5
45E
330
3F
100
AcDbEntity
  8
TEXT
 62
     3
100
AcDbCircle
 10
24.3940879938213
 20
9.839059403256003
 30
0.0
 40
1.199999999999999
100
AcDbArc
 50
270.0
 51
90.0
  0
LINE
  5
45F
330
3F
100
AcDbEntity
  8
TEXT
 62
     3
100
AcDbLine
 10
30.1816123129795
 20
3.639059403255902
 30
0.0
 11
27.29040028552345
 21
3.639059403255901
 31
0.0
  0
ARC
  5
460
330
3F
100
AcDbEntity
  8
TEXT
 62
     3
100
AcDbCircle
 10
24.3940879938213
 20
9.839059403256003
 30
0.0
 40
2.399999999999999
100
AcDbArc
 50
270.0
 51
270.5224878140705
  0
LINE
  5
461
330
3F
100
AcDbEntity
  8
TEXT
 62
     3
100
AcDbLine
 10
24.4159736088659
 20
7.439159192860971
 30
0.0
 11
25.35854863294531
 21
3.921421313050858
 31
0.0
  0
ARC
  5
462
330
3F
100
AcDbEntity
  8
TEXT
 62
     3
100
AcDbCircle
 10
27.29040028552345
 20
4.439059403255901
 30
0.0
 40
0.8
100
AcDbArc
 50
195.0
 51
270.0
  0
LINE
  5
463
330
3F
100
AcDbEntity
  8
TEXT
 62
     3
100
AcDbLine
 10
25.57508460041276
 20
7.749742046984001
 30
0.0
 11
26.5176596244923
 21
4.232004167173904
 31
0.0
  0
ENDBLK
  5
464
330
3F
100
AcDbEntity
  8
0
100
AcDbBlockEnd
  0
BLOCK
  5
707
330
6FD
100
AcDbEntity
  8
0
100
AcDbBlockBegin
  2
*D1
 70
     1
 10
0.0
 20
0.0
 30
0.0
  3
*D1
  1

  0
LINE
  5
8FF
330
6FD
100
AcDbEntity
  8
BEM
 62
     0
440
 16777216
370
    -2
100
AcDbLine
 10
359.9851716736491
 20
136.6549788091011
 30
0.0
 11
379.3656838485408
 21
135.6392892046472
 31
0.0
  0
LINE
  5
900
330
6FD
100
AcDbEntity
  8
BEM
 62
     0
440
 16777216
370
    -2
100
AcDbLine
 10
362.7589773545249
 20
189.5823441510935
 30
0.0
 11
382.1394895294167
 21
188.5666545466396
 31
0.0
  0
LINE
  5
901
330
6FD
100
AcDbEntity
  8
BEM
 62
     0
440
 16777216
370
    -2
100
AcDbLine
 10
378.5502301606365
 20
139.1868285325311
 30
0.0
 11
380.9576841478118
 21
185.1237871312415
 31
0.0
  0
SOLID
  5
902
330
6FD
100
AcDbEntity
  8
BEM
 62
     0
440
 16777216
100
AcDbTrace
 10
377.9676962653631
 20
139.2173578403395
 30
0.0
 11
379.1327640559101
 21
139.1562992247227
 31
0.0
 12
378.3670543137862
 22
135.6916251608901
 32
0.0
 13
378.3670543137862
 23
135.6916251608901
 33
0.0
  0
SOLID
  5
903
330
6FD
100
AcDbEntity
  8
BEM
 62
     0
440
 16777216
100
AcDbTrace
 10
380.3751502525383
 20
185.1543164390499
 30
0.0
 11
381.5402180430853
 21
185.0932578234332
 31
0.0
 12
381.1408599946621
 22
188.6189905028825
 32
0.0
 13
381.1408599946621
 23
188.6189905028825
 33
0.0
  0
MTEXT
  5
904
330
6FD
100
AcDbEntity
  8
BEM
 62
     1
440
 16777216
100
AcDbMText
 10
376.5084111662718
 20
162.3253996896759
 30
0.0
 40
3.5
 41
0.0
 71
     5
 72
     1
  1
\A1;%%C53
 11
0.0523359562429406
 21
0.9986295347545739
 31
0.0
 73
     1
 44
1.0
  0
POINT
  5
905
330
6FD
100
AcDbEntity
  8
DEFPOINTS
 62
     0
440
 16777216
100
AcDbPoint
 10
358.9865421388945
 20
136.7073147653441
 30
0.0
  0
POINT
  5
906
330
6FD
100
AcDbEntity
  8
DEFPOINTS
 62
     0
440
 16777216
100
AcDbPoint
 10
361.7603478197704
 20
189.6346801073365
 30
0.0
  0
POINT
  5
907
330
6FD
100
AcDbEntity
  8
DEFPOINTS
 62
     0
440
 16777216
100
AcDbPoint
 10
381.1408599946621
 20
188.6189905028825
 30
0.0
  0
ENDBLK
  5
708
330
6FD
100
AcDbEntity
  8
0
100
AcDbBlockEnd
  0
BLOCK
  5
746
330
73C
100
AcDbEntity
  8
0
100
AcDbBlockBegin
  2
*D2
 70
     1
 10
0.0
 20
0.0
 30
0.0
  3
*D2
  1

  0
LINE
  5
925
330
73C
100
AcDbEntity
  8
BEM
 62
     0
440
 16777216
370
    -2
100
AcDbLine
 10
195.998450061959
 20
137.5720203913413
 30
0.0
 11
195.998450061959
 21
87.44405259155007
 31
0.0
  0
LINE
  5
926
330
73C
100
AcDbEntity
  8
BEM
 62
     0
440
 16777216
370
    -2
100
AcDbLine
 10
367.2984500619591
 20
161.808073298436
 30
0.0
 11
367.2984500619591
 21
87.44405259155007
 31
0.0
  0
LINE
  5
927
330
73C
100
AcDbEntity
  8
BEM
 62
     0
440
 16777216
370
    -2
100
AcDbLine
 10
199.498450061959
 20
88.44405259155006
 30
0.0
 11
363.7984500619591
 21
88.44405259155006
 31
0.0
  0
SOLID
  5
928
330
73C
100
AcDbEntity
  8
BEM
 62
     0
440
 16777216
100
AcDbTrace
 10
199.498450061959
 20
89.02738592488338
 30
0.0
 11
199.498450061959
 21
87.86071925821673
 31
0.0
 12
195.998450061959
 22
88.44405259155006
 32
0.0
 13
195.998450061959
 23
88.44405259155006
 33
0.0
  0
SOLID
  5
929
330
73C
100
AcDbEntity
  8
BEM
 62
     0
440
 16777216
100
AcDbTrace
 10
363.7984500619591
 20
89.02738592488338
 30
0.0
 11
363.7984500619591
 21
87.86071925821673
 31
0.0
 12
367.2984500619591
 22
88.44405259155006
 32
0.0
 13
367.2984500619591
 23
88.44405259155006
 33
0.0
  0
MTEXT
  5
92A
330
73C
100
AcDbEntity
  8
BEM
 62
     1
440
 16777216
100
AcDbMText
 10
281.6484500619591
 20
91.69405259155006
 30
0.0
 40
3.5
 41
0.0
 71
     5
 72
     1
  1
\A1;171
 73
     1
 44
1.0
  0
POINT
  5
92B
330
73C
100
AcDbEntity
  8
DEFPOINTS
 62
     0
440
 16777216
100
AcDbPoint
 10
195.998450061959
 20
138.5720203913413
 30
0.0
  0
POINT
  5
92C
330
73C
100
AcDbEntity
  8
DEFPOINTS
 62
     0
440
 16777216
100
AcDbPoint
 10
367.2984500619591
 20
162.808073298436
 30
0.0
  0
POINT
  5
92D
330
73C
100
AcDbEntity
  8
DEFPOINTS
 62
     0
440
 16777216
100
AcDbPoint
 10
367.2984500619591
 20
88.44405259155006
 30
0.0
  0
ENDBLK
  5
747
330
73C
100
AcDbEntity
  8
0
100
AcDbBlockEnd
  0
BLOCK
  5
767
330
75D
100
AcDbEntity
  8
0
100
AcDbBlockBegin
  2
*D3
 70
     1
 10
0.0
 20
0.0
 30
0.0
  3
*D3
  1

  0
LINE
  5
913
330
75D
100
AcDbEntity
  8
BEM
 62
     0
440
 16777216
370
    -2
100
AcDbLine
 10
49.99845006195903
 20
236.5720203913413
 30
0.0
 11
49.99845006195903
 21
254.7021411713275
 31
0.0
  0
LINE
  5
914
330
75D
100
AcDbEntity
  8
BEM
 62
     0
440
 16777216
370
    -2
100
AcDbLine
 10
341.9984500619591
 20
236.5720203913413
 30
0.0
 11
341.9984500619591
 21
254.7021411713275
 31
0.0
  0
LINE
  5
915
330
75D
100
AcDbEntity
  8
BEM
 62
     0
440
 16777216
370
    -2
100
AcDbLine
 10
53.49845006195903
 20
253.7021411713275
 30
0.0
 11
338.498450061959
 21
253.7021411713275
 31
0.0
  0
SOLID
  5
916
330
75D
100
AcDbEntity
  8
BEM
 62
     0
440
 16777216
100
AcDbTrace
 10
53.49845006195903
 20
254.2854745046609
 30
0.0
 11
53.49845006195903
 21
253.1188078379942
 31
0.0
 12
49.99845006195903
 22
253.7021411713275
 32
0.0
 13
49.99845006195903
 23
253.7021411713275
 33
0.0
  0
SOLID
  5
917
330
75D
100
AcDbEntity
  8
BEM
 62
     0
440
 16777216
100
AcDbTrace
 10
338.498450061959
 20
254.2854745046609
 30
0.0
 11
338.498450061959
 21
253.1188078379942
 31
0.0
 12
341.9984500619591
 22
253.7021411713275
 32
0.0
 13
341.9984500619591
 23
253.7021411713275
 33
0.0
  0
MTEXT
  5
918
330
75D
100
AcDbEntity
  8
BEM
 62
     1
440
 16777216
100
AcDbMText
 10
195.998450061959
 20
256.9521411713275
 30
0.0
 40
3.5
 41
0.0
 71
     5
 72
     1
  1
\A1;%%C292
 73
     1
 44
1.0
  0
POINT
  5
919
330
75D
100
AcDbEntity
  8
DEFPOINTS
 62
     0
440
 16777216
100
AcDbPoint
 10
49.99845006195903
 20
235.5720203913413
 30
0.0
  0
POINT
  5
91A
330
75D
100
AcDbEntity
  8
DEFPOINTS
 62
     0
440
 16777216
100
AcDbPoint
 10
341.9984500619591
 20
235.5720203913413
 30
0.0
  0
POINT
  5
91B
330
75D
100
AcDbEntity
  8
DEFPOINTS
 62
     0
440
 16777216
100
AcDbPoint
 10
341.9984500619591
 20
253.7021411713275
 30
0.0
  0
ENDBLK
  5
768
330
75D
100
AcDbEntity
  8
0
100
AcDbBlockEnd
  0
BLOCK
  5
7A5
330
799
100
AcDbEntity
  8
0
100
AcDbBlockBegin
  2
*D4
 70
     1
 10
0.0
 20
0.0
 30
0.0
  3
*D4
  1

  0
LINE
  5
908
330
799
100
AcDbEntity
  8
BEM
 62
     0
440
 16777216
370
    -2
100
AcDbLine
 10
48.99845006195903
 20
235.5720203913413
 30
0.0
 11
43.84089688755262
 21
235.5720203913413
 31
0.0
  0
LINE
  5
909
330
799
100
AcDbEntity
  8
BEM
 62
     0
440
 16777216
370
    -2
100
AcDbLine
 10
48.99845006195903
 20
233.5720203913413
 30
0.0
 11
43.84089688755262
 21
233.5720203913413
 31
0.0
  0
LINE
  5
90A
330
799
100
AcDbEntity
  8
BEM
 62
     0
440
 16777216
370
    -2
100
AcDbLine
 10
44.84089688755261
 20
239.0720203913413
 30
0.0
 11
44.84089688755262
 21
242.5720203913413
 31
0.0
  0
LINE
  5
90B
330
799
100
AcDbEntity
  8
BEM
 62
     0
440
 16777216
370
    -2
100
AcDbLine
 10
44.84089688755261
 20
230.0720203913413
 30
0.0
 11
44.84089688755261
 21
221.7053537246747
 31
0.0
  0
LINE
  5
90C
330
799
100
AcDbEntity
  8
BEM
 62
     0
440
 16777216
370
    -2
100
AcDbLine
 10
44.84089688755261
 20
235.5720203913413
 30
0.0
 11
44.84089688755261
 21
233.5720203913413
 31
0.0
  0
SOLID
  5
90D
330
799
100
AcDbEntity
  8
BEM
 62
     0
440
 16777216
100
AcDbTrace
 10
44.25756355421928
 20
239.0720203913413
 30
0.0
 11
45.42423022088595
 21
239.0720203913413
 31
0.0
 12
44.84089688755261
 22
235.5720203913413
 32
0.0
 13
44.84089688755261
 23
235.5720203913413
 33
0.0
  0
SOLID
  5
90E
330
799
100
AcDbEntity
  8
BEM
 62
     0
440
 16777216
100
AcDbTrace
 10
44.25756355421928
 20
230.0720203913413
 30
0.0
 11
45.42423022088595
 21
230.0720203913413
 31
0.0
 12
44.84089688755261
 22
233.5720203913413
 32
0.0
 13
44.84089688755261
 23
233.5720203913413
 33
0.0
  0
MTEXT
  5
90F
330
799
100
AcDbEntity
  8
BEM
 62
     1
440
 16777216
100
AcDbMText
 10
41.59089688755257
 20
224.138687058008
 30
0.0
 40
3.5
 41
0.0
 71
     5
 72
     1
  1
\A1;2
 11
0.0000000000000001
 21
1.0
 31
0.0
 73
     1
 44
1.0
  0
POINT
  5
910
330
799
100
AcDbEntity
  8
DEFPOINTS
 62
     0
440
 16777216
100
AcDbPoint
 10
49.99845006195903
 20
235.5720203913413
 30
0.0
  0
POINT
  5
911
330
799
100
AcDbEntity
  8
DEFPOINTS
 62
     0
440
 16777216
100
AcDbPoint
 10
49.99845006195903
 20
233.5720203913413
 30
0.0
  0
POINT
  5
912
330
799
100
AcDbEntity
  8
DEFPOINTS
 62
     0
440
 16777216
100
AcDbPoint
 10
44.84089688755261
 20
233.5720203913413
 30
0.0
  0
ENDBLK
  5
7A6
330
799
100
AcDbEntity
  8
0
100
AcDbBlockEnd
  0
BLOCK
  5
8A0
330
896
100
AcDbEntity
  8
0
100
AcDbBlockBegin
  2
*D5
 70
     1
 10
0.0
 20
0.0
 30
0.0
  3
*D5
  1

  0
LINE
  5
A13
330
896
100
AcDbEntity
  8
BEM
 62
     0
440
 16777216
370
    -2
100
AcDbLine
 10
48.99845006195903
 20
235.5720203913413
 30
0.0
 11
35.84139873373639
 21
235.5720203913413
 31
0.0
  0
LINE
  5
A14
330
896
100
AcDbEntity
  8
BEM
 62
     0
440
 16777216
370
    -2
100
AcDbLine
 10
149.856896937515
 20
105.5720203913413
 30
0.0
 11
35.84139873373635
 21
105.5720203913413
 31
0.0
  0
LINE
  5
A15
330
896
100
AcDbEntity
  8
BEM
 62
     0
440
 16777216
370
    -2
100
AcDbLine
 10
36.84139873373638
 20
232.0720203913413
 30
0.0
 11
36.84139873373636
 21
109.0720203913413
 31
0.0
  0
SOLID
  5
A16
330
896
100
AcDbEntity
  8
BEM
 62
     0
440
 16777216
100
AcDbTrace
 10
36.25806540040305
 20
232.0720203913413
 30
0.0
 11
37.42473206706972
 21
232.0720203913413
 31
0.0
 12
36.84139873373638
 22
235.5720203913413
 32
0.0
 13
36.84139873373638
 23
235.5720203913413
 33
0.0
  0
SOLID
  5
A17
330
896
100
AcDbEntity
  8
BEM
 62
     0
440
 16777216
100
AcDbTrace
 10
36.25806540040302
 20
109.0720203913413
 30
0.0
 11
37.42473206706969
 21
109.0720203913413
 31
0.0
 12
36.84139873373636
 22
105.5720203913413
 32
0.0
 13
36.84139873373636
 23
105.5720203913413
 33
0.0
  0
MTEXT
  5
A18
330
896
100
AcDbEntity
  8
BEM
 62
     1
440
 16777216
100
AcDbMText
 10
33.59139873373634
 20
170.5720203913413
 30
0.0
 40
3.5
 41
0.0
 71
     5
 72
     1
  1
\A1;130
 11
0.0000000000000001
 21
1.0
 31
0.0
 73
     1
 44
1.0
  0
POINT
  5
A19
330
896
100
AcDbEntity
  8
DEFPOINTS
 62
     0
440
 16777216
100
AcDbPoint
 10
49.99845006195903
 20
235.5720203913413
 30
0.0
  0
POINT
  5
A1A
330
896
100
AcDbEntity
  8
DEFPOINTS
 62
     0
440
 16777216
100
AcDbPoint
 10
150.856896937515
 20
105.5720203913413
 30
0.0
  0
POINT
  5
A1B
330
896
100
AcDbEntity
  8
DEFPOINTS
 62
     0
440
 16777216
100
AcDbPoint
 10
36.84139873373636
 20
105.5720203913413
 30
0.0
  0
ENDBLK
  5
8A1
330
896
100
AcDbEntity
  8
0
100
AcDbBlockEnd
  0
BLOCK
  5
8B8
330
8AE
100
AcDbEntity
  8
0
100
AcDbBlockBegin
  2
*D6
 70
     1
 10
0.0
 20
0.0
 30
0.0
  3
*D6
  1

  0
LINE
  5
A0A
330
8AE
100
AcDbEntity
  8
BEM
 62
     0
440
 16777216
370
    -2
100
AcDbLine
 10
341.9984500619591
 20
236.5720203913413
 30
0.0
 11
341.9984500619591
 21
246.0929144676617
 31
0.0
  0
LINE
  5
A0B
330
8AE
100
AcDbEntity
  8
BEM
 62
     0
440
 16777216
370
    -2
100
AcDbLine
 10
96.98201256604907
 20
229.1999226539651
 30
0.0
 11
96.98201256604907
 21
246.0929144676617
 31
0.0
  0
LINE
  5
A0C
330
8AE
100
AcDbEntity
  8
BEM
 62
     0
440
 16777216
370
    -2
100
AcDbLine
 10
338.498450061959
 20
245.0929144676617
 30
0.0
 11
100.482012566049
 21
245.0929144676617
 31
0.0
  0
SOLID
  5
A0D
330
8AE
100
AcDbEntity
  8
BEM
 62
     0
440
 16777216
100
AcDbTrace
 10
338.498450061959
 20
245.676247800995
 30
0.0
 11
338.498450061959
 21
244.5095811343283
 31
0.0
 12
341.9984500619591
 22
245.0929144676617
 32
0.0
 13
341.9984500619591
 23
245.0929144676617
 33
0.0
  0
SOLID
  5
A0E
330
8AE
100
AcDbEntity
  8
BEM
 62
     0
440
 16777216
100
AcDbTrace
 10
100.482012566049
 20
245.676247800995
 30
0.0
 11
100.482012566049
 21
244.5095811343283
 31
0.0
 12
96.98201256604907
 22
245.0929144676617
 32
0.0
 13
96.98201256604907
 23
245.0929144676617
 33
0.0
  0
MTEXT
  5
A0F
330
8AE
100
AcDbEntity
  8
BEM
 62
     1
440
 16777216
100
AcDbMText
 10
219.490231314004
 20
248.3429144676617
 30
0.0
 40
3.5
 41
0.0
 71
     5
 72
     1
  1
\A1;245
 73
     1
 44
1.0
  0
POINT
  5
A10
330
8AE
100
AcDbEntity
  8
DEFPOINTS
 62
     0
440
 16777216
100
AcDbPoint
 10
341.9984500619591
 20
235.5720203913413
 30
0.0
  0
POINT
  5
A11
330
8AE
100
AcDbEntity
  8
DEFPOINTS
 62
     0
440
 16777216
100
AcDbPoint
 10
96.98201256604907
 20
228.199922653965
 30
0.0
  0
POINT
  5
A12
330
8AE
100
AcDbEntity
  8
DEFPOINTS
 62
     0
440
 16777216
100
AcDbPoint
 10
96.98201256604907
 20
245.0929144676617
 30
0.0
  0
ENDBLK
  5
8B9
330
8AE
100
AcDbEntity
  8
0
100
AcDbBlockEnd
  0
BLOCK
  5
943
330
939
100
AcDbEntity
  8
0
100
AcDbBlockBegin
  2
*D7
 70
     1
 10
0.0
 20
0.0
 30
0.0
  3
*D7
  1

  0
LINE
  5
A1C
330
939
100
AcDbEntity
  8
BEM
 62
     0
440
 16777216
370
    -2
100
AcDbLine
 10
365.8909630130648
 20
135.9516205322744
 30
0.0
 11
363.7277019755583
 21
94.67414098437803
 31
0.0
  0
LINE
  5
A1D
330
939
100
AcDbEntity
  8
BEM
 62
     0
440
 16777216
370
    -2
100
AcDbLine
 10
335.221480861577
 20
104.5733908565867
 30
0.0
 11
334.7821842042135
 21
96.19111129097202
 31
0.0
  0
LINE
  5
A1E
330
939
100
AcDbEntity
  8
BEM
 62
     0
440
 16777216
370
    -2
100
AcDbLine
 10
360.2848345601603
 20
95.8559463659829
 30
0.0
 11
338.3297235320974
 21
97.00656497887628
 31
0.0
  0
SOLID
  5
A1F
330
939
100
AcDbEntity
  8
BEM
 62
     0
440
 16777216
100
AcDbTrace
 10
360.3153638679686
 20
96.4384802612564
 30
0.0
 11
360.2543052523519
 21
95.27341247070941
 31
0.0
 12
363.7800379318013
 22
95.6727705191326
 32
0.0
 13
363.7800379318013
 23
95.6727705191326
 33
0.0
  0
SOLID
  5
A20
330
939
100
AcDbEntity
  8
BEM
 62
     0
440
 16777216
100
AcDbTrace
 10
338.3602528399058
 20
97.58909887414979
 30
0.0
 11
338.299194224289
 21
96.42403108360278
 31
0.0
 12
334.8345201604565
 22
97.18974082572659
 32
0.0
 13
334.8345201604565
 23
97.18974082572659
 33
0.0
  0
MTEXT
  5
A21
330
939
100
AcDbEntity
  8
BEM
 62
     1
440
 16777216
100
AcDbMText
 10
349.4773709039184
 20
99.67680166038196
 30
0.0
 40
3.5
 41
0.0
 71
     5
 72
     1
  1
\A1;29
 11
0.9986295347545739
 21
-0.0523359562429441
 31
0.0
 73
     1
 44
1.0
  0
POINT
  5
A22
330
939
100
AcDbEntity
  8
DEFPOINTS
 62
     0
440
 16777216
100
AcDbPoint
 10
365.9432989693077
 20
136.950250067029
 30
0.0
  0
POINT
  5
A23
330
939
100
AcDbEntity
  8
DEFPOINTS
 62
     0
440
 16777216
100
AcDbPoint
 10
335.2738168178199
 20
105.5720203913413
 30
0.0
  0
POINT
  5
A24
330
939
100
AcDbEntity
  8
DEFPOINTS
 62
     0
440
 16777216
100
AcDbPoint
 10
334.8345201604565
 20
97.18974082572659
 30
0.0
  0
ENDBLK
  5
944
330
939
100
AcDbEntity
  8
0
100
AcDbBlockEnd
  0
BLOCK
  5
964
330
95A
100
AcDbEntity
  8
0
100
AcDbBlockBegin
  2
*D8
 70
     1
 10
0.0
 20
0.0
 30
0.0
  3
*D8
  1

  0
ARC
  5
A25
330
95A
100
AcDbEntity
  8
BEM
 62
     0
440
 16777216
370
    -2
100
AcDbCircle
 10
195.998450061959
 20
171.7855258896211
 30
0.0
 40
23.69285081598854
100
AcDbArc
 50
5.471670146921693
 51
81.52832985307833
  0
SOLID
  5
A26
330
95A
100
AcDbEntity
  8
BEM
 62
     0
440
 16777216
100
AcDbTrace
 10
220.1665412782442
 20
174.0573049191885
 30
0.0
 11
219.0001459902568
 21
174.0321425808257
 31
0.0
 12
219.6588306493392
 22
170.5455378860449
 32
0.0
 13
219.6588306493392
 23
170.5455378860449
 33
0.0
  0
SOLID
  5
A27
330
95A
100
AcDbEntity
  8
BEM
 62
     0
440
 16777216
100
AcDbTrace
 10
199.4458035946854
 20
194.6381199602177
 30
0.0
 11
199.5319758616921
 21
195.801599848961
 31
0.0
 12
195.9984500619589
 22
195.4783767056096
 32
0.0
 13
195.9984500619589
 23
195.4783767056096
 33
0.0
  0
MTEXT
  5
A28
330
95A
100
AcDbEntity
  8
BEM
 62
     1
440
 16777216
100
AcDbMText
 10
216.1734270546848
 20
189.6429476922106
 30
0.0
 40
3.5
 41
0.0
 71
     5
 72
     1
  1
\A1;93°
 11
0.6627888757782278
 21
-0.748806320849813
 31
0.0
 73
     1
 44
1.0
  0
POINT
  5
A29
330
95A
100
AcDbEntity
  8
DEFPOINTS
 62
     0
440
 16777216
100
AcDbPoint
 10
208.2011703353569
 20
192.0942628694998
 30
0.0
  0
POINT
  5
A2A
330
95A
100
AcDbEntity
  8
DEFPOINTS
 62
     0
440
 16777216
100
AcDbPoint
 10
195.998450061959
 20
238.5720203913413
 30
0.0
  0
POINT
  5
A2B
330
95A
100
AcDbEntity
  8
DEFPOINTS
 62
     0
440
 16777216
100
AcDbPoint
 10
196.1153156490409
 20
171.7794012237275
 30
0.0
  0
POINT
  5
A2C
330
95A
100
AcDbEntity
  8
DEFPOINTS
 62
     0
440
 16777216
100
AcDbPoint
 10
372.2915977357319
 20
162.5463935172213
 30
0.0
  0
POINT
  5
A2D
330
95A
100
AcDbEntity
  8
DEFPOINTS
 62
     0
440
 16777216
100
AcDbPoint
 10
195.998450061959
 20
138.5720203913413
 30
0.0
  0
ENDBLK
  5
965
330
95A
100
AcDbEntity
  8
0
100
AcDbBlockEnd
  0
ENDSEC
  0
SECTION
  2
ENTITIES
  0
TEXT
  5
489
330
20
100
AcDbEntity
  8
TEXT
 62
     1
100
AcDbText
 10
327.4895586704976
 20
43.4970604199266
 30
0.0
 40
3.5
  1
Ablauftopf DN50
 41
0.8
  7
GREEKS
100
AcDbText
  0
LINE
  5
48A
330
20
100
AcDbEntity
  8
STEMPEL
100
AcDbLine
 10
415.0
 20
55.0
 30
0.0
 11
235.0
 21
55.0
 31
0.0
  0
LINE
  5
48B
330
20
100
AcDbEntity
  8
STEMPEL
100
AcDbLine
 10
235.0
 20
55.0
 30
0.0
 11
235.0
 21
5.0
 31
0.0
  0
LINE
  5
48C
330
20
100
AcDbEntity
  8
STEMPEL
100
AcDbLine
 10
283.0
 20
54.99999999999994
 30
0.0
 11
282.9999999999999
 21
4.999999999999943
 31
0.0
  0
LINE
  5
48D
330
20
100
AcDbEntity
  8
STEMPEL
100
AcDbLine
 10
324.9999999999999
 20
55.0
 30
0.0
 11
324.9999999999999
 21
5.0
 31
0.0
  0
LINE
  5
48E
330
20
100
AcDbEntity
  8
STEMPEL
100
AcDbLine
 10
376.0
 20
54.99999999999984
 30
0.0
 11
376.0
 21
20.0
 31
0.0
  0
LINE
  5
48F
330
20
100
AcDbEntity
  8
STEMPEL
100
AcDbLine
 10
282.9999999999999
 20
15.0
 30
0.0
 11
235.0
 21
15.0
 31
0.0
  0
LINE
  5
490
330
20
100
AcDbEntity
  8
STEMPEL
100
AcDbLine
 10
415.0
 20
20.0
 30
0.0
 11
282.9999999999999
 21
20.0
 31
0.0
  0
LINE
  5
491
330
20
100
AcDbEntity
  8
STEMPEL
100
AcDbLine
 10
415.0
 20
40.0
 30
0.0
 11
283.0
 21
40.0
 31
0.0
  0
LINE
  5
492
330
20
100
AcDbEntity
  8
VOLL
100
AcDbLine
 10
242.0
 20
55.0
 30
0.0
 11
241.9999999999999
 21
4.999999999999992
 31
0.0
  0
LINE
  5
493
330
20
100
AcDbEntity
  8
VOLL
100
AcDbLine
 10
262.0
 20
54.99999999999997
 30
0.0
 11
261.9999999999999
 21
4.999999999999971
 31
0.0
  0
LINE
  5
494
330
20
100
AcDbEntity
  8
VOLL
100
AcDbLine
 10
272.0
 20
54.99999999999996
 30
0.0
 11
271.9999999999999
 21
4.999999999999957
 31
0.0
  0
LINE
  5
495
330
20
100
AcDbEntity
  8
VOLL
100
AcDbLine
 10
292.0
 20
40.0
 30
0.0
 11
292.0
 21
20.0
 31
0.0
  0
LINE
  5
496
330
20
100
AcDbEntity
  8
VOLL
100
AcDbLine
 10
305.0
 20
54.99999999999992
 30
0.0
 11
304.9999999999999
 21
20.0
 31
0.0
  0
LINE
  5
497
330
20
100
AcDbEntity
  8
HILF
100
AcDbLine
 10
235.0
 20
50.0
 30
0.0
 11
283.0
 21
50.0
 31
0.0
  0
LINE
  5
498
330
20
100
AcDbEntity
  8
HILF
100
AcDbLine
 10
235.0
 20
45.0
 30
0.0
 11
283.0
 21
45.0
 31
0.0
  0
LINE
  5
499
330
20
100
AcDbEntity
  8
HILF
100
AcDbLine
 10
235.0
 20
40.0
 30
0.0
 11
283.0
 21
40.0
 31
0.0
  0
LINE
  5
49A
330
20
100
AcDbEntity
  8
HILF
100
AcDbLine
 10
235.0
 20
35.0
 30
0.0
 11
283.0
 21
35.0
 31
0.0
  0
LINE
  5
49B
330
20
100
AcDbEntity
  8
HILF
100
AcDbLine
 10
235.0
 20
30.0
 30
0.0
 11
283.0
 21
30.0
 31
0.0
  0
LINE
  5
49C
330
20
100
AcDbEntity
  8
HILF
100
AcDbLine
 10
235.0
 20
25.0
 30
0.0
 11
283.0
 21
25.0
 31
0.0
  0
LINE
  5
49D
330
20
100
AcDbEntity
  8
HILF
100
AcDbLine
 10
235.0
 20
20.0
 30
0.0
 11
283.0
 21
20.0
 31
0.0
  0
LINE
  5
49E
330
20
100
AcDbEntity
  8
HILF
100
AcDbLine
 10
283.0
 20
35.0
 30
0.0
 11
324.9999999999999
 21
35.0
 31
0.0
  0
LINE
  5
49F
330
20
100
AcDbEntity
  8
HILF
100
AcDbLine
 10
283.0
 20
30.0
 30
0.0
 11
324.9999999999999
 21
30.0
 31
0.0
  0
LINE
  5
4A0
330
20
100
AcDbEntity
  8
HILF
100
AcDbLine
 10
283.0
 20
25.0
 30
0.0
 11
324.9999999999999
 21
25.0
 31
0.0
  0
LINE
  5
4A1
330
20
100
AcDbEntity
  8
HILF
100
AcDbLine
 10
327.3868400548473
 20
42.01879123782068
 30
0.0
 11
373.3148921257405
 21
42.01879123782068
 31
0.0
  0
LINE
  5
4A2
330
20
100
AcDbEntity
  8
HILF
100
AcDbLine
 10
327.3868400548473
 20
35.0
 30
0.0
 11
373.3148921257405
 21
35.0
 31
0.0
  0
LINE
  5
4A3
330
20
100
AcDbEntity
  8
HILF
100
AcDbLine
 10
327.3868400548473
 20
30.0
 30
0.0
 11
373.3148921257405
 21
30.0
 31
0.0
  0
LINE
  5
4A4
330
20
100
AcDbEntity
  8
HILF
100
AcDbLine
 10
327.3868400548473
 20
25.0
 30
0.0
 11
373.3148921257405
 21
25.0
 31
0.0
  0
LINE
  5
4A5
330
20
100
AcDbEntity
  8
VOLL
100
AcDbLine
 10
376.0
 20
30.0
 30
0.0
 11
415.0
 21
30.0
 31
0.0
  0
LINE
  5
4A6
330
20
100
AcDbEntity
  8
HILF
100
AcDbLine
 10
378.3619308148496
 20
41.88991818477911
 30
0.0
 11
412.4294419663364
 21
41.88991818477911
 31
0.0
  0
LINE
  5
4A7
330
20
100
AcDbEntity
  8
HILF
100
AcDbLine
 10
327.3868400548473
 20
7.446991290141525
 30
0.0
 11
412.4294419663364
 21
7.446991290141525
 31
0.0
  0
TEXT
  5
4A8
330
20
100
AcDbEntity
  8
TEXT
100
AcDbText
 10
246.3266963118282
 20
9.336909474920645
 30
0.0
 40
2.0
  1
Änderung
 41
0.8
  7
GREEKS
 72
     1
 11
251.6981248832568
 21
9.336909474920645
 31
0.0
100
AcDbText
  0
TEXT
  5
4A9
330
20
100
AcDbEntity
  8
BEM
100
AcDbText
 10
286.7581786075188
 20
51.2310447543544
 30
0.0
 40
2.5
  1
Maßstab
 41
0.8
  7
GREEKS
100
AcDbText
  0
TEXT
  5
4AA
330
20
100
AcDbEntity
  8
BEM
100
AcDbText
 10
308.9823307452798
 20
51.20920842174092
 30
0.0
 40
2.5
  1
zul.Abw.
 41
0.8
  7
GREEKS
100
AcDbText
  0
TEXT
  5
4AB
330
20
100
AcDbEntity
  8
TEXT
100
AcDbText
 10
327.4389701904504
 20
51.27446640058896
 30
0.0
 40
2.5
  1
Benennung
 41
0.8
  7
GREEKS
100
AcDbText
  0
TEXT
  5
4AC
330
20
100
AcDbEntity
  8
TEXT
100
AcDbText
 10
378.089377478817
 20
51.15660172685679
 30
0.0
 40
2.5
  1
Zeichnungs Nr.
 41
0.8
  7
GREEKS
100
AcDbText
  0
TEXT
  5
4AD
330
20
100
AcDbEntity
  8
TEXT
100
AcDbText
 10
327.3711191955679
 20
15.42280285096527
 30
0.0
 40
2.5
  1
Bauvorhaben
 41
0.8
  7
GREEKS
100
AcDbText
  0
TEXT
  5
4AE
330
20
100
AcDbEntity
  8
TEXT
100
AcDbText
 10
378.3619308148496
 20
36.59059118549983
 30
0.0
 40
2.5
  1
Ersatz für:
 41
0.8
  7
GREEKS
100
AcDbText
  0
TEXT
  5
4AF
330
20
100
AcDbEntity
  8
TEXT
100
AcDbText
 10
239.1332055352287
 20
6.827329230135937
 30
0.0
 40
1.8
  1
Index
 50
90.0
 41
0.8
  7
GREEKS
100
AcDbText
  0
TEXT
  5
4B0
330
20
100
AcDbEntity
  8
TEXT
100
AcDbText
 10
264.9308591908306
 20
9.33578134669904
 30
0.0
 40
2.0
  1
Tag
 41
0.8
  7
GREEKS
 72
     1
 11
266.7975258574973
 21
9.33578134669904
 31
0.0
100
AcDbText
  0
TEXT
  5
4B1
330
20
100
AcDbEntity
  8
TEXT
100
AcDbText
 10
274.5086812872148
 20
9.296621084832022
 30
0.0
 40
2.0
  1
Name
 41
0.8
  7
GREEKS
 72
     1
 11
277.6705860491195
 21
9.296621084832022
 31
0.0
100
AcDbText
  0
TEXT
  5
4B2
330
20
100
AcDbEntity
  8
TEXT
100
AcDbText
 10
296.1655836576824
 20
36.6594025061496
 30
0.0
 40
1.8
  1
Tag
 41
0.8
  7
GREEKS
100
AcDbText
  0
TEXT
  5
4B3
330
20
100
AcDbEntity
  8
TEXT
100
AcDbText
 10
311.2313292113147
 20
36.6548054595761
 30
0.0
 40
1.8
  1
Name
 41
0.8
  7
GREEKS
100
AcDbText
  0
TEXT
  5
4B4
330
20
100
AcDbEntity
  8
TEXT
100
AcDbText
 10
283.7918063583806
 20
31.8149518480898
 30
0.0
 40
1.8
  1
Gez.
 41
0.8
  7
GREEKS
100
AcDbText
  0
TEXT
  5
4B5
330
20
100
AcDbEntity
  8
TEXT
100
AcDbText
 10
283.7757543285835
 20
26.84463145714186
 30
0.0
 40
1.8
  1
Gepr.
 41
0.8
  7
GREEKS
100
AcDbText
  0
TEXT
  5
4B6
330
20
100
AcDbEntity
  8
TEXT
100
AcDbText
 10
283.8003388693651
 20
21.76473194824902
 30
0.0
 40
1.8
  1
Norm.
 41
0.8
  7
GREEKS
100
AcDbText
  0
TEXT
  5
4B7
330
20
100
AcDbEntity
  8
TEXT
100
AcDbText
 10
311.8080450578568
 20
31.75126629375448
 30
0.0
 40
1.8
  1
Koeh
 41
0.8
  7
GREEKS
100
AcDbText
  0
TEXT
  5
4B8
330
20
100
AcDbEntity
  8
TEXT
100
AcDbText
 10
378.6200430748503
 20
26.03708088939298
 30
0.0
 40
2.5
  1
ersetzt durch:
 41
0.8
  7
GREEKS
100
AcDbText
  0
LINE
  5
4B9
330
20
100
AcDbEntity
  8
HILF
100
AcDbLine
 10
0.0
 20
0.0
 30
0.0
 11
420.0
 21
0.0
 31
0.0
  0
LINE
  5
4BA
330
20
100
AcDbEntity
  8
HILF
100
AcDbLine
 10
420.0
 20
0.0
 30
0.0
 11
420.0
 21
297.0
 31
0.0
  0
LINE
  5
4BB
330
20
100
AcDbEntity
  8
HILF
100
AcDbLine
 10
420.0
 20
297.0
 30
0.0
 11
0.0
 21
297.0
 31
0.0
  0
LINE
  5
4BC
330
20
100
AcDbEntity
  8
HILF
100
AcDbLine
 10
0.0
 20
297.0
 30
0.0
 11
0.0
 21
0.0
 31
0.0
  0
LINE
  5
4BD
330
20
100
AcDbEntity
  8
STEMPEL
100
AcDbLine
 10
415.0
 20
292.0
 30
0.0
 11
20.0
 21
292.0
 31
0.0
  0
LINE
  5
4BE
330
20
100
AcDbEntity
  8
STEMPEL
100
AcDbLine
 10
20.0
 20
5.0
 30
0.0
 11
415.0
 21
5.0
 31
0.0
  0
LINE
  5
4BF
330
20
100
AcDbEntity
  8
STEMPEL
100
AcDbLine
 10
415.0
 20
5.0
 30
0.0
 11
415.0
 21
292.0
 31
0.0
  0
LINE
  5
4C0
330
20
100
AcDbEntity
  8
STEMPEL
100
AcDbLine
 10
20.0
 20
292.0
 30
0.0
 11
20.0
 21
5.0
 31
0.0
  0
TEXT
  5
4C1
330
20
100
AcDbEntity
  8
TEXT
100
AcDbText
 10
284.2713005475914
 20
36.57291841952074
 30
0.0
 40
1.8
  1
2013
 41
0.8
  7
GREEKS
100
AcDbText
  0
TEXT
  5
4C2
330
20
100
AcDbEntity
  8
TEXT
100
AcDbText
 10
295.2882621785962
 20
31.70276617679749
 30
0.0
 40
1.8
  1
21.02.
 41
0.8
  7
GREEKS
100
AcDbText
  0
TEXT
  5
4C3
330
20
100
AcDbEntity
  8
TEXT
 62
     1
100
AcDbText
 10
289.4032155182224
 20
43.11205252186609
 30
0.0
 40
3.5
  1
1:1
  7
GREEKS
100
AcDbText
  0
TEXT
  5
4C4
330
20
100
AcDbEntity
  8
TEXT
100
AcDbText
 10
327.4105885577624
 20
36.15296550516098
 30
0.0
 40
2.5
  1
Auslauf seitlich
 41
0.8
  7
GREEKS
100
AcDbText
  0
TEXT
  5
4C6
330
20
100
AcDbEntity
  8
TEXT
 62
     1
100
AcDbText
 10
382.6629667957844
 20
43.50931870881786
 30
0.0
 40
3.5
  1
19006050W
 41
0.8
  7
GREEKS
 72
     1
 11
394.3963001291178
 21
43.50931870881786
 31
0.0
100
AcDbText
  0
TEXT
  5
4C7
330
20
100
AcDbEntity
  8
TEXT
100
AcDbText
 10
327.4856700267283
 20
21.09752286506771
 30
0.0
 40
1.8
  1
19006050W.DWG
 41
0.8
  7
GREEKS
100
AcDbText
  0
TEXT
  5
4C8
330
20
100
AcDbEntity
  8
TEXT
100
AcDbText
 10
235.1015633051928
 20
56.79771096129536
 30
0.0
 40
2.5
  1
Erstellt mit AUTOCAD 2004
 41
0.8
  7
GREEKS
100
AcDbText
  0
DIMENSION
  5
4DC
330
20
100
AcDbEntity
  8
BEM
100
AcDbDimension
  2
*D3
 10
341.9984500619591
 20
253.7021411713275
 30
0.0
 11
195.998450061959
 21
256.9521411713275
 31
0.0
 70
    32
  1
%%C<>
 71
     5
 42
292.0
  3
Standard
100
AcDbAlignedDimension
 13
49.99845006195903
 23
235.5720203913413
 33
0.0
 14
341.9984500619591
 24
235.5720203913413
 34
0.0
100
AcDbRotatedDimension
1001
ACAD
1000
DSTYLE
1002
{
1070
    41
1040
3.5
1070
    42
1040
1.0
1070
    43
1040
7.0
1070
    44
1040
1.0
1070
    47
1040
0.2
1070
    48
1040
0.2
1070
    73
1070
     0
1070
    74
1070
     0
1070
    77
1070
     1
1070
    78
1070
     8
1070
    79
1070
     2
1070
   140
1040
3.5
1070
   141
1040
1.5
1070
   145
1040
0.5714285714285714
1070
   146
1040
0.5
1070
   147
1040
1.5
1070
   172
1070
     1
1070
   178
1070
     1
1070
   179
1070
     2
1070
   271
1070
     2
1070
   272
1070
     2
1070
   284
1070
     8
1070
   285
1070
     8
1070
   286
1070
     8
1002
}
  0
TEXT
  5
4E1
330
20
100
AcDbEntity
  8
VOLL
100
AcDbText
 10
576.5450018312136
 20
-30.64437854115025
 30
0.0
 40
1.8
  1

  7
GREEKS
100
AcDbText
  0
TEXT
  5
4E2
330
20
100
AcDbEntity
  8
TEXT
100
AcDbText
 10
908.3772700348065
 20
-25.08614300792471
 30
0.0
 40
2.5
  1
  
  7
GREEKS
 72
     1
 11
910.6391747967114
 21
-25.08614300792471
 31
0.0
100
AcDbText
  0
TEXT
  5
4E3
330
20
100
AcDbEntity
  8
BEM
100
AcDbText
 10
1152.496987347289
 20
110.4727390224775
 30
0.0
 40
2.5
  1
 
 72
     4
 11
1153.627939728241
 21
110.4727390224775
 31
0.0
100
AcDbText
  0
TEXT
  5
4E5
330
20
100
AcDbEntity
  8
VOLL
100
AcDbText
 10
734.0797189083753
 20
-25.08882290607905
 30
0.0
 40
1.8
  1

  7
GREEKS
100
AcDbText
  0
TEXT
  5
4E6
330
20
100
AcDbEntity
  8
BEM
100
AcDbText
 10
768.5677837476598
 20
-20.36309858285844
 30
0.0
 40
2.5
  1

 41
0.8
  7
GREEKS
100
AcDbText
  0
TEXT
  5
4E7
330
20
100
AcDbEntity
  8
BEM
100
AcDbText
 10
768.5677837476598
 20
-25.0568671369106
 30
0.0
 40
2.5
  1

 41
0.8
  7
GREEKS
100
AcDbText
  0
TEXT
  5
4E8
330
20
100
AcDbEntity
  8
BEM
100
AcDbText
 10
768.5677837476598
 20
-30.2947109555741
 30
0.0
 40
2.5
  1

 41
0.8
  7
GREEKS
100
AcDbText
  0
TEXT
  5
4E9
330
20
100
AcDbEntity
  8
BEM
100
AcDbText
 10
768.4948392702854
 20
-34.79989990567172
 30
0.0
 40
1.8
  1

 41
0.8
  7
GREEKS
100
AcDbText
  0
TEXT
  5
4EA
330
20
100
AcDbEntity
  8
TEXT
100
AcDbText
 10
1065.911987111968
 20
-19.53058737285349
 30
0.0
 40
2.5
  1
  
  7
GREEKS
 72
     1
 11
1068.173891873873
 21
-19.53058737285349
 31
0.0
100
AcDbText
  0
TEXT
  5
4EB
330
20
100
AcDbEntity
  8
BEM
100
AcDbText
 10
1310.03170442445
 20
116.0282946575487
 30
0.0
 40
2.5
  1
 
 72
     4
 11
1311.162656805402
 21
116.0282946575487
 31
0.0
100
AcDbText
  0
TEXT
  5
4FB
330
20
100
AcDbEntity
  8
VOLL
100
AcDbText
 10
534.4160165602213
 20
172.5724056536878
 30
0.0
 40
1.8
  1

  7
GREEKS
100
AcDbText
  0
DIMENSION
  5
504
330
20
100
AcDbEntity
  8
BEM
100
AcDbDimension
  2
*D4
 10
44.84089688755261
 20
233.5720203913413
 30
0.0
 11
41.59089688755257
 21
224.138687058008
 31
0.0
 70
    32
 71
     5
 42
2.0
  3
Standard
100
AcDbAlignedDimension
 13
49.99845006195903
 23
235.5720203913413
 33
0.0
 14
49.99845006195903
 24
233.5720203913413
 34
0.0
 50
90.0
100
AcDbRotatedDimension
1001
ACAD
1000
DSTYLE
1002
{
1070
    41
1040
3.5
1070
    42
1040
1.0
1070
    43
1040
7.0
1070
    44
1040
1.0
1070
    47
1040
0.2
1070
    48
1040
0.2
1070
    73
1070
     0
1070
    74
1070
     0
1070
    77
1070
     1
1070
    78
1070
     8
1070
    79
1070
     2
1070
   140
1040
3.5
1070
   141
1040
1.5
1070
   145
1040
0.5714285714285714
1070
   146
1040
0.5
1070
   147
1040
1.5
1070
   172
1070
     1
1070
   178
1070
     1
1070
   179
1070
     2
1070
   271
1070
     2
1070
   272
1070
     2
1070
   284
1070
     8
1070
   285
1070
     8
1070
   286
1070
     8
1002
}
  0
TEXT
  5
507
330
20
100
AcDbEntity
  8
TEXT
 62
     1
100
AcDbText
 10
174.1145749600292
 20
191.1948061425437
 30
0.0
 40
3.5
  1
DN70
 41
0.8
  7
GREEKS
100
AcDbText
  0
TEXT
  5
514
330
20
100
AcDbEntity
  8
TEXT
100
AcDbText
 10
327.4105885577624
 20
26.15296550516098
 30
0.0
 40
2.5
  1
EDV-Art.Nr.19006.050X
 41
0.8
  7
GREEKS
100
AcDbText
  0
TEXT
  5
530
330
20
100
AcDbEntity
  8
VOLL
100
AcDbText
 10
485.18100284821
 20
287.3094900586244
 30
0.0
 40
1.8
  1

  7
GREEKS
100
AcDbText
  0
TEXT
  5
531
330
20
100
AcDbEntity
  8
TEXT
100
AcDbText
 10
817.013271051803
 20
292.8677255918499
 30
0.0
 40
2.5
  1
  
  7
GREEKS
 72
     1
 11
819.2751758137077
 21
292.8677255918499
 31
0.0
100
AcDbText
  0
TEXT
  5
532
330
20
100
AcDbEntity
  8
BEM
100
AcDbText
 10
1061.132988364285
 20
428.4266076222521
 30
0.0
 40
2.5
  1
 
 72
     4
 11
1062.263940745237
 21
428.4266076222521
 31
0.0
100
AcDbText
  0
TEXT
  5
533
330
20
100
AcDbEntity
  8
VOLL
100
AcDbText
 10
642.7157199253717
 20
292.8650456936956
 30
0.0
 40
1.8
  1

  7
GREEKS
100
AcDbText
  0
TEXT
  5
534
330
20
100
AcDbEntity
  8
BEM
100
AcDbText
 10
677.2037847646563
 20
297.5907700169162
 30
0.0
 40
2.5
  1

 41
0.8
  7
GREEKS
100
AcDbText
  0
TEXT
  5
535
330
20
100
AcDbEntity
  8
BEM
100
AcDbText
 10
677.2037847646563
 20
292.8970014628641
 30
0.0
 40
2.5
  1

 41
0.8
  7
GREEKS
100
AcDbText
  0
TEXT
  5
536
330
20
100
AcDbEntity
  8
BEM
100
AcDbText
 10
677.2037847646563
 20
287.6591576442006
 30
0.0
 40
2.5
  1

 41
0.8
  7
GREEKS
100
AcDbText
  0
TEXT
  5
537
330
20
100
AcDbEntity
  8
BEM
100
AcDbText
 10
677.1308402872818
 20
283.1539686941029
 30
0.0
 40
1.8
  1

 41
0.8
  7
GREEKS
100
AcDbText
  0
TEXT
  5
538
330
20
100
AcDbEntity
  8
TEXT
100
AcDbText
 10
974.5479881289645
 20
298.4232812269212
 30
0.0
 40
2.5
  1
  
  7
GREEKS
 72
     1
 11
976.8098928908694
 21
298.4232812269212
 31
0.0
100
AcDbText
  0
TEXT
  5
539
330
20
100
AcDbEntity
  8
BEM
100
AcDbText
 10
1218.667705441446
 20
433.9821632573233
 30
0.0
 40
2.5
  1
 
 72
     4
 11
1219.798657822399
 21
433.9821632573233
 31
0.0
100
AcDbText
  0
TEXT
  5
53A
330
20
100
AcDbEntity
  8
VOLL
100
AcDbText
 10
443.0520175772177
 20
490.5262742534624
 30
0.0
 40
1.8
  1

  7
GREEKS
100
AcDbText
  0
DIMENSION
  5
569
330
20
100
AcDbEntity
  8
BEM
100
AcDbDimension
  2
*D1
 10
381.1408599946621
 20
188.6189905028825
 30
0.0
 11
376.5084111662718
 21
162.3253996896759
 31
0.0
 70
    33
  1
%%C<>
 71
     5
 42
53.0
  3
Standard
100
AcDbAlignedDimension
 13
358.9865421388945
 23
136.7073147653441
 33
0.0
 14
361.7603478197704
 24
189.6346801073365
 34
0.0
1001
ACAD
1000
DSTYLE
1002
{
1070
    41
1040
3.5
1070
    42
1040
1.0
1070
    43
1040
7.0
1070
    44
1040
1.0
1070
    47
1040
0.2
1070
    48
1040
0.2
1070
    73
1070
     0
1070
    74
1070
     0
1070
    77
1070
     1
1070
    78
1070
     8
1070
    79
1070
     2
1070
   140
1040
3.5
1070
   141
1040
1.5
1070
   145
1040
0.5714285714285714
1070
   146
1040
0.5
1070
   147
1040
1.5
1070
   172
1070
     1
1070
   178
1070
     1
1070
   179
1070
     2
1070
   271
1070
     2
1070
   272
1070
     2
1070
   284
1070
     8
1070
   285
1070
     8
1070
   286
1070
     8
1002
}
  0
TEXT
  5
56C
330
20
100
AcDbEntity
  8
VOLL
100
AcDbText
 10
560.4703238567093
 20
57.69226750693924
 30
0.0
 40
1.8
  1

  7
GREEKS
100
AcDbText
  0
DIMENSION
  5
57F
330
20
100
AcDbEntity
  8
BEM
100
AcDbDimension
  2
*D2
 10
367.2984500619591
 20
88.44405259155006
 30
0.0
 11
281.6484500619591
 21
91.69405259155006
 31
0.0
 70
    32
  1
171
 71
     5
 42
171.3
  3
Standard
100
AcDbAlignedDimension
 13
195.998450061959
 23
138.5720203913413
 33
0.0
 14
367.2984500619591
 24
162.808073298436
 34
0.0
100
AcDbRotatedDimension
1001
ACAD
1000
DSTYLE
1002
{
1070
    41
1040
3.5
1070
    42
1040
1.0
1070
    43
1040
7.0
1070
    44
1040
1.0
1070
    47
1040
0.2
1070
    48
1040
0.2
1070
    73
1070
     0
1070
    74
1070
     0
1070
    77
1070
     1
1070
    78
1070
     8
1070
    79
1070
     2
1070
   140
1040
3.5
1070
   141
1040
1.5
1070
   145
1040
0.5714285714285714
1070
   146
1040
0.5
1070
   147
1040
1.5
1070
   172
1070
     1
1070
   178
1070
     1
1070
   179
1070
     2
1070
   271
1070
     2
1070
   272
1070
     2
1070
   284
1070
     8
1070
   285
1070
     8
1070
   286
1070
     8
1002
}
  0
LINE
  5
580
330
20
100
AcDbEntity
  8
BEM
100
AcDbLine
 10
342.998450061959
 20
235.5720203913413
 30
0.0
 11
390.949196849419
 21
235.5720203913413
 31
0.0
  0
LINE
  5
581
330
20
100
AcDbEntity
  8
BEM
100
AcDbLine
 10
368.2984500619591
 20
162.808073298436
 30
0.0
 11
373.8521023931619
 21
162.808073298436
 31
0.0
  0
LINE
  5
582
330
20
100
AcDbEntity
  8
BEM
100
AcDbLine
 10
389.9491968494189
 20
232.0720203913413
 30
0.0
 11
389.9491968494189
 21
166.308073298436
 31
0.0
  0
SOLID
  5
583
330
20
100
AcDbEntity
  8
BEM
100
AcDbTrace
 10
389.3658635160856
 20
232.0720203913413
 30
0.0
 11
390.5325301827522
 21
232.0720203913413
 31
0.0
 12
389.9491968494189
 22
235.5720203913413
 32
0.0
 13
389.9491968494189
 23
235.5720203913413
 33
0.0
  0
SOLID
  5
584
330
20
100
AcDbEntity
  8
BEM
100
AcDbTrace
 10
389.3658635160856
 20
166.308073298436
 30
0.0
 11
390.5325301827522
 21
166.308073298436
 31
0.0
 12
389.9491968494189
 22
162.808073298436
 32
0.0
 13
389.9491968494189
 23
162.808073298436
 33
0.0
  0
TEXT
  5
585
330
20
100
AcDbEntity
  8
BEM
 62
     1
100
AcDbText
 10
388.199196849419
 20
196.923380178222
 30
0.0
 40
3.5
  1
73
 50
90.0
 41
0.8
  7
GREEKS
 72
     4
 11
386.449196849419
 21
199.1900468448887
 31
0.0
100
AcDbText
  0
POINT
  5
587
330
20
100
AcDbEntity
  8
BEM
100
AcDbPoint
 10
389.9491968494189
 20
162.808073298436
 30
0.0
  0
LINE
  5
588
330
20
100
AcDbEntity
  8
BEM
100
AcDbLine
 10
380.8617914795994
 20
162.808073298436
 30
0.0
 11
390.949196849419
 21
162.808073298436
 31
0.0
  0
INSERT
  5
58D
330
20
100
AcDbEntity
  8
BEM
100
AcDbBlockReference
  2
LORO
 10
282.9999999999999
 20
5.0
 30
0.0
  0
TEXT
  5
6E6
330
20
100
AcDbEntity
  8
BEM
100
AcDbText
 10
418.6511461928582
 20
5.083950539994304
 30
0.0
 40
2.0
  1
Diese Zeichnung ist urheberrechtlich geschützt und bleibt unser Eigentum. Sie darf weder ganz noch teilweise verfielfältigt und nicht an Dritte weitergegeben werden.
 50
90.0
 41
0.8
  7
GREEKS
100
AcDbText
  0
TEXT
  5
6E7
330
20
100
AcDbEntity
  8
BEM
100
AcDbText
 10
306.9981736522005
 20
43.95228283670991
 30
0.0
 40
2.0
  1
DIN EN1123-2
 41
0.8
 72
     1
 11
315.4934117474386
 21
43.95228283670991
 31
0.0
100
AcDbText
  0
TEXT
  5
709
330
20
100
AcDbEntity
  8
TEXT
 62
     1
100
AcDbText
 10
337.541913568893
 20
169.5521780312278
 30
0.0
 40
3.5
  1
DN50
 50
357.0
 41
0.8
  7
GREEKS
100
AcDbText
  0
TEXT
  5
818
330
20
100
AcDbEntity
  8
TEXT
 62
     1
100
AcDbText
 10
301.8463220242349
 20
60.02806021727893
 30
0.0
 40
3.5
  1
Dämmung: 2 K-PU-Schaum
 41
0.8
  7
GREEKS
100
AcDbText
  0
TEXT
  5
819
330
20
100
AcDbEntity
  8
TEXT
 62
     1
100
AcDbText
 10
303.0144059094102
 20
65.00938557814571
 30
0.0
 40
3.5
  1
Werkstoff: 1.4301
 41
0.8
  7
GREEKS
100
AcDbText
  0
DIMENSION
  5
895
330
20
100
AcDbEntity
  8
BEM
100
AcDbDimension
  2
*D5
 10
36.84139873373636
 20
105.5720203913413
 30
0.0
 11
33.59139873373634
 21
170.5720203913413
 31
0.0
 70
    32
 71
     5
 42
130.0
  3
Standard
100
AcDbAlignedDimension
 13
49.99845006195903
 23
235.5720203913413
 33
0.0
 14
150.856896937515
 24
105.5720203913413
 34
0.0
 50
90.0
100
AcDbRotatedDimension
1001
ACAD
1000
DSTYLE
1002
{
1070
    41
1040
3.5
1070
    42
1040
1.0
1070
    43
1040
7.0
1070
    44
1040
1.0
1070
    47
1040
0.2
1070
    48
1040
0.2
1070
    73
1070
     0
1070
    74
1070
     0
1070
    77
1070
     1
1070
    78
1070
     8
1070
    79
1070
     2
1070
   140
1040
3.5
1070
   141
1040
1.5
1070
   145
1040
0.5714285714285714
1070
   146
1040
0.5
1070
   147
1040
1.5
1070
   172
1070
     1
1070
   178
1070
     1
1070
   179
1070
     2
1070
   271
1070
     2
1070
   272
1070
     2
1070
   284
1070
     8
1070
   285
1070
     8
1070
   286
1070
     8
1002
}
  0
DIMENSION
  5
8AD
330
20
100
AcDbEntity
  8
BEM
100
AcDbDimension
  2
*D6
 10
96.98201256604907
 20
245.0929144676617
 30
0.0
 11
219.490231314004
 21
248.3429144676617
 31
0.0
 70
    32
  1
245
 71
     5
 42
245.01643749591
  3
Standard
100
AcDbAlignedDimension
 13
341.9984500619591
 23
235.5720203913413
 33
0.0
 14
96.98201256604907
 24
228.199922653965
 34
0.0
100
AcDbRotatedDimension
1001
ACAD
1000
DSTYLE
1002
{
1070
    41
1040
3.5
1070
    42
1040
1.0
1070
    43
1040
7.0
1070
    44
1040
1.0
1070
    47
1040
0.2
1070
    48
1040
0.2
1070
    73
1070
     0
1070
    74
1070
     0
1070
    77
1070
     1
1070
    78
1070
     8
1070
    79
1070
     2
1070
   140
1040
3.5
1070
   141
1040
1.5
1070
   145
1040
0.5714285714285714
1070
   146
1040
0.5
1070
   147
1040
1.5
1070
   172
1070
     1
1070
   178
1070
     1
1070
   179
1070
     2
1070
   271
1070
     2
1070
   272
1070
     2
1070
   284
1070
     8
1070
   285
1070
     8
1070
   286
1070
     8
1002
}
  0
TEXT
  5
92E
330
20
100
AcDbEntity
  8
TEXT
100
AcDbText
 10
327.4105885577624
 20
31.15296550516098
 30
0.0
 40
2.5
  1
mit Wärmedämmung
 41
0.8
  7
GREEKS
100
AcDbText
  0
DIMENSION
  5
938
330
20
100
AcDbEntity
  8
BEM
100
AcDbDimension
  2
*D7
 10
334.8345201604565
 20
97.18974082572659
 30
0.0
 11
349.4773709039184
 21
99.67680166038196
 31
0.0
 70
    32
  1
29
 71
     5
 42
28.98524103681609
 51
3.000000000000016
  3
Standard
100
AcDbAlignedDimension
 13
365.9432989693077
 23
136.950250067029
 33
0.0
 14
335.2738168178199
 24
105.5720203913413
 34
0.0
 50
357.0
100
AcDbRotatedDimension
1001
ACAD
1000
DSTYLE
1002
{
1070
    41
1040
3.5
1070
    42
1040
1.0
1070
    43
1040
7.0
1070
    44
1040
1.0
1070
    47
1040
0.2
1070
    48
1040
0.2
1070
    73
1070
     0
1070
    74
1070
     0
1070
    77
1070
     1
1070
    78
1070
     8
1070
    79
1070
     2
1070
   140
1040
3.5
1070
   141
1040
1.5
1070
   145
1040
0.5714285714285714
1070
   146
1040
0.5
1070
   147
1040
1.5
1070
   172
1070
     1
1070
   178
1070
     1
1070
   179
1070
     2
1070
   271
1070
     2
1070
   272
1070
     2
1070
   284
1070
     8
1070
   285
1070
     8
1070
   286
1070
     8
1002
}
  0
DIMENSION
  5
959
330
20
100
AcDbEntity
  8
BEM
100
AcDbDimension
  2
*D8
 10
195.998450061959
 20
138.5720203913413
 30
0.0
 11
213.7398065119229
 21
187.4888838459314
 31
0.0
 70
   162
 71
     5
 42
1.623156204354727
 51
3.000000000000016
  3
Standard
100
AcDb2LineAngularDimension
 13
196.1153156490409
 23
171.7794012237275
 33
0.0
 14
372.291597735732
 24
162.5463935172213
 34
0.0
 15
195.998450061959
 25
238.5720203913413
 35
0.0
 16
208.2011703353569
 26
192.0942628694998
 36
0.0
1001
ACAD
1000
DSTYLE
1002
{
1070
    41
1040
3.5
1070
    42
1040
1.0
1070
    43
1040
7.0
1070
    44
1040
1.0
1070
    47
1040
0.2
1070
    48
1040
0.2
1070
    73
1070
     0
1070
    74
1070
     0
1070
    77
1070
     1
1070
    78
1070
     8
1070
    79
1070
     2
1070
   140
1040
3.5
1070
   141
1040
1.5
1070
   145
1040
0.5714285714285714
1070
   146
1040
0.5
1070
   147
1040
1.5
1070
   172
1070
     1
1070
   178
1070
     1
1070
   179
1070
     2
1070
   271
1070
     2
1070
   272
1070
     2
1070
   284
1070
     8
1070
   285
1070
     8
1070
   286
1070
     8
1002
}
  0
HATCH
  5
AC0
330
20
100
AcDbEntity
  8
SCHRAFF
100
AcDbHatch
 10
0.0
 20
0.0
 30
0.0
210
0.0
220
0.0
230
1.0
  2
_USER
 70
     0
 71
     0
 91
        4
 92
        7
 72
     1
 73
     1
 93
       12
 10
77.49845006195897
 20
235.5720203913413
 42
0.0
 10
49.99845006195901
 20
235.5720203913414
 42
0.0
 10
49.99845006195901
 20
233.5720203913413
 42
0.0
 10
77.49845006195901
 20
233.5720203913413
 42
-0.1324846866320371
 10
96.60601614156147
 20
228.4186475928307
 42
0.0
 10
134.481465944127
 20
206.3857108332114
 42
0.1324846866320406
 10
137.4984500619591
 20
205.5720203913413
 42
0.0
 10
144.998450061959
 20
205.5720203913413
 42
0.0
 10
144.998450061959
 20
207.5720203913412
 42
0.0
 10
137.4984500619591
 20
207.5720203913412
 42
-0.1324846866320424
 10
135.4871273167377
 20
208.1144806859213
 42
0.0
 10
97.61167751417255
 20
230.1474174455403
 42
0.1324846866320406
 97
        0
 92
        7
 72
     0
 73
     1
 93
        4
 10
158.198450061959
 20
207.5720203913412
 10
144.998450061959
 20
207.5720203913412
 10
144.998450061959
 20
205.5720203913413
 10
158.198450061959
 20
205.5720203913413
 97
        0
 92
        7
 72
     0
 73
     1
 93
        4
 10
246.998450061959
 20
207.5720203913413
 10
233.7984500619591
 20
207.5720203913413
 10
233.7984500619591
 20
205.5720203913413
 10
246.9984500619589
 20
205.5720203913413
 97
        0
 92
        7
 72
     1
 73
     1
 93
       12
 10
295.3908839823563
 20
228.4186475928304
 42
-0.1324846866320395
 10
314.498450061959
 20
233.5720203913413
 42
0.0
 10
341.9984500619591
 20
233.5720203913412
 42
0.0
 10
341.9984500619591
 20
235.5720203913414
 42
0.0
 10
314.498450061959
 20
235.5720203913414
 42
0.1324846866320392
 10
294.3852226097456
 20
230.1474174455405
 42
0.0
 10
256.5097728071804
 20
208.1144806859214
 42
-0.1324846866320424
 10
254.498450061959
 20
207.5720203913413
 42
0.0
 10
246.998450061959
 20
207.5720203913413
 42
0.0
 10
246.998450061959
 20
205.5720203913413
 42
0.0
 10
254.498450061959
 20
205.5720203913413
 42
0.1324846866320405
 10
257.5154341797911
 20
206.3857108332113
 42
0.0
 97
        0
 75
     0
 76
     0
 52
45.0
 41
2.0
 77
     0
 78
     1
 53
45.0
 43
-24.384246183903
 44
-384.6280890838641
 45
-1.414213562373094
 46
1.414213562373095
 79
     0
 47
0.2470068222831111
 98
        4
 10
77.96086958641362
 20
234.9141038701676
 10
152.3590891202467
 20
206.5083208300992
 10
241.0931797835411
 20
206.7553275363605
 10
251.7214981101461
 20
206.7553275363605
  0
HATCH
  5
AC1
330
20
100
AcDbEntity
  8
SCHRAFF
100
AcDbHatch
 10
0.0
 20
0.0
 30
0.0
210
0.0
220
0.0
230
1.0
  2
_USER
 70
     0
 71
     0
 91
        2
 92
        7
 72
     1
 73
     1
 93
        8
 10
158.0984500619589
 20
205.5720203913413
 42
0.0
 10
156.7631178179829
 20
205.5720203913413
 42
0.1109653701492537
 10
154.398450061959
 20
195.0482378014168
 42
0.0
 10
154.398450061959
 20
185.9325843610744
 42
0.1537339299409156
 10
159.499497832711
 20
170.5720203913413
 42
0.0
 10
160.998450061959
 20
170.5720203913413
 42
-0.1623825529114442
 10
155.598450061959
 20
185.9420203913413
 42
0.0
 10
155.598450061959
 20
195.0482378014168
 42
-0.117148494586948
 97
        0
 92
        7
 72
     1
 73
     1
 93
        8
 10
237.598450061959
 20
195.0482378014168
 42
0.1109653701492535
 10
235.2337823059351
 20
205.5720203913413
 42
0.0
 10
233.898450061959
 20
205.5720203913413
 42
-0.1171484945869499
 10
236.3984500619591
 20
195.0482378014167
 42
0.0
 10
236.3984500619591
 20
185.9420203913413
 42
-0.162382552911444
 10
230.9984500619591
 20
170.5720203913413
 42
0.0
 10
232.497402291207
 20
170.5720203913413
 42
0.1537339299408629
 10
237.598450061959
 20
185.9325843610688
 42
0.0
 97
        0
 75
     0
 76
     0
 52
135.0
 41
2.0
 77
     0
 78
     1
 53
135.0
 43
-24.384246183903
 44
-384.6280890838641
 45
-1.414213562373095
 46
-1.414213562373094
 79
     0
 47
0.1137702466669554
 98
        2
 10
155.0458448173786
 20
198.1450524692357
 10
236.9007482460594
 20
193.0253901095582
  0
ARC
  5
AC2
330
20
100
AcDbEntity
  8
STEMPEL
100
AcDbCircle
 10
254.498450061959
 20
211.5720203913413
 30
0.0
 40
4.0
100
AcDbArc
 50
270.0
 51
300.1874540748215
  0
ARC
  5
AC3
330
20
100
AcDbEntity
  8
STEMPEL
100
AcDbCircle
 10
254.498450061959
 20
211.5720203913413
 30
0.0
 40
6.0
100
AcDbArc
 50
270.0
 51
300.1874540748215
  0
ARC
  5
AC4
330
20
100
AcDbEntity
  8
SCHRAFF
100
AcDbCircle
 10
135.998450061959
 20
205.5720203913413
 30
0.0
 40
3.0
100
AcDbArc
 50
150.9479248790281
 51
270.0
  0
ARC
  5
AC5
330
20
100
AcDbEntity
  8
SCHRAFF
100
AcDbCircle
 10
255.998450061959
 20
205.5720203913413
 30
0.0
 40
3.0
100
AcDbArc
 50
270.0
 51
29.05207512097188
  0
LINE
  5
AC6
330
20
100
AcDbEntity
  8
STEMPEL
100
AcDbLine
 10
167.154039858247
 20
143.5720203913413
 30
0.0
 11
224.8428602656709
 21
143.5720203913413
 31
0.0
  0
LINE
  5
AC7
330
20
100
AcDbEntity
  8
MITTEL
100
AcDbLine
 10
192.998450061959
 20
190.5720203913413
 30
0.0
 11
198.998450061959
 21
190.5720203913413
 31
0.0
  0
ARC
  5
AC8
330
20
100
AcDbEntity
  8
STEMPEL
100
AcDbCircle
 10
195.998450061959
 20
190.5720203913413
 30
0.0
 40
58.5
100
AcDbArc
 50
180.0
 51
221.4784008302633
  0
ARC
  5
AC9
330
20
100
AcDbEntity
  8
STEMPEL
100
AcDbCircle
 10
195.998450061959
 20
190.5720203913413
 30
0.0
 40
60.0
100
AcDbArc
 50
180.0
 51
221.4784008302633
  0
LINE
  5
ACA
330
20
100
AcDbEntity
  8
STEMPEL
100
AcDbLine
 10
167.154039858247
 20
145.0720203913413
 30
0.0
 11
223.4021490749897
 21
145.0720203913413
 31
0.0
  0
ARC
  5
ACB
330
20
100
AcDbEntity
  8
STEMPEL
100
AcDbCircle
 10
167.154039858247
 20
165.0720203913413
 30
0.0
 40
20.0
100
AcDbArc
 50
221.4784008302633
 51
270.0
  0
ARC
  5
ACC
330
20
100
AcDbEntity
  8
STEMPEL
100
AcDbCircle
 10
167.154039858247
 20
165.0720203913413
 30
0.0
 40
21.5
100
AcDbArc
 50
221.4784008302633
 51
270.0
  0
LINE
  5
ACD
330
20
100
AcDbEntity
  8
STEMPEL
100
AcDbLine
 10
135.998450061959
 20
205.7625453720302
 30
0.0
 11
135.998450061959
 21
190.5720203913413
 31
0.0
  0
LINE
  5
ACE
102
{ACAD_REACTORS
330
AEB
102
}
330
20
100
AcDbEntity
  8
STEMPEL
100
AcDbLine
 10
255.998450061959
 20
205.7625453720302
 30
0.0
 11
255.998450061959
 21
195.1774263015834
 31
0.0
  0
LINE
  5
ACF
330
20
100
AcDbEntity
  8
STEMPEL
100
AcDbLine
 10
137.498450061959
 20
205.5720203913413
 30
0.0
 11
137.498450061959
 21
190.5720203913413
 31
0.0
  0
LINE
  5
AD0
330
20
100
AcDbEntity
  8
STEMPEL
100
AcDbLine
 10
254.498450061959
 20
205.5720203913413
 30
0.0
 11
254.498450061959
 21
195.256037970508
 31
0.0
  0
POINT
  5
AD1
330
20
100
AcDbEntity
  8
DEFPOINTS
  6
ByBlock
 62
     0
100
AcDbPoint
 10
143.8358590644808
 20
164.0896847611558
 30
0.0
  0
POINT
  5
AD2
330
20
100
AcDbEntity
  8
DEFPOINTS
  6
ByBlock
 62
     0
100
AcDbPoint
 10
195.998450061959
 20
173.5720203913414
 30
0.0
  0
LINE
  5
AD3
102
{ACAD_REACTORS
330
AE8
102
}
330
20
100
AcDbEntity
  8
STEMPEL
100
AcDbLine
 10
368.6536011546106
 20
188.665896529843
 30
0.0
 11
365.9432989693077
 21
136.950250067029
 31
0.0
  0
LINE
  5
AD4
330
20
100
AcDbEntity
  8
MITTEL
100
AcDbLine
 10
195.9984500619591
 20
171.7855258896209
 30
0.0
 11
372.2915977357321
 21
162.5463935172213
 31
0.0
  0
LINE
  5
AD5
102
{ACAD_REACTORS
330
AE8
330
AEB
102
}
330
20
100
AcDbEntity
  8
STEMPEL
100
AcDbLine
 10
250.2051017420173
 20
195.4810428216447
 30
0.0
 11
361.7603478197704
 21
189.6346801073365
 31
0.0
  0
LINE
  5
AD6
102
{ACAD_REACTORS
330
AE8
102
}
330
20
100
AcDbEntity
  8
STEMPEL
100
AcDbLine
 10
222.7508602762026
 20
143.8471243108787
 30
0.0
 11
358.9865421388946
 21
136.7073147653441
 31
0.0
  0
LINE
  5
AD7
102
{ACAD_REACTORS
330
AE8
102
}
330
20
100
AcDbEntity
  8
STEMPEL
100
AcDbLine
 10
223.5278671101408
 20
145.3084616272211
 30
0.0
 11
358.9996444126037
 21
138.2086866232723
 31
0.0
  0
LINE
  5
AD8
102
{ACAD_REACTORS
330
AE8
102
}
330
20
100
AcDbEntity
  8
STEMPEL
100
AcDbLine
 10
249.428094908079
 20
194.0197055053023
 30
0.0
 11
361.6164422247508
 21
188.140163361001
 31
0.0
  0
LINE
  5
AD9
330
20
100
AcDbEntity
  8
HILF
100
AcDbLine
 10
361.5379382903863
 20
186.6422190588691
 30
0.0
 11
359.0781483469679
 21
139.7066309254041
 31
0.0
  0
LINE
  5
ADA
102
{ACAD_REACTORS
330
AE8
102
}
330
20
100
AcDbEntity
  8
STEMPEL
100
AcDbLine
 10
361.6164422247508
 20
188.140163361001
 30
0.0
 11
368.5747973479703
 21
187.162230323828
 31
0.0
  0
LINE
  5
ADB
102
{ACAD_REACTORS
330
AE8
102
}
330
20
100
AcDbEntity
  8
STEMPEL
100
AcDbLine
 10
361.7603478197704
 20
189.6346801073365
 30
0.0
 11
368.6536011546106
 21
188.665896529843
 31
0.0
  0
LINE
  5
ADC
102
{ACAD_REACTORS
330
AE8
102
}
330
20
100
AcDbEntity
  8
STEMPEL
100
AcDbLine
 10
358.9865421388946
 20
136.7073147653441
 30
0.0
 11
365.9432989693077
 21
136.950250067029
 31
0.0
  0
LINE
  5
ADD
102
{ACAD_REACTORS
330
AE8
102
}
330
20
100
AcDbEntity
  8
STEMPEL
100
AcDbLine
 10
358.9996444126037
 20
138.2086866232723
 30
0.0
 11
366.0221027759477
 21
138.4539162730441
 31
0.0
  0
LINE
  5
ADE
102
{ACAD_REACTORS
330
AE8
102
}
330
20
100
AcDbEntity
  8
STEMPEL
100
AcDbLine
 10
250.2051017420173
 20
195.4810428216447
 30
0.0
 11
222.7508602762026
 21
143.8471243108787
 31
0.0
  0
LINE
  5
ADF
330
20
100
AcDbEntity
  8
STEMPEL
100
AcDbLine
 10
254.498450061959
 20
195.256037970508
 30
0.0
 11
255.998450061959
 21
195.256037970508
 31
0.0
  0
POINT
  5
AE0
330
20
100
AcDbEntity
  8
DEFPOINTS
  6
ByBlock
 62
     0
100
AcDbPoint
 10
367.1815844748772
 20
160.5781450572349
 30
0.0
  0
ARC
  5
AE1
102
{ACAD_REACTORS
330
AEB
102
}
330
20
100
AcDbEntity
  8
SCHRAFF
100
AcDbCircle
 10
255.998450061959
 20
195.1774263015834
 30
0.0
 40
3.0
100
AcDbArc
 50
357.0000000000009
 51
90.0
  0
POINT
  5
AE2
330
20
100
AcDbEntity
  8
DEFPOINTS
  6
ByBlock
 62
     0
100
AcDbPoint
 10
367.2984500619592
 20
162.808073298436
 30
0.0
  0
LINE
  5
AE3
330
20
100
AcDbEntity
  8
STEMPEL
100
AcDbLine
 10
222.7508602762026
 20
143.5720203913413
 30
0.0
 11
222.7508602762026
 21
145.0720203913413
 31
0.0
  0
ARC
  5
AE4
330
20
100
AcDbEntity
  8
STEMPEL
100
AcDbCircle
 10
224.8428602656709
 20
165.0720203913413
 30
0.0
 40
21.5
100
AcDbArc
 50
270.0
 51
274.7167661377559
  0
ARC
  5
AE5
330
20
100
AcDbEntity
  8
SCHRAFF
100
AcDbCircle
 10
222.7508602762026
 20
146.2838670860473
 30
0.0
 40
4.044021821848617
100
AcDbArc
 50
222.111970205804
 51
320.0062049863963
  0
HATCH
  5
AE6
330
20
100
AcDbEntity
  8
SCHRAFF
100
AcDbHatch
 10
0.0
 20
0.0
 30
0.0
210
0.0
220
0.0
230
1.0
  2
_USER
 70
     0
 71
     0
 91
        2
 92
        7
 72
     1
 73
     1
 93
        5
 10
222.7508602762026
 20
143.8471243108786
 42
0.0
 10
222.7508602762026
 20
143.5720203913413
 42
0.0
 10
224.8428602656709
 20
143.5720203913413
 42
0.0107701547312275
 10
225.7687713161361
 20
143.591967115648
 42
0.0075851545848748
 10
225.8490422159899
 20
143.6847554755995
 42
0.0
 97
        0
 92
        7
 72
     1
 73
     1
 93
        3
 10
225.7687713161361
 20
143.591967115648
 42
-0.0107701547312279
 10
224.8428602656709
 20
143.5720203913413
 42
0.0
 10
219.7508602762026
 20
143.5720203913413
 42
0.446043906646286
 97
        0
 75
     0
 76
     0
 52
0.0
 41
0.1
 77
     0
 78
     1
 53
0.0
 43
-0.0000000000000284
 44
16.88513601391071
 45
0.0
 46
0.1
 79
     0
 47
0.0126977264163002
 98
        2
 10
222.9397101450628
 20
143.7018953627327
 10
222.9015866691508
 20
143.0289153169061
  0
HATCH
  5
AE7
330
20
100
AcDbEntity
  8
SCHRAFF
100
AcDbHatch
 10
0.0
 20
0.0
 30
0.0
210
0.0
220
0.0
230
1.0
  2
_USER
 70
     0
 71
     0
 91
        7
 92
        7
 72
     1
 73
     1
 93
        4
 10
255.998450061959
 20
205.7625453720302
 42
-0.0632542239299175
 10
254.498450061959
 20
205.5720203913413
 42
0.0
 10
254.498450061959
 20
202.4188487762566
 42
0.0
 10
255.998450061959
 20
202.9453883955298
 42
0.0
 97
        0
 92
        7
 72
     0
 73
     1
 93
        4
 10
255.998450061959
 20
202.9453883955298
 10
254.498450061959
 20
202.4188487762566
 10
254.498450061959
 20
195.256037970508
 10
255.998450061959
 20
195.256037970508
 97
        0
 92
        7
 72
     1
 73
     1
 93
        6
 10
137.498450061959
 20
205.5720203913413
 42
-0.0632542239299186
 10
135.998450061959
 20
205.7625453720302
 42
0.0
 10
135.998450061959
 20
190.5720203913413
 42
0.0791521200345153
 10
138.9683482125218
 20
171.9288585607173
 42
0.0
 10
140.3941007587578
 20
172.3949376064829
 42
-0.0791521200345152
 10
137.498450061959
 20
190.5720203913413
 42
0.0
 97
        0
 92
        7
 72
     1
 73
     1
 93
        4
 10
140.3941007587578
 20
172.3949376064829
 42
0.0
 10
138.9683482125218
 20
171.9288585607173
 42
0.0936274442301131
 10
149.699672787197
 20
152.4089070112463
 42
0.0
 10
151.1014621102409
 20
153.0685475806365
 42
-0.0952770923651019
 97
        0
 92
        7
 72
     1
 73
     1
 93
        8
 10
173.998450061959
 20
145.0720203913413
 42
0.0
 10
167.154039858247
 20
145.0720203913413
 42
-0.214936448876987
 10
152.1699306615136
 20
151.825267144588
 42
-0.007005986486658
 10
151.1014621102407
 20
153.0685475806365
 42
0.0
 10
149.699672787197
 20
152.4089070112463
 42
0.0086411479502983
 10
151.0461224717586
 20
150.8317606510814
 42
0.2149364488769861
 10
167.154039858247
 20
143.5720203913413
 42
0.0
 10
173.998450061959
 20
143.5720203913413
 42
0.0
 97
        0
 92
        7
 72
     0
 73
     1
 93
        4
 10
195.998450061959
 20
145.0720203913413
 10
173.998450061959
 20
145.0720203913413
 10
173.998450061959
 20
143.5720203913413
 10
195.998450061959
 20
143.5720203913413
 97
        0
 92
        7
 72
     0
 73
     1
 93
        4
 10
222.7508602762026
 20
145.0720203913413
 10
195.998450061959
 20
145.0720203913413
 10
195.998450061959
 20
143.5720203913413
 10
222.7508602762026
 20
143.5720203913413
 97
        0
 75
     0
 76
     0
 52
135.0
 41
2.0
 77
     0
 78
     1
 53
135.0
 43
-0.0000000000000284
 44
16.88513601391071
 45
-1.414213562373095
 46
-1.414213562373094
 79
     0
 47
0.2142807174551973
 98
        7
 10
255.0624289536437
 20
204.6568489007769
 10
255.0624289536437
 20
199.5141124953908
 10
136.6909180207249
 20
193.0856904137207
 10
141.1941819407307
 20
168.6576877633248
 10
172.2881494263912
 20
144.2296866878658
 10
179.364705272184
 20
144.4439663214656
 10
205.5265258335813
 20
144.4439663214656
  0
HATCH
  5
AE8
330
20
100
AcDbEntity
  8
SCHRAFF
100
AcDbHatch
 10
0.0
 20
0.0
 30
0.0
210
0.0
220
0.0
230
1.0
  2
_USER
 70
     0
 71
     1
 91
        2
 92
        7
 72
     0
 73
     1
 93
        6
 10
361.6164422247507
 20
188.1401633610009
 10
368.5747973479705
 20
187.1622303238281
 10
368.6536011546106
 20
188.6658965298432
 10
361.7603478197704
 20
189.6346801073365
 10
250.2051017420173
 20
195.4810428216448
 10
249.4280949080792
 20
194.0197055053023
 97
        6
330
ADE
330
AD8
330
ADA
330
AD3
330
ADB
330
AD5
 92
        7
 72
     0
 73
     1
 93
        6
 10
223.5278671101408
 20
145.3084616272213
 10
222.7508602762025
 20
143.8471243108786
 10
358.9865421388943
 20
136.7073147653441
 10
365.9432989693077
 20
136.9502500670291
 10
366.022102775948
 20
138.4539162730441
 10
358.9996444126035
 20
138.2086866232724
 97
        6
330
ADE
330
AD6
330
ADC
330
AD3
330
ADD
330
AD7
 75
     0
 76
     0
 52
45.0
 41
2.0
 77
     0
 78
     1
 53
45.0
 43
-0.0000000000000284
 44
16.88513601391071
 45
-1.414213562373094
 46
1.414213562373095
 79
     0
 47
0.2392312174357125
 98
        2
 10
315.8616324432115
 20
191.2103672097711
 10
285.9353412765742
 20
141.4502740273052
  0
HATCH
  5
AEA
330
20
100
AcDbEntity
  8
SCHRAFF
100
AcDbHatch
 10
0.0
 20
0.0
 30
0.0
210
0.0
220
0.0
230
1.0
  2
_USER
 70
     0
 71
     0
 91
        3
 92
        7
 72
     1
 73
     1
 93
        5
 10
258.6209861951412
 20
207.028833430188
 42
0.0
 10
257.5154341797912
 20
206.3857108332114
 42
-0.0686551179814979
 10
255.998450061959
 20
205.7625453720302
 42
0.0
 10
255.998450061959
 20
202.9453883955297
 42
0.0
 10
258.4143652607439
 20
203.7934384415059
 42
0.2934265064481116
 97
        0
 92
        7
 72
     1
 73
     1
 93
        3
 10
258.4143652607439
 20
203.7934384415059
 42
0.0
 10
255.998450061959
 20
202.9453883955297
 42
0.0
 10
255.998450061959
 20
202.5720203913413
 42
0.2384167939012163
 97
        0
 92
        7
 72
     1
 73
     1
 93
        4
 10
135.998450061959
 20
205.7625453720302
 42
-0.0686551179814928
 10
134.481465944127
 20
206.3857108332114
 42
0.0
 10
133.3759139287768
 20
207.0288334301879
 42
0.5718485723578022
 10
135.998450061959
 20
202.5720203913413
 42
0.0
 97
        0
 75
     0
 76
     0
 52
0.0
 41
0.1
 77
     0
 78
     1
 53
0.0
 43
-0.0000000000000284
 44
16.88513601391071
 45
0.0
 46
0.1
 79
     0
 47
0.1747977489331403
 98
        3
 10
257.0033656787606
 20
205.2591935291027
 10
257.0033656787606
 20
203.1616201172059
 10
134.9082429506712
 20
204.5600023918038
  0
HATCH
  5
AEB
330
20
100
AcDbEntity
  8
SCHRAFF
100
AcDbHatch
 10
0.0
 20
0.0
 30
0.0
210
0.0
220
0.0
230
1.0
  2
_USER
 70
     0
 71
     1
 91
        1
 92
        7
 72
     1
 73
     1
 93
        3
 10
258.9943386662227
 20
195.0204184328545
 42
0.4296339059668365
 10
255.998450061959
 20
198.1774263015834
 42
0.0
 10
255.998450061959
 20
195.1774263015835
 42
0.0
 97
        3
330
ACE
330
AD5
330
AE1
 75
     0
 76
     0
 52
0.0
 41
0.1
 77
     0
 78
     1
 53
0.0
 43
-0.0000000000000284
 44
16.88513601391071
 45
0.0
 46
0.1
 79
     0
 47
0.1747977489331403
 98
        1
 10
257.1782871487336
 20
196.1697101437473
  0
HATCH
  5
AEC
330
20
100
AcDbEntity
  8
SCHRAFF
100
AcDbHatch
 10
0.0
 20
0.0
 30
0.0
210
0.0
220
0.0
230
1.0
  2
_USER
 70
     0
 71
     0
 91
        2
 92
        7
 72
     1
 73
     1
 93
        3
 10
238.7638473902355
 20
205.5720203913413
 42
0.0
 10
235.7638473902344
 20
205.5720203913413
 42
-0.030027048709652
 10
236.8642465966757
 20
202.7811206105397
 42
0.3080300353357485
 97
        0
 92
        7
 72
     1
 73
     1
 93
        3
 10
156.2330527336836
 20
205.5720203913413
 42
0.0
 10
153.2330527336824
 20
205.5720203913413
 42
0.3080300353357486
 10
155.1326535272422
 20
202.7811206105396
 42
-0.0300270487096521
 97
        0
 75
     0
 76
     0
 52
0.0
 41
0.1
 77
     0
 78
     1
 53
0.0
 43
-0.0000000000000284
 44
16.88513601391071
 45
0.0
 46
0.1
 79
     0
 47
0.1747977489331403
 98
        2
 10
236.7124859385836
 20
204.5600023918038
 10
153.7997522781489
 20
204.3852044325376
  0
ARC
  5
AEE
330
20
100
AcDbEntity
  8
STEMPEL
100
AcDbCircle
 10
181.3377515982812
 20
186.3515049909598
 30
0.0
 40
25.7425585600001
100
AcDbArc
 50
180.9114373309746
 51
217.8047574165191
  0
ARC
  5
AEF
330
20
100
AcDbEntity
  8
STEMPEL
100
AcDbCircle
 10
181.3377515982812
 20
186.3515049909598
 30
0.0
 40
26.9425585600001
100
AcDbArc
 50
180.9114373309746
 51
215.8504318633195
  0
ARC
  5
AF0
330
20
100
AcDbEntity
  8
STEMPEL
100
AcDbCircle
 10
210.6591485256369
 20
186.3515049909598
 30
0.0
 40
26.9425585600001
100
AcDbArc
 50
324.1495681366804
 51
359.0885626690254
  0
LINE
  5
AF1
330
20
100
AcDbEntity
  8
STEMPEL
100
AcDbLine
 10
232.497402291207
 20
170.5720203913413
 30
0.0
 11
159.499497832711
 21
170.5720203913413
 31
0.0
  0
LINE
  5
AF2
330
20
100
AcDbEntity
  8
STEMPEL
100
AcDbLine
 10
191.998450061959
 20
226.5720203913412
 30
0.0
 11
191.998450061959
 21
207.5720203913414
 31
0.0
  0
LINE
  5
AF3
330
20
100
AcDbEntity
  8
STEMPEL
100
AcDbLine
 10
199.998450061959
 20
226.5720203913413
 30
0.0
 11
199.998450061959
 21
207.5720203913414
 31
0.0
  0
LINE
  5
AF4
330
20
100
AcDbEntity
  8
HILF
100
AcDbLine
 10
198.998450061959
 20
227.5720203913413
 30
0.0
 11
198.998450061959
 21
207.5720203913414
 31
0.0
  0
LINE
  5
AF5
330
20
100
AcDbEntity
  8
HILF
100
AcDbLine
 10
192.998450061959
 20
227.5720203913412
 30
0.0
 11
192.998450061959
 21
207.5720203913414
 31
0.0
  0
LINE
  5
AF6
330
20
100
AcDbEntity
  8
STEMPEL
100
AcDbLine
 10
199.9984500619591
 20
226.5720203913412
 30
0.0
 11
198.9984500619591
 21
227.5720203913412
 31
0.0
  0
LINE
  5
AF7
330
20
100
AcDbEntity
  8
STEMPEL
100
AcDbLine
 10
198.9984500619591
 20
227.5720203913412
 30
0.0
 11
192.9984500619591
 21
227.5720203913412
 31
0.0
  0
LINE
  5
AF8
330
20
100
AcDbEntity
  8
STEMPEL
100
AcDbLine
 10
192.9984500619591
 20
227.5720203913412
 30
0.0
 11
191.9984500619591
 21
226.5720203913412
 31
0.0
  0
LINE
  5
AF9
330
20
100
AcDbEntity
  8
STEMPEL
100
AcDbLine
 10
191.9984500619591
 20
226.5720203913412
 30
0.0
 11
199.9984500619591
 21
226.5720203913412
 31
0.0
  0
LINE
  5
AFA
330
20
100
AcDbEntity
  8
STEMPEL
100
AcDbLine
 10
242.998450061959
 20
226.5720203913413
 30
0.0
 11
242.998450061959
 21
207.5720203913415
 31
0.0
  0
LINE
  5
AFB
330
20
100
AcDbEntity
  8
STEMPEL
100
AcDbLine
 10
250.998450061959
 20
226.5720203913414
 30
0.0
 11
250.998450061959
 21
207.5720203913415
 31
0.0
  0
LINE
  5
AFC
330
20
100
AcDbEntity
  8
HILF
100
AcDbLine
 10
249.998450061959
 20
227.5720203913414
 30
0.0
 11
249.998450061959
 21
207.5720203913415
 31
0.0
  0
LINE
  5
AFD
330
20
100
AcDbEntity
  8
HILF
100
AcDbLine
 10
243.998450061959
 20
227.5720203913413
 30
0.0
 11
243.998450061959
 21
207.5720203913415
 31
0.0
  0
LINE
  5
AFE
330
20
100
AcDbEntity
  8
STEMPEL
100
AcDbLine
 10
250.9984500619591
 20
226.5720203913413
 30
0.0
 11
249.9984500619591
 21
227.5720203913413
 31
0.0
  0
LINE
  5
AFF
330
20
100
AcDbEntity
  8
STEMPEL
100
AcDbLine
 10
249.9984500619591
 20
227.5720203913413
 30
0.0
 11
243.9984500619591
 21
227.5720203913413
 31
0.0
  0
LINE
  5
B00
330
20
100
AcDbEntity
  8
STEMPEL
100
AcDbLine
 10
243.9984500619591
 20
227.5720203913413
 30
0.0
 11
242.9984500619591
 21
226.5720203913413
 31
0.0
  0
LINE
  5
B01
330
20
100
AcDbEntity
  8
STEMPEL
100
AcDbLine
 10
242.9984500619591
 20
226.5720203913413
 30
0.0
 11
250.9984500619591
 21
226.5720203913413
 31
0.0
  0
LINE
  5
B02
330
20
100
AcDbEntity
  8
STEMPEL
100
AcDbLine
 10
140.998450061959
 20
226.5720203913412
 30
0.0
 11
148.998450061959
 21
226.5720203913412
 31
0.0
  0
LINE
  5
B03
330
20
100
AcDbEntity
  8
STEMPEL
100
AcDbLine
 10
141.998450061959
 20
227.5720203913412
 30
0.0
 11
140.998450061959
 21
226.5720203913412
 31
0.0
  0
LINE
  5
B04
330
20
100
AcDbEntity
  8
STEMPEL
100
AcDbLine
 10
147.998450061959
 20
227.5720203913412
 30
0.0
 11
141.998450061959
 21
227.5720203913412
 31
0.0
  0
LINE
  5
B05
330
20
100
AcDbEntity
  8
STEMPEL
100
AcDbLine
 10
148.998450061959
 20
226.5720203913412
 30
0.0
 11
147.998450061959
 21
227.5720203913412
 31
0.0
  0
LINE
  5
B06
330
20
100
AcDbEntity
  8
HILF
100
AcDbLine
 10
141.998450061959
 20
227.5720203913412
 30
0.0
 11
141.998450061959
 21
207.5720203913414
 31
0.0
  0
LINE
  5
B07
330
20
100
AcDbEntity
  8
HILF
100
AcDbLine
 10
147.998450061959
 20
227.5720203913413
 30
0.0
 11
147.998450061959
 21
207.5720203913414
 31
0.0
  0
LINE
  5
B08
330
20
100
AcDbEntity
  8
STEMPEL
100
AcDbLine
 10
148.998450061959
 20
226.5720203913413
 30
0.0
 11
148.998450061959
 21
207.5720203913414
 31
0.0
  0
LINE
  5
B09
330
20
100
AcDbEntity
  8
STEMPEL
100
AcDbLine
 10
140.998450061959
 20
226.5720203913412
 30
0.0
 11
140.998450061959
 21
207.5720203913414
 31
0.0
  0
LINE
  5
B0A
330
20
100
AcDbEntity
  8
STEMPEL
100
AcDbLine
 10
254.498450061959
 20
205.5720203913413
 30
0.0
 11
137.4984500619591
 21
205.5720203913413
 31
0.0
  0
LINE
  5
B0B
330
20
100
AcDbEntity
  8
STEMPEL
100
AcDbLine
 10
97.61167751417255
 20
230.1474174455403
 30
0.0
 11
135.4871273167377
 21
208.1144806859213
 31
0.0
  0
LINE
  5
B0C
330
20
100
AcDbEntity
  8
STEMPEL
100
AcDbLine
 10
294.3852226097456
 20
230.1474174455405
 30
0.0
 11
256.5097728071804
 21
208.1144806859214
 31
0.0
  0
LINE
  5
B0D
330
20
100
AcDbEntity
  8
STEMPEL
100
AcDbLine
 10
77.49845006195901
 20
233.5720203913413
 30
0.0
 11
49.99845006195901
 21
233.5720203913413
 31
0.0
  0
LINE
  5
B0E
330
20
100
AcDbEntity
  8
STEMPEL
100
AcDbLine
 10
49.99845006195901
 20
233.5720203913411
 30
0.0
 11
49.99845006195901
 21
235.5720203913411
 31
0.0
  0
LINE
  5
B0F
330
20
100
AcDbEntity
  8
STEMPEL
100
AcDbLine
 10
158.198450061959
 20
205.5720203913412
 30
0.0
 11
158.198450061959
 21
207.5720203913412
 31
0.0
  0
LINE
  5
B10
330
20
100
AcDbEntity
  8
MITTEL
100
AcDbLine
 10
144.998450061959
 20
232.5720203913413
 30
0.0
 11
144.998450061959
 21
205.5720203913412
 31
0.0
  0
ARC
  5
B11
330
20
100
AcDbEntity
  8
STEMPEL
100
AcDbCircle
 10
77.49845006195901
 20
195.5720203913411
 30
0.0
 40
38.0
100
AcDbArc
 50
59.81254592517853
 51
90.0
  0
ARC
  5
B12
330
20
100
AcDbEntity
  8
STEMPEL
100
AcDbCircle
 10
77.49845006195901
 20
195.5720203913411
 30
0.0
 40
40.0
100
AcDbArc
 50
59.81254592517853
 51
90.0
  0
ARC
  5
B13
330
20
100
AcDbEntity
  8
STEMPEL
100
AcDbCircle
 10
137.4984500619591
 20
211.5720203913412
 30
0.0
 40
4.0
100
AcDbArc
 50
239.8125459251785
 51
270.0
  0
ARC
  5
B14
330
20
100
AcDbEntity
  8
STEMPEL
100
AcDbCircle
 10
137.4984500619591
 20
211.5720203913412
 30
0.0
 40
6.0
100
AcDbArc
 50
239.8125459251785
 51
270.0
  0
LINE
  5
B15
330
20
100
AcDbEntity
  8
STEMPEL
100
AcDbLine
 10
96.60601614156199
 20
228.4186475928303
 30
0.0
 11
134.481465944127
 21
206.3857108332114
 31
0.0
  0
LINE
  5
B16
330
20
100
AcDbEntity
  8
STEMPEL
100
AcDbLine
 10
295.3908839823563
 20
228.4186475928304
 30
0.0
 11
257.5154341797911
 21
206.3857108332113
 31
0.0
  0
ARC
  5
B17
330
20
100
AcDbEntity
  8
STEMPEL
100
AcDbCircle
 10
254.498450061959
 20
211.5720203913413
 30
0.0
 40
6.0
100
AcDbArc
 50
270.0
 51
300.1874540748215
  0
ARC
  5
B18
330
20
100
AcDbEntity
  8
STEMPEL
100
AcDbCircle
 10
254.498450061959
 20
211.5720203913413
 30
0.0
 40
4.0
100
AcDbArc
 50
270.0
 51
300.1874540748215
  0
ARC
  5
B19
330
20
100
AcDbEntity
  8
STEMPEL
100
AcDbCircle
 10
314.498450061959
 20
195.5720203913413
 30
0.0
 40
40.0
100
AcDbArc
 50
90.0
 51
120.1874540748214
  0
ARC
  5
B1A
330
20
100
AcDbEntity
  8
STEMPEL
100
AcDbCircle
 10
314.498450061959
 20
195.5720203913413
 30
0.0
 40
38.0
100
AcDbArc
 50
90.0
 51
120.1874540748214
  0
LINE
  5
B1B
330
20
100
AcDbEntity
  8
MITTEL
100
AcDbLine
 10
246.998450061959
 20
232.5720203913413
 30
0.0
 11
246.998450061959
 21
205.5720203913413
 31
0.0
  0
LINE
  5
B1C
330
20
100
AcDbEntity
  8
STEMPEL
100
AcDbLine
 10
233.7984500619592
 20
205.5720203913412
 30
0.0
 11
233.7984500619591
 21
207.5720203913412
 31
0.0
  0
LINE
  5
B1D
330
20
100
AcDbEntity
  8
STEMPEL
100
AcDbLine
 10
254.498450061959
 20
207.5720203913413
 30
0.0
 11
137.4984500619591
 21
207.5720203913412
 31
0.0
  0
LINE
  5
B1E
330
20
100
AcDbEntity
  8
STEMPEL
100
AcDbLine
 10
341.9984500619591
 20
233.5720203913413
 30
0.0
 11
314.498450061959
 21
233.5720203913413
 31
0.0
  0
LINE
  5
B1F
330
20
100
AcDbEntity
  8
STEMPEL
100
AcDbLine
 10
341.9984500619591
 20
233.5720203913413
 30
0.0
 11
341.9984500619591
 21
235.5720203913413
 31
0.0
  0
LINE
  5
B20
330
20
100
AcDbEntity
  8
MITTEL
100
AcDbLine
 10
195.998450061959
 20
240.5720203913413
 30
0.0
 11
195.9984500619592
 21
138.5720203913413
 31
0.0
  0
LINE
  5
B21
330
20
100
AcDbEntity
  8
STEMPEL
100
AcDbLine
 10
341.9984500619591
 20
235.5720203913413
 30
0.0
 11
49.99845006195901
 21
235.5720203913413
 31
0.0
  0
LINE
  5
B22
330
20
100
AcDbEntity
  8
STEMPEL
100
AcDbLine
 10
236.3984500619591
 20
195.0482378014168
 30
0.0
 11
236.3984500619591
 21
185.9420203913413
 31
0.0
  0
ARC
  5
B23
330
20
100
AcDbEntity
  8
STEMPEL
100
AcDbCircle
 10
212.998450061959
 20
195.0482378014168
 30
0.0
 40
23.4
100
AcDbArc
 50
0.0
 51
26.726638110861
  0
ARC
  5
B24
330
20
100
AcDbEntity
  8
STEMPEL
100
AcDbCircle
 10
210.6591485256369
 20
186.3515049909598
 30
0.0
 40
25.7425585600001
100
AcDbArc
 50
322.1952425834796
 51
359.0885626690254
  0
ARC
  5
B25
330
20
100
AcDbEntity
  8
STEMPEL
100
AcDbCircle
 10
212.998450061959
 20
195.0482378014168
 30
0.0
 40
24.6
100
AcDbArc
 50
0.0
 51
25.32777242177427
  0
LINE
  5
B26
330
20
100
AcDbEntity
  8
STEMPEL
100
AcDbLine
 10
237.598450061959
 20
195.0482378014168
 30
0.0
 11
237.598450061959
 21
185.9420203913413
 31
0.0
  0
LINE
  5
B27
330
20
100
AcDbEntity
  8
STEMPEL
100
AcDbLine
 10
154.398450061959
 20
195.0482378014168
 30
0.0
 11
154.398450061959
 21
185.9420203913413
 31
0.0
  0
ARC
  5
B28
330
20
100
AcDbEntity
  8
STEMPEL
100
AcDbCircle
 10
178.998450061959
 20
195.0482378014168
 30
0.0
 40
24.6
100
AcDbArc
 50
154.6722275782257
 51
180.0
  0
ARC
  5
B29
330
20
100
AcDbEntity
  8
STEMPEL
100
AcDbCircle
 10
178.998450061959
 20
195.0482378014168
 30
0.0
 40
23.4
100
AcDbArc
 50
153.273361889139
 51
180.0
  0
LINE
  5
B2A
330
20
100
AcDbEntity
  8
STEMPEL
100
AcDbLine
 10
155.598450061959
 20
195.0482378014168
 30
0.0
 11
155.598450061959
 21
185.9420203913413
 31
0.0
  0
ARC
  5
B2B
330
20
100
AcDbEntity
  8
SCHRAFF
100
AcDbCircle
 10
235.2337823059351
 20
205.5720203913412
 30
0.0
 40
4.0
100
AcDbArc
 50
290.6644320030398
 51
0.0
  0
ARC
  5
B2C
330
20
100
AcDbEntity
  8
SCHRAFF
100
AcDbCircle
 10
156.763117817983
 20
205.5720203913411
 30
0.0
 40
4.0
100
AcDbArc
 50
179.9999999999935
 51
249.3355679969602
  0
HATCH
  5
B2D
330
20
100
AcDbEntity
  8
SCHRAFF
100
AcDbHatch
 10
0.0
 20
0.0
 30
0.0
210
0.0
220
0.0
230
1.0
  2
_USER
 70
     0
 71
     0
 91
        2
 92
        7
 72
     1
 73
     1
 93
        3
 10
239.2337823059351
 20
205.5720203913413
 42
0.0
 10
235.233782305935
 20
205.5720203913413
 42
-0.0407178024160013
 10
236.6453585940166
 20
201.8293672705021
 42
0.3121143469966602
 97
        0
 92
        7
 72
     1
 73
     1
 93
        3
 10
152.763117817983
 20
205.5720203913413
 42
0.3121143469966569
 10
155.3515415299012
 20
201.8293672705021
 42
-0.0407178024160017
 10
156.763117817983
 20
205.5720203913413
 42
0.0
 97
        0
 75
     0
 76
     0
 52
0.0
 41
0.1
 77
     0
 78
     1
 53
0.0
 43
16.59149947434966
 44
-18.7119497788351
 45
0.0
 46
0.1
 79
     0
 47
0.1692858034627372
 98
        2
 10
237.7291787210541
 20
204.0759128999864
 10
154.7511576696091
 20
204.9223417710929
  0
LINE
  5
B2E
102
{ACAD_REACTORS
330
B49
330
B4A
102
}
330
20
100
AcDbEntity
  8
STEMPEL
100
AcDbLine
 10
324.2610773423564
 20
191.599933597792
 30
0.0
 11
325.0984526422435
 21
207.5780061538651
 31
0.0
  0
LINE
  5
B2F
102
{ACAD_REACTORS
330
B49
102
}
330
20
100
AcDbEntity
  8
STEMPEL
100
AcDbLine
 10
331.2642231840537
 20
134.1546905543522
 30
0.0
 11
331.4735670090254
 21
138.1492086933701
 31
0.0
  0
LINE
  5
B30
102
{ACAD_REACTORS
330
B49
102
}
330
20
100
AcDbEntity
  8
STEMPEL
100
AcDbLine
 10
340.2391498984294
 20
190.7625582979047
 30
0.0
 11
340.8671813733448
 21
202.7461127149597
 31
0.0
  0
LINE
  5
B31
102
{ACAD_REACTORS
330
B49
102
}
330
20
100
AcDbEntity
  8
STEMPEL
100
AcDbLine
 10
342.2364089679386
 20
190.6578863854189
 30
0.0
 11
343.1784561803116
 21
208.6332180110012
 31
0.0
  0
LINE
  5
B32
102
{ACAD_REACTORS
330
B49
102
}
330
20
100
AcDbEntity
  8
STEMPEL
100
AcDbLine
 10
340.8671813733448
 20
202.7461127149597
 30
0.0
 11
342.8644404428541
 21
202.6414408024737
 31
0.0
  0
LINE
  5
B33
102
{ACAD_REACTORS
330
B49
102
}
330
20
100
AcDbEntity
  8
STEMPEL
100
AcDbLine
 10
334.456716514874
 20
195.0710921743807
 30
0.0
 11
340.6316695702517
 21
198.2522798085641
 31
0.0
  0
ARC
  5
B34
102
{ACAD_REACTORS
330
B49
102
}
330
20
100
AcDbEntity
  8
STEMPEL
100
AcDbCircle
 10
328.6742831313183
 20
199.3796260508567
 30
0.0
 40
3.0
100
AcDbArc
 50
266.9999999999993
 51
86.9999999999993
  0
LINE
  5
B35
102
{ACAD_REACTORS
330
B49
102
}
330
20
100
AcDbEntity
  8
STEMPEL
100
AcDbLine
 10
328.5172752625895
 20
196.383737446593
 30
0.0
 11
324.5227571235712
 21
196.5930812715647
 31
0.0
  0
LINE
  5
B36
102
{ACAD_REACTORS
330
B49
102
}
330
20
100
AcDbEntity
  8
STEMPEL
100
AcDbLine
 10
328.8312910000471
 20
202.3755146551205
 30
0.0
 11
324.8367728610288
 21
202.5848584800922
 31
0.0
  0
LINE
  5
B37
102
{ACAD_REACTORS
330
B49
330
B4A
102
}
330
20
100
AcDbEntity
  8
STEMPEL
100
AcDbLine
 10
325.0984526422435
 20
207.5780061538651
 30
0.0
 11
340.6033784090607
 21
207.2661135994766
 31
0.0
  0
LINE
  5
B38
102
{ACAD_REACTORS
330
B49
102
}
330
20
100
AcDbEntity
  8
STEMPEL
100
AcDbLine
 10
340.6818823434252
 20
208.7640579016084
 30
0.0
 11
343.1784561803116
 21
208.6332180110012
 31
0.0
  0
LINE
  5
B39
102
{ACAD_REACTORS
330
B49
330
B4A
102
}
330
20
100
AcDbEntity
  8
STEMPEL
100
AcDbLine
 10
341.9820125660491
 20
233.5720203913413
 30
0.0
 11
340.6033784090607
 21
207.2661135994766
 31
0.0
  0
LINE
  5
B3A
102
{ACAD_REACTORS
330
B49
330
B4A
102
}
330
20
100
AcDbEntity
  8
STEMPEL
100
AcDbLine
 10
336.1024861721676
 20
121.3839736105834
 30
0.0
 11
335.2738168178198
 21
105.5720203913413
 31
0.0
  0
LINE
  5
B3B
102
{ACAD_REACTORS
330
B49
102
}
330
20
100
AcDbEntity
  8
STEMPEL
100
AcDbLine
 10
331.2642231840543
 20
134.1546905543517
 30
0.0
 11
337.0728245457314
 21
130.3454714452531
 31
0.0
  0
LINE
  5
B3C
102
{ACAD_REACTORS
330
B49
102
}
330
20
100
AcDbEntity
  8
STEMPEL
100
AcDbLine
 10
336.8373127426381
 20
125.8516385388575
 30
0.0
 11
338.8345718121473
 21
125.7469666263716
 31
0.0
  0
LINE
  5
B3D
102
{ACAD_REACTORS
330
B49
102
}
330
20
100
AcDbEntity
  8
STEMPEL
100
AcDbLine
 10
336.8373127426381
 20
125.8516385388575
 30
0.0
 11
337.4653442175534
 21
137.8351929559125
 31
0.0
  0
ARC
  5
B3E
102
{ACAD_REACTORS
330
B49
102
}
330
20
100
AcDbEntity
  8
STEMPEL
100
AcDbCircle
 10
325.0631021505551
 20
130.4741881527911
 30
0.0
 40
3.0
100
AcDbArc
 50
266.9999999999993
 51
86.9999999999993
  0
LINE
  5
B3F
102
{ACAD_REACTORS
330
B49
102
}
330
20
100
AcDbEntity
  8
STEMPEL
100
AcDbLine
 10
325.220110019284
 20
133.4700767570548
 30
0.0
 11
321.2255918802657
 21
133.6794205820266
 31
0.0
  0
LINE
  5
B40
102
{ACAD_REACTORS
330
B49
102
}
330
20
100
AcDbEntity
  8
STEMPEL
100
AcDbLine
 10
324.9060942818263
 20
127.4782995485274
 30
0.0
 11
320.911576142808
 21
127.6876433734992
 31
0.0
  0
LINE
  5
B41
102
{ACAD_REACTORS
330
B49
330
B4A
102
}
330
20
100
AcDbEntity
  8
STEMPEL
100
AcDbLine
 10
320.6498963615933
 20
122.6944956997263
 30
0.0
 11
336.1024861721676
 21
121.3839736105834
 31
0.0
  0
LINE
  5
B42
102
{ACAD_REACTORS
330
B49
102
}
330
20
100
AcDbEntity
  8
STEMPEL
100
AcDbLine
 10
336.0239822378031
 20
119.8860293084515
 30
0.0
 11
338.5205560746896
 21
119.7551894178441
 31
0.0
  0
LINE
  5
B43
102
{ACAD_REACTORS
330
B49
102
}
330
20
100
AcDbEntity
  8
STEMPEL
100
AcDbLine
 10
338.5205560746896
 20
119.7551894178441
 30
0.0
 11
339.4626032870626
 21
137.7305210434265
 31
0.0
  0
LINE
  5
B44
102
{ACAD_REACTORS
330
B49
330
B4A
102
}
330
20
100
AcDbEntity
  8
STEMPEL
100
AcDbLine
 10
320.6498963615933
 20
122.6944956997263
 30
0.0
 11
321.4872716614804
 21
138.6725682557995
 31
0.0
  0
LINE
  5
B45
102
{ACAD_REACTORS
330
B4A
102
}
330
20
100
AcDbEntity
  8
STEMPEL
100
AcDbLine
 10
150.856896937515
 20
105.5720203913413
 30
0.0
 11
335.2738168178198
 21
105.5720203913413
 31
0.0
  0
ARC
  5
B46
102
{ACAD_REACTORS
330
B4A
102
}
330
20
100
AcDbEntity
  8
STEMPEL
100
AcDbCircle
 10
150.856896937515
 20
155.5720203913413
 30
0.0
 40
50.0
100
AcDbArc
 50
182.9999999999991
 51
270.0
  0
LINE
  5
B47
102
{ACAD_REACTORS
330
B4A
102
}
330
20
100
AcDbEntity
  8
STEMPEL
100
AcDbLine
 10
96.98201256604912
 20
228.1999226539651
 30
0.0
 11
100.9254201997863
 21
152.9552225791941
 31
0.0
  0
LINE
  5
B48
102
{ACAD_REACTORS
330
B49
102
}
330
20
100
AcDbEntity
  8
STEMPEL
100
AcDbLine
 10
334.2473726899021
 20
191.0765740353624
 30
0.0
 11
334.456716514874
 21
195.0710921743807
 31
0.0
  0
HATCH
  5
B49
330
20
100
AcDbEntity
  8
SCHRAFF
100
AcDbHatch
 10
0.0
 20
0.0
 30
0.0
210
0.0
220
0.0
230
1.0
  2
NET
 70
     0
 71
     1
 91
        2
 92
        7
 72
     1
 73
     1
 93
       14
 10
325.0984526422435
 20
207.5780061538651
 42
0.0
 10
324.8367728610288
 20
202.5848584800922
 42
0.0
 10
328.8312910000471
 20
202.3755146551205
 42
-1.0
 10
328.5172752625895
 20
196.383737446593
 42
0.0
 10
324.5227571235712
 20
196.5930812715647
 42
0.0
 10
324.2610773423566
 20
191.599933597792
 42
0.0
 10
334.2473726899021
 20
191.0765740353624
 42
0.0
 10
334.4567165148741
 20
195.0710921743807
 42
0.0
 10
340.6316695702515
 20
198.252279808564
 42
0.0
 10
340.8671813733448
 20
202.7461127149597
 42
0.0
 10
342.8644404428541
 20
202.6414408024739
 42
0.0
 10
343.1784561803116
 20
208.6332180110012
 42
0.0
 10
340.6818823434252
 20
208.7640579016084
 42
0.0
 10
340.6033784090607
 20
207.2661135994767
 42
0.0
 97
       12
330
B38
330
B39
330
B37
330
B2E
330
B36
330
B34
330
B35
330
B48
330
B33
330
B30
330
B32
330
B31
 92
        7
 72
     1
 73
     1
 93
       14
 10
324.9060942818263
 20
127.4782995485274
 42
0.0
 10
320.911576142808
 20
127.6876433734992
 42
0.0
 10
320.6498963615933
 20
122.6944956997263
 42
0.0
 10
336.1024861721676
 20
121.3839736105834
 42
0.0
 10
336.0239822378032
 20
119.8860293084515
 42
0.0
 10
338.5205560746896
 20
119.7551894178441
 42
0.0
 10
338.8345718121473
 20
125.7469666263716
 42
0.0
 10
336.8373127426381
 20
125.8516385388575
 42
0.0
 10
337.0728245457314
 20
130.3454714452531
 42
0.0
 10
331.2642231840537
 20
134.1546905543522
 42
0.0
 10
331.4735670090255
 20
138.1492086933701
 42
0.0
 10
321.4872716614805
 20
138.6725682557995
 42
0.0
 10
321.2255918802657
 20
133.6794205820266
 42
0.0
 10
325.220110019284
 20
133.4700767570548
 42
-1.0
 97
       12
330
B44
330
B3F
330
B3E
330
B40
330
B41
330
B3A
330
B42
330
B43
330
B3C
330
B3D
330
B3B
330
B2F
 75
     0
 76
     1
 52
42.0
 41
15.0
 77
     0
 78
     2
 53
42.0
 43
0.0000000000000284
 44
16.88513601391071
 45
-1.254619886922859
 46
1.393396547770114
 79
     0
 53
132.0
 43
0.0000000000000284
 44
16.88513601391071
 45
-1.393396547770114
 46
-1.254619886922859
 79
     0
 47
0.3152467930968907
 98
        2
 10
335.2196158236469
 20
204.5750643228922
 10
326.3876777558293
 20
134.9055227638408
  0
HATCH
  5
B4A
330
20
100
AcDbEntity
  8
SCHRAFF
100
AcDbHatch
 10
0.0
 20
0.0
 30
0.0
210
0.0
220
0.0
230
1.0
  2
HONEY
 70
     0
 71
     1
 91
        2
 92
        7
 72
     1
 73
     1
 93
       10
 10
324.2610773423566
 20
191.5999335977918
 42
0.0
 10
325.0984526422435
 20
207.5780061538651
 42
0.0
 10
340.6033784090607
 20
207.2661135994766
 42
0.0
 10
341.9820125660491
 20
233.5720203913414
 42
0.0
 10
314.498450061959
 20
233.5720203913413
 42
0.1324846866320397
 10
295.3908839823563
 20
228.4186475928306
 42
0.0
 10
258.6209861951413
 20
207.028833430188
 42
-0.5718485723578051
 10
255.998450061959
 20
202.5720203913414
 42
0.0
 10
255.998450061959
 20
198.1774263015835
 42
-0.42963390596684
 10
258.9943386662228
 20
195.0204184328546
 42
0.0
 97
        3
330
B37
330
B39
330
B2E
 92
        7
 72
     1
 73
     1
 93
       15
 10
335.2738168178198
 20
105.5720203913413
 42
0.0
 10
336.1024861721677
 20
121.3839736105834
 42
0.0
 10
320.6498963615933
 20
122.6944956997263
 42
0.0
 10
321.4872716614804
 20
138.6725682557995
 42
0.0
 10
226.6108083926727
 20
143.6448330019468
 42
-0.0098113512637501
 10
225.7687713161361
 20
143.591967115648
 42
-0.4460439066462858
 10
219.7508602762027
 20
143.5720203913413
 42
0.0
 10
167.1540398582472
 20
143.5720203913413
 42
-0.2149364488769877
 10
151.0461224717586
 20
150.8317606510814
 42
-0.1829859490764163
 10
135.998450061959
 20
190.5720203913413
 42
0.0
 10
135.998450061959
 20
202.5720203913413
 42
-0.5718485723578054
 10
133.3759139287769
 20
207.028833430188
 42
0.0
 10
96.98201256604912
 20
228.1999226539649
 42
0.0
 10
100.9254201997863
 20
152.9552225791941
 42
0.3989595459737192
 10
150.856896937515
 20
105.5720203913413
 42
0.0
 97
        6
330
B41
330
B44
330
B47
330
B46
330
B45
330
B3A
 75
     0
 76
     1
 52
0.0
 41
30.0
 77
     0
 78
     3
 53
0.0
 43
0.0000000000000284
 44
16.88513601391071
 45
5.625
 46
3.247595249999999
 79
     2
 49
3.75
 49
-7.5
 53
120.0
 43
0.0000000000000284
 44
16.88513601391071
 45
-5.624999987709673
 46
3.247595271287468
 79
     2
 49
3.749999999999997
 49
-7.499999999999995
 53
60.0
 43
0.0000000000000284
 44
16.88513601391071
 45
0.0000000122903263
 46
6.495190521287468
 79
     2
 49
-7.5
 49
3.75
 47
0.3152467930968907
 98
        2
 10
304.6232585169536
 20
206.7817919030343
 10
244.6922487179771
 20
113.7839879679154
  0
ENDSEC
  0
SECTION
  2
OBJECTS
  0
DICTIONARY
  5
C
330
0
100
AcDbDictionary
281
     1
  3
ACAD_CIP_PREVIOUS_PRODUCT_INFO
350
9FE
  3
ACAD_COLOR
350
1B
  3
ACAD_DETAILVIEWSTYLE
350
9FB
  3
ACAD_GROUP
350
D
  3
ACAD_LAYOUT
350
19
  3
ACAD_MATERIAL
350
1A
  3
ACAD_MLEADERSTYLE
350
9F6
  3
ACAD_MLINESTYLE
350
16
  3
ACAD_PLOTSETTINGS
350
18
  3
ACAD_PLOTSTYLENAME
350
E
  3
ACAD_SCALELIST
350
9E4
  3
ACAD_SECTIONVIEWSTYLE
350
9F8
  3
ACAD_TABLESTYLE
350
9E2
  3
ACAD_VISUALSTYLE
350
9C9
  3
ACDB_RECOMPOSE_DATA
350
C4D
  3
AcDbVariableDictionary
350
72A
  3
AcDsDecomposeData
350
C53
  0
DICTIONARY
  5
B72
330
8
100
AcDbDictionary
280
     1
281
     1
  0
DICTIONARY
  5
A2E
330
2
100
AcDbDictionary
280
     1
281
     1
  3
ACAD_LAYERSTATES
360
A2F
  0
DICTIONARY
  5
B5F
330
10
100
AcDbDictionary
280
     1
281
     1
  3
ADSK_XREC_LAYER_RECONCILED
360
B60
  0
DICTIONARY
  5
B61
330
47
100
AcDbDictionary
280
     1
281
     1
  3
ADSK_XREC_LAYER_RECONCILED
360
B62
  0
DICTIONARY
  5
B63
330
48
100
AcDbDictionary
280
     1
281
     1
  3
ADSK_XREC_LAYER_RECONCILED
360
B64
  0
DICTIONARY
  5
B65
330
49
100
AcDbDictionary
280
     1
281
     1
  3
ADSK_XREC_LAYER_RECONCILED
360
B66
  0
DICTIONARY
  5
B67
330
4A
100
AcDbDictionary
280
     1
281
     1
  3
ADSK_XREC_LAYER_RECONCILED
360
B68
  0
DICTIONARY
  5
B69
330
4C
100
AcDbDictionary
280
     1
281
     1
  3
ADSK_XREC_LAYER_RECONCILED
360
B6A
  0
DICTIONARY
  5
B6B
330
4D
100
AcDbDictionary
280
     1
281
     1
  3
ADSK_XREC_LAYER_RECONCILED
360
B6C
  0
DICTIONARY
  5
B6D
330
4E
100
AcDbDictionary
280
     1
281
     1
  3
ADSK_XREC_LAYER_RECONCILED
360
B6E
  0
DICTIONARY
  5
B4C
330
20
100
AcDbDictionary
280
     1
281
     1
  3
ACAD_SORTENTS
360
B4D
  0
XRECORD
  5
9FE
102
{ACAD_REACTORS
330
C
102
}
330
C
100
AcDbXrecord
280
     1
300
ACD
300
2013
300
ACD_F_S
  0
DICTIONARY
  5
1B
102
{ACAD_REACTORS
330
C
102
}
330
C
100
AcDbDictionary
281
     1
  0
DICTIONARY
  5
9FB
102
{ACAD_REACTORS
330
C
102
}
330
C
100
AcDbDictionary
281
     1
  3
Imperial24
350
9FC
  0
DICTIONARY
  5
D
102
{ACAD_REACTORS
330
C
102
}
330
C
100
AcDbDictionary
281
     1
  0
DICTIONARY
  5
19
102
{ACAD_REACTORS
330
C
102
}
330
C
100
AcDbDictionary
281
     1
  3
Layout1
350
1F
  3
Model
350
23
  0
DICTIONARY
  5
1A
102
{ACAD_REACTORS
330
C
102
}
330
C
100
AcDbDictionary
281
     1
  3
ByBlock
350
9B9
  3
ByLayer
350
9B1
  3
Global
350
9C1
  0
DICTIONARY
  5
9F6
102
{ACAD_REACTORS
330
C
102
}
330
C
100
AcDbDictionary
281
     1
  3
Standard
350
9F7
  0
DICTIONARY
  5
16
102
{ACAD_REACTORS
330
C
102
}
330
C
100
AcDbDictionary
281
     1
  3
Standard
350
17
  0
DICTIONARY
  5
18
102
{ACAD_REACTORS
330
C
102
}
330
C
100
AcDbDictionary
281
     1
  0
ACDBDICTIONARYWDFLT
  5
E
102
{ACAD_REACTORS
330
C
102
}
330
C
100
AcDbDictionary
281
     1
  3
Normal
350
F
100
AcDbDictionaryWithDefault
340
F
  0
DICTIONARY
  5
9E4
102
{ACAD_REACTORS
330
C
102
}
330
C
100
AcDbDictionary
281
     1
  3
A0
350
9E5
  3
A1
350
9E6
  3
A2
350
9E7
  3
A3
350
9E8
  3
A4
350
9E9
  3
A5
350
9EA
  3
A6
350
9EB
  3
A7
350
9EC
  3
A8
350
9ED
  3
A9
350
9EE
  3
B0
350
9EF
  3
B1
350
9F0
  3
B2
350
9F1
  3
B3
350
9F2
  3
B4
350
9F3
  3
B5
350
9F4
  3
B6
350
9F5
  0
DICTIONARY
  5
9F8
102
{ACAD_REACTORS
330
C
102
}
330
C
100
AcDbDictionary
281
     1
  3
Imperial24
350
9FA
  0
DICTIONARY
  5
9E2
102
{ACAD_REACTORS
330
C
102
}
330
C
100
AcDbDictionary
281
     1
  3
Standard
350
9E3
  0
DICTIONARY
  5
9C9
102
{ACAD_REACTORS
330
C
102
}
330
C
100
AcDbDictionary
281
     1
  3
2dWireframe
350
9CF
  3
Basic
350
9CE
  3
Brighten
350
9D5
  3
ColorChange
350
9D9
  3
Conceptual
350
9D2
  3
Dim
350
9D4
  3
EdgeColorOff
350
9E1
  3
Facepattern
350
9D8
  3
Flat
350
9CA
  3
FlatWithEdges
350
9CB
  3
Gouraud
350
9CC
  3
GouraudWithEdges
350
9CD
  3
Hidden
350
9D1
  3
JitterOff
350
9DF
  3
Linepattern
350
9D7
  3
OverhangOff
350
9E0
  3
Realistic
350
9D3
  3
Shaded
350
9DE
  3
Shaded with edges
350
9DD
  3
Shades of Gray
350
9DA
  3
Sketchy
350
9DB
  3
Thicken
350
9D6
  3
Wireframe
350
9D0
  3
X-Ray
350
9DC
  0
XRECORD
  5
C4D
102
{ACAD_REACTORS
330
C
102
}
330
C
100
AcDbXrecord
280
     1
 90
        1
330
9E3
  0
DICTIONARY
  5
72A
102
{ACAD_REACTORS
330
C
102
}
330
C
100
AcDbDictionary
281
     1
  3
CANNOSCALE
350
BB0
  3
CMLEADERSTYLE
350
BAD
  3
CTABLESTYLE
350
BAC
  3
CVIEWDETAILSTYLE
350
BAE
  3
CVIEWSECTIONSTYLE
350
BAF
  3
DIMASSOC
350
72C
  3
HIDETEXT
350
72B
  3
PROJECTNAME
350
72D
  3
XCLIPFRAME
350
C4B
  0
DICTIONARY
  5
C53
102
{ACAD_REACTORS
330
C
102
}
330
C
100
AcDbDictionary
281
     1
  3
AcDsRecords
350
C55
  3
AcDsSchemas
350
C54
1001
ACAD
1070
     2
  0
DICTIONARY
  5
A2F
102
{ACAD_REACTORS
330
A2E
102
}
330
A2E
100
AcDbDictionary
281
     1
  0
XRECORD
  5
B60
102
{ACAD_REACTORS
330
B5F
102
}
330
B5F
100
AcDbXrecord
280
     1
290
     1
  0
XRECORD
  5
B62
102
{ACAD_REACTORS
330
B61
102
}
330
B61
100
AcDbXrecord
280
     1
290
     1
  0
XRECORD
  5
B64
102
{ACAD_REACTORS
330
B63
102
}
330
B63
100
AcDbXrecord
280
     1
290
     1
  0
XRECORD
  5
B66
102
{ACAD_REACTORS
330
B65
102
}
330
B65
100
AcDbXrecord
280
     1
290
     1
  0
XRECORD
  5
B68
102
{ACAD_REACTORS
330
B67
102
}
330
B67
100
AcDbXrecord
280
     1
290
     1
  0
XRECORD
  5
B6A
102
{ACAD_REACTORS
330
B69
102
}
330
B69
100
AcDbXrecord
280
     1
290
     1
  0
XRECORD
  5
B6C
102
{ACAD_REACTORS
330
B6B
102
}
330
B6B
100
AcDbXrecord
280
     1
290
     1
  0
XRECORD
  5
B6E
102
{ACAD_REACTORS
330
B6D
102
}
330
B6D
100
AcDbXrecord
280
     1
290
     1
  0
SORTENTSTABLE
  5
B4D
102
{ACAD_REACTORS
330
B4C
102
}
330
B4C
100
AcDbSortentsTable
330
20
331
536
  5
536
331
ACF
  5
AD0
331
4C7
  5
4C7
331
532
  5
532
331
B45
  5
B46
331
ACB
  5
ACC
331
4C3
  5
4C3
331
AC7
  5
AC8
331
B41
  5
B42
331
B06
  5
B07
331
AC3
  5
AC3
331
B3D
  5
B3E
331
B02
  5
B03
331
B39
  5
B3A
331
48F
  5
48F
331
48B
  5
48B
331
4BF
  5
4BF
331
4BB
  5
4BB
331
58D
  5
58D
331
AFE
  5
AFF
331
4B7
  5
4B7
331
4B3
  5
4B3
331
B35
  5
B36
331
AFA
  5
AFB
331
585
  5
585
331
AF6
  5
AF7
331
B31
  5
B32
331
581
  5
581
331
AF2
  5
AF3
331
B2D
  5
B2E
331
B29
  5
B2A
331
4AF
  5
4AF
331
4AB
  5
4AB
331
AEE
  5
AEF
331
4A7
  5
4A7
331
B25
  5
B26
331
AEA
  5
AEB
331
4A3
  5
4A3
331
4EA
  5
4EA
331
AE6
  5
AE7
331
B21
  5
B22
331
569
  5
569
331
AE2
  5
AE3
331
959
  5
959
331
B1D
  5
B1E
331
B19
  5
B1A
331
49F
  5
49F
331
4E6
  5
4E6
331
4E2
  5
4E2
331
49B
  5
49B
331
ADE
  5
ADF
331
497
  5
497
331
B15
  5
B16
331
ADA
  5
ADB
331
493
  5
493
331
B11
  5
B12
331
AD6
  5
AD7
331
539
  5
539
331
B0D
  5
B0E
331
AD2
  5
AD3
331
B48
  5
B49
331
B09
  5
B0A
331
535
  5
535
331
4C6
  5
4C6
331
ACE
  5
ACF
331
531
  5
531
331
4C2
  5
4C2
331
B44
  5
B45
331
ACA
  5
ACB
331
AC6
  5
AC6
331
B40
  5
B41
331
B05
  5
B06
331
B01
  5
B02
331
B3C
  5
B3D
331
AC2
  5
AC2
331
B38
  5
B39
331
48E
  5
48E
331
48A
  5
48A
331
4BE
  5
4BE
331
4BA
  5
4BA
331
4B6
  5
4B6
331
588
  5
588
331
AFD
  5
AFE
331
4B2
  5
4B2
331
584
  5
584
331
B34
  5
B35
331
AF9
  5
AFA
331
580
  5
580
331
AF5
  5
AF6
331
B30
  5
B31
331
AF1
  5
AF2
331
B2C
  5
B2D
331
B28
  5
B29
331
4AE
  5
4AE
331
4AA
  5
4AA
331
4A6
  5
4A6
331
4A2
  5
4A2
331
56C
  5
56C
331
4E9
  5
4E9
331
B24
  5
B25
331
AE5
  5
AE6
331
B20
  5
B21
331
AE1
  5
AE2
331
B1C
  5
B1D
331
B18
  5
B19
331
4E5
  5
4E5
331
49E
  5
49E
331
4E1
  5
4E1
331
49A
  5
49A
331
496
  5
496
331
ADD
  5
ADE
331
492
  5
492
331
B14
  5
B15
331
AD9
  5
ADA
331
538
  5
538
331
AD5
  5
AD6
331
B10
  5
B11
331
938
  5
938
331
B0C
  5
B0D
331
AD1
  5
AD2
331
B08
  5
B09
331
6E7
  5
6E7
331
534
  5
534
331
B47
  5
B48
331
ACD
  5
ACE
331
530
  5
530
331
4C1
  5
4C1
331
AC9
  5
ACA
331
8AD
  5
8AD
331
B43
  5
B44
331
AC5
  5
AC5
331
B3F
  5
B40
331
B04
  5
B05
331
B00
  5
B01
331
B3B
  5
B3C
331
AC1
  5
AC1
331
48D
  5
48D
331
489
  5
489
331
4BD
  5
4BD
331
514
  5
514
331
4B9
  5
4B9
331
4B5
  5
4B5
331
587
  5
587
331
504
  5
504
331
B37
  5
B38
331
AFC
  5
AFD
331
4B1
  5
4B1
331
583
  5
583
331
895
  5
895
331
B33
  5
B34
331
AF8
  5
AF9
331
AF4
  5
AF5
331
B2F
  5
B30
331
AF0
  5
AF1
331
B2B
  5
B2C
331
819
  5
819
331
4AD
  5
4AD
331
57F
  5
57F
331
4A9
  5
4A9
331
4A5
  5
4A5
331
B27
  5
B28
331
AEC
  5
AEE
331
4A1
  5
4A1
331
4E8
  5
4E8
331
B23
  5
B24
331
AE8
  5
AE9
331
AE4
  5
AE5
331
B1F
  5
B20
331
AE0
  5
AE1
331
B1B
  5
B1C
331
49D
  5
49D
331
499
  5
499
331
4DC
  5
4DC
331
495
  5
495
331
B17
  5
B18
331
ADC
  5
ADD
331
491
  5
491
331
B13
  5
B14
331
AD8
  5
AD9
331
AD4
  5
AD5
331
B0F
  5
B10
331
B4A
  5
B4B
331
B0B
  5
B0C
331
AD0
  5
AD1
331
6E6
  5
6E6
331
537
  5
537
331
4C8
  5
4C8
331
533
  5
533
331
B46
  5
B47
331
ACC
  5
ACD
331
4C4
  5
4C4
331
AC8
  5
AC9
331
B42
  5
B43
331
B07
  5
B08
331
4C0
  5
4C0
331
AC4
  5
AC4
331
B3E
  5
B3F
331
B03
  5
B04
331
B3A
  5
B3B
331
AC0
  5
AC0
331
48C
  5
48C
331
4BC
  5
4BC
331
507
  5
507
331
AFF
  5
B00
331
4B8
  5
4B8
331
B36
  5
B37
331
AFB
  5
AFC
331
4B4
  5
4B4
331
4B0
  5
4B0
331
AF7
  5
AF8
331
B32
  5
B33
331
582
  5
582
331
AF3
  5
AF4
331
B2E
  5
B2F
331
B2A
  5
B2B
331
818
  5
818
331
4AC
  5
4AC
331
4FB
  5
4FB
331
AEF
  5
AF0
331
4A8
  5
4A8
331
B26
  5
B27
331
AEB
  5
AEC
331
4A4
  5
4A4
331
4EB
  5
4EB
331
4A0
  5
4A0
331
B22
  5
B23
331
AE7
  5
AE8
331
709
  5
709
331
AE3
  5
AE4
331
B1E
  5
B1F
331
B1A
  5
B1B
331
4E7
  5
4E7
331
4E3
  5
4E3
331
49C
  5
49C
331
ADF
  5
AE0
331
498
  5
498
331
B16
  5
B17
331
ADB
  5
ADC
331
494
  5
494
331
490
  5
490
331
B12
  5
B13
331
AD7
  5
AD8
331
53A
  5
53A
331
B0E
  5
B0F
331
AD3
  5
AD4
331
B49
  5
B4A
331
92E
  5
92E
331
B0A
  5
B0B
  0
ACDBDETAILVIEWSTYLE
  5
9FC
102
{ACAD_REACTORS
330
9FB
102
}
330
9FB
100
AcDbModelDocViewStyle
 70
     0
  3
Imperial24
290
     0
100
AcDbDetailViewStyle
 70
     0
 71
     0
 90
        3
 71
     1
340
11
 62
   256
 40
0.24
340
0
 62
   256
 40
0.24
300

 40
0.36
280
     3
 71
     2
340
15
 90
       25
 62
   256
 71
     3
340
11
 62
   256
 40
0.24
 90
        1
 40
0.75
 90
        1
300
%<\AcVar ViewType \f "%tc1">% %<\AcVar ViewDetailId>%\PVARIA %<\AcVar ViewScale \f "%sn">%
 71
     4
340
15
 90
       25
 62
   256
340
15
 90
       25
 62
   256
280
     0
  0
LAYOUT
  5
1F
102
{ACAD_REACTORS
330
19
102
}
330
19
100
AcDbPlotSettings
  1

  2
RICOH Aficio 2027 PCL 6
  4

  6

 40
0.0
 41
0.0
 42
0.0
 43
0.0
 44
0.0
 45
0.0
 46
0.0
 47
0.0
 48
0.0
 49
0.0
140
0.0
141
0.0
142
1.0
143
1.0
 70
   688
 72
     0
 73
     0
 74
     5
  7
monochrome1.ctb
 75
    16
147
1.0
 76
     0
 77
     2
 78
   300
148
0.0
149
0.0
100
AcDbLayout
  1
Layout1
 70
     0
 71
     1
 10
0.0
 20
0.0
 11
12.0
 21
9.0
 12
0.0
 22
0.0
 32
0.0
 14
1.000000000000000E+20
 24
1.000000000000000E+20
 34
1.000000000000000E+20
 15
-1.000000000000000E+20
 25
-1.000000000000000E+20
 35
-1.000000000000000E+20
146
0.0
 13
0.0
 23
0.0
 33
0.0
 16
1.0
 26
0.0
 36
0.0
 17
0.0
 27
1.0
 37
0.0
 76
     0
330
1C
  0
LAYOUT
  5
23
102
{ACAD_REACTORS
330
19
102
}
330
19
100
AcDbPlotSettings
  1

  2
none_device
  4
Letter_(8.50_x_11.00_Inches)
  6

 40
6.349999904632568
 41
6.349999904632568
 42
6.350006103515625
 43
6.350006103515625
 44
215.8999938964844
 45
279.3999938964844
 46
0.0
 47
0.0
 48
0.0
 49
0.0
140
0.0
141
0.0
142
1.0
143
48.39692042072258
 70
 11952
 72
     0
 73
     1
 74
     0
  7
monochrome1.ctb
 75
     0
147
0.0206624717297471
 76
     0
 77
     2
 78
   300
148
1119.815053198427
149
25.92055206166703
100
AcDbLayout
  1
Model
 70
     1
 71
     0
 10
0.0
 20
0.0
 11
12.0
 21
9.0
 12
0.0
 22
0.0
 32
0.0
 14
0.0
 24
0.0
 34
0.0
 15
0.0
 25
0.0
 35
0.0
146
0.0
 13
0.0
 23
0.0
 33
0.0
 16
1.0
 26
0.0
 36
0.0
 17
0.0
 27
1.0
 37
0.0
 76
     0
330
20
331
9A8
1001
ACAD_PSEXT
1000
Kein
1000
Kein
1000
Nicht anwendbar
1000
Das Layout wird erst geplottet, wenn ein neuer Plotter-Konfigurationsname ausgewählt wird.
1070
     0
  0
MATERIAL
  5
9B9
102
{ACAD_XDICTIONARY
360
9BA
102
}
102
{ACAD_REACTORS
330
1A
102
}
330
1A
100
AcDbMaterial
  1
ByBlock
 72
     0
 43
0.0208333333333333
 43
0.0
 43
0.0
 43
0.0
 43
0.0
 43
0.0208333333333333
 43
0.0
 43
0.0
 43
0.0
 43
0.0
 43
1.0
 43
0.0
 43
0.0
 43
0.0
 43
0.0
 43
1.0
 77
     0
 47
0.0208333333333333
 47
0.0
 47
0.0
 47
0.0
 47
0.0
 47
0.0208333333333333
 47
0.0
 47
0.0
 47
0.0
 47
0.0
 47
1.0
 47
0.0
 47
0.0
 47
0.0
 47
0.0
 47
1.0
171
     0
 49
0.0208333333333333
 49
0.0
 49
0.0
 49
0.0
 49
0.0
 49
0.0208333333333333
 49
0.0
 49
0.0
 49
0.0
 49
0.0
 49
1.0
 49
0.0
 49
0.0
 49
0.0
 49
0.0
 49
1.0
175
     0
142
0.0208333333333333
142
0.0
142
0.0
142
0.0
142
0.0
142
0.0208333333333333
142
0.0
142
0.0
142
0.0
142
0.0
142
1.0
142
0.0
142
0.0
142
0.0
142
0.0
142
1.0
179
     0
144
0.0208333333333333
144
0.0
144
0.0
144
0.0
144
0.0
144
0.0208333333333333
144
0.0
144
0.0
144
0.0
144
0.0
144
1.0
144
0.0
144
0.0
144
0.0
144
0.0
144
1.0
147
0.0208333333333333
147
0.0
147
0.0
147
0.0
147
0.0
147
0.0208333333333333
147
0.0
147
0.0
147
0.0
147
0.0
147
1.0
147
0.0
147
0.0
147
0.0
147
0.0
147
1.0
  0
MATERIAL
  5
9B1
102
{ACAD_XDICTIONARY
360
9B2
102
}
102
{ACAD_REACTORS
330
1A
102
}
330
1A
100
AcDbMaterial
  1
ByLayer
 72
     0
 43
0.0208333333333333
 43
0.0
 43
0.0
 43
0.0
 43
0.0
 43
0.0208333333333333
 43
0.0
 43
0.0
 43
0.0
 43
0.0
 43
1.0
 43
0.0
 43
0.0
 43
0.0
 43
0.0
 43
1.0
 77
     0
 47
0.0208333333333333
 47
0.0
 47
0.0
 47
0.0
 47
0.0
 47
0.0208333333333333
 47
0.0
 47
0.0
 47
0.0
 47
0.0
 47
1.0
 47
0.0
 47
0.0
 47
0.0
 47
0.0
 47
1.0
171
     0
 49
0.0208333333333333
 49
0.0
 49
0.0
 49
0.0
 49
0.0
 49
0.0208333333333333
 49
0.0
 49
0.0
 49
0.0
 49
0.0
 49
1.0
 49
0.0
 49
0.0
 49
0.0
 49
0.0
 49
1.0
175
     0
142
0.0208333333333333
142
0.0
142
0.0
142
0.0
142
0.0
142
0.0208333333333333
142
0.0
142
0.0
142
0.0
142
0.0
142
1.0
142
0.0
142
0.0
142
0.0
142
0.0
142
1.0
179
     0
144
0.0208333333333333
144
0.0
144
0.0
144
0.0
144
0.0
144
0.0208333333333333
144
0.0
144
0.0
144
0.0
144
0.0
144
1.0
144
0.0
144
0.0
144
0.0
144
0.0
144
1.0
147
0.0208333333333333
147
0.0
147
0.0
147
0.0
147
0.0
147
0.0208333333333333
147
0.0
147
0.0
147
0.0
147
0.0
147
1.0
147
0.0
147
0.0
147
0.0
147
0.0
147
1.0
  0
MATERIAL
  5
9C1
102
{ACAD_XDICTIONARY
360
9C2
102
}
102
{ACAD_REACTORS
330
1A
102
}
330
1A
100
AcDbMaterial
  1
Global
 72
     0
 43
0.0208333333333333
 43
0.0
 43
0.0
 43
0.0
 43
0.0
 43
0.0208333333333333
 43
0.0
 43
0.0
 43
0.0
 43
0.0
 43
1.0
 43
0.0
 43
0.0
 43
0.0
 43
0.0
 43
1.0
 77
     0
 47
0.0208333333333333
 47
0.0
 47
0.0
 47
0.0
 47
0.0
 47
0.0208333333333333
 47
0.0
 47
0.0
 47
0.0
 47
0.0
 47
1.0
 47
0.0
 47
0.0
 47
0.0
 47
0.0
 47
1.0
171
     0
 49
0.0208333333333333
 49
0.0
 49
0.0
 49
0.0
 49
0.0
 49
0.0208333333333333
 49
0.0
 49
0.0
 49
0.0
 49
0.0
 49
1.0
 49
0.0
 49
0.0
 49
0.0
 49
0.0
 49
1.0
175
     0
142
0.0208333333333333
142
0.0
142
0.0
142
0.0
142
0.0
142
0.0208333333333333
142
0.0
142
0.0
142
0.0
142
0.0
142
1.0
142
0.0
142
0.0
142
0.0
142
0.0
142
1.0
179
     0
144
0.0208333333333333
144
0.0
144
0.0
144
0.0
144
0.0
144
0.0208333333333333
144
0.0
144
0.0
144
0.0
144
0.0
144
1.0
144
0.0
144
0.0
144
0.0
144
0.0
144
1.0
147
0.0208333333333333
147
0.0
147
0.0
147
0.0
147
0.0
147
0.0208333333333333
147
0.0
147
0.0
147
0.0
147
0.0
147
1.0
147
0.0
147
0.0
147
0.0
147
0.0
147
1.0
  0
MLEADERSTYLE
  5
9F7
102
{ACAD_XDICTIONARY
360
C8A
102
}
102
{ACAD_REACTORS
330
9F6
102
}
330
9F6
100
AcDbMLeaderStyle
170
     2
171
     1
172
     0
 90
        2
 40
0.0
 41
0.0
173
     1
 91
-1056964608
340
13
 92
       -2
290
     1
 42
0.09
291
     1
 43
0.36
  3
Standard
 44
0.18
300

342
11
174
     1
178
     6
175
     1
176
     0
 93
-1056964608
 45
0.18
292
     0
297
     0
 46
0.18
 94
-1056964608
 47
1.0
 49
1.0
140
1.0
293
     1
141
0.0
294
     1
177
     0
142
1.0
295
     0
296
     0
143
0.125
1001
ACAD_MLEADERVER
1070
     2
  0
MLINESTYLE
  5
17
102
{ACAD_REACTORS
330
16
102
}
330
16
100
AcDbMlineStyle
  2
STANDARD
 70
     0
  3

 62
   256
 51
90.0
 52
90.0
 71
     2
 49
0.5
 62
   256
  6
BYLAYER
 49
-0.5
 62
   256
  6
BYLAYER
  0
ACDBPLACEHOLDER
  5
F
102
{ACAD_REACTORS
330
E
102
}
330
E
  0
SCALE
  5
9E5
102
{ACAD_REACTORS
330
9E4
102
}
330
9E4
100
AcDbScale
 70
     0
300
1:1
140
1.0
141
1.0
290
     1
  0
SCALE
  5
9E6
102
{ACAD_REACTORS
330
9E4
102
}
330
9E4
100
AcDbScale
 70
     0
300
1/128" = 1'-0"
140
0.0078125
141
12.0
290
     0
  0
SCALE
  5
9E7
102
{ACAD_REACTORS
330
9E4
102
}
330
9E4
100
AcDbScale
 70
     0
300
1/64" = 1'-0"
140
0.015625
141
12.0
290
     0
  0
SCALE
  5
9E8
102
{ACAD_REACTORS
330
9E4
102
}
330
9E4
100
AcDbScale
 70
     0
300
1/32" = 1'-0"
140
0.03125
141
12.0
290
     0
  0
SCALE
  5
9E9
102
{ACAD_REACTORS
330
9E4
102
}
330
9E4
100
AcDbScale
 70
     0
300
1/16" = 1'-0"
140
0.0625
141
12.0
290
     0
  0
SCALE
  5
9EA
102
{ACAD_REACTORS
330
9E4
102
}
330
9E4
100
AcDbScale
 70
     0
300
3/32" = 1'-0"
140
0.09375
141
12.0
290
     0
  0
SCALE
  5
9EB
102
{ACAD_REACTORS
330
9E4
102
}
330
9E4
100
AcDbScale
 70
     0
300
1/8" = 1'-0"
140
0.125
141
12.0
290
     0
  0
SCALE
  5
9EC
102
{ACAD_REACTORS
330
9E4
102
}
330
9E4
100
AcDbScale
 70
     0
300
3/16" = 1'-0"
140
0.1875
141
12.0
290
     0
  0
SCALE
  5
9ED
102
{ACAD_REACTORS
330
9E4
102
}
330
9E4
100
AcDbScale
 70
     0
300
1/4" = 1'-0"
140
0.25
141
12.0
290
     0
  0
SCALE
  5
9EE
102
{ACAD_REACTORS
330
9E4
102
}
330
9E4
100
AcDbScale
 70
     0
300
3/8" = 1'-0"
140
0.375
141
12.0
290
     0
  0
SCALE
  5
9EF
102
{ACAD_REACTORS
330
9E4
102
}
330
9E4
100
AcDbScale
 70
     0
300
1/2" = 1'-0"
140
0.5
141
12.0
290
     0
  0
SCALE
  5
9F0
102
{ACAD_REACTORS
330
9E4
102
}
330
9E4
100
AcDbScale
 70
     0
300
3/4" = 1'-0"
140
0.75
141
12.0
290
     0
  0
SCALE
  5
9F1
102
{ACAD_REACTORS
330
9E4
102
}
330
9E4
100
AcDbScale
 70
     0
300
1" = 1'-0"
140
1.0
141
12.0
290
     0
  0
SCALE
  5
9F2
102
{ACAD_REACTORS
330
9E4
102
}
330
9E4
100
AcDbScale
 70
     0
300
1-1/2" = 1'-0"
140
1.5
141
12.0
290
     0
  0
SCALE
  5
9F3
102
{ACAD_REACTORS
330
9E4
102
}
330
9E4
100
AcDbScale
 70
     0
300
3" = 1'-0"
140
3.0
141
12.0
290
     0
  0
SCALE
  5
9F4
102
{ACAD_REACTORS
330
9E4
102
}
330
9E4
100
AcDbScale
 70
     0
300
6" = 1'-0"
140
6.0
141
12.0
290
     0
  0
SCALE
  5
9F5
102
{ACAD_REACTORS
330
9E4
102
}
330
9E4
100
AcDbScale
 70
     0
300
1'-0" = 1'-0"
140
12.0
141
12.0
290
     0
  0
ACDBSECTIONVIEWSTYLE
  5
9FA
102
{ACAD_REACTORS
330
9F8
102
}
330
9F8
100
AcDbModelDocViewStyle
 70
     0
  3
Imperial24
290
     0
100
AcDbSectionViewStyle
 70
     0
 71
     0
 90
       78
 71
     1
340
11
 62
   256
 40
0.24
340
0
340
0
 62
   256
 40
0.24
300
I, O, Q, S, X, Z
 40
0.48
 90
        3
 40
0.18
 90
        1
 71
     2
340
9F9
 90
       25
 62
   256
340
15
 90
       50
 62
   256
 40
0.24
 40
0.0
 40
0.24
 71
     3
340
11
 62
   256
 40
0.24
 90
        1
 40
0.75
 90
        1
300
%<\AcVar ViewType \f "%tc1">% %<\AcVar ViewSectionStartId>%-%<\AcVar ViewSectionEndId>%\PVARIA %<\AcVar ViewScale \f "%sn">%
 71
     4
 62
   256
 62
   257
300
ANSI31
 40
1.0
 90
        0
290
     0
290
     0
 90
        6
 40
0.0
 40
1.570796326794896
 40
0.2617993877991494
 40
1.308996938995747
 40
-0.2617993877991494
 40
1.832595714594046
  0
TABLESTYLE
  5
9E3
102
{ACAD_XDICTIONARY
360
B6F
102
}
102
{ACAD_REACTORS
330
9E2
102
}
330
9E2
100
AcDbTableStyle
  3
Standard
 70
     0
 71
     0
 40
0.06
 41
0.06
280
     0
281
     0
  7
STANDARD
140
0.18
170
     2
 62
     0
 63
     7
283
     0
274
    -2
284
     1
 64
     0
275
    -2
285
     1
 65
     0
276
    -2
286
     1
 66
     0
277
    -2
287
     1
 67
     0
278
    -2
288
     1
 68
     0
279
    -2
289
     1
 69
     0
  7
STANDARD
140
0.25
170
     5
 62
     0
 63
     7
283
     0
274
    -2
284
     1
 64
     0
275
    -2
285
     1
 65
     0
276
    -2
286
     1
 66
     0
277
    -2
287
     1
 67
     0
278
    -2
288
     1
 68
     0
279
    -2
289
     1
 69
     0
  7
STANDARD
140
0.18
170
     5
 62
     0
 63
     7
283
     0
274
    -2
284
     1
 64
     0
275
    -2
285
     1
 65
     0
276
    -2
286
     1
 66
     0
277
    -2
287
     1
 67
     0
278
    -2
288
     1
 68
     0
279
    -2
289
     1
 69
     0
  0
VISUALSTYLE
  5
9CF
102
{ACAD_XDICTIONARY
360
C63
102
}
102
{ACAD_REACTORS
330
9C9
102
}
330
9C9
100
AcDbVisualStyle
  2
2dWireframe
 70
     4
 71
     0
 72
     2
 73
     0
 90
        0
 40
-0.6
 41
-30.0
 62
     5
 63
     7
421
 16777215
 74
     1
 91
        4
 64
     7
 65
   257
 75
     1
175
     1
 42
1.0
 92
        0
 66
   257
 43
1.0
 76
     1
 77
     6
 78
     2
 67
     7
 79
     5
170
     0
171
     0
290
     0
174
     0
 93
        1
 44
0.0
173
     0
291
     0
 45
0.0
1001
ACAD
1000
AcDbSavedByObjectVersion
1070
     0
  0
VISUALSTYLE
  5
9CE
102
{ACAD_XDICTIONARY
360
C61
102
}
102
{ACAD_REACTORS
330
9C9
102
}
330
9C9
100
AcDbVisualStyle
  2
Basic
 70
     7
 71
     1
 72
     0
 73
     1
 90
        0
 40
-0.6
 41
-30.0
 62
     5
 63
     7
421
 16777215
 74
     0
 91
        4
 64
     7
 65
   257
 75
     1
175
     1
 42
1.0
 92
        8
 66
     7
 43
1.0
 76
     1
 77
     6
 78
     2
 67
     7
 79
     5
170
     0
171
     0
290
     0
174
     0
 93
        1
 44
0.0
173
     0
291
     1
 45
0.0
1001
ACAD
1000
AcDbSavedByObjectVersion
1070
     0
  0
VISUALSTYLE
  5
9D5
102
{ACAD_XDICTIONARY
360
C6F
102
}
102
{ACAD_REACTORS
330
9C9
102
}
330
9C9
100
AcDbVisualStyle
  2
Brighten
 70
    12
 71
     2
 72
     2
 73
     0
 90
        0
 40
-0.6
 41
-30.0
 62
     5
 63
     7
421
 16777215
 74
     1
 91
        4
 64
     7
 65
   257
 75
     1
175
     1
 42
1.0
 92
        8
 66
     7
 43
1.0
 76
     1
 77
     6
 78
     2
 67
     7
 79
     5
170
     0
171
     0
290
     0
174
     0
 93
        1
 44
50.0
173
     0
291
     1
 45
0.0
1001
ACAD
1000
AcDbSavedByObjectVersion
1070
     0
  0
VISUALSTYLE
  5
9D9
102
{ACAD_XDICTIONARY
360
C77
102
}
102
{ACAD_REACTORS
330
9C9
102
}
330
9C9
100
AcDbVisualStyle
  2
ColorChange
 70
    16
 71
     2
 72
     2
 73
     3
 90
        0
 40
-0.6
 41
-30.0
 62
     5
 63
     8
421
  8421504
 74
     1
 91
        4
 64
     7
 65
   257
 75
     1
175
     1
 42
1.0
 92
        8
 66
     8
424
  8421504
 43
1.0
 76
     1
 77
     6
 78
     2
 67
     7
 79
     5
170
     0
171
     0
290
     0
174
     0
 93
        1
 44
0.0
173
     0
291
     1
 45
0.0
1001
ACAD
1000
AcDbSavedByObjectVersion
1070
     0
  0
VISUALSTYLE
  5
9D2
102
{ACAD_XDICTIONARY
360
C69
102
}
102
{ACAD_REACTORS
330
9C9
102
}
330
9C9
100
AcDbVisualStyle
  2
Conceptual
 70
     9
 71
     3
 72
     2
 73
     0
 90
        0
 40
-0.6
 41
-30.0
 62
     5
 63
     7
421
 16777215
 74
     2
 91
        2
 64
     7
 65
   257
 75
     1
175
     1
 42
179.0
 92
        8
 66
     7
 43
1.0
 76
     1
 77
     6
 78
     2
 67
     7
 79
     3
170
     0
171
     0
290
     0
174
     0
 93
        1
 44
0.0
173
     0
291
     0
 45
0.0
1001
ACAD
1000
AcDbSavedByObjectVersion
1070
     0
  0
VISUALSTYLE
  5
9D4
102
{ACAD_XDICTIONARY
360
C6D
102
}
102
{ACAD_REACTORS
330
9C9
102
}
330
9C9
100
AcDbVisualStyle
  2
Dim
 70
    11
 71
     2
 72
     2
 73
     0
 90
        0
 40
-0.6
 41
-30.0
 62
     5
 63
     7
421
 16777215
 74
     1
 91
        4
 64
     7
 65
   257
 75
     1
175
     1
 42
1.0
 92
        8
 66
     7
 43
1.0
 76
     1
 77
     6
 78
     2
 67
     7
 79
     5
170
     0
171
     0
290
     0
174
     0
 93
        1
 44
-50.0
173
     0
291
     1
 45
0.0
1001
ACAD
1000
AcDbSavedByObjectVersion
1070
     0
  0
VISUALSTYLE
  5
9E1
102
{ACAD_XDICTIONARY
360
C87
102
}
102
{ACAD_REACTORS
330
9C9
102
}
330
9C9
100
AcDbVisualStyle
  2
EdgeColorOff
 70
    22
 71
     2
 72
     2
 73
     0
 90
        0
 40
-0.6
 41
-30.0
 62
     5
 63
     7
421
 16777215
 74
     1
 91
        4
 64
     7
 65
   257
 75
     1
175
     1
 42
1.0
 92
        8
 66
     7
 43
1.0
 76
     1
 77
     6
 78
     2
 67
     7
 79
     5
170
     0
171
     0
290
     0
174
     0
 93
        1
 44
0.0
173
     0
291
     1
 45
0.0
1001
ACAD
1000
AcDbSavedByObjectVersion
1070
     0
  0
VISUALSTYLE
  5
9D8
102
{ACAD_XDICTIONARY
360
C75
102
}
102
{ACAD_REACTORS
330
9C9
102
}
330
9C9
100
AcDbVisualStyle
  2
Facepattern
 70
    15
 71
     2
 72
     2
 73
     0
 90
        0
 40
-0.6
 41
-30.0
 62
     5
 63
     7
421
 16777215
 74
     1
 91
        4
 64
     7
 65
   257
 75
     1
175
     1
 42
1.0
 92
        8
 66
     7
 43
1.0
 76
     1
 77
     6
 78
     2
 67
     7
 79
     5
170
     0
171
     0
290
     0
174
     0
 93
        1
 44
0.0
173
     0
291
     1
 45
0.0
1001
ACAD
1000
AcDbSavedByObjectVersion
1070
     0
  0
VISUALSTYLE
  5
9CA
102
{ACAD_XDICTIONARY
360
C59
102
}
102
{ACAD_REACTORS
330
9C9
102
}
330
9C9
100
AcDbVisualStyle
  2
Flat
 70
     0
 71
     2
 72
     1
 73
     1
 90
        2
 40
-0.6
 41
30.0
 62
     5
 63
     7
421
 16777215
 74
     0
 91
        0
 64
     7
 65
   257
 75
     1
175
     1
 42
1.0
 92
        8
 66
     7
 43
1.0
 76
     1
 77
     6
 78
     2
 67
     7
 79
     5
170
     0
171
     0
290
     0
174
     0
 93
       13
 44
0.0
173
     0
291
     1
 45
0.0
1001
ACAD
1000
AcDbSavedByObjectVersion
1070
     0
  0
VISUALSTYLE
  5
9CB
102
{ACAD_XDICTIONARY
360
C5B
102
}
102
{ACAD_REACTORS
330
9C9
102
}
330
9C9
100
AcDbVisualStyle
  2
FlatWithEdges
 70
     1
 71
     2
 72
     1
 73
     1
 90
        2
 40
-0.6
 41
30.0
 62
     5
 63
     7
421
 16777215
 74
     1
 91
        0
 64
     7
 65
   257
 75
     1
175
     1
 42
1.0
 92
        0
 66
   257
 43
1.0
 76
     1
 77
     6
 78
     2
 67
     7
 79
     5
170
     0
171
     0
290
     0
174
     0
 93
       13
 44
0.0
173
     0
291
     1
 45
0.0
1001
ACAD
1000
AcDbSavedByObjectVersion
1070
     0
  0
VISUALSTYLE
  5
9CC
102
{ACAD_XDICTIONARY
360
C5D
102
}
102
{ACAD_REACTORS
330
9C9
102
}
330
9C9
100
AcDbVisualStyle
  2
Gouraud
 70
     2
 71
     2
 72
     2
 73
     1
 90
        2
 40
-0.6
 41
30.0
 62
     5
 63
     7
421
 16777215
 74
     0
 91
        0
 64
     7
 65
   257
 75
     1
175
     1
 42
1.0
 92
        0
 66
     7
 43
1.0
 76
     1
 77
     6
 78
     2
 67
     7
 79
     5
170
     0
171
     0
290
     0
174
     0
 93
       13
 44
0.0
173
     0
291
     1
 45
0.0
1001
ACAD
1000
AcDbSavedByObjectVersion
1070
     0
  0
VISUALSTYLE
  5
9CD
102
{ACAD_XDICTIONARY
360
C5F
102
}
102
{ACAD_REACTORS
330
9C9
102
}
330
9C9
100
AcDbVisualStyle
  2
GouraudWithEdges
 70
     3
 71
     2
 72
     2
 73
     1
 90
        2
 40
-0.6
 41
30.0
 62
     5
 63
     7
421
 16777215
 74
     1
 91
        0
 64
     7
 65
   257
 75
     1
175
     1
 42
1.0
 92
        0
 66
   257
 43
1.0
 76
     1
 77
     6
 78
     2
 67
     7
 79
     5
170
     0
171
     0
290
     0
174
     0
 93
       13
 44
0.0
173
     0
291
     1
 45
0.0
1001
ACAD
1000
AcDbSavedByObjectVersion
1070
     0
  0
VISUALSTYLE
  5
9D1
102
{ACAD_XDICTIONARY
360
C67
102
}
102
{ACAD_REACTORS
330
9C9
102
}
330
9C9
100
AcDbVisualStyle
  2
Hidden
 70
     6
 71
     1
 72
     2
 73
     2
 90
        0
 40
-0.6
 41
-30.0
 62
     5
 63
     7
421
 16777215
 74
     2
 91
        2
 64
     7
 65
   257
 75
     2
175
     1
 42
40.0
 92
        0
 66
   257
 43
1.0
 76
     1
 77
     6
 78
     2
 67
     7
 79
     3
170
     0
171
     0
290
     0
174
     0
 93
        1
 44
0.0
173
     0
291
     0
 45
0.0
1001
ACAD
1000
AcDbSavedByObjectVersion
1070
     0
  0
VISUALSTYLE
  5
9DF
102
{ACAD_XDICTIONARY
360
C83
102
}
102
{ACAD_REACTORS
330
9C9
102
}
330
9C9
100
AcDbVisualStyle
  2
JitterOff
 70
    20
 71
     2
 72
     2
 73
     0
 90
        0
 40
-0.6
 41
-30.0
 62
     5
 63
     7
421
 16777215
 74
     1
 91
        4
 64
     7
 65
   257
 75
     1
175
     1
 42
1.0
 92
       10
 66
     7
 43
1.0
 76
     1
 77
     6
 78
     2
 67
     7
 79
     5
170
     0
171
     0
290
     0
174
     0
 93
        1
 44
0.0
173
     0
291
     1
 45
0.0
1001
ACAD
1000
AcDbSavedByObjectVersion
1070
     0
  0
VISUALSTYLE
  5
9D7
102
{ACAD_XDICTIONARY
360
C73
102
}
102
{ACAD_REACTORS
330
9C9
102
}
330
9C9
100
AcDbVisualStyle
  2
Linepattern
 70
    14
 71
     2
 72
     2
 73
     0
 90
        0
 40
-0.6
 41
-30.0
 62
     5
 63
     7
421
 16777215
 74
     1
 91
        4
 64
     7
 65
   257
 75
     7
175
     7
 42
1.0
 92
        8
 66
     7
 43
1.0
 76
     1
 77
     6
 78
     2
 67
     7
 79
     5
170
     0
171
     0
290
     0
174
     0
 93
        1
 44
0.0
173
     0
291
     1
 45
0.0
1001
ACAD
1000
AcDbSavedByObjectVersion
1070
     0
  0
VISUALSTYLE
  5
9E0
102
{ACAD_XDICTIONARY
360
C85
102
}
102
{ACAD_REACTORS
330
9C9
102
}
330
9C9
100
AcDbVisualStyle
  2
OverhangOff
 70
    21
 71
     2
 72
     2
 73
     0
 90
        0
 40
-0.6
 41
-30.0
 62
     5
 63
     7
421
 16777215
 74
     1
 91
        4
 64
     7
 65
   257
 75
     1
175
     1
 42
1.0
 92
        9
 66
     7
 43
1.0
 76
     1
 77
     6
 78
     2
 67
     7
 79
     5
170
     0
171
     0
290
     0
174
     0
 93
        1
 44
0.0
173
     0
291
     1
 45
0.0
1001
ACAD
1000
AcDbSavedByObjectVersion
1070
     0
  0
VISUALSTYLE
  5
9D3
102
{ACAD_XDICTIONARY
360
C6B
102
}
102
{ACAD_REACTORS
330
9C9
102
}
330
9C9
100
AcDbVisualStyle
  2
Realistic
 70
     8
 71
     2
 72
     2
 73
     0
 90
        2
 40
-0.6
 41
30.0
 62
     5
 63
     7
421
 16777215
 74
     0
 91
        0
 64
     7
 65
   257
 75
     1
175
     1
 42
1.0
 92
        8
 66
   257
 43
1.0
 76
     1
 77
     6
 78
     2
 67
     7
 79
     3
170
     0
171
     0
290
     0
174
     0
 93
       13
 44
0.0
173
     0
291
     0
 45
0.0
1001
ACAD
1000
AcDbSavedByObjectVersion
1070
     0
  0
VISUALSTYLE
  5
9DE
102
{ACAD_XDICTIONARY
360
C81
102
}
102
{ACAD_REACTORS
330
9C9
102
}
330
9C9
100
AcDbVisualStyle
  2
Shaded
 70
    27
 71
     2
 72
     2
 73
     1
 90
        2
 40
-0.6
 41
30.0
 62
     5
 63
     7
421
 16777215
 74
     0
 91
        4
 64
     7
 65
   257
 75
     1
175
     1
 42
1.0
 92
        8
 66
   257
 43
1.0
 76
     1
 77
     6
 78
     2
 67
     8
425
  7895160
 79
     3
170
     0
171
     0
290
     0
174
     0
 93
        5
 44
0.0
173
     0
291
     0
 45
0.0
1001
ACAD
1000
AcDbSavedByObjectVersion
1070
     0
  0
VISUALSTYLE
  5
9DD
102
{ACAD_XDICTIONARY
360
C7F
102
}
102
{ACAD_REACTORS
330
9C9
102
}
330
9C9
100
AcDbVisualStyle
  2
Shaded with edges
 70
    26
 71
     2
 72
     2
 73
     1
 90
        2
 40
-0.6
 41
30.0
 62
     5
 63
     7
421
 16777215
 74
     1
 91
       10
 64
     7
 65
   257
 75
     2
175
     1
 42
1.0
 92
        8
 66
   257
 43
1.0
 76
     1
 77
     6
 78
     2
 67
     7
 79
     3
170
     0
171
     0
290
     0
174
     0
 93
        5
 44
0.0
173
     0
291
     0
 45
0.0
1001
ACAD
1000
AcDbSavedByObjectVersion
1070
     0
  0
VISUALSTYLE
  5
9DA
102
{ACAD_XDICTIONARY
360
C79
102
}
102
{ACAD_REACTORS
330
9C9
102
}
330
9C9
100
AcDbVisualStyle
  2
Shades of Gray
 70
    23
 71
     2
 72
     2
 73
     3
 90
        0
 40
-0.6
 41
-30.0
 62
     5
 63
     7
421
 16777215
 74
     2
 91
        2
 64
     7
 65
     7
 75
     1
175
     1
 42
40.0
 92
        8
 66
     7
 43
1.0
 76
     1
 77
     6
 78
     2
 67
     7
 79
     3
170
     0
171
     0
290
     0
174
     0
 93
        1
 44
0.0
173
     0
291
     0
 45
0.0
1001
ACAD
1000
AcDbSavedByObjectVersion
1070
     0
  0
VISUALSTYLE
  5
9DB
102
{ACAD_XDICTIONARY
360
C7B
102
}
102
{ACAD_REACTORS
330
9C9
102
}
330
9C9
100
AcDbVisualStyle
  2
Sketchy
 70
    24
 71
     1
 72
     2
 73
     2
 90
        0
 40
-0.6
 41
-30.0
 62
     5
 63
     7
421
 16777215
 74
     2
 91
        2
 64
     7
 65
     7
 75
     1
175
     1
 42
40.0
 92
       11
 66
     7
 43
1.0
 76
     1
 77
     6
 78
     2
 67
     7
 79
     6
170
     0
171
     0
290
     0
174
     0
 93
        1
 44
0.0
173
     0
291
     0
 45
0.0
1001
ACAD
1000
AcDbSavedByObjectVersion
1070
     0
  0
VISUALSTYLE
  5
9D6
102
{ACAD_XDICTIONARY
360
C71
102
}
102
{ACAD_REACTORS
330
9C9
102
}
330
9C9
100
AcDbVisualStyle
  2
Thicken
 70
    13
 71
     2
 72
     2
 73
     0
 90
        0
 40
-0.6
 41
-30.0
 62
     5
 63
     7
421
 16777215
 74
     1
 91
        4
 64
     7
 65
   257
 75
     1
175
     1
 42
1.0
 92
       12
 66
     7
 43
1.0
 76
     1
 77
     6
 78
     2
 67
     7
 79
     5
170
     0
171
     0
290
     0
174
     0
 93
        1
 44
0.0
173
     0
291
     1
 45
0.0
1001
ACAD
1000
AcDbSavedByObjectVersion
1070
     0
  0
VISUALSTYLE
  5
9D0
102
{ACAD_XDICTIONARY
360
C65
102
}
102
{ACAD_REACTORS
330
9C9
102
}
330
9C9
100
AcDbVisualStyle
  2
Wireframe
 70
     5
 71
     0
 72
     2
 73
     0
 90
        0
 40
-0.6
 41
-30.0
 62
     5
 63
     7
421
 16777215
 74
     1
 91
        4
 64
     7
 65
   257
 75
     1
175
     1
 42
1.0
 92
        0
 66
   257
 43
1.0
 76
     1
 77
     6
 78
     2
 67
     7
 79
     3
170
     0
171
     0
290
     0
174
     0
 93
        1
 44
0.0
173
     0
291
     0
 45
0.0
1001
ACAD
1000
AcDbSavedByObjectVersion
1070
     0
  0
VISUALSTYLE
  5
9DC
102
{ACAD_XDICTIONARY
360
C7D
102
}
102
{ACAD_REACTORS
330
9C9
102
}
330
9C9
100
AcDbVisualStyle
  2
X-Ray
 70
    25
 71
     2
 72
     2
 73
     1
 90
        1
 40
0.5
 41
-30.0
 62
     5
 63
     7
421
 16777215
 74
     1
 91
        0
 64
     7
 65
   257
 75
     1
175
     1
 42
1.0
 92
        8
 66
     7
 43
1.0
 76
     1
 77
     6
 78
     2
 67
     7
 79
     3
170
     0
171
     0
290
     0
174
     0
 93
       13
 44
0.0
173
     0
291
     0
 45
0.0
1001
ACAD
1000
AcDbSavedByObjectVersion
1070
     0
  0
DICTIONARYVAR
  5
BB0
102
{ACAD_REACTORS
330
72A
102
}
330
72A
100
DictionaryVariables
280
     0
  1
1:1
  0
DICTIONARYVAR
  5
BAD
102
{ACAD_REACTORS
330
72A
102
}
330
72A
100
DictionaryVariables
280
     0
  1
STANDARD
  0
DICTIONARYVAR
  5
BAC
102
{ACAD_REACTORS
330
72A
102
}
330
72A
100
DictionaryVariables
280
     0
  1
STANDARD
  0
DICTIONARYVAR
  5
BAE
102
{ACAD_REACTORS
330
72A
102
}
330
72A
100
DictionaryVariables
280
     0
  1
Imperial24
  0
DICTIONARYVAR
  5
BAF
102
{ACAD_REACTORS
330
72A
102
}
330
72A
100
DictionaryVariables
280
     0
  1
Imperial24
  0
DICTIONARYVAR
  5
72C
102
{ACAD_REACTORS
330
72A
102
}
330
72A
100
DictionaryVariables
280
     0
  1
2
  0
DICTIONARYVAR
  5
72B
102
{ACAD_REACTORS
330
72A
102
}
330
72A
100
DictionaryVariables
280
     0
  1
1
  0
DICTIONARYVAR
  5
72D
102
{ACAD_REACTORS
330
72A
102
}
330
72A
100
DictionaryVariables
280
     0
  1

  0
DICTIONARYVAR
  5
C4B
102
{ACAD_REACTORS
330
72A
102
}
330
72A
100
DictionaryVariables
280
     0
  1
2
  0
DICTIONARY
  5
C55
102
{ACAD_REACTORS
330
C53
102
}
330
C53
100
AcDbDictionary
281
     1
  0
DICTIONARY
  5
C54
102
{ACAD_REACTORS
330
C53
102
}
330
C53
100
AcDbDictionary
281
     1
  3
8796083677664
350
C4E
  3
8796083677680
350
C4F
  3
8796083677696
350
C50
  3
8796083677712
350
C51
  3
8796083677728
350
C52
  0
DICTIONARY
  5
9BA
330
9B9
100
AcDbDictionary
280
     1
281
     1
  3
ACAD_XREC_ROUNDTRIP
360
C57
  3
BUMPTILE
360
9BC
  3
DIFFUSETILE
360
9BB
  3
OPACITYTILE
360
9BF
  3
REFLECTIONTILE
360
9BE
  3
REFRACTIONTILE
360
9C0
  3
SPECULARTILE
360
9BD
  0
DICTIONARY
  5
9B2
330
9B1
100
AcDbDictionary
280
     1
281
     1
  3
ACAD_XREC_ROUNDTRIP
360
C56
  3
BUMPTILE
360
9B4
  3
DIFFUSETILE
360
9B3
  3
OPACITYTILE
360
9B7
  3
REFLECTIONTILE
360
9B6
  3
REFRACTIONTILE
360
9B8
  3
SPECULARTILE
360
9B5
  0
DICTIONARY
  5
9C2
330
9C1
100
AcDbDictionary
280
     1
281
     1
  3
ACAD_XREC_ROUNDTRIP
360
C58
  3
BUMPTILE
360
9C4
  3
DIFFUSETILE
360
9C3
  3
OPACITYTILE
360
9C7
  3
REFLECTIONTILE
360
9C6
  3
REFRACTIONTILE
360
9C8
  3
SPECULARTILE
360
9C5
  0
DICTIONARY
  5
C8A
330
9F7
100
AcDbDictionary
280
     1
281
     1
  3
ACAD_XREC_ROUNDTRIP
360
C8B
  0
DICTIONARY
  5
B6F
330
9E3
100
AcDbDictionary
280
     1
281
     1
  3
ACAD_ROUNDTRIP_2008_TABLESTYLE_CELLSTYLEMAP
360
C4C
  3
ACAD_XREC_ROUNDTRIP
360
C89
  0
DICTIONARY
  5
C63
330
9CF
100
AcDbDictionary
280
     1
281
     1
  3
ACAD_XREC_ROUNDTRIP
360
C64
  0
DICTIONARY
  5
C61
330
9CE
100
AcDbDictionary
280
     1
281
     1
  3
ACAD_XREC_ROUNDTRIP
360
C62
  0
DICTIONARY
  5
C6F
330
9D5
100
AcDbDictionary
280
     1
281
     1
  3
ACAD_XREC_ROUNDTRIP
360
C70
  0
DICTIONARY
  5
C77
330
9D9
100
AcDbDictionary
280
     1
281
     1
  3
ACAD_XREC_ROUNDTRIP
360
C78
  0
DICTIONARY
  5
C69
330
9D2
100
AcDbDictionary
280
     1
281
     1
  3
ACAD_XREC_ROUNDTRIP
360
C6A
  0
DICTIONARY
  5
C6D
330
9D4
100
AcDbDictionary
280
     1
281
     1
  3
ACAD_XREC_ROUNDTRIP
360
C6E
  0
DICTIONARY
  5
C87
330
9E1
100
AcDbDictionary
280
     1
281
     1
  3
ACAD_XREC_ROUNDTRIP
360
C88
  0
DICTIONARY
  5
C75
330
9D8
100
AcDbDictionary
280
     1
281
     1
  3
ACAD_XREC_ROUNDTRIP
360
C76
  0
DICTIONARY
  5
C59
330
9CA
100
AcDbDictionary
280
     1
281
     1
  3
ACAD_XREC_ROUNDTRIP
360
C5A
  0
DICTIONARY
  5
C5B
330
9CB
100
AcDbDictionary
280
     1
281
     1
  3
ACAD_XREC_ROUNDTRIP
360
C5C
  0
DICTIONARY
  5
C5D
330
9CC
100
AcDbDictionary
280
     1
281
     1
  3
ACAD_XREC_ROUNDTRIP
360
C5E
  0
DICTIONARY
  5
C5F
330
9CD
100
AcDbDictionary
280
     1
281
     1
  3
ACAD_XREC_ROUNDTRIP
360
C60
  0
DICTIONARY
  5
C67
330
9D1
100
AcDbDictionary
280
     1
281
     1
  3
ACAD_XREC_ROUNDTRIP
360
C68
  0
DICTIONARY
  5
C83
330
9DF
100
AcDbDictionary
280
     1
281
     1
  3
ACAD_XREC_ROUNDTRIP
360
C84
  0
DICTIONARY
  5
C73
330
9D7
100
AcDbDictionary
280
     1
281
     1
  3
ACAD_XREC_ROUNDTRIP
360
C74
  0
DICTIONARY
  5
C85
330
9E0
100
AcDbDictionary
280
     1
281
     1
  3
ACAD_XREC_ROUNDTRIP
360
C86
  0
DICTIONARY
  5
C6B
330
9D3
100
AcDbDictionary
280
     1
281
     1
  3
ACAD_XREC_ROUNDTRIP
360
C6C
  0
DICTIONARY
  5
C81
330
9DE
100
AcDbDictionary
280
     1
281
     1
  3
ACAD_XREC_ROUNDTRIP
360
C82
  0
DICTIONARY
  5
C7F
330
9DD
100
AcDbDictionary
280
     1
281
     1
  3
ACAD_XREC_ROUNDTRIP
360
C80
  0
DICTIONARY
  5
C79
330
9DA
100
AcDbDictionary
280
     1
281
     1
  3
ACAD_XREC_ROUNDTRIP
360
C7A
  0
DICTIONARY
  5
C7B
330
9DB
100
AcDbDictionary
280
     1
281
     1
  3
ACAD_XREC_ROUNDTRIP
360
C7C
  0
DICTIONARY
  5
C71
330
9D6
100
AcDbDictionary
280
     1
281
     1
  3
ACAD_XREC_ROUNDTRIP
360
C72
  0
DICTIONARY
  5
C65
330
9D0
100
AcDbDictionary
280
     1
281
     1
  3
ACAD_XREC_ROUNDTRIP
360
C66
  0
DICTIONARY
  5
C7D
330
9DC
100
AcDbDictionary
280
     1
281
     1
  3
ACAD_XREC_ROUNDTRIP
360
C7E
  0
XRECORD
  5
C4E
102
{ACAD_REACTORS
330
C54
102
}
330
C54
100
AcDbXrecord
280
     1
  1
AcDb_Thumbnail_Schema
102
{ATTRRECORD
341
C4F
  2
AcDbDs::TreatedAsObjectData
280
     1
291
     1
102
ATTRRECORD}
102
{ATTRRECORD
341
C50
  2
AcDbDs::Legacy
280
     1
291
     1
102
ATTRRECORD}
  2
AcDbDs::ID
280
    10
 91
        8
102
{ATTRRECORD
341
C51
  2
AcDs:Indexable
280
     1
291
     1
102
ATTRRECORD}
102
{ATTRRECORD
341
C52
  2
AcDbDs::HandleAttribute
280
     7
282
     1
102
ATTRRECORD}
  2
Thumbnail_Data
280
    15
 91
        0
  0
XRECORD
  5
C4F
102
{ACAD_REACTORS
330
C54
102
}
330
C54
100
AcDbXrecord
280
     1
  1
AcDbDs::TreatedAsObjectDataSchema
  2
AcDbDs::TreatedAsObjectData
280
     1
 91
        0
  0
XRECORD
  5
C50
102
{ACAD_REACTORS
330
C54
102
}
330
C54
100
AcDbXrecord
280
     1
  1
AcDbDs::LegacySchema
  2
AcDbDs::Legacy
280
     1
 91
        0
  0
XRECORD
  5
C51
102
{ACAD_REACTORS
330
C54
102
}
330
C54
100
AcDbXrecord
280
     1
  1
AcDbDs::IndexedPropertySchema
  2
AcDs:Indexable
280
     1
 91
        0
  0
XRECORD
  5
C52
102
{ACAD_REACTORS
330
C54
102
}
330
C54
100
AcDbXrecord
280
     1
  1
AcDbDs::HandleAttributeSchema
  2
AcDbDs::HandleAttribute
280
     7
 91
        1
284
     1
  0
XRECORD
  5
C57
102
{ACAD_REACTORS
330
9BA
102
}
330
9BA
100
AcDbXrecord
280
     1
102
MATERIAL
148
0.0
149
0.0
149
0.0
 93
        0
 94
      127
282
     0
 72
     0
 77
     0
171
     0
175
     0
179
     0
273
     0
  0
XRECORD
  5
9BC
102
{ACAD_REACTORS
330
9BA
102
}
330
9BA
100
AcDbXrecord
280
     1
270
     1
271
     1
  0
XRECORD
  5
9BB
102
{ACAD_REACTORS
330
9BA
102
}
330
9BA
100
AcDbXrecord
280
     1
270
     1
271
     1
  0
XRECORD
  5
9BF
102
{ACAD_REACTORS
330
9BA
102
}
330
9BA
100
AcDbXrecord
280
     1
270
     1
271
     1
  0
XRECORD
  5
9BE
102
{ACAD_REACTORS
330
9BA
102
}
330
9BA
100
AcDbXrecord
280
     1
270
     1
271
     1
  0
XRECORD
  5
9C0
102
{ACAD_REACTORS
330
9BA
102
}
330
9BA
100
AcDbXrecord
280
     1
270
     1
271
     1
  0
XRECORD
  5
9BD
102
{ACAD_REACTORS
330
9BA
102
}
330
9BA
100
AcDbXrecord
280
     1
270
     1
271
     1
  0
XRECORD
  5
C56
102
{ACAD_REACTORS
330
9B2
102
}
330
9B2
100
AcDbXrecord
280
     1
102
MATERIAL
148
0.0
149
0.0
149
0.0
 93
        0
 94
      127
282
     0
 72
     0
 77
     0
171
     0
175
     0
179
     0
273
     0
  0
XRECORD
  5
9B4
102
{ACAD_REACTORS
330
9B2
102
}
330
9B2
100
AcDbXrecord
280
     1
270
     1
271
     1
  0
XRECORD
  5
9B3
102
{ACAD_REACTORS
330
9B2
102
}
330
9B2
100
AcDbXrecord
280
     1
270
     1
271
     1
  0
XRECORD
  5
9B7
102
{ACAD_REACTORS
330
9B2
102
}
330
9B2
100
AcDbXrecord
280
     1
270
     1
271
     1
  0
XRECORD
  5
9B6
102
{ACAD_REACTORS
330
9B2
102
}
330
9B2
100
AcDbXrecord
280
     1
270
     1
271
     1
  0
XRECORD
  5
9B8
102
{ACAD_REACTORS
330
9B2
102
}
330
9B2
100
AcDbXrecord
280
     1
270
     1
271
     1
  0
XRECORD
  5
9B5
102
{ACAD_REACTORS
330
9B2
102
}
330
9B2
100
AcDbXrecord
280
     1
270
     1
271
     1
  0
XRECORD
  5
C58
102
{ACAD_REACTORS
330
9C2
102
}
330
9C2
100
AcDbXrecord
280
     1
102
MATERIAL
148
0.0
149
0.0
149
0.0
 93
        0
 94
      127
282
     0
 72
     0
 77
     0
171
     0
175
     0
179
     0
273
     0
  0
XRECORD
  5
9C4
102
{ACAD_REACTORS
330
9C2
102
}
330
9C2
100
AcDbXrecord
280
     1
270
     1
271
     1
  0
XRECORD
  5
9C3
102
{ACAD_REACTORS
330
9C2
102
}
330
9C2
100
AcDbXrecord
280
     1
270
     1
271
     1
  0
XRECORD
  5
9C7
102
{ACAD_REACTORS
330
9C2
102
}
330
9C2
100
AcDbXrecord
280
     1
270
     1
271
     1
  0
XRECORD
  5
9C6
102
{ACAD_REACTORS
330
9C2
102
}
330
9C2
100
AcDbXrecord
280
     1
270
     1
271
     1
  0
XRECORD
  5
9C8
102
{ACAD_REACTORS
330
9C2
102
}
330
9C2
100
AcDbXrecord
280
     1
270
     1
271
     1
  0
XRECORD
  5
9C5
102
{ACAD_REACTORS
330
9C2
102
}
330
9C2
100
AcDbXrecord
280
     1
270
     1
271
     1
  0
XRECORD
  5
C8B
102
{ACAD_REACTORS
330
C8A
102
}
330
C8A
100
AcDbXrecord
280
     1
102
ACAD_ROUNDTRIP_2012_MLEADER_STYLE
298
     1
  0
CELLSTYLEMAP
  5
C4C
102
{ACAD_REACTORS
330
B6F
102
}
330
B6F
100
AcDbCellStyleMap
 90
        3
300
CELLSTYLE
  1
TABLEFORMAT_BEGIN
 90
        5
170
     1
 91
        0
 92
    32768
 62
   257
 93
        1
300
CONTENTFORMAT
  1
CONTENTFORMAT_BEGIN
 90
        0
 91
        0
 92
      512
 93
        0
300

 40
0.0
140
1.0
 94
        5
 62
     0
340
11
144
0.25
309
CONTENTFORMAT_END
171
     0
 94
        0
309
TABLEFORMAT_END
  1
CELLSTYLE_BEGIN
 90
        1
 91
        1
300
_TITLE
309
CELLSTYLE_END
300
CELLSTYLE
  1
TABLEFORMAT_BEGIN
 90
        5
170
     1
 91
        0
 92
        0
 62
   257
 93
        1
300
CONTENTFORMAT
  1
CONTENTFORMAT_BEGIN
 90
        0
 91
        0
 92
      512
 93
        0
300

 40
0.0
140
1.0
 94
        5
 62
     0
340
11
144
0.18
309
CONTENTFORMAT_END
171
     0
 94
        0
309
TABLEFORMAT_END
  1
CELLSTYLE_BEGIN
 90
        2
 91
        1
300
_HEADER
309
CELLSTYLE_END
300
CELLSTYLE
  1
TABLEFORMAT_BEGIN
 90
        5
170
     1
 91
        0
 92
        0
 62
   257
 93
        1
300
CONTENTFORMAT
  1
CONTENTFORMAT_BEGIN
 90
        0
 91
        0
 92
      512
 93
        0
300

 40
0.0
140
1.0
 94
        2
 62
     0
340
11
144
0.18
309
CONTENTFORMAT_END
171
     0
 94
        0
309
TABLEFORMAT_END
  1
CELLSTYLE_BEGIN
 90
        3
 91
        2
300
_DATA
309
CELLSTYLE_END
  0
XRECORD
  5
C89
102
{ACAD_REACTORS
330
B6F
102
}
330
B6F
100
AcDbXrecord
280
     1
102
ACAD_ROUNDTRIP_PRE2007_TABLESTYLE
 90
      512
 91
        0
  1

 92
      512
 93
        0
  2

 94
      512
 95
        0
  3

  0
XRECORD
  5
C64
102
{ACAD_REACTORS
330
C63
102
}
330
C63
100
AcDbXrecord
280
     1
102
RTVSPost2010Prop28
280
     1
102
RTVSPost2010PropOp28
 70
     1
102
RTVSPost2010Prop29
280
     1
102
RTVSPost2010PropOp29
 70
     1
102
RTVSPost2010Prop30
280
     0
102
RTVSPost2010PropOp30
 70
     1
102
RTVSPost2010Prop31
280
     0
102
RTVSPost2010PropOp31
 70
     1
102
RTVSPost2010Prop32
280
     0
102
RTVSPost2010PropOp32
 70
     1
102
RTVSPost2010Prop33
280
     0
102
RTVSPost2010PropOp33
 70
     1
102
RTVSPost2010Prop34
280
     0
102
RTVSPost2010PropOp34
 70
     1
102
RTVSPost2010Prop35
280
     0
102
RTVSPost2010PropOp35
 70
     1
102
RTVSPost2010Prop36
280
     0
102
RTVSPost2010PropOp36
 70
     1
102
RTVSPost2010Prop37
 90
       50
102
RTVSPost2010PropOp37
 70
     1
102
RTVSPost2010Prop38
140
0.0
102
RTVSPost2010PropOp38
 70
     1
102
RTVSPost2010Prop39
140
1.0
102
RTVSPost2010PropOp39
 70
     1
102
RTVSPost2010Prop40
 90
        0
102
RTVSPost2010PropOp40
 70
     1
102
RTVSPost2010Prop41ColorIndex
 90
       18
102
RTVSPost2010Prop41ColorRGB
 90
        0
102
RTVSPost2010PropOp41
 70
     1
102
RTVSPost2010Prop42
 90
       50
102
RTVSPost2010PropOp42
 70
     1
102
RTVSPost2010Prop43
 90
        3
102
RTVSPost2010PropOp43
 70
     1
102
RTVSPost2010Prop44ColorIndex
 90
        5
102
RTVSPost2010Prop44ColorRGB
 90
      255
102
RTVSPost2010PropOp44
 70
     1
102
RTVSPost2010Prop45
280
     0
102
RTVSPost2010PropOp45
 70
     1
102
RTVSPost2010Prop46
 90
       50
102
RTVSPost2010PropOp46
 70
     1
102
RTVSPost2010Prop47
 90
       50
102
RTVSPost2010PropOp47
 70
     1
102
RTVSPost2010Prop48
 90
       50
102
RTVSPost2010PropOp48
 70
     1
102
RTVSPost2010Prop49
280
     0
102
RTVSPost2010PropOp49
 70
     1
102
RTVSPost2010Prop50
 90
       50
102
RTVSPost2010PropOp50
 70
     1
102
RTVSPost2010Prop51ColorIndex
 90
      256
102
RTVSPost2010Prop51ColorRGB
 90
-16777216
102
RTVSPost2010PropOp51
 70
     0
102
RTVSPost2010Prop52
140
1.0
102
RTVSPost2010PropOp52
 70
     0
102
RTVSPost2010Prop53
 90
        2
102
RTVSPost2010PropOp53
 70
     1
102
RTVSPost2010Prop54
  1
strokes_ogs.tif
102
RTVSPost2010PropOp54
 70
     1
102
RTVSPost2010Prop55
280
     0
102
RTVSPost2010PropOp55
 70
     1
102
RTVSPost2010Prop56
140
1.0
102
RTVSPost2010PropOp56
 70
     1
102
RTVSPost2010Prop57
140
1.0
102
RTVSPost2010PropOp57
 70
     1
102
RTVSPropertyOp0
 70
     1
102
RTVSPropertyOp1
 70
     1
102
RTVSPropertyOp2
 70
     1
102
RTVSPropertyOp3
 70
     1
102
RTVSPropertyOp4
 70
     1
102
RTVSPropertyOp5
 70
     1
102
RTVSPropertyOp6
 70
     1
102
RTVSPropertyOp7
 70
     1
102
RTVSPropertyOp8
 70
     1
102
RTVSPropertyOp9
 70
     1
102
RTVSPropertyOp10
 70
     1
102
RTVSPropertyOp11
 70
     1
102
RTVSPropertyOp12
 70
     1
102
RTVSPropertyOp13
 70
     1
102
RTVSPropertyOp14
 70
     1
102
RTVSPropertyOp15
 70
     1
102
RTVSPropertyOp16
 70
     1
102
RTVSPropertyOp17
 70
     1
102
RTVSPropertyOp18
 70
     1
102
RTVSPropertyOp19
 70
     1
102
RTVSPropertyOp20
 70
     1
102
RTVSPropertyOp21
 70
     1
102
RTVSPropertyOp22
 70
     1
102
RTVSPropertyOp23
 70
     1
102
RTVSPropertyOp24
 70
     1
102
RTVSPropertyOp25
 70
     1
102
RTVSPropertyOp26
 70
     1
102
RTVSPropertyOp27
 70
     1
102
RTVSPropertyOp28
 70
     1
102
RTVSPropertyOp29
 70
     1
102
RTVSPropertyOp30
 70
     1
102
RTVSPropertyOp31
 70
     1
102
RTVSPropertyOp32
 70
     1
102
RTVSPropertyOp33
 70
     1
102
RTVSPropertyOp34
 70
     1
102
RTVSPropertyOp35
 70
     1
102
RTVSPropertyOp36
 70
     1
102
RTVSPropertyOp37
 70
     1
102
RTVSPropertyOp38
 70
     1
102
RTVSPropertyOp39
 70
     1
102
RTVSPropertyOp40
 70
     1
102
RTVSPropertyOp41
 70
     1
102
RTVSPropertyOp42
 70
     1
102
RTVSPropertyOp43
 70
     1
102
RTVSPropertyOp44
 70
     1
102
RTVSPropertyOp45
 70
     1
102
RTVSPropertyOp46
 70
     1
102
RTVSPropertyOp47
 70
     1
102
RTVSPropertyOp48
 70
     1
102
RTVSPropertyOp49
 70
     1
102
RTVSPropertyOp50
 70
     1
102
RTVSPropertyOp51
 70
     0
102
RTVSPropertyOp52
 70
     0
102
RTVSPropertyOp53
 70
     1
102
RTVSPropertyOp54
 70
     1
102
RTVSPropertyOp55
 70
     1
102
RTVSPropertyOp56
 70
     1
102
RTVSPropertyOp57
 70
     1
102
RTVSPropertyOp58
 70
     1
102
RTVSPropertyOp59
 70
     1
102
RTVSPropertyOp60
 70
     1
102
RTVSPropertyOp61
 70
     1
102
RTVSPropertyOp62
 70
     1
  0
XRECORD
  5
C62
102
{ACAD_REACTORS
330
C61
102
}
330
C61
100
AcDbXrecord
280
     1
102
RTVSPost2010Prop28
280
     0
102
RTVSPost2010PropOp28
 70
     1
102
RTVSPost2010Prop29
280
     1
102
RTVSPost2010PropOp29
 70
     1
102
RTVSPost2010Prop30
280
     1
102
RTVSPost2010PropOp30
 70
     1
102
RTVSPost2010Prop31
280
     0
102
RTVSPost2010PropOp31
 70
     1
102
RTVSPost2010Prop32
280
     0
102
RTVSPost2010PropOp32
 70
     1
102
RTVSPost2010Prop33
280
     0
102
RTVSPost2010PropOp33
 70
     1
102
RTVSPost2010Prop34
280
     0
102
RTVSPost2010PropOp34
 70
     1
102
RTVSPost2010Prop35
280
     0
102
RTVSPost2010PropOp35
 70
     1
102
RTVSPost2010Prop36
280
     0
102
RTVSPost2010PropOp36
 70
     1
102
RTVSPost2010Prop37
 90
       50
102
RTVSPost2010PropOp37
 70
     1
102
RTVSPost2010Prop38
140
0.0
102
RTVSPost2010PropOp38
 70
     1
102
RTVSPost2010Prop39
140
1.0
102
RTVSPost2010PropOp39
 70
     1
102
RTVSPost2010Prop40
 90
        0
102
RTVSPost2010PropOp40
 70
     1
102
RTVSPost2010Prop41ColorIndex
 90
       18
102
RTVSPost2010Prop41ColorRGB
 90
        0
102
RTVSPost2010PropOp41
 70
     1
102
RTVSPost2010Prop42
 90
       50
102
RTVSPost2010PropOp42
 70
     1
102
RTVSPost2010Prop43
 90
        3
102
RTVSPost2010PropOp43
 70
     1
102
RTVSPost2010Prop44ColorIndex
 90
        5
102
RTVSPost2010Prop44ColorRGB
 90
      255
102
RTVSPost2010PropOp44
 70
     1
102
RTVSPost2010Prop45
280
     0
102
RTVSPost2010PropOp45
 70
     1
102
RTVSPost2010Prop46
 90
       50
102
RTVSPost2010PropOp46
 70
     1
102
RTVSPost2010Prop47
 90
       50
102
RTVSPost2010PropOp47
 70
     1
102
RTVSPost2010Prop48
 90
       50
102
RTVSPost2010PropOp48
 70
     1
102
RTVSPost2010Prop49
280
     0
102
RTVSPost2010PropOp49
 70
     1
102
RTVSPost2010Prop50
 90
       50
102
RTVSPost2010PropOp50
 70
     1
102
RTVSPost2010Prop51ColorIndex
 90
      256
102
RTVSPost2010Prop51ColorRGB
 90
-16777216
102
RTVSPost2010PropOp51
 70
     0
102
RTVSPost2010Prop52
140
1.0
102
RTVSPost2010PropOp52
 70
     0
102
RTVSPost2010Prop53
 90
        2
102
RTVSPost2010PropOp53
 70
     1
102
RTVSPost2010Prop54
  1
strokes_ogs.tif
102
RTVSPost2010PropOp54
 70
     1
102
RTVSPost2010Prop55
280
     0
102
RTVSPost2010PropOp55
 70
     1
102
RTVSPost2010Prop56
140
1.0
102
RTVSPost2010PropOp56
 70
     1
102
RTVSPost2010Prop57
140
1.0
102
RTVSPost2010PropOp57
 70
     1
102
RTVSPropertyOp0
 70
     1
102
RTVSPropertyOp1
 70
     1
102
RTVSPropertyOp2
 70
     1
102
RTVSPropertyOp3
 70
     1
102
RTVSPropertyOp4
 70
     1
102
RTVSPropertyOp5
 70
     1
102
RTVSPropertyOp6
 70
     1
102
RTVSPropertyOp7
 70
     1
102
RTVSPropertyOp8
 70
     1
102
RTVSPropertyOp9
 70
     1
102
RTVSPropertyOp10
 70
     1
102
RTVSPropertyOp11
 70
     1
102
RTVSPropertyOp12
 70
     1
102
RTVSPropertyOp13
 70
     1
102
RTVSPropertyOp14
 70
     1
102
RTVSPropertyOp15
 70
     1
102
RTVSPropertyOp16
 70
     1
102
RTVSPropertyOp17
 70
     1
102
RTVSPropertyOp18
 70
     1
102
RTVSPropertyOp19
 70
     1
102
RTVSPropertyOp20
 70
     1
102
RTVSPropertyOp21
 70
     1
102
RTVSPropertyOp22
 70
     1
102
RTVSPropertyOp23
 70
     1
102
RTVSPropertyOp24
 70
     1
102
RTVSPropertyOp25
 70
     1
102
RTVSPropertyOp26
 70
     1
102
RTVSPropertyOp27
 70
     1
102
RTVSPropertyOp28
 70
     1
102
RTVSPropertyOp29
 70
     1
102
RTVSPropertyOp30
 70
     1
102
RTVSPropertyOp31
 70
     1
102
RTVSPropertyOp32
 70
     1
102
RTVSPropertyOp33
 70
     1
102
RTVSPropertyOp34
 70
     1
102
RTVSPropertyOp35
 70
     1
102
RTVSPropertyOp36
 70
     1
102
RTVSPropertyOp37
 70
     1
102
RTVSPropertyOp38
 70
     1
102
RTVSPropertyOp39
 70
     1
102
RTVSPropertyOp40
 70
     1
102
RTVSPropertyOp41
 70
     1
102
RTVSPropertyOp42
 70
     1
102
RTVSPropertyOp43
 70
     1
102
RTVSPropertyOp44
 70
     1
102
RTVSPropertyOp45
 70
     1
102
RTVSPropertyOp46
 70
     1
102
RTVSPropertyOp47
 70
     1
102
RTVSPropertyOp48
 70
     1
102
RTVSPropertyOp49
 70
     1
102
RTVSPropertyOp50
 70
     1
102
RTVSPropertyOp51
 70
     0
102
RTVSPropertyOp52
 70
     0
102
RTVSPropertyOp53
 70
     1
102
RTVSPropertyOp54
 70
     1
102
RTVSPropertyOp55
 70
     1
102
RTVSPropertyOp56
 70
     1
102
RTVSPropertyOp57
 70
     1
102
RTVSPropertyOp58
 70
     1
102
RTVSPropertyOp59
 70
     1
102
RTVSPropertyOp60
 70
     1
102
RTVSPropertyOp61
 70
     1
102
RTVSPropertyOp62
 70
     1
  0
XRECORD
  5
C70
102
{ACAD_REACTORS
330
C6F
102
}
330
C6F
100
AcDbXrecord
280
     1
102
RTVSPost2010Prop28
280
     0
102
RTVSPost2010PropOp28
 70
     1
102
RTVSPost2010Prop29
280
     1
102
RTVSPost2010PropOp29
 70
     1
102
RTVSPost2010Prop30
280
     1
102
RTVSPost2010PropOp30
 70
     1
102
RTVSPost2010Prop31
280
     0
102
RTVSPost2010PropOp31
 70
     1
102
RTVSPost2010Prop32
280
     0
102
RTVSPost2010PropOp32
 70
     1
102
RTVSPost2010Prop33
280
     0
102
RTVSPost2010PropOp33
 70
     1
102
RTVSPost2010Prop34
280
     0
102
RTVSPost2010PropOp34
 70
     1
102
RTVSPost2010Prop35
280
     0
102
RTVSPost2010PropOp35
 70
     1
102
RTVSPost2010Prop36
280
     0
102
RTVSPost2010PropOp36
 70
     1
102
RTVSPost2010Prop37
 90
       50
102
RTVSPost2010PropOp37
 70
     1
102
RTVSPost2010Prop38
140
0.0
102
RTVSPost2010PropOp38
 70
     1
102
RTVSPost2010Prop39
140
1.0
102
RTVSPost2010PropOp39
 70
     1
102
RTVSPost2010Prop40
 90
        0
102
RTVSPost2010PropOp40
 70
     1
102
RTVSPost2010Prop41ColorIndex
 90
       18
102
RTVSPost2010Prop41ColorRGB
 90
        0
102
RTVSPost2010PropOp41
 70
     1
102
RTVSPost2010Prop42
 90
       50
102
RTVSPost2010PropOp42
 70
     1
102
RTVSPost2010Prop43
 90
        3
102
RTVSPost2010PropOp43
 70
     1
102
RTVSPost2010Prop44ColorIndex
 90
        5
102
RTVSPost2010Prop44ColorRGB
 90
      255
102
RTVSPost2010PropOp44
 70
     1
102
RTVSPost2010Prop45
280
     0
102
RTVSPost2010PropOp45
 70
     1
102
RTVSPost2010Prop46
 90
       50
102
RTVSPost2010PropOp46
 70
     1
102
RTVSPost2010Prop47
 90
       50
102
RTVSPost2010PropOp47
 70
     1
102
RTVSPost2010Prop48
 90
       50
102
RTVSPost2010PropOp48
 70
     1
102
RTVSPost2010Prop49
280
     0
102
RTVSPost2010PropOp49
 70
     1
102
RTVSPost2010Prop50
 90
       50
102
RTVSPost2010PropOp50
 70
     1
102
RTVSPost2010Prop51ColorIndex
 90
      256
102
RTVSPost2010Prop51ColorRGB
 90
-16777216
102
RTVSPost2010PropOp51
 70
     0
102
RTVSPost2010Prop52
140
1.0
102
RTVSPost2010PropOp52
 70
     0
102
RTVSPost2010Prop53
 90
        2
102
RTVSPost2010PropOp53
 70
     1
102
RTVSPost2010Prop54
  1
strokes_ogs.tif
102
RTVSPost2010PropOp54
 70
     1
102
RTVSPost2010Prop55
280
     0
102
RTVSPost2010PropOp55
 70
     1
102
RTVSPost2010Prop56
140
1.0
102
RTVSPost2010PropOp56
 70
     1
102
RTVSPost2010Prop57
140
1.0
102
RTVSPost2010PropOp57
 70
     1
102
RTVSPropertyOp0
 70
     1
102
RTVSPropertyOp1
 70
     1
102
RTVSPropertyOp2
 70
     1
102
RTVSPropertyOp3
 70
     1
102
RTVSPropertyOp4
 70
     1
102
RTVSPropertyOp5
 70
     1
102
RTVSPropertyOp6
 70
     1
102
RTVSPropertyOp7
 70
     1
102
RTVSPropertyOp8
 70
     1
102
RTVSPropertyOp9
 70
     1
102
RTVSPropertyOp10
 70
     1
102
RTVSPropertyOp11
 70
     1
102
RTVSPropertyOp12
 70
     1
102
RTVSPropertyOp13
 70
     1
102
RTVSPropertyOp14
 70
     1
102
RTVSPropertyOp15
 70
     1
102
RTVSPropertyOp16
 70
     1
102
RTVSPropertyOp17
 70
     1
102
RTVSPropertyOp18
 70
     1
102
RTVSPropertyOp19
 70
     1
102
RTVSPropertyOp20
 70
     1
102
RTVSPropertyOp21
 70
     1
102
RTVSPropertyOp22
 70
     1
102
RTVSPropertyOp23
 70
     1
102
RTVSPropertyOp24
 70
     1
102
RTVSPropertyOp25
 70
     1
102
RTVSPropertyOp26
 70
     1
102
RTVSPropertyOp27
 70
     1
102
RTVSPropertyOp28
 70
     1
102
RTVSPropertyOp29
 70
     1
102
RTVSPropertyOp30
 70
     1
102
RTVSPropertyOp31
 70
     1
102
RTVSPropertyOp32
 70
     1
102
RTVSPropertyOp33
 70
     1
102
RTVSPropertyOp34
 70
     1
102
RTVSPropertyOp35
 70
     1
102
RTVSPropertyOp36
 70
     1
102
RTVSPropertyOp37
 70
     1
102
RTVSPropertyOp38
 70
     1
102
RTVSPropertyOp39
 70
     1
102
RTVSPropertyOp40
 70
     1
102
RTVSPropertyOp41
 70
     1
102
RTVSPropertyOp42
 70
     1
102
RTVSPropertyOp43
 70
     1
102
RTVSPropertyOp44
 70
     1
102
RTVSPropertyOp45
 70
     1
102
RTVSPropertyOp46
 70
     1
102
RTVSPropertyOp47
 70
     1
102
RTVSPropertyOp48
 70
     1
102
RTVSPropertyOp49
 70
     1
102
RTVSPropertyOp50
 70
     1
102
RTVSPropertyOp51
 70
     0
102
RTVSPropertyOp52
 70
     0
102
RTVSPropertyOp53
 70
     1
102
RTVSPropertyOp54
 70
     1
102
RTVSPropertyOp55
 70
     1
102
RTVSPropertyOp56
 70
     1
102
RTVSPropertyOp57
 70
     1
102
RTVSPropertyOp58
 70
     1
102
RTVSPropertyOp59
 70
     1
102
RTVSPropertyOp60
 70
     1
102
RTVSPropertyOp61
 70
     1
102
RTVSPropertyOp62
 70
     1
  0
XRECORD
  5
C78
102
{ACAD_REACTORS
330
C77
102
}
330
C77
100
AcDbXrecord
280
     1
102
RTVSPost2010Prop28
280
     0
102
RTVSPost2010PropOp28
 70
     1
102
RTVSPost2010Prop29
280
     1
102
RTVSPost2010PropOp29
 70
     1
102
RTVSPost2010Prop30
280
     1
102
RTVSPost2010PropOp30
 70
     1
102
RTVSPost2010Prop31
280
     0
102
RTVSPost2010PropOp31
 70
     1
102
RTVSPost2010Prop32
280
     0
102
RTVSPost2010PropOp32
 70
     1
102
RTVSPost2010Prop33
280
     0
102
RTVSPost2010PropOp33
 70
     1
102
RTVSPost2010Prop34
280
     0
102
RTVSPost2010PropOp34
 70
     1
102
RTVSPost2010Prop35
280
     0
102
RTVSPost2010PropOp35
 70
     1
102
RTVSPost2010Prop36
280
     0
102
RTVSPost2010PropOp36
 70
     1
102
RTVSPost2010Prop37
 90
       50
102
RTVSPost2010PropOp37
 70
     1
102
RTVSPost2010Prop38
140
0.0
102
RTVSPost2010PropOp38
 70
     1
102
RTVSPost2010Prop39
140
1.0
102
RTVSPost2010PropOp39
 70
     1
102
RTVSPost2010Prop40
 90
        0
102
RTVSPost2010PropOp40
 70
     1
102
RTVSPost2010Prop41ColorIndex
 90
       18
102
RTVSPost2010Prop41ColorRGB
 90
        0
102
RTVSPost2010PropOp41
 70
     1
102
RTVSPost2010Prop42
 90
       50
102
RTVSPost2010PropOp42
 70
     1
102
RTVSPost2010Prop43
 90
        3
102
RTVSPost2010PropOp43
 70
     1
102
RTVSPost2010Prop44ColorIndex
 90
        5
102
RTVSPost2010Prop44ColorRGB
 90
      255
102
RTVSPost2010PropOp44
 70
     1
102
RTVSPost2010Prop45
280
     0
102
RTVSPost2010PropOp45
 70
     1
102
RTVSPost2010Prop46
 90
       50
102
RTVSPost2010PropOp46
 70
     1
102
RTVSPost2010Prop47
 90
       50
102
RTVSPost2010PropOp47
 70
     1
102
RTVSPost2010Prop48
 90
       50
102
RTVSPost2010PropOp48
 70
     1
102
RTVSPost2010Prop49
280
     0
102
RTVSPost2010PropOp49
 70
     1
102
RTVSPost2010Prop50
 90
       50
102
RTVSPost2010PropOp50
 70
     1
102
RTVSPost2010Prop51ColorIndex
 90
      256
102
RTVSPost2010Prop51ColorRGB
 90
-16777216
102
RTVSPost2010PropOp51
 70
     0
102
RTVSPost2010Prop52
140
1.0
102
RTVSPost2010PropOp52
 70
     0
102
RTVSPost2010Prop53
 90
        2
102
RTVSPost2010PropOp53
 70
     1
102
RTVSPost2010Prop54
  1
strokes_ogs.tif
102
RTVSPost2010PropOp54
 70
     1
102
RTVSPost2010Prop55
280
     0
102
RTVSPost2010PropOp55
 70
     1
102
RTVSPost2010Prop56
140
1.0
102
RTVSPost2010PropOp56
 70
     1
102
RTVSPost2010Prop57
140
1.0
102
RTVSPost2010PropOp57
 70
     1
102
RTVSPropertyOp0
 70
     1
102
RTVSPropertyOp1
 70
     1
102
RTVSPropertyOp2
 70
     1
102
RTVSPropertyOp3
 70
     1
102
RTVSPropertyOp4
 70
     1
102
RTVSPropertyOp5
 70
     1
102
RTVSPropertyOp6
 70
     1
102
RTVSPropertyOp7
 70
     1
102
RTVSPropertyOp8
 70
     1
102
RTVSPropertyOp9
 70
     1
102
RTVSPropertyOp10
 70
     1
102
RTVSPropertyOp11
 70
     1
102
RTVSPropertyOp12
 70
     1
102
RTVSPropertyOp13
 70
     1
102
RTVSPropertyOp14
 70
     1
102
RTVSPropertyOp15
 70
     1
102
RTVSPropertyOp16
 70
     1
102
RTVSPropertyOp17
 70
     1
102
RTVSPropertyOp18
 70
     1
102
RTVSPropertyOp19
 70
     1
102
RTVSPropertyOp20
 70
     1
102
RTVSPropertyOp21
 70
     1
102
RTVSPropertyOp22
 70
     1
102
RTVSPropertyOp23
 70
     1
102
RTVSPropertyOp24
 70
     1
102
RTVSPropertyOp25
 70
     1
102
RTVSPropertyOp26
 70
     1
102
RTVSPropertyOp27
 70
     1
102
RTVSPropertyOp28
 70
     1
102
RTVSPropertyOp29
 70
     1
102
RTVSPropertyOp30
 70
     1
102
RTVSPropertyOp31
 70
     1
102
RTVSPropertyOp32
 70
     1
102
RTVSPropertyOp33
 70
     1
102
RTVSPropertyOp34
 70
     1
102
RTVSPropertyOp35
 70
     1
102
RTVSPropertyOp36
 70
     1
102
RTVSPropertyOp37
 70
     1
102
RTVSPropertyOp38
 70
     1
102
RTVSPropertyOp39
 70
     1
102
RTVSPropertyOp40
 70
     1
102
RTVSPropertyOp41
 70
     1
102
RTVSPropertyOp42
 70
     1
102
RTVSPropertyOp43
 70
     1
102
RTVSPropertyOp44
 70
     1
102
RTVSPropertyOp45
 70
     1
102
RTVSPropertyOp46
 70
     1
102
RTVSPropertyOp47
 70
     1
102
RTVSPropertyOp48
 70
     1
102
RTVSPropertyOp49
 70
     1
102
RTVSPropertyOp50
 70
     1
102
RTVSPropertyOp51
 70
     0
102
RTVSPropertyOp52
 70
     0
102
RTVSPropertyOp53
 70
     1
102
RTVSPropertyOp54
 70
     1
102
RTVSPropertyOp55
 70
     1
102
RTVSPropertyOp56
 70
     1
102
RTVSPropertyOp57
 70
     1
102
RTVSPropertyOp58
 70
     1
102
RTVSPropertyOp59
 70
     1
102
RTVSPropertyOp60
 70
     1
102
RTVSPropertyOp61
 70
     1
102
RTVSPropertyOp62
 70
     1
  0
XRECORD
  5
C6A
102
{ACAD_REACTORS
330
C69
102
}
330
C69
100
AcDbXrecord
280
     1
102
RTVSPost2010Prop28
280
     0
102
RTVSPost2010PropOp28
 70
     1
102
RTVSPost2010Prop29
280
     1
102
RTVSPost2010PropOp29
 70
     1
102
RTVSPost2010Prop30
280
     1
102
RTVSPost2010PropOp30
 70
     1
102
RTVSPost2010Prop31
280
     0
102
RTVSPost2010PropOp31
 70
     1
102
RTVSPost2010Prop32
280
     0
102
RTVSPost2010PropOp32
 70
     1
102
RTVSPost2010Prop33
280
     0
102
RTVSPost2010PropOp33
 70
     1
102
RTVSPost2010Prop34
280
     0
102
RTVSPost2010PropOp34
 70
     1
102
RTVSPost2010Prop35
280
     0
102
RTVSPost2010PropOp35
 70
     1
102
RTVSPost2010Prop36
280
     0
102
RTVSPost2010PropOp36
 70
     1
102
RTVSPost2010Prop37
 90
       50
102
RTVSPost2010PropOp37
 70
     1
102
RTVSPost2010Prop38
140
0.0
102
RTVSPost2010PropOp38
 70
     1
102
RTVSPost2010Prop39
140
1.0
102
RTVSPost2010PropOp39
 70
     1
102
RTVSPost2010Prop40
 90
        0
102
RTVSPost2010PropOp40
 70
     1
102
RTVSPost2010Prop41ColorIndex
 90
       18
102
RTVSPost2010Prop41ColorRGB
 90
        0
102
RTVSPost2010PropOp41
 70
     1
102
RTVSPost2010Prop42
 90
       50
102
RTVSPost2010PropOp42
 70
     1
102
RTVSPost2010Prop43
 90
        3
102
RTVSPost2010PropOp43
 70
     1
102
RTVSPost2010Prop44ColorIndex
 90
        5
102
RTVSPost2010Prop44ColorRGB
 90
      255
102
RTVSPost2010PropOp44
 70
     1
102
RTVSPost2010Prop45
280
     0
102
RTVSPost2010PropOp45
 70
     1
102
RTVSPost2010Prop46
 90
       50
102
RTVSPost2010PropOp46
 70
     1
102
RTVSPost2010Prop47
 90
       50
102
RTVSPost2010PropOp47
 70
     1
102
RTVSPost2010Prop48
 90
       50
102
RTVSPost2010PropOp48
 70
     1
102
RTVSPost2010Prop49
280
     0
102
RTVSPost2010PropOp49
 70
     1
102
RTVSPost2010Prop50
 90
       50
102
RTVSPost2010PropOp50
 70
     1
102
RTVSPost2010Prop51ColorIndex
 90
      256
102
RTVSPost2010Prop51ColorRGB
 90
-16777216
102
RTVSPost2010PropOp51
 70
     0
102
RTVSPost2010Prop52
140
1.0
102
RTVSPost2010PropOp52
 70
     0
102
RTVSPost2010Prop53
 90
        2
102
RTVSPost2010PropOp53
 70
     1
102
RTVSPost2010Prop54
  1
strokes_ogs.tif
102
RTVSPost2010PropOp54
 70
     1
102
RTVSPost2010Prop55
280
     0
102
RTVSPost2010PropOp55
 70
     1
102
RTVSPost2010Prop56
140
1.0
102
RTVSPost2010PropOp56
 70
     1
102
RTVSPost2010Prop57
140
1.0
102
RTVSPost2010PropOp57
 70
     1
102
RTVSPropertyOp0
 70
     1
102
RTVSPropertyOp1
 70
     1
102
RTVSPropertyOp2
 70
     1
102
RTVSPropertyOp3
 70
     1
102
RTVSPropertyOp4
 70
     1
102
RTVSPropertyOp5
 70
     1
102
RTVSPropertyOp6
 70
     1
102
RTVSPropertyOp7
 70
     1
102
RTVSPropertyOp8
 70
     1
102
RTVSPropertyOp9
 70
     1
102
RTVSPropertyOp10
 70
     1
102
RTVSPropertyOp11
 70
     1
102
RTVSPropertyOp12
 70
     1
102
RTVSPropertyOp13
 70
     1
102
RTVSPropertyOp14
 70
     1
102
RTVSPropertyOp15
 70
     1
102
RTVSPropertyOp16
 70
     1
102
RTVSPropertyOp17
 70
     1
102
RTVSPropertyOp18
 70
     1
102
RTVSPropertyOp19
 70
     1
102
RTVSPropertyOp20
 70
     1
102
RTVSPropertyOp21
 70
     1
102
RTVSPropertyOp22
 70
     1
102
RTVSPropertyOp23
 70
     1
102
RTVSPropertyOp24
 70
     1
102
RTVSPropertyOp25
 70
     1
102
RTVSPropertyOp26
 70
     1
102
RTVSPropertyOp27
 70
     1
102
RTVSPropertyOp28
 70
     1
102
RTVSPropertyOp29
 70
     1
102
RTVSPropertyOp30
 70
     1
102
RTVSPropertyOp31
 70
     1
102
RTVSPropertyOp32
 70
     1
102
RTVSPropertyOp33
 70
     1
102
RTVSPropertyOp34
 70
     1
102
RTVSPropertyOp35
 70
     1
102
RTVSPropertyOp36
 70
     1
102
RTVSPropertyOp37
 70
     1
102
RTVSPropertyOp38
 70
     1
102
RTVSPropertyOp39
 70
     1
102
RTVSPropertyOp40
 70
     1
102
RTVSPropertyOp41
 70
     1
102
RTVSPropertyOp42
 70
     1
102
RTVSPropertyOp43
 70
     1
102
RTVSPropertyOp44
 70
     1
102
RTVSPropertyOp45
 70
     1
102
RTVSPropertyOp46
 70
     1
102
RTVSPropertyOp47
 70
     1
102
RTVSPropertyOp48
 70
     1
102
RTVSPropertyOp49
 70
     1
102
RTVSPropertyOp50
 70
     1
102
RTVSPropertyOp51
 70
     0
102
RTVSPropertyOp52
 70
     0
102
RTVSPropertyOp53
 70
     1
102
RTVSPropertyOp54
 70
     1
102
RTVSPropertyOp55
 70
     1
102
RTVSPropertyOp56
 70
     1
102
RTVSPropertyOp57
 70
     1
102
RTVSPropertyOp58
 70
     1
102
RTVSPropertyOp59
 70
     1
102
RTVSPropertyOp60
 70
     1
102
RTVSPropertyOp61
 70
     1
102
RTVSPropertyOp62
 70
     1
  0
XRECORD
  5
C6E
102
{ACAD_REACTORS
330
C6D
102
}
330
C6D
100
AcDbXrecord
280
     1
102
RTVSPost2010Prop28
280
     0
102
RTVSPost2010PropOp28
 70
     1
102
RTVSPost2010Prop29
280
     1
102
RTVSPost2010PropOp29
 70
     1
102
RTVSPost2010Prop30
280
     1
102
RTVSPost2010PropOp30
 70
     1
102
RTVSPost2010Prop31
280
     0
102
RTVSPost2010PropOp31
 70
     1
102
RTVSPost2010Prop32
280
     0
102
RTVSPost2010PropOp32
 70
     1
102
RTVSPost2010Prop33
280
     0
102
RTVSPost2010PropOp33
 70
     1
102
RTVSPost2010Prop34
280
     0
102
RTVSPost2010PropOp34
 70
     1
102
RTVSPost2010Prop35
280
     0
102
RTVSPost2010PropOp35
 70
     1
102
RTVSPost2010Prop36
280
     0
102
RTVSPost2010PropOp36
 70
     1
102
RTVSPost2010Prop37
 90
       50
102
RTVSPost2010PropOp37
 70
     1
102
RTVSPost2010Prop38
140
0.0
102
RTVSPost2010PropOp38
 70
     1
102
RTVSPost2010Prop39
140
1.0
102
RTVSPost2010PropOp39
 70
     1
102
RTVSPost2010Prop40
 90
        0
102
RTVSPost2010PropOp40
 70
     1
102
RTVSPost2010Prop41ColorIndex
 90
       18
102
RTVSPost2010Prop41ColorRGB
 90
        0
102
RTVSPost2010PropOp41
 70
     1
102
RTVSPost2010Prop42
 90
       50
102
RTVSPost2010PropOp42
 70
     1
102
RTVSPost2010Prop43
 90
        3
102
RTVSPost2010PropOp43
 70
     1
102
RTVSPost2010Prop44ColorIndex
 90
        5
102
RTVSPost2010Prop44ColorRGB
 90
      255
102
RTVSPost2010PropOp44
 70
     1
102
RTVSPost2010Prop45
280
     0
102
RTVSPost2010PropOp45
 70
     1
102
RTVSPost2010Prop46
 90
       50
102
RTVSPost2010PropOp46
 70
     1
102
RTVSPost2010Prop47
 90
       50
102
RTVSPost2010PropOp47
 70
     1
102
RTVSPost2010Prop48
 90
       50
102
RTVSPost2010PropOp48
 70
     1
102
RTVSPost2010Prop49
280
     0
102
RTVSPost2010PropOp49
 70
     1
102
RTVSPost2010Prop50
 90
       50
102
RTVSPost2010PropOp50
 70
     1
102
RTVSPost2010Prop51ColorIndex
 90
      256
102
RTVSPost2010Prop51ColorRGB
 90
-16777216
102
RTVSPost2010PropOp51
 70
     0
102
RTVSPost2010Prop52
140
1.0
102
RTVSPost2010PropOp52
 70
     0
102
RTVSPost2010Prop53
 90
        2
102
RTVSPost2010PropOp53
 70
     1
102
RTVSPost2010Prop54
  1
strokes_ogs.tif
102
RTVSPost2010PropOp54
 70
     1
102
RTVSPost2010Prop55
280
     0
102
RTVSPost2010PropOp55
 70
     1
102
RTVSPost2010Prop56
140
1.0
102
RTVSPost2010PropOp56
 70
     1
102
RTVSPost2010Prop57
140
1.0
102
RTVSPost2010PropOp57
 70
     1
102
RTVSPropertyOp0
 70
     1
102
RTVSPropertyOp1
 70
     1
102
RTVSPropertyOp2
 70
     1
102
RTVSPropertyOp3
 70
     1
102
RTVSPropertyOp4
 70
     1
102
RTVSPropertyOp5
 70
     1
102
RTVSPropertyOp6
 70
     1
102
RTVSPropertyOp7
 70
     1
102
RTVSPropertyOp8
 70
     1
102
RTVSPropertyOp9
 70
     1
102
RTVSPropertyOp10
 70
     1
102
RTVSPropertyOp11
 70
     1
102
RTVSPropertyOp12
 70
     1
102
RTVSPropertyOp13
 70
     1
102
RTVSPropertyOp14
 70
     1
102
RTVSPropertyOp15
 70
     1
102
RTVSPropertyOp16
 70
     1
102
RTVSPropertyOp17
 70
     1
102
RTVSPropertyOp18
 70
     1
102
RTVSPropertyOp19
 70
     1
102
RTVSPropertyOp20
 70
     1
102
RTVSPropertyOp21
 70
     1
102
RTVSPropertyOp22
 70
     1
102
RTVSPropertyOp23
 70
     1
102
RTVSPropertyOp24
 70
     1
102
RTVSPropertyOp25
 70
     1
102
RTVSPropertyOp26
 70
     1
102
RTVSPropertyOp27
 70
     1
102
RTVSPropertyOp28
 70
     1
102
RTVSPropertyOp29
 70
     1
102
RTVSPropertyOp30
 70
     1
102
RTVSPropertyOp31
 70
     1
102
RTVSPropertyOp32
 70
     1
102
RTVSPropertyOp33
 70
     1
102
RTVSPropertyOp34
 70
     1
102
RTVSPropertyOp35
 70
     1
102
RTVSPropertyOp36
 70
     1
102
RTVSPropertyOp37
 70
     1
102
RTVSPropertyOp38
 70
     1
102
RTVSPropertyOp39
 70
     1
102
RTVSPropertyOp40
 70
     1
102
RTVSPropertyOp41
 70
     1
102
RTVSPropertyOp42
 70
     1
102
RTVSPropertyOp43
 70
     1
102
RTVSPropertyOp44
 70
     1
102
RTVSPropertyOp45
 70
     1
102
RTVSPropertyOp46
 70
     1
102
RTVSPropertyOp47
 70
     1
102
RTVSPropertyOp48
 70
     1
102
RTVSPropertyOp49
 70
     1
102
RTVSPropertyOp50
 70
     1
102
RTVSPropertyOp51
 70
     0
102
RTVSPropertyOp52
 70
     0
102
RTVSPropertyOp53
 70
     1
102
RTVSPropertyOp54
 70
     1
102
RTVSPropertyOp55
 70
     1
102
RTVSPropertyOp56
 70
     1
102
RTVSPropertyOp57
 70
     1
102
RTVSPropertyOp58
 70
     1
102
RTVSPropertyOp59
 70
     1
102
RTVSPropertyOp60
 70
     1
102
RTVSPropertyOp61
 70
     1
102
RTVSPropertyOp62
 70
     1
  0
XRECORD
  5
C88
102
{ACAD_REACTORS
330
C87
102
}
330
C87
100
AcDbXrecord
280
     1
102
RTVSPost2010Prop28
280
     0
102
RTVSPost2010PropOp28
 70
     0
102
RTVSPost2010Prop29
280
     1
102
RTVSPost2010PropOp29
 70
     0
102
RTVSPost2010Prop30
280
     1
102
RTVSPost2010PropOp30
 70
     0
102
RTVSPost2010Prop31
280
     0
102
RTVSPost2010PropOp31
 70
     0
102
RTVSPost2010Prop32
280
     0
102
RTVSPost2010PropOp32
 70
     0
102
RTVSPost2010Prop33
280
     0
102
RTVSPost2010PropOp33
 70
     0
102
RTVSPost2010Prop34
280
     0
102
RTVSPost2010PropOp34
 70
     0
102
RTVSPost2010Prop35
280
     0
102
RTVSPost2010PropOp35
 70
     0
102
RTVSPost2010Prop36
280
     0
102
RTVSPost2010PropOp36
 70
     0
102
RTVSPost2010Prop37
 90
       50
102
RTVSPost2010PropOp37
 70
     0
102
RTVSPost2010Prop38
140
0.0
102
RTVSPost2010PropOp38
 70
     0
102
RTVSPost2010Prop39
140
1.0
102
RTVSPost2010PropOp39
 70
     0
102
RTVSPost2010Prop40
 90
        0
102
RTVSPost2010PropOp40
 70
     0
102
RTVSPost2010Prop41ColorIndex
 90
       18
102
RTVSPost2010Prop41ColorRGB
 90
        0
102
RTVSPost2010PropOp41
 70
     0
102
RTVSPost2010Prop42
 90
       50
102
RTVSPost2010PropOp42
 70
     0
102
RTVSPost2010Prop43
 90
        3
102
RTVSPost2010PropOp43
 70
     0
102
RTVSPost2010Prop44ColorIndex
 90
        5
102
RTVSPost2010Prop44ColorRGB
 90
      255
102
RTVSPost2010PropOp44
 70
     0
102
RTVSPost2010Prop45
280
     0
102
RTVSPost2010PropOp45
 70
     0
102
RTVSPost2010Prop46
 90
       50
102
RTVSPost2010PropOp46
 70
     0
102
RTVSPost2010Prop47
 90
       50
102
RTVSPost2010PropOp47
 70
     0
102
RTVSPost2010Prop48
 90
       50
102
RTVSPost2010PropOp48
 70
     0
102
RTVSPost2010Prop49
280
     0
102
RTVSPost2010PropOp49
 70
     0
102
RTVSPost2010Prop50
 90
       50
102
RTVSPost2010PropOp50
 70
     0
102
RTVSPost2010Prop51ColorIndex
 90
      256
102
RTVSPost2010Prop51ColorRGB
 90
-16777216
102
RTVSPost2010PropOp51
 70
     0
102
RTVSPost2010Prop52
140
1.0
102
RTVSPost2010PropOp52
 70
     0
102
RTVSPost2010Prop53
 90
        2
102
RTVSPost2010PropOp53
 70
     0
102
RTVSPost2010Prop54
  1
strokes_ogs.tif
102
RTVSPost2010PropOp54
 70
     0
102
RTVSPost2010Prop55
280
     0
102
RTVSPost2010PropOp55
 70
     0
102
RTVSPost2010Prop56
140
1.0
102
RTVSPost2010PropOp56
 70
     0
102
RTVSPost2010Prop57
140
1.0
102
RTVSPost2010PropOp57
 70
     0
102
RTVSPropertyOp0
 70
     0
102
RTVSPropertyOp1
 70
     0
102
RTVSPropertyOp2
 70
     0
102
RTVSPropertyOp3
 70
     0
102
RTVSPropertyOp4
 70
     0
102
RTVSPropertyOp5
 70
     0
102
RTVSPropertyOp6
 70
     0
102
RTVSPropertyOp7
 70
     0
102
RTVSPropertyOp8
 70
     0
102
RTVSPropertyOp9
 70
     0
102
RTVSPropertyOp10
 70
     0
102
RTVSPropertyOp11
 70
     0
102
RTVSPropertyOp12
 70
     0
102
RTVSPropertyOp13
 70
     0
102
RTVSPropertyOp14
 70
     2
102
RTVSPropertyOp15
 70
     0
102
RTVSPropertyOp16
 70
     0
102
RTVSPropertyOp17
 70
     0
102
RTVSPropertyOp18
 70
     0
102
RTVSPropertyOp19
 70
     0
102
RTVSPropertyOp20
 70
     0
102
RTVSPropertyOp21
 70
     0
102
RTVSPropertyOp22
 70
     0
102
RTVSPropertyOp23
 70
     0
102
RTVSPropertyOp24
 70
     0
102
RTVSPropertyOp25
 70
     0
102
RTVSPropertyOp26
 70
     0
102
RTVSPropertyOp27
 70
     0
102
RTVSPropertyOp28
 70
     0
102
RTVSPropertyOp29
 70
     0
102
RTVSPropertyOp30
 70
     0
102
RTVSPropertyOp31
 70
     0
102
RTVSPropertyOp32
 70
     0
102
RTVSPropertyOp33
 70
     0
102
RTVSPropertyOp34
 70
     0
102
RTVSPropertyOp35
 70
     0
102
RTVSPropertyOp36
 70
     0
102
RTVSPropertyOp37
 70
     0
102
RTVSPropertyOp38
 70
     0
102
RTVSPropertyOp39
 70
     0
102
RTVSPropertyOp40
 70
     0
102
RTVSPropertyOp41
 70
     0
102
RTVSPropertyOp42
 70
     0
102
RTVSPropertyOp43
 70
     0
102
RTVSPropertyOp44
 70
     0
102
RTVSPropertyOp45
 70
     0
102
RTVSPropertyOp46
 70
     0
102
RTVSPropertyOp47
 70
     0
102
RTVSPropertyOp48
 70
     0
102
RTVSPropertyOp49
 70
     0
102
RTVSPropertyOp50
 70
     0
102
RTVSPropertyOp51
 70
     0
102
RTVSPropertyOp52
 70
     0
102
RTVSPropertyOp53
 70
     0
102
RTVSPropertyOp54
 70
     0
102
RTVSPropertyOp55
 70
     0
102
RTVSPropertyOp56
 70
     0
102
RTVSPropertyOp57
 70
     0
102
RTVSPropertyOp58
 70
     0
102
RTVSPropertyOp59
 70
     0
102
RTVSPropertyOp60
 70
     0
102
RTVSPropertyOp61
 70
     0
102
RTVSPropertyOp62
 70
     0
  0
XRECORD
  5
C76
102
{ACAD_REACTORS
330
C75
102
}
330
C75
100
AcDbXrecord
280
     1
102
RTVSPost2010Prop28
280
     0
102
RTVSPost2010PropOp28
 70
     1
102
RTVSPost2010Prop29
280
     1
102
RTVSPost2010PropOp29
 70
     1
102
RTVSPost2010Prop30
280
     1
102
RTVSPost2010PropOp30
 70
     1
102
RTVSPost2010Prop31
280
     0
102
RTVSPost2010PropOp31
 70
     1
102
RTVSPost2010Prop32
280
     0
102
RTVSPost2010PropOp32
 70
     1
102
RTVSPost2010Prop33
280
     0
102
RTVSPost2010PropOp33
 70
     1
102
RTVSPost2010Prop34
280
     0
102
RTVSPost2010PropOp34
 70
     1
102
RTVSPost2010Prop35
280
     0
102
RTVSPost2010PropOp35
 70
     1
102
RTVSPost2010Prop36
280
     0
102
RTVSPost2010PropOp36
 70
     1
102
RTVSPost2010Prop37
 90
       50
102
RTVSPost2010PropOp37
 70
     1
102
RTVSPost2010Prop38
140
0.0
102
RTVSPost2010PropOp38
 70
     1
102
RTVSPost2010Prop39
140
1.0
102
RTVSPost2010PropOp39
 70
     1
102
RTVSPost2010Prop40
 90
        0
102
RTVSPost2010PropOp40
 70
     1
102
RTVSPost2010Prop41ColorIndex
 90
       18
102
RTVSPost2010Prop41ColorRGB
 90
        0
102
RTVSPost2010PropOp41
 70
     1
102
RTVSPost2010Prop42
 90
       50
102
RTVSPost2010PropOp42
 70
     1
102
RTVSPost2010Prop43
 90
        3
102
RTVSPost2010PropOp43
 70
     1
102
RTVSPost2010Prop44ColorIndex
 90
        5
102
RTVSPost2010Prop44ColorRGB
 90
      255
102
RTVSPost2010PropOp44
 70
     1
102
RTVSPost2010Prop45
280
     0
102
RTVSPost2010PropOp45
 70
     1
102
RTVSPost2010Prop46
 90
       50
102
RTVSPost2010PropOp46
 70
     1
102
RTVSPost2010Prop47
 90
       50
102
RTVSPost2010PropOp47
 70
     1
102
RTVSPost2010Prop48
 90
       50
102
RTVSPost2010PropOp48
 70
     1
102
RTVSPost2010Prop49
280
     0
102
RTVSPost2010PropOp49
 70
     1
102
RTVSPost2010Prop50
 90
       50
102
RTVSPost2010PropOp50
 70
     1
102
RTVSPost2010Prop51ColorIndex
 90
      256
102
RTVSPost2010Prop51ColorRGB
 90
-16777216
102
RTVSPost2010PropOp51
 70
     0
102
RTVSPost2010Prop52
140
1.0
102
RTVSPost2010PropOp52
 70
     0
102
RTVSPost2010Prop53
 90
        2
102
RTVSPost2010PropOp53
 70
     1
102
RTVSPost2010Prop54
  1
strokes_ogs.tif
102
RTVSPost2010PropOp54
 70
     1
102
RTVSPost2010Prop55
280
     0
102
RTVSPost2010PropOp55
 70
     1
102
RTVSPost2010Prop56
140
1.0
102
RTVSPost2010PropOp56
 70
     1
102
RTVSPost2010Prop57
140
1.0
102
RTVSPost2010PropOp57
 70
     1
102
RTVSPropertyOp0
 70
     1
102
RTVSPropertyOp1
 70
     1
102
RTVSPropertyOp2
 70
     1
102
RTVSPropertyOp3
 70
     1
102
RTVSPropertyOp4
 70
     1
102
RTVSPropertyOp5
 70
     1
102
RTVSPropertyOp6
 70
     1
102
RTVSPropertyOp7
 70
     1
102
RTVSPropertyOp8
 70
     1
102
RTVSPropertyOp9
 70
     1
102
RTVSPropertyOp10
 70
     1
102
RTVSPropertyOp11
 70
     1
102
RTVSPropertyOp12
 70
     1
102
RTVSPropertyOp13
 70
     1
102
RTVSPropertyOp14
 70
     1
102
RTVSPropertyOp15
 70
     1
102
RTVSPropertyOp16
 70
     1
102
RTVSPropertyOp17
 70
     1
102
RTVSPropertyOp18
 70
     1
102
RTVSPropertyOp19
 70
     1
102
RTVSPropertyOp20
 70
     1
102
RTVSPropertyOp21
 70
     1
102
RTVSPropertyOp22
 70
     1
102
RTVSPropertyOp23
 70
     1
102
RTVSPropertyOp24
 70
     1
102
RTVSPropertyOp25
 70
     1
102
RTVSPropertyOp26
 70
     1
102
RTVSPropertyOp27
 70
     1
102
RTVSPropertyOp28
 70
     1
102
RTVSPropertyOp29
 70
     1
102
RTVSPropertyOp30
 70
     1
102
RTVSPropertyOp31
 70
     1
102
RTVSPropertyOp32
 70
     1
102
RTVSPropertyOp33
 70
     1
102
RTVSPropertyOp34
 70
     1
102
RTVSPropertyOp35
 70
     1
102
RTVSPropertyOp36
 70
     1
102
RTVSPropertyOp37
 70
     1
102
RTVSPropertyOp38
 70
     1
102
RTVSPropertyOp39
 70
     1
102
RTVSPropertyOp40
 70
     1
102
RTVSPropertyOp41
 70
     1
102
RTVSPropertyOp42
 70
     1
102
RTVSPropertyOp43
 70
     1
102
RTVSPropertyOp44
 70
     1
102
RTVSPropertyOp45
 70
     1
102
RTVSPropertyOp46
 70
     1
102
RTVSPropertyOp47
 70
     1
102
RTVSPropertyOp48
 70
     1
102
RTVSPropertyOp49
 70
     1
102
RTVSPropertyOp50
 70
     1
102
RTVSPropertyOp51
 70
     0
102
RTVSPropertyOp52
 70
     0
102
RTVSPropertyOp53
 70
     1
102
RTVSPropertyOp54
 70
     1
102
RTVSPropertyOp55
 70
     1
102
RTVSPropertyOp56
 70
     1
102
RTVSPropertyOp57
 70
     1
102
RTVSPropertyOp58
 70
     1
102
RTVSPropertyOp59
 70
     1
102
RTVSPropertyOp60
 70
     1
102
RTVSPropertyOp61
 70
     1
102
RTVSPropertyOp62
 70
     1
  0
XRECORD
  5
C5A
102
{ACAD_REACTORS
330
C59
102
}
330
C59
100
AcDbXrecord
280
     1
102
RTVSPost2010Prop28
280
     0
102
RTVSPost2010PropOp28
 70
     1
102
RTVSPost2010Prop29
280
     1
102
RTVSPost2010PropOp29
 70
     1
102
RTVSPost2010Prop30
280
     1
102
RTVSPost2010PropOp30
 70
     1
102
RTVSPost2010Prop31
280
     0
102
RTVSPost2010PropOp31
 70
     1
102
RTVSPost2010Prop32
280
     0
102
RTVSPost2010PropOp32
 70
     1
102
RTVSPost2010Prop33
280
     0
102
RTVSPost2010PropOp33
 70
     1
102
RTVSPost2010Prop34
280
     0
102
RTVSPost2010PropOp34
 70
     1
102
RTVSPost2010Prop35
280
     0
102
RTVSPost2010PropOp35
 70
     1
102
RTVSPost2010Prop36
280
     0
102
RTVSPost2010PropOp36
 70
     1
102
RTVSPost2010Prop37
 90
       50
102
RTVSPost2010PropOp37
 70
     1
102
RTVSPost2010Prop38
140
0.0
102
RTVSPost2010PropOp38
 70
     1
102
RTVSPost2010Prop39
140
1.0
102
RTVSPost2010PropOp39
 70
     1
102
RTVSPost2010Prop40
 90
        0
102
RTVSPost2010PropOp40
 70
     1
102
RTVSPost2010Prop41ColorIndex
 90
       18
102
RTVSPost2010Prop41ColorRGB
 90
        0
102
RTVSPost2010PropOp41
 70
     1
102
RTVSPost2010Prop42
 90
       50
102
RTVSPost2010PropOp42
 70
     1
102
RTVSPost2010Prop43
 90
        3
102
RTVSPost2010PropOp43
 70
     1
102
RTVSPost2010Prop44ColorIndex
 90
        5
102
RTVSPost2010Prop44ColorRGB
 90
      255
102
RTVSPost2010PropOp44
 70
     1
102
RTVSPost2010Prop45
280
     0
102
RTVSPost2010PropOp45
 70
     1
102
RTVSPost2010Prop46
 90
       50
102
RTVSPost2010PropOp46
 70
     1
102
RTVSPost2010Prop47
 90
       50
102
RTVSPost2010PropOp47
 70
     1
102
RTVSPost2010Prop48
 90
       50
102
RTVSPost2010PropOp48
 70
     1
102
RTVSPost2010Prop49
280
     0
102
RTVSPost2010PropOp49
 70
     1
102
RTVSPost2010Prop50
 90
       50
102
RTVSPost2010PropOp50
 70
     1
102
RTVSPost2010Prop51ColorIndex
 90
      256
102
RTVSPost2010Prop51ColorRGB
 90
-16777216
102
RTVSPost2010PropOp51
 70
     0
102
RTVSPost2010Prop52
140
1.0
102
RTVSPost2010PropOp52
 70
     0
102
RTVSPost2010Prop53
 90
        2
102
RTVSPost2010PropOp53
 70
     1
102
RTVSPost2010Prop54
  1
strokes_ogs.tif
102
RTVSPost2010PropOp54
 70
     1
102
RTVSPost2010Prop55
280
     0
102
RTVSPost2010PropOp55
 70
     1
102
RTVSPost2010Prop56
140
1.0
102
RTVSPost2010PropOp56
 70
     1
102
RTVSPost2010Prop57
140
1.0
102
RTVSPost2010PropOp57
 70
     1
102
RTVSPropertyOp0
 70
     1
102
RTVSPropertyOp1
 70
     1
102
RTVSPropertyOp2
 70
     1
102
RTVSPropertyOp3
 70
     1
102
RTVSPropertyOp4
 70
     1
102
RTVSPropertyOp5
 70
     1
102
RTVSPropertyOp6
 70
     1
102
RTVSPropertyOp7
 70
     1
102
RTVSPropertyOp8
 70
     1
102
RTVSPropertyOp9
 70
     1
102
RTVSPropertyOp10
 70
     1
102
RTVSPropertyOp11
 70
     1
102
RTVSPropertyOp12
 70
     1
102
RTVSPropertyOp13
 70
     1
102
RTVSPropertyOp14
 70
     1
102
RTVSPropertyOp15
 70
     1
102
RTVSPropertyOp16
 70
     1
102
RTVSPropertyOp17
 70
     1
102
RTVSPropertyOp18
 70
     1
102
RTVSPropertyOp19
 70
     1
102
RTVSPropertyOp20
 70
     1
102
RTVSPropertyOp21
 70
     1
102
RTVSPropertyOp22
 70
     1
102
RTVSPropertyOp23
 70
     1
102
RTVSPropertyOp24
 70
     1
102
RTVSPropertyOp25
 70
     1
102
RTVSPropertyOp26
 70
     1
102
RTVSPropertyOp27
 70
     1
102
RTVSPropertyOp28
 70
     1
102
RTVSPropertyOp29
 70
     1
102
RTVSPropertyOp30
 70
     1
102
RTVSPropertyOp31
 70
     1
102
RTVSPropertyOp32
 70
     1
102
RTVSPropertyOp33
 70
     1
102
RTVSPropertyOp34
 70
     1
102
RTVSPropertyOp35
 70
     1
102
RTVSPropertyOp36
 70
     1
102
RTVSPropertyOp37
 70
     1
102
RTVSPropertyOp38
 70
     1
102
RTVSPropertyOp39
 70
     1
102
RTVSPropertyOp40
 70
     1
102
RTVSPropertyOp41
 70
     1
102
RTVSPropertyOp42
 70
     1
102
RTVSPropertyOp43
 70
     1
102
RTVSPropertyOp44
 70
     1
102
RTVSPropertyOp45
 70
     1
102
RTVSPropertyOp46
 70
     1
102
RTVSPropertyOp47
 70
     1
102
RTVSPropertyOp48
 70
     1
102
RTVSPropertyOp49
 70
     1
102
RTVSPropertyOp50
 70
     1
102
RTVSPropertyOp51
 70
     0
102
RTVSPropertyOp52
 70
     0
102
RTVSPropertyOp53
 70
     1
102
RTVSPropertyOp54
 70
     1
102
RTVSPropertyOp55
 70
     1
102
RTVSPropertyOp56
 70
     1
102
RTVSPropertyOp57
 70
     1
102
RTVSPropertyOp58
 70
     1
102
RTVSPropertyOp59
 70
     1
102
RTVSPropertyOp60
 70
     1
102
RTVSPropertyOp61
 70
     1
102
RTVSPropertyOp62
 70
     1
  0
XRECORD
  5
C5C
102
{ACAD_REACTORS
330
C5B
102
}
330
C5B
100
AcDbXrecord
280
     1
102
RTVSPost2010Prop28
280
     0
102
RTVSPost2010PropOp28
 70
     1
102
RTVSPost2010Prop29
280
     1
102
RTVSPost2010PropOp29
 70
     1
102
RTVSPost2010Prop30
280
     1
102
RTVSPost2010PropOp30
 70
     1
102
RTVSPost2010Prop31
280
     0
102
RTVSPost2010PropOp31
 70
     1
102
RTVSPost2010Prop32
280
     0
102
RTVSPost2010PropOp32
 70
     1
102
RTVSPost2010Prop33
280
     0
102
RTVSPost2010PropOp33
 70
     1
102
RTVSPost2010Prop34
280
     0
102
RTVSPost2010PropOp34
 70
     1
102
RTVSPost2010Prop35
280
     0
102
RTVSPost2010PropOp35
 70
     1
102
RTVSPost2010Prop36
280
     0
102
RTVSPost2010PropOp36
 70
     1
102
RTVSPost2010Prop37
 90
       50
102
RTVSPost2010PropOp37
 70
     1
102
RTVSPost2010Prop38
140
0.0
102
RTVSPost2010PropOp38
 70
     1
102
RTVSPost2010Prop39
140
1.0
102
RTVSPost2010PropOp39
 70
     1
102
RTVSPost2010Prop40
 90
        0
102
RTVSPost2010PropOp40
 70
     1
102
RTVSPost2010Prop41ColorIndex
 90
       18
102
RTVSPost2010Prop41ColorRGB
 90
        0
102
RTVSPost2010PropOp41
 70
     1
102
RTVSPost2010Prop42
 90
       50
102
RTVSPost2010PropOp42
 70
     1
102
RTVSPost2010Prop43
 90
        3
102
RTVSPost2010PropOp43
 70
     1
102
RTVSPost2010Prop44ColorIndex
 90
        5
102
RTVSPost2010Prop44ColorRGB
 90
      255
102
RTVSPost2010PropOp44
 70
     1
102
RTVSPost2010Prop45
280
     0
102
RTVSPost2010PropOp45
 70
     1
102
RTVSPost2010Prop46
 90
       50
102
RTVSPost2010PropOp46
 70
     1
102
RTVSPost2010Prop47
 90
       50
102
RTVSPost2010PropOp47
 70
     1
102
RTVSPost2010Prop48
 90
       50
102
RTVSPost2010PropOp48
 70
     1
102
RTVSPost2010Prop49
280
     0
102
RTVSPost2010PropOp49
 70
     1
102
RTVSPost2010Prop50
 90
       50
102
RTVSPost2010PropOp50
 70
     1
102
RTVSPost2010Prop51ColorIndex
 90
      256
102
RTVSPost2010Prop51ColorRGB
 90
-16777216
102
RTVSPost2010PropOp51
 70
     0
102
RTVSPost2010Prop52
140
1.0
102
RTVSPost2010PropOp52
 70
     0
102
RTVSPost2010Prop53
 90
        2
102
RTVSPost2010PropOp53
 70
     1
102
RTVSPost2010Prop54
  1
strokes_ogs.tif
102
RTVSPost2010PropOp54
 70
     1
102
RTVSPost2010Prop55
280
     0
102
RTVSPost2010PropOp55
 70
     1
102
RTVSPost2010Prop56
140
1.0
102
RTVSPost2010PropOp56
 70
     1
102
RTVSPost2010Prop57
140
1.0
102
RTVSPost2010PropOp57
 70
     1
102
RTVSPropertyOp0
 70
     1
102
RTVSPropertyOp1
 70
     1
102
RTVSPropertyOp2
 70
     1
102
RTVSPropertyOp3
 70
     1
102
RTVSPropertyOp4
 70
     1
102
RTVSPropertyOp5
 70
     1
102
RTVSPropertyOp6
 70
     1
102
RTVSPropertyOp7
 70
     1
102
RTVSPropertyOp8
 70
     1
102
RTVSPropertyOp9
 70
     1
102
RTVSPropertyOp10
 70
     1
102
RTVSPropertyOp11
 70
     1
102
RTVSPropertyOp12
 70
     1
102
RTVSPropertyOp13
 70
     1
102
RTVSPropertyOp14
 70
     1
102
RTVSPropertyOp15
 70
     1
102
RTVSPropertyOp16
 70
     1
102
RTVSPropertyOp17
 70
     1
102
RTVSPropertyOp18
 70
     1
102
RTVSPropertyOp19
 70
     1
102
RTVSPropertyOp20
 70
     1
102
RTVSPropertyOp21
 70
     1
102
RTVSPropertyOp22
 70
     1
102
RTVSPropertyOp23
 70
     1
102
RTVSPropertyOp24
 70
     1
102
RTVSPropertyOp25
 70
     1
102
RTVSPropertyOp26
 70
     1
102
RTVSPropertyOp27
 70
     1
102
RTVSPropertyOp28
 70
     1
102
RTVSPropertyOp29
 70
     1
102
RTVSPropertyOp30
 70
     1
102
RTVSPropertyOp31
 70
     1
102
RTVSPropertyOp32
 70
     1
102
RTVSPropertyOp33
 70
     1
102
RTVSPropertyOp34
 70
     1
102
RTVSPropertyOp35
 70
     1
102
RTVSPropertyOp36
 70
     1
102
RTVSPropertyOp37
 70
     1
102
RTVSPropertyOp38
 70
     1
102
RTVSPropertyOp39
 70
     1
102
RTVSPropertyOp40
 70
     1
102
RTVSPropertyOp41
 70
     1
102
RTVSPropertyOp42
 70
     1
102
RTVSPropertyOp43
 70
     1
102
RTVSPropertyOp44
 70
     1
102
RTVSPropertyOp45
 70
     1
102
RTVSPropertyOp46
 70
     1
102
RTVSPropertyOp47
 70
     1
102
RTVSPropertyOp48
 70
     1
102
RTVSPropertyOp49
 70
     1
102
RTVSPropertyOp50
 70
     1
102
RTVSPropertyOp51
 70
     0
102
RTVSPropertyOp52
 70
     0
102
RTVSPropertyOp53
 70
     1
102
RTVSPropertyOp54
 70
     1
102
RTVSPropertyOp55
 70
     1
102
RTVSPropertyOp56
 70
     1
102
RTVSPropertyOp57
 70
     1
102
RTVSPropertyOp58
 70
     1
102
RTVSPropertyOp59
 70
     1
102
RTVSPropertyOp60
 70
     1
102
RTVSPropertyOp61
 70
     1
102
RTVSPropertyOp62
 70
     1
  0
XRECORD
  5
C5E
102
{ACAD_REACTORS
330
C5D
102
}
330
C5D
100
AcDbXrecord
280
     1
102
RTVSPost2010Prop28
280
     0
102
RTVSPost2010PropOp28
 70
     1
102
RTVSPost2010Prop29
280
     1
102
RTVSPost2010PropOp29
 70
     1
102
RTVSPost2010Prop30
280
     1
102
RTVSPost2010PropOp30
 70
     1
102
RTVSPost2010Prop31
280
     0
102
RTVSPost2010PropOp31
 70
     1
102
RTVSPost2010Prop32
280
     0
102
RTVSPost2010PropOp32
 70
     1
102
RTVSPost2010Prop33
280
     0
102
RTVSPost2010PropOp33
 70
     1
102
RTVSPost2010Prop34
280
     0
102
RTVSPost2010PropOp34
 70
     1
102
RTVSPost2010Prop35
280
     0
102
RTVSPost2010PropOp35
 70
     1
102
RTVSPost2010Prop36
280
     0
102
RTVSPost2010PropOp36
 70
     1
102
RTVSPost2010Prop37
 90
       50
102
RTVSPost2010PropOp37
 70
     1
102
RTVSPost2010Prop38
140
0.0
102
RTVSPost2010PropOp38
 70
     1
102
RTVSPost2010Prop39
140
1.0
102
RTVSPost2010PropOp39
 70
     1
102
RTVSPost2010Prop40
 90
        0
102
RTVSPost2010PropOp40
 70
     1
102
RTVSPost2010Prop41ColorIndex
 90
       18
102
RTVSPost2010Prop41ColorRGB
 90
        0
102
RTVSPost2010PropOp41
 70
     1
102
RTVSPost2010Prop42
 90
       50
102
RTVSPost2010PropOp42
 70
     1
102
RTVSPost2010Prop43
 90
        3
102
RTVSPost2010PropOp43
 70
     1
102
RTVSPost2010Prop44ColorIndex
 90
        5
102
RTVSPost2010Prop44ColorRGB
 90
      255
102
RTVSPost2010PropOp44
 70
     1
102
RTVSPost2010Prop45
280
     0
102
RTVSPost2010PropOp45
 70
     1
102
RTVSPost2010Prop46
 90
       50
102
RTVSPost2010PropOp46
 70
     1
102
RTVSPost2010Prop47
 90
       50
102
RTVSPost2010PropOp47
 70
     1
102
RTVSPost2010Prop48
 90
       50
102
RTVSPost2010PropOp48
 70
     1
102
RTVSPost2010Prop49
280
     0
102
RTVSPost2010PropOp49
 70
     1
102
RTVSPost2010Prop50
 90
       50
102
RTVSPost2010PropOp50
 70
     1
102
RTVSPost2010Prop51ColorIndex
 90
      256
102
RTVSPost2010Prop51ColorRGB
 90
-16777216
102
RTVSPost2010PropOp51
 70
     0
102
RTVSPost2010Prop52
140
1.0
102
RTVSPost2010PropOp52
 70
     0
102
RTVSPost2010Prop53
 90
        2
102
RTVSPost2010PropOp53
 70
     1
102
RTVSPost2010Prop54
  1
strokes_ogs.tif
102
RTVSPost2010PropOp54
 70
     1
102
RTVSPost2010Prop55
280
     0
102
RTVSPost2010PropOp55
 70
     1
102
RTVSPost2010Prop56
140
1.0
102
RTVSPost2010PropOp56
 70
     1
102
RTVSPost2010Prop57
140
1.0
102
RTVSPost2010PropOp57
 70
     1
102
RTVSPropertyOp0
 70
     1
102
RTVSPropertyOp1
 70
     1
102
RTVSPropertyOp2
 70
     1
102
RTVSPropertyOp3
 70
     1
102
RTVSPropertyOp4
 70
     1
102
RTVSPropertyOp5
 70
     1
102
RTVSPropertyOp6
 70
     1
102
RTVSPropertyOp7
 70
     1
102
RTVSPropertyOp8
 70
     1
102
RTVSPropertyOp9
 70
     1
102
RTVSPropertyOp10
 70
     1
102
RTVSPropertyOp11
 70
     1
102
RTVSPropertyOp12
 70
     1
102
RTVSPropertyOp13
 70
     1
102
RTVSPropertyOp14
 70
     1
102
RTVSPropertyOp15
 70
     1
102
RTVSPropertyOp16
 70
     1
102
RTVSPropertyOp17
 70
     1
102
RTVSPropertyOp18
 70
     1
102
RTVSPropertyOp19
 70
     1
102
RTVSPropertyOp20
 70
     1
102
RTVSPropertyOp21
 70
     1
102
RTVSPropertyOp22
 70
     1
102
RTVSPropertyOp23
 70
     1
102
RTVSPropertyOp24
 70
     1
102
RTVSPropertyOp25
 70
     1
102
RTVSPropertyOp26
 70
     1
102
RTVSPropertyOp27
 70
     1
102
RTVSPropertyOp28
 70
     1
102
RTVSPropertyOp29
 70
     1
102
RTVSPropertyOp30
 70
     1
102
RTVSPropertyOp31
 70
     1
102
RTVSPropertyOp32
 70
     1
102
RTVSPropertyOp33
 70
     1
102
RTVSPropertyOp34
 70
     1
102
RTVSPropertyOp35
 70
     1
102
RTVSPropertyOp36
 70
     1
102
RTVSPropertyOp37
 70
     1
102
RTVSPropertyOp38
 70
     1
102
RTVSPropertyOp39
 70
     1
102
RTVSPropertyOp40
 70
     1
102
RTVSPropertyOp41
 70
     1
102
RTVSPropertyOp42
 70
     1
102
RTVSPropertyOp43
 70
     1
102
RTVSPropertyOp44
 70
     1
102
RTVSPropertyOp45
 70
     1
102
RTVSPropertyOp46
 70
     1
102
RTVSPropertyOp47
 70
     1
102
RTVSPropertyOp48
 70
     1
102
RTVSPropertyOp49
 70
     1
102
RTVSPropertyOp50
 70
     1
102
RTVSPropertyOp51
 70
     0
102
RTVSPropertyOp52
 70
     0
102
RTVSPropertyOp53
 70
     1
102
RTVSPropertyOp54
 70
     1
102
RTVSPropertyOp55
 70
     1
102
RTVSPropertyOp56
 70
     1
102
RTVSPropertyOp57
 70
     1
102
RTVSPropertyOp58
 70
     1
102
RTVSPropertyOp59
 70
     1
102
RTVSPropertyOp60
 70
     1
102
RTVSPropertyOp61
 70
     1
102
RTVSPropertyOp62
 70
     1
  0
XRECORD
  5
C60
102
{ACAD_REACTORS
330
C5F
102
}
330
C5F
100
AcDbXrecord
280
     1
102
RTVSPost2010Prop28
280
     0
102
RTVSPost2010PropOp28
 70
     1
102
RTVSPost2010Prop29
280
     1
102
RTVSPost2010PropOp29
 70
     1
102
RTVSPost2010Prop30
280
     1
102
RTVSPost2010PropOp30
 70
     1
102
RTVSPost2010Prop31
280
     0
102
RTVSPost2010PropOp31
 70
     1
102
RTVSPost2010Prop32
280
     0
102
RTVSPost2010PropOp32
 70
     1
102
RTVSPost2010Prop33
280
     0
102
RTVSPost2010PropOp33
 70
     1
102
RTVSPost2010Prop34
280
     0
102
RTVSPost2010PropOp34
 70
     1
102
RTVSPost2010Prop35
280
     0
102
RTVSPost2010PropOp35
 70
     1
102
RTVSPost2010Prop36
280
     0
102
RTVSPost2010PropOp36
 70
     1
102
RTVSPost2010Prop37
 90
       50
102
RTVSPost2010PropOp37
 70
     1
102
RTVSPost2010Prop38
140
0.0
102
RTVSPost2010PropOp38
 70
     1
102
RTVSPost2010Prop39
140
1.0
102
RTVSPost2010PropOp39
 70
     1
102
RTVSPost2010Prop40
 90
        0
102
RTVSPost2010PropOp40
 70
     1
102
RTVSPost2010Prop41ColorIndex
 90
       18
102
RTVSPost2010Prop41ColorRGB
 90
        0
102
RTVSPost2010PropOp41
 70
     1
102
RTVSPost2010Prop42
 90
       50
102
RTVSPost2010PropOp42
 70
     1
102
RTVSPost2010Prop43
 90
        3
102
RTVSPost2010PropOp43
 70
     1
102
RTVSPost2010Prop44ColorIndex
 90
        5
102
RTVSPost2010Prop44ColorRGB
 90
      255
102
RTVSPost2010PropOp44
 70
     1
102
RTVSPost2010Prop45
280
     0
102
RTVSPost2010PropOp45
 70
     1
102
RTVSPost2010Prop46
 90
       50
102
RTVSPost2010PropOp46
 70
     1
102
RTVSPost2010Prop47
 90
       50
102
RTVSPost2010PropOp47
 70
     1
102
RTVSPost2010Prop48
 90
       50
102
RTVSPost2010PropOp48
 70
     1
102
RTVSPost2010Prop49
280
     0
102
RTVSPost2010PropOp49
 70
     1
102
RTVSPost2010Prop50
 90
       50
102
RTVSPost2010PropOp50
 70
     1
102
RTVSPost2010Prop51ColorIndex
 90
      256
102
RTVSPost2010Prop51ColorRGB
 90
-16777216
102
RTVSPost2010PropOp51
 70
     0
102
RTVSPost2010Prop52
140
1.0
102
RTVSPost2010PropOp52
 70
     0
102
RTVSPost2010Prop53
 90
        2
102
RTVSPost2010PropOp53
 70
     1
102
RTVSPost2010Prop54
  1
strokes_ogs.tif
102
RTVSPost2010PropOp54
 70
     1
102
RTVSPost2010Prop55
280
     0
102
RTVSPost2010PropOp55
 70
     1
102
RTVSPost2010Prop56
140
1.0
102
RTVSPost2010PropOp56
 70
     1
102
RTVSPost2010Prop57
140
1.0
102
RTVSPost2010PropOp57
 70
     1
102
RTVSPropertyOp0
 70
     1
102
RTVSPropertyOp1
 70
     1
102
RTVSPropertyOp2
 70
     1
102
RTVSPropertyOp3
 70
     1
102
RTVSPropertyOp4
 70
     1
102
RTVSPropertyOp5
 70
     1
102
RTVSPropertyOp6
 70
     1
102
RTVSPropertyOp7
 70
     1
102
RTVSPropertyOp8
 70
     1
102
RTVSPropertyOp9
 70
     1
102
RTVSPropertyOp10
 70
     1
102
RTVSPropertyOp11
 70
     1
102
RTVSPropertyOp12
 70
     1
102
RTVSPropertyOp13
 70
     1
102
RTVSPropertyOp14
 70
     1
102
RTVSPropertyOp15
 70
     1
102
RTVSPropertyOp16
 70
     1
102
RTVSPropertyOp17
 70
     1
102
RTVSPropertyOp18
 70
     1
102
RTVSPropertyOp19
 70
     1
102
RTVSPropertyOp20
 70
     1
102
RTVSPropertyOp21
 70
     1
102
RTVSPropertyOp22
 70
     1
102
RTVSPropertyOp23
 70
     1
102
RTVSPropertyOp24
 70
     1
102
RTVSPropertyOp25
 70
     1
102
RTVSPropertyOp26
 70
     1
102
RTVSPropertyOp27
 70
     1
102
RTVSPropertyOp28
 70
     1
102
RTVSPropertyOp29
 70
     1
102
RTVSPropertyOp30
 70
     1
102
RTVSPropertyOp31
 70
     1
102
RTVSPropertyOp32
 70
     1
102
RTVSPropertyOp33
 70
     1
102
RTVSPropertyOp34
 70
     1
102
RTVSPropertyOp35
 70
     1
102
RTVSPropertyOp36
 70
     1
102
RTVSPropertyOp37
 70
     1
102
RTVSPropertyOp38
 70
     1
102
RTVSPropertyOp39
 70
     1
102
RTVSPropertyOp40
 70
     1
102
RTVSPropertyOp41
 70
     1
102
RTVSPropertyOp42
 70
     1
102
RTVSPropertyOp43
 70
     1
102
RTVSPropertyOp44
 70
     1
102
RTVSPropertyOp45
 70
     1
102
RTVSPropertyOp46
 70
     1
102
RTVSPropertyOp47
 70
     1
102
RTVSPropertyOp48
 70
     1
102
RTVSPropertyOp49
 70
     1
102
RTVSPropertyOp50
 70
     1
102
RTVSPropertyOp51
 70
     0
102
RTVSPropertyOp52
 70
     0
102
RTVSPropertyOp53
 70
     1
102
RTVSPropertyOp54
 70
     1
102
RTVSPropertyOp55
 70
     1
102
RTVSPropertyOp56
 70
     1
102
RTVSPropertyOp57
 70
     1
102
RTVSPropertyOp58
 70
     1
102
RTVSPropertyOp59
 70
     1
102
RTVSPropertyOp60
 70
     1
102
RTVSPropertyOp61
 70
     1
102
RTVSPropertyOp62
 70
     1
  0
XRECORD
  5
C68
102
{ACAD_REACTORS
330
C67
102
}
330
C67
100
AcDbXrecord
280
     1
102
RTVSPost2010Prop28
280
     0
102
RTVSPost2010PropOp28
 70
     1
102
RTVSPost2010Prop29
280
     1
102
RTVSPost2010PropOp29
 70
     1
102
RTVSPost2010Prop30
280
     1
102
RTVSPost2010PropOp30
 70
     1
102
RTVSPost2010Prop31
280
     0
102
RTVSPost2010PropOp31
 70
     1
102
RTVSPost2010Prop32
280
     0
102
RTVSPost2010PropOp32
 70
     1
102
RTVSPost2010Prop33
280
     0
102
RTVSPost2010PropOp33
 70
     1
102
RTVSPost2010Prop34
280
     0
102
RTVSPost2010PropOp34
 70
     1
102
RTVSPost2010Prop35
280
     0
102
RTVSPost2010PropOp35
 70
     1
102
RTVSPost2010Prop36
280
     0
102
RTVSPost2010PropOp36
 70
     1
102
RTVSPost2010Prop37
 90
       50
102
RTVSPost2010PropOp37
 70
     1
102
RTVSPost2010Prop38
140
0.0
102
RTVSPost2010PropOp38
 70
     1
102
RTVSPost2010Prop39
140
1.0
102
RTVSPost2010PropOp39
 70
     1
102
RTVSPost2010Prop40
 90
        0
102
RTVSPost2010PropOp40
 70
     1
102
RTVSPost2010Prop41ColorIndex
 90
       18
102
RTVSPost2010Prop41ColorRGB
 90
        0
102
RTVSPost2010PropOp41
 70
     1
102
RTVSPost2010Prop42
 90
       50
102
RTVSPost2010PropOp42
 70
     1
102
RTVSPost2010Prop43
 90
        3
102
RTVSPost2010PropOp43
 70
     1
102
RTVSPost2010Prop44ColorIndex
 90
        5
102
RTVSPost2010Prop44ColorRGB
 90
      255
102
RTVSPost2010PropOp44
 70
     1
102
RTVSPost2010Prop45
280
     0
102
RTVSPost2010PropOp45
 70
     1
102
RTVSPost2010Prop46
 90
       50
102
RTVSPost2010PropOp46
 70
     1
102
RTVSPost2010Prop47
 90
       50
102
RTVSPost2010PropOp47
 70
     1
102
RTVSPost2010Prop48
 90
       50
102
RTVSPost2010PropOp48
 70
     1
102
RTVSPost2010Prop49
280
     0
102
RTVSPost2010PropOp49
 70
     1
102
RTVSPost2010Prop50
 90
       50
102
RTVSPost2010PropOp50
 70
     1
102
RTVSPost2010Prop51ColorIndex
 90
      256
102
RTVSPost2010Prop51ColorRGB
 90
-16777216
102
RTVSPost2010PropOp51
 70
     0
102
RTVSPost2010Prop52
140
1.0
102
RTVSPost2010PropOp52
 70
     0
102
RTVSPost2010Prop53
 90
        2
102
RTVSPost2010PropOp53
 70
     1
102
RTVSPost2010Prop54
  1
strokes_ogs.tif
102
RTVSPost2010PropOp54
 70
     1
102
RTVSPost2010Prop55
280
     0
102
RTVSPost2010PropOp55
 70
     1
102
RTVSPost2010Prop56
140
1.0
102
RTVSPost2010PropOp56
 70
     1
102
RTVSPost2010Prop57
140
1.0
102
RTVSPost2010PropOp57
 70
     1
102
RTVSPropertyOp0
 70
     1
102
RTVSPropertyOp1
 70
     1
102
RTVSPropertyOp2
 70
     1
102
RTVSPropertyOp3
 70
     1
102
RTVSPropertyOp4
 70
     1
102
RTVSPropertyOp5
 70
     1
102
RTVSPropertyOp6
 70
     1
102
RTVSPropertyOp7
 70
     1
102
RTVSPropertyOp8
 70
     1
102
RTVSPropertyOp9
 70
     1
102
RTVSPropertyOp10
 70
     1
102
RTVSPropertyOp11
 70
     1
102
RTVSPropertyOp12
 70
     1
102
RTVSPropertyOp13
 70
     1
102
RTVSPropertyOp14
 70
     1
102
RTVSPropertyOp15
 70
     1
102
RTVSPropertyOp16
 70
     1
102
RTVSPropertyOp17
 70
     1
102
RTVSPropertyOp18
 70
     1
102
RTVSPropertyOp19
 70
     1
102
RTVSPropertyOp20
 70
     1
102
RTVSPropertyOp21
 70
     1
102
RTVSPropertyOp22
 70
     1
102
RTVSPropertyOp23
 70
     1
102
RTVSPropertyOp24
 70
     1
102
RTVSPropertyOp25
 70
     1
102
RTVSPropertyOp26
 70
     1
102
RTVSPropertyOp27
 70
     1
102
RTVSPropertyOp28
 70
     1
102
RTVSPropertyOp29
 70
     1
102
RTVSPropertyOp30
 70
     1
102
RTVSPropertyOp31
 70
     1
102
RTVSPropertyOp32
 70
     1
102
RTVSPropertyOp33
 70
     1
102
RTVSPropertyOp34
 70
     1
102
RTVSPropertyOp35
 70
     1
102
RTVSPropertyOp36
 70
     1
102
RTVSPropertyOp37
 70
     1
102
RTVSPropertyOp38
 70
     1
102
RTVSPropertyOp39
 70
     1
102
RTVSPropertyOp40
 70
     1
102
RTVSPropertyOp41
 70
     1
102
RTVSPropertyOp42
 70
     1
102
RTVSPropertyOp43
 70
     1
102
RTVSPropertyOp44
 70
     1
102
RTVSPropertyOp45
 70
     1
102
RTVSPropertyOp46
 70
     1
102
RTVSPropertyOp47
 70
     1
102
RTVSPropertyOp48
 70
     1
102
RTVSPropertyOp49
 70
     1
102
RTVSPropertyOp50
 70
     1
102
RTVSPropertyOp51
 70
     0
102
RTVSPropertyOp52
 70
     0
102
RTVSPropertyOp53
 70
     1
102
RTVSPropertyOp54
 70
     1
102
RTVSPropertyOp55
 70
     1
102
RTVSPropertyOp56
 70
     1
102
RTVSPropertyOp57
 70
     1
102
RTVSPropertyOp58
 70
     1
102
RTVSPropertyOp59
 70
     1
102
RTVSPropertyOp60
 70
     1
102
RTVSPropertyOp61
 70
     1
102
RTVSPropertyOp62
 70
     1
  0
XRECORD
  5
C84
102
{ACAD_REACTORS
330
C83
102
}
330
C83
100
AcDbXrecord
280
     1
102
RTVSPost2010Prop28
280
     0
102
RTVSPost2010PropOp28
 70
     0
102
RTVSPost2010Prop29
280
     1
102
RTVSPost2010PropOp29
 70
     0
102
RTVSPost2010Prop30
280
     1
102
RTVSPost2010PropOp30
 70
     0
102
RTVSPost2010Prop31
280
     0
102
RTVSPost2010PropOp31
 70
     0
102
RTVSPost2010Prop32
280
     0
102
RTVSPost2010PropOp32
 70
     0
102
RTVSPost2010Prop33
280
     0
102
RTVSPost2010PropOp33
 70
     0
102
RTVSPost2010Prop34
280
     0
102
RTVSPost2010PropOp34
 70
     0
102
RTVSPost2010Prop35
280
     0
102
RTVSPost2010PropOp35
 70
     0
102
RTVSPost2010Prop36
280
     0
102
RTVSPost2010PropOp36
 70
     0
102
RTVSPost2010Prop37
 90
       50
102
RTVSPost2010PropOp37
 70
     0
102
RTVSPost2010Prop38
140
0.0
102
RTVSPost2010PropOp38
 70
     0
102
RTVSPost2010Prop39
140
1.0
102
RTVSPost2010PropOp39
 70
     0
102
RTVSPost2010Prop40
 90
        0
102
RTVSPost2010PropOp40
 70
     0
102
RTVSPost2010Prop41ColorIndex
 90
       18
102
RTVSPost2010Prop41ColorRGB
 90
        0
102
RTVSPost2010PropOp41
 70
     0
102
RTVSPost2010Prop42
 90
       50
102
RTVSPost2010PropOp42
 70
     0
102
RTVSPost2010Prop43
 90
        3
102
RTVSPost2010PropOp43
 70
     0
102
RTVSPost2010Prop44ColorIndex
 90
        5
102
RTVSPost2010Prop44ColorRGB
 90
      255
102
RTVSPost2010PropOp44
 70
     0
102
RTVSPost2010Prop45
280
     0
102
RTVSPost2010PropOp45
 70
     0
102
RTVSPost2010Prop46
 90
       50
102
RTVSPost2010PropOp46
 70
     0
102
RTVSPost2010Prop47
 90
       50
102
RTVSPost2010PropOp47
 70
     0
102
RTVSPost2010Prop48
 90
       50
102
RTVSPost2010PropOp48
 70
     0
102
RTVSPost2010Prop49
280
     0
102
RTVSPost2010PropOp49
 70
     0
102
RTVSPost2010Prop50
 90
       50
102
RTVSPost2010PropOp50
 70
     0
102
RTVSPost2010Prop51ColorIndex
 90
      256
102
RTVSPost2010Prop51ColorRGB
 90
-16777216
102
RTVSPost2010PropOp51
 70
     0
102
RTVSPost2010Prop52
140
1.0
102
RTVSPost2010PropOp52
 70
     0
102
RTVSPost2010Prop53
 90
        2
102
RTVSPost2010PropOp53
 70
     0
102
RTVSPost2010Prop54
  1
strokes_ogs.tif
102
RTVSPost2010PropOp54
 70
     0
102
RTVSPost2010Prop55
280
     0
102
RTVSPost2010PropOp55
 70
     0
102
RTVSPost2010Prop56
140
1.0
102
RTVSPost2010PropOp56
 70
     0
102
RTVSPost2010Prop57
140
1.0
102
RTVSPost2010PropOp57
 70
     0
102
RTVSPropertyOp0
 70
     0
102
RTVSPropertyOp1
 70
     0
102
RTVSPropertyOp2
 70
     0
102
RTVSPropertyOp3
 70
     0
102
RTVSPropertyOp4
 70
     0
102
RTVSPropertyOp5
 70
     0
102
RTVSPropertyOp6
 70
     0
102
RTVSPropertyOp7
 70
     0
102
RTVSPropertyOp8
 70
     0
102
RTVSPropertyOp9
 70
     0
102
RTVSPropertyOp10
 70
     0
102
RTVSPropertyOp11
 70
     0
102
RTVSPropertyOp12
 70
     0
102
RTVSPropertyOp13
 70
     0
102
RTVSPropertyOp14
 70
     2
102
RTVSPropertyOp15
 70
     0
102
RTVSPropertyOp16
 70
     0
102
RTVSPropertyOp17
 70
     0
102
RTVSPropertyOp18
 70
     0
102
RTVSPropertyOp19
 70
     0
102
RTVSPropertyOp20
 70
     0
102
RTVSPropertyOp21
 70
     0
102
RTVSPropertyOp22
 70
     0
102
RTVSPropertyOp23
 70
     0
102
RTVSPropertyOp24
 70
     0
102
RTVSPropertyOp25
 70
     0
102
RTVSPropertyOp26
 70
     0
102
RTVSPropertyOp27
 70
     0
102
RTVSPropertyOp28
 70
     0
102
RTVSPropertyOp29
 70
     0
102
RTVSPropertyOp30
 70
     0
102
RTVSPropertyOp31
 70
     0
102
RTVSPropertyOp32
 70
     0
102
RTVSPropertyOp33
 70
     0
102
RTVSPropertyOp34
 70
     0
102
RTVSPropertyOp35
 70
     0
102
RTVSPropertyOp36
 70
     0
102
RTVSPropertyOp37
 70
     0
102
RTVSPropertyOp38
 70
     0
102
RTVSPropertyOp39
 70
     0
102
RTVSPropertyOp40
 70
     0
102
RTVSPropertyOp41
 70
     0
102
RTVSPropertyOp42
 70
     0
102
RTVSPropertyOp43
 70
     0
102
RTVSPropertyOp44
 70
     0
102
RTVSPropertyOp45
 70
     0
102
RTVSPropertyOp46
 70
     0
102
RTVSPropertyOp47
 70
     0
102
RTVSPropertyOp48
 70
     0
102
RTVSPropertyOp49
 70
     0
102
RTVSPropertyOp50
 70
     0
102
RTVSPropertyOp51
 70
     0
102
RTVSPropertyOp52
 70
     0
102
RTVSPropertyOp53
 70
     0
102
RTVSPropertyOp54
 70
     0
102
RTVSPropertyOp55
 70
     0
102
RTVSPropertyOp56
 70
     0
102
RTVSPropertyOp57
 70
     0
102
RTVSPropertyOp58
 70
     0
102
RTVSPropertyOp59
 70
     0
102
RTVSPropertyOp60
 70
     0
102
RTVSPropertyOp61
 70
     0
102
RTVSPropertyOp62
 70
     0
  0
XRECORD
  5
C74
102
{ACAD_REACTORS
330
C73
102
}
330
C73
100
AcDbXrecord
280
     1
102
RTVSPost2010Prop28
280
     0
102
RTVSPost2010PropOp28
 70
     1
102
RTVSPost2010Prop29
280
     1
102
RTVSPost2010PropOp29
 70
     1
102
RTVSPost2010Prop30
280
     1
102
RTVSPost2010PropOp30
 70
     1
102
RTVSPost2010Prop31
280
     0
102
RTVSPost2010PropOp31
 70
     1
102
RTVSPost2010Prop32
280
     0
102
RTVSPost2010PropOp32
 70
     1
102
RTVSPost2010Prop33
280
     0
102
RTVSPost2010PropOp33
 70
     1
102
RTVSPost2010Prop34
280
     0
102
RTVSPost2010PropOp34
 70
     1
102
RTVSPost2010Prop35
280
     0
102
RTVSPost2010PropOp35
 70
     1
102
RTVSPost2010Prop36
280
     0
102
RTVSPost2010PropOp36
 70
     1
102
RTVSPost2010Prop37
 90
       50
102
RTVSPost2010PropOp37
 70
     1
102
RTVSPost2010Prop38
140
0.0
102
RTVSPost2010PropOp38
 70
     1
102
RTVSPost2010Prop39
140
1.0
102
RTVSPost2010PropOp39
 70
     1
102
RTVSPost2010Prop40
 90
        0
102
RTVSPost2010PropOp40
 70
     1
102
RTVSPost2010Prop41ColorIndex
 90
       18
102
RTVSPost2010Prop41ColorRGB
 90
        0
102
RTVSPost2010PropOp41
 70
     1
102
RTVSPost2010Prop42
 90
       50
102
RTVSPost2010PropOp42
 70
     1
102
RTVSPost2010Prop43
 90
        3
102
RTVSPost2010PropOp43
 70
     1
102
RTVSPost2010Prop44ColorIndex
 90
        5
102
RTVSPost2010Prop44ColorRGB
 90
      255
102
RTVSPost2010PropOp44
 70
     1
102
RTVSPost2010Prop45
280
     0
102
RTVSPost2010PropOp45
 70
     1
102
RTVSPost2010Prop46
 90
       50
102
RTVSPost2010PropOp46
 70
     1
102
RTVSPost2010Prop47
 90
       50
102
RTVSPost2010PropOp47
 70
     1
102
RTVSPost2010Prop48
 90
       50
102
RTVSPost2010PropOp48
 70
     1
102
RTVSPost2010Prop49
280
     0
102
RTVSPost2010PropOp49
 70
     1
102
RTVSPost2010Prop50
 90
       50
102
RTVSPost2010PropOp50
 70
     1
102
RTVSPost2010Prop51ColorIndex
 90
      256
102
RTVSPost2010Prop51ColorRGB
 90
-16777216
102
RTVSPost2010PropOp51
 70
     0
102
RTVSPost2010Prop52
140
1.0
102
RTVSPost2010PropOp52
 70
     0
102
RTVSPost2010Prop53
 90
        2
102
RTVSPost2010PropOp53
 70
     1
102
RTVSPost2010Prop54
  1
strokes_ogs.tif
102
RTVSPost2010PropOp54
 70
     1
102
RTVSPost2010Prop55
280
     0
102
RTVSPost2010PropOp55
 70
     1
102
RTVSPost2010Prop56
140
1.0
102
RTVSPost2010PropOp56
 70
     1
102
RTVSPost2010Prop57
140
1.0
102
RTVSPost2010PropOp57
 70
     1
102
RTVSPropertyOp0
 70
     1
102
RTVSPropertyOp1
 70
     1
102
RTVSPropertyOp2
 70
     1
102
RTVSPropertyOp3
 70
     1
102
RTVSPropertyOp4
 70
     1
102
RTVSPropertyOp5
 70
     1
102
RTVSPropertyOp6
 70
     1
102
RTVSPropertyOp7
 70
     1
102
RTVSPropertyOp8
 70
     1
102
RTVSPropertyOp9
 70
     1
102
RTVSPropertyOp10
 70
     1
102
RTVSPropertyOp11
 70
     1
102
RTVSPropertyOp12
 70
     1
102
RTVSPropertyOp13
 70
     1
102
RTVSPropertyOp14
 70
     1
102
RTVSPropertyOp15
 70
     1
102
RTVSPropertyOp16
 70
     1
102
RTVSPropertyOp17
 70
     1
102
RTVSPropertyOp18
 70
     1
102
RTVSPropertyOp19
 70
     1
102
RTVSPropertyOp20
 70
     1
102
RTVSPropertyOp21
 70
     1
102
RTVSPropertyOp22
 70
     1
102
RTVSPropertyOp23
 70
     1
102
RTVSPropertyOp24
 70
     1
102
RTVSPropertyOp25
 70
     1
102
RTVSPropertyOp26
 70
     1
102
RTVSPropertyOp27
 70
     1
102
RTVSPropertyOp28
 70
     1
102
RTVSPropertyOp29
 70
     1
102
RTVSPropertyOp30
 70
     1
102
RTVSPropertyOp31
 70
     1
102
RTVSPropertyOp32
 70
     1
102
RTVSPropertyOp33
 70
     1
102
RTVSPropertyOp34
 70
     1
102
RTVSPropertyOp35
 70
     1
102
RTVSPropertyOp36
 70
     1
102
RTVSPropertyOp37
 70
     1
102
RTVSPropertyOp38
 70
     1
102
RTVSPropertyOp39
 70
     1
102
RTVSPropertyOp40
 70
     1
102
RTVSPropertyOp41
 70
     1
102
RTVSPropertyOp42
 70
     1
102
RTVSPropertyOp43
 70
     1
102
RTVSPropertyOp44
 70
     1
102
RTVSPropertyOp45
 70
     1
102
RTVSPropertyOp46
 70
     1
102
RTVSPropertyOp47
 70
     1
102
RTVSPropertyOp48
 70
     1
102
RTVSPropertyOp49
 70
     1
102
RTVSPropertyOp50
 70
     1
102
RTVSPropertyOp51
 70
     0
102
RTVSPropertyOp52
 70
     0
102
RTVSPropertyOp53
 70
     1
102
RTVSPropertyOp54
 70
     1
102
RTVSPropertyOp55
 70
     1
102
RTVSPropertyOp56
 70
     1
102
RTVSPropertyOp57
 70
     1
102
RTVSPropertyOp58
 70
     1
102
RTVSPropertyOp59
 70
     1
102
RTVSPropertyOp60
 70
     1
102
RTVSPropertyOp61
 70
     1
102
RTVSPropertyOp62
 70
     1
  0
XRECORD
  5
C86
102
{ACAD_REACTORS
330
C85
102
}
330
C85
100
AcDbXrecord
280
     1
102
RTVSPost2010Prop28
280
     0
102
RTVSPost2010PropOp28
 70
     0
102
RTVSPost2010Prop29
280
     1
102
RTVSPost2010PropOp29
 70
     0
102
RTVSPost2010Prop30
280
     1
102
RTVSPost2010PropOp30
 70
     0
102
RTVSPost2010Prop31
280
     0
102
RTVSPost2010PropOp31
 70
     0
102
RTVSPost2010Prop32
280
     0
102
RTVSPost2010PropOp32
 70
     0
102
RTVSPost2010Prop33
280
     0
102
RTVSPost2010PropOp33
 70
     0
102
RTVSPost2010Prop34
280
     0
102
RTVSPost2010PropOp34
 70
     0
102
RTVSPost2010Prop35
280
     0
102
RTVSPost2010PropOp35
 70
     0
102
RTVSPost2010Prop36
280
     0
102
RTVSPost2010PropOp36
 70
     0
102
RTVSPost2010Prop37
 90
       50
102
RTVSPost2010PropOp37
 70
     0
102
RTVSPost2010Prop38
140
0.0
102
RTVSPost2010PropOp38
 70
     0
102
RTVSPost2010Prop39
140
1.0
102
RTVSPost2010PropOp39
 70
     0
102
RTVSPost2010Prop40
 90
        0
102
RTVSPost2010PropOp40
 70
     0
102
RTVSPost2010Prop41ColorIndex
 90
       18
102
RTVSPost2010Prop41ColorRGB
 90
        0
102
RTVSPost2010PropOp41
 70
     0
102
RTVSPost2010Prop42
 90
       50
102
RTVSPost2010PropOp42
 70
     0
102
RTVSPost2010Prop43
 90
        3
102
RTVSPost2010PropOp43
 70
     0
102
RTVSPost2010Prop44ColorIndex
 90
        5
102
RTVSPost2010Prop44ColorRGB
 90
      255
102
RTVSPost2010PropOp44
 70
     0
102
RTVSPost2010Prop45
280
     0
102
RTVSPost2010PropOp45
 70
     0
102
RTVSPost2010Prop46
 90
       50
102
RTVSPost2010PropOp46
 70
     0
102
RTVSPost2010Prop47
 90
       50
102
RTVSPost2010PropOp47
 70
     0
102
RTVSPost2010Prop48
 90
       50
102
RTVSPost2010PropOp48
 70
     0
102
RTVSPost2010Prop49
280
     0
102
RTVSPost2010PropOp49
 70
     0
102
RTVSPost2010Prop50
 90
       50
102
RTVSPost2010PropOp50
 70
     0
102
RTVSPost2010Prop51ColorIndex
 90
      256
102
RTVSPost2010Prop51ColorRGB
 90
-16777216
102
RTVSPost2010PropOp51
 70
     0
102
RTVSPost2010Prop52
140
1.0
102
RTVSPost2010PropOp52
 70
     0
102
RTVSPost2010Prop53
 90
        2
102
RTVSPost2010PropOp53
 70
     0
102
RTVSPost2010Prop54
  1
strokes_ogs.tif
102
RTVSPost2010PropOp54
 70
     0
102
RTVSPost2010Prop55
280
     0
102
RTVSPost2010PropOp55
 70
     0
102
RTVSPost2010Prop56
140
1.0
102
RTVSPost2010PropOp56
 70
     0
102
RTVSPost2010Prop57
140
1.0
102
RTVSPost2010PropOp57
 70
     0
102
RTVSPropertyOp0
 70
     0
102
RTVSPropertyOp1
 70
     0
102
RTVSPropertyOp2
 70
     0
102
RTVSPropertyOp3
 70
     0
102
RTVSPropertyOp4
 70
     0
102
RTVSPropertyOp5
 70
     0
102
RTVSPropertyOp6
 70
     0
102
RTVSPropertyOp7
 70
     0
102
RTVSPropertyOp8
 70
     0
102
RTVSPropertyOp9
 70
     0
102
RTVSPropertyOp10
 70
     0
102
RTVSPropertyOp11
 70
     0
102
RTVSPropertyOp12
 70
     0
102
RTVSPropertyOp13
 70
     0
102
RTVSPropertyOp14
 70
     2
102
RTVSPropertyOp15
 70
     0
102
RTVSPropertyOp16
 70
     0
102
RTVSPropertyOp17
 70
     0
102
RTVSPropertyOp18
 70
     0
102
RTVSPropertyOp19
 70
     0
102
RTVSPropertyOp20
 70
     0
102
RTVSPropertyOp21
 70
     0
102
RTVSPropertyOp22
 70
     0
102
RTVSPropertyOp23
 70
     0
102
RTVSPropertyOp24
 70
     0
102
RTVSPropertyOp25
 70
     0
102
RTVSPropertyOp26
 70
     0
102
RTVSPropertyOp27
 70
     0
102
RTVSPropertyOp28
 70
     0
102
RTVSPropertyOp29
 70
     0
102
RTVSPropertyOp30
 70
     0
102
RTVSPropertyOp31
 70
     0
102
RTVSPropertyOp32
 70
     0
102
RTVSPropertyOp33
 70
     0
102
RTVSPropertyOp34
 70
     0
102
RTVSPropertyOp35
 70
     0
102
RTVSPropertyOp36
 70
     0
102
RTVSPropertyOp37
 70
     0
102
RTVSPropertyOp38
 70
     0
102
RTVSPropertyOp39
 70
     0
102
RTVSPropertyOp40
 70
     0
102
RTVSPropertyOp41
 70
     0
102
RTVSPropertyOp42
 70
     0
102
RTVSPropertyOp43
 70
     0
102
RTVSPropertyOp44
 70
     0
102
RTVSPropertyOp45
 70
     0
102
RTVSPropertyOp46
 70
     0
102
RTVSPropertyOp47
 70
     0
102
RTVSPropertyOp48
 70
     0
102
RTVSPropertyOp49
 70
     0
102
RTVSPropertyOp50
 70
     0
102
RTVSPropertyOp51
 70
     0
102
RTVSPropertyOp52
 70
     0
102
RTVSPropertyOp53
 70
     0
102
RTVSPropertyOp54
 70
     0
102
RTVSPropertyOp55
 70
     0
102
RTVSPropertyOp56
 70
     0
102
RTVSPropertyOp57
 70
     0
102
RTVSPropertyOp58
 70
     0
102
RTVSPropertyOp59
 70
     0
102
RTVSPropertyOp60
 70
     0
102
RTVSPropertyOp61
 70
     0
102
RTVSPropertyOp62
 70
     0
  0
XRECORD
  5
C6C
102
{ACAD_REACTORS
330
C6B
102
}
330
C6B
100
AcDbXrecord
280
     1
102
RTVSPost2010Prop28
280
     0
102
RTVSPost2010PropOp28
 70
     1
102
RTVSPost2010Prop29
280
     1
102
RTVSPost2010PropOp29
 70
     1
102
RTVSPost2010Prop30
280
     1
102
RTVSPost2010PropOp30
 70
     1
102
RTVSPost2010Prop31
280
     0
102
RTVSPost2010PropOp31
 70
     1
102
RTVSPost2010Prop32
280
     0
102
RTVSPost2010PropOp32
 70
     1
102
RTVSPost2010Prop33
280
     0
102
RTVSPost2010PropOp33
 70
     1
102
RTVSPost2010Prop34
280
     0
102
RTVSPost2010PropOp34
 70
     1
102
RTVSPost2010Prop35
280
     0
102
RTVSPost2010PropOp35
 70
     1
102
RTVSPost2010Prop36
280
     0
102
RTVSPost2010PropOp36
 70
     1
102
RTVSPost2010Prop37
 90
       50
102
RTVSPost2010PropOp37
 70
     1
102
RTVSPost2010Prop38
140
0.0
102
RTVSPost2010PropOp38
 70
     1
102
RTVSPost2010Prop39
140
1.0
102
RTVSPost2010PropOp39
 70
     1
102
RTVSPost2010Prop40
 90
        0
102
RTVSPost2010PropOp40
 70
     1
102
RTVSPost2010Prop41ColorIndex
 90
       18
102
RTVSPost2010Prop41ColorRGB
 90
        0
102
RTVSPost2010PropOp41
 70
     1
102
RTVSPost2010Prop42
 90
       50
102
RTVSPost2010PropOp42
 70
     1
102
RTVSPost2010Prop43
 90
        3
102
RTVSPost2010PropOp43
 70
     1
102
RTVSPost2010Prop44ColorIndex
 90
        5
102
RTVSPost2010Prop44ColorRGB
 90
      255
102
RTVSPost2010PropOp44
 70
     1
102
RTVSPost2010Prop45
280
     0
102
RTVSPost2010PropOp45
 70
     1
102
RTVSPost2010Prop46
 90
       50
102
RTVSPost2010PropOp46
 70
     1
102
RTVSPost2010Prop47
 90
       50
102
RTVSPost2010PropOp47
 70
     1
102
RTVSPost2010Prop48
 90
       50
102
RTVSPost2010PropOp48
 70
     1
102
RTVSPost2010Prop49
280
     0
102
RTVSPost2010PropOp49
 70
     1
102
RTVSPost2010Prop50
 90
       50
102
RTVSPost2010PropOp50
 70
     1
102
RTVSPost2010Prop51ColorIndex
 90
      256
102
RTVSPost2010Prop51ColorRGB
 90
-16777216
102
RTVSPost2010PropOp51
 70
     0
102
RTVSPost2010Prop52
140
1.0
102
RTVSPost2010PropOp52
 70
     0
102
RTVSPost2010Prop53
 90
        2
102
RTVSPost2010PropOp53
 70
     1
102
RTVSPost2010Prop54
  1
strokes_ogs.tif
102
RTVSPost2010PropOp54
 70
     1
102
RTVSPost2010Prop55
280
     0
102
RTVSPost2010PropOp55
 70
     1
102
RTVSPost2010Prop56
140
1.0
102
RTVSPost2010PropOp56
 70
     1
102
RTVSPost2010Prop57
140
1.0
102
RTVSPost2010PropOp57
 70
     1
102
RTVSPropertyOp0
 70
     1
102
RTVSPropertyOp1
 70
     1
102
RTVSPropertyOp2
 70
     1
102
RTVSPropertyOp3
 70
     1
102
RTVSPropertyOp4
 70
     1
102
RTVSPropertyOp5
 70
     1
102
RTVSPropertyOp6
 70
     1
102
RTVSPropertyOp7
 70
     1
102
RTVSPropertyOp8
 70
     1
102
RTVSPropertyOp9
 70
     1
102
RTVSPropertyOp10
 70
     1
102
RTVSPropertyOp11
 70
     1
102
RTVSPropertyOp12
 70
     1
102
RTVSPropertyOp13
 70
     1
102
RTVSPropertyOp14
 70
     1
102
RTVSPropertyOp15
 70
     1
102
RTVSPropertyOp16
 70
     1
102
RTVSPropertyOp17
 70
     1
102
RTVSPropertyOp18
 70
     1
102
RTVSPropertyOp19
 70
     1
102
RTVSPropertyOp20
 70
     1
102
RTVSPropertyOp21
 70
     1
102
RTVSPropertyOp22
 70
     1
102
RTVSPropertyOp23
 70
     1
102
RTVSPropertyOp24
 70
     1
102
RTVSPropertyOp25
 70
     1
102
RTVSPropertyOp26
 70
     1
102
RTVSPropertyOp27
 70
     1
102
RTVSPropertyOp28
 70
     1
102
RTVSPropertyOp29
 70
     1
102
RTVSPropertyOp30
 70
     1
102
RTVSPropertyOp31
 70
     1
102
RTVSPropertyOp32
 70
     1
102
RTVSPropertyOp33
 70
     1
102
RTVSPropertyOp34
 70
     1
102
RTVSPropertyOp35
 70
     1
102
RTVSPropertyOp36
 70
     1
102
RTVSPropertyOp37
 70
     1
102
RTVSPropertyOp38
 70
     1
102
RTVSPropertyOp39
 70
     1
102
RTVSPropertyOp40
 70
     1
102
RTVSPropertyOp41
 70
     1
102
RTVSPropertyOp42
 70
     1
102
RTVSPropertyOp43
 70
     1
102
RTVSPropertyOp44
 70
     1
102
RTVSPropertyOp45
 70
     1
102
RTVSPropertyOp46
 70
     1
102
RTVSPropertyOp47
 70
     1
102
RTVSPropertyOp48
 70
     1
102
RTVSPropertyOp49
 70
     1
102
RTVSPropertyOp50
 70
     1
102
RTVSPropertyOp51
 70
     0
102
RTVSPropertyOp52
 70
     0
102
RTVSPropertyOp53
 70
     1
102
RTVSPropertyOp54
 70
     1
102
RTVSPropertyOp55
 70
     1
102
RTVSPropertyOp56
 70
     1
102
RTVSPropertyOp57
 70
     1
102
RTVSPropertyOp58
 70
     1
102
RTVSPropertyOp59
 70
     1
102
RTVSPropertyOp60
 70
     1
102
RTVSPropertyOp61
 70
     1
102
RTVSPropertyOp62
 70
     1
  0
XRECORD
  5
C82
102
{ACAD_REACTORS
330
C81
102
}
330
C81
100
AcDbXrecord
280
     1
102
RTVSPost2010Prop28
280
     0
102
RTVSPost2010PropOp28
 70
     1
102
RTVSPost2010Prop29
280
     1
102
RTVSPost2010PropOp29
 70
     1
102
RTVSPost2010Prop30
280
     1
102
RTVSPost2010PropOp30
 70
     1
102
RTVSPost2010Prop31
280
     0
102
RTVSPost2010PropOp31
 70
     1
102
RTVSPost2010Prop32
280
     0
102
RTVSPost2010PropOp32
 70
     1
102
RTVSPost2010Prop33
280
     0
102
RTVSPost2010PropOp33
 70
     1
102
RTVSPost2010Prop34
280
     0
102
RTVSPost2010PropOp34
 70
     1
102
RTVSPost2010Prop35
280
     0
102
RTVSPost2010PropOp35
 70
     1
102
RTVSPost2010Prop36
280
     0
102
RTVSPost2010PropOp36
 70
     1
102
RTVSPost2010Prop37
 90
       50
102
RTVSPost2010PropOp37
 70
     1
102
RTVSPost2010Prop38
140
0.0
102
RTVSPost2010PropOp38
 70
     1
102
RTVSPost2010Prop39
140
1.0
102
RTVSPost2010PropOp39
 70
     1
102
RTVSPost2010Prop40
 90
        0
102
RTVSPost2010PropOp40
 70
     1
102
RTVSPost2010Prop41ColorIndex
 90
       18
102
RTVSPost2010Prop41ColorRGB
 90
        0
102
RTVSPost2010PropOp41
 70
     1
102
RTVSPost2010Prop42
 90
       50
102
RTVSPost2010PropOp42
 70
     1
102
RTVSPost2010Prop43
 90
        3
102
RTVSPost2010PropOp43
 70
     1
102
RTVSPost2010Prop44ColorIndex
 90
        5
102
RTVSPost2010Prop44ColorRGB
 90
      255
102
RTVSPost2010PropOp44
 70
     1
102
RTVSPost2010Prop45
280
     0
102
RTVSPost2010PropOp45
 70
     1
102
RTVSPost2010Prop46
 90
       50
102
RTVSPost2010PropOp46
 70
     1
102
RTVSPost2010Prop47
 90
       50
102
RTVSPost2010PropOp47
 70
     1
102
RTVSPost2010Prop48
 90
       50
102
RTVSPost2010PropOp48
 70
     1
102
RTVSPost2010Prop49
280
     0
102
RTVSPost2010PropOp49
 70
     1
102
RTVSPost2010Prop50
 90
       50
102
RTVSPost2010PropOp50
 70
     1
102
RTVSPost2010Prop51ColorIndex
 90
      256
102
RTVSPost2010Prop51ColorRGB
 90
-16777216
102
RTVSPost2010PropOp51
 70
     0
102
RTVSPost2010Prop52
140
1.0
102
RTVSPost2010PropOp52
 70
     0
102
RTVSPost2010Prop53
 90
        2
102
RTVSPost2010PropOp53
 70
     1
102
RTVSPost2010Prop54
  1
strokes_ogs.tif
102
RTVSPost2010PropOp54
 70
     1
102
RTVSPost2010Prop55
280
     0
102
RTVSPost2010PropOp55
 70
     1
102
RTVSPost2010Prop56
140
1.0
102
RTVSPost2010PropOp56
 70
     1
102
RTVSPost2010Prop57
140
1.0
102
RTVSPost2010PropOp57
 70
     1
102
RTVSPropertyOp0
 70
     1
102
RTVSPropertyOp1
 70
     1
102
RTVSPropertyOp2
 70
     1
102
RTVSPropertyOp3
 70
     1
102
RTVSPropertyOp4
 70
     1
102
RTVSPropertyOp5
 70
     1
102
RTVSPropertyOp6
 70
     1
102
RTVSPropertyOp7
 70
     1
102
RTVSPropertyOp8
 70
     1
102
RTVSPropertyOp9
 70
     1
102
RTVSPropertyOp10
 70
     1
102
RTVSPropertyOp11
 70
     1
102
RTVSPropertyOp12
 70
     1
102
RTVSPropertyOp13
 70
     1
102
RTVSPropertyOp14
 70
     1
102
RTVSPropertyOp15
 70
     1
102
RTVSPropertyOp16
 70
     1
102
RTVSPropertyOp17
 70
     1
102
RTVSPropertyOp18
 70
     1
102
RTVSPropertyOp19
 70
     1
102
RTVSPropertyOp20
 70
     1
102
RTVSPropertyOp21
 70
     1
102
RTVSPropertyOp22
 70
     1
102
RTVSPropertyOp23
 70
     1
102
RTVSPropertyOp24
 70
     1
102
RTVSPropertyOp25
 70
     1
102
RTVSPropertyOp26
 70
     1
102
RTVSPropertyOp27
 70
     1
102
RTVSPropertyOp28
 70
     1
102
RTVSPropertyOp29
 70
     1
102
RTVSPropertyOp30
 70
     1
102
RTVSPropertyOp31
 70
     1
102
RTVSPropertyOp32
 70
     1
102
RTVSPropertyOp33
 70
     1
102
RTVSPropertyOp34
 70
     1
102
RTVSPropertyOp35
 70
     1
102
RTVSPropertyOp36
 70
     1
102
RTVSPropertyOp37
 70
     1
102
RTVSPropertyOp38
 70
     1
102
RTVSPropertyOp39
 70
     1
102
RTVSPropertyOp40
 70
     1
102
RTVSPropertyOp41
 70
     1
102
RTVSPropertyOp42
 70
     1
102
RTVSPropertyOp43
 70
     1
102
RTVSPropertyOp44
 70
     1
102
RTVSPropertyOp45
 70
     1
102
RTVSPropertyOp46
 70
     1
102
RTVSPropertyOp47
 70
     1
102
RTVSPropertyOp48
 70
     1
102
RTVSPropertyOp49
 70
     1
102
RTVSPropertyOp50
 70
     1
102
RTVSPropertyOp51
 70
     0
102
RTVSPropertyOp52
 70
     0
102
RTVSPropertyOp53
 70
     1
102
RTVSPropertyOp54
 70
     1
102
RTVSPropertyOp55
 70
     1
102
RTVSPropertyOp56
 70
     1
102
RTVSPropertyOp57
 70
     1
102
RTVSPropertyOp58
 70
     1
102
RTVSPropertyOp59
 70
     1
102
RTVSPropertyOp60
 70
     1
102
RTVSPropertyOp61
 70
     1
102
RTVSPropertyOp62
 70
     1
  0
XRECORD
  5
C80
102
{ACAD_REACTORS
330
C7F
102
}
330
C7F
100
AcDbXrecord
280
     1
102
RTVSPost2010Prop28
280
     0
102
RTVSPost2010PropOp28
 70
     1
102
RTVSPost2010Prop29
280
     1
102
RTVSPost2010PropOp29
 70
     1
102
RTVSPost2010Prop30
280
     1
102
RTVSPost2010PropOp30
 70
     1
102
RTVSPost2010Prop31
280
     0
102
RTVSPost2010PropOp31
 70
     1
102
RTVSPost2010Prop32
280
     0
102
RTVSPost2010PropOp32
 70
     1
102
RTVSPost2010Prop33
280
     0
102
RTVSPost2010PropOp33
 70
     1
102
RTVSPost2010Prop34
280
     0
102
RTVSPost2010PropOp34
 70
     1
102
RTVSPost2010Prop35
280
     0
102
RTVSPost2010PropOp35
 70
     1
102
RTVSPost2010Prop36
280
     0
102
RTVSPost2010PropOp36
 70
     1
102
RTVSPost2010Prop37
 90
       50
102
RTVSPost2010PropOp37
 70
     1
102
RTVSPost2010Prop38
140
0.0
102
RTVSPost2010PropOp38
 70
     1
102
RTVSPost2010Prop39
140
1.0
102
RTVSPost2010PropOp39
 70
     1
102
RTVSPost2010Prop40
 90
        0
102
RTVSPost2010PropOp40
 70
     1
102
RTVSPost2010Prop41ColorIndex
 90
       18
102
RTVSPost2010Prop41ColorRGB
 90
        0
102
RTVSPost2010PropOp41
 70
     1
102
RTVSPost2010Prop42
 90
       50
102
RTVSPost2010PropOp42
 70
     1
102
RTVSPost2010Prop43
 90
        3
102
RTVSPost2010PropOp43
 70
     1
102
RTVSPost2010Prop44ColorIndex
 90
        5
102
RTVSPost2010Prop44ColorRGB
 90
      255
102
RTVSPost2010PropOp44
 70
     1
102
RTVSPost2010Prop45
280
     0
102
RTVSPost2010PropOp45
 70
     1
102
RTVSPost2010Prop46
 90
       50
102
RTVSPost2010PropOp46
 70
     1
102
RTVSPost2010Prop47
 90
       50
102
RTVSPost2010PropOp47
 70
     1
102
RTVSPost2010Prop48
 90
       50
102
RTVSPost2010PropOp48
 70
     1
102
RTVSPost2010Prop49
280
     0
102
RTVSPost2010PropOp49
 70
     1
102
RTVSPost2010Prop50
 90
       50
102
RTVSPost2010PropOp50
 70
     1
102
RTVSPost2010Prop51ColorIndex
 90
      256
102
RTVSPost2010Prop51ColorRGB
 90
-16777216
102
RTVSPost2010PropOp51
 70
     0
102
RTVSPost2010Prop52
140
1.0
102
RTVSPost2010PropOp52
 70
     0
102
RTVSPost2010Prop53
 90
        2
102
RTVSPost2010PropOp53
 70
     1
102
RTVSPost2010Prop54
  1
strokes_ogs.tif
102
RTVSPost2010PropOp54
 70
     1
102
RTVSPost2010Prop55
280
     0
102
RTVSPost2010PropOp55
 70
     1
102
RTVSPost2010Prop56
140
1.0
102
RTVSPost2010PropOp56
 70
     1
102
RTVSPost2010Prop57
140
1.0
102
RTVSPost2010PropOp57
 70
     1
102
RTVSPropertyOp0
 70
     1
102
RTVSPropertyOp1
 70
     1
102
RTVSPropertyOp2
 70
     1
102
RTVSPropertyOp3
 70
     1
102
RTVSPropertyOp4
 70
     1
102
RTVSPropertyOp5
 70
     1
102
RTVSPropertyOp6
 70
     1
102
RTVSPropertyOp7
 70
     1
102
RTVSPropertyOp8
 70
     1
102
RTVSPropertyOp9
 70
     1
102
RTVSPropertyOp10
 70
     1
102
RTVSPropertyOp11
 70
     1
102
RTVSPropertyOp12
 70
     1
102
RTVSPropertyOp13
 70
     1
102
RTVSPropertyOp14
 70
     1
102
RTVSPropertyOp15
 70
     1
102
RTVSPropertyOp16
 70
     1
102
RTVSPropertyOp17
 70
     1
102
RTVSPropertyOp18
 70
     1
102
RTVSPropertyOp19
 70
     1
102
RTVSPropertyOp20
 70
     1
102
RTVSPropertyOp21
 70
     1
102
RTVSPropertyOp22
 70
     1
102
RTVSPropertyOp23
 70
     1
102
RTVSPropertyOp24
 70
     1
102
RTVSPropertyOp25
 70
     1
102
RTVSPropertyOp26
 70
     1
102
RTVSPropertyOp27
 70
     1
102
RTVSPropertyOp28
 70
     1
102
RTVSPropertyOp29
 70
     1
102
RTVSPropertyOp30
 70
     1
102
RTVSPropertyOp31
 70
     1
102
RTVSPropertyOp32
 70
     1
102
RTVSPropertyOp33
 70
     1
102
RTVSPropertyOp34
 70
     1
102
RTVSPropertyOp35
 70
     1
102
RTVSPropertyOp36
 70
     1
102
RTVSPropertyOp37
 70
     1
102
RTVSPropertyOp38
 70
     1
102
RTVSPropertyOp39
 70
     1
102
RTVSPropertyOp40
 70
     1
102
RTVSPropertyOp41
 70
     1
102
RTVSPropertyOp42
 70
     1
102
RTVSPropertyOp43
 70
     1
102
RTVSPropertyOp44
 70
     1
102
RTVSPropertyOp45
 70
     1
102
RTVSPropertyOp46
 70
     1
102
RTVSPropertyOp47
 70
     1
102
RTVSPropertyOp48
 70
     1
102
RTVSPropertyOp49
 70
     1
102
RTVSPropertyOp50
 70
     1
102
RTVSPropertyOp51
 70
     0
102
RTVSPropertyOp52
 70
     0
102
RTVSPropertyOp53
 70
     1
102
RTVSPropertyOp54
 70
     1
102
RTVSPropertyOp55
 70
     1
102
RTVSPropertyOp56
 70
     1
102
RTVSPropertyOp57
 70
     1
102
RTVSPropertyOp58
 70
     1
102
RTVSPropertyOp59
 70
     1
102
RTVSPropertyOp60
 70
     1
102
RTVSPropertyOp61
 70
     1
102
RTVSPropertyOp62
 70
     1
  0
XRECORD
  5
C7A
102
{ACAD_REACTORS
330
C79
102
}
330
C79
100
AcDbXrecord
280
     1
102
RTVSPost2010Prop28
280
     0
102
RTVSPost2010PropOp28
 70
     1
102
RTVSPost2010Prop29
280
     1
102
RTVSPost2010PropOp29
 70
     1
102
RTVSPost2010Prop30
280
     1
102
RTVSPost2010PropOp30
 70
     1
102
RTVSPost2010Prop31
280
     0
102
RTVSPost2010PropOp31
 70
     1
102
RTVSPost2010Prop32
280
     0
102
RTVSPost2010PropOp32
 70
     1
102
RTVSPost2010Prop33
280
     0
102
RTVSPost2010PropOp33
 70
     1
102
RTVSPost2010Prop34
280
     0
102
RTVSPost2010PropOp34
 70
     1
102
RTVSPost2010Prop35
280
     0
102
RTVSPost2010PropOp35
 70
     1
102
RTVSPost2010Prop36
280
     0
102
RTVSPost2010PropOp36
 70
     1
102
RTVSPost2010Prop37
 90
       50
102
RTVSPost2010PropOp37
 70
     1
102
RTVSPost2010Prop38
140
0.0
102
RTVSPost2010PropOp38
 70
     1
102
RTVSPost2010Prop39
140
1.0
102
RTVSPost2010PropOp39
 70
     1
102
RTVSPost2010Prop40
 90
        0
102
RTVSPost2010PropOp40
 70
     1
102
RTVSPost2010Prop41ColorIndex
 90
       18
102
RTVSPost2010Prop41ColorRGB
 90
        0
102
RTVSPost2010PropOp41
 70
     1
102
RTVSPost2010Prop42
 90
       50
102
RTVSPost2010PropOp42
 70
     1
102
RTVSPost2010Prop43
 90
        3
102
RTVSPost2010PropOp43
 70
     1
102
RTVSPost2010Prop44ColorIndex
 90
        5
102
RTVSPost2010Prop44ColorRGB
 90
      255
102
RTVSPost2010PropOp44
 70
     1
102
RTVSPost2010Prop45
280
     0
102
RTVSPost2010PropOp45
 70
     1
102
RTVSPost2010Prop46
 90
       50
102
RTVSPost2010PropOp46
 70
     1
102
RTVSPost2010Prop47
 90
       50
102
RTVSPost2010PropOp47
 70
     1
102
RTVSPost2010Prop48
 90
       50
102
RTVSPost2010PropOp48
 70
     1
102
RTVSPost2010Prop49
280
     0
102
RTVSPost2010PropOp49
 70
     1
102
RTVSPost2010Prop50
 90
       50
102
RTVSPost2010PropOp50
 70
     1
102
RTVSPost2010Prop51ColorIndex
 90
      256
102
RTVSPost2010Prop51ColorRGB
 90
-16777216
102
RTVSPost2010PropOp51
 70
     0
102
RTVSPost2010Prop52
140
1.0
102
RTVSPost2010PropOp52
 70
     0
102
RTVSPost2010Prop53
 90
        2
102
RTVSPost2010PropOp53
 70
     1
102
RTVSPost2010Prop54
  1
strokes_ogs.tif
102
RTVSPost2010PropOp54
 70
     1
102
RTVSPost2010Prop55
280
     0
102
RTVSPost2010PropOp55
 70
     1
102
RTVSPost2010Prop56
140
1.0
102
RTVSPost2010PropOp56
 70
     1
102
RTVSPost2010Prop57
140
1.0
102
RTVSPost2010PropOp57
 70
     1
102
RTVSPropertyOp0
 70
     1
102
RTVSPropertyOp1
 70
     1
102
RTVSPropertyOp2
 70
     1
102
RTVSPropertyOp3
 70
     1
102
RTVSPropertyOp4
 70
     1
102
RTVSPropertyOp5
 70
     1
102
RTVSPropertyOp6
 70
     1
102
RTVSPropertyOp7
 70
     1
102
RTVSPropertyOp8
 70
     1
102
RTVSPropertyOp9
 70
     1
102
RTVSPropertyOp10
 70
     1
102
RTVSPropertyOp11
 70
     1
102
RTVSPropertyOp12
 70
     1
102
RTVSPropertyOp13
 70
     1
102
RTVSPropertyOp14
 70
     1
102
RTVSPropertyOp15
 70
     1
102
RTVSPropertyOp16
 70
     1
102
RTVSPropertyOp17
 70
     1
102
RTVSPropertyOp18
 70
     1
102
RTVSPropertyOp19
 70
     1
102
RTVSPropertyOp20
 70
     1
102
RTVSPropertyOp21
 70
     1
102
RTVSPropertyOp22
 70
     1
102
RTVSPropertyOp23
 70
     1
102
RTVSPropertyOp24
 70
     1
102
RTVSPropertyOp25
 70
     1
102
RTVSPropertyOp26
 70
     1
102
RTVSPropertyOp27
 70
     1
102
RTVSPropertyOp28
 70
     1
102
RTVSPropertyOp29
 70
     1
102
RTVSPropertyOp30
 70
     1
102
RTVSPropertyOp31
 70
     1
102
RTVSPropertyOp32
 70
     1
102
RTVSPropertyOp33
 70
     1
102
RTVSPropertyOp34
 70
     1
102
RTVSPropertyOp35
 70
     1
102
RTVSPropertyOp36
 70
     1
102
RTVSPropertyOp37
 70
     1
102
RTVSPropertyOp38
 70
     1
102
RTVSPropertyOp39
 70
     1
102
RTVSPropertyOp40
 70
     1
102
RTVSPropertyOp41
 70
     1
102
RTVSPropertyOp42
 70
     1
102
RTVSPropertyOp43
 70
     1
102
RTVSPropertyOp44
 70
     1
102
RTVSPropertyOp45
 70
     1
102
RTVSPropertyOp46
 70
     1
102
RTVSPropertyOp47
 70
     1
102
RTVSPropertyOp48
 70
     1
102
RTVSPropertyOp49
 70
     1
102
RTVSPropertyOp50
 70
     1
102
RTVSPropertyOp51
 70
     0
102
RTVSPropertyOp52
 70
     0
102
RTVSPropertyOp53
 70
     1
102
RTVSPropertyOp54
 70
     1
102
RTVSPropertyOp55
 70
     1
102
RTVSPropertyOp56
 70
     1
102
RTVSPropertyOp57
 70
     1
102
RTVSPropertyOp58
 70
     1
102
RTVSPropertyOp59
 70
     1
102
RTVSPropertyOp60
 70
     1
102
RTVSPropertyOp61
 70
     1
102
RTVSPropertyOp62
 70
     1
  0
XRECORD
  5
C7C
102
{ACAD_REACTORS
330
C7B
102
}
330
C7B
100
AcDbXrecord
280
     1
102
RTVSPost2010Prop28
280
     0
102
RTVSPost2010PropOp28
 70
     1
102
RTVSPost2010Prop29
280
     1
102
RTVSPost2010PropOp29
 70
     1
102
RTVSPost2010Prop30
280
     1
102
RTVSPost2010PropOp30
 70
     1
102
RTVSPost2010Prop31
280
     0
102
RTVSPost2010PropOp31
 70
     1
102
RTVSPost2010Prop32
280
     0
102
RTVSPost2010PropOp32
 70
     1
102
RTVSPost2010Prop33
280
     0
102
RTVSPost2010PropOp33
 70
     1
102
RTVSPost2010Prop34
280
     0
102
RTVSPost2010PropOp34
 70
     1
102
RTVSPost2010Prop35
280
     0
102
RTVSPost2010PropOp35
 70
     1
102
RTVSPost2010Prop36
280
     0
102
RTVSPost2010PropOp36
 70
     1
102
RTVSPost2010Prop37
 90
       50
102
RTVSPost2010PropOp37
 70
     1
102
RTVSPost2010Prop38
140
0.0
102
RTVSPost2010PropOp38
 70
     1
102
RTVSPost2010Prop39
140
1.0
102
RTVSPost2010PropOp39
 70
     1
102
RTVSPost2010Prop40
 90
        0
102
RTVSPost2010PropOp40
 70
     1
102
RTVSPost2010Prop41ColorIndex
 90
       18
102
RTVSPost2010Prop41ColorRGB
 90
        0
102
RTVSPost2010PropOp41
 70
     1
102
RTVSPost2010Prop42
 90
       50
102
RTVSPost2010PropOp42
 70
     1
102
RTVSPost2010Prop43
 90
        3
102
RTVSPost2010PropOp43
 70
     1
102
RTVSPost2010Prop44ColorIndex
 90
        5
102
RTVSPost2010Prop44ColorRGB
 90
      255
102
RTVSPost2010PropOp44
 70
     1
102
RTVSPost2010Prop45
280
     0
102
RTVSPost2010PropOp45
 70
     1
102
RTVSPost2010Prop46
 90
       50
102
RTVSPost2010PropOp46
 70
     1
102
RTVSPost2010Prop47
 90
       50
102
RTVSPost2010PropOp47
 70
     1
102
RTVSPost2010Prop48
 90
       50
102
RTVSPost2010PropOp48
 70
     1
102
RTVSPost2010Prop49
280
     0
102
RTVSPost2010PropOp49
 70
     1
102
RTVSPost2010Prop50
 90
       50
102
RTVSPost2010PropOp50
 70
     1
102
RTVSPost2010Prop51ColorIndex
 90
      256
102
RTVSPost2010Prop51ColorRGB
 90
-16777216
102
RTVSPost2010PropOp51
 70
     0
102
RTVSPost2010Prop52
140
1.0
102
RTVSPost2010PropOp52
 70
     0
102
RTVSPost2010Prop53
 90
        2
102
RTVSPost2010PropOp53
 70
     1
102
RTVSPost2010Prop54
  1
strokes_ogs.tif
102
RTVSPost2010PropOp54
 70
     1
102
RTVSPost2010Prop55
280
     0
102
RTVSPost2010PropOp55
 70
     1
102
RTVSPost2010Prop56
140
1.0
102
RTVSPost2010PropOp56
 70
     1
102
RTVSPost2010Prop57
140
1.0
102
RTVSPost2010PropOp57
 70
     1
102
RTVSPropertyOp0
 70
     1
102
RTVSPropertyOp1
 70
     1
102
RTVSPropertyOp2
 70
     1
102
RTVSPropertyOp3
 70
     1
102
RTVSPropertyOp4
 70
     1
102
RTVSPropertyOp5
 70
     1
102
RTVSPropertyOp6
 70
     1
102
RTVSPropertyOp7
 70
     1
102
RTVSPropertyOp8
 70
     1
102
RTVSPropertyOp9
 70
     1
102
RTVSPropertyOp10
 70
     1
102
RTVSPropertyOp11
 70
     1
102
RTVSPropertyOp12
 70
     1
102
RTVSPropertyOp13
 70
     1
102
RTVSPropertyOp14
 70
     1
102
RTVSPropertyOp15
 70
     1
102
RTVSPropertyOp16
 70
     1
102
RTVSPropertyOp17
 70
     1
102
RTVSPropertyOp18
 70
     1
102
RTVSPropertyOp19
 70
     1
102
RTVSPropertyOp20
 70
     1
102
RTVSPropertyOp21
 70
     1
102
RTVSPropertyOp22
 70
     1
102
RTVSPropertyOp23
 70
     1
102
RTVSPropertyOp24
 70
     1
102
RTVSPropertyOp25
 70
     1
102
RTVSPropertyOp26
 70
     1
102
RTVSPropertyOp27
 70
     1
102
RTVSPropertyOp28
 70
     1
102
RTVSPropertyOp29
 70
     1
102
RTVSPropertyOp30
 70
     1
102
RTVSPropertyOp31
 70
     1
102
RTVSPropertyOp32
 70
     1
102
RTVSPropertyOp33
 70
     1
102
RTVSPropertyOp34
 70
     1
102
RTVSPropertyOp35
 70
     1
102
RTVSPropertyOp36
 70
     1
102
RTVSPropertyOp37
 70
     1
102
RTVSPropertyOp38
 70
     1
102
RTVSPropertyOp39
 70
     1
102
RTVSPropertyOp40
 70
     1
102
RTVSPropertyOp41
 70
     1
102
RTVSPropertyOp42
 70
     1
102
RTVSPropertyOp43
 70
     1
102
RTVSPropertyOp44
 70
     1
102
RTVSPropertyOp45
 70
     1
102
RTVSPropertyOp46
 70
     1
102
RTVSPropertyOp47
 70
     1
102
RTVSPropertyOp48
 70
     1
102
RTVSPropertyOp49
 70
     1
102
RTVSPropertyOp50
 70
     1
102
RTVSPropertyOp51
 70
     0
102
RTVSPropertyOp52
 70
     0
102
RTVSPropertyOp53
 70
     1
102
RTVSPropertyOp54
 70
     1
102
RTVSPropertyOp55
 70
     1
102
RTVSPropertyOp56
 70
     1
102
RTVSPropertyOp57
 70
     1
102
RTVSPropertyOp58
 70
     1
102
RTVSPropertyOp59
 70
     1
102
RTVSPropertyOp60
 70
     1
102
RTVSPropertyOp61
 70
     1
102
RTVSPropertyOp62
 70
     1
  0
XRECORD
  5
C72
102
{ACAD_REACTORS
330
C71
102
}
330
C71
100
AcDbXrecord
280
     1
102
RTVSPost2010Prop28
280
     0
102
RTVSPost2010PropOp28
 70
     1
102
RTVSPost2010Prop29
280
     1
102
RTVSPost2010PropOp29
 70
     1
102
RTVSPost2010Prop30
280
     1
102
RTVSPost2010PropOp30
 70
     1
102
RTVSPost2010Prop31
280
     0
102
RTVSPost2010PropOp31
 70
     1
102
RTVSPost2010Prop32
280
     0
102
RTVSPost2010PropOp32
 70
     1
102
RTVSPost2010Prop33
280
     0
102
RTVSPost2010PropOp33
 70
     1
102
RTVSPost2010Prop34
280
     0
102
RTVSPost2010PropOp34
 70
     1
102
RTVSPost2010Prop35
280
     0
102
RTVSPost2010PropOp35
 70
     1
102
RTVSPost2010Prop36
280
     0
102
RTVSPost2010PropOp36
 70
     1
102
RTVSPost2010Prop37
 90
       50
102
RTVSPost2010PropOp37
 70
     1
102
RTVSPost2010Prop38
140
0.0
102
RTVSPost2010PropOp38
 70
     1
102
RTVSPost2010Prop39
140
1.0
102
RTVSPost2010PropOp39
 70
     1
102
RTVSPost2010Prop40
 90
        0
102
RTVSPost2010PropOp40
 70
     1
102
RTVSPost2010Prop41ColorIndex
 90
       18
102
RTVSPost2010Prop41ColorRGB
 90
        0
102
RTVSPost2010PropOp41
 70
     1
102
RTVSPost2010Prop42
 90
       50
102
RTVSPost2010PropOp42
 70
     1
102
RTVSPost2010Prop43
 90
        3
102
RTVSPost2010PropOp43
 70
     1
102
RTVSPost2010Prop44ColorIndex
 90
        5
102
RTVSPost2010Prop44ColorRGB
 90
      255
102
RTVSPost2010PropOp44
 70
     1
102
RTVSPost2010Prop45
280
     0
102
RTVSPost2010PropOp45
 70
     1
102
RTVSPost2010Prop46
 90
       50
102
RTVSPost2010PropOp46
 70
     1
102
RTVSPost2010Prop47
 90
       50
102
RTVSPost2010PropOp47
 70
     1
102
RTVSPost2010Prop48
 90
       50
102
RTVSPost2010PropOp48
 70
     1
102
RTVSPost2010Prop49
280
     0
102
RTVSPost2010PropOp49
 70
     1
102
RTVSPost2010Prop50
 90
       50
102
RTVSPost2010PropOp50
 70
     1
102
RTVSPost2010Prop51ColorIndex
 90
      256
102
RTVSPost2010Prop51ColorRGB
 90
-16777216
102
RTVSPost2010PropOp51
 70
     0
102
RTVSPost2010Prop52
140
1.0
102
RTVSPost2010PropOp52
 70
     0
102
RTVSPost2010Prop53
 90
        2
102
RTVSPost2010PropOp53
 70
     1
102
RTVSPost2010Prop54
  1
strokes_ogs.tif
102
RTVSPost2010PropOp54
 70
     1
102
RTVSPost2010Prop55
280
     0
102
RTVSPost2010PropOp55
 70
     1
102
RTVSPost2010Prop56
140
1.0
102
RTVSPost2010PropOp56
 70
     1
102
RTVSPost2010Prop57
140
1.0
102
RTVSPost2010PropOp57
 70
     1
102
RTVSPropertyOp0
 70
     1
102
RTVSPropertyOp1
 70
     1
102
RTVSPropertyOp2
 70
     1
102
RTVSPropertyOp3
 70
     1
102
RTVSPropertyOp4
 70
     1
102
RTVSPropertyOp5
 70
     1
102
RTVSPropertyOp6
 70
     1
102
RTVSPropertyOp7
 70
     1
102
RTVSPropertyOp8
 70
     1
102
RTVSPropertyOp9
 70
     1
102
RTVSPropertyOp10
 70
     1
102
RTVSPropertyOp11
 70
     1
102
RTVSPropertyOp12
 70
     1
102
RTVSPropertyOp13
 70
     1
102
RTVSPropertyOp14
 70
     1
102
RTVSPropertyOp15
 70
     1
102
RTVSPropertyOp16
 70
     1
102
RTVSPropertyOp17
 70
     1
102
RTVSPropertyOp18
 70
     1
102
RTVSPropertyOp19
 70
     1
102
RTVSPropertyOp20
 70
     1
102
RTVSPropertyOp21
 70
     1
102
RTVSPropertyOp22
 70
     1
102
RTVSPropertyOp23
 70
     1
102
RTVSPropertyOp24
 70
     1
102
RTVSPropertyOp25
 70
     1
102
RTVSPropertyOp26
 70
     1
102
RTVSPropertyOp27
 70
     1
102
RTVSPropertyOp28
 70
     1
102
RTVSPropertyOp29
 70
     1
102
RTVSPropertyOp30
 70
     1
102
RTVSPropertyOp31
 70
     1
102
RTVSPropertyOp32
 70
     1
102
RTVSPropertyOp33
 70
     1
102
RTVSPropertyOp34
 70
     1
102
RTVSPropertyOp35
 70
     1
102
RTVSPropertyOp36
 70
     1
102
RTVSPropertyOp37
 70
     1
102
RTVSPropertyOp38
 70
     1
102
RTVSPropertyOp39
 70
     1
102
RTVSPropertyOp40
 70
     1
102
RTVSPropertyOp41
 70
     1
102
RTVSPropertyOp42
 70
     1
102
RTVSPropertyOp43
 70
     1
102
RTVSPropertyOp44
 70
     1
102
RTVSPropertyOp45
 70
     1
102
RTVSPropertyOp46
 70
     1
102
RTVSPropertyOp47
 70
     1
102
RTVSPropertyOp48
 70
     1
102
RTVSPropertyOp49
 70
     1
102
RTVSPropertyOp50
 70
     1
102
RTVSPropertyOp51
 70
     0
102
RTVSPropertyOp52
 70
     0
102
RTVSPropertyOp53
 70
     1
102
RTVSPropertyOp54
 70
     1
102
RTVSPropertyOp55
 70
     1
102
RTVSPropertyOp56
 70
     1
102
RTVSPropertyOp57
 70
     1
102
RTVSPropertyOp58
 70
     1
102
RTVSPropertyOp59
 70
     1
102
RTVSPropertyOp60
 70
     1
102
RTVSPropertyOp61
 70
     1
102
RTVSPropertyOp62
 70
     1
  0
XRECORD
  5
C66
102
{ACAD_REACTORS
330
C65
102
}
330
C65
100
AcDbXrecord
280
     1
102
RTVSPost2010Prop28
280
     0
102
RTVSPost2010PropOp28
 70
     1
102
RTVSPost2010Prop29
280
     1
102
RTVSPost2010PropOp29
 70
     1
102
RTVSPost2010Prop30
280
     1
102
RTVSPost2010PropOp30
 70
     1
102
RTVSPost2010Prop31
280
     0
102
RTVSPost2010PropOp31
 70
     1
102
RTVSPost2010Prop32
280
     0
102
RTVSPost2010PropOp32
 70
     1
102
RTVSPost2010Prop33
280
     0
102
RTVSPost2010PropOp33
 70
     1
102
RTVSPost2010Prop34
280
     0
102
RTVSPost2010PropOp34
 70
     1
102
RTVSPost2010Prop35
280
     0
102
RTVSPost2010PropOp35
 70
     1
102
RTVSPost2010Prop36
280
     0
102
RTVSPost2010PropOp36
 70
     1
102
RTVSPost2010Prop37
 90
       50
102
RTVSPost2010PropOp37
 70
     1
102
RTVSPost2010Prop38
140
0.0
102
RTVSPost2010PropOp38
 70
     1
102
RTVSPost2010Prop39
140
1.0
102
RTVSPost2010PropOp39
 70
     1
102
RTVSPost2010Prop40
 90
        0
102
RTVSPost2010PropOp40
 70
     1
102
RTVSPost2010Prop41ColorIndex
 90
       18
102
RTVSPost2010Prop41ColorRGB
 90
        0
102
RTVSPost2010PropOp41
 70
     1
102
RTVSPost2010Prop42
 90
       50
102
RTVSPost2010PropOp42
 70
     1
102
RTVSPost2010Prop43
 90
        3
102
RTVSPost2010PropOp43
 70
     1
102
RTVSPost2010Prop44ColorIndex
 90
        5
102
RTVSPost2010Prop44ColorRGB
 90
      255
102
RTVSPost2010PropOp44
 70
     1
102
RTVSPost2010Prop45
280
     0
102
RTVSPost2010PropOp45
 70
     1
102
RTVSPost2010Prop46
 90
       50
102
RTVSPost2010PropOp46
 70
     1
102
RTVSPost2010Prop47
 90
       50
102
RTVSPost2010PropOp47
 70
     1
102
RTVSPost2010Prop48
 90
       50
102
RTVSPost2010PropOp48
 70
     1
102
RTVSPost2010Prop49
280
     0
102
RTVSPost2010PropOp49
 70
     1
102
RTVSPost2010Prop50
 90
       50
102
RTVSPost2010PropOp50
 70
     1
102
RTVSPost2010Prop51ColorIndex
 90
      256
102
RTVSPost2010Prop51ColorRGB
 90
-16777216
102
RTVSPost2010PropOp51
 70
     0
102
RTVSPost2010Prop52
140
1.0
102
RTVSPost2010PropOp52
 70
     0
102
RTVSPost2010Prop53
 90
        2
102
RTVSPost2010PropOp53
 70
     1
102
RTVSPost2010Prop54
  1
strokes_ogs.tif
102
RTVSPost2010PropOp54
 70
     1
102
RTVSPost2010Prop55
280
     0
102
RTVSPost2010PropOp55
 70
     1
102
RTVSPost2010Prop56
140
1.0
102
RTVSPost2010PropOp56
 70
     1
102
RTVSPost2010Prop57
140
1.0
102
RTVSPost2010PropOp57
 70
     1
102
RTVSPropertyOp0
 70
     1
102
RTVSPropertyOp1
 70
     1
102
RTVSPropertyOp2
 70
     1
102
RTVSPropertyOp3
 70
     1
102
RTVSPropertyOp4
 70
     1
102
RTVSPropertyOp5
 70
     1
102
RTVSPropertyOp6
 70
     1
102
RTVSPropertyOp7
 70
     1
102
RTVSPropertyOp8
 70
     1
102
RTVSPropertyOp9
 70
     1
102
RTVSPropertyOp10
 70
     1
102
RTVSPropertyOp11
 70
     1
102
RTVSPropertyOp12
 70
     1
102
RTVSPropertyOp13
 70
     1
102
RTVSPropertyOp14
 70
     1
102
RTVSPropertyOp15
 70
     1
102
RTVSPropertyOp16
 70
     1
102
RTVSPropertyOp17
 70
     1
102
RTVSPropertyOp18
 70
     1
102
RTVSPropertyOp19
 70
     1
102
RTVSPropertyOp20
 70
     1
102
RTVSPropertyOp21
 70
     1
102
RTVSPropertyOp22
 70
     1
102
RTVSPropertyOp23
 70
     1
102
RTVSPropertyOp24
 70
     1
102
RTVSPropertyOp25
 70
     1
102
RTVSPropertyOp26
 70
     1
102
RTVSPropertyOp27
 70
     1
102
RTVSPropertyOp28
 70
     1
102
RTVSPropertyOp29
 70
     1
102
RTVSPropertyOp30
 70
     1
102
RTVSPropertyOp31
 70
     1
102
RTVSPropertyOp32
 70
     1
102
RTVSPropertyOp33
 70
     1
102
RTVSPropertyOp34
 70
     1
102
RTVSPropertyOp35
 70
     1
102
RTVSPropertyOp36
 70
     1
102
RTVSPropertyOp37
 70
     1
102
RTVSPropertyOp38
 70
     1
102
RTVSPropertyOp39
 70
     1
102
RTVSPropertyOp40
 70
     1
102
RTVSPropertyOp41
 70
     1
102
RTVSPropertyOp42
 70
     1
102
RTVSPropertyOp43
 70
     1
102
RTVSPropertyOp44
 70
     1
102
RTVSPropertyOp45
 70
     1
102
RTVSPropertyOp46
 70
     1
102
RTVSPropertyOp47
 70
     1
102
RTVSPropertyOp48
 70
     1
102
RTVSPropertyOp49
 70
     1
102
RTVSPropertyOp50
 70
     1
102
RTVSPropertyOp51
 70
     0
102
RTVSPropertyOp52
 70
     0
102
RTVSPropertyOp53
 70
     1
102
RTVSPropertyOp54
 70
     1
102
RTVSPropertyOp55
 70
     1
102
RTVSPropertyOp56
 70
     1
102
RTVSPropertyOp57
 70
     1
102
RTVSPropertyOp58
 70
     1
102
RTVSPropertyOp59
 70
     1
102
RTVSPropertyOp60
 70
     1
102
RTVSPropertyOp61
 70
     1
102
RTVSPropertyOp62
 70
     1
  0
XRECORD
  5
C7E
102
{ACAD_REACTORS
330
C7D
102
}
330
C7D
100
AcDbXrecord
280
     1
102
RTVSPost2010Prop28
280
     0
102
RTVSPost2010PropOp28
 70
     1
102
RTVSPost2010Prop29
280
     1
102
RTVSPost2010PropOp29
 70
     1
102
RTVSPost2010Prop30
280
     1
102
RTVSPost2010PropOp30
 70
     1
102
RTVSPost2010Prop31
280
     0
102
RTVSPost2010PropOp31
 70
     1
102
RTVSPost2010Prop32
280
     0
102
RTVSPost2010PropOp32
 70
     1
102
RTVSPost2010Prop33
280
     0
102
RTVSPost2010PropOp33
 70
     1
102
RTVSPost2010Prop34
280
     0
102
RTVSPost2010PropOp34
 70
     1
102
RTVSPost2010Prop35
280
     0
102
RTVSPost2010PropOp35
 70
     1
102
RTVSPost2010Prop36
280
     0
102
RTVSPost2010PropOp36
 70
     1
102
RTVSPost2010Prop37
 90
       50
102
RTVSPost2010PropOp37
 70
     1
102
RTVSPost2010Prop38
140
0.0
102
RTVSPost2010PropOp38
 70
     1
102
RTVSPost2010Prop39
140
1.0
102
RTVSPost2010PropOp39
 70
     1
102
RTVSPost2010Prop40
 90
        0
102
RTVSPost2010PropOp40
 70
     1
102
RTVSPost2010Prop41ColorIndex
 90
       18
102
RTVSPost2010Prop41ColorRGB
 90
        0
102
RTVSPost2010PropOp41
 70
     1
102
RTVSPost2010Prop42
 90
       50
102
RTVSPost2010PropOp42
 70
     1
102
RTVSPost2010Prop43
 90
        3
102
RTVSPost2010PropOp43
 70
     1
102
RTVSPost2010Prop44ColorIndex
 90
        5
102
RTVSPost2010Prop44ColorRGB
 90
      255
102
RTVSPost2010PropOp44
 70
     1
102
RTVSPost2010Prop45
280
     0
102
RTVSPost2010PropOp45
 70
     1
102
RTVSPost2010Prop46
 90
       50
102
RTVSPost2010PropOp46
 70
     1
102
RTVSPost2010Prop47
 90
       50
102
RTVSPost2010PropOp47
 70
     1
102
RTVSPost2010Prop48
 90
       50
102
RTVSPost2010PropOp48
 70
     1
102
RTVSPost2010Prop49
280
     0
102
RTVSPost2010PropOp49
 70
     1
102
RTVSPost2010Prop50
 90
       50
102
RTVSPost2010PropOp50
 70
     1
102
RTVSPost2010Prop51ColorIndex
 90
      256
102
RTVSPost2010Prop51ColorRGB
 90
-16777216
102
RTVSPost2010PropOp51
 70
     0
102
RTVSPost2010Prop52
140
1.0
102
RTVSPost2010PropOp52
 70
     0
102
RTVSPost2010Prop53
 90
        2
102
RTVSPost2010PropOp53
 70
     1
102
RTVSPost2010Prop54
  1
strokes_ogs.tif
102
RTVSPost2010PropOp54
 70
     1
102
RTVSPost2010Prop55
280
     0
102
RTVSPost2010PropOp55
 70
     1
102
RTVSPost2010Prop56
140
1.0
102
RTVSPost2010PropOp56
 70
     1
102
RTVSPost2010Prop57
140
1.0
102
RTVSPost2010PropOp57
 70
     1
102
RTVSPropertyOp0
 70
     1
102
RTVSPropertyOp1
 70
     1
102
RTVSPropertyOp2
 70
     1
102
RTVSPropertyOp3
 70
     1
102
RTVSPropertyOp4
 70
     1
102
RTVSPropertyOp5
 70
     1
102
RTVSPropertyOp6
 70
     1
102
RTVSPropertyOp7
 70
     1
102
RTVSPropertyOp8
 70
     1
102
RTVSPropertyOp9
 70
     1
102
RTVSPropertyOp10
 70
     1
102
RTVSPropertyOp11
 70
     1
102
RTVSPropertyOp12
 70
     1
102
RTVSPropertyOp13
 70
     1
102
RTVSPropertyOp14
 70
     1
102
RTVSPropertyOp15
 70
     1
102
RTVSPropertyOp16
 70
     1
102
RTVSPropertyOp17
 70
     1
102
RTVSPropertyOp18
 70
     1
102
RTVSPropertyOp19
 70
     1
102
RTVSPropertyOp20
 70
     1
102
RTVSPropertyOp21
 70
     1
102
RTVSPropertyOp22
 70
     1
102
RTVSPropertyOp23
 70
     1
102
RTVSPropertyOp24
 70
     1
102
RTVSPropertyOp25
 70
     1
102
RTVSPropertyOp26
 70
     1
102
RTVSPropertyOp27
 70
     1
102
RTVSPropertyOp28
 70
     1
102
RTVSPropertyOp29
 70
     1
102
RTVSPropertyOp30
 70
     1
102
RTVSPropertyOp31
 70
     1
102
RTVSPropertyOp32
 70
     1
102
RTVSPropertyOp33
 70
     1
102
RTVSPropertyOp34
 70
     1
102
RTVSPropertyOp35
 70
     1
102
RTVSPropertyOp36
 70
     1
102
RTVSPropertyOp37
 70
     1
102
RTVSPropertyOp38
 70
     1
102
RTVSPropertyOp39
 70
     1
102
RTVSPropertyOp40
 70
     1
102
RTVSPropertyOp41
 70
     1
102
RTVSPropertyOp42
 70
     1
102
RTVSPropertyOp43
 70
     1
102
RTVSPropertyOp44
 70
     1
102
RTVSPropertyOp45
 70
     1
102
RTVSPropertyOp46
 70
     1
102
RTVSPropertyOp47
 70
     1
102
RTVSPropertyOp48
 70
     1
102
RTVSPropertyOp49
 70
     1
102
RTVSPropertyOp50
 70
     1
102
RTVSPropertyOp51
 70
     0
102
RTVSPropertyOp52
 70
     0
102
RTVSPropertyOp53
 70
     1
102
RTVSPropertyOp54
 70
     1
102
RTVSPropertyOp55
 70
     1
102
RTVSPropertyOp56
 70
     1
102
RTVSPropertyOp57
 70
     1
102
RTVSPropertyOp58
 70
     1
102
RTVSPropertyOp59
 70
     1
102
RTVSPropertyOp60
 70
     1
102
RTVSPropertyOp61
 70
     1
102
RTVSPropertyOp62
 70
     1
  0
ENDSEC
  0
EOF
