  0
SECTION
  2
HEADER
  9
$ACADVER
  1
AC1018
  9
$ACADMAINTVER
 70
     2
  9
$DWGCODEPAGE
  3
ANSI_1252
  9
$INSBASE
 10
0.0
 20
0.0
 30
0.0
  9
$EXTMIN
 10
-0.0128100481844058
 20
-0.0181170681471485
 30
-0.0000000000000053
  9
$EXTMAX
 10
420.0128212946063
 20
594.0181329738
 30
0.0000000000000099
  9
$LIMMIN
 10
0.0
 20
0.0
  9
$LIMMAX
 10
419.9999999999999
 20
594.0
  9
$ORTHOMODE
 70
     1
  9
$REGENMODE
 70
     1
  9
$FILLMODE
 70
     1
  9
$QTEXTMODE
 70
     0
  9
$MIRRTEXT
 70
     1
  9
$LTSCALE
 40
20.0
  9
$ATTMODE
 70
     1
  9
$TEXTSIZE
 40
3.5
  9
$TRACEWID
 40
0.5
  9
$TEXTSTYLE
  7
STANDARD
  9
$CLAYER
  8
SCHRAFF
  9
$CELTYPE
  6
ByLayer
  9
$CECOLOR
 62
   256
  9
$CELTSCALE
 40
1.0
  9
$DISPSILH
 70
     0
  9
$DIMSCALE
 40
2.0
  9
$DIMASZ
 40
3.5
  9
$DIMEXO
 40
1.0
  9
$DIMDLI
 40
7.0
  9
$DIMRND
 40
0.0
  9
$DIMDLE
 40
0.0
  9
$DIMEXE
 40
1.0
  9
$DIMTP
 40
0.0
  9
$DIMTM
 40
0.0
  9
$DIMTXT
 40
3.5
  9
$DIMCEN
 40
1.5
  9
$DIMTSZ
 40
0.0
  9
$DIMTOL
 70
     0
  9
$DIMLIM
 70
     0
  9
$DIMTIH
 70
     0
  9
$DIMTOH
 70
     0
  9
$DIMSE1
 70
     0
  9
$DIMSE2
 70
     0
  9
$DIMTAD
 70
     1
  9
$DIMZIN
 70
     8
  9
$DIMBLK
  1

  9
$DIMASO
 70
     1
  9
$DIMSHO
 70
     0
  9
$DIMPOST
  1

  9
$DIMAPOST
  1

  9
$DIMALT
 70
     0
  9
$DIMALTD
 70
     2
  9
$DIMALTF
 40
25.4
  9
$DIMLFAC
 40
1.0
  9
$DIMTOFL
 70
     1
  9
$DIMTVP
 40
0.0
  9
$DIMTIX
 70
     0
  9
$DIMSOXD
 70
     0
  9
$DIMSAH
 70
     0
  9
$DIMBLK1
  1

  9
$DIMBLK2
  1

  9
$DIMSTYLE
  2
Standard
  9
$DIMCLRD
 70
     0
  9
$DIMCLRE
 70
     0
  9
$DIMCLRT
 70
     1
  9
$DIMTFAC
 40
0.5142857142857144
  9
$DIMGAP
 40
1.5
  9
$DIMJUST
 70
     0
  9
$DIMSD1
 70
     0
  9
$DIMSD2
 70
     0
  9
$DIMTOLJ
 70
     1
  9
$DIMTZIN
 70
     8
  9
$DIMALTZ
 70
     8
  9
$DIMALTTZ
 70
     8
  9
$DIMUPT
 70
     0
  9
$DIMDEC
 70
     2
  9
$DIMTDEC
 70
     2
  9
$DIMALTU
 70
     2
  9
$DIMALTTD
 70
     2
  9
$DIMTXSTY
  7
STANDARD
  9
$DIMAUNIT
 70
     0
  9
$DIMADEC
 70
     2
  9
$DIMALTRND
 40
0.0
  9
$DIMAZIN
 70
     2
  9
$DIMDSEP
 70
    46
  9
$DIMATFIT
 70
     3
  9
$DIMFRAC
 70
     0
  9
$DIMLDRBLK
  1

  9
$DIMLUNIT
 70
     2
  9
$DIMLWD
 70
    -2
  9
$DIMLWE
 70
    -2
  9
$DIMTMOVE
 70
     0
  9
$LUNITS
 70
     2
  9
$LUPREC
 70
     2
  9
$SKETCHINC
 40
1.0
  9
$FILLETRAD
 40
13.2
  9
$AUNITS
 70
     0
  9
$AUPREC
 70
     0
  9
$MENU
  1
ACAD
  9
$ELEVATION
 40
0.0
  9
$PELEVATION
 40
0.0
  9
$THICKNESS
 40
0.0
  9
$LIMCHECK
 70
     0
  9
$CHAMFERA
 40
0.0
  9
$CHAMFERB
 40
0.0
  9
$CHAMFERC
 40
0.0
  9
$CHAMFERD
 40
0.0
  9
$SKPOLY
 70
     0
  9
$TDCREATE
 40
2455397.864709028
  9
$TDUCREATE
 40
2455397.781375695
  9
$TDUPDATE
 40
2456094.348247928
  9
$TDUUPDATE
 40
2456094.264914595
  9
$TDINDWG
 40
0.1708986690
  9
$TDUSRTIMER
 40
0.1708986690
  9
$USRTIMER
 70
     1
  9
$ANGBASE
 50
0.0
  9
$ANGDIR
 70
     0
  9
$PDMODE
 70
     0
  9
$PDSIZE
 40
0.0
  9
$PLINEWID
 40
0.0
  9
$SPLFRAME
 70
     0
  9
$SPLINETYPE
 70
     6
  9
$SPLINESEGS
 70
     8
  9
$HANDSEED
  5
178C
  9
$SURFTAB1
 70
     6
  9
$SURFTAB2
 70
     6
  9
$SURFTYPE
 70
     6
  9
$SURFU
 70
     6
  9
$SURFV
 70
     6
  9
$UCSBASE
  2

  9
$UCSNAME
  2

  9
$UCSORG
 10
0.0
 20
0.0
 30
0.0
  9
$UCSXDIR
 10
1.0
 20
0.0
 30
0.0
  9
$UCSYDIR
 10
0.0
 20
1.0
 30
0.0
  9
$UCSORTHOREF
  2

  9
$UCSORTHOVIEW
 70
     0
  9
$UCSORGTOP
 10
0.0
 20
0.0
 30
0.0
  9
$UCSORGBOTTOM
 10
0.0
 20
0.0
 30
0.0
  9
$UCSORGLEFT
 10
0.0
 20
0.0
 30
0.0
  9
$UCSORGRIGHT
 10
0.0
 20
0.0
 30
0.0
  9
$UCSORGFRONT
 10
0.0
 20
0.0
 30
0.0
  9
$UCSORGBACK
 10
0.0
 20
0.0
 30
0.0
  9
$PUCSBASE
  2

  9
$PUCSNAME
  2

  9
$PUCSORG
 10
0.0
 20
0.0
 30
0.0
  9
$PUCSXDIR
 10
1.0
 20
0.0
 30
0.0
  9
$PUCSYDIR
 10
0.0
 20
1.0
 30
0.0
  9
$PUCSORTHOREF
  2

  9
$PUCSORTHOVIEW
 70
     0
  9
$PUCSORGTOP
 10
0.0
 20
0.0
 30
0.0
  9
$PUCSORGBOTTOM
 10
0.0
 20
0.0
 30
0.0
  9
$PUCSORGLEFT
 10
0.0
 20
0.0
 30
0.0
  9
$PUCSORGRIGHT
 10
0.0
 20
0.0
 30
0.0
  9
$PUCSORGFRONT
 10
0.0
 20
0.0
 30
0.0
  9
$PUCSORGBACK
 10
0.0
 20
0.0
 30
0.0
  9
$USERI1
 70
     0
  9
$USERI2
 70
     0
  9
$USERI3
 70
     0
  9
$USERI4
 70
     0
  9
$USERI5
 70
     0
  9
$USERR1
 40
0.0
  9
$USERR2
 40
0.0
  9
$USERR3
 40
0.0
  9
$USERR4
 40
0.0
  9
$USERR5
 40
0.0
  9
$WORLDVIEW
 70
     1
  9
$SHADEDGE
 70
     3
  9
$SHADEDIF
 70
    70
  9
$TILEMODE
 70
     1
  9
$MAXACTVP
 70
    16
  9
$PINSBASE
 10
0.0
 20
0.0
 30
0.0
  9
$PLIMCHECK
 70
     0
  9
$PEXTMIN
 10
1.000000000000000E+20
 20
1.000000000000000E+20
 30
1.000000000000000E+20
  9
$PEXTMAX
 10
-1.000000000000000E+20
 20
-1.000000000000000E+20
 30
-1.000000000000000E+20
  9
$PLIMMIN
 10
0.0
 20
0.0
  9
$PLIMMAX
 10
12.0
 20
9.0
  9
$UNITMODE
 70
     0
  9
$VISRETAIN
 70
     0
  9
$PLINEGEN
 70
     0
  9
$PSLTSCALE
 70
     0
  9
$TREEDEPTH
 70
  3020
  9
$CMLSTYLE
  2
Standard
  9
$CMLJUST
 70
     0
  9
$CMLSCALE
 40
1.0
  9
$PROXYGRAPHICS
 70
     1
  9
$MEASUREMENT
 70
     0
  9
$CELWEIGHT
370
    -1
  9
$ENDCAPS
280
     0
  9
$JOINSTYLE
280
     0
  9
$LWDISPLAY
290
     0
  9
$INSUNITS
 70
     0
  9
$HYPERLINKBASE
  1

  9
$STYLESHEET
  1
monochrome 1.ctb
  9
$XEDIT
290
     1
  9
$CEPSNTYPE
380
     0
  9
$PSTYLEMODE
290
     1
  9
$FINGERPRINTGUID
  2
{D68B0D02-A558-11D7-B632-000102183313}
  9
$VERSIONGUID
  2
{BF6C4427-0709-4CA5-8D58-DEB54653F6BB}
  9
$EXTNAMES
290
     1
  9
$PSVPSCALE
 40
0.0
  9
$OLESTARTUP
290
     0
  9
$SORTENTS
280
   127
  9
$INDEXCTL
280
     0
  9
$HIDETEXT
280
     0
  9
$XCLIPFRAME
290
     0
  9
$HALOGAP
280
     0
  9
$OBSCOLOR
 70
   257
  9
$OBSLTYPE
280
     0
  9
$INTERSECTIONDISPLAY
280
     0
  9
$INTERSECTIONCOLOR
 70
   257
  9
$DIMASSOC
280
     1
  9
$PROJECTNAME
  1

  0
ENDSEC
  0
SECTION
  2
CLASSES
  0
CLASS
  1
ACDBDICTIONARYWDFLT
  2
AcDbDictionaryWithDefault
  3
ObjectDBX Classes
 90
        0
 91
        1
280
     0
281
     0
  0
CLASS
  1
DICTIONARYVAR
  2
AcDbDictionaryVar
  3
ObjectDBX Classes
 90
        0
 91
        2
280
     0
281
     0
  0
ENDSEC
  0
SECTION
  2
TABLES
  0
TABLE
  2
VPORT
  5
8
330
0
100
AcDbSymbolTable
 70
     3
  0
VPORT
  5
178B
330
8
100
AcDbSymbolTableRecord
100
AcDbViewportTableRecord
  2
*Active
 70
     0
 10
0.0
 20
0.0
 11
1.0
 21
1.0
 12
210.0
 22
297.0
 13
0.0
 23
0.0
 14
1.0
 24
1.0
 15
10.0
 25
10.0
 16
0.0
 26
0.0
 36
1.0
 17
0.0
 27
0.0
 37
0.0
 40
594.0
 41
1.374331550802138
 42
50.0
 43
0.0
 44
0.0
 50
0.0
 51
0.0
 71
     0
 72
  1500
 73
     1
 74
     0
 75
     0
 76
     0
 77
     0
 78
     0
281
     0
 65
     1
110
0.0
120
0.0
130
0.0
111
1.0
121
0.0
131
0.0
112
0.0
122
1.0
132
0.0
 79
     0
146
0.0
  0
ENDTAB
  0
TABLE
  2
LTYPE
  5
5
330
0
100
AcDbSymbolTable
 70
     2
  0
LTYPE
  5
13
330
5
100
AcDbSymbolTableRecord
100
AcDbLinetypeTableRecord
  2
ByBlock
 70
     0
  3

 72
    65
 73
     0
 40
0.0
  0
LTYPE
  5
14
330
5
100
AcDbSymbolTableRecord
100
AcDbLinetypeTableRecord
  2
ByLayer
 70
     0
  3

 72
    65
 73
     0
 40
0.0
  0
LTYPE
  5
15
330
5
100
AcDbSymbolTableRecord
100
AcDbLinetypeTableRecord
  2
Continuous
 70
     0
  3
Solid line
 72
    65
 73
     0
 40
0.0
  0
LTYPE
  5
25
330
5
100
AcDbSymbolTableRecord
100
AcDbLinetypeTableRecord
  2
STRICHPUNKT
 70
     0
  3
__ . __ . __ . __ . __ . __ . __ . __ . __ . __
 72
    65
 73
     4
 40
1.0
 49
0.5
 74
     0
 49
-0.25
 74
     0
 49
0.0
 74
     0
 49
-0.25
 74
     0
  0
ENDTAB
  0
TABLE
  2
LAYER
  5
2
330
0
100
AcDbSymbolTable
 70
     9
  0
LAYER
  5
10
330
2
100
AcDbSymbolTableRecord
100
AcDbLayerTableRecord
  2
0
 70
     0
 62
     7
  6
Continuous
370
    -3
390
F
  0
LAYER
  5
2A
330
2
100
AcDbSymbolTableRecord
100
AcDbLayerTableRecord
  2
VOLL
 70
     0
 62
     1
  6
Continuous
370
    -3
390
F
  0
LAYER
  5
2B
330
2
100
AcDbSymbolTableRecord
100
AcDbLayerTableRecord
  2
HILF
 70
     0
 62
     2
  6
Continuous
370
    -3
390
F
  0
LAYER
  5
2C
330
2
100
AcDbSymbolTableRecord
100
AcDbLayerTableRecord
  2
MITTEL
 70
     0
 62
     2
  6
STRICHPUNKT
370
    -3
390
F
  0
LAYER
  5
2F
330
2
100
AcDbSymbolTableRecord
100
AcDbLayerTableRecord
  2
BEM
 70
     0
 62
     7
  6
Continuous
370
    -3
390
F
  0
LAYER
  5
30
330
2
100
AcDbSymbolTableRecord
100
AcDbLayerTableRecord
  2
STEMPEL
 70
     0
 62
     3
  6
Continuous
370
    -3
390
F
  0
LAYER
  5
31
330
2
100
AcDbSymbolTableRecord
100
AcDbLayerTableRecord
  2
TEXT
 70
     0
 62
     7
  6
Continuous
370
    -3
390
F
  0
LAYER
  5
4E8
330
2
100
AcDbSymbolTableRecord
100
AcDbLayerTableRecord
  2
DEFPOINTS
 70
     0
 62
     7
  6
Continuous
290
     0
370
    -3
390
F
  0
LAYER
  5
4E9
330
2
100
AcDbSymbolTableRecord
100
AcDbLayerTableRecord
  2
SCHRAFF
 70
     0
 62
     7
  6
Continuous
370
    -3
390
F
  0
ENDTAB
  0
TABLE
  2
STYLE
  5
3
330
0
100
AcDbSymbolTable
 70
     2
  0
STYLE
  5
11
330
3
100
AcDbSymbolTableRecord
100
AcDbTextStyleTableRecord
  2
STANDARD
 70
     0
 40
0.0
 41
0.8
 50
0.0
 71
     0
 42
3.5
  3
simplex.shx
  4

  0
STYLE
  5
24
330
3
100
AcDbSymbolTableRecord
100
AcDbTextStyleTableRecord
  2
GREEKS
 70
     0
 40
0.0
 41
0.8
 50
0.0
 71
     0
 42
2.5
  3
SIMPLEX.shx
  4

  0
ENDTAB
  0
TABLE
  2
VIEW
  5
6
330
0
100
AcDbSymbolTable
 70
     0
  0
ENDTAB
  0
TABLE
  2
UCS
  5
7
330
0
100
AcDbSymbolTable
 70
     0
  0
ENDTAB
  0
TABLE
  2
APPID
  5
9
330
0
100
AcDbSymbolTable
 70
     1
  0
APPID
  5
12
330
9
100
AcDbSymbolTableRecord
100
AcDbRegAppTableRecord
  2
ACAD
 70
     0
  0
ENDTAB
  0
TABLE
  2
DIMSTYLE
  5
A
330
0
100
AcDbSymbolTable
 70
     1
100
AcDbDimStyleTable
 71
     1
340
9D
  0
DIMSTYLE
105
9D
102
{ACAD_REACTORS
330
DF9
330
DF8
330
115C
330
116B
330
1568
330
1624
330
1625
330
1626
330
163B
102
}
330
A
100
AcDbSymbolTableRecord
100
AcDbDimStyleTableRecord
  2
Standard
 70
     0
340
11
  0
ENDTAB
  0
TABLE
  2
BLOCK_RECORD
  5
1
330
0
100
AcDbSymbolTable
 70
    10
  0
BLOCK_RECORD
  5
1E
102
{ACAD_XDICTIONARY
360
A0
102
}
330
1
100
AcDbSymbolTableRecord
100
AcDbBlockTableRecord
  2
*Model_Space
340
21
  0
BLOCK_RECORD
  5
1A
102
{ACAD_XDICTIONARY
360
A2
102
}
330
1
100
AcDbSymbolTableRecord
100
AcDbBlockTableRecord
  2
*Paper_Space
340
1D
  0
BLOCK_RECORD
  5
22
330
1
100
AcDbSymbolTableRecord
100
AcDbBlockTableRecord
  2
LOGO
340
0
102
{BLKREFS
331
9B
102
}
  0
BLOCK_RECORD
  5
ECC
330
1
100
AcDbSymbolTableRecord
100
AcDbBlockTableRecord
  2
*D1
340
0
  0
BLOCK_RECORD
  5
ED9
330
1
100
AcDbSymbolTableRecord
100
AcDbBlockTableRecord
  2
*D2
340
0
  0
BLOCK_RECORD
  5
115D
330
1
100
AcDbSymbolTableRecord
100
AcDbBlockTableRecord
  2
*D3
340
0
  0
BLOCK_RECORD
  5
116C
330
1
100
AcDbSymbolTableRecord
100
AcDbBlockTableRecord
  2
*D4
340
0
  0
BLOCK_RECORD
  5
1569
330
1
100
AcDbSymbolTableRecord
100
AcDbBlockTableRecord
  2
*D5
340
0
  0
BLOCK_RECORD
  5
163F
330
1
100
AcDbSymbolTableRecord
100
AcDbBlockTableRecord
  2
*D6
340
0
  0
BLOCK_RECORD
  5
164B
330
1
100
AcDbSymbolTableRecord
100
AcDbBlockTableRecord
  2
*D7
340
0
  0
BLOCK_RECORD
  5
1657
330
1
100
AcDbSymbolTableRecord
100
AcDbBlockTableRecord
  2
*D8
340
0
  0
BLOCK_RECORD
  5
1663
330
1
100
AcDbSymbolTableRecord
100
AcDbBlockTableRecord
  2
*D9
340
0
  0
ENDTAB
  0
ENDSEC
  0
SECTION
  2
BLOCKS
  0
BLOCK
  5
35
330
1E
100
AcDbEntity
  8
0
100
AcDbBlockBegin
  2
*Model_Space
 70
     0
 10
0.0
 20
0.0
 30
0.0
  3
*Model_Space
  1

  0
ENDBLK
  5
36
330
1E
100
AcDbEntity
  8
0
100
AcDbBlockEnd
  0
BLOCK
  5
33
330
1A
100
AcDbEntity
 67
     1
  8
0
100
AcDbBlockBegin
  2
*Paper_Space
 70
     0
 10
0.0
 20
0.0
 30
0.0
  3
*Paper_Space
  1

  0
ENDBLK
  5
34
330
1A
100
AcDbEntity
 67
     1
  8
0
100
AcDbBlockEnd
  0
BLOCK
  5
37
330
22
100
AcDbEntity
  8
0
100
AcDbBlockBegin
  2
LOGO
 70
     0
 10
0.0
 20
0.0
 30
0.0
  3
LOGO
  1

  0
ARC
  5
38
330
22
100
AcDbEntity
  8
0
100
AcDbCircle
 10
11.59973089678112
 20
-9.271599258481501
 30
0.0
 40
4.5
100
AcDbArc
 50
270.0
 51
231.0575587310159
  0
LINE
  5
39
330
22
100
AcDbEntity
  8
0
100
AcDbLine
 10
3.599730896781125
 20
-4.771599258481529
 30
0.0
 11
3.599730896781153
 21
-11.77159925848133
 31
0.0
  0
LINE
  5
3A
330
22
100
AcDbEntity
  8
0
100
AcDbLine
 10
2.599730896781125
 20
-4.771599258481529
 30
0.0
 11
2.599730896781153
 21
-11.77159925848133
 31
0.0
  0
CIRCLE
  5
3B
330
22
100
AcDbEntity
  8
0
100
AcDbCircle
 10
11.59973089678112
 20
-9.271599258481501
 30
0.0
 40
3.5
  0
ARC
  5
3C
330
22
100
AcDbEntity
  8
0
100
AcDbCircle
 10
31.59973089678115
 20
-9.271599258481472
 30
0.0
 40
4.5
100
AcDbArc
 50
270.0
 51
231.0575587310182
  0
LINE
  5
3D
330
22
100
AcDbEntity
  8
0
100
AcDbLine
 10
17.59973089678112
 20
-4.771599258481472
 30
0.0
 11
17.59973089678115
 21
-13.77159925848147
 31
0.0
  0
ARC
  5
3E
330
22
100
AcDbEntity
  8
0
100
AcDbCircle
 10
22.59973089678116
 20
-7.271599258481472
 30
0.0
 40
2.5
100
AcDbArc
 50
293.1161887722295
 51
90.0
  0
CIRCLE
  5
3F
330
22
100
AcDbEntity
  8
0
100
AcDbCircle
 10
31.59973089678115
 20
-9.271599258481472
 30
0.0
 40
3.5
  0
ARC
  5
40
330
22
100
AcDbEntity
  8
0
100
AcDbCircle
 10
4.599730896781153
 20
-11.77159925848133
 30
0.0
 40
1.0
100
AcDbArc
 50
180.0
 51
270.0
  0
ARC
  5
41
330
22
100
AcDbEntity
  8
0
100
AcDbCircle
 10
4.599730896781153
 20
-11.77159925848133
 30
0.0
 40
2.0
100
AcDbArc
 50
179.9999999999992
 51
270.0
  0
LINE
  5
42
330
22
100
AcDbEntity
  8
0
100
AcDbLine
 10
11.59973089678115
 20
-13.77159925848144
 30
0.0
 11
4.599730896781153
 21
-13.77159925848147
 31
0.0
  0
LINE
  5
43
330
22
100
AcDbEntity
  8
0
100
AcDbLine
 10
8.771303772034769
 20
-12.77159925848136
 30
0.0
 11
4.599730896781153
 21
-12.77159925848133
 31
0.0
  0
LINE
  5
44
330
22
100
AcDbEntity
  8
0
100
AcDbLine
 10
31.59973089678115
 20
-13.77159925848147
 30
0.0
 11
23.6715276665056
 21
-13.77159925848144
 31
0.0
  0
LINE
  5
45
330
22
100
AcDbEntity
  8
0
100
AcDbLine
 10
23.56565672307022
 20
-9.51278021337896
 30
0.0
 11
24.4388546544846
 21
-12.77159925848144
 31
0.0
  0
LINE
  5
46
330
22
100
AcDbEntity
  8
0
100
AcDbLine
 10
22.59973089678116
 20
-9.771599258481472
 30
0.0
 11
18.59973089678112
 21
-9.771599258481472
 31
0.0
  0
LINE
  5
47
330
22
100
AcDbEntity
  8
0
100
AcDbLine
 10
18.59973089678115
 20
-13.77159925848144
 30
0.0
 11
17.59973089678115
 21
-13.77159925848144
 31
0.0
  0
LINE
  5
48
330
22
100
AcDbEntity
  8
0
100
AcDbLine
 10
18.59973089678115
 20
-9.771599258481472
 30
0.0
 11
18.59973089678115
 21
-13.77159925848144
 31
0.0
  0
LINE
  5
49
330
22
100
AcDbEntity
  8
0
100
AcDbLine
 10
22.59973089678116
 20
-9.771599258481472
 30
0.0
 11
23.67152766650562
 21
-13.77159925848147
 31
0.0
  0
ARC
  5
4A
330
22
100
AcDbEntity
  8
0
100
AcDbCircle
 10
22.59973089678116
 20
-7.271599258481472
 30
0.0
 40
2.5
100
AcDbArc
 50
270.0
 51
270.0000000000007
  0
LINE
  5
4B
330
22
100
AcDbEntity
  8
0
100
AcDbLine
 10
28.77130377203494
 20
-12.77159925848147
 30
0.0
 11
24.43885465448463
 21
-12.77159925848144
 31
0.0
  0
LINE
  5
4C
330
22
100
AcDbEntity
  8
0
100
AcDbLine
 10
3.599730896781125
 20
-4.771599258481472
 30
0.0
 11
2.599730896781125
 21
-4.771599258481472
 31
0.0
  0
LINE
  5
4D
330
22
100
AcDbEntity
  8
0
100
AcDbLine
 10
22.59973089678116
 20
-8.771599258481472
 30
0.0
 11
18.59973089678115
 21
-8.771599258481472
 31
0.0
  0
LINE
  5
4E
330
22
100
AcDbEntity
  8
0
100
AcDbLine
 10
22.59973089678116
 20
-5.771599258481472
 30
0.0
 11
18.59973089678115
 21
-5.771599258481472
 31
0.0
  0
LINE
  5
4F
330
22
100
AcDbEntity
  8
0
100
AcDbLine
 10
22.59973089678116
 20
-4.771599258481472
 30
0.0
 11
17.59973089678115
 21
-4.771599258481472
 31
0.0
  0
LINE
  5
50
330
22
100
AcDbEntity
  8
0
100
AcDbLine
 10
18.59973089678115
 20
-5.771599258481472
 30
0.0
 11
18.59973089678115
 21
-8.771599258481472
 31
0.0
  0
ARC
  5
51
330
22
100
AcDbEntity
  8
0
100
AcDbCircle
 10
22.59973089678116
 20
-7.271599258481472
 30
0.0
 40
1.5
100
AcDbArc
 50
270.0
 51
90.0
  0
ENDBLK
  5
52
330
22
100
AcDbEntity
  8
0
100
AcDbBlockEnd
  0
BLOCK
  5
ED7
330
ECC
100
AcDbEntity
  8
0
100
AcDbBlockBegin
  2
*D1
 70
     1
 10
0.0
 20
0.0
 30
0.0
  3
*D1
  1

  0
LINE
  5
1773
330
ECC
100
AcDbEntity
  8
BEM
 62
     0
370
    -2
100
AcDbLine
 10
69.27318039932107
 20
454.9885559324247
 30
0.0
 11
69.27318039932107
 21
492.7005205359121
 31
0.0
  0
LINE
  5
1774
330
ECC
100
AcDbEntity
  8
BEM
 62
     0
370
    -2
100
AcDbLine
 10
361.2731803993211
 20
454.9885559324247
 30
0.0
 11
361.2731803993211
 21
492.7005205359121
 31
0.0
  0
LINE
  5
1775
330
ECC
100
AcDbEntity
  8
BEM
 62
     0
370
    -2
100
AcDbLine
 10
76.27318039932106
 20
490.700520535912
 30
0.0
 11
354.273180399321
 21
490.700520535912
 31
0.0
  0
SOLID
  5
1776
330
ECC
100
AcDbEntity
  8
BEM
 62
     0
100
AcDbTrace
 10
76.27318039932106
 20
491.8671872025787
 30
0.0
 11
76.27318039932106
 21
489.5338538692453
 31
0.0
 12
69.27318039932107
 22
490.700520535912
 32
0.0
 13
69.27318039932107
 23
490.700520535912
 33
0.0
  0
SOLID
  5
1777
330
ECC
100
AcDbEntity
  8
BEM
 62
     0
100
AcDbTrace
 10
354.273180399321
 20
491.8671872025787
 30
0.0
 11
354.273180399321
 21
489.5338538692453
 31
0.0
 12
361.2731803993211
 22
490.700520535912
 32
0.0
 13
361.2731803993211
 23
490.700520535912
 33
0.0
  0
MTEXT
  5
1778
330
ECC
100
AcDbEntity
  8
BEM
 62
     1
100
AcDbMText
 10
215.2731803993211
 20
497.2005205359121
 30
0.0
 40
7.0
 41
0.0
 71
     5
 72
     1
  1
\A1;%%C292
 73
     1
 44
1.0
  0
POINT
  5
1779
330
ECC
100
AcDbEntity
  8
DEFPOINTS
 62
     0
100
AcDbPoint
 10
69.27318039932107
 20
452.9885559324248
 30
0.0
  0
POINT
  5
177A
330
ECC
100
AcDbEntity
  8
DEFPOINTS
 62
     0
100
AcDbPoint
 10
361.2731803993211
 20
452.9885559324248
 30
0.0
  0
POINT
  5
177B
330
ECC
100
AcDbEntity
  8
DEFPOINTS
 62
     0
100
AcDbPoint
 10
361.2731803993211
 20
490.700520535912
 30
0.0
  0
ENDBLK
  5
ED8
330
ECC
100
AcDbEntity
  8
0
100
AcDbBlockEnd
  0
BLOCK
  5
EE4
330
ED9
100
AcDbEntity
  8
0
100
AcDbBlockBegin
  2
*D2
 70
     1
 10
0.0
 20
0.0
 30
0.0
  3
*D2
  1

  0
LINE
  5
1781
330
ED9
100
AcDbEntity
  8
BEM
 62
     0
370
    -2
100
AcDbLine
 10
164.2731803993209
 20
451.9885559324249
 30
0.0
 11
164.2731803993209
 21
466.9838169758267
 31
0.0
  0
LINE
  5
1782
330
ED9
100
AcDbEntity
  8
BEM
 62
     0
370
    -2
100
AcDbLine
 10
266.2731803993211
 20
451.9885559324249
 30
0.0
 11
266.2731803993211
 21
466.9838169758267
 31
0.0
  0
LINE
  5
1783
330
ED9
100
AcDbEntity
  8
BEM
 62
     0
370
    -2
100
AcDbLine
 10
171.2731803993209
 20
464.9838169758267
 30
0.0
 11
259.2731803993211
 21
464.9838169758267
 31
0.0
  0
SOLID
  5
1784
330
ED9
100
AcDbEntity
  8
BEM
 62
     0
100
AcDbTrace
 10
171.2731803993209
 20
466.1504836424934
 30
0.0
 11
171.2731803993209
 21
463.8171503091601
 31
0.0
 12
164.2731803993209
 22
464.9838169758267
 32
0.0
 13
164.2731803993209
 23
464.9838169758267
 33
0.0
  0
SOLID
  5
1785
330
ED9
100
AcDbEntity
  8
BEM
 62
     0
100
AcDbTrace
 10
259.2731803993211
 20
466.1504836424934
 30
0.0
 11
259.2731803993211
 21
463.8171503091601
 31
0.0
 12
266.2731803993211
 22
464.9838169758267
 32
0.0
 13
266.2731803993211
 23
464.9838169758267
 33
0.0
  0
MTEXT
  5
1786
330
ED9
100
AcDbEntity
  8
BEM
 62
     1
100
AcDbMText
 10
215.273180399321
 20
471.4838169758267
 30
0.0
 40
7.0
 41
0.0
 71
     5
 72
     1
  1
\A1;%%C102
 73
     1
 44
1.0
  0
POINT
  5
1787
330
ED9
100
AcDbEntity
  8
DEFPOINTS
 62
     0
100
AcDbPoint
 10
164.2731803993209
 20
449.9885559324249
 30
0.0
  0
POINT
  5
1788
330
ED9
100
AcDbEntity
  8
DEFPOINTS
 62
     0
100
AcDbPoint
 10
266.2731803993211
 20
449.9885559324249
 30
0.0
  0
POINT
  5
1789
330
ED9
100
AcDbEntity
  8
DEFPOINTS
 62
     0
100
AcDbPoint
 10
266.2731803993211
 20
464.9838169758267
 30
0.0
  0
ENDBLK
  5
EE5
330
ED9
100
AcDbEntity
  8
0
100
AcDbBlockEnd
  0
BLOCK
  5
1169
330
115D
100
AcDbEntity
  8
0
100
AcDbBlockBegin
  2
*D3
 70
     1
 10
0.0
 20
0.0
 30
0.0
  3
*D3
  1

  0
LINE
  5
175F
330
115D
100
AcDbEntity
  8
SCHRAFF
 62
     0
370
    -2
100
AcDbLine
 10
363.2731803993211
 20
450.9885559324247
 30
0.0
 11
378.6071610790368
 21
450.9885559324247
 31
0.0
  0
LINE
  5
1760
330
115D
100
AcDbEntity
  8
SCHRAFF
 62
     0
370
    -2
100
AcDbLine
 10
363.2731803993211
 20
452.9885559324248
 30
0.0
 11
378.6071610790368
 21
452.9885559324248
 31
0.0
  0
LINE
  5
1761
330
115D
100
AcDbEntity
  8
SCHRAFF
 62
     0
370
    -2
100
AcDbLine
 10
376.6071610790368
 20
443.9885559324247
 30
0.0
 11
376.6071610790368
 21
436.9885559324248
 31
0.0
  0
LINE
  5
1762
330
115D
100
AcDbEntity
  8
SCHRAFF
 62
     0
370
    -2
100
AcDbLine
 10
376.6071610790368
 20
459.9885559324247
 30
0.0
 11
376.6071610790368
 21
476.7218892657581
 31
0.0
  0
LINE
  5
1763
330
115D
100
AcDbEntity
  8
SCHRAFF
 62
     0
370
    -2
100
AcDbLine
 10
376.6071610790368
 20
450.9885559324247
 30
0.0
 11
376.6071610790368
 21
452.9885559324248
 31
0.0
  0
SOLID
  5
1764
330
115D
100
AcDbEntity
  8
SCHRAFF
 62
     0
100
AcDbTrace
 10
375.4404944123701
 20
443.9885559324247
 30
0.0
 11
377.7738277457035
 21
443.9885559324247
 31
0.0
 12
376.6071610790368
 22
450.9885559324247
 32
0.0
 13
376.6071610790368
 23
450.9885559324247
 33
0.0
  0
SOLID
  5
1765
330
115D
100
AcDbEntity
  8
SCHRAFF
 62
     0
100
AcDbTrace
 10
375.4404944123701
 20
459.9885559324247
 30
0.0
 11
377.7738277457035
 21
459.9885559324247
 31
0.0
 12
376.6071610790368
 22
452.9885559324248
 32
0.0
 13
376.6071610790368
 23
452.9885559324248
 33
0.0
  0
MTEXT
  5
1766
330
115D
100
AcDbEntity
  8
SCHRAFF
 62
     1
100
AcDbMText
 10
370.1071610790368
 20
471.8552225990915
 30
0.0
 40
7.0
 41
0.0
 71
     5
 72
     1
  1
\A1;2
 11
0.0000000000000001
 21
1.0
 31
0.0
 73
     1
 44
1.0
  0
POINT
  5
1767
330
115D
100
AcDbEntity
  8
DEFPOINTS
 62
     0
100
AcDbPoint
 10
361.2731803993211
 20
450.9885559324247
 30
0.0
  0
POINT
  5
1768
330
115D
100
AcDbEntity
  8
DEFPOINTS
 62
     0
100
AcDbPoint
 10
361.2731803993211
 20
452.9885559324248
 30
0.0
  0
POINT
  5
1769
330
115D
100
AcDbEntity
  8
DEFPOINTS
 62
     0
100
AcDbPoint
 10
376.6071610790368
 20
452.9885559324248
 30
0.0
  0
ENDBLK
  5
116A
330
115D
100
AcDbEntity
  8
0
100
AcDbBlockEnd
  0
BLOCK
  5
1176
330
116C
100
AcDbEntity
  8
0
100
AcDbBlockBegin
  2
*D4
 70
     1
 10
0.0
 20
0.0
 30
0.0
  3
*D4
  1

  0
LINE
  5
1756
330
116C
100
AcDbEntity
  8
BEM
 62
     0
370
    -2
100
AcDbLine
 10
67.27318039932106
 20
452.9885559324248
 30
0.0
 11
57.78446580005428
 21
452.9885559324248
 31
0.0
  0
LINE
  5
1757
330
116C
100
AcDbEntity
  8
BEM
 62
     0
370
    -2
100
AcDbLine
 10
177.3856010440025
 20
202.9885559324249
 30
0.0
 11
57.78446580005422
 21
202.9885559324249
 31
0.0
  0
LINE
  5
1758
330
116C
100
AcDbEntity
  8
BEM
 62
     0
370
    -2
100
AcDbLine
 10
59.78446580005428
 20
445.9885559324248
 30
0.0
 11
59.78446580005423
 21
209.9885559324249
 31
0.0
  0
SOLID
  5
1759
330
116C
100
AcDbEntity
  8
BEM
 62
     0
100
AcDbTrace
 10
58.61779913338761
 20
445.9885559324248
 30
0.0
 11
60.95113246672094
 21
445.9885559324248
 31
0.0
 12
59.78446580005428
 22
452.9885559324248
 32
0.0
 13
59.78446580005428
 23
452.9885559324248
 33
0.0
  0
SOLID
  5
175A
330
116C
100
AcDbEntity
  8
BEM
 62
     0
100
AcDbTrace
 10
58.61779913338756
 20
209.9885559324249
 30
0.0
 11
60.95113246672089
 21
209.9885559324249
 31
0.0
 12
59.78446580005422
 22
202.9885559324249
 32
0.0
 13
59.78446580005422
 23
202.9885559324249
 33
0.0
  0
MTEXT
  5
175B
330
116C
100
AcDbEntity
  8
BEM
 62
     1
100
AcDbMText
 10
53.2844658000542
 20
327.9885559324248
 30
0.0
 40
7.0
 41
0.0
 71
     5
 72
     1
  1
\A1;250
 11
0.0000000000000001
 21
1.0
 31
0.0
 73
     1
 44
1.0
  0
POINT
  5
175C
330
116C
100
AcDbEntity
  8
DEFPOINTS
 62
     0
100
AcDbPoint
 10
69.27318039932107
 20
452.9885559324248
 30
0.0
  0
POINT
  5
175D
330
116C
100
AcDbEntity
  8
DEFPOINTS
 62
     0
100
AcDbPoint
 10
179.3856010440025
 20
202.9885559324249
 30
0.0
  0
POINT
  5
175E
330
116C
100
AcDbEntity
  8
DEFPOINTS
 62
     0
100
AcDbPoint
 10
59.78446580005422
 20
202.9885559324249
 30
0.0
  0
ENDBLK
  5
1177
330
116C
100
AcDbEntity
  8
0
100
AcDbBlockEnd
  0
BLOCK
  5
1573
330
1569
100
AcDbEntity
  8
0
100
AcDbBlockBegin
  2
*D5
 70
     1
 10
0.0
 20
0.0
 30
0.0
  3
*D5
  1

  0
LINE
  5
174D
330
1569
100
AcDbEntity
  8
BEM
 62
     0
370
    -2
100
AcDbLine
 10
178.7731803993211
 20
207.9885559324249
 30
0.0
 11
178.7731803993211
 21
183.1184954480245
 31
0.0
  0
LINE
  5
174E
330
1569
100
AcDbEntity
  8
BEM
 62
     0
370
    -2
100
AcDbLine
 10
251.7731803993198
 20
207.9885559324249
 30
0.0
 11
251.7731803993198
 21
183.1184954480245
 31
0.0
  0
LINE
  5
174F
330
1569
100
AcDbEntity
  8
BEM
 62
     0
370
    -2
100
AcDbLine
 10
185.7731803993211
 20
185.1184954480245
 30
0.0
 11
244.7731803993198
 21
185.1184954480245
 31
0.0
  0
SOLID
  5
1750
330
1569
100
AcDbEntity
  8
BEM
 62
     0
100
AcDbTrace
 10
185.7731803993211
 20
186.2851621146912
 30
0.0
 11
185.7731803993211
 21
183.9518287813579
 31
0.0
 12
178.7731803993211
 22
185.1184954480245
 32
0.0
 13
178.7731803993211
 23
185.1184954480245
 33
0.0
  0
SOLID
  5
1751
330
1569
100
AcDbEntity
  8
BEM
 62
     0
100
AcDbTrace
 10
244.7731803993198
 20
186.2851621146912
 30
0.0
 11
244.7731803993198
 21
183.9518287813579
 31
0.0
 12
251.7731803993198
 22
185.1184954480245
 32
0.0
 13
251.7731803993198
 23
185.1184954480245
 33
0.0
  0
MTEXT
  5
1752
330
1569
100
AcDbEntity
  8
BEM
 62
     1
100
AcDbMText
 10
215.2731803993205
 20
191.6184954480245
 30
0.0
 40
7.0
 41
0.0
 71
     5
 72
     1
  1
\A1;%%c73
 73
     1
 44
1.0
  0
POINT
  5
1753
330
1569
100
AcDbEntity
  8
DEFPOINTS
 62
     0
100
AcDbPoint
 10
178.7731803993211
 20
209.9885559324249
 30
0.0
  0
POINT
  5
1754
330
1569
100
AcDbEntity
  8
DEFPOINTS
 62
     0
100
AcDbPoint
 10
251.7731803993198
 20
209.9885559324249
 30
0.0
  0
POINT
  5
1755
330
1569
100
AcDbEntity
  8
DEFPOINTS
 62
     0
100
AcDbPoint
 10
251.7731803993198
 20
185.1184954480245
 30
0.0
  0
ENDBLK
  5
1574
330
1569
100
AcDbEntity
  8
0
100
AcDbBlockEnd
  0
BLOCK
  5
1649
330
163F
100
AcDbEntity
  8
0
100
AcDbBlockBegin
  2
*D6
 70
     1
 10
0.0
 20
0.0
 30
0.0
  3
*D6
  1

  0
LINE
  5
1744
330
163F
100
AcDbEntity
  8
BEM
 62
     0
370
    -2
100
AcDbLine
 10
150.2756357647994
 20
263.8283891413004
 30
0.0
 11
150.2756357647994
 21
168.0193188469281
 31
0.0
  0
LINE
  5
1745
330
163F
100
AcDbEntity
  8
BEM
 62
     0
370
    -2
100
AcDbLine
 10
280.2707250338428
 20
263.8283891412986
 30
0.0
 11
280.2707250338428
 21
168.0193188469281
 31
0.0
  0
LINE
  5
1746
330
163F
100
AcDbEntity
  8
BEM
 62
     0
370
    -2
100
AcDbLine
 10
157.2756357647994
 20
170.0193188469281
 30
0.0
 11
273.2707250338428
 21
170.0193188469281
 31
0.0
  0
SOLID
  5
1747
330
163F
100
AcDbEntity
  8
BEM
 62
     0
100
AcDbTrace
 10
157.2756357647994
 20
171.1859855135948
 30
0.0
 11
157.2756357647994
 21
168.8526521802614
 31
0.0
 12
150.2756357647994
 22
170.0193188469281
 32
0.0
 13
150.2756357647994
 23
170.0193188469281
 33
0.0
  0
SOLID
  5
1748
330
163F
100
AcDbEntity
  8
BEM
 62
     0
100
AcDbTrace
 10
273.2707250338428
 20
171.1859855135948
 30
0.0
 11
273.2707250338428
 21
168.8526521802614
 31
0.0
 12
280.2707250338428
 22
170.0193188469281
 32
0.0
 13
280.2707250338428
 23
170.0193188469281
 33
0.0
  0
MTEXT
  5
1749
330
163F
100
AcDbEntity
  8
BEM
 62
     1
100
AcDbMText
 10
215.2731803993211
 20
176.5193188469281
 30
0.0
 40
7.0
 41
0.0
 71
     5
 72
     1
  1
\A1;%%c130
  7
GREEKS
 73
     1
 44
1.0
  0
POINT
  5
174A
330
163F
100
AcDbEntity
  8
DEFPOINTS
 62
     0
100
AcDbPoint
 10
150.2756357647994
 20
265.8283891413004
 30
0.0
  0
POINT
  5
174B
330
163F
100
AcDbEntity
  8
DEFPOINTS
 62
     0
100
AcDbPoint
 10
280.2707250338428
 20
265.8283891412986
 30
0.0
  0
POINT
  5
174C
330
163F
100
AcDbEntity
  8
DEFPOINTS
 62
     0
100
AcDbPoint
 10
280.2707250338428
 20
170.0193188469281
 30
0.0
  0
ENDBLK
  5
164A
330
163F
100
AcDbEntity
  8
0
100
AcDbBlockEnd
  0
BLOCK
  5
1655
330
164B
100
AcDbEntity
  8
0
100
AcDbBlockBegin
  2
*D7
 70
     1
 10
0.0
 20
0.0
 30
0.0
  3
*D7
  1

  0
LINE
  5
173B
330
164B
100
AcDbEntity
  8
BEM
 62
     0
370
    -2
100
AcDbLine
 10
138.2731803993212
 20
425.8283891413003
 30
0.0
 11
73.12655541439607
 21
425.8283891413004
 31
0.0
  0
LINE
  5
173C
330
164B
100
AcDbEntity
  8
BEM
 62
     0
370
    -2
100
AcDbLine
 10
148.2756357647994
 20
265.8283891413004
 30
0.0
 11
73.12655541439602
 21
265.8283891413004
 31
0.0
  0
LINE
  5
173D
330
164B
100
AcDbEntity
  8
BEM
 62
     0
370
    -2
100
AcDbLine
 10
75.12655541439606
 20
418.8283891413004
 30
0.0
 11
75.12655541439603
 21
272.8283891413004
 31
0.0
  0
SOLID
  5
173E
330
164B
100
AcDbEntity
  8
BEM
 62
     0
100
AcDbTrace
 10
73.95988874772939
 20
418.8283891413004
 30
0.0
 11
76.29322208106273
 21
418.8283891413004
 31
0.0
 12
75.12655541439606
 22
425.8283891413004
 32
0.0
 13
75.12655541439606
 23
425.8283891413004
 33
0.0
  0
SOLID
  5
173F
330
164B
100
AcDbEntity
  8
BEM
 62
     0
100
AcDbTrace
 10
73.95988874772935
 20
272.8283891413004
 30
0.0
 11
76.2932220810627
 21
272.8283891413004
 31
0.0
 12
75.12655541439603
 22
265.8283891413004
 32
0.0
 13
75.12655541439603
 23
265.8283891413004
 33
0.0
  0
MTEXT
  5
1740
330
164B
100
AcDbEntity
  8
BEM
 62
     1
100
AcDbMText
 10
68.62655541439598
 20
345.8283891413004
 30
0.0
 40
7.0
 41
0.0
 71
     5
 72
     1
  1
\A1;160
  7
GREEKS
 11
0.0000000000000001
 21
1.0
 31
0.0
 73
     1
 44
1.0
  0
POINT
  5
1741
330
164B
100
AcDbEntity
  8
DEFPOINTS
 62
     0
100
AcDbPoint
 10
140.2731803993212
 20
425.8283891413003
 30
0.0
  0
POINT
  5
1742
330
164B
100
AcDbEntity
  8
DEFPOINTS
 62
     0
100
AcDbPoint
 10
150.2756357647994
 20
265.8283891413004
 30
0.0
  0
POINT
  5
1743
330
164B
100
AcDbEntity
  8
DEFPOINTS
 62
     0
100
AcDbPoint
 10
75.12655541439603
 20
265.8283891413004
 30
0.0
  0
ENDBLK
  5
1656
330
164B
100
AcDbEntity
  8
0
100
AcDbBlockEnd
  0
BLOCK
  5
1661
330
1657
100
AcDbEntity
  8
0
100
AcDbBlockBegin
  2
*D8
 70
     1
 10
0.0
 20
0.0
 30
0.0
  3
*D8
  1

  0
LINE
  5
1732
330
1657
100
AcDbEntity
  8
BEM
 62
     0
370
    -2
100
AcDbLine
 10
177.3856010440025
 20
202.9885559324249
 30
0.0
 11
73.12655541439601
 21
202.9885559324249
 31
0.0
  0
LINE
  5
1733
330
1657
100
AcDbEntity
  8
BEM
 62
     0
370
    -2
100
AcDbLine
 10
148.2756357647994
 20
265.8283891413004
 30
0.0
 11
73.12655541439602
 21
265.8283891413004
 31
0.0
  0
LINE
  5
1734
330
1657
100
AcDbEntity
  8
BEM
 62
     0
370
    -2
100
AcDbLine
 10
75.12655541439601
 20
209.9885559324249
 30
0.0
 11
75.12655541439603
 21
258.8283891413004
 31
0.0
  0
SOLID
  5
1735
330
1657
100
AcDbEntity
  8
BEM
 62
     0
100
AcDbTrace
 10
73.95988874772934
 20
209.9885559324249
 30
0.0
 11
76.29322208106268
 21
209.9885559324249
 31
0.0
 12
75.12655541439601
 22
202.9885559324249
 32
0.0
 13
75.12655541439601
 23
202.9885559324249
 33
0.0
  0
SOLID
  5
1736
330
1657
100
AcDbEntity
  8
BEM
 62
     0
100
AcDbTrace
 10
73.95988874772935
 20
258.8283891413004
 30
0.0
 11
76.2932220810627
 21
258.8283891413004
 31
0.0
 12
75.12655541439603
 22
265.8283891413004
 32
0.0
 13
75.12655541439603
 23
265.8283891413004
 33
0.0
  0
MTEXT
  5
1737
330
1657
100
AcDbEntity
  8
BEM
 62
     1
100
AcDbMText
 10
68.62655541439598
 20
234.4084725368626
 30
0.0
 40
7.0
 41
0.0
 71
     5
 72
     1
  1
\A1;63
 11
0.0000000000000001
 21
1.0
 31
0.0
 73
     1
 44
1.0
  0
POINT
  5
1738
330
1657
100
AcDbEntity
  8
DEFPOINTS
 62
     0
100
AcDbPoint
 10
179.3856010440025
 20
202.9885559324249
 30
0.0
  0
POINT
  5
1739
330
1657
100
AcDbEntity
  8
DEFPOINTS
 62
     0
100
AcDbPoint
 10
150.2756357647994
 20
265.8283891413004
 30
0.0
  0
POINT
  5
173A
330
1657
100
AcDbEntity
  8
DEFPOINTS
 62
     0
100
AcDbPoint
 10
75.12655541439603
 20
265.8283891413004
 30
0.0
  0
ENDBLK
  5
1662
330
1657
100
AcDbEntity
  8
0
100
AcDbBlockEnd
  0
BLOCK
  5
166D
330
1663
100
AcDbEntity
  8
0
100
AcDbBlockBegin
  2
*D9
 70
     1
 10
0.0
 20
0.0
 30
0.0
  3
*D9
  1

  0
LINE
  5
1729
330
1663
100
AcDbEntity
  8
BEM
 62
     0
370
    -2
100
AcDbLine
 10
140.2731803993212
 20
427.8283891413003
 30
0.0
 11
140.2731803993212
 21
480.026268999821
 31
0.0
  0
LINE
  5
172A
330
1663
100
AcDbEntity
  8
BEM
 62
     0
370
    -2
100
AcDbLine
 10
290.2731803993215
 20
427.8283891413007
 30
0.0
 11
290.2731803993215
 21
480.026268999821
 31
0.0
  0
LINE
  5
172B
330
1663
100
AcDbEntity
  8
BEM
 62
     0
370
    -2
100
AcDbLine
 10
147.2731803993212
 20
478.026268999821
 30
0.0
 11
283.2731803993215
 21
478.026268999821
 31
0.0
  0
SOLID
  5
172C
330
1663
100
AcDbEntity
  8
BEM
 62
     0
100
AcDbTrace
 10
147.2731803993212
 20
479.1929356664876
 30
0.0
 11
147.2731803993212
 21
476.8596023331543
 31
0.0
 12
140.2731803993212
 22
478.026268999821
 32
0.0
 13
140.2731803993212
 23
478.026268999821
 33
0.0
  0
SOLID
  5
172D
330
1663
100
AcDbEntity
  8
BEM
 62
     0
100
AcDbTrace
 10
283.2731803993215
 20
479.1929356664876
 30
0.0
 11
283.2731803993215
 21
476.8596023331543
 31
0.0
 12
290.2731803993215
 22
478.026268999821
 32
0.0
 13
290.2731803993215
 23
478.026268999821
 33
0.0
  0
MTEXT
  5
172E
330
1663
100
AcDbEntity
  8
BEM
 62
     1
100
AcDbMText
 10
215.2731803993213
 20
484.526268999821
 30
0.0
 40
7.0
 41
0.0
 71
     5
 72
     1
  1
\A1;%%c150
  7
GREEKS
 73
     1
 44
1.0
  0
POINT
  5
172F
330
1663
100
AcDbEntity
  8
DEFPOINTS
 62
     0
100
AcDbPoint
 10
140.2731803993212
 20
425.8283891413003
 30
0.0
  0
POINT
  5
1730
330
1663
100
AcDbEntity
  8
DEFPOINTS
 62
     0
100
AcDbPoint
 10
290.2731803993215
 20
425.8283891413007
 30
0.0
  0
POINT
  5
1731
330
1663
100
AcDbEntity
  8
DEFPOINTS
 62
     0
100
AcDbPoint
 10
290.2731803993215
 20
478.026268999821
 30
0.0
  0
ENDBLK
  5
166E
330
1663
100
AcDbEntity
  8
0
100
AcDbBlockEnd
  0
ENDSEC
  0
SECTION
  2
ENTITIES
  0
LINE
  5
57
330
1E
100
AcDbEntity
  8
STEMPEL
100
AcDbLine
 10
410.0
 20
110.0
 30
0.0
 11
39.99999999999997
 21
110.0
 31
0.0
  0
LINE
  5
58
330
1E
100
AcDbEntity
  8
STEMPEL
100
AcDbLine
 10
136.0000000000001
 20
109.9999999999999
 30
0.0
 11
136.0
 21
9.999999999999971
 31
0.0
  0
LINE
  5
59
330
1E
100
AcDbEntity
  8
STEMPEL
100
AcDbLine
 10
220.0
 20
110.0
 30
0.0
 11
220.0
 21
9.999999999999971
 31
0.0
  0
LINE
  5
5A
330
1E
100
AcDbEntity
  8
STEMPEL
100
AcDbLine
 10
332.0
 20
109.9999999999997
 30
0.0
 11
332.0
 21
40.0
 31
0.0
  0
LINE
  5
5B
330
1E
100
AcDbEntity
  8
STEMPEL
100
AcDbLine
 10
135.9999999999999
 20
29.99999999999997
 30
0.0
 11
39.99999999999997
 21
29.99999999999997
 31
0.0
  0
LINE
  5
5C
330
1E
100
AcDbEntity
  8
STEMPEL
100
AcDbLine
 10
410.0
 20
40.0
 30
0.0
 11
136.0000000000001
 21
39.99999999999997
 31
0.0
  0
LINE
  5
5D
330
1E
100
AcDbEntity
  8
STEMPEL
100
AcDbLine
 10
410.0
 20
80.0
 30
0.0
 11
136.0000000000001
 21
79.99999999999994
 31
0.0
  0
LINE
  5
5E
330
1E
100
AcDbEntity
  8
VOLL
100
AcDbLine
 10
54.00000000000009
 20
110.0
 30
0.0
 11
53.99999999999997
 21
9.999999999999971
 31
0.0
  0
LINE
  5
5F
330
1E
100
AcDbEntity
  8
VOLL
100
AcDbLine
 10
94.00000000000011
 20
109.9999999999999
 30
0.0
 11
94.0
 21
9.999999999999971
 31
0.0
  0
LINE
  5
60
330
1E
100
AcDbEntity
  8
VOLL
100
AcDbLine
 10
114.0000000000001
 20
109.9999999999999
 30
0.0
 11
114.0
 21
9.999999999999971
 31
0.0
  0
LINE
  5
61
330
1E
100
AcDbEntity
  8
VOLL
100
AcDbLine
 10
154.0000000000001
 20
79.99999999999994
 30
0.0
 11
154.0000000000001
 21
39.99999999999997
 31
0.0
  0
LINE
  5
62
330
1E
100
AcDbEntity
  8
VOLL
100
AcDbLine
 10
180.0000000000001
 20
109.9999999999998
 30
0.0
 11
180.0
 21
39.99999999999997
 31
0.0
  0
LINE
  5
63
330
1E
100
AcDbEntity
  8
HILF
100
AcDbLine
 10
40.00000000000008
 20
100.0
 30
0.0
 11
136.0000000000001
 21
100.0
 31
0.0
  0
LINE
  5
64
330
1E
100
AcDbEntity
  8
HILF
100
AcDbLine
 10
40.00000000000008
 20
90.00000000000005
 30
0.0
 11
136.0000000000001
 21
90.00000000000005
 31
0.0
  0
LINE
  5
65
330
1E
100
AcDbEntity
  8
HILF
100
AcDbLine
 10
40.00000000000008
 20
79.99999999999994
 30
0.0
 11
136.0000000000001
 21
79.99999999999994
 31
0.0
  0
LINE
  5
66
330
1E
100
AcDbEntity
  8
HILF
100
AcDbLine
 10
40.00000000000008
 20
69.99999999999994
 30
0.0
 11
136.0000000000001
 21
69.99999999999994
 31
0.0
  0
LINE
  5
67
330
1E
100
AcDbEntity
  8
HILF
100
AcDbLine
 10
40.00000000000008
 20
59.99999999999997
 30
0.0
 11
136.0000000000001
 21
59.99999999999997
 31
0.0
  0
LINE
  5
68
330
1E
100
AcDbEntity
  8
HILF
100
AcDbLine
 10
40.00000000000008
 20
49.99999999999997
 30
0.0
 11
136.0000000000001
 21
49.99999999999997
 31
0.0
  0
LINE
  5
69
330
1E
100
AcDbEntity
  8
HILF
100
AcDbLine
 10
40.00000000000008
 20
39.99999999999997
 30
0.0
 11
136.0000000000001
 21
39.99999999999997
 31
0.0
  0
LINE
  5
6A
330
1E
100
AcDbEntity
  8
HILF
100
AcDbLine
 10
136.0000000000001
 20
69.99999999999994
 30
0.0
 11
220.0
 21
69.99999999999994
 31
0.0
  0
LINE
  5
6B
330
1E
100
AcDbEntity
  8
HILF
100
AcDbLine
 10
136.0000000000001
 20
59.99999999999997
 30
0.0
 11
220.0
 21
59.99999999999997
 31
0.0
  0
LINE
  5
6C
330
1E
100
AcDbEntity
  8
HILF
100
AcDbLine
 10
136.0000000000001
 20
49.99999999999997
 30
0.0
 11
220.0
 21
49.99999999999997
 31
0.0
  0
LINE
  5
6D
330
1E
100
AcDbEntity
  8
HILF
100
AcDbLine
 10
224.7736801096948
 20
84.03758247564139
 30
0.0
 11
324.8353916556311
 21
84.03758247564139
 31
0.0
  0
LINE
  5
6E
330
1E
100
AcDbEntity
  8
HILF
100
AcDbLine
 10
224.7736801096948
 20
69.99999999999994
 30
0.0
 11
324.835391655631
 21
69.99999999999994
 31
0.0
  0
LINE
  5
6F
330
1E
100
AcDbEntity
  8
HILF
100
AcDbLine
 10
224.7736801096948
 20
59.99999999999997
 30
0.0
 11
324.835391655631
 21
59.99999999999997
 31
0.0
  0
LINE
  5
70
330
1E
100
AcDbEntity
  8
HILF
100
AcDbLine
 10
224.7736801096948
 20
49.99999999999997
 30
0.0
 11
324.835391655631
 21
49.99999999999997
 31
0.0
  0
LINE
  5
71
330
1E
100
AcDbEntity
  8
VOLL
100
AcDbLine
 10
332.0
 20
60.0
 30
0.0
 11
410.0
 21
60.0
 31
0.0
  0
LINE
  5
72
330
1E
100
AcDbEntity
  8
HILF
100
AcDbLine
 10
336.7238616296993
 20
83.77983636955827
 30
0.0
 11
404.8588839326728
 21
83.77983636955827
 31
0.0
  0
LINE
  5
73
330
1E
100
AcDbEntity
  8
HILF
100
AcDbLine
 10
223.4909699289885
 20
14.89398258028314
 30
0.0
 11
404.8588839326728
 21
14.89398258028314
 31
0.0
  0
TEXT
  5
74
330
1E
100
AcDbEntity
  8
TEXT
100
AcDbText
 10
63.86165979631819
 20
18.67381894984132
 30
0.0
 40
4.0
  1
Änderung
 41
0.8
  7
GREEKS
 72
     1
 11
74.60451693917534
 21
18.67381894984132
 31
0.0
100
AcDbText
  0
TEXT
  5
75
330
1E
100
AcDbEntity
  8
TEXT
100
AcDbText
 10
143.5163572150377
 20
102.4620895087088
 30
0.0
 40
5.0
  1
Maßstab
 41
0.8
  7
GREEKS
100
AcDbText
  0
TEXT
  5
76
330
1E
100
AcDbEntity
  8
TEXT
100
AcDbText
 10
184.2858954734051
 20
102.4184168434819
 30
0.0
 40
5.0
  1
Zul. Abw.
 41
0.8
  7
GREEKS
100
AcDbText
  0
TEXT
  5
77
330
1E
100
AcDbEntity
  8
TEXT
100
AcDbText
 10
224.877940380901
 20
102.5489328011779
 30
0.0
 40
5.0
  1
Benennung
 41
0.8
  7
GREEKS
100
AcDbText
  0
TEXT
  5
78
330
1E
100
AcDbEntity
  8
TEXT
100
AcDbText
 10
336.178754957634
 20
102.3132034537136
 30
0.0
 40
5.0
  1
Zeichnungs Nr.
 41
0.8
  7
GREEKS
100
AcDbText
  0
TEXT
  5
79
330
1E
100
AcDbEntity
  8
TEXT
100
AcDbText
 10
224.742238391136
 20
30.84560570193057
 30
0.0
 40
5.0
  1
Bauvorhaben
 41
0.8
  7
GREEKS
100
AcDbText
  0
TEXT
  5
7A
330
1E
100
AcDbEntity
  8
TEXT
100
AcDbText
 10
336.7238616296993
 20
73.1811823709997
 30
0.0
 40
5.0
  1
Ersatz für:
 41
0.8
  7
GREEKS
100
AcDbText
  0
TEXT
  5
7B
330
1E
100
AcDbEntity
  8
TEXT
100
AcDbText
 10
48.26641107045756
 20
13.65465846027192
 30
0.0
 40
4.0
  1
Index
 50
90.0
 41
0.8
  7
GREEKS
100
AcDbText
  0
TEXT
  5
7C
330
1E
100
AcDbEntity
  8
TEXT
100
AcDbText
 10
100.0934676075481
 20
18.6715626933981
 30
0.0
 40
4.0
  1
Tag
 41
0.8
  7
GREEKS
 72
     1
 11
103.8268009408814
 21
18.6715626933981
 31
0.0
100
AcDbText
  0
TEXT
  5
7D
330
1E
100
AcDbEntity
  8
TEXT
100
AcDbText
 10
119.0122744386592
 20
18.59324216966408
 30
0.0
 40
4.0
  1
Name
 41
0.8
  7
GREEKS
 72
     1
 11
125.3360839624688
 21
18.59324216966408
 31
0.0
100
AcDbText
  0
TEXT
  5
7E
330
1E
100
AcDbEntity
  8
TEXT
100
AcDbText
 10
162.3311673153651
 20
73.31880501229926
 30
0.0
 40
4.0
  1
Tag
 41
0.8
  7
GREEKS
100
AcDbText
  0
TEXT
  5
7F
330
1E
100
AcDbEntity
  8
TEXT
100
AcDbText
 10
192.4626584226295
 20
73.30961091915225
 30
0.0
 40
4.0
  1
Name
 41
0.8
  7
GREEKS
100
AcDbText
  0
TEXT
  5
80
330
1E
100
AcDbEntity
  8
TEXT
100
AcDbText
 10
137.5836127167615
 20
63.62990369617964
 30
0.0
 40
4.0
  1
Gez.
 41
0.8
  7
GREEKS
100
AcDbText
  0
TEXT
  5
81
330
1E
100
AcDbEntity
  8
TEXT
100
AcDbText
 10
137.5515086571672
 20
53.68926291428377
 30
0.0
 40
4.0
  1
Gepr.
 41
0.8
  7
GREEKS
100
AcDbText
  0
TEXT
  5
82
330
1E
100
AcDbEntity
  8
TEXT
100
AcDbText
 10
137.6006777387304
 20
43.52946389649807
 30
0.0
 40
4.0
  1
Norm.
 41
0.8
  7
GREEKS
100
AcDbText
  0
LINE
  5
83
330
1E
100
AcDbEntity
  8
STEMPEL
100
AcDbLine
 10
49.99999999999989
 20
10.0
 30
0.0
 11
410.0
 21
10.0
 31
0.0
  0
TEXT
  5
84
330
1E
100
AcDbEntity
  8
TEXT
100
AcDbText
 10
337.2400861497006
 20
52.07416177878602
 30
0.0
 40
5.0
  1
ersetzt durch:
 41
0.8
  7
GREEKS
100
AcDbText
  0
LINE
  5
85
330
1E
100
AcDbEntity
  8
STEMPEL
100
AcDbLine
 10
410.0
 20
10.0
 30
0.0
 11
39.99999999999989
 21
10.0
 31
0.0
  0
LINE
  5
86
330
1E
100
AcDbEntity
  8
STEMPEL
100
AcDbLine
 10
410.0
 20
10.0
 30
0.0
 11
410.0
 21
584.0
 31
0.0
  0
LINE
  5
87
330
1E
100
AcDbEntity
  8
STEMPEL
100
AcDbLine
 10
40.0
 20
10.0
 30
0.0
 11
39.99999999999989
 21
584.0
 31
0.0
  0
LINE
  5
88
330
1E
100
AcDbEntity
  8
STEMPEL
100
AcDbLine
 10
410.0
 20
584.0
 30
0.0
 11
39.99999999999989
 21
584.0
 31
0.0
  0
LINE
  5
89
330
1E
100
AcDbEntity
  8
HILF
100
AcDbLine
 10
0.0
 20
0.0
 30
0.0
 11
-0.0000000000001137
 21
594.0
 31
0.0
  0
LINE
  5
8A
330
1E
100
AcDbEntity
  8
HILF
100
AcDbLine
 10
419.9999999999999
 20
594.0000000000002
 30
0.0
 11
0.0
 21
594.0
 31
0.0
  0
LINE
  5
8B
330
1E
100
AcDbEntity
  8
HILF
100
AcDbLine
 10
420.0
 20
0.0
 30
0.0
 11
0.0
 21
0.0
 31
0.0
  0
LINE
  5
8C
330
1E
100
AcDbEntity
  8
HILF
100
AcDbLine
 10
31.08767135713856
 20
297.0
 30
0.0
 11
0.0000000000001137
 21
297.0
 31
0.0
  0
TEXT
  5
8D
330
1E
100
AcDbEntity
  8
TEXT
100
AcDbText
 10
138.622109822104
 20
73.14025471151666
 30
0.0
 40
4.0
  1
2012
 41
0.8
  7
GREEKS
100
AcDbText
  0
LINE
  5
8E
330
1E
100
AcDbEntity
  8
HILF
100
AcDbLine
 10
420.0
 20
-0.0000000000001137
 30
0.0
 11
419.9999999999999
 21
594.0
 31
0.0
  0
TEXT
  5
8F
330
1E
100
AcDbEntity
  8
VOLL
100
AcDbText
 10
78.07675471698113
 20
31.02594776470585
 30
0.0
 40
1.8
  1

  7
GREEKS
100
AcDbText
  0
TEXT
  5
90
330
1E
100
AcDbEntity
  8
TEXT
100
AcDbText
 10
41.85509950977674
 20
111.6719999999999
 30
0.0
 40
5.0
  1
Erstellt mit AUTOCAD 2004
 41
0.8
  7
GREEKS
100
AcDbText
  0
TEXT
  5
91
330
1E
100
AcDbEntity
  8
TEXT
100
AcDbText
 10
194.4216048581257
 20
63.0896391972351
 30
0.0
 40
4.0
  1
Koeh
 41
0.8
  7
GREEKS
 72
     1
 11
199.6787477152685
 21
63.0896391972351
 31
0.0
100
AcDbText
  0
TEXT
  5
92
330
1E
100
AcDbEntity
  8
TEXT
 62
     1
100
AcDbText
 10
346.687434236943
 20
88.14901428913959
 30
0.0
 40
7.0
  1
19002070W
 41
0.8
  7
GREEKS
 72
     1
 11
370.1541009036097
 21
88.14901428913959
 31
0.0
100
AcDbText
  0
TEXT
  5
93
330
1E
100
AcDbEntity
  8
TEXT
 62
     1
100
AcDbText
 10
150.5006306481887
 20
88.14901428913959
 30
0.0
 40
7.0
  1
1:2
 41
0.8
  7
GREEKS
100
AcDbText
  0
TEXT
  5
94
330
1E
100
AcDbEntity
  8
TEXT
100
AcDbText
 10
160.7037590129979
 20
63.10765040825732
 30
0.0
 40
4.0
  1
15.06.
 41
0.8
  7
GREEKS
 72
     1
 11
167.4085209177598
 21
63.10765040825732
 31
0.0
100
AcDbText
  0
TEXT
  5
95
330
1E
100
AcDbEntity
  8
TEXT
 62
     1
100
AcDbText
 10
226.8935731057402
 20
87.41748789253779
 30
0.0
 40
7.0
  1
Ablauftopf DN70
 41
0.8
  7
GREEKS
100
AcDbText
  0
TEXT
  5
96
330
1E
100
AcDbEntity
  8
TEXT
100
AcDbText
 10
225.1296391125315
 20
71.50334417585288
 30
0.0
 40
5.0
  1

 41
0.8
  7
GREEKS
100
AcDbText
  0
TEXT
  5
98
330
1E
100
AcDbEntity
  8
TEXT
100
AcDbText
 10
225.1296391125315
 20
51.64011943042158
 30
0.0
 40
5.0
  1
EDV-Art.Nr. 19002.070X
 41
0.8
  7
GREEKS
100
AcDbText
  0
TEXT
  5
99
330
1E
100
AcDbEntity
  8
TEXT
100
AcDbText
 10
224.9837501577827
 20
42.62974153022632
 30
0.0
 40
4.0
  1
19002070W.DWG
 41
0.8
  7
GREEKS
100
AcDbText
  0
TEXT
  5
9A
330
1E
100
AcDbEntity
  8
TEXT
100
AcDbText
 10
182.626132208084
 20
90.76363841023022
 30
0.0
 40
4.0
  1
DIN EN1124-3
 41
0.8
  7
GREEKS
 72
     1
 11
199.6166083985602
 21
90.76363841023022
 31
0.0
100
AcDbText
  0
INSERT
  5
9B
330
1E
100
AcDbEntity
  8
STEMPEL
100
AcDbBlockReference
  2
LOGO
 10
140.9955485457794
 20
45.02105276448322
 30
0.0
 41
2.0
 42
2.0
 43
2.0
  0
TEXT
  5
118
330
1E
100
AcDbEntity
  8
BEM
100
AcDbText
 10
417.3022923857165
 20
10.16790107998849
 30
0.0
 40
4.0
  1
Diese Zeichnung ist urheberrechtlich geschützt und bleibt unser Eigentum. Sie darf weder ganz noch teilweise verfielfältigt und nicht an Dritte weitergegeben werden.
 50
90.0
 41
0.8
  7
GREEKS
100
AcDbText
  0
TEXT
  5
5D2
330
1E
100
AcDbEntity
  8
TEXT
 62
     1
100
AcDbText
 10
211.6026745567941
 20
334.6660138133062
 30
0.0
 40
7.0
  1
DN70
 50
90.0
 41
0.8
  7
GREEKS
100
AcDbText
  0
TEXT
  5
948
330
1E
100
AcDbEntity
  8
TEXT
 62
     1
100
AcDbText
 10
234.6057658946468
 20
129.0783465745483
 30
0.0
 40
7.0
  1

 41
0.8
  7
GREEKS
100
AcDbText
  0
TEXT
  5
949
330
1E
100
AcDbEntity
  8
TEXT
 62
     1
100
AcDbText
 10
287.4373930478016
 20
139.8004583895517
 30
0.0
 40
7.0
  1
Werkstoff: 1.4301
 41
0.8
  7
GREEKS
100
AcDbText
  0
LINE
  5
DEF
330
1E
100
AcDbEntity
  8
MITTEL
100
AcDbLine
 10
215.273180399321
 20
457.9885559324247
 30
0.0
 11
215.2731803993212
 21
197.9885559324248
 31
0.0
  0
LINE
  5
DF2
330
1E
100
AcDbEntity
  8
STEMPEL
100
AcDbLine
 10
168.273180399321
 20
424.9885559324248
 30
0.0
 11
262.2731803993212
 21
424.9885559324248
 31
0.0
  0
DIMENSION
  5
DF8
330
1E
100
AcDbEntity
  8
BEM
100
AcDbDimension
  2
*D1
 10
361.2731803993211
 20
490.700520535912
 30
0.0
 11
215.2731803993211
 21
497.2005205359121
 31
0.0
 70
    32
  1
%%C<>
 71
     5
 42
292.0
  3
Standard
100
AcDbAlignedDimension
 13
69.27318039932107
 23
452.9885559324248
 33
0.0
 14
361.2731803993211
 24
452.9885559324248
 34
0.0
100
AcDbRotatedDimension
1001
ACAD
1000
DSTYLE
1002
{
1070
    40
1040
2.0
1070
    41
1040
3.5
1070
    42
1040
1.0
1070
    43
1040
7.0
1070
    44
1040
1.0
1070
    73
1070
     0
1070
    74
1070
     0
1070
    77
1070
     1
1070
    78
1070
     8
1070
    79
1070
     2
1070
   140
1040
3.5
1070
   141
1040
1.5
1070
   146
1040
0.5142857142857144
1070
   147
1040
1.5
1070
   172
1070
     1
1070
   178
1070
     1
1070
   179
1070
     2
1070
   271
1070
     2
1070
   272
1070
     2
1070
   284
1070
     8
1070
   285
1070
     8
1070
   286
1070
     8
1002
}
  0
DIMENSION
  5
DF9
330
1E
100
AcDbEntity
  8
BEM
100
AcDbDimension
  2
*D2
 10
266.2731803993211
 20
464.9838169758267
 30
0.0
 11
215.273180399321
 21
471.4838169758267
 31
0.0
 70
    32
  1
%%C<>
 71
     5
 42
102.0000000000001
  3
Standard
100
AcDbAlignedDimension
 13
164.2731803993209
 23
449.9885559324249
 33
0.0
 14
266.2731803993211
 24
449.9885559324249
 34
0.0
100
AcDbRotatedDimension
1001
ACAD
1000
DSTYLE
1002
{
1070
    40
1040
2.0
1070
    41
1040
3.5
1070
    42
1040
1.0
1070
    43
1040
7.0
1070
    44
1040
1.0
1070
    73
1070
     0
1070
    74
1070
     0
1070
    77
1070
     1
1070
    78
1070
     8
1070
    79
1070
     2
1070
   140
1040
3.5
1070
   141
1040
1.5
1070
   146
1040
0.5142857142857144
1070
   147
1040
1.5
1070
   172
1070
     1
1070
   178
1070
     1
1070
   179
1070
     2
1070
   271
1070
     2
1070
   272
1070
     2
1070
   284
1070
     8
1070
   285
1070
     8
1070
   286
1070
     8
1002
}
  0
LINE
  5
E10
330
1E
100
AcDbEntity
  8
STEMPEL
100
AcDbLine
 10
251.7731803993211
 20
363.0408291816836
 30
0.0
 11
251.7731803993198
 21
209.9885559324249
 31
0.0
  0
LINE
  5
E12
102
{ACAD_REACTORS
330
1285
102
}
330
1E
100
AcDbEntity
  8
STEMPEL
100
AcDbLine
 10
156.773180399321
 20
422.9885559324247
 30
0.0
 11
273.7731803993211
 21
422.9885559324247
 31
0.0
  0
LINE
  5
E13
102
{ACAD_REACTORS
330
1285
102
}
330
1E
100
AcDbEntity
  8
STEMPEL
100
AcDbLine
 10
156.773180399321
 20
424.9885559324248
 30
0.0
 11
273.7731803993211
 21
424.9885559324248
 31
0.0
  0
LINE
  5
E16
330
1E
100
AcDbEntity
  8
STEMPEL
100
AcDbLine
 10
167.273180399321
 20
444.9885559324249
 30
0.0
 11
168.273180399321
 21
443.9885559324249
 31
0.0
  0
LINE
  5
E17
330
1E
100
AcDbEntity
  8
STEMPEL
100
AcDbLine
 10
160.273180399321
 20
443.9885559324249
 30
0.0
 11
161.273180399321
 21
444.9885559324249
 31
0.0
  0
LINE
  5
E18
330
1E
100
AcDbEntity
  8
STEMPEL
100
AcDbLine
 10
160.273180399321
 20
443.9885559324249
 30
0.0
 11
168.2731803993209
 21
443.9885559324249
 31
0.0
  0
LINE
  5
E19
330
1E
100
AcDbEntity
  8
STEMPEL
100
AcDbLine
 10
161.273180399321
 20
444.9885559324249
 30
0.0
 11
167.273180399321
 21
444.9885559324249
 31
0.0
  0
LINE
  5
E29
330
1E
100
AcDbEntity
  8
HILF
100
AcDbLine
 10
161.273180399321
 20
444.9885559324249
 30
0.0
 11
161.2731803993211
 21
424.9885559324248
 31
0.0
  0
LINE
  5
E2A
330
1E
100
AcDbEntity
  8
STEMPEL
100
AcDbLine
 10
160.273180399321
 20
443.9885559324249
 30
0.0
 11
160.273180399321
 21
424.9885559324248
 31
0.0
  0
LINE
  5
E2B
330
1E
100
AcDbEntity
  8
HILF
100
AcDbLine
 10
167.273180399321
 20
444.9885559324249
 30
0.0
 11
167.273180399321
 21
424.9885559324248
 31
0.0
  0
LINE
  5
E2C
330
1E
100
AcDbEntity
  8
STEMPEL
100
AcDbLine
 10
168.273180399321
 20
443.9885559324249
 30
0.0
 11
168.273180399321
 21
424.9885559324248
 31
0.0
  0
LINE
  5
E2D
102
{ACAD_REACTORS
330
1285
102
}
330
1E
100
AcDbEntity
  8
MITTEL
100
AcDbLine
 10
164.2731803993209
 20
449.9885559324249
 30
0.0
 11
164.273180399321
 21
422.9885559324248
 31
0.0
  0
LINE
  5
E2E
330
1E
100
AcDbEntity
  8
STEMPEL
100
AcDbLine
 10
269.2731803993211
 20
444.9885559324249
 30
0.0
 11
270.2731803993211
 21
443.9885559324249
 31
0.0
  0
LINE
  5
E2F
330
1E
100
AcDbEntity
  8
STEMPEL
100
AcDbLine
 10
262.2731803993211
 20
443.9885559324249
 30
0.0
 11
263.2731803993211
 21
444.9885559324249
 31
0.0
  0
LINE
  5
E30
330
1E
100
AcDbEntity
  8
STEMPEL
100
AcDbLine
 10
262.2731803993211
 20
443.9885559324249
 30
0.0
 11
270.2731803993211
 21
443.9885559324249
 31
0.0
  0
LINE
  5
E31
330
1E
100
AcDbEntity
  8
STEMPEL
100
AcDbLine
 10
263.2731803993211
 20
444.9885559324249
 30
0.0
 11
269.2731803993211
 21
444.9885559324249
 31
0.0
  0
LINE
  5
E41
330
1E
100
AcDbEntity
  8
HILF
100
AcDbLine
 10
263.2731803993211
 20
444.9885559324249
 30
0.0
 11
263.2731803993211
 21
424.9885559324249
 31
0.0
  0
LINE
  5
E42
330
1E
100
AcDbEntity
  8
STEMPEL
100
AcDbLine
 10
262.2731803993211
 20
443.9885559324249
 30
0.0
 11
262.2731803993211
 21
424.9885559324248
 31
0.0
  0
LINE
  5
E43
330
1E
100
AcDbEntity
  8
HILF
100
AcDbLine
 10
269.2731803993211
 20
444.9885559324249
 30
0.0
 11
269.2731803993211
 21
424.9885559324249
 31
0.0
  0
LINE
  5
E44
330
1E
100
AcDbEntity
  8
STEMPEL
100
AcDbLine
 10
270.2731803993211
 20
443.9885559324249
 30
0.0
 11
270.2731803993211
 21
424.9885559324248
 31
0.0
  0
LINE
  5
E45
102
{ACAD_REACTORS
330
1285
102
}
330
1E
100
AcDbEntity
  8
MITTEL
100
AcDbLine
 10
266.2731803993211
 20
449.9885559324249
 30
0.0
 11
266.2731803993211
 21
422.9885559324246
 31
0.0
  0
LINE
  5
E55
102
{ACAD_REACTORS
330
1285
102
}
330
1E
100
AcDbEntity
  8
STEMPEL
100
AcDbLine
 10
313.6599529471075
 20
447.5639529866239
 30
0.0
 11
275.7845031445425
 21
425.5310162270048
 31
0.0
  0
LINE
  5
E56
102
{ACAD_REACTORS
330
1285
102
}
330
1E
100
AcDbEntity
  8
STEMPEL
100
AcDbLine
 10
116.8864078515346
 20
447.5639529866239
 30
0.0
 11
154.7618576540997
 21
425.5310162270048
 31
0.0
  0
LINE
  5
E57
102
{ACAD_REACTORS
330
1285
102
}
330
1E
100
AcDbEntity
  8
STEMPEL
100
AcDbLine
 10
253.2731803993211
 20
424.9885559324248
 30
0.0
 11
253.2731803993211
 21
422.9885559324247
 31
0.0
  0
LINE
  5
E58
102
{ACAD_REACTORS
330
1285
102
}
330
1E
100
AcDbEntity
  8
STEMPEL
100
AcDbLine
 10
177.273180399321
 20
424.9885559324248
 30
0.0
 11
177.273180399321
 21
422.9885559324247
 31
0.0
  0
ARC
  5
E59
102
{ACAD_REACTORS
330
1285
102
}
330
1E
100
AcDbEntity
  8
STEMPEL
100
AcDbCircle
 10
156.773180399321
 20
428.9885559324248
 30
0.0
 40
6.0
100
AcDbArc
 50
239.8125459251749
 51
270.0
  0
LINE
  5
E5A
102
{ACAD_REACTORS
330
1285
102
}
330
1E
100
AcDbEntity
  8
STEMPEL
100
AcDbLine
 10
115.8807464789239
 20
445.835183133914
 30
0.0
 11
153.756196281489
 21
423.8022463742948
 31
0.0
  0
ARC
  5
E5B
102
{ACAD_REACTORS
330
1285
102
}
330
1E
100
AcDbEntity
  8
STEMPEL
100
AcDbCircle
 10
96.77318039932107
 20
412.9885559324248
 30
0.0
 40
38.0
100
AcDbArc
 50
59.8125459251749
 51
90.0
  0
LINE
  5
E5C
102
{ACAD_REACTORS
330
1285
102
}
330
1E
100
AcDbEntity
  8
STEMPEL
100
AcDbLine
 10
333.7731803993211
 20
450.9885559324247
 30
0.0
 11
361.2731803993211
 21
450.9885559324247
 31
0.0
  0
ARC
  5
E5D
102
{ACAD_REACTORS
330
1285
102
}
330
1E
100
AcDbEntity
  8
STEMPEL
100
AcDbCircle
 10
273.7731803993211
 20
428.9885559324248
 30
0.0
 40
6.0
100
AcDbArc
 50
270.0
 51
300.1874540748251
  0
LINE
  5
E5E
102
{ACAD_REACTORS
330
1285
102
}
330
1E
100
AcDbEntity
  8
STEMPEL
100
AcDbLine
 10
314.6656143197182
 20
445.835183133914
 30
0.0
 11
276.790164517153
 21
423.8022463742948
 31
0.0
  0
ARC
  5
E5F
102
{ACAD_REACTORS
330
1285
102
}
330
1E
100
AcDbEntity
  8
STEMPEL
100
AcDbCircle
 10
333.7731803993211
 20
412.9885559324248
 30
0.0
 40
38.0
100
AcDbArc
 50
90.0
 51
120.1874540748251
  0
ARC
  5
E60
102
{ACAD_REACTORS
330
1285
102
}
330
1E
100
AcDbEntity
  8
STEMPEL
100
AcDbCircle
 10
96.77318039932107
 20
412.9885559324248
 30
0.0
 40
40.0
100
AcDbArc
 50
59.8125459251749
 51
90.0
  0
ARC
  5
E61
102
{ACAD_REACTORS
330
1285
102
}
330
1E
100
AcDbEntity
  8
STEMPEL
100
AcDbCircle
 10
333.7731803993211
 20
412.9885559324248
 30
0.0
 40
40.0
100
AcDbArc
 50
90.0
 51
120.1874540748251
  0
ARC
  5
E62
102
{ACAD_REACTORS
330
1285
102
}
330
1E
100
AcDbEntity
  8
STEMPEL
100
AcDbCircle
 10
273.7731803993211
 20
428.9885559324248
 30
0.0
 40
4.0
100
AcDbArc
 50
270.0
 51
300.1874540748251
  0
ARC
  5
E63
102
{ACAD_REACTORS
330
1285
102
}
330
1E
100
AcDbEntity
  8
STEMPEL
100
AcDbCircle
 10
156.773180399321
 20
428.9885559324248
 30
0.0
 40
4.0
100
AcDbArc
 50
239.8125459251749
 51
270.0
  0
LINE
  5
E64
102
{ACAD_REACTORS
330
1285
102
}
330
1E
100
AcDbEntity
  8
STEMPEL
100
AcDbLine
 10
361.2731803993211
 20
452.9885559324248
 30
0.0
 11
361.2731803993211
 21
450.9885559324247
 31
0.0
  0
LINE
  5
E65
102
{ACAD_REACTORS
330
1285
102
}
330
1E
100
AcDbEntity
  8
STEMPEL
100
AcDbLine
 10
69.27318039932107
 20
452.9885559324248
 30
0.0
 11
69.27318039932107
 21
450.9885559324247
 31
0.0
  0
LINE
  5
E67
102
{ACAD_REACTORS
330
1285
102
}
330
1E
100
AcDbEntity
  8
STEMPEL
100
AcDbLine
 10
69.27318039932107
 20
450.9885559324247
 30
0.0
 11
96.77318039932107
 21
450.9885559324247
 31
0.0
  0
LINE
  5
E6A
102
{ACAD_REACTORS
330
1285
102
}
330
1E
100
AcDbEntity
  8
STEMPEL
100
AcDbLine
 10
69.27318039932107
 20
452.9885559324248
 30
0.0
 11
361.2731803993211
 21
452.9885559324248
 31
0.0
  0
LINE
  5
E72
330
1E
100
AcDbEntity
  8
STEMPEL
100
AcDbLine
 10
219.2731803993211
 20
443.9885559324249
 30
0.0
 11
219.2731803993211
 21
424.9885559324248
 31
0.0
  0
LINE
  5
E73
330
1E
100
AcDbEntity
  8
HILF
100
AcDbLine
 10
218.2731803993211
 20
444.9885559324249
 30
0.0
 11
218.2731803993211
 21
424.9885559324248
 31
0.0
  0
LINE
  5
E74
330
1E
100
AcDbEntity
  8
STEMPEL
100
AcDbLine
 10
211.2731803993211
 20
443.9885559324249
 30
0.0
 11
211.2731803993211
 21
424.9885559324248
 31
0.0
  0
LINE
  5
E75
330
1E
100
AcDbEntity
  8
HILF
100
AcDbLine
 10
212.2731803993211
 20
444.9885559324249
 30
0.0
 11
212.2731803993211
 21
424.9885559324248
 31
0.0
  0
LINE
  5
E76
330
1E
100
AcDbEntity
  8
STEMPEL
100
AcDbLine
 10
218.2731803993211
 20
444.9885559324249
 30
0.0
 11
219.2731803993211
 21
443.9885559324249
 31
0.0
  0
LINE
  5
E77
330
1E
100
AcDbEntity
  8
STEMPEL
100
AcDbLine
 10
211.2731803993211
 20
443.9885559324249
 30
0.0
 11
212.2731803993211
 21
444.9885559324249
 31
0.0
  0
LINE
  5
E78
330
1E
100
AcDbEntity
  8
STEMPEL
100
AcDbLine
 10
212.2731803993211
 20
444.9885559324249
 30
0.0
 11
218.2731803993211
 21
444.9885559324249
 31
0.0
  0
LINE
  5
E79
330
1E
100
AcDbEntity
  8
STEMPEL
100
AcDbLine
 10
211.2731803993211
 20
443.9885559324249
 30
0.0
 11
219.2731803993209
 21
443.9885559324249
 31
0.0
  0
LINE
  5
E8A
330
1E
100
AcDbEntity
  8
STEMPEL
100
AcDbLine
 10
179.3856010440025
 20
202.9885559324249
 30
0.0
 11
251.1607597546398
 21
202.9885559324249
 31
0.0
  0
DIMENSION
  5
115C
330
1E
100
AcDbEntity
  8
SCHRAFF
100
AcDbDimension
  2
*D3
 10
376.6071610790368
 20
452.9885559324248
 30
0.0
 11
370.1071610790368
 21
471.8552225990915
 31
0.0
 70
    32
 71
     5
 42
2.0
  3
Standard
100
AcDbAlignedDimension
 13
361.2731803993211
 23
450.9885559324247
 33
0.0
 14
361.2731803993211
 24
452.9885559324248
 34
0.0
 50
90.0
100
AcDbRotatedDimension
1001
ACAD
1000
DSTYLE
1002
{
1070
    40
1040
2.0
1070
    41
1040
3.5
1070
    42
1040
1.0
1070
    43
1040
7.0
1070
    44
1040
1.0
1070
    73
1070
     0
1070
    74
1070
     0
1070
    77
1070
     1
1070
    78
1070
     8
1070
    79
1070
     2
1070
   140
1040
3.5
1070
   141
1040
1.5
1070
   146
1040
0.5142857142857144
1070
   147
1040
1.5
1070
   172
1070
     1
1070
   178
1070
     1
1070
   179
1070
     2
1070
   271
1070
     2
1070
   272
1070
     2
1070
   284
1070
     8
1070
   285
1070
     8
1070
   286
1070
     8
1002
}
  0
DIMENSION
  5
116B
330
1E
100
AcDbEntity
  8
BEM
100
AcDbDimension
  2
*D4
 10
59.78446580005422
 20
202.9885559324249
 30
0.0
 11
53.2844658000542
 21
327.9885559324248
 31
0.0
 70
    32
 71
     5
 42
249.9999999999999
  3
Standard
100
AcDbAlignedDimension
 13
69.27318039932107
 23
452.9885559324248
 33
0.0
 14
179.3856010440025
 24
202.9885559324249
 34
0.0
 50
90.0
100
AcDbRotatedDimension
1001
ACAD
1000
DSTYLE
1002
{
1070
    40
1040
2.0
1070
    41
1040
3.5
1070
    42
1040
1.0
1070
    43
1040
7.0
1070
    44
1040
1.0
1070
    73
1070
     0
1070
    74
1070
     0
1070
    77
1070
     1
1070
    78
1070
     8
1070
    79
1070
     2
1070
   140
1040
3.5
1070
   141
1040
1.5
1070
   146
1040
0.5142857142857144
1070
   147
1040
1.5
1070
   172
1070
     1
1070
   178
1070
     1
1070
   179
1070
     2
1070
   271
1070
     2
1070
   272
1070
     2
1070
   284
1070
     8
1070
   285
1070
     8
1070
   286
1070
     8
1002
}
  0
LINE
  5
11EB
330
1E
100
AcDbEntity
  8
STEMPEL
100
AcDbLine
 10
250.5731803993212
 20
363.0408291816836
 30
0.0
 11
250.5731803993212
 21
210.0409490639153
 31
0.0
  0
LINE
  5
11EF
330
1E
100
AcDbEntity
  8
STEMPEL
100
AcDbLine
 10
179.9731803993211
 20
363.0408291816836
 30
0.0
 11
179.9731803993211
 21
210.0409490639142
 31
0.0
  0
LINE
  5
1251
330
1E
100
AcDbEntity
  8
STEMPEL
100
AcDbLine
 10
178.7731803993211
 20
363.0408291816836
 30
0.0
 11
178.7731803993211
 21
209.9885559324249
 31
0.0
  0
HATCH
  5
1285
330
1E
100
AcDbEntity
  8
BEM
100
AcDbHatch
 10
0.0
 20
0.0
 30
0.0
210
0.0
220
0.0
230
1.0
  2
_USER
 70
     0
 71
     1
 91
        4
 92
        7
 72
     1
 73
     1
 93
       12
 10
333.7731803993211
 20
452.9885559324248
 42
0.1324846866320394
 10
313.6599529471076
 20
447.5639529866239
 42
0.0
 10
275.7845031445425
 20
425.5310162270048
 42
-0.1324846866320413
 10
273.7731803993211
 20
424.9885559324248
 42
0.0
 10
266.2731803993211
 20
424.9885559324248
 42
0.0
 10
266.273180399321
 20
422.9885559324247
 42
0.0
 10
273.7731803993211
 20
422.9885559324247
 42
0.1324846866320368
 10
276.790164517153
 20
423.8022463742948
 42
0.0
 10
314.6656143197182
 20
445.835183133914
 42
-0.1324846866320403
 10
333.7731803993211
 20
450.9885559324247
 42
0.0
 10
361.2731803993211
 20
450.9885559324247
 42
0.0
 10
361.2731803993211
 20
452.9885559324248
 42
0.0
 97
       12
330
E6A
330
E61
330
E55
330
E62
330
E13
330
E45
330
E12
330
E5D
330
E5E
330
E5F
330
E5C
330
E64
 92
        7
 72
     1
 73
     1
 93
       12
 10
69.27318039932107
 20
452.9885559324247
 42
0.0
 10
69.27318039932105
 20
450.9885559324247
 42
0.0
 10
96.77318039932107
 20
450.9885559324247
 42
-0.1324846866320399
 10
115.8807464789239
 20
445.835183133914
 42
0.0
 10
153.756196281489
 20
423.8022463742948
 42
0.132484686632038
 10
156.7731803993209
 20
422.9885559324247
 42
0.0
 10
164.273180399321
 20
422.9885559324247
 42
0.0
 10
164.2731803993209
 20
424.9885559324248
 42
0.0
 10
156.773180399321
 20
424.9885559324248
 42
-0.1324846866320423
 10
154.7618576540997
 20
425.5310162270048
 42
0.0
 10
116.8864078515346
 20
447.5639529866239
 42
0.1324846866320404
 10
96.77318039932103
 20
452.9885559324248
 42
0.0
 97
       12
330
E65
330
E67
330
E5B
330
E5A
330
E59
330
E12
330
E2D
330
E13
330
E63
330
E56
330
E60
330
E6A
 92
        7
 72
     0
 73
     1
 93
        4
 10
177.273180399321
 20
422.9885559324247
 10
177.2731803993211
 20
424.9885559324248
 10
164.2731803993209
 20
424.9885559324247
 10
164.273180399321
 20
422.9885559324247
 97
        4
330
E13
330
E2D
330
E12
330
E58
 92
        7
 72
     0
 73
     1
 93
        4
 10
253.2731803993211
 20
424.9885559324248
 10
253.273180399321
 20
422.9885559324247
 10
266.2731803993211
 20
422.9885559324247
 10
266.2731803993211
 20
424.9885559324248
 97
        4
330
E13
330
E57
330
E12
330
E45
 75
     0
 76
     0
 52
45.0
 41
2.0
 77
     0
 78
     1
 53
45.0
 43
-16.18944119789603
 44
7.994713317957348
 45
-1.414213562373094
 46
1.414213562373095
 79
     0
 47
0.3060430538636909
 98
        4
 10
339.850943136561
 20
452.2054274245683
 10
79.01038959837251
 20
452.2054274245683
 10
172.6925604803291
 20
423.7434240543288
 10
258.1086562330461
 20
424.0494665906332
  0
ARC
  5
1286
330
1E
100
AcDbEntity
  8
BEM
100
AcDbCircle
 10
254.5085126432971
 20
422.9885559324247
 30
0.0
 40
3.0
100
AcDbArc
 50
291.8319587893881
 51
0.0
  0
ARC
  5
1287
330
1E
100
AcDbEntity
  8
BEM
100
AcDbCircle
 10
176.0378481553449
 20
422.9885559324247
 30
0.0
 40
3.0
100
AcDbArc
 50
180.0000000000001
 51
248.168041210612
  0
HATCH
  5
1290
330
1E
100
AcDbEntity
  8
BEM
100
AcDbHatch
 10
0.0
 20
0.0
 30
0.0
210
0.0
220
0.0
230
1.0
  2
_USER
 70
     0
 71
     0
 91
        2
 92
        7
 72
     1
 73
     1
 93
        3
 10
254.5085126432971
 20
422.9885559324247
 42
-0.0305161962876784
 10
255.6241696660185
 20
420.2037203165127
 42
0.3065326142826381
 10
257.5085126432971
 20
422.9885559324247
 42
0.0
 97
        0
 92
        7
 72
     1
 73
     1
 93
        3
 10
173.0378481553449
 20
422.9885559324248
 42
0.3065326142826505
 10
174.9221911326234
 20
420.2037203165126
 42
-0.0305161962876796
 10
176.0378481553449
 20
422.9885559324247
 42
0.0
 97
        0
 75
     0
 76
     0
 52
0.0
 41
0.1
 77
     0
 78
     1
 53
0.0
 43
-16.18944119789603
 44
7.994713317957348
 45
0.0
 46
0.1
 79
     0
 47
0.1014887106367553
 98
        2
 10
256.1482128617213
 20
422.5491485474767
 10
175.0301624147218
 20
422.7521264509197
  0
LINE
  5
132D
330
1E
100
AcDbEntity
  8
STEMPEL
100
AcDbLine
 10
255.673180399321
 20
412.4647733425002
 30
0.0
 11
255.673180399321
 21
403.3585559324249
 31
0.0
  0
ARC
  5
132E
330
1E
100
AcDbEntity
  8
STEMPEL
100
AcDbCircle
 10
232.273180399321
 20
412.4647733425002
 30
0.0
 40
23.4
100
AcDbArc
 50
0.0
 51
26.72663811086391
  0
ARC
  5
132F
330
1E
100
AcDbEntity
  8
STEMPEL
100
AcDbCircle
 10
232.273180399321
 20
403.3585559324249
 30
0.0
 40
23.4
100
AcDbArc
 50
338.7004355745901
 51
0.0
  0
ARC
  5
1330
330
1E
100
AcDbEntity
  8
STEMPEL
100
AcDbCircle
 10
232.273180399321
 20
412.4647733425002
 30
0.0
 40
24.6
100
AcDbArc
 50
0.0
 51
25.32777242177722
  0
LINE
  5
1331
330
1E
100
AcDbEntity
  8
STEMPEL
100
AcDbLine
 10
256.873180399321
 20
412.4647733425003
 30
0.0
 11
256.873180399321
 21
403.3585559324249
 31
0.0
  0
ARC
  5
1332
330
1E
100
AcDbEntity
  8
STEMPEL
100
AcDbCircle
 10
232.273180399321
 20
403.3585559324249
 30
0.0
 40
24.6
100
AcDbArc
 50
338.7004355745901
 51
0.0
  0
LINE
  5
1333
330
1E
100
AcDbEntity
  8
STEMPEL
100
AcDbLine
 10
253.173180399321
 20
390.0638201321166
 30
0.0
 11
253.173180399321
 21
373.2133411625071
 31
0.0
  0
LINE
  5
1334
330
1E
100
AcDbEntity
  8
STEMPEL
100
AcDbLine
 10
254.373180399321
 20
390.0638201321166
 30
0.0
 11
254.373180399321
 21
373.2133411625072
 31
0.0
  0
ARC
  5
1335
330
1E
100
AcDbEntity
  8
STEMPEL
100
AcDbCircle
 10
266.373180399321
 20
390.0638201321167
 30
0.0
 40
12.0
100
AcDbArc
 50
158.7004355745901
 51
180.0
  0
ARC
  5
1336
330
1E
100
AcDbEntity
  8
STEMPEL
100
AcDbCircle
 10
266.373180399321
 20
390.0638201321167
 30
0.0
 40
13.2
100
AcDbArc
 50
158.7004355745901
 51
180.0
  0
ARC
  5
1337
330
1E
100
AcDbEntity
  8
STEMPEL
100
AcDbCircle
 10
261.373180399321
 20
363.0408291816836
 30
0.0
 40
10.8
100
AcDbArc
 50
151.3253430949261
 51
180.0
  0
ARC
  5
1338
330
1E
100
AcDbEntity
  8
STEMPEL
100
AcDbCircle
 10
261.373180399321
 20
363.0408291816836
 30
0.0
 40
9.600000000000001
100
AcDbArc
 50
151.3253430949261
 51
180.0
  0
ARC
  5
1339
330
1E
100
AcDbEntity
  8
STEMPEL
100
AcDbCircle
 10
242.773180399321
 20
373.2133411625071
 30
0.0
 40
10.4
100
AcDbArc
 50
331.3253430949261
 51
0.0
  0
ARC
  5
133A
330
1E
100
AcDbEntity
  8
STEMPEL
100
AcDbCircle
 10
242.773180399321
 20
373.2133411625071
 30
0.0
 40
11.6
100
AcDbArc
 50
331.3253430949261
 51
0.0
  0
ARC
  5
133B
330
1E
100
AcDbEntity
  8
STEMPEL
100
AcDbCircle
 10
187.773180399321
 20
373.2133411625071
 30
0.0
 40
11.6
100
AcDbArc
 50
180.0
 51
208.6746569050739
  0
ARC
  5
133C
330
1E
100
AcDbEntity
  8
STEMPEL
100
AcDbCircle
 10
187.773180399321
 20
373.2133411625071
 30
0.0
 40
10.4
100
AcDbArc
 50
180.0
 51
208.6746569050739
  0
ARC
  5
133D
330
1E
100
AcDbEntity
  8
STEMPEL
100
AcDbCircle
 10
169.173180399321
 20
363.0408291816836
 30
0.0
 40
9.600000000000001
100
AcDbArc
 50
0.0
 51
28.67465690507389
  0
ARC
  5
133E
330
1E
100
AcDbEntity
  8
STEMPEL
100
AcDbCircle
 10
169.173180399321
 20
363.0408291816836
 30
0.0
 40
10.8
100
AcDbArc
 50
0.0
 51
28.67465690507389
  0
ARC
  5
133F
330
1E
100
AcDbEntity
  8
STEMPEL
100
AcDbCircle
 10
164.173180399321
 20
390.0638201321166
 30
0.0
 40
13.2
100
AcDbArc
 50
0.0
 51
21.29956442540992
  0
ARC
  5
1340
330
1E
100
AcDbEntity
  8
STEMPEL
100
AcDbCircle
 10
164.173180399321
 20
390.0638201321166
 30
0.0
 40
12.0
100
AcDbArc
 50
0.0
 51
21.29956442540992
  0
LINE
  5
1341
330
1E
100
AcDbEntity
  8
STEMPEL
100
AcDbLine
 10
176.173180399321
 20
390.0638201321166
 30
0.0
 11
176.173180399321
 21
373.2133411625071
 31
0.0
  0
LINE
  5
1342
330
1E
100
AcDbEntity
  8
STEMPEL
100
AcDbLine
 10
177.373180399321
 20
390.0638201321166
 30
0.0
 11
177.373180399321
 21
373.2133411625071
 31
0.0
  0
ARC
  5
1343
330
1E
100
AcDbEntity
  8
STEMPEL
100
AcDbCircle
 10
198.273180399321
 20
403.3585559324248
 30
0.0
 40
24.6
100
AcDbArc
 50
180.0
 51
201.2995644254099
  0
LINE
  5
1344
330
1E
100
AcDbEntity
  8
STEMPEL
100
AcDbLine
 10
173.673180399321
 20
412.4647733425002
 30
0.0
 11
173.673180399321
 21
403.3585559324247
 31
0.0
  0
ARC
  5
1345
330
1E
100
AcDbEntity
  8
STEMPEL
100
AcDbCircle
 10
198.273180399321
 20
412.4647733425002
 30
0.0
 40
24.6
100
AcDbArc
 50
154.6722275782228
 51
180.0
  0
ARC
  5
1346
330
1E
100
AcDbEntity
  8
STEMPEL
100
AcDbCircle
 10
198.273180399321
 20
403.3585559324248
 30
0.0
 40
23.4
100
AcDbArc
 50
180.0
 51
201.2995644254099
  0
ARC
  5
1347
330
1E
100
AcDbEntity
  8
STEMPEL
100
AcDbCircle
 10
198.273180399321
 20
412.4647733425002
 30
0.0
 40
23.4
100
AcDbArc
 50
153.2733618891361
 51
180.0
  0
LINE
  5
1348
330
1E
100
AcDbEntity
  8
STEMPEL
100
AcDbLine
 10
174.873180399321
 20
412.4647733425002
 30
0.0
 11
174.873180399321
 21
403.3585559324247
 31
0.0
  0
LINE
  5
134E
330
1E
100
AcDbEntity
  8
HILF
  6
Continuous
100
AcDbLine
 10
252.1449701389575
 20
392.2814839449804
 30
0.0
 11
178.4013906596846
 21
392.2814839449803
 31
0.0
  0
LINE
  5
134F
330
1E
100
AcDbEntity
  8
HILF
  6
Continuous
100
AcDbLine
 10
251.5132421408239
 20
370.340829934554
 30
0.0
 11
179.0331186578181
 21
370.340829934554
 31
0.0
  0
LINE
  5
1350
330
1E
100
AcDbEntity
  8
HILF
  6
Continuous
100
AcDbLine
 10
249.6110088631937
 20
365.4180798530931
 30
0.0
 11
180.9353519354483
 21
365.4180798530931
 31
0.0
  0
LINE
  5
154F
330
1E
100
AcDbEntity
  8
HILF
100
AcDbLine
 10
181.1823480094251
 20
209.9885559324249
 30
0.0
 11
249.3640127892172
 21
209.9885559324249
 31
0.0
  0
LINE
  5
1550
330
1E
100
AcDbEntity
  8
STEMPEL
100
AcDbLine
 10
178.7731803993211
 20
209.9885559324249
 30
0.0
 11
179.3856010440025
 21
202.9885559324249
 31
0.0
  0
LINE
  5
1551
330
1E
100
AcDbEntity
  8
STEMPEL
100
AcDbLine
 10
179.9731803993211
 20
210.0409490639142
 30
0.0
 11
180.5901848490545
 21
202.9885559324248
 31
0.0
  0
LINE
  5
1554
330
1E
100
AcDbEntity
  8
STEMPEL
100
AcDbLine
 10
250.5731803993212
 20
210.0409490639153
 30
0.0
 11
249.9561759495877
 21
202.9885559324249
 31
0.0
  0
LINE
  5
1555
330
1E
100
AcDbEntity
  8
STEMPEL
100
AcDbLine
 10
251.7731803993213
 20
209.9885559324249
 30
0.0
 11
251.1607597546398
 21
202.9885559324249
 31
0.0
  0
DIMENSION
  5
1568
330
1E
100
AcDbEntity
  8
BEM
100
AcDbDimension
  2
*D5
 10
251.7731803993198
 20
185.1184954480245
 30
0.0
 11
215.2731803993205
 21
191.6184954480245
 31
0.0
 70
    32
  1
%%c<>
 71
     5
 42
72.99999999999872
  3
Standard
100
AcDbAlignedDimension
 13
178.7731803993211
 23
209.9885559324249
 33
0.0
 14
251.7731803993198
 24
209.9885559324249
 34
0.0
100
AcDbRotatedDimension
1001
ACAD
1000
DSTYLE
1002
{
1070
    40
1040
2.0
1070
    41
1040
3.5
1070
    42
1040
1.0
1070
    43
1040
7.0
1070
    44
1040
1.0
1070
    73
1070
     0
1070
    74
1070
     0
1070
    77
1070
     1
1070
    78
1070
     8
1070
    79
1070
     2
1070
   140
1040
3.5
1070
   141
1040
1.5
1070
   146
1040
0.5142857142857144
1070
   147
1040
1.5
1070
   172
1070
     1
1070
   178
1070
     1
1070
   179
1070
     2
1070
   271
1070
     2
1070
   272
1070
     2
1070
   284
1070
     8
1070
   285
1070
     8
1070
   286
1070
     8
1002
}
  0
HATCH
  5
15B4
330
1E
100
AcDbEntity
  8
SCHRAFF
100
AcDbHatch
 10
0.0
 20
0.0
 30
0.0
210
0.0
220
0.0
230
1.0
  2
_USER
 70
     0
 71
     0
 91
        2
 92
        7
 72
     1
 73
     1
 93
       20
 10
250.5731803993212
 20
210.0409490639154
 42
0.0
 10
249.9561759495877
 20
202.9885559324249
 42
0.0
 10
251.1607597546398
 20
202.9885559324249
 42
0.0
 10
251.7731803993198
 20
209.9885559324078
 42
0.0
 10
251.7731803993211
 20
363.0408291816836
 42
-0.1257737761160446
 10
252.9505388898869
 20
367.6472497013017
 42
0.1257737761160553
 10
254.373180399321
 20
373.2133411625072
 42
0.0
 10
254.373180399321
 20
390.0638201321166
 42
-0.0932053832641477
 10
255.1928525304687
 20
394.4227499027098
 42
0.0932053832641367
 10
256.873180399321
 20
403.3585559324249
 42
0.0
 10
256.873180399321
 20
412.4647733425003
 42
0.110965370149253
 10
254.5085126432971
 20
422.9885559324247
 42
0.0
 10
253.1731803993211
 20
422.9885559324247
 42
-0.1171484945869484
 10
255.673180399321
 20
412.4647733425002
 42
0.0
 10
255.673180399321
 20
403.3585559324249
 42
-0.0932053832641467
 10
254.0748197435831
 20
394.8586428797682
 42
0.0932053832641279
 10
253.173180399321
 20
390.0638201321167
 42
0.0
 10
253.173180399321
 20
373.2133411625071
 42
-0.1257737761160453
 10
251.8977087012079
 20
368.2230522662543
 42
0.1257737761160562
 10
250.5731803993212
 20
363.0408291816835
 42
0.0
 97
        0
 92
        7
 72
     1
 73
     1
 93
       20
 10
178.7731803993211
 20
209.988555932425
 42
0.0
 10
179.3856010440025
 20
202.9885559324248
 42
0.0
 10
180.5901848490546
 20
202.9885559324248
 42
0.0
 10
179.9731803993211
 20
210.0409490639141
 42
0.0
 10
179.9731803993211
 20
363.0408291816836
 42
0.1257737761160501
 10
178.6486520974342
 20
368.223052266254
 42
-0.1257737761160518
 10
177.373180399321
 20
373.2133411625071
 42
0.0
 10
177.373180399321
 20
390.0638201321166
 42
0.0932053832641409
 10
176.4715410550587
 20
394.8586428797688
 42
-0.0932053832641394
 10
174.873180399321
 20
403.3585559324247
 42
0.0
 10
174.873180399321
 20
412.4647733425002
 42
-0.1171484945869484
 10
177.373180399321
 20
422.9885559324247
 42
0.0
 10
176.0378481553449
 20
422.9885559324247
 42
0.1109653701492537
 10
173.673180399321
 20
412.4647733425002
 42
0.0
 10
173.673180399321
 20
403.3585559324247
 42
0.0932053832641405
 10
175.3535082681735
 20
394.4227499027094
 42
-0.0932053832641402
 10
176.173180399321
 20
390.0638201321166
 42
0.0
 10
176.173180399321
 20
373.2133411625071
 42
0.1257737761160508
 10
177.595821908755
 20
367.6472497013018
 42
-0.1257737761160527
 10
178.7731803993211
 20
363.0408291816835
 42
0.0
 97
        0
 75
     0
 76
     0
 52
135.0
 41
2.0
 77
     0
 78
     1
 53
135.0
 43
-16.18944119789603
 44
7.994713317957348
 45
-1.414213562373095
 46
-1.414213562373094
 79
     0
 47
0.3506939688898622
 98
        2
 10
250.9133147947669
 20
342.917517177988
 10
179.3494110612141
 20
353.087642987364
  0
TEXT
  5
15BA
330
1E
100
AcDbEntity
  8
TEXT
 62
     1
100
AcDbText
 10
370.1541009036097
 20
62.45815442786511
 30
0.0
 40
7.0
  1

 41
0.8
  7
GREEKS
 72
     1
 11
370.1541009036097
 21
62.45815442786511
 31
0.0
100
AcDbText
  0
ARC
  5
161A
330
1E
100
AcDbEntity
  8
STEMPEL
100
AcDbCircle
 10
153.0915340634239
 20
268.8283891413004
 30
0.0
 40
3.0
100
AcDbArc
 50
183.5763343749981
 51
270.0
  0
LINE
  5
161B
330
1E
100
AcDbEntity
  8
STEMPEL
100
AcDbLine
 10
172.7731803993214
 20
267.8283891413001
 30
0.0
 11
172.7731803993214
 21
265.8283891413002
 31
0.0
  0
LINE
  5
161C
330
1E
100
AcDbEntity
  8
STEMPEL
100
AcDbLine
 10
178.7731803993211
 20
274.8683891413004
 30
0.0
 11
167.7731803993214
 21
289.8283891412985
 31
0.0
  0
LINE
  5
161D
330
1E
100
AcDbEntity
  8
STEMPEL
100
AcDbLine
 10
178.7731803993211
 20
265.8283891413
 30
0.0
 11
153.0915340634239
 21
265.8283891413004
 31
0.0
  0
LINE
  5
161E
330
1E
100
AcDbEntity
  8
STEMPEL
100
AcDbLine
 10
178.7731803993211
 20
267.8283891413
 30
0.0
 11
172.7731803993214
 21
267.8283891413001
 31
0.0
  0
LINE
  5
161F
330
1E
100
AcDbEntity
  8
STEMPEL
100
AcDbLine
 10
178.7731803993211
 20
289.8283891413001
 30
0.0
 11
167.7731803993214
 21
289.8283891413003
 31
0.0
  0
ARC
  5
1620
330
1E
100
AcDbEntity
  8
STEMPEL
100
AcDbCircle
 10
277.4548267352183
 20
268.8283891412987
 30
0.0
 40
3.0
100
AcDbArc
 50
270.0
 51
356.4236656250018
  0
LINE
  5
1621
330
1E
100
AcDbEntity
  8
STEMPEL
100
AcDbLine
 10
262.7731803993212
 20
289.8283891412987
 30
0.0
 11
251.7731803993205
 21
289.8283891412989
 31
0.0
  0
LINE
  5
1622
330
1E
100
AcDbEntity
  8
STEMPEL
100
AcDbLine
 10
251.7731803993204
 20
274.8683891412989
 30
0.0
 11
262.7731803993212
 21
289.8283891412988
 31
0.0
  0
LINE
  5
1623
330
1E
100
AcDbEntity
  8
STEMPEL
100
AcDbLine
 10
277.4548267352183
 20
265.8283891412987
 30
0.0
 11
251.7731803993203
 21
265.8283891412991
 31
0.0
  0
DIMENSION
  5
1624
330
1E
100
AcDbEntity
  8
BEM
100
AcDbDimension
  2
*D6
 10
280.2707250338428
 20
170.0193188469281
 30
0.0
 11
215.2731803993211
 21
176.5193188469281
 31
0.0
 70
    32
  1
%%c<>
 71
     5
 42
129.9950892690433
  3
Standard
100
AcDbAlignedDimension
 13
150.2756357647994
 23
265.8283891413004
 33
0.0
 14
280.2707250338428
 24
265.8283891412986
 34
0.0
100
AcDbRotatedDimension
1001
ACAD
1000
DSTYLE
1002
{
1070
    40
1040
2.0
1070
    41
1040
3.5
1070
    42
1040
1.0
1070
    43
1040
7.0
1070
    44
1040
1.0
1070
    73
1070
     0
1070
    74
1070
     0
1070
    77
1070
     1
1070
    78
1070
     8
1070
    79
1070
     2
1070
   140
1040
3.5
1070
   141
1040
1.5
1070
   146
1040
0.5
1070
   147
1040
1.5
1070
   172
1070
     1
1070
   178
1070
     1
1070
   179
1070
     2
1070
   271
1070
     2
1070
   272
1070
     2
1070
   284
1070
     8
1070
   285
1070
     8
1070
   286
1070
     8
1070
   340
1005
24
1002
}
  0
DIMENSION
  5
1625
330
1E
100
AcDbEntity
  8
BEM
100
AcDbDimension
  2
*D7
 10
75.12655541439603
 20
265.8283891413004
 30
0.0
 11
68.62655541439598
 21
345.8283891413004
 31
0.0
 70
    32
 71
     5
 42
160.0
  3
Standard
100
AcDbAlignedDimension
 13
140.2731803993212
 23
425.8283891413003
 33
0.0
 14
150.2756357647994
 24
265.8283891413004
 34
0.0
 50
90.0
100
AcDbRotatedDimension
1001
ACAD
1000
DSTYLE
1002
{
1070
    40
1040
2.0
1070
    41
1040
3.5
1070
    42
1040
1.0
1070
    43
1040
7.0
1070
    44
1040
1.0
1070
    73
1070
     0
1070
    74
1070
     0
1070
    77
1070
     1
1070
    78
1070
     8
1070
    79
1070
     2
1070
   140
1040
3.5
1070
   141
1040
1.5
1070
   146
1040
0.5
1070
   147
1040
1.5
1070
   172
1070
     1
1070
   178
1070
     1
1070
   179
1070
     2
1070
   271
1070
     2
1070
   272
1070
     2
1070
   284
1070
     8
1070
   285
1070
     8
1070
   286
1070
     8
1070
   340
1005
24
1002
}
  0
DIMENSION
  5
1626
330
1E
100
AcDbEntity
  8
BEM
100
AcDbDimension
  2
*D8
 10
75.12655541439603
 20
265.8283891413004
 30
0.0
 11
68.62655541439598
 21
234.4084725368626
 31
0.0
 70
    32
  1
63
 71
     5
 42
62.83983320887552
  3
Standard
100
AcDbAlignedDimension
 13
179.3856010440025
 23
202.9885559324249
 33
0.0
 14
150.2756357647994
 24
265.8283891413004
 34
0.0
 50
90.0
100
AcDbRotatedDimension
1001
ACAD
1000
DSTYLE
1002
{
1070
    40
1040
2.0
1070
    41
1040
3.5
1070
    42
1040
1.0
1070
    43
1040
7.0
1070
    44
1040
1.0
1070
    73
1070
     0
1070
    74
1070
     0
1070
    77
1070
     1
1070
    78
1070
     8
1070
    79
1070
     2
1070
   140
1040
3.5
1070
   141
1040
1.5
1070
   146
1040
0.5142857142857144
1070
   147
1040
1.5
1070
   172
1070
     1
1070
   178
1070
     1
1070
   179
1070
     2
1070
   271
1070
     2
1070
   272
1070
     2
1070
   284
1070
     8
1070
   285
1070
     8
1070
   286
1070
     8
1002
}
  0
LINE
  5
1627
330
1E
100
AcDbEntity
  8
STEMPEL
100
AcDbLine
 10
262.7731803993212
 20
355.8283891413006
 30
0.0
 11
268.773180399321
 21
361.8283891413005
 31
0.0
  0
LINE
  5
1628
330
1E
100
AcDbEntity
  8
STEMPEL
100
AcDbLine
 10
262.7731803993212
 20
355.8283891413006
 30
0.0
 11
251.7731803993211
 21
355.8283891413006
 31
0.0
  0
LINE
  5
1629
330
1E
100
AcDbEntity
  8
STEMPEL
100
AcDbLine
 10
262.7731803993212
 20
355.8283891413006
 30
0.0
 11
262.7731803993212
 21
289.8283891412988
 31
0.0
  0
LINE
  5
162A
330
1E
100
AcDbEntity
  8
STEMPEL
100
AcDbLine
 10
268.7731803993207
 20
361.8283891413005
 30
0.0
 11
251.7731803993211
 21
361.8283891413005
 31
0.0
  0
LINE
  5
162B
330
1E
100
AcDbEntity
  8
STEMPEL
100
AcDbLine
 10
290.2731803993212
 20
425.8283891413003
 30
0.0
 11
280.4489844706669
 21
268.6412542828332
 31
0.0
  0
LINE
  5
162C
330
1E
100
AcDbEntity
  8
STEMPEL
100
AcDbLine
 10
268.773180399321
 20
361.8283891413002
 30
0.0
 11
268.7731803993212
 21
415.8283891413004
 31
0.0
  0
TEXT
  5
162D
330
1E
100
AcDbEntity
  8
TEXT
 62
     1
100
AcDbText
 10
300.4646306860653
 20
346.0468980611092
 30
0.0
 40
7.0
  1
Wärmedämmung DN70
 41
0.8
  7
GREEKS
100
AcDbText
  0
TEXT
  5
162E
330
1E
100
AcDbEntity
  8
TEXT
 62
     1
100
AcDbText
 10
300.4646306860653
 20
333.1596341904044
 30
0.0
 40
7.0
  1
EDV-Art.Nr. 19842.070X
 41
0.8
  7
GREEKS
100
AcDbText
  0
LINE
  5
162F
330
1E
100
AcDbEntity
  8
TEXT
 62
     2
100
AcDbLine
 10
299.1919434633477
 20
342.5167882477053
 30
0.0
 11
406.1720707335265
 21
342.5167882477053
 31
0.0
  0
LINE
  5
1630
330
1E
100
AcDbEntity
  8
TEXT
 62
     2
100
AcDbLine
 10
299.1919434633477
 20
342.5167882477053
 30
0.0
 11
281.6099977324233
 21
350.5692378833495
 31
0.0
  0
HATCH
  5
1631
330
1E
100
AcDbEntity
  8
SCHRAFF
100
AcDbHatch
 10
0.0
 20
0.0
 30
0.0
210
0.0
220
0.0
230
1.0
  2
HONEY
 70
     0
 71
     0
 91
        2
 92
        7
 72
     1
 73
     1
 93
       12
 10
268.773180399321
 20
361.8283891413005
 42
0.0
 10
262.7731803993212
 20
355.8283891413006
 42
0.0
 10
262.7731803993211
 20
289.8283891412987
 42
0.0
 10
251.7731803993204
 20
274.8683891412989
 42
0.0
 10
251.7731803993203
 20
267.828389141299
 42
0.0
 10
257.7731803993214
 20
267.828389141299
 42
0.0
 10
257.7731803993214
 20
265.828389141299
 42
0.0
 10
277.4548267352183
 20
265.8283891412987
 42
0.3960474615044482
 10
280.4489844706669
 20
268.6412542828332
 42
0.0
 10
290.2731803993212
 20
425.8283891413006
 42
0.0
 10
280.2731803993215
 20
425.8283891413007
 42
0.0
 10
268.7731803993212
 20
415.8283891413004
 42
0.0
 97
        0
 92
        7
 72
     1
 73
     1
 93
       12
 10
161.7731803993212
 20
415.8283891413004
 42
0.0
 10
150.2731803993212
 20
425.8283891413005
 42
0.0
 10
140.2731803993212
 20
425.8283891413003
 42
0.0
 10
150.0973763279753
 20
268.6412542828348
 42
0.3960474615044429
 10
153.0915340634239
 20
265.8283891413004
 42
0.0
 10
172.7731803993214
 20
265.8283891413001
 42
0.0
 10
172.7731803993214
 20
267.8283891413001
 42
0.0
 10
178.7731803993211
 20
267.8283891413
 42
0.0
 10
178.7731803993211
 20
274.8683891413005
 42
0.0
 10
167.7731803993214
 20
289.8283891412985
 42
0.0
 10
167.7731803993209
 20
355.8283891413002
 42
0.0
 10
161.7731803993214
 20
361.8283891412999
 42
0.0
 97
        0
 75
     0
 76
     1
 52
0.0
 41
30.0
 77
     0
 78
     3
 53
0.0
 43
-4.150256425376483
 44
7.994713317957348
 45
5.625
 46
3.247595249999999
 79
     2
 49
3.75
 49
-7.5
 53
120.0
 43
-4.150256425376483
 44
7.994713317957348
 45
-5.624999987709673
 46
3.247595271287468
 79
     2
 49
3.749999999999997
 49
-7.499999999999994
 53
60.0
 43
-4.150256425376483
 44
7.994713317957348
 45
0.0000000122903263
 46
6.495190521287468
 79
     2
 49
-7.5
 49
3.75
 47
0.3960763832002043
 98
        2
 10
275.2946861913784
 20
387.4242811032302
 10
153.658224194975
 20
377.9184471839578
  0
LINE
  5
1632
330
1E
100
AcDbEntity
  8
STEMPEL
100
AcDbLine
 10
167.7731803993209
 20
355.8283891413004
 30
0.0
 11
161.7731803993211
 21
361.8283891413001
 31
0.0
  0
LINE
  5
1633
330
1E
100
AcDbEntity
  8
STEMPEL
100
AcDbLine
 10
167.7731803993209
 20
355.8283891413004
 30
0.0
 11
167.7731803993214
 21
289.8283891412985
 31
0.0
  0
LINE
  5
1634
330
1E
100
AcDbEntity
  8
STEMPEL
100
AcDbLine
 10
161.7731803993214
 20
361.8283891413002
 30
0.0
 11
161.7731803993212
 21
415.8283891413004
 31
0.0
  0
LINE
  5
1635
330
1E
100
AcDbEntity
  8
STEMPEL
100
AcDbLine
 10
178.7731803993211
 20
355.8283891413005
 30
0.0
 11
167.7731803993209
 21
355.8283891413005
 31
0.0
  0
LINE
  5
1636
330
1E
100
AcDbEntity
  8
STEMPEL
100
AcDbLine
 10
178.7731803993211
 20
361.8283891413002
 30
0.0
 11
161.7731803993214
 21
361.8283891413002
 31
0.0
  0
LINE
  5
1637
330
1E
100
AcDbEntity
  8
STEMPEL
100
AcDbLine
 10
140.2731803993212
 20
425.8283891413003
 30
0.0
 11
150.0973763279753
 21
268.6412542828348
 31
0.0
  0
LINE
  5
1638
330
1E
100
AcDbEntity
  8
STEMPEL
100
AcDbLine
 10
268.7731803993214
 20
415.8283891413005
 30
0.0
 11
256.642137881291
 21
415.8283891413005
 31
0.0
  0
LINE
  5
1639
330
1E
100
AcDbEntity
  8
STEMPEL
100
AcDbLine
 10
280.2731803993212
 20
425.8283891413005
 30
0.0
 11
268.7731803993212
 21
415.8283891413004
 31
0.0
  0
LINE
  5
163A
330
1E
100
AcDbEntity
  8
STEMPEL
100
AcDbLine
 10
290.2731803993214
 20
425.8283891413007
 30
0.0
 11
280.2731803993211
 21
425.8283891413007
 31
0.0
  0
DIMENSION
  5
163B
330
1E
100
AcDbEntity
  8
BEM
100
AcDbDimension
  2
*D9
 10
290.2731803993215
 20
478.026268999821
 30
0.0
 11
215.2731803993213
 21
484.526268999821
 31
0.0
 70
    32
  1
%%c<>
 71
     5
 42
150.0000000000002
  3
Standard
100
AcDbAlignedDimension
 13
140.2731803993212
 23
425.8283891413003
 33
0.0
 14
290.2731803993215
 24
425.8283891413007
 34
0.0
100
AcDbRotatedDimension
1001
ACAD
1000
DSTYLE
1002
{
1070
    40
1040
2.0
1070
    41
1040
3.5
1070
    42
1040
1.0
1070
    43
1040
7.0
1070
    44
1040
1.0
1070
    73
1070
     0
1070
    74
1070
     0
1070
    77
1070
     1
1070
    78
1070
     8
1070
    79
1070
     2
1070
   140
1040
3.5
1070
   141
1040
1.5
1070
   146
1040
0.5
1070
   147
1040
1.5
1070
   172
1070
     1
1070
   178
1070
     1
1070
   179
1070
     2
1070
   271
1070
     2
1070
   272
1070
     2
1070
   284
1070
     8
1070
   285
1070
     8
1070
   286
1070
     8
1070
   340
1005
24
1002
}
  0
LINE
  5
163C
330
1E
100
AcDbEntity
  8
STEMPEL
100
AcDbLine
 10
150.2731803993212
 20
425.8283891413005
 30
0.0
 11
161.7731803993212
 21
415.8283891413004
 31
0.0
  0
LINE
  5
163D
330
1E
100
AcDbEntity
  8
STEMPEL
100
AcDbLine
 10
173.904222917351
 20
415.8283891413004
 30
0.0
 11
161.7731803993212
 21
415.8283891413004
 31
0.0
  0
LINE
  5
163E
330
1E
100
AcDbEntity
  8
STEMPEL
100
AcDbLine
 10
150.2731803993213
 20
425.8283891413005
 30
0.0
 11
140.2731803993214
 21
425.8283891413005
 31
0.0
  0
LINE
  5
16AE
330
1E
100
AcDbEntity
  8
TEXT
 62
     2
100
AcDbLine
 10
291.137266346247
 20
228.7699386286283
 30
0.0
 11
250.8703867836015
 21
236.8223882642725
 31
0.0
  0
LINE
  5
16AF
330
1E
100
AcDbEntity
  8
TEXT
 62
     2
100
AcDbLine
 10
291.137266346247
 20
228.7699386286283
 30
0.0
 11
398.1173936164258
 21
228.7699386286283
 31
0.0
  0
TEXT
  5
16B0
330
1E
100
AcDbEntity
  8
TEXT
 62
     1
100
AcDbText
 10
292.4099535689646
 20
219.4127845713274
 30
0.0
 40
7.0
  1
EDV-Art.Nr. 19001.070X
 41
0.8
  7
GREEKS
100
AcDbText
  0
TEXT
  5
16B1
330
1E
100
AcDbEntity
  8
TEXT
 62
     1
100
AcDbText
 10
292.4099535689646
 20
232.3000484420322
 30
0.0
 40
7.0
  1
Ablauftopf DN70
 41
0.8
  7
GREEKS
100
AcDbText
  0
TEXT
  5
177C
330
1E
100
AcDbEntity
  8
TEXT
100
AcDbText
 10
225.1296391125315
 20
71.64011943042154
 30
0.0
 40
5.0
  1
mit Wärmedämmung
 41
0.8
  7
GREEKS
100
AcDbText
  0
ENDSEC
  0
SECTION
  2
OBJECTS
  0
DICTIONARY
  5
C
330
0
100
AcDbDictionary
281
     1
  3
ACAD_COLOR
350
DF
  3
ACAD_GROUP
350
D
  3
ACAD_LAYOUT
350
19
  3
ACAD_MATERIAL
350
DE
  3
ACAD_MLINESTYLE
350
16
  3
ACAD_PLOTSETTINGS
350
18
  3
ACAD_PLOTSTYLENAME
350
E
  3
AcDbVariableDictionary
350
EA
  0
DICTIONARY
  5
A0
330
1E
100
AcDbDictionary
280
     1
281
     1
  3
ACAD_LAYOUTSELFREF
360
D4
  0
DICTIONARY
  5
A2
330
1A
100
AcDbDictionary
280
     1
281
     1
  3
ACAD_LAYOUTSELFREF
360
D3
  0
DICTIONARY
  5
DF
102
{ACAD_REACTORS
330
C
102
}
330
C
100
AcDbDictionary
281
     1
  0
DICTIONARY
  5
D
102
{ACAD_REACTORS
330
C
102
}
330
C
100
AcDbDictionary
281
     1
  0
DICTIONARY
  5
19
102
{ACAD_REACTORS
330
C
102
}
330
C
100
AcDbDictionary
281
     1
  3
Layout1
350
1D
  3
Model
350
21
  0
DICTIONARY
  5
DE
102
{ACAD_REACTORS
330
C
102
}
330
C
100
AcDbDictionary
281
     1
  0
DICTIONARY
  5
16
102
{ACAD_REACTORS
330
C
102
}
330
C
100
AcDbDictionary
281
     1
  3
Standard
350
17
  0
DICTIONARY
  5
18
102
{ACAD_REACTORS
330
C
102
}
330
C
100
AcDbDictionary
281
     1
  0
ACDBDICTIONARYWDFLT
  5
E
102
{ACAD_REACTORS
330
C
102
}
330
C
100
AcDbDictionary
281
     1
  3
Normal
350
F
100
AcDbDictionaryWithDefault
340
F
  0
DICTIONARY
  5
EA
102
{ACAD_REACTORS
330
C
102
}
330
C
100
AcDbDictionary
281
     1
  3
DIMASSOC
350
EB
  3
PROJECTNAME
350
EC
  0
XRECORD
  5
D4
102
{ACAD_REACTORS
330
A0
102
}
330
A0
100
AcDbXrecord
280
     1
340
1E
  0
XRECORD
  5
D3
102
{ACAD_REACTORS
330
A2
102
}
330
A2
100
AcDbXrecord
280
     1
340
1A
  0
LAYOUT
  5
1D
102
{ACAD_REACTORS
330
19
102
}
330
19
100
AcDbPlotSettings
  1

  2
\\NT_WORK01\HP LaserJet 5000 PCL 6
  4

  6

 40
0.0
 41
0.0
 42
0.0
 43
0.0
 44
0.0
 45
0.0
 46
0.0
 47
0.0
 48
0.0
 49
0.0
140
0.0
141
0.0
142
1.0
143
1.0
 70
   688
 72
     0
 73
     0
 74
     5
  7

 75
    16
147
1.0
 76
     0
 77
     2
 78
   300
148
0.0
149
0.0
100
AcDbLayout
  1
Layout1
 70
     0
 71
     1
 10
0.0
 20
0.0
 11
12.0
 21
9.0
 12
0.0
 22
0.0
 32
0.0
 14
1.000000000000000E+20
 24
1.000000000000000E+20
 34
1.000000000000000E+20
 15
-1.000000000000000E+20
 25
-1.000000000000000E+20
 35
-1.000000000000000E+20
146
0.0
 13
0.0
 23
0.0
 33
0.0
 16
1.0
 26
0.0
 36
0.0
 17
0.0
 27
1.0
 37
0.0
 76
     0
330
1A
  0
LAYOUT
  5
21
102
{ACAD_REACTORS
330
19
102
}
330
19
100
AcDbPlotSettings
  1

  2
none_device
  4
Letter_(8.50_x_11.00_Inches)
  6

 40
6.349999904632568
 41
6.349999904632568
 42
6.350006103515625
 43
6.350006103515625
 44
215.8999938964844
 45
279.3999938964844
 46
0.0
 47
0.0
 48
0.0
 49
0.0
140
0.0
141
0.0
142
1.0
143
1.0
 70
 11952
 72
     0
 73
     1
 74
     0
  7

 75
     0
147
1.0
 76
     0
 77
     2
 78
   300
148
2209.800000000001
149
0.0
100
AcDbLayout
  1
Model
 70
     1
 71
     0
 10
0.0
 20
0.0
 11
12.0
 21
9.0
 12
0.0
 22
0.0
 32
0.0
 14
0.0
 24
0.0
 34
0.0
 15
0.0
 25
0.0
 35
0.0
146
0.0
 13
0.0
 23
0.0
 33
0.0
 16
1.0
 26
0.0
 36
0.0
 17
0.0
 27
1.0
 37
0.0
 76
     0
330
1E
  0
MLINESTYLE
  5
17
102
{ACAD_REACTORS
330
16
102
}
330
16
100
AcDbMlineStyle
  2
STANDARD
 70
     0
  3

 62
   256
 51
90.0
 52
90.0
 71
     2
 49
0.5
 62
   256
  6
BYLAYER
 49
-0.5
 62
   256
  6
BYLAYER
  0
ACDBPLACEHOLDER
  5
F
102
{ACAD_REACTORS
330
E
102
}
330
E
  0
DICTIONARYVAR
  5
EB
102
{ACAD_REACTORS
330
EA
102
}
330
EA
100
DictionaryVariables
280
     0
  1
1
  0
DICTIONARYVAR
  5
EC
102
{ACAD_REACTORS
330
EA
102
}
330
EA
100
DictionaryVariables
280
     0
  1

  0
ENDSEC
  0
EOF
