  0
SECTION
  2
HEADER
  9
$ACADVER
  1
AC1018
  9
$ACADMAINTVER
 70
     2
  9
$DWGCODEPAGE
  3
ANSI_1252
  9
$INSBASE
 10
0.0
 20
0.0
 30
0.0
  9
$EXTMIN
 10
-0.0192209888436992
 20
-0.0271839699362317
 30
-0.0000000000000058
  9
$EXTMAX
 10
420.0192288123714
 20
594.0271950346398
 30
0.0000000000000104
  9
$LIMMIN
 10
0.0
 20
0.0
  9
$LIMMAX
 10
419.9999999999999
 20
594.0
  9
$ORTHOMODE
 70
     1
  9
$REGENMODE
 70
     1
  9
$FILLMODE
 70
     1
  9
$QTEXTMODE
 70
     0
  9
$MIRRTEXT
 70
     1
  9
$LTSCALE
 40
20.0
  9
$ATTMODE
 70
     1
  9
$TEXTSIZE
 40
3.5
  9
$TRACEWID
 40
0.5
  9
$TEXTSTYLE
  7
STANDARD
  9
$CLAYER
  8
VOLL
  9
$CELTYPE
  6
ByLayer
  9
$CECOLOR
 62
   256
  9
$CELTSCALE
 40
1.0
  9
$DISPSILH
 70
     0
  9
$DIMSCALE
 40
2.0
  9
$DIMASZ
 40
3.5
  9
$DIMEXO
 40
1.0
  9
$DIMDLI
 40
7.0
  9
$DIMRND
 40
0.0
  9
$DIMDLE
 40
0.0
  9
$DIMEXE
 40
1.0
  9
$DIMTP
 40
0.0
  9
$DIMTM
 40
0.0
  9
$DIMTXT
 40
3.5
  9
$DIMCEN
 40
1.5
  9
$DIMTSZ
 40
0.0
  9
$DIMTOL
 70
     0
  9
$DIMLIM
 70
     0
  9
$DIMTIH
 70
     0
  9
$DIMTOH
 70
     0
  9
$DIMSE1
 70
     0
  9
$DIMSE2
 70
     0
  9
$DIMTAD
 70
     1
  9
$DIMZIN
 70
     8
  9
$DIMBLK
  1

  9
$DIMASO
 70
     1
  9
$DIMSHO
 70
     0
  9
$DIMPOST
  1

  9
$DIMAPOST
  1

  9
$DIMALT
 70
     0
  9
$DIMALTD
 70
     2
  9
$DIMALTF
 40
25.4
  9
$DIMLFAC
 40
1.0
  9
$DIMTOFL
 70
     1
  9
$DIMTVP
 40
0.0
  9
$DIMTIX
 70
     0
  9
$DIMSOXD
 70
     0
  9
$DIMSAH
 70
     0
  9
$DIMBLK1
  1

  9
$DIMBLK2
  1

  9
$DIMSTYLE
  2
Standard
  9
$DIMCLRD
 70
     0
  9
$DIMCLRE
 70
     0
  9
$DIMCLRT
 70
     1
  9
$DIMTFAC
 40
0.5142857142857144
  9
$DIMGAP
 40
1.5
  9
$DIMJUST
 70
     0
  9
$DIMSD1
 70
     0
  9
$DIMSD2
 70
     0
  9
$DIMTOLJ
 70
     1
  9
$DIMTZIN
 70
     8
  9
$DIMALTZ
 70
     8
  9
$DIMALTTZ
 70
     8
  9
$DIMUPT
 70
     0
  9
$DIMDEC
 70
     2
  9
$DIMTDEC
 70
     2
  9
$DIMALTU
 70
     2
  9
$DIMALTTD
 70
     2
  9
$DIMTXSTY
  7
STANDARD
  9
$DIMAUNIT
 70
     0
  9
$DIMADEC
 70
     2
  9
$DIMALTRND
 40
0.0
  9
$DIMAZIN
 70
     2
  9
$DIMDSEP
 70
    46
  9
$DIMATFIT
 70
     3
  9
$DIMFRAC
 70
     0
  9
$DIMLDRBLK
  1

  9
$DIMLUNIT
 70
     2
  9
$DIMLWD
 70
    -2
  9
$DIMLWE
 70
    -2
  9
$DIMTMOVE
 70
     0
  9
$LUNITS
 70
     2
  9
$LUPREC
 70
     2
  9
$SKETCHINC
 40
1.0
  9
$FILLETRAD
 40
0.0
  9
$AUNITS
 70
     0
  9
$AUPREC
 70
     0
  9
$MENU
  1
ACAD
  9
$ELEVATION
 40
0.0
  9
$PELEVATION
 40
0.0
  9
$THICKNESS
 40
0.0
  9
$LIMCHECK
 70
     0
  9
$CHAMFERA
 40
0.0
  9
$CHAMFERB
 40
0.0
  9
$CHAMFERC
 40
0.0
  9
$CHAMFERD
 40
0.0
  9
$SKPOLY
 70
     0
  9
$TDCREATE
 40
2455397.864709028
  9
$TDUCREATE
 40
2455397.781375695
  9
$TDUPDATE
 40
2455469.452729653
  9
$TDUUPDATE
 40
2455469.369396320
  9
$TDINDWG
 40
0.0731067014
  9
$TDUSRTIMER
 40
0.0731067014
  9
$USRTIMER
 70
     1
  9
$ANGBASE
 50
0.0
  9
$ANGDIR
 70
     0
  9
$PDMODE
 70
     0
  9
$PDSIZE
 40
0.0
  9
$PLINEWID
 40
0.0
  9
$SPLFRAME
 70
     0
  9
$SPLINETYPE
 70
     6
  9
$SPLINESEGS
 70
     8
  9
$HANDSEED
  5
141D
  9
$SURFTAB1
 70
     6
  9
$SURFTAB2
 70
     6
  9
$SURFTYPE
 70
     6
  9
$SURFU
 70
     6
  9
$SURFV
 70
     6
  9
$UCSBASE
  2

  9
$UCSNAME
  2

  9
$UCSORG
 10
0.0
 20
0.0
 30
0.0
  9
$UCSXDIR
 10
1.0
 20
0.0
 30
0.0
  9
$UCSYDIR
 10
0.0
 20
1.0
 30
0.0
  9
$UCSORTHOREF
  2

  9
$UCSORTHOVIEW
 70
     0
  9
$UCSORGTOP
 10
0.0
 20
0.0
 30
0.0
  9
$UCSORGBOTTOM
 10
0.0
 20
0.0
 30
0.0
  9
$UCSORGLEFT
 10
0.0
 20
0.0
 30
0.0
  9
$UCSORGRIGHT
 10
0.0
 20
0.0
 30
0.0
  9
$UCSORGFRONT
 10
0.0
 20
0.0
 30
0.0
  9
$UCSORGBACK
 10
0.0
 20
0.0
 30
0.0
  9
$PUCSBASE
  2

  9
$PUCSNAME
  2

  9
$PUCSORG
 10
0.0
 20
0.0
 30
0.0
  9
$PUCSXDIR
 10
1.0
 20
0.0
 30
0.0
  9
$PUCSYDIR
 10
0.0
 20
1.0
 30
0.0
  9
$PUCSORTHOREF
  2

  9
$PUCSORTHOVIEW
 70
     0
  9
$PUCSORGTOP
 10
0.0
 20
0.0
 30
0.0
  9
$PUCSORGBOTTOM
 10
0.0
 20
0.0
 30
0.0
  9
$PUCSORGLEFT
 10
0.0
 20
0.0
 30
0.0
  9
$PUCSORGRIGHT
 10
0.0
 20
0.0
 30
0.0
  9
$PUCSORGFRONT
 10
0.0
 20
0.0
 30
0.0
  9
$PUCSORGBACK
 10
0.0
 20
0.0
 30
0.0
  9
$USERI1
 70
     0
  9
$USERI2
 70
     0
  9
$USERI3
 70
     0
  9
$USERI4
 70
     0
  9
$USERI5
 70
     0
  9
$USERR1
 40
0.0
  9
$USERR2
 40
0.0
  9
$USERR3
 40
0.0
  9
$USERR4
 40
0.0
  9
$USERR5
 40
0.0
  9
$WORLDVIEW
 70
     1
  9
$SHADEDGE
 70
     3
  9
$SHADEDIF
 70
    70
  9
$TILEMODE
 70
     1
  9
$MAXACTVP
 70
    16
  9
$PINSBASE
 10
0.0
 20
0.0
 30
0.0
  9
$PLIMCHECK
 70
     0
  9
$PEXTMIN
 10
1.000000000000000E+20
 20
1.000000000000000E+20
 30
1.000000000000000E+20
  9
$PEXTMAX
 10
-1.000000000000000E+20
 20
-1.000000000000000E+20
 30
-1.000000000000000E+20
  9
$PLIMMIN
 10
0.0
 20
0.0
  9
$PLIMMAX
 10
12.0
 20
9.0
  9
$UNITMODE
 70
     0
  9
$VISRETAIN
 70
     0
  9
$PLINEGEN
 70
     0
  9
$PSLTSCALE
 70
     0
  9
$TREEDEPTH
 70
  3020
  9
$CMLSTYLE
  2
Standard
  9
$CMLJUST
 70
     0
  9
$CMLSCALE
 40
1.0
  9
$PROXYGRAPHICS
 70
     1
  9
$MEASUREMENT
 70
     0
  9
$CELWEIGHT
370
    -1
  9
$ENDCAPS
280
     0
  9
$JOINSTYLE
280
     0
  9
$LWDISPLAY
290
     0
  9
$INSUNITS
 70
     0
  9
$HYPERLINKBASE
  1

  9
$STYLESHEET
  1
monochrome 1.ctb
  9
$XEDIT
290
     1
  9
$CEPSNTYPE
380
     0
  9
$PSTYLEMODE
290
     1
  9
$FINGERPRINTGUID
  2
{D68B0D02-A558-11D7-B632-000102183313}
  9
$VERSIONGUID
  2
{C4F7BE77-B9CF-4824-B29F-342D3FD486C3}
  9
$EXTNAMES
290
     1
  9
$PSVPSCALE
 40
0.0
  9
$OLESTARTUP
290
     0
  9
$SORTENTS
280
   127
  9
$INDEXCTL
280
     0
  9
$HIDETEXT
280
     0
  9
$XCLIPFRAME
290
     0
  9
$HALOGAP
280
     0
  9
$OBSCOLOR
 70
   257
  9
$OBSLTYPE
280
     0
  9
$INTERSECTIONDISPLAY
280
     0
  9
$INTERSECTIONCOLOR
 70
   257
  9
$DIMASSOC
280
     1
  9
$PROJECTNAME
  1

  0
ENDSEC
  0
SECTION
  2
CLASSES
  0
CLASS
  1
ACDBDICTIONARYWDFLT
  2
AcDbDictionaryWithDefault
  3
ObjectDBX Classes
 90
        0
 91
        1
280
     0
281
     0
  0
CLASS
  1
DICTIONARYVAR
  2
AcDbDictionaryVar
  3
ObjectDBX Classes
 90
        0
 91
        2
280
     0
281
     0
  0
ENDSEC
  0
SECTION
  2
TABLES
  0
TABLE
  2
VPORT
  5
8
330
0
100
AcDbSymbolTable
 70
     2
  0
VPORT
  5
141C
330
8
100
AcDbSymbolTableRecord
100
AcDbViewportTableRecord
  2
*Active
 70
     0
 10
0.0
 20
0.0
 11
1.0
 21
1.0
 12
210.0000039117638
 22
297.0000055323518
 13
0.0
 23
0.0
 14
1.0
 24
1.0
 15
10.0
 25
10.0
 16
0.0
 26
0.0
 36
1.0
 17
0.0
 27
0.0
 37
0.0
 40
598.8515879871163
 41
1.336927223719676
 42
50.0
 43
0.0
 44
0.0
 50
0.0
 51
0.0
 71
     0
 72
  1500
 73
     1
 74
     0
 75
     0
 76
     0
 77
     0
 78
     0
281
     0
 65
     1
110
0.0
120
0.0
130
0.0
111
1.0
121
0.0
131
0.0
112
0.0
122
1.0
132
0.0
 79
     0
146
0.0
  0
ENDTAB
  0
TABLE
  2
LTYPE
  5
5
330
0
100
AcDbSymbolTable
 70
     2
  0
LTYPE
  5
13
330
5
100
AcDbSymbolTableRecord
100
AcDbLinetypeTableRecord
  2
ByBlock
 70
     0
  3

 72
    65
 73
     0
 40
0.0
  0
LTYPE
  5
14
330
5
100
AcDbSymbolTableRecord
100
AcDbLinetypeTableRecord
  2
ByLayer
 70
     0
  3

 72
    65
 73
     0
 40
0.0
  0
LTYPE
  5
15
330
5
100
AcDbSymbolTableRecord
100
AcDbLinetypeTableRecord
  2
Continuous
 70
     0
  3
Solid line
 72
    65
 73
     0
 40
0.0
  0
LTYPE
  5
25
330
5
100
AcDbSymbolTableRecord
100
AcDbLinetypeTableRecord
  2
STRICHPUNKT
 70
     0
  3
__ . __ . __ . __ . __ . __ . __ . __ . __ . __
 72
    65
 73
     4
 40
1.0
 49
0.5
 74
     0
 49
-0.25
 74
     0
 49
0.0
 74
     0
 49
-0.25
 74
     0
  0
ENDTAB
  0
TABLE
  2
LAYER
  5
2
330
0
100
AcDbSymbolTable
 70
     9
  0
LAYER
  5
10
330
2
100
AcDbSymbolTableRecord
100
AcDbLayerTableRecord
  2
0
 70
     0
 62
     7
  6
Continuous
370
    -3
390
F
  0
LAYER
  5
2A
330
2
100
AcDbSymbolTableRecord
100
AcDbLayerTableRecord
  2
VOLL
 70
     0
 62
     1
  6
Continuous
370
    -3
390
F
  0
LAYER
  5
2B
330
2
100
AcDbSymbolTableRecord
100
AcDbLayerTableRecord
  2
HILF
 70
     0
 62
     2
  6
Continuous
370
    -3
390
F
  0
LAYER
  5
2C
330
2
100
AcDbSymbolTableRecord
100
AcDbLayerTableRecord
  2
MITTEL
 70
     0
 62
     2
  6
STRICHPUNKT
370
    -3
390
F
  0
LAYER
  5
2F
330
2
100
AcDbSymbolTableRecord
100
AcDbLayerTableRecord
  2
BEM
 70
     0
 62
     7
  6
Continuous
370
    -3
390
F
  0
LAYER
  5
30
330
2
100
AcDbSymbolTableRecord
100
AcDbLayerTableRecord
  2
STEMPEL
 70
     0
 62
     3
  6
Continuous
370
    -3
390
F
  0
LAYER
  5
31
330
2
100
AcDbSymbolTableRecord
100
AcDbLayerTableRecord
  2
TEXT
 70
     0
 62
     7
  6
Continuous
370
    -3
390
F
  0
LAYER
  5
34D
330
2
100
AcDbSymbolTableRecord
100
AcDbLayerTableRecord
  2
SCHRAFF
 70
     0
 62
     7
  6
Continuous
370
    -3
390
F
  0
LAYER
  5
34E
330
2
100
AcDbSymbolTableRecord
100
AcDbLayerTableRecord
  2
DEFPOINTS
 70
     0
 62
     7
  6
Continuous
290
     0
370
    -3
390
F
  0
ENDTAB
  0
TABLE
  2
STYLE
  5
3
330
0
100
AcDbSymbolTable
 70
     2
  0
STYLE
  5
11
330
3
100
AcDbSymbolTableRecord
100
AcDbTextStyleTableRecord
  2
STANDARD
 70
     0
 40
0.0
 41
0.8
 50
0.0
 71
     0
 42
3.5
  3
simplex.shx
  4

  0
STYLE
  5
24
330
3
100
AcDbSymbolTableRecord
100
AcDbTextStyleTableRecord
  2
GREEKS
 70
     0
 40
0.0
 41
0.8
 50
0.0
 71
     0
 42
2.5
  3
SIMPLEX.shx
  4

  0
ENDTAB
  0
TABLE
  2
VIEW
  5
6
330
0
100
AcDbSymbolTable
 70
     0
  0
ENDTAB
  0
TABLE
  2
UCS
  5
7
330
0
100
AcDbSymbolTable
 70
     0
  0
ENDTAB
  0
TABLE
  2
APPID
  5
9
330
0
100
AcDbSymbolTable
 70
     1
  0
APPID
  5
12
330
9
100
AcDbSymbolTableRecord
100
AcDbRegAppTableRecord
  2
ACAD
 70
     0
  0
ENDTAB
  0
TABLE
  2
DIMSTYLE
  5
A
330
0
100
AcDbSymbolTable
 70
     1
100
AcDbDimStyleTable
 71
     1
340
9D
  0
DIMSTYLE
105
9D
102
{ACAD_REACTORS
330
AAE
330
AAD
330
AAC
330
12FC
102
}
330
A
100
AcDbSymbolTableRecord
100
AcDbDimStyleTableRecord
  2
Standard
 70
     0
340
11
  0
ENDTAB
  0
TABLE
  2
BLOCK_RECORD
  5
1
330
0
100
AcDbSymbolTable
 70
     5
  0
BLOCK_RECORD
  5
1E
102
{ACAD_XDICTIONARY
360
A0
102
}
330
1
100
AcDbSymbolTableRecord
100
AcDbBlockTableRecord
  2
*Model_Space
340
21
  0
BLOCK_RECORD
  5
1A
102
{ACAD_XDICTIONARY
360
A2
102
}
330
1
100
AcDbSymbolTableRecord
100
AcDbBlockTableRecord
  2
*Paper_Space
340
1D
  0
BLOCK_RECORD
  5
22
330
1
100
AcDbSymbolTableRecord
100
AcDbBlockTableRecord
  2
LOGO
340
0
102
{BLKREFS
331
9B
102
}
  0
BLOCK_RECORD
  5
B13
330
1
100
AcDbSymbolTableRecord
100
AcDbBlockTableRecord
  2
*D1
340
0
  0
BLOCK_RECORD
  5
B20
330
1
100
AcDbSymbolTableRecord
100
AcDbBlockTableRecord
  2
*D2
340
0
  0
BLOCK_RECORD
  5
B2D
330
1
100
AcDbSymbolTableRecord
100
AcDbBlockTableRecord
  2
*D3
340
0
  0
BLOCK_RECORD
  5
130E
330
1
100
AcDbSymbolTableRecord
100
AcDbBlockTableRecord
  2
*D4
340
0
  0
ENDTAB
  0
ENDSEC
  0
SECTION
  2
BLOCKS
  0
BLOCK
  5
35
330
1E
100
AcDbEntity
  8
0
100
AcDbBlockBegin
  2
*Model_Space
 70
     0
 10
0.0
 20
0.0
 30
0.0
  3
*Model_Space
  1

  0
ENDBLK
  5
36
330
1E
100
AcDbEntity
  8
0
100
AcDbBlockEnd
  0
BLOCK
  5
33
330
1A
100
AcDbEntity
 67
     1
  8
0
100
AcDbBlockBegin
  2
*Paper_Space
 70
     0
 10
0.0
 20
0.0
 30
0.0
  3
*Paper_Space
  1

  0
ENDBLK
  5
34
330
1A
100
AcDbEntity
 67
     1
  8
0
100
AcDbBlockEnd
  0
BLOCK
  5
37
330
22
100
AcDbEntity
  8
0
100
AcDbBlockBegin
  2
LOGO
 70
     0
 10
0.0
 20
0.0
 30
0.0
  3
LOGO
  1

  0
ARC
  5
38
330
22
100
AcDbEntity
  8
0
100
AcDbCircle
 10
11.59973089678112
 20
-9.271599258481501
 30
0.0
 40
4.5
100
AcDbArc
 50
270.0
 51
231.0575587310159
  0
LINE
  5
39
330
22
100
AcDbEntity
  8
0
100
AcDbLine
 10
3.599730896781125
 20
-4.771599258481529
 30
0.0
 11
3.599730896781153
 21
-11.77159925848133
 31
0.0
  0
LINE
  5
3A
330
22
100
AcDbEntity
  8
0
100
AcDbLine
 10
2.599730896781125
 20
-4.771599258481529
 30
0.0
 11
2.599730896781153
 21
-11.77159925848133
 31
0.0
  0
CIRCLE
  5
3B
330
22
100
AcDbEntity
  8
0
100
AcDbCircle
 10
11.59973089678112
 20
-9.271599258481501
 30
0.0
 40
3.5
  0
ARC
  5
3C
330
22
100
AcDbEntity
  8
0
100
AcDbCircle
 10
31.59973089678115
 20
-9.271599258481472
 30
0.0
 40
4.5
100
AcDbArc
 50
270.0
 51
231.0575587310182
  0
LINE
  5
3D
330
22
100
AcDbEntity
  8
0
100
AcDbLine
 10
17.59973089678112
 20
-4.771599258481472
 30
0.0
 11
17.59973089678115
 21
-13.77159925848147
 31
0.0
  0
ARC
  5
3E
330
22
100
AcDbEntity
  8
0
100
AcDbCircle
 10
22.59973089678116
 20
-7.271599258481472
 30
0.0
 40
2.5
100
AcDbArc
 50
293.1161887722295
 51
90.0
  0
CIRCLE
  5
3F
330
22
100
AcDbEntity
  8
0
100
AcDbCircle
 10
31.59973089678115
 20
-9.271599258481472
 30
0.0
 40
3.5
  0
ARC
  5
40
330
22
100
AcDbEntity
  8
0
100
AcDbCircle
 10
4.599730896781153
 20
-11.77159925848133
 30
0.0
 40
1.0
100
AcDbArc
 50
180.0
 51
270.0
  0
ARC
  5
41
330
22
100
AcDbEntity
  8
0
100
AcDbCircle
 10
4.599730896781153
 20
-11.77159925848133
 30
0.0
 40
2.0
100
AcDbArc
 50
179.9999999999992
 51
270.0
  0
LINE
  5
42
330
22
100
AcDbEntity
  8
0
100
AcDbLine
 10
11.59973089678115
 20
-13.77159925848144
 30
0.0
 11
4.599730896781153
 21
-13.77159925848147
 31
0.0
  0
LINE
  5
43
330
22
100
AcDbEntity
  8
0
100
AcDbLine
 10
8.771303772034769
 20
-12.77159925848136
 30
0.0
 11
4.599730896781153
 21
-12.77159925848133
 31
0.0
  0
LINE
  5
44
330
22
100
AcDbEntity
  8
0
100
AcDbLine
 10
31.59973089678115
 20
-13.77159925848147
 30
0.0
 11
23.6715276665056
 21
-13.77159925848144
 31
0.0
  0
LINE
  5
45
330
22
100
AcDbEntity
  8
0
100
AcDbLine
 10
23.56565672307022
 20
-9.51278021337896
 30
0.0
 11
24.4388546544846
 21
-12.77159925848144
 31
0.0
  0
LINE
  5
46
330
22
100
AcDbEntity
  8
0
100
AcDbLine
 10
22.59973089678116
 20
-9.771599258481472
 30
0.0
 11
18.59973089678112
 21
-9.771599258481472
 31
0.0
  0
LINE
  5
47
330
22
100
AcDbEntity
  8
0
100
AcDbLine
 10
18.59973089678115
 20
-13.77159925848144
 30
0.0
 11
17.59973089678115
 21
-13.77159925848144
 31
0.0
  0
LINE
  5
48
330
22
100
AcDbEntity
  8
0
100
AcDbLine
 10
18.59973089678115
 20
-9.771599258481472
 30
0.0
 11
18.59973089678115
 21
-13.77159925848144
 31
0.0
  0
LINE
  5
49
330
22
100
AcDbEntity
  8
0
100
AcDbLine
 10
22.59973089678116
 20
-9.771599258481472
 30
0.0
 11
23.67152766650562
 21
-13.77159925848147
 31
0.0
  0
ARC
  5
4A
330
22
100
AcDbEntity
  8
0
100
AcDbCircle
 10
22.59973089678116
 20
-7.271599258481472
 30
0.0
 40
2.5
100
AcDbArc
 50
270.0
 51
270.0000000000007
  0
LINE
  5
4B
330
22
100
AcDbEntity
  8
0
100
AcDbLine
 10
28.77130377203494
 20
-12.77159925848147
 30
0.0
 11
24.43885465448463
 21
-12.77159925848144
 31
0.0
  0
LINE
  5
4C
330
22
100
AcDbEntity
  8
0
100
AcDbLine
 10
3.599730896781125
 20
-4.771599258481472
 30
0.0
 11
2.599730896781125
 21
-4.771599258481472
 31
0.0
  0
LINE
  5
4D
330
22
100
AcDbEntity
  8
0
100
AcDbLine
 10
22.59973089678116
 20
-8.771599258481472
 30
0.0
 11
18.59973089678115
 21
-8.771599258481472
 31
0.0
  0
LINE
  5
4E
330
22
100
AcDbEntity
  8
0
100
AcDbLine
 10
22.59973089678116
 20
-5.771599258481472
 30
0.0
 11
18.59973089678115
 21
-5.771599258481472
 31
0.0
  0
LINE
  5
4F
330
22
100
AcDbEntity
  8
0
100
AcDbLine
 10
22.59973089678116
 20
-4.771599258481472
 30
0.0
 11
17.59973089678115
 21
-4.771599258481472
 31
0.0
  0
LINE
  5
50
330
22
100
AcDbEntity
  8
0
100
AcDbLine
 10
18.59973089678115
 20
-5.771599258481472
 30
0.0
 11
18.59973089678115
 21
-8.771599258481472
 31
0.0
  0
ARC
  5
51
330
22
100
AcDbEntity
  8
0
100
AcDbCircle
 10
22.59973089678116
 20
-7.271599258481472
 30
0.0
 40
1.5
100
AcDbArc
 50
270.0
 51
90.0
  0
ENDBLK
  5
52
330
22
100
AcDbEntity
  8
0
100
AcDbBlockEnd
  0
BLOCK
  5
B1E
330
B13
100
AcDbEntity
  8
0
100
AcDbBlockBegin
  2
*D1
 70
     1
 10
0.0
 20
0.0
 30
0.0
  3
*D1
  1

  0
LINE
  5
13B6
330
B13
100
AcDbEntity
  8
BEM
  6
Continuous
 62
     0
370
    -2
100
AcDbLine
 10
123.0478396779375
 20
426.7701642705259
 30
0.0
 11
81.08293534617603
 21
426.7701642705259
 31
0.0
  0
LINE
  5
13B7
330
B13
100
AcDbEntity
  8
BEM
  6
Continuous
 62
     0
370
    -2
100
AcDbLine
 10
148.8601696308263
 20
253.7701642705259
 30
0.0
 11
81.08293534617599
 21
253.7701642705259
 31
0.0
  0
LINE
  5
13B8
330
B13
100
AcDbEntity
  8
BEM
  6
Continuous
 62
     0
370
    -2
100
AcDbLine
 10
83.08293534617602
 20
419.7701642705259
 30
0.0
 11
83.08293534617599
 21
260.7701642705259
 31
0.0
  0
SOLID
  5
13B9
330
B13
100
AcDbEntity
  8
BEM
  6
Continuous
 62
     0
100
AcDbTrace
 10
81.91626867950935
 20
419.7701642705259
 30
0.0
 11
84.24960201284269
 21
419.7701642705259
 31
0.0
 12
83.08293534617602
 22
426.7701642705259
 32
0.0
 13
83.08293534617602
 23
426.7701642705259
 33
0.0
  0
SOLID
  5
13BA
330
B13
100
AcDbEntity
  8
BEM
  6
Continuous
 62
     0
100
AcDbTrace
 10
81.91626867950931
 20
260.7701642705259
 30
0.0
 11
84.24960201284266
 21
260.7701642705259
 31
0.0
 12
83.08293534617599
 22
253.7701642705259
 32
0.0
 13
83.08293534617599
 23
253.7701642705259
 33
0.0
  0
MTEXT
  5
13BB
330
B13
100
AcDbEntity
  8
BEM
  6
Continuous
 62
     1
100
AcDbMText
 10
76.58293534617595
 20
340.2701642705259
 30
0.0
 40
7.0
 41
0.0
 71
     5
 72
     1
  1
\A1;173
 11
0.0000000000000001
 21
1.0
 31
0.0
 73
     1
 44
1.0
  0
POINT
  5
13BC
330
B13
100
AcDbEntity
  8
DEFPOINTS
  6
Continuous
 62
     0
100
AcDbPoint
 10
125.0478396779375
 20
426.7701642705259
 30
0.0
  0
POINT
  5
13BD
330
B13
100
AcDbEntity
  8
DEFPOINTS
  6
Continuous
 62
     0
100
AcDbPoint
 10
150.8601696308263
 20
253.7701642705259
 30
0.0
  0
POINT
  5
13BE
330
B13
100
AcDbEntity
  8
DEFPOINTS
  6
Continuous
 62
     0
100
AcDbPoint
 10
83.08293534617599
 20
253.7701642705259
 30
0.0
  0
ENDBLK
  5
B1F
330
B13
100
AcDbEntity
  8
0
100
AcDbBlockEnd
  0
BLOCK
  5
B2B
330
B20
100
AcDbEntity
  8
0
100
AcDbBlockBegin
  2
*D2
 70
     1
 10
0.0
 20
0.0
 30
0.0
  3
*D2
  1

  0
LINE
  5
13AD
330
B20
100
AcDbEntity
  8
BEM
  6
Continuous
 62
     0
370
    -2
100
AcDbLine
 10
156.4401445233508
 20
373.7701642705259
 30
0.0
 11
94.63165597288915
 21
373.770164270526
 31
0.0
  0
LINE
  5
13AE
330
B20
100
AcDbEntity
  8
BEM
  6
Continuous
 62
     0
370
    -2
100
AcDbLine
 10
148.8601696308263
 20
253.7701642705259
 30
0.0
 11
94.63165597288911
 21
253.7701642705259
 31
0.0
  0
LINE
  5
13AF
330
B20
100
AcDbEntity
  8
BEM
  6
Continuous
 62
     0
370
    -2
100
AcDbLine
 10
96.63165597288916
 20
366.770164270526
 30
0.0
 11
96.63165597288912
 21
260.7701642705259
 31
0.0
  0
SOLID
  5
13B0
330
B20
100
AcDbEntity
  8
BEM
  6
Continuous
 62
     0
100
AcDbTrace
 10
95.46498930622247
 20
366.770164270526
 30
0.0
 11
97.79832263955583
 21
366.770164270526
 31
0.0
 12
96.63165597288916
 22
373.770164270526
 32
0.0
 13
96.63165597288916
 23
373.770164270526
 33
0.0
  0
SOLID
  5
13B1
330
B20
100
AcDbEntity
  8
BEM
  6
Continuous
 62
     0
100
AcDbTrace
 10
95.46498930622245
 20
260.7701642705259
 30
0.0
 11
97.79832263955579
 21
260.7701642705259
 31
0.0
 12
96.63165597288912
 22
253.7701642705259
 32
0.0
 13
96.63165597288912
 23
253.7701642705259
 33
0.0
  0
MTEXT
  5
13B2
330
B20
100
AcDbEntity
  8
BEM
  6
Continuous
 62
     1
100
AcDbMText
 10
90.13165597288908
 20
313.7701642705259
 30
0.0
 40
7.0
 41
0.0
 71
     5
 72
     1
  1
\A1;120
 11
0.0000000000000001
 21
1.0
 31
0.0
 73
     1
 44
1.0
  0
POINT
  5
13B3
330
B20
100
AcDbEntity
  8
DEFPOINTS
  6
Continuous
 62
     0
100
AcDbPoint
 10
158.4401445233508
 20
373.7701642705259
 30
0.0
  0
POINT
  5
13B4
330
B20
100
AcDbEntity
  8
DEFPOINTS
  6
Continuous
 62
     0
100
AcDbPoint
 10
150.8601696308263
 20
253.7701642705259
 30
0.0
  0
POINT
  5
13B5
330
B20
100
AcDbEntity
  8
DEFPOINTS
  6
Continuous
 62
     0
100
AcDbPoint
 10
96.63165597288912
 20
253.7701642705259
 30
0.0
  0
ENDBLK
  5
B2C
330
B20
100
AcDbEntity
  8
0
100
AcDbBlockEnd
  0
BLOCK
  5
B38
330
B2D
100
AcDbEntity
  8
0
100
AcDbBlockBegin
  2
*D3
 70
     1
 10
0.0
 20
0.0
 30
0.0
  3
*D3
  1

  0
LINE
  5
1295
330
B2D
100
AcDbEntity
  8
BEM
  6
Continuous
 62
     0
370
    -2
100
AcDbLine
 10
123.0478396779375
 20
426.7701642705259
 30
0.0
 11
94.63165597288913
 21
426.7701642705259
 31
0.0
  0
LINE
  5
1296
330
B2D
100
AcDbEntity
  8
BEM
  6
Continuous
 62
     0
370
    -2
100
AcDbLine
 10
156.4401445233508
 20
373.7701642705259
 30
0.0
 11
94.63165597288911
 21
373.770164270526
 31
0.0
  0
LINE
  5
1297
330
B2D
100
AcDbEntity
  8
BEM
  6
Continuous
 62
     0
370
    -2
100
AcDbLine
 10
96.63165597288914
 20
419.7701642705259
 30
0.0
 11
96.63165597288912
 21
380.770164270526
 31
0.0
  0
SOLID
  5
1298
330
B2D
100
AcDbEntity
  8
BEM
  6
Continuous
 62
     0
100
AcDbTrace
 10
95.46498930622247
 20
419.7701642705259
 30
0.0
 11
97.79832263955581
 21
419.7701642705259
 31
0.0
 12
96.63165597288914
 22
426.7701642705259
 32
0.0
 13
96.63165597288914
 23
426.7701642705259
 33
0.0
  0
SOLID
  5
1299
330
B2D
100
AcDbEntity
  8
BEM
  6
Continuous
 62
     0
100
AcDbTrace
 10
95.46498930622245
 20
380.770164270526
 30
0.0
 11
97.79832263955579
 21
380.770164270526
 31
0.0
 12
96.63165597288912
 22
373.770164270526
 32
0.0
 13
96.63165597288912
 23
373.770164270526
 33
0.0
  0
MTEXT
  5
129A
330
B2D
100
AcDbEntity
  8
BEM
  6
Continuous
 62
     1
100
AcDbMText
 10
90.13165597288907
 20
400.2701642705259
 30
0.0
 40
7.0
 41
0.0
 71
     5
 72
     1
  1
\A1;53
 11
0.0000000000000001
 21
1.0
 31
0.0
 73
     1
 44
1.0
  0
POINT
  5
129B
330
B2D
100
AcDbEntity
  8
DEFPOINTS
  6
Continuous
 62
     0
100
AcDbPoint
 10
125.0478396779375
 20
426.7701642705259
 30
0.0
  0
POINT
  5
129C
330
B2D
100
AcDbEntity
  8
DEFPOINTS
  6
Continuous
 62
     0
100
AcDbPoint
 10
158.4401445233508
 20
373.7701642705259
 30
0.0
  0
POINT
  5
129D
330
B2D
100
AcDbEntity
  8
DEFPOINTS
  6
Continuous
 62
     0
100
AcDbPoint
 10
96.63165597288912
 20
373.770164270526
 30
0.0
  0
ENDBLK
  5
B39
330
B2D
100
AcDbEntity
  8
0
100
AcDbBlockEnd
  0
BLOCK
  5
1319
330
130E
100
AcDbEntity
  8
0
100
AcDbBlockBegin
  2
*D4
 70
     1
 10
0.0
 20
0.0
 30
0.0
  3
*D4
  1

  0
LINE
  5
1325
330
130E
100
AcDbEntity
  8
BEM
 62
     0
370
    -2
100
AcDbLine
 10
125.0478396779375
 20
428.7701642705258
 30
0.0
 11
125.0478396779375
 21
438.8312329185788
 31
0.0
  0
LINE
  5
1326
330
130E
100
AcDbEntity
  8
BEM
 62
     0
370
    -2
100
AcDbLine
 10
307.0478396779375
 20
428.7701642705258
 30
0.0
 11
307.0478396779375
 21
438.8312329185788
 31
0.0
  0
LINE
  5
1327
330
130E
100
AcDbEntity
  8
BEM
 62
     0
370
    -2
100
AcDbLine
 10
132.0478396779375
 20
436.8312329185788
 30
0.0
 11
300.0478396779375
 21
436.8312329185788
 31
0.0
  0
SOLID
  5
1328
330
130E
100
AcDbEntity
  8
BEM
 62
     0
100
AcDbTrace
 10
132.0478396779375
 20
437.9978995852455
 30
0.0
 11
132.0478396779375
 21
435.6645662519121
 31
0.0
 12
125.0478396779375
 22
436.8312329185788
 32
0.0
 13
125.0478396779375
 23
436.8312329185788
 33
0.0
  0
SOLID
  5
1329
330
130E
100
AcDbEntity
  8
BEM
 62
     0
100
AcDbTrace
 10
300.0478396779375
 20
437.9978995852455
 30
0.0
 11
300.0478396779375
 21
435.6645662519121
 31
0.0
 12
307.0478396779375
 22
436.8312329185788
 32
0.0
 13
307.0478396779375
 23
436.8312329185788
 33
0.0
  0
MTEXT
  5
132A
330
130E
100
AcDbEntity
  8
BEM
 62
     1
100
AcDbMText
 10
216.0478396779375
 20
443.3312329185788
 30
0.0
 40
7.0
 41
0.0
 71
     5
 72
     1
  1
\A1;  182
 73
     1
 44
1.0
  0
POINT
  5
132B
330
130E
100
AcDbEntity
  8
DEFPOINTS
 62
     0
100
AcDbPoint
 10
125.0478396779375
 20
426.7701642705258
 30
0.0
  0
POINT
  5
132C
330
130E
100
AcDbEntity
  8
DEFPOINTS
 62
     0
100
AcDbPoint
 10
307.0478396779375
 20
426.7701642705258
 30
0.0
  0
POINT
  5
132D
330
130E
100
AcDbEntity
  8
DEFPOINTS
 62
     0
100
AcDbPoint
 10
307.0478396779375
 20
436.8312329185788
 30
0.0
  0
ENDBLK
  5
131A
330
130E
100
AcDbEntity
  8
0
100
AcDbBlockEnd
  0
ENDSEC
  0
SECTION
  2
ENTITIES
  0
LINE
  5
57
330
1E
100
AcDbEntity
  8
STEMPEL
100
AcDbLine
 10
410.0
 20
110.0
 30
0.0
 11
39.99999999999997
 21
110.0
 31
0.0
  0
LINE
  5
58
330
1E
100
AcDbEntity
  8
STEMPEL
100
AcDbLine
 10
136.0000000000001
 20
109.9999999999999
 30
0.0
 11
136.0
 21
9.999999999999971
 31
0.0
  0
LINE
  5
59
330
1E
100
AcDbEntity
  8
STEMPEL
100
AcDbLine
 10
220.0
 20
110.0
 30
0.0
 11
220.0
 21
9.999999999999971
 31
0.0
  0
LINE
  5
5A
330
1E
100
AcDbEntity
  8
STEMPEL
100
AcDbLine
 10
332.0
 20
109.9999999999997
 30
0.0
 11
332.0
 21
40.0
 31
0.0
  0
LINE
  5
5B
330
1E
100
AcDbEntity
  8
STEMPEL
100
AcDbLine
 10
135.9999999999999
 20
29.99999999999997
 30
0.0
 11
39.99999999999997
 21
29.99999999999997
 31
0.0
  0
LINE
  5
5C
330
1E
100
AcDbEntity
  8
STEMPEL
100
AcDbLine
 10
410.0
 20
40.0
 30
0.0
 11
136.0000000000001
 21
39.99999999999997
 31
0.0
  0
LINE
  5
5D
330
1E
100
AcDbEntity
  8
STEMPEL
100
AcDbLine
 10
410.0
 20
80.0
 30
0.0
 11
136.0000000000001
 21
79.99999999999994
 31
0.0
  0
LINE
  5
5E
330
1E
100
AcDbEntity
  8
VOLL
100
AcDbLine
 10
54.00000000000009
 20
110.0
 30
0.0
 11
53.99999999999997
 21
9.999999999999971
 31
0.0
  0
LINE
  5
5F
330
1E
100
AcDbEntity
  8
VOLL
100
AcDbLine
 10
94.00000000000011
 20
109.9999999999999
 30
0.0
 11
94.0
 21
9.999999999999971
 31
0.0
  0
LINE
  5
60
330
1E
100
AcDbEntity
  8
VOLL
100
AcDbLine
 10
114.0000000000001
 20
109.9999999999999
 30
0.0
 11
114.0
 21
9.999999999999971
 31
0.0
  0
LINE
  5
61
330
1E
100
AcDbEntity
  8
VOLL
100
AcDbLine
 10
154.0000000000001
 20
79.99999999999994
 30
0.0
 11
154.0000000000001
 21
39.99999999999997
 31
0.0
  0
LINE
  5
62
330
1E
100
AcDbEntity
  8
VOLL
100
AcDbLine
 10
180.0000000000001
 20
109.9999999999998
 30
0.0
 11
180.0
 21
39.99999999999997
 31
0.0
  0
LINE
  5
63
330
1E
100
AcDbEntity
  8
HILF
100
AcDbLine
 10
40.00000000000008
 20
100.0
 30
0.0
 11
136.0000000000001
 21
100.0
 31
0.0
  0
LINE
  5
64
330
1E
100
AcDbEntity
  8
HILF
100
AcDbLine
 10
40.00000000000008
 20
90.00000000000005
 30
0.0
 11
136.0000000000001
 21
90.00000000000005
 31
0.0
  0
LINE
  5
65
330
1E
100
AcDbEntity
  8
HILF
100
AcDbLine
 10
40.00000000000008
 20
79.99999999999994
 30
0.0
 11
136.0000000000001
 21
79.99999999999994
 31
0.0
  0
LINE
  5
66
330
1E
100
AcDbEntity
  8
HILF
100
AcDbLine
 10
40.00000000000008
 20
69.99999999999994
 30
0.0
 11
136.0000000000001
 21
69.99999999999994
 31
0.0
  0
LINE
  5
67
330
1E
100
AcDbEntity
  8
HILF
100
AcDbLine
 10
40.00000000000008
 20
59.99999999999997
 30
0.0
 11
136.0000000000001
 21
59.99999999999997
 31
0.0
  0
LINE
  5
68
330
1E
100
AcDbEntity
  8
HILF
100
AcDbLine
 10
40.00000000000008
 20
49.99999999999997
 30
0.0
 11
136.0000000000001
 21
49.99999999999997
 31
0.0
  0
LINE
  5
69
330
1E
100
AcDbEntity
  8
HILF
100
AcDbLine
 10
40.00000000000008
 20
39.99999999999997
 30
0.0
 11
136.0000000000001
 21
39.99999999999997
 31
0.0
  0
LINE
  5
6A
330
1E
100
AcDbEntity
  8
HILF
100
AcDbLine
 10
136.0000000000001
 20
69.99999999999994
 30
0.0
 11
220.0
 21
69.99999999999994
 31
0.0
  0
LINE
  5
6B
330
1E
100
AcDbEntity
  8
HILF
100
AcDbLine
 10
136.0000000000001
 20
59.99999999999997
 30
0.0
 11
220.0
 21
59.99999999999997
 31
0.0
  0
LINE
  5
6C
330
1E
100
AcDbEntity
  8
HILF
100
AcDbLine
 10
136.0000000000001
 20
49.99999999999997
 30
0.0
 11
220.0
 21
49.99999999999997
 31
0.0
  0
LINE
  5
6D
330
1E
100
AcDbEntity
  8
HILF
100
AcDbLine
 10
224.7736801096948
 20
84.03758247564139
 30
0.0
 11
324.8353916556311
 21
84.03758247564139
 31
0.0
  0
LINE
  5
6E
330
1E
100
AcDbEntity
  8
HILF
100
AcDbLine
 10
224.7736801096948
 20
69.99999999999994
 30
0.0
 11
324.835391655631
 21
69.99999999999994
 31
0.0
  0
LINE
  5
6F
330
1E
100
AcDbEntity
  8
HILF
100
AcDbLine
 10
224.7736801096948
 20
59.99999999999997
 30
0.0
 11
324.835391655631
 21
59.99999999999997
 31
0.0
  0
LINE
  5
70
330
1E
100
AcDbEntity
  8
HILF
100
AcDbLine
 10
224.7736801096948
 20
49.99999999999997
 30
0.0
 11
324.835391655631
 21
49.99999999999997
 31
0.0
  0
LINE
  5
71
330
1E
100
AcDbEntity
  8
VOLL
100
AcDbLine
 10
332.0
 20
60.0
 30
0.0
 11
410.0
 21
60.0
 31
0.0
  0
LINE
  5
72
330
1E
100
AcDbEntity
  8
HILF
100
AcDbLine
 10
336.7238616296993
 20
83.77983636955827
 30
0.0
 11
404.8588839326728
 21
83.77983636955827
 31
0.0
  0
LINE
  5
73
330
1E
100
AcDbEntity
  8
HILF
100
AcDbLine
 10
223.4909699289885
 20
14.89398258028314
 30
0.0
 11
404.8588839326728
 21
14.89398258028314
 31
0.0
  0
TEXT
  5
74
330
1E
100
AcDbEntity
  8
TEXT
100
AcDbText
 10
63.86165979631819
 20
18.67381894984132
 30
0.0
 40
4.0
  1
Änderung
 41
0.8
  7
GREEKS
 72
     1
 11
74.60451693917534
 21
18.67381894984132
 31
0.0
100
AcDbText
  0
TEXT
  5
75
330
1E
100
AcDbEntity
  8
TEXT
100
AcDbText
 10
143.5163572150377
 20
102.4620895087088
 30
0.0
 40
5.0
  1
Maßstab
 41
0.8
  7
GREEKS
100
AcDbText
  0
TEXT
  5
76
330
1E
100
AcDbEntity
  8
TEXT
100
AcDbText
 10
184.2858954734051
 20
102.4184168434819
 30
0.0
 40
5.0
  1
Zul. Abw.
 41
0.8
  7
GREEKS
100
AcDbText
  0
TEXT
  5
77
330
1E
100
AcDbEntity
  8
TEXT
100
AcDbText
 10
224.877940380901
 20
102.5489328011779
 30
0.0
 40
5.0
  1
Benennung
 41
0.8
  7
GREEKS
100
AcDbText
  0
TEXT
  5
78
330
1E
100
AcDbEntity
  8
TEXT
100
AcDbText
 10
336.178754957634
 20
102.3132034537136
 30
0.0
 40
5.0
  1
Zeichnungs Nr.
 41
0.8
  7
GREEKS
100
AcDbText
  0
TEXT
  5
79
330
1E
100
AcDbEntity
  8
TEXT
100
AcDbText
 10
224.742238391136
 20
30.84560570193057
 30
0.0
 40
5.0
  1
Bauvorhaben
 41
0.8
  7
GREEKS
100
AcDbText
  0
TEXT
  5
7A
330
1E
100
AcDbEntity
  8
TEXT
100
AcDbText
 10
336.7238616296993
 20
73.1811823709997
 30
0.0
 40
5.0
  1
Ersatz für:
 41
0.8
  7
GREEKS
100
AcDbText
  0
TEXT
  5
7B
330
1E
100
AcDbEntity
  8
TEXT
100
AcDbText
 10
48.26641107045756
 20
13.65465846027192
 30
0.0
 40
4.0
  1
Index
 50
90.0
 41
0.8
  7
GREEKS
100
AcDbText
  0
TEXT
  5
7C
330
1E
100
AcDbEntity
  8
TEXT
100
AcDbText
 10
100.0934676075481
 20
18.6715626933981
 30
0.0
 40
4.0
  1
Tag
 41
0.8
  7
GREEKS
 72
     1
 11
103.8268009408814
 21
18.6715626933981
 31
0.0
100
AcDbText
  0
TEXT
  5
7D
330
1E
100
AcDbEntity
  8
TEXT
100
AcDbText
 10
119.0122744386592
 20
18.59324216966408
 30
0.0
 40
4.0
  1
Name
 41
0.8
  7
GREEKS
 72
     1
 11
125.3360839624688
 21
18.59324216966408
 31
0.0
100
AcDbText
  0
TEXT
  5
7E
330
1E
100
AcDbEntity
  8
TEXT
100
AcDbText
 10
162.3311673153651
 20
73.31880501229926
 30
0.0
 40
4.0
  1
Tag
 41
0.8
  7
GREEKS
100
AcDbText
  0
TEXT
  5
7F
330
1E
100
AcDbEntity
  8
TEXT
100
AcDbText
 10
192.4626584226295
 20
73.30961091915225
 30
0.0
 40
4.0
  1
Name
 41
0.8
  7
GREEKS
100
AcDbText
  0
TEXT
  5
80
330
1E
100
AcDbEntity
  8
TEXT
100
AcDbText
 10
137.5836127167615
 20
63.62990369617964
 30
0.0
 40
4.0
  1
Gez.
 41
0.8
  7
GREEKS
100
AcDbText
  0
TEXT
  5
81
330
1E
100
AcDbEntity
  8
TEXT
100
AcDbText
 10
137.5515086571672
 20
53.68926291428377
 30
0.0
 40
4.0
  1
Gepr.
 41
0.8
  7
GREEKS
100
AcDbText
  0
TEXT
  5
82
330
1E
100
AcDbEntity
  8
TEXT
100
AcDbText
 10
137.6006777387304
 20
43.52946389649807
 30
0.0
 40
4.0
  1
Norm.
 41
0.8
  7
GREEKS
100
AcDbText
  0
LINE
  5
83
330
1E
100
AcDbEntity
  8
STEMPEL
100
AcDbLine
 10
49.99999999999989
 20
10.0
 30
0.0
 11
410.0
 21
10.0
 31
0.0
  0
TEXT
  5
84
330
1E
100
AcDbEntity
  8
TEXT
100
AcDbText
 10
337.2400861497006
 20
52.07416177878602
 30
0.0
 40
5.0
  1
ersetzt durch:
 41
0.8
  7
GREEKS
100
AcDbText
  0
LINE
  5
85
330
1E
100
AcDbEntity
  8
STEMPEL
100
AcDbLine
 10
410.0
 20
10.0
 30
0.0
 11
39.99999999999989
 21
10.0
 31
0.0
  0
LINE
  5
86
330
1E
100
AcDbEntity
  8
STEMPEL
100
AcDbLine
 10
410.0
 20
10.0
 30
0.0
 11
410.0
 21
584.0
 31
0.0
  0
LINE
  5
87
330
1E
100
AcDbEntity
  8
STEMPEL
100
AcDbLine
 10
40.0
 20
10.0
 30
0.0
 11
39.99999999999989
 21
584.0
 31
0.0
  0
LINE
  5
88
330
1E
100
AcDbEntity
  8
STEMPEL
100
AcDbLine
 10
410.0
 20
584.0
 30
0.0
 11
39.99999999999989
 21
584.0
 31
0.0
  0
LINE
  5
89
330
1E
100
AcDbEntity
  8
HILF
100
AcDbLine
 10
0.0
 20
0.0
 30
0.0
 11
-0.0000000000001137
 21
594.0
 31
0.0
  0
LINE
  5
8A
330
1E
100
AcDbEntity
  8
HILF
100
AcDbLine
 10
419.9999999999999
 20
594.0000000000002
 30
0.0
 11
0.0
 21
594.0
 31
0.0
  0
LINE
  5
8B
330
1E
100
AcDbEntity
  8
HILF
100
AcDbLine
 10
420.0
 20
0.0
 30
0.0
 11
0.0
 21
0.0
 31
0.0
  0
LINE
  5
8C
330
1E
100
AcDbEntity
  8
HILF
100
AcDbLine
 10
31.08767135713856
 20
297.0
 30
0.0
 11
0.0000000000001137
 21
297.0
 31
0.0
  0
TEXT
  5
8D
330
1E
100
AcDbEntity
  8
TEXT
100
AcDbText
 10
138.622109822104
 20
73.14025471151666
 30
0.0
 40
4.0
  1
2008
 41
0.8
  7
GREEKS
100
AcDbText
  0
LINE
  5
8E
330
1E
100
AcDbEntity
  8
HILF
100
AcDbLine
 10
420.0
 20
-0.0000000000001137
 30
0.0
 11
419.9999999999999
 21
594.0
 31
0.0
  0
TEXT
  5
8F
330
1E
100
AcDbEntity
  8
VOLL
100
AcDbText
 10
78.07675471698113
 20
31.02594776470585
 30
0.0
 40
1.8
  1

  7
GREEKS
100
AcDbText
  0
TEXT
  5
90
330
1E
100
AcDbEntity
  8
TEXT
100
AcDbText
 10
41.85509950977674
 20
111.6719999999999
 30
0.0
 40
5.0
  1
Erstellt mit AUTOCAD 2004
 41
0.8
  7
GREEKS
100
AcDbText
  0
TEXT
  5
91
330
1E
100
AcDbEntity
  8
TEXT
100
AcDbText
 10
194.4216048581257
 20
63.0896391972351
 30
0.0
 40
4.0
  1
Koeh
 41
0.8
  7
GREEKS
 72
     1
 11
199.6787477152685
 21
63.0896391972351
 31
0.0
100
AcDbText
  0
TEXT
  5
92
330
1E
100
AcDbEntity
  8
TEXT
 62
     1
100
AcDbText
 10
347.1311066449286
 20
88.14901428913959
 30
0.0
 40
7.0
  1
18621125W
 41
0.8
  7
GREEKS
 72
     1
 11
369.5311066449286
 21
88.14901428913959
 31
0.0
100
AcDbText
  0
TEXT
  5
93
330
1E
100
AcDbEntity
  8
TEXT
 62
     1
100
AcDbText
 10
150.5006306481887
 20
88.14901428913959
 30
0.0
 40
7.0
  1
1:2
 41
0.8
  7
GREEKS
100
AcDbText
  0
TEXT
  5
94
330
1E
100
AcDbEntity
  8
TEXT
100
AcDbText
 10
161.0085209177598
 20
63.10765040825732
 30
0.0
 40
4.0
  1
11.06.
 41
0.8
  7
GREEKS
 72
     1
 11
167.4085209177598
 21
63.10765040825732
 31
0.0
100
AcDbText
  0
TEXT
  5
95
330
1E
100
AcDbEntity
  8
TEXT
 62
     1
100
AcDbText
 10
226.8935731057402
 20
87.41748789253779
 30
0.0
 40
7.0
  1
Siebeinheit DN125
 41
0.8
  7
GREEKS
100
AcDbText
  0
TEXT
  5
98
330
1E
100
AcDbEntity
  8
TEXT
100
AcDbText
 10
225.1296391125315
 20
51.64011943042158
 30
0.0
 40
5.0
  1
EDV-Art.Nr. 18621.125X
 41
0.8
  7
GREEKS
100
AcDbText
  0
TEXT
  5
99
330
1E
100
AcDbEntity
  8
TEXT
100
AcDbText
 10
224.9837501577827
 20
42.62974153022632
 30
0.0
 40
4.0
  1
18621125W.DWG
 41
0.8
  7
GREEKS
100
AcDbText
  0
TEXT
  5
9A
330
1E
100
AcDbEntity
  8
TEXT
100
AcDbText
 10
182.626132208084
 20
90.76363841023022
 30
0.0
 40
4.0
  1
DIN EN1123-2
 41
0.8
  7
GREEKS
 72
     1
 11
199.6166083985602
 21
90.76363841023022
 31
0.0
100
AcDbText
  0
INSERT
  5
9B
330
1E
100
AcDbEntity
  8
STEMPEL
100
AcDbBlockReference
  2
LOGO
 10
140.9955485457794
 20
45.02105276448322
 30
0.0
 41
2.0
 42
2.0
 43
2.0
  0
TEXT
  5
118
330
1E
100
AcDbEntity
  8
BEM
100
AcDbText
 10
417.3022923857165
 20
10.16790107998849
 30
0.0
 40
4.0
  1
Diese Zeichnung ist urheberrechtlich geschützt und bleibt unser Eigentum. Sie darf weder ganz noch teilweise verfielfältigt und nicht an Dritte weitergegeben werden.
 50
90.0
 41
0.8
  7
GREEKS
100
AcDbText
  0
DIMENSION
  5
AAC
330
1E
100
AcDbEntity
  8
BEM
  6
Continuous
100
AcDbDimension
  2
*D1
 10
83.08293534617599
 20
253.7701642705259
 30
0.0
 11
76.58293534617595
 21
340.2701642705259
 31
0.0
 70
    32
 71
     5
 42
172.9999999999999
  3
Standard
100
AcDbAlignedDimension
 13
125.0478396779375
 23
426.7701642705259
 33
0.0
 14
150.8601696308263
 24
253.7701642705259
 34
0.0
 50
270.0
100
AcDbRotatedDimension
1001
ACAD
1000
DSTYLE
1002
{
1070
    40
1040
2.0
1070
    41
1040
3.5
1070
    42
1040
1.0
1070
    43
1040
7.0
1070
    44
1040
1.0
1070
    73
1070
     0
1070
    74
1070
     0
1070
    77
1070
     1
1070
    78
1070
     8
1070
    79
1070
     2
1070
   140
1040
3.5
1070
   141
1040
1.5
1070
   146
1040
0.5142857142857144
1070
   147
1040
1.5
1070
   172
1070
     1
1070
   178
1070
     1
1070
   179
1070
     2
1070
   271
1070
     2
1070
   272
1070
     2
1070
   284
1070
     8
1070
   285
1070
     8
1070
   286
1070
     8
1002
}
  0
DIMENSION
  5
AAD
330
1E
100
AcDbEntity
  8
BEM
  6
Continuous
100
AcDbDimension
  2
*D2
 10
96.63165597288912
 20
253.7701642705259
 30
0.0
 11
90.13165597288908
 21
313.7701642705259
 31
0.0
 70
    32
 71
     5
 42
120.0
  3
Standard
100
AcDbAlignedDimension
 13
158.4401445233508
 23
373.7701642705259
 33
0.0
 14
150.8601696308263
 24
253.7701642705259
 34
0.0
 50
270.0
100
AcDbRotatedDimension
1001
ACAD
1000
DSTYLE
1002
{
1070
    40
1040
2.0
1070
    41
1040
3.5
1070
    42
1040
1.0
1070
    43
1040
7.0
1070
    44
1040
1.0
1070
    73
1070
     0
1070
    74
1070
     0
1070
    77
1070
     1
1070
    78
1070
     8
1070
    79
1070
     2
1070
   140
1040
3.5
1070
   141
1040
1.5
1070
   146
1040
0.5142857142857144
1070
   147
1040
1.5
1070
   172
1070
     1
1070
   178
1070
     1
1070
   179
1070
     2
1070
   271
1070
     2
1070
   272
1070
     2
1070
   284
1070
     8
1070
   285
1070
     8
1070
   286
1070
     8
1002
}
  0
DIMENSION
  5
AAE
330
1E
100
AcDbEntity
  8
BEM
  6
Continuous
100
AcDbDimension
  2
*D3
 10
96.63165597288912
 20
373.770164270526
 30
0.0
 11
90.13165597288907
 21
400.2701642705259
 31
0.0
 70
    32
 71
     5
 42
52.99999999999994
  3
Standard
100
AcDbAlignedDimension
 13
125.0478396779375
 23
426.7701642705259
 33
0.0
 14
158.4401445233508
 24
373.7701642705259
 34
0.0
 50
270.0
100
AcDbRotatedDimension
1001
ACAD
1000
DSTYLE
1002
{
1070
    40
1040
2.0
1070
    41
1040
3.5
1070
    42
1040
1.0
1070
    43
1040
7.0
1070
    44
1040
1.0
1070
    73
1070
     0
1070
    74
1070
     0
1070
    77
1070
     1
1070
    78
1070
     8
1070
    79
1070
     2
1070
   140
1040
3.5
1070
   141
1040
1.5
1070
   146
1040
0.5142857142857144
1070
   147
1040
1.5
1070
   172
1070
     1
1070
   178
1070
     1
1070
   179
1070
     2
1070
   271
1070
     2
1070
   272
1070
     2
1070
   284
1070
     8
1070
   285
1070
     8
1070
   286
1070
     8
1002
}
  0
LINE
  5
AB2
330
1E
100
AcDbEntity
  8
MITTEL
100
AcDbLine
 10
216.0478396779375
 20
431.7701642705258
 30
0.0
 11
216.0478396779375
 21
248.7701642705259
 31
0.0
  0
LINE
  5
AC2
102
{ACAD_REACTORS
330
13E1
102
}
330
1E
100
AcDbEntity
  8
STEMPEL
  6
Continuous
100
AcDbLine
 10
150.357240754696
 20
387.7701642705259
 30
0.0
 11
154.976042908213
 21
379.7701642705259
 31
0.0
  0
LINE
  5
AC3
102
{ACAD_REACTORS
330
13E1
102
}
330
1E
100
AcDbEntity
  8
STEMPEL
  6
Continuous
100
AcDbLine
 10
281.7384386011791
 20
387.7701642705259
 30
0.0
 11
277.1196364476621
 21
379.7701642705259
 31
0.0
  0
ARC
  5
AED
102
{ACAD_REACTORS
330
13E1
102
}
330
1E
100
AcDbEntity
  8
STEMPEL
  6
Continuous
100
AcDbCircle
 10
143.4290375244205
 20
383.7701642705259
 30
0.0
 40
8.0
100
AcDbArc
 50
30.00000000000054
 51
89.99999999999998
  0
ARC
  5
AEE
102
{ACAD_REACTORS
330
13E1
102
}
330
1E
100
AcDbEntity
  8
STEMPEL
  6
Continuous
100
AcDbCircle
 10
288.6666418314545
 20
383.7701642705259
 30
0.0
 40
8.0
100
AcDbArc
 50
89.99999999999998
 51
149.9999999999994
  0
LINE
  5
AEF
330
1E
100
AcDbEntity
  8
STEMPEL
  6
Continuous
100
AcDbLine
 10
216.0478396779375
 20
391.7701642705259
 30
0.0
 11
133.0478396779375
 21
391.7701642705259
 31
0.0
  0
ARC
  5
AF0
102
{ACAD_REACTORS
330
13E1
102
}
330
1E
100
AcDbEntity
  8
STEMPEL
  6
Continuous
100
AcDbCircle
 10
133.0478396779375
 20
395.7701642705259
 30
0.0
 40
8.0
100
AcDbArc
 50
180.0
 51
270.0
  0
ARC
  5
AF1
102
{ACAD_REACTORS
330
13E1
102
}
330
1E
100
AcDbEntity
  8
STEMPEL
  6
Continuous
100
AcDbCircle
 10
158.4401445233508
 20
381.7701642705259
 30
0.0
 40
8.0
100
AcDbArc
 50
210.0000000000005
 51
270.0
  0
ARC
  5
AF2
102
{ACAD_REACTORS
330
13E1
102
}
330
1E
100
AcDbEntity
  8
STEMPEL
  6
Continuous
100
AcDbCircle
 10
273.6555348325243
 20
381.7701642705259
 30
0.0
 40
8.0
100
AcDbArc
 50
270.0
 51
329.9999999999994
  0
ARC
  5
AF3
102
{ACAD_REACTORS
330
13E1
102
}
330
1E
100
AcDbEntity
  8
STEMPEL
  6
Continuous
100
AcDbCircle
 10
299.0478396779375
 20
395.7701642705259
 30
0.0
 40
8.0
100
AcDbArc
 50
270.0
 51
0.0
  0
ARC
  5
AF4
102
{ACAD_REACTORS
330
13E1
102
}
330
1E
100
AcDbEntity
  8
STEMPEL
  6
Continuous
100
AcDbCircle
 10
133.0478396779375
 20
395.7701642705259
 30
0.0
 40
4.0
100
AcDbArc
 50
180.0
 51
270.0
  0
ARC
  5
AF5
102
{ACAD_REACTORS
330
13E1
102
}
330
1E
100
AcDbEntity
  8
STEMPEL
  6
Continuous
100
AcDbCircle
 10
143.4290375244205
 20
383.7701642705259
 30
0.0
 40
4.0
100
AcDbArc
 50
30.00000000000054
 51
89.99999999999998
  0
ARC
  5
AF6
102
{ACAD_REACTORS
330
13E1
102
}
330
1E
100
AcDbEntity
  8
STEMPEL
  6
Continuous
100
AcDbCircle
 10
158.4401445233508
 20
381.7701642705259
 30
0.0
 40
4.0
100
AcDbArc
 50
210.0000000000005
 51
270.0
  0
ARC
  5
AF7
102
{ACAD_REACTORS
330
13E1
102
}
330
1E
100
AcDbEntity
  8
STEMPEL
  6
Continuous
100
AcDbCircle
 10
273.6555348325243
 20
381.7701642705259
 30
0.0
 40
4.0
100
AcDbArc
 50
270.0
 51
329.9999999999994
  0
ARC
  5
AF8
102
{ACAD_REACTORS
330
13E1
102
}
330
1E
100
AcDbEntity
  8
STEMPEL
  6
Continuous
100
AcDbCircle
 10
288.6666418314545
 20
383.7701642705259
 30
0.0
 40
4.0
100
AcDbArc
 50
89.99999999999998
 51
149.9999999999994
  0
ARC
  5
AF9
102
{ACAD_REACTORS
330
13E1
102
}
330
1E
100
AcDbEntity
  8
STEMPEL
  6
Continuous
100
AcDbCircle
 10
299.0478396779375
 20
395.7701642705259
 30
0.0
 40
4.0
100
AcDbArc
 50
270.0
 51
0.0
  0
LINE
  5
B04
102
{ACAD_REACTORS
330
13E1
102
}
330
1E
100
AcDbEntity
  8
STEMPEL
  6
Continuous
100
AcDbLine
 10
146.8931391395583
 20
385.7701642705259
 30
0.0
 11
151.5119412930753
 21
377.7701642705259
 31
0.0
  0
LINE
  5
B05
102
{ACAD_REACTORS
330
13E1
102
}
330
1E
100
AcDbEntity
  8
STEMPEL
  6
Continuous
100
AcDbLine
 10
285.2025402163167
 20
385.7701642705259
 30
0.0
 11
280.5837380627998
 21
377.7701642705259
 31
0.0
  0
LINE
  5
B06
102
{ACAD_REACTORS
330
13E1
102
}
330
1E
100
AcDbEntity
  8
STEMPEL
  6
Continuous
100
AcDbLine
 10
143.4290375244205
 20
387.7701642705259
 30
0.0
 11
133.0478396779375
 21
387.7701642705259
 31
0.0
  0
LINE
  5
B07
330
1E
100
AcDbEntity
  8
BEM
  6
Continuous
100
AcDbLine
 10
148.0478396779375
 20
391.7701642705259
 30
0.0
 11
150.357240754696
 21
387.7701642705259
 31
0.0
  0
LINE
  5
B08
330
1E
100
AcDbEntity
  8
BEM
  6
Continuous
100
AcDbLine
 10
284.0478396779375
 20
391.7701642705259
 30
0.0
 11
281.7384386011791
 21
387.7701642705259
 31
0.0
  0
LINE
  5
B09
330
1E
100
AcDbEntity
  8
STEMPEL
  6
Continuous
100
AcDbLine
 10
273.6555348325243
 20
373.7701642705259
 30
0.0
 11
158.4401445233508
 21
373.7701642705259
 31
0.0
  0
LINE
  5
B0A
102
{ACAD_REACTORS
330
13E1
102
}
330
1E
100
AcDbEntity
  8
STEMPEL
  6
Continuous
100
AcDbLine
 10
273.6555348325243
 20
377.7701642705259
 30
0.0
 11
158.4401445233508
 21
377.7701642705259
 31
0.0
  0
LINE
  5
B0B
102
{ACAD_REACTORS
330
13E1
102
}
330
1E
100
AcDbEntity
  8
STEMPEL
  6
Continuous
100
AcDbLine
 10
125.0478396779375
 20
426.7701642705259
 30
0.0
 11
125.0478396779375
 21
395.7701642705259
 31
0.0
  0
LINE
  5
B0C
102
{ACAD_REACTORS
330
13E1
102
}
330
1E
100
AcDbEntity
  8
STEMPEL
  6
Continuous
100
AcDbLine
 10
299.0478396779375
 20
387.7701642705259
 30
0.0
 11
288.6666418314545
 21
387.7701642705259
 31
0.0
  0
LINE
  5
B0D
102
{ACAD_REACTORS
330
13E1
102
}
330
1E
100
AcDbEntity
  8
STEMPEL
  6
Continuous
100
AcDbLine
 10
307.0478396779375
 20
426.7701642705259
 30
0.0
 11
307.0478396779375
 21
395.7701642705259
 31
0.0
  0
LINE
  5
B0E
102
{ACAD_REACTORS
330
13E1
102
}
330
1E
100
AcDbEntity
  8
STEMPEL
  6
Continuous
100
AcDbLine
 10
129.0478396779375
 20
426.7701642705259
 30
0.0
 11
129.0478396779375
 21
395.7701642705259
 31
0.0
  0
LINE
  5
B0F
102
{ACAD_REACTORS
330
13E1
102
}
330
1E
100
AcDbEntity
  8
STEMPEL
  6
Continuous
100
AcDbLine
 10
303.0478396779376
 20
426.7701642705259
 30
0.0
 11
303.0478396779376
 21
395.7701642705259
 31
0.0
  0
LINE
  5
B10
330
1E
100
AcDbEntity
  8
STEMPEL
  6
Continuous
100
AcDbLine
 10
299.0478396779375
 20
391.7701642705259
 30
0.0
 11
216.0478396779375
 21
391.7701642705259
 31
0.0
  0
LINE
  5
B11
102
{ACAD_REACTORS
330
13E1
102
}
330
1E
100
AcDbEntity
  8
STEMPEL
  6
Continuous
100
AcDbLine
 10
307.0478396779375
 20
426.7701642705259
 30
0.0
 11
125.0478396779375
 21
426.7701642705259
 31
0.0
  0
TEXT
  5
10ED
330
1E
100
AcDbEntity
  8
VOLL
100
AcDbText
 10
211.6674202987046
 20
295.4943619114711
 30
0.0
 40
7.0
  1
DN125
 50
90.0
 41
0.8
  7
GREEKS
100
AcDbText
  0
ARC
  5
12DE
102
{ACAD_REACTORS
330
1355
102
}
330
1E
100
AcDbEntity
  8
STEMPEL
100
AcDbCircle
 10
144.2378645537135
 20
393.7701642705259
 30
0.0
 40
2.0
100
AcDbArc
 50
270.0
 51
0.0
  0
LINE
  5
12DF
102
{ACAD_REACTORS
330
1355
102
}
330
1E
100
AcDbEntity
  8
STEMPEL
100
AcDbLine
 10
149.5478396779377
 20
426.7701642705259
 30
0.0
 11
146.2279389341335
 21
393.571156832484
 31
0.0
  0
ARC
  5
12E0
102
{ACAD_REACTORS
330
1355
102
}
330
1E
100
AcDbEntity
  8
STEMPEL
100
AcDbCircle
 10
167.8578148021619
 20
393.7701642705259
 30
0.0
 40
2.0
100
AcDbArc
 50
180.0
 51
270.0
  0
LINE
  5
12E1
102
{ACAD_REACTORS
330
1355
102
}
330
1E
100
AcDbEntity
  8
STEMPEL
100
AcDbLine
 10
162.5478396779377
 20
426.7701642705259
 30
0.0
 11
165.8677404217419
 21
393.571156832484
 31
0.0
  0
ARC
  5
12E2
102
{ACAD_REACTORS
330
1355
102
}
330
1E
100
AcDbEntity
  8
STEMPEL
100
AcDbCircle
 10
174.2378645537135
 20
393.7701642705259
 30
0.0
 40
2.0
100
AcDbArc
 50
270.0
 51
0.0
  0
LINE
  5
12E3
102
{ACAD_REACTORS
330
1355
102
}
330
1E
100
AcDbEntity
  8
STEMPEL
100
AcDbLine
 10
179.5478396779377
 20
426.7701642705259
 30
0.0
 11
176.2279389341335
 21
393.571156832484
 31
0.0
  0
ARC
  5
12E4
102
{ACAD_REACTORS
330
1355
102
}
330
1E
100
AcDbEntity
  8
STEMPEL
100
AcDbCircle
 10
197.8578148021619
 20
393.7701642705259
 30
0.0
 40
2.0
100
AcDbArc
 50
180.0
 51
270.0
  0
LINE
  5
12E5
102
{ACAD_REACTORS
330
1355
102
}
330
1E
100
AcDbEntity
  8
STEMPEL
100
AcDbLine
 10
192.5478396779377
 20
426.7701642705259
 30
0.0
 11
195.8677404217419
 21
393.571156832484
 31
0.0
  0
ARC
  5
12E6
102
{ACAD_REACTORS
330
1355
102
}
330
1E
100
AcDbEntity
  8
STEMPEL
100
AcDbCircle
 10
264.2378645537136
 20
393.7701642705259
 30
0.0
 40
2.0
100
AcDbArc
 50
270.0
 51
0.0
  0
LINE
  5
12E7
102
{ACAD_REACTORS
330
1355
102
}
330
1E
100
AcDbEntity
  8
STEMPEL
100
AcDbLine
 10
269.5478396779378
 20
426.7701642705259
 30
0.0
 11
266.2279389341337
 21
393.571156832484
 31
0.0
  0
ARC
  5
12E8
102
{ACAD_REACTORS
330
1355
102
}
330
1E
100
AcDbEntity
  8
STEMPEL
100
AcDbCircle
 10
287.8578148021619
 20
393.7701642705259
 30
0.0
 40
2.0
100
AcDbArc
 50
180.0
 51
270.0
  0
LINE
  5
12E9
102
{ACAD_REACTORS
330
1355
102
}
330
1E
100
AcDbEntity
  8
STEMPEL
100
AcDbLine
 10
282.5478396779378
 20
426.7701642705259
 30
0.0
 11
285.8677404217418
 21
393.571156832484
 31
0.0
  0
ARC
  5
12EA
102
{ACAD_REACTORS
330
1355
102
}
330
1E
100
AcDbEntity
  8
STEMPEL
100
AcDbCircle
 10
234.2378645537137
 20
393.7701642705259
 30
0.0
 40
2.0
100
AcDbArc
 50
270.0
 51
0.0
  0
LINE
  5
12EB
102
{ACAD_REACTORS
330
1355
102
}
330
1E
100
AcDbEntity
  8
STEMPEL
100
AcDbLine
 10
239.5478396779376
 20
426.7701642705259
 30
0.0
 11
236.2279389341335
 21
393.571156832484
 31
0.0
  0
ARC
  5
12EC
102
{ACAD_REACTORS
330
1355
102
}
330
1E
100
AcDbEntity
  8
STEMPEL
100
AcDbCircle
 10
257.8578148021619
 20
393.7701642705259
 30
0.0
 40
2.0
100
AcDbArc
 50
180.0
 51
270.0
  0
LINE
  5
12ED
102
{ACAD_REACTORS
330
1355
102
}
330
1E
100
AcDbEntity
  8
STEMPEL
100
AcDbLine
 10
252.5478396779376
 20
426.7701642705259
 30
0.0
 11
255.8677404217418
 21
393.571156832484
 31
0.0
  0
ARC
  5
12EE
102
{ACAD_REACTORS
330
1355
102
}
330
1E
100
AcDbEntity
  8
STEMPEL
100
AcDbCircle
 10
227.8578148021619
 20
393.7701642705259
 30
0.0
 40
2.0
100
AcDbArc
 50
180.0
 51
270.0
  0
ARC
  5
12EF
102
{ACAD_REACTORS
330
1355
102
}
330
1E
100
AcDbEntity
  8
STEMPEL
100
AcDbCircle
 10
204.2378645537135
 20
393.7701642705259
 30
0.0
 40
2.0
100
AcDbArc
 50
270.0
 51
0.0
  0
LINE
  5
12F0
102
{ACAD_REACTORS
330
1355
102
}
330
1E
100
AcDbEntity
  8
STEMPEL
100
AcDbLine
 10
222.5478396779375
 20
426.7701642705259
 30
0.0
 11
225.8677404217418
 21
393.571156832484
 31
0.0
  0
LINE
  5
12F1
102
{ACAD_REACTORS
330
1355
102
}
330
1E
100
AcDbEntity
  8
STEMPEL
100
AcDbLine
 10
209.5478396779378
 20
426.7701642705259
 30
0.0
 11
206.2279389341335
 21
393.571156832484
 31
0.0
  0
LINE
  5
12F2
330
1E
100
AcDbEntity
  8
STEMPEL
100
AcDbLine
 10
133.5478396779377
 20
391.7701642705259
 30
0.0
 11
298.5478396779375
 21
391.7701642705259
 31
0.0
  0
LINE
  5
12F3
102
{ACAD_REACTORS
330
1355
102
}
330
1E
100
AcDbEntity
  8
STEMPEL
100
AcDbLine
 10
131.0478396779376
 20
426.7701642705259
 30
0.0
 11
301.0478396779376
 21
426.7701642705259
 31
0.0
  0
LINE
  5
12F4
102
{ACAD_REACTORS
330
1355
102
}
330
1E
100
AcDbEntity
  8
STEMPEL
100
AcDbLine
 10
131.0478396779376
 20
426.7701642705259
 30
0.0
 11
133.5478396779377
 21
391.7701642705259
 31
0.0
  0
LINE
  5
12F5
102
{ACAD_REACTORS
330
1355
102
}
330
1E
100
AcDbEntity
  8
STEMPEL
100
AcDbLine
 10
301.0478396779376
 20
426.7701642705259
 30
0.0
 11
298.5478396779375
 21
391.7701642705259
 31
0.0
  0
LINE
  5
12F6
102
{ACAD_REACTORS
330
1355
330
13E1
102
}
330
1E
100
AcDbEntity
  8
STEMPEL
  6
Continuous
100
AcDbLine
 10
216.0478396779375
 20
391.7701642705259
 30
0.0
 11
133.0478396779375
 21
391.7701642705259
 31
0.0
  0
LINE
  5
12F7
102
{ACAD_REACTORS
330
1355
330
13E1
102
}
330
1E
100
AcDbEntity
  8
STEMPEL
  6
Continuous
100
AcDbLine
 10
299.0478396779375
 20
391.7701642705259
 30
0.0
 11
216.0478396779375
 21
391.7701642705259
 31
0.0
  0
LINE
  5
12F8
330
1E
100
AcDbEntity
  8
VOLL
100
AcDbLine
 10
204.761786562189
 20
439.26809313695
 30
0.0
 11
204.761786562189
 21
446.2680931369501
 31
0.0
  0
LINE
  5
12F9
330
1E
100
AcDbEntity
  8
VOLL
100
AcDbLine
 10
211.761786562189
 20
439.26809313695
 30
0.0
 11
204.761786562189
 21
439.26809313695
 31
0.0
  0
LINE
  5
12FA
330
1E
100
AcDbEntity
  8
VOLL
100
AcDbLine
 10
211.761786562189
 20
446.2680931369501
 30
0.0
 11
211.761786562189
 21
439.26809313695
 31
0.0
  0
LINE
  5
12FB
330
1E
100
AcDbEntity
  8
VOLL
100
AcDbLine
 10
204.761786562189
 20
446.2680931369501
 30
0.0
 11
211.761786562189
 21
446.2680931369501
 31
0.0
  0
DIMENSION
  5
12FC
330
1E
100
AcDbEntity
  8
BEM
100
AcDbDimension
  2
*D4
 10
307.0478396779375
 20
436.8312329185788
 30
0.0
 11
216.0478396779375
 21
443.3312329185788
 31
0.0
 70
    32
  1
  182
 71
     5
 42
182.0
  3
Standard
100
AcDbAlignedDimension
 13
125.0478396779375
 23
426.7701642705258
 33
0.0
 14
307.0478396779375
 24
426.7701642705258
 34
0.0
100
AcDbRotatedDimension
1001
ACAD
1000
DSTYLE
1002
{
1070
    40
1040
2.0
1070
    41
1040
3.5
1070
    42
1040
1.0
1070
    43
1040
7.0
1070
    44
1040
1.0
1070
    73
1070
     0
1070
    74
1070
     0
1070
    77
1070
     1
1070
    78
1070
     8
1070
    79
1070
     2
1070
   140
1040
3.5
1070
   141
1040
1.5
1070
   146
1040
0.5142857142857144
1070
   147
1040
1.5
1070
   172
1070
     1
1070
   178
1070
     1
1070
   179
1070
     2
1070
   271
1070
     2
1070
   272
1070
     2
1070
   284
1070
     8
1070
   285
1070
     8
1070
   286
1070
     8
1002
}
  0
LINE
  5
12FD
330
1E
100
AcDbEntity
  8
HILF
100
AcDbLine
 10
179.9251575082987
 20
501.8940167821918
 30
0.0
 11
171.6978382467436
 21
438.6676957994093
 31
0.0
  0
LINE
  5
12FE
330
1E
100
AcDbEntity
  8
HILF
100
AcDbLine
 10
179.9251575082987
 20
501.8940167821918
 30
0.0
 11
278.0096519439718
 21
501.8940167821918
 31
0.0
  0
TEXT
  5
12FF
330
1E
100
AcDbEntity
  8
VOLL
100
AcDbText
 10
180.9785699659907
 20
493.568364978456
 30
0.0
 40
7.0
  1
EDV-Art.Nr.18616.000X
 41
0.8
  7
GREEKS
100
AcDbText
  0
LINE
  5
1300
330
1E
100
AcDbEntity
  8
VOLL
100
AcDbLine
 10
199.9586706805597
 20
510.8597087589106
 30
0.0
 11
206.9586706805597
 21
510.8597087589106
 31
0.0
  0
LINE
  5
1301
330
1E
100
AcDbEntity
  8
VOLL
100
AcDbLine
 10
206.9586706805597
 20
503.8597087589106
 30
0.0
 11
199.9586706805597
 21
503.8597087589106
 31
0.0
  0
LINE
  5
1302
330
1E
100
AcDbEntity
  8
VOLL
100
AcDbLine
 10
199.9586706805597
 20
503.8597087589106
 30
0.0
 11
199.9586706805597
 21
510.8597087589106
 31
0.0
  0
LINE
  5
1303
330
1E
100
AcDbEntity
  8
VOLL
100
AcDbLine
 10
206.9586706805597
 20
510.8597087589106
 30
0.0
 11
206.9586706805597
 21
503.8597087589106
 31
0.0
  0
TEXT
  5
1304
330
1E
100
AcDbEntity
  8
VOLL
100
AcDbText
 10
180.9785699659907
 20
503.7362694097912
 30
0.0
 40
7.0
  1
Sieb  170
 41
0.8
  7
GREEKS
100
AcDbText
  0
LINE
  5
1305
330
1E
100
AcDbEntity
  8
HILF
100
AcDbLine
 10
171.2919691138599
 20
435.5486224710387
 30
0.0
 11
169.4974338753299
 21
421.7577560418725
 31
0.0
  0
LINE
  5
1306
330
1E
100
AcDbEntity
  8
HILF
100
AcDbLine
 10
298.8685311541395
 20
283.4453421852985
 30
0.0
 11
295.7997491163445
 21
389.568492701738
 31
0.0
  0
LINE
  5
1307
330
1E
100
AcDbEntity
  8
VOLL
100
AcDbLine
 10
368.6268467527408
 20
292.1378589403706
 30
0.0
 11
368.6268467527408
 21
285.1378589403706
 31
0.0
  0
LINE
  5
1308
330
1E
100
AcDbEntity
  8
VOLL
100
AcDbLine
 10
361.6268467527408
 20
285.1378589403706
 30
0.0
 11
361.6268467527408
 21
292.1378589403706
 31
0.0
  0
LINE
  5
1309
330
1E
100
AcDbEntity
  8
VOLL
100
AcDbLine
 10
361.6268467527408
 20
292.1378589403706
 30
0.0
 11
368.6268467527408
 21
292.1378589403706
 31
0.0
  0
LINE
  5
130A
330
1E
100
AcDbEntity
  8
VOLL
100
AcDbLine
 10
368.6268467527408
 20
285.1378589403706
 30
0.0
 11
361.6268467527408
 21
285.1378589403706
 31
0.0
  0
LINE
  5
130B
330
1E
100
AcDbEntity
  8
HILF
100
AcDbLine
 10
298.8685311541395
 20
283.4453421852985
 30
0.0
 11
396.9530255898126
 21
283.4453421852985
 31
0.0
  0
TEXT
  5
130C
330
1E
100
AcDbEntity
  8
VOLL
100
AcDbText
 10
301.3520967473638
 20
284.9991797888645
 30
0.0
 40
7.0
  1
Siebaufnahme  182
 41
0.8
  7
GREEKS
100
AcDbText
  0
TEXT
  5
130D
330
1E
100
AcDbEntity
  8
VOLL
100
AcDbText
 10
301.3520967473638
 20
274.8312753575293
 30
0.0
 40
7.0
  1
EDV-Art.Nr.18611.125X
 41
0.8
  7
GREEKS
100
AcDbText
  0
HATCH
  5
1355
330
1E
100
AcDbEntity
  8
SCHRAFF
100
AcDbHatch
 10
0.0
 20
0.0
 30
0.0
210
0.0
220
0.0
230
1.0
  2
_USER
 70
     0
 71
     1
 91
        6
 92
        7
 72
     1
 73
     1
 93
        5
 10
149.5478396779377
 20
426.7701642705258
 42
0.0
 10
131.0478396779376
 20
426.770164270526
 42
0.0
 10
133.5478396779377
 20
391.7701642705259
 42
0.0
 10
144.2378645537135
 20
391.7701642705259
 42
0.3853135861201812
 10
146.2279389341335
 20
393.571156832484
 42
0.0
 97
        5
330
12F3
330
12F4
330
12F6
330
12DE
330
12DF
 92
        7
 72
     1
 73
     1
 93
        6
 10
165.8677404217419
 20
393.571156832484
 42
0.3853135861201812
 10
167.8578148021619
 20
391.7701642705259
 42
0.0
 10
174.2378645537135
 20
391.7701642705259
 42
0.3853135861201812
 10
176.2279389341335
 20
393.571156832484
 42
0.0
 10
179.5478396779377
 20
426.7701642705258
 42
0.0
 10
162.5478396779377
 20
426.7701642705259
 42
0.0
 97
        6
330
12F3
330
12E1
330
12E0
330
12F6
330
12E2
330
12E3
 92
        7
 72
     1
 73
     1
 93
        6
 10
195.8677404217419
 20
393.571156832484
 42
0.3853135861201812
 10
197.8578148021619
 20
391.7701642705259
 42
0.0
 10
204.2378645537135
 20
391.7701642705259
 42
0.3853135861201812
 10
206.2279389341335
 20
393.571156832484
 42
0.0
 10
209.5478396779378
 20
426.7701642705258
 42
0.0
 10
192.5478396779377
 20
426.7701642705258
 42
0.0
 97
        6
330
12F3
330
12E5
330
12E4
330
12F6
330
12EF
330
12F1
 92
        7
 72
     1
 73
     1
 93
        6
 10
225.8677404217418
 20
393.5711568324839
 42
0.3853135861201812
 10
227.8578148021618
 20
391.7701642705259
 42
0.0
 10
234.2378645537137
 20
391.7701642705259
 42
0.385313586120165
 10
236.2279389341335
 20
393.5711568324839
 42
0.0
 10
239.5478396779376
 20
426.7701642705258
 42
0.0
 10
222.5478396779375
 20
426.7701642705258
 42
0.0
 97
        6
330
12F3
330
12F0
330
12EE
330
12F7
330
12EA
330
12EB
 92
        7
 72
     1
 73
     1
 93
        6
 10
255.8677404217418
 20
393.5711568324839
 42
0.3853135861201772
 10
257.8578148021618
 20
391.7701642705259
 42
0.0
 10
264.2378645537136
 20
391.7701642705259
 42
0.3853135861201975
 10
266.2279389341337
 20
393.5711568324839
 42
0.0
 10
269.5478396779378
 20
426.7701642705258
 42
0.0
 10
252.5478396779376
 20
426.7701642705258
 42
0.0
 97
        6
330
12F3
330
12ED
330
12EC
330
12F7
330
12E6
330
12E7
 92
        7
 72
     1
 73
     1
 93
        5
 10
285.8677404217418
 20
393.571156832484
 42
0.3853135861201886
 10
287.8578148021618
 20
391.7701642705259
 42
0.0
 10
298.5478396779375
 20
391.7701642705258
 42
0.0
 10
301.0478396779376
 20
426.7701642705259
 42
0.0
 10
282.5478396779378
 20
426.770164270526
 42
0.0
 97
        5
330
12F3
330
12E9
330
12E8
330
12F7
330
12F5
 75
     0
 76
     0
 52
45.0
 41
5.0
 77
     0
 78
     1
 53
45.0
 43
0.0
 44
0.0
 45
-3.535533905932737
 46
3.535533905932737
 79
     0
 47
0.5138339939613467
 98
        6
 10
142.3416633981664
 20
413.6240064290598
 10
168.5668166737291
 20
415.6793433400194
 10
199.9341547464801
 20
415.6793433400194
 10
229.7588387313126
 20
417.2208449722761
 10
260.0977407454511
 20
416.1931772174382
 10
289.9224224782206
 20
415.6793433400194
  0
TEXT
  5
1356
330
1E
100
AcDbEntity
  8
TEXT
100
AcDbText
 10
225.1296391125315
 20
71.64011943042154
 30
0.0
 40
5.0
  1
befahrbar, Klasse M
 41
0.8
  7
GREEKS
100
AcDbText
  0
HATCH
  5
1392
330
1E
100
AcDbEntity
  8
SCHRAFF
100
AcDbHatch
 10
0.0
 20
0.0
 30
0.0
210
0.0
220
0.0
230
1.0
  2
_USER
 70
     0
 71
     0
 91
        1
 92
        7
 72
     1
 73
     1
 93
        3
 10
279.5513371287845
 20
376.3628067565999
 42
-0.1270166537925824
 10
276.1965361419489
 20
374.1844334325973
 42
0.0
 10
277.7646936943768
 20
370.5046397032201
 42
0.4658584486064783
 97
        0
 75
     0
 76
     0
 52
0.0
 41
0.1
 77
     0
 78
     1
 53
0.0
 43
0.0
 44
-125.1364477468221
 45
0.0
 46
0.1
 79
     0
 47
0.0376012613821097
 98
        1
 10
279.4953756899827
 20
374.449826053871
  0
ARC
  5
1393
330
1E
100
AcDbEntity
  8
SCHRAFF
100
AcDbCircle
 10
276.1965361419489
 20
374.1844334325973
 30
0.0
 40
4.0
100
AcDbArc
 50
293.0814557397962
 51
32.99687767653256
  0
HATCH
  5
1394
330
1E
100
AcDbEntity
  8
SCHRAFF
100
AcDbHatch
 10
0.0
 20
0.0
 30
0.0
210
0.0
220
0.0
230
1.0
  2
_USER
 70
     0
 71
     0
 91
        2
 92
        7
 72
     1
 73
     1
 93
       10
 10
282.5478396779376
 20
356.3198522840005
 42
0.1010537394922081
 10
281.3870919469297
 20
362.0044234115516
 42
0.0
 10
276.1965361419489
 20
374.1844334325973
 42
-0.0809823134322772
 10
273.6555348325243
 20
373.770164270526
 42
0.0
 10
279.0872208660689
 20
361.0243249412843
 42
-0.1010537394922086
 10
280.0478396779375
 20
356.3198522840006
 42
0.0
 10
280.0478396779375
 20
263.5533965093454
 42
0.0
 10
278.7123232648633
 20
253.7701642705259
 42
0.0
 10
281.2355097250487
 20
253.7701642705259
 42
0.0
 10
282.5478396779375
 20
263.383545714126
 42
0.0
 97
        0
 92
        7
 72
     1
 73
     1
 93
       10
 10
149.5478396779375
 20
263.3835457141262
 42
0.0
 10
150.8601696308263
 20
253.7701642705259
 42
0.0
 10
153.3833560910117
 20
253.7701642705258
 42
0.0
 10
152.0478396779375
 20
263.5533965093457
 42
0.0
 10
152.0478396779376
 20
356.3198522840005
 42
-0.1010537394922134
 10
153.0084584898061
 20
361.0243249412845
 42
0.0
 10
158.4401445233508
 20
373.770164270526
 42
-0.0809823134322767
 10
155.8991432139262
 20
374.1844334325973
 42
0.0
 10
150.7085874089454
 20
362.0044234115517
 42
0.1010537394922108
 10
149.5478396779375
 20
356.3198522840005
 42
0.0
 97
        0
 75
     0
 76
     0
 52
45.0
 41
2.0
 77
     0
 78
     1
 53
45.0
 43
0.0
 44
-125.1364477468221
 45
-1.414213562373094
 46
1.414213562373095
 79
     0
 47
0.5444422369893373
 98
        2
 10
281.6386549570966
 20
304.5320582182747
 10
150.3298454097494
 20
305.6209424480692
  0
ARC
  5
1395
330
1E
100
AcDbEntity
  8
STEMPEL
100
AcDbCircle
 10
268.0478396779375
 20
356.3198522840005
 30
0.0
 40
14.5
100
AcDbArc
 50
0.0
 51
23.08145573979557
  0
ARC
  5
1396
330
1E
100
AcDbEntity
  8
STEMPEL
100
AcDbCircle
 10
268.0478396779375
 20
356.3198522840005
 30
0.0
 40
12.0
100
AcDbArc
 50
0.0
 51
23.08145573979557
  0
LINE
  5
1397
330
1E
100
AcDbEntity
  8
STEMPEL
100
AcDbLine
 10
281.3870919469296
 20
362.0044234115517
 30
0.0
 11
276.1965361419489
 21
374.1844334325973
 31
0.0
  0
LINE
  5
1398
330
1E
100
AcDbEntity
  8
STEMPEL
100
AcDbLine
 10
279.0872208660689
 20
361.0243249412843
 30
0.0
 11
273.6555348325243
 21
373.770164270526
 31
0.0
  0
LINE
  5
1399
330
1E
100
AcDbEntity
  8
HILF
  6
Continuous
100
AcDbLine
 10
277.2264000862309
 20
358.7701642705259
 30
0.0
 11
154.8692792696441
 21
358.7701642705259
 31
0.0
  0
LINE
  5
139A
330
1E
100
AcDbEntity
  8
STEMPEL
100
AcDbLine
 10
282.5478396779375
 20
263.3835457141261
 30
0.0
 11
281.2355097250487
 21
253.7701642705259
 31
0.0
  0
LINE
  5
139B
330
1E
100
AcDbEntity
  8
STEMPEL
  6
Continuous
100
AcDbLine
 10
282.5478396779376
 20
356.3198522840005
 30
0.0
 11
282.5478396779375
 21
263.3835457141261
 31
0.0
  0
LINE
  5
139C
330
1E
100
AcDbEntity
  8
STEMPEL
100
AcDbLine
 10
150.8601696308263
 20
253.7701642705259
 30
0.0
 11
281.2355097250487
 21
253.7701642705259
 31
0.0
  0
LINE
  5
139D
330
1E
100
AcDbEntity
  8
HILF
100
AcDbLine
 10
154.5822922218025
 20
263.4708675999434
 30
0.0
 11
277.5133871340727
 21
263.4708675999442
 31
0.0
  0
LINE
  5
139E
330
1E
100
AcDbEntity
  8
STEMPEL
  6
Continuous
100
AcDbLine
 10
280.0478396779375
 20
356.3198522840005
 30
0.0
 11
280.0478396779375
 21
263.5533965093455
 31
0.0
  0
LINE
  5
139F
330
1E
100
AcDbEntity
  8
STEMPEL
100
AcDbLine
 10
280.0478396779375
 20
263.5533965093455
 30
0.0
 11
278.7123232648633
 21
253.7701642705259
 31
0.0
  0
ARC
  5
13A0
330
1E
100
AcDbEntity
  8
SCHRAFF
100
AcDbCircle
 10
155.8991432139262
 20
374.1844334325973
 30
0.0
 40
4.0
100
AcDbArc
 50
147.0031223234674
 51
246.9185442602038
  0
HATCH
  5
13A1
330
1E
100
AcDbEntity
  8
SCHRAFF
100
AcDbHatch
 10
0.0
 20
0.0
 30
0.0
210
0.0
220
0.0
230
1.0
  2
_USER
 70
     0
 71
     0
 91
        1
 92
        7
 72
     1
 73
     1
 93
        3
 10
152.5443422270905
 20
376.3628067565999
 42
0.1270166537925824
 10
155.8991432139261
 20
374.1844334325973
 42
0.0
 10
154.3309856614982
 20
370.5046397032201
 42
-0.4658584486064783
 97
        0
 75
     0
 76
     0
 52
0.0
 41
0.1
 77
     0
 78
     1
 53
180.0
 43
432.095679355875
 44
-125.1364477468221
 45
0.0
 46
0.1
 79
     0
 47
0.0376012613821097
 98
        1
 10
152.6003036658924
 20
374.449826053871
  0
LINE
  5
13A2
330
1E
100
AcDbEntity
  8
STEMPEL
100
AcDbLine
 10
153.0084584898061
 20
361.0243249412843
 30
0.0
 11
158.4401445233508
 21
373.770164270526
 31
0.0
  0
LINE
  5
13A3
330
1E
100
AcDbEntity
  8
STEMPEL
100
AcDbLine
 10
150.7085874089454
 20
362.0044234115517
 30
0.0
 11
155.8991432139261
 21
374.1844334325973
 31
0.0
  0
ARC
  5
13A4
330
1E
100
AcDbEntity
  8
STEMPEL
100
AcDbCircle
 10
164.0478396779375
 20
356.3198522840005
 30
0.0
 40
12.0
100
AcDbArc
 50
156.9185442602044
 51
180.0
  0
ARC
  5
13A5
330
1E
100
AcDbEntity
  8
STEMPEL
100
AcDbCircle
 10
164.0478396779375
 20
356.3198522840005
 30
0.0
 40
14.5
100
AcDbArc
 50
156.9185442602044
 51
180.0
  0
LINE
  5
13A6
330
1E
100
AcDbEntity
  8
STEMPEL
100
AcDbLine
 10
149.5478396779375
 20
263.3835457141263
 30
0.0
 11
150.8601696308263
 21
253.7701642705259
 31
0.0
  0
LINE
  5
13A7
330
1E
100
AcDbEntity
  8
STEMPEL
  6
Continuous
100
AcDbLine
 10
149.5478396779375
 20
356.3198522840005
 30
0.0
 11
149.5478396779375
 21
263.3835457141263
 31
0.0
  0
LINE
  5
13A8
330
1E
100
AcDbEntity
  8
STEMPEL
  6
Continuous
100
AcDbLine
 10
152.0478396779376
 20
356.3198522840005
 30
0.0
 11
152.0478396779375
 21
263.5533965093455
 31
0.0
  0
LINE
  5
13A9
330
1E
100
AcDbEntity
  8
STEMPEL
  6
Continuous
100
AcDbLine
 10
149.5478396779375
 20
356.3198522840005
 30
0.0
 11
149.5478396779375
 21
263.3835457141261
 31
0.0
  0
LINE
  5
13AA
330
1E
100
AcDbEntity
  8
STEMPEL
100
AcDbLine
 10
152.0478396779375
 20
263.5533965093455
 30
0.0
 11
153.3833560910117
 21
253.7701642705259
 31
0.0
  0
LINE
  5
13AB
102
{ACAD_REACTORS
330
13E1
102
}
330
1E
100
AcDbEntity
  8
STEMPEL
100
AcDbLine
 10
273.5478396779375
 20
377.7701642705259
 30
0.0
 11
273.5478396779375
 21
373.7701642705259
 31
0.0
  0
LINE
  5
13AC
102
{ACAD_REACTORS
330
13E1
102
}
330
1E
100
AcDbEntity
  8
STEMPEL
100
AcDbLine
 10
158.5478396779375
 20
377.7701642705259
 30
0.0
 11
158.5478396779375
 21
373.7701642705259
 31
0.0
  0
HATCH
  5
13E1
330
1E
100
AcDbEntity
  8
SCHRAFF
100
AcDbHatch
 10
0.0
 20
0.0
 30
0.0
210
0.0
220
0.0
230
1.0
  2
_USER
 70
     0
 71
     1
 91
        2
 92
        7
 72
     1
 73
     1
 93
       15
 10
303.0478396779376
 20
395.7701642705259
 42
-0.4142135623730992
 10
299.0478396779375
 20
391.7701642705259
 42
0.0
 10
288.6666418314545
 20
391.7701642705259
 42
0.2679491924311232
 10
281.738438601179
 20
387.7701642705259
 42
0.0
 10
277.1196364476621
 20
379.7701642705259
 42
-0.2679491924311221
 10
273.6555348325243
 20
377.7701642705259
 42
0.0
 10
273.5478396779375
 20
377.7701642705259
 42
0.0
 10
273.5478396779375
 20
373.7708891937657
 42
0.2715596746770922
 10
280.5837380627998
 20
377.7701642705259
 42
0.0
 10
285.2025402163167
 20
385.7701642705259
 42
-0.267949192431126
 10
288.6666418314545
 20
387.7701642705259
 42
0.0
 10
299.0478396779375
 20
387.7701642705259
 42
0.4142135623730951
 10
307.0478396779375
 20
395.7701642705259
 42
0.0
 10
307.0478396779375
 20
426.7701642705258
 42
0.0
 10
303.0478396779376
 20
426.7701642705258
 42
0.0
 97
       15
330
B11
330
B0F
330
AF9
330
12F7
330
AEE
330
AC3
330
AF7
330
B0A
330
13AB
330
AF2
330
B05
330
AF8
330
B0C
330
AF3
330
B0D
 92
        7
 72
     1
 73
     1
 93
       15
 10
129.0478396779375
 20
426.7701642705258
 42
0.0
 10
125.0478396779375
 20
426.7701642705259
 42
0.0
 10
125.0478396779375
 20
395.7701642705259
 42
0.4142135623730951
 10
133.0478396779375
 20
387.7701642705259
 42
0.0
 10
143.4290375244205
 20
387.7701642705259
 42
-0.2679491924311261
 10
146.8931391395583
 20
385.7701642705259
 42
0.0
 10
151.5119412930753
 20
377.7701642705259
 42
0.2715596746770859
 10
158.5478396779375
 20
373.7708891937657
 42
0.0
 10
158.5478396779375
 20
377.7701642705259
 42
0.0
 10
158.4401445233508
 20
377.7701642705259
 42
-0.2679491924311263
 10
154.976042908213
 20
379.7701642705259
 42
0.0
 10
150.357240754696
 20
387.7701642705259
 42
0.2679491924311222
 10
143.4290375244205
 20
391.7701642705259
 42
0.0
 10
133.0478396779375
 20
391.7701642705259
 42
-0.4142135623730951
 10
129.0478396779375
 20
395.7701642705259
 42
0.0
 97
       15
330
B11
330
B0B
330
AF0
330
B06
330
AF5
330
B04
330
AF1
330
13AC
330
B0A
330
AF6
330
AC2
330
AED
330
12F6
330
AF4
330
B0E
 75
     0
 76
     0
 52
135.0
 41
5.0
 77
     0
 78
     1
 53
135.0
 43
0.0
 44
0.0
 45
-3.535533905932737
 46
-3.535533905932737
 79
     0
 47
0.2568419131535661
 98
        2
 10
304.2214928321473
 20
414.7434246283025
 10
128.6671373836457
 20
411.4044797184588
  0
ENDSEC
  0
SECTION
  2
OBJECTS
  0
DICTIONARY
  5
C
330
0
100
AcDbDictionary
281
     1
  3
ACAD_COLOR
350
DF
  3
ACAD_GROUP
350
D
  3
ACAD_LAYOUT
350
19
  3
ACAD_MATERIAL
350
DE
  3
ACAD_MLINESTYLE
350
16
  3
ACAD_PLOTSETTINGS
350
18
  3
ACAD_PLOTSTYLENAME
350
E
  3
AcDbVariableDictionary
350
EA
  0
DICTIONARY
  5
A0
330
1E
100
AcDbDictionary
280
     1
281
     1
  3
ACAD_LAYOUTSELFREF
360
D4
  0
DICTIONARY
  5
A2
330
1A
100
AcDbDictionary
280
     1
281
     1
  3
ACAD_LAYOUTSELFREF
360
D3
  0
DICTIONARY
  5
DF
102
{ACAD_REACTORS
330
C
102
}
330
C
100
AcDbDictionary
281
     1
  0
DICTIONARY
  5
D
102
{ACAD_REACTORS
330
C
102
}
330
C
100
AcDbDictionary
281
     1
  0
DICTIONARY
  5
19
102
{ACAD_REACTORS
330
C
102
}
330
C
100
AcDbDictionary
281
     1
  3
Layout1
350
1D
  3
Model
350
21
  0
DICTIONARY
  5
DE
102
{ACAD_REACTORS
330
C
102
}
330
C
100
AcDbDictionary
281
     1
  0
DICTIONARY
  5
16
102
{ACAD_REACTORS
330
C
102
}
330
C
100
AcDbDictionary
281
     1
  3
Standard
350
17
  0
DICTIONARY
  5
18
102
{ACAD_REACTORS
330
C
102
}
330
C
100
AcDbDictionary
281
     1
  0
ACDBDICTIONARYWDFLT
  5
E
102
{ACAD_REACTORS
330
C
102
}
330
C
100
AcDbDictionary
281
     1
  3
Normal
350
F
100
AcDbDictionaryWithDefault
340
F
  0
DICTIONARY
  5
EA
102
{ACAD_REACTORS
330
C
102
}
330
C
100
AcDbDictionary
281
     1
  3
DIMASSOC
350
EB
  3
PROJECTNAME
350
EC
  0
XRECORD
  5
D4
102
{ACAD_REACTORS
330
A0
102
}
330
A0
100
AcDbXrecord
280
     1
340
1E
  0
XRECORD
  5
D3
102
{ACAD_REACTORS
330
A2
102
}
330
A2
100
AcDbXrecord
280
     1
340
1A
  0
LAYOUT
  5
1D
102
{ACAD_REACTORS
330
19
102
}
330
19
100
AcDbPlotSettings
  1

  2
\\NT_WORK01\HP LaserJet 5000 PCL 6
  4

  6

 40
0.0
 41
0.0
 42
0.0
 43
0.0
 44
0.0
 45
0.0
 46
0.0
 47
0.0
 48
0.0
 49
0.0
140
0.0
141
0.0
142
1.0
143
1.0
 70
   688
 72
     0
 73
     0
 74
     5
  7

 75
    16
147
1.0
 76
     0
 77
     2
 78
   300
148
0.0
149
0.0
100
AcDbLayout
  1
Layout1
 70
     0
 71
     1
 10
0.0
 20
0.0
 11
12.0
 21
9.0
 12
0.0
 22
0.0
 32
0.0
 14
1.000000000000000E+20
 24
1.000000000000000E+20
 34
1.000000000000000E+20
 15
-1.000000000000000E+20
 25
-1.000000000000000E+20
 35
-1.000000000000000E+20
146
0.0
 13
0.0
 23
0.0
 33
0.0
 16
1.0
 26
0.0
 36
0.0
 17
0.0
 27
1.0
 37
0.0
 76
     0
330
1A
  0
LAYOUT
  5
21
102
{ACAD_REACTORS
330
19
102
}
330
19
100
AcDbPlotSettings
  1

  2
none_device
  4
Letter_(8.50_x_11.00_Inches)
  6

 40
6.349999904632568
 41
6.349999904632568
 42
6.350006103515625
 43
6.350006103515625
 44
215.8999938964844
 45
279.3999938964844
 46
0.0
 47
0.0
 48
0.0
 49
0.0
140
0.0
141
0.0
142
1.0
143
1.0
 70
 11952
 72
     0
 73
     1
 74
     0
  7

 75
     0
147
1.0
 76
     0
 77
     2
 78
   300
148
2309.53464677761
149
99.76833451905694
100
AcDbLayout
  1
Model
 70
     1
 71
     0
 10
0.0
 20
0.0
 11
12.0
 21
9.0
 12
0.0
 22
0.0
 32
0.0
 14
0.0
 24
0.0
 34
0.0
 15
0.0
 25
0.0
 35
0.0
146
0.0
 13
0.0
 23
0.0
 33
0.0
 16
1.0
 26
0.0
 36
0.0
 17
0.0
 27
1.0
 37
0.0
 76
     0
330
1E
  0
MLINESTYLE
  5
17
102
{ACAD_REACTORS
330
16
102
}
330
16
100
AcDbMlineStyle
  2
STANDARD
 70
     0
  3

 62
   256
 51
90.0
 52
90.0
 71
     2
 49
0.5
 62
   256
  6
BYLAYER
 49
-0.5
 62
   256
  6
BYLAYER
  0
ACDBPLACEHOLDER
  5
F
102
{ACAD_REACTORS
330
E
102
}
330
E
  0
DICTIONARYVAR
  5
EB
102
{ACAD_REACTORS
330
EA
102
}
330
EA
100
DictionaryVariables
280
     0
  1
1
  0
DICTIONARYVAR
  5
EC
102
{ACAD_REACTORS
330
EA
102
}
330
EA
100
DictionaryVariables
280
     0
  1

  0
ENDSEC
  0
EOF
