  0
SECTION
  2
HEADER
  9
$ACADVER
  1
AC1018
  9
$ACADMAINTVER
 70
     2
  9
$DWGCODEPAGE
  3
ANSI_1252
  9
$INSBASE
 10
0.0
 20
0.0
 30
0.0
  9
$EXTMIN
 10
-0.0064041928749248
 20
-0.0090573584946014
 30
-0.0000000000112498
  9
$EXTMAX
 10
420.0064100605654
 20
594.0090656570857
 30
0.0000000000002956
  9
$LIMMIN
 10
0.0
 20
0.0
  9
$LIMMAX
 10
419.9999999999999
 20
594.0
  9
$ORTHOMODE
 70
     1
  9
$REGENMODE
 70
     1
  9
$FILLMODE
 70
     1
  9
$QTEXTMODE
 70
     0
  9
$MIRRTEXT
 70
     1
  9
$LTSCALE
 40
20.0
  9
$ATTMODE
 70
     1
  9
$TEXTSIZE
 40
3.5
  9
$TRACEWID
 40
0.5
  9
$TEXTSTYLE
  7
STANDARD
  9
$CLAYER
  8
BEM
  9
$CELTYPE
  6
ByLayer
  9
$CECOLOR
 62
   256
  9
$CELTSCALE
 40
1.0
  9
$DISPSILH
 70
     0
  9
$DIMSCALE
 40
2.0
  9
$DIMASZ
 40
3.5
  9
$DIMEXO
 40
1.0
  9
$DIMDLI
 40
7.0
  9
$DIMRND
 40
0.0
  9
$DIMDLE
 40
0.0
  9
$DIMEXE
 40
1.0
  9
$DIMTP
 40
0.0
  9
$DIMTM
 40
0.0
  9
$DIMTXT
 40
3.5
  9
$DIMCEN
 40
1.5
  9
$DIMTSZ
 40
0.0
  9
$DIMTOL
 70
     0
  9
$DIMLIM
 70
     0
  9
$DIMTIH
 70
     0
  9
$DIMTOH
 70
     0
  9
$DIMSE1
 70
     0
  9
$DIMSE2
 70
     0
  9
$DIMTAD
 70
     1
  9
$DIMZIN
 70
     8
  9
$DIMBLK
  1

  9
$DIMASO
 70
     1
  9
$DIMSHO
 70
     0
  9
$DIMPOST
  1

  9
$DIMAPOST
  1

  9
$DIMALT
 70
     0
  9
$DIMALTD
 70
     2
  9
$DIMALTF
 40
25.4
  9
$DIMLFAC
 40
1.0
  9
$DIMTOFL
 70
     1
  9
$DIMTVP
 40
0.0
  9
$DIMTIX
 70
     0
  9
$DIMSOXD
 70
     0
  9
$DIMSAH
 70
     0
  9
$DIMBLK1
  1

  9
$DIMBLK2
  1

  9
$DIMSTYLE
  2
Standard
  9
$DIMCLRD
 70
     0
  9
$DIMCLRE
 70
     0
  9
$DIMCLRT
 70
     1
  9
$DIMTFAC
 40
0.5142857142857144
  9
$DIMGAP
 40
1.5
  9
$DIMJUST
 70
     0
  9
$DIMSD1
 70
     0
  9
$DIMSD2
 70
     0
  9
$DIMTOLJ
 70
     1
  9
$DIMTZIN
 70
     8
  9
$DIMALTZ
 70
     8
  9
$DIMALTTZ
 70
     8
  9
$DIMUPT
 70
     0
  9
$DIMDEC
 70
     2
  9
$DIMTDEC
 70
     2
  9
$DIMALTU
 70
     2
  9
$DIMALTTD
 70
     2
  9
$DIMTXSTY
  7
STANDARD
  9
$DIMAUNIT
 70
     0
  9
$DIMADEC
 70
     2
  9
$DIMALTRND
 40
0.0
  9
$DIMAZIN
 70
     2
  9
$DIMDSEP
 70
    46
  9
$DIMATFIT
 70
     3
  9
$DIMFRAC
 70
     0
  9
$DIMLDRBLK
  1

  9
$DIMLUNIT
 70
     2
  9
$DIMLWD
 70
    -2
  9
$DIMLWE
 70
    -2
  9
$DIMTMOVE
 70
     0
  9
$LUNITS
 70
     2
  9
$LUPREC
 70
     2
  9
$SKETCHINC
 40
1.0
  9
$FILLETRAD
 40
0.0
  9
$AUNITS
 70
     0
  9
$AUPREC
 70
     0
  9
$MENU
  1
ACAD
  9
$ELEVATION
 40
0.0
  9
$PELEVATION
 40
0.0
  9
$THICKNESS
 40
0.0
  9
$LIMCHECK
 70
     0
  9
$CHAMFERA
 40
0.0
  9
$CHAMFERB
 40
0.0
  9
$CHAMFERC
 40
0.0
  9
$CHAMFERD
 40
0.0
  9
$SKPOLY
 70
     0
  9
$TDCREATE
 40
2455397.864709028
  9
$TDUCREATE
 40
2455397.781375695
  9
$TDUPDATE
 40
2455469.451290671
  9
$TDUUPDATE
 40
2455469.367957338
  9
$TDINDWG
 40
0.0633441667
  9
$TDUSRTIMER
 40
0.0633441667
  9
$USRTIMER
 70
     1
  9
$ANGBASE
 50
0.0
  9
$ANGDIR
 70
     0
  9
$PDMODE
 70
     0
  9
$PDSIZE
 40
0.0
  9
$PLINEWID
 40
0.0
  9
$SPLFRAME
 70
     0
  9
$SPLINETYPE
 70
     6
  9
$SPLINESEGS
 70
     8
  9
$HANDSEED
  5
B2D
  9
$SURFTAB1
 70
     6
  9
$SURFTAB2
 70
     6
  9
$SURFTYPE
 70
     6
  9
$SURFU
 70
     6
  9
$SURFV
 70
     6
  9
$UCSBASE
  2

  9
$UCSNAME
  2

  9
$UCSORG
 10
0.0
 20
0.0
 30
0.0
  9
$UCSXDIR
 10
1.0
 20
0.0
 30
0.0
  9
$UCSYDIR
 10
0.0
 20
1.0
 30
0.0
  9
$UCSORTHOREF
  2

  9
$UCSORTHOVIEW
 70
     0
  9
$UCSORGTOP
 10
0.0
 20
0.0
 30
0.0
  9
$UCSORGBOTTOM
 10
0.0
 20
0.0
 30
0.0
  9
$UCSORGLEFT
 10
0.0
 20
0.0
 30
0.0
  9
$UCSORGRIGHT
 10
0.0
 20
0.0
 30
0.0
  9
$UCSORGFRONT
 10
0.0
 20
0.0
 30
0.0
  9
$UCSORGBACK
 10
0.0
 20
0.0
 30
0.0
  9
$PUCSBASE
  2

  9
$PUCSNAME
  2

  9
$PUCSORG
 10
0.0
 20
0.0
 30
0.0
  9
$PUCSXDIR
 10
1.0
 20
0.0
 30
0.0
  9
$PUCSYDIR
 10
0.0
 20
1.0
 30
0.0
  9
$PUCSORTHOREF
  2

  9
$PUCSORTHOVIEW
 70
     0
  9
$PUCSORGTOP
 10
0.0
 20
0.0
 30
0.0
  9
$PUCSORGBOTTOM
 10
0.0
 20
0.0
 30
0.0
  9
$PUCSORGLEFT
 10
0.0
 20
0.0
 30
0.0
  9
$PUCSORGRIGHT
 10
0.0
 20
0.0
 30
0.0
  9
$PUCSORGFRONT
 10
0.0
 20
0.0
 30
0.0
  9
$PUCSORGBACK
 10
0.0
 20
0.0
 30
0.0
  9
$USERI1
 70
     0
  9
$USERI2
 70
     0
  9
$USERI3
 70
     0
  9
$USERI4
 70
     0
  9
$USERI5
 70
     0
  9
$USERR1
 40
0.0
  9
$USERR2
 40
0.0
  9
$USERR3
 40
0.0
  9
$USERR4
 40
0.0
  9
$USERR5
 40
0.0
  9
$WORLDVIEW
 70
     1
  9
$SHADEDGE
 70
     3
  9
$SHADEDIF
 70
    70
  9
$TILEMODE
 70
     1
  9
$MAXACTVP
 70
    16
  9
$PINSBASE
 10
0.0
 20
0.0
 30
0.0
  9
$PLIMCHECK
 70
     0
  9
$PEXTMIN
 10
1.000000000000000E+20
 20
1.000000000000000E+20
 30
1.000000000000000E+20
  9
$PEXTMAX
 10
-1.000000000000000E+20
 20
-1.000000000000000E+20
 30
-1.000000000000000E+20
  9
$PLIMMIN
 10
0.0
 20
0.0
  9
$PLIMMAX
 10
12.0
 20
9.0
  9
$UNITMODE
 70
     0
  9
$VISRETAIN
 70
     0
  9
$PLINEGEN
 70
     0
  9
$PSLTSCALE
 70
     0
  9
$TREEDEPTH
 70
  3020
  9
$CMLSTYLE
  2
Standard
  9
$CMLJUST
 70
     0
  9
$CMLSCALE
 40
1.0
  9
$PROXYGRAPHICS
 70
     1
  9
$MEASUREMENT
 70
     0
  9
$CELWEIGHT
370
    -1
  9
$ENDCAPS
280
     0
  9
$JOINSTYLE
280
     0
  9
$LWDISPLAY
290
     0
  9
$INSUNITS
 70
     0
  9
$HYPERLINKBASE
  1

  9
$STYLESHEET
  1
monochrome 1.ctb
  9
$XEDIT
290
     1
  9
$CEPSNTYPE
380
     0
  9
$PSTYLEMODE
290
     1
  9
$FINGERPRINTGUID
  2
{D68B0D02-A558-11D7-B632-000102183313}
  9
$VERSIONGUID
  2
{32EE9173-8290-4E8D-AA6C-2992AC2A8639}
  9
$EXTNAMES
290
     1
  9
$PSVPSCALE
 40
0.0
  9
$OLESTARTUP
290
     0
  9
$SORTENTS
280
   127
  9
$INDEXCTL
280
     0
  9
$HIDETEXT
280
     0
  9
$XCLIPFRAME
290
     0
  9
$HALOGAP
280
     0
  9
$OBSCOLOR
 70
   257
  9
$OBSLTYPE
280
     0
  9
$INTERSECTIONDISPLAY
280
     0
  9
$INTERSECTIONCOLOR
 70
   257
  9
$DIMASSOC
280
     1
  9
$PROJECTNAME
  1

  0
ENDSEC
  0
SECTION
  2
CLASSES
  0
CLASS
  1
ACDBDICTIONARYWDFLT
  2
AcDbDictionaryWithDefault
  3
ObjectDBX Classes
 90
        0
 91
        1
280
     0
281
     0
  0
CLASS
  1
DICTIONARYVAR
  2
AcDbDictionaryVar
  3
ObjectDBX Classes
 90
        0
 91
        2
280
     0
281
     0
  0
ENDSEC
  0
SECTION
  2
TABLES
  0
TABLE
  2
VPORT
  5
8
330
0
100
AcDbSymbolTable
 70
     2
  0
VPORT
  5
B2C
330
8
100
AcDbSymbolTableRecord
100
AcDbViewportTableRecord
  2
*Active
 70
     0
 10
0.0
 20
0.0
 11
1.0
 21
1.0
 12
210.0000029338453
 22
297.0000041492956
 13
0.0
 23
0.0
 14
1.0
 24
1.0
 15
10.0
 25
10.0
 16
0.0
 26
0.0
 36
1.0
 17
0.0
 27
0.0
 37
0.0
 40
598.8150392175905
 41
1.336927223719676
 42
50.0
 43
0.0
 44
0.0
 50
0.0
 51
0.0
 71
     0
 72
  1500
 73
     1
 74
     0
 75
     0
 76
     0
 77
     0
 78
     0
281
     0
 65
     1
110
0.0
120
0.0
130
0.0
111
1.0
121
0.0
131
0.0
112
0.0
122
1.0
132
0.0
 79
     0
146
0.0
  0
ENDTAB
  0
TABLE
  2
LTYPE
  5
5
330
0
100
AcDbSymbolTable
 70
     2
  0
LTYPE
  5
13
330
5
100
AcDbSymbolTableRecord
100
AcDbLinetypeTableRecord
  2
ByBlock
 70
     0
  3

 72
    65
 73
     0
 40
0.0
  0
LTYPE
  5
14
330
5
100
AcDbSymbolTableRecord
100
AcDbLinetypeTableRecord
  2
ByLayer
 70
     0
  3

 72
    65
 73
     0
 40
0.0
  0
LTYPE
  5
15
330
5
100
AcDbSymbolTableRecord
100
AcDbLinetypeTableRecord
  2
Continuous
 70
     0
  3
Solid line
 72
    65
 73
     0
 40
0.0
  0
LTYPE
  5
25
330
5
100
AcDbSymbolTableRecord
100
AcDbLinetypeTableRecord
  2
STRICHPUNKT
 70
     0
  3
__ . __ . __ . __ . __ . __ . __ . __ . __ . __
 72
    65
 73
     4
 40
1.0
 49
0.5
 74
     0
 49
-0.25
 74
     0
 49
0.0
 74
     0
 49
-0.25
 74
     0
  0
ENDTAB
  0
TABLE
  2
LAYER
  5
2
330
0
100
AcDbSymbolTable
 70
     9
  0
LAYER
  5
10
330
2
100
AcDbSymbolTableRecord
100
AcDbLayerTableRecord
  2
0
 70
     0
 62
     7
  6
Continuous
370
    -3
390
F
  0
LAYER
  5
2A
330
2
100
AcDbSymbolTableRecord
100
AcDbLayerTableRecord
  2
VOLL
 70
     0
 62
     1
  6
Continuous
370
    -3
390
F
  0
LAYER
  5
2B
330
2
100
AcDbSymbolTableRecord
100
AcDbLayerTableRecord
  2
HILF
 70
     0
 62
     2
  6
Continuous
370
    -3
390
F
  0
LAYER
  5
2C
330
2
100
AcDbSymbolTableRecord
100
AcDbLayerTableRecord
  2
MITTEL
 70
     0
 62
     2
  6
STRICHPUNKT
370
    -3
390
F
  0
LAYER
  5
2F
330
2
100
AcDbSymbolTableRecord
100
AcDbLayerTableRecord
  2
BEM
 70
     0
 62
     7
  6
Continuous
370
    -3
390
F
  0
LAYER
  5
30
330
2
100
AcDbSymbolTableRecord
100
AcDbLayerTableRecord
  2
STEMPEL
 70
     0
 62
     3
  6
Continuous
370
    -3
390
F
  0
LAYER
  5
31
330
2
100
AcDbSymbolTableRecord
100
AcDbLayerTableRecord
  2
TEXT
 70
     0
 62
     7
  6
Continuous
370
    -3
390
F
  0
LAYER
  5
34D
330
2
100
AcDbSymbolTableRecord
100
AcDbLayerTableRecord
  2
SCHRAFF
 70
     0
 62
     7
  6
Continuous
370
    -3
390
F
  0
LAYER
  5
34E
330
2
100
AcDbSymbolTableRecord
100
AcDbLayerTableRecord
  2
DEFPOINTS
 70
     0
 62
     7
  6
Continuous
290
     0
370
    -3
390
F
  0
ENDTAB
  0
TABLE
  2
STYLE
  5
3
330
0
100
AcDbSymbolTable
 70
     2
  0
STYLE
  5
11
330
3
100
AcDbSymbolTableRecord
100
AcDbTextStyleTableRecord
  2
STANDARD
 70
     0
 40
0.0
 41
0.8
 50
0.0
 71
     0
 42
3.5
  3
simplex.shx
  4

  0
STYLE
  5
24
330
3
100
AcDbSymbolTableRecord
100
AcDbTextStyleTableRecord
  2
GREEKS
 70
     0
 40
0.0
 41
0.8
 50
0.0
 71
     0
 42
2.5
  3
SIMPLEX.shx
  4

  0
ENDTAB
  0
TABLE
  2
VIEW
  5
6
330
0
100
AcDbSymbolTable
 70
     0
  0
ENDTAB
  0
TABLE
  2
UCS
  5
7
330
0
100
AcDbSymbolTable
 70
     0
  0
ENDTAB
  0
TABLE
  2
APPID
  5
9
330
0
100
AcDbSymbolTable
 70
     1
  0
APPID
  5
12
330
9
100
AcDbSymbolTableRecord
100
AcDbRegAppTableRecord
  2
ACAD
 70
     0
  0
ENDTAB
  0
TABLE
  2
DIMSTYLE
  5
A
330
0
100
AcDbSymbolTable
 70
     1
100
AcDbDimStyleTable
 71
     1
340
9D
  0
DIMSTYLE
105
9D
102
{ACAD_REACTORS
330
97E
330
AA5
330
AB2
330
ABF
330
ACC
102
}
330
A
100
AcDbSymbolTableRecord
100
AcDbDimStyleTableRecord
  2
Standard
 70
     0
340
11
  0
ENDTAB
  0
TABLE
  2
BLOCK_RECORD
  5
1
330
0
100
AcDbSymbolTable
 70
     6
  0
BLOCK_RECORD
  5
1E
102
{ACAD_XDICTIONARY
360
A0
102
}
330
1
100
AcDbSymbolTableRecord
100
AcDbBlockTableRecord
  2
*Model_Space
340
21
  0
BLOCK_RECORD
  5
1A
102
{ACAD_XDICTIONARY
360
A2
102
}
330
1
100
AcDbSymbolTableRecord
100
AcDbBlockTableRecord
  2
*Paper_Space
340
1D
  0
BLOCK_RECORD
  5
22
330
1
100
AcDbSymbolTableRecord
100
AcDbBlockTableRecord
  2
LOGO
340
0
102
{BLKREFS
331
9B
102
}
  0
BLOCK_RECORD
  5
97F
330
1
100
AcDbSymbolTableRecord
100
AcDbBlockTableRecord
  2
*D1
340
0
  0
BLOCK_RECORD
  5
AA6
330
1
100
AcDbSymbolTableRecord
100
AcDbBlockTableRecord
  2
*D2
340
0
  0
BLOCK_RECORD
  5
AB3
330
1
100
AcDbSymbolTableRecord
100
AcDbBlockTableRecord
  2
*D3
340
0
  0
BLOCK_RECORD
  5
AC0
330
1
100
AcDbSymbolTableRecord
100
AcDbBlockTableRecord
  2
*D4
340
0
  0
BLOCK_RECORD
  5
ACD
330
1
100
AcDbSymbolTableRecord
100
AcDbBlockTableRecord
  2
*D5
340
0
  0
ENDTAB
  0
ENDSEC
  0
SECTION
  2
BLOCKS
  0
BLOCK
  5
35
330
1E
100
AcDbEntity
  8
0
100
AcDbBlockBegin
  2
*Model_Space
 70
     0
 10
0.0
 20
0.0
 30
0.0
  3
*Model_Space
  1

  0
ENDBLK
  5
36
330
1E
100
AcDbEntity
  8
0
100
AcDbBlockEnd
  0
BLOCK
  5
33
330
1A
100
AcDbEntity
 67
     1
  8
0
100
AcDbBlockBegin
  2
*Paper_Space
 70
     0
 10
0.0
 20
0.0
 30
0.0
  3
*Paper_Space
  1

  0
ENDBLK
  5
34
330
1A
100
AcDbEntity
 67
     1
  8
0
100
AcDbBlockEnd
  0
BLOCK
  5
37
330
22
100
AcDbEntity
  8
0
100
AcDbBlockBegin
  2
LOGO
 70
     0
 10
0.0
 20
0.0
 30
0.0
  3
LOGO
  1

  0
ARC
  5
38
330
22
100
AcDbEntity
  8
0
100
AcDbCircle
 10
11.59973089678112
 20
-9.271599258481501
 30
0.0
 40
4.5
100
AcDbArc
 50
270.0
 51
231.0575587310159
  0
LINE
  5
39
330
22
100
AcDbEntity
  8
0
100
AcDbLine
 10
3.599730896781125
 20
-4.771599258481529
 30
0.0
 11
3.599730896781153
 21
-11.77159925848133
 31
0.0
  0
LINE
  5
3A
330
22
100
AcDbEntity
  8
0
100
AcDbLine
 10
2.599730896781125
 20
-4.771599258481529
 30
0.0
 11
2.599730896781153
 21
-11.77159925848133
 31
0.0
  0
CIRCLE
  5
3B
330
22
100
AcDbEntity
  8
0
100
AcDbCircle
 10
11.59973089678112
 20
-9.271599258481501
 30
0.0
 40
3.5
  0
ARC
  5
3C
330
22
100
AcDbEntity
  8
0
100
AcDbCircle
 10
31.59973089678115
 20
-9.271599258481472
 30
0.0
 40
4.5
100
AcDbArc
 50
270.0
 51
231.0575587310182
  0
LINE
  5
3D
330
22
100
AcDbEntity
  8
0
100
AcDbLine
 10
17.59973089678112
 20
-4.771599258481472
 30
0.0
 11
17.59973089678115
 21
-13.77159925848147
 31
0.0
  0
ARC
  5
3E
330
22
100
AcDbEntity
  8
0
100
AcDbCircle
 10
22.59973089678116
 20
-7.271599258481472
 30
0.0
 40
2.5
100
AcDbArc
 50
293.1161887722295
 51
90.0
  0
CIRCLE
  5
3F
330
22
100
AcDbEntity
  8
0
100
AcDbCircle
 10
31.59973089678115
 20
-9.271599258481472
 30
0.0
 40
3.5
  0
ARC
  5
40
330
22
100
AcDbEntity
  8
0
100
AcDbCircle
 10
4.599730896781153
 20
-11.77159925848133
 30
0.0
 40
1.0
100
AcDbArc
 50
180.0
 51
270.0
  0
ARC
  5
41
330
22
100
AcDbEntity
  8
0
100
AcDbCircle
 10
4.599730896781153
 20
-11.77159925848133
 30
0.0
 40
2.0
100
AcDbArc
 50
179.9999999999992
 51
270.0
  0
LINE
  5
42
330
22
100
AcDbEntity
  8
0
100
AcDbLine
 10
11.59973089678115
 20
-13.77159925848144
 30
0.0
 11
4.599730896781153
 21
-13.77159925848147
 31
0.0
  0
LINE
  5
43
330
22
100
AcDbEntity
  8
0
100
AcDbLine
 10
8.771303772034769
 20
-12.77159925848136
 30
0.0
 11
4.599730896781153
 21
-12.77159925848133
 31
0.0
  0
LINE
  5
44
330
22
100
AcDbEntity
  8
0
100
AcDbLine
 10
31.59973089678115
 20
-13.77159925848147
 30
0.0
 11
23.6715276665056
 21
-13.77159925848144
 31
0.0
  0
LINE
  5
45
330
22
100
AcDbEntity
  8
0
100
AcDbLine
 10
23.56565672307022
 20
-9.51278021337896
 30
0.0
 11
24.4388546544846
 21
-12.77159925848144
 31
0.0
  0
LINE
  5
46
330
22
100
AcDbEntity
  8
0
100
AcDbLine
 10
22.59973089678116
 20
-9.771599258481472
 30
0.0
 11
18.59973089678112
 21
-9.771599258481472
 31
0.0
  0
LINE
  5
47
330
22
100
AcDbEntity
  8
0
100
AcDbLine
 10
18.59973089678115
 20
-13.77159925848144
 30
0.0
 11
17.59973089678115
 21
-13.77159925848144
 31
0.0
  0
LINE
  5
48
330
22
100
AcDbEntity
  8
0
100
AcDbLine
 10
18.59973089678115
 20
-9.771599258481472
 30
0.0
 11
18.59973089678115
 21
-13.77159925848144
 31
0.0
  0
LINE
  5
49
330
22
100
AcDbEntity
  8
0
100
AcDbLine
 10
22.59973089678116
 20
-9.771599258481472
 30
0.0
 11
23.67152766650562
 21
-13.77159925848147
 31
0.0
  0
ARC
  5
4A
330
22
100
AcDbEntity
  8
0
100
AcDbCircle
 10
22.59973089678116
 20
-7.271599258481472
 30
0.0
 40
2.5
100
AcDbArc
 50
270.0
 51
270.0000000000007
  0
LINE
  5
4B
330
22
100
AcDbEntity
  8
0
100
AcDbLine
 10
28.77130377203494
 20
-12.77159925848147
 30
0.0
 11
24.43885465448463
 21
-12.77159925848144
 31
0.0
  0
LINE
  5
4C
330
22
100
AcDbEntity
  8
0
100
AcDbLine
 10
3.599730896781125
 20
-4.771599258481472
 30
0.0
 11
2.599730896781125
 21
-4.771599258481472
 31
0.0
  0
LINE
  5
4D
330
22
100
AcDbEntity
  8
0
100
AcDbLine
 10
22.59973089678116
 20
-8.771599258481472
 30
0.0
 11
18.59973089678115
 21
-8.771599258481472
 31
0.0
  0
LINE
  5
4E
330
22
100
AcDbEntity
  8
0
100
AcDbLine
 10
22.59973089678116
 20
-5.771599258481472
 30
0.0
 11
18.59973089678115
 21
-5.771599258481472
 31
0.0
  0
LINE
  5
4F
330
22
100
AcDbEntity
  8
0
100
AcDbLine
 10
22.59973089678116
 20
-4.771599258481472
 30
0.0
 11
17.59973089678115
 21
-4.771599258481472
 31
0.0
  0
LINE
  5
50
330
22
100
AcDbEntity
  8
0
100
AcDbLine
 10
18.59973089678115
 20
-5.771599258481472
 30
0.0
 11
18.59973089678115
 21
-8.771599258481472
 31
0.0
  0
ARC
  5
51
330
22
100
AcDbEntity
  8
0
100
AcDbCircle
 10
22.59973089678116
 20
-7.271599258481472
 30
0.0
 40
1.5
100
AcDbArc
 50
270.0
 51
90.0
  0
ENDBLK
  5
52
330
22
100
AcDbEntity
  8
0
100
AcDbBlockEnd
  0
BLOCK
  5
989
330
97F
100
AcDbEntity
  8
0
100
AcDbBlockBegin
  2
*D1
 70
     1
 10
0.0
 20
0.0
 30
0.0
  3
*D1
  1

  0
LINE
  5
A9C
330
97F
100
AcDbEntity
  8
BEM
 62
     0
370
    -2
100
AcDbLine
 10
122.2520754626839
 20
411.6936961726514
 30
0.0
 11
122.2520754626839
 21
423.4462058481697
 31
0.0
  0
LINE
  5
A9D
330
97F
100
AcDbEntity
  8
BEM
 62
     0
370
    -2
100
AcDbLine
 10
323.2520754626839
 20
411.6936961726514
 30
0.0
 11
323.2520754626839
 21
423.4462058481697
 31
0.0
  0
LINE
  5
A9E
330
97F
100
AcDbEntity
  8
BEM
 62
     0
370
    -2
100
AcDbLine
 10
129.2520754626839
 20
421.4462058481696
 30
0.0
 11
316.2520754626839
 21
421.4462058481696
 31
0.0
  0
SOLID
  5
A9F
330
97F
100
AcDbEntity
  8
BEM
 62
     0
100
AcDbTrace
 10
129.2520754626839
 20
422.6128725148363
 30
0.0
 11
129.2520754626839
 21
420.279539181503
 31
0.0
 12
122.2520754626839
 22
421.4462058481696
 32
0.0
 13
122.2520754626839
 23
421.4462058481696
 33
0.0
  0
SOLID
  5
AA0
330
97F
100
AcDbEntity
  8
BEM
 62
     0
100
AcDbTrace
 10
316.2520754626839
 20
422.6128725148363
 30
0.0
 11
316.2520754626839
 21
420.279539181503
 31
0.0
 12
323.2520754626839
 22
421.4462058481696
 32
0.0
 13
323.2520754626839
 23
421.4462058481696
 33
0.0
  0
MTEXT
  5
AA1
330
97F
100
AcDbEntity
  8
BEM
 62
     1
100
AcDbMText
 10
223.2198394383422
 20
427.9462058481697
 30
0.0
 40
7.0
 41
0.0
 71
     5
 72
     1
  1
\A1;201
 73
     1
 44
1.0
  0
POINT
  5
AA2
330
97F
100
AcDbEntity
  8
DEFPOINTS
 62
     0
100
AcDbPoint
 10
122.2520754626839
 20
409.6936961726514
 30
0.0
  0
POINT
  5
AA3
330
97F
100
AcDbEntity
  8
DEFPOINTS
 62
     0
100
AcDbPoint
 10
323.2520754626839
 20
409.6936961726514
 30
0.0
  0
POINT
  5
AA4
330
97F
100
AcDbEntity
  8
DEFPOINTS
 62
     0
100
AcDbPoint
 10
323.2520754626839
 20
421.4462058481696
 30
0.0
  0
ENDBLK
  5
98A
330
97F
100
AcDbEntity
  8
0
100
AcDbBlockEnd
  0
BLOCK
  5
AB0
330
AA6
100
AcDbEntity
  8
0
100
AcDbBlockBegin
  2
*D2
 70
     1
 10
0.0
 20
0.0
 30
0.0
  3
*D2
  1

  0
LINE
  5
AA7
330
AA6
100
AcDbEntity
  8
BEM
 62
     0
370
    -2
100
AcDbLine
 10
155.5644054155727
 20
256.6936961726514
 30
0.0
 11
105.3237114567382
 21
256.6936961726514
 31
0.0
  0
LINE
  5
AA8
330
AA6
100
AcDbEntity
  8
BEM
 62
     0
370
    -2
100
AcDbLine
 10
150.4123295005282
 20
376.6936961726515
 30
0.0
 11
105.3237114567382
 21
376.6936961726515
 31
0.0
  0
LINE
  5
AA9
330
AA6
100
AcDbEntity
  8
BEM
 62
     0
370
    -2
100
AcDbLine
 10
107.3237114567382
 20
263.6936961726514
 30
0.0
 11
107.3237114567382
 21
369.6936961726515
 31
0.0
  0
SOLID
  5
AAA
330
AA6
100
AcDbEntity
  8
BEM
 62
     0
100
AcDbTrace
 10
106.1570447900715
 20
263.6936961726514
 30
0.0
 11
108.4903781234048
 21
263.6936961726514
 31
0.0
 12
107.3237114567382
 22
256.6936961726514
 32
0.0
 13
107.3237114567382
 23
256.6936961726514
 33
0.0
  0
SOLID
  5
AAB
330
AA6
100
AcDbEntity
  8
BEM
 62
     0
100
AcDbTrace
 10
106.1570447900715
 20
369.6936961726515
 30
0.0
 11
108.4903781234049
 21
369.6936961726515
 31
0.0
 12
107.3237114567382
 22
376.6936961726515
 32
0.0
 13
107.3237114567382
 23
376.6936961726515
 33
0.0
  0
MTEXT
  5
AAC
330
AA6
100
AcDbEntity
  8
BEM
 62
     1
100
AcDbMText
 10
100.8237114567381
 20
316.6936961726515
 30
0.0
 40
7.0
 41
0.0
 71
     5
 72
     1
  1
\A1;120
 11
0.0000000000000001
 21
1.0
 31
0.0
 73
     1
 44
1.0
  0
POINT
  5
AAD
330
AA6
100
AcDbEntity
  8
DEFPOINTS
 62
     0
100
AcDbPoint
 10
157.5644054155727
 20
256.6936961726514
 30
0.0
  0
POINT
  5
AAE
330
AA6
100
AcDbEntity
  8
DEFPOINTS
 62
     0
100
AcDbPoint
 10
152.4123295005282
 20
376.6936961726515
 30
0.0
  0
POINT
  5
AAF
330
AA6
100
AcDbEntity
  8
DEFPOINTS
 62
     0
100
AcDbPoint
 10
107.3237114567382
 20
376.6936961726515
 30
0.0
  0
ENDBLK
  5
AB1
330
AA6
100
AcDbEntity
  8
0
100
AcDbBlockEnd
  0
BLOCK
  5
ABD
330
AB3
100
AcDbEntity
  8
0
100
AcDbBlockBegin
  2
*D3
 70
     1
 10
0.0
 20
0.0
 30
0.0
  3
*D3
  1

  0
LINE
  5
AB4
330
AB3
100
AcDbEntity
  8
BEM
 62
     0
370
    -2
100
AcDbLine
 10
150.4123295005282
 20
376.6936961726515
 30
0.0
 11
105.3237114567382
 21
376.6936961726515
 31
0.0
  0
LINE
  5
AB5
330
AB3
100
AcDbEntity
  8
BEM
 62
     0
370
    -2
100
AcDbLine
 10
120.252075462684
 20
409.6936961726514
 30
0.0
 11
105.3237114567382
 21
409.6936961726514
 31
0.0
  0
LINE
  5
AB6
330
AB3
100
AcDbEntity
  8
BEM
 62
     0
370
    -2
100
AcDbLine
 10
107.3237114567382
 20
383.6936961726515
 30
0.0
 11
107.3237114567382
 21
402.6936961726514
 31
0.0
  0
SOLID
  5
AB7
330
AB3
100
AcDbEntity
  8
BEM
 62
     0
100
AcDbTrace
 10
106.1570447900715
 20
383.6936961726515
 30
0.0
 11
108.4903781234049
 21
383.6936961726515
 31
0.0
 12
107.3237114567382
 22
376.6936961726515
 32
0.0
 13
107.3237114567382
 23
376.6936961726515
 33
0.0
  0
SOLID
  5
AB8
330
AB3
100
AcDbEntity
  8
BEM
 62
     0
100
AcDbTrace
 10
106.1570447900715
 20
402.6936961726514
 30
0.0
 11
108.4903781234049
 21
402.6936961726514
 31
0.0
 12
107.3237114567382
 22
409.6936961726514
 32
0.0
 13
107.3237114567382
 23
409.6936961726514
 33
0.0
  0
MTEXT
  5
AB9
330
AB3
100
AcDbEntity
  8
BEM
 62
     1
100
AcDbMText
 10
100.8237114567382
 20
393.1936961726515
 30
0.0
 40
7.0
 41
0.0
 71
     5
 72
     1
  1
\A1;33
 11
0.0000000000000001
 21
1.0
 31
0.0
 73
     1
 44
1.0
  0
POINT
  5
ABA
330
AB3
100
AcDbEntity
  8
DEFPOINTS
 62
     0
100
AcDbPoint
 10
152.4123295005282
 20
376.6936961726515
 30
0.0
  0
POINT
  5
ABB
330
AB3
100
AcDbEntity
  8
DEFPOINTS
 62
     0
100
AcDbPoint
 10
122.252075462684
 20
409.6936961726514
 30
0.0
  0
POINT
  5
ABC
330
AB3
100
AcDbEntity
  8
DEFPOINTS
 62
     0
100
AcDbPoint
 10
107.3237114567382
 20
409.6936961726514
 30
0.0
  0
ENDBLK
  5
ABE
330
AB3
100
AcDbEntity
  8
0
100
AcDbBlockEnd
  0
BLOCK
  5
ACA
330
AC0
100
AcDbEntity
  8
0
100
AcDbBlockBegin
  2
*D4
 70
     1
 10
0.0
 20
0.0
 30
0.0
  3
*D4
  1

  0
LINE
  5
AC1
330
AC0
100
AcDbEntity
  8
BEM
 62
     0
370
    -2
100
AcDbLine
 10
120.252075462684
 20
409.6936961726514
 30
0.0
 11
90.32082092393469
 21
409.6936961726514
 31
0.0
  0
LINE
  5
AC2
330
AC0
100
AcDbEntity
  8
BEM
 62
     0
370
    -2
100
AcDbLine
 10
155.5644054155727
 20
256.6936961726514
 30
0.0
 11
90.32082092393466
 21
256.6936961726514
 31
0.0
  0
LINE
  5
AC3
330
AC0
100
AcDbEntity
  8
BEM
 62
     0
370
    -2
100
AcDbLine
 10
92.32082092393468
 20
402.6936961726514
 30
0.0
 11
92.32082092393467
 21
263.6936961726514
 31
0.0
  0
SOLID
  5
AC4
330
AC0
100
AcDbEntity
  8
BEM
 62
     0
100
AcDbTrace
 10
91.15415425726801
 20
402.6936961726514
 30
0.0
 11
93.48748759060136
 21
402.6936961726514
 31
0.0
 12
92.32082092393468
 22
409.6936961726514
 32
0.0
 13
92.32082092393468
 23
409.6936961726514
 33
0.0
  0
SOLID
  5
AC5
330
AC0
100
AcDbEntity
  8
BEM
 62
     0
100
AcDbTrace
 10
91.154154257268
 20
263.6936961726514
 30
0.0
 11
93.48748759060134
 21
263.6936961726514
 31
0.0
 12
92.32082092393467
 22
256.6936961726514
 32
0.0
 13
92.32082092393467
 23
256.6936961726514
 33
0.0
  0
MTEXT
  5
AC6
330
AC0
100
AcDbEntity
  8
BEM
 62
     1
100
AcDbMText
 10
85.82082092393461
 20
333.1936961726515
 30
0.0
 40
7.0
 41
0.0
 71
     5
 72
     1
  1
\A1;153
 11
0.0000000000000001
 21
1.0
 31
0.0
 73
     1
 44
1.0
  0
POINT
  5
AC7
330
AC0
100
AcDbEntity
  8
DEFPOINTS
 62
     0
100
AcDbPoint
 10
122.252075462684
 20
409.6936961726514
 30
0.0
  0
POINT
  5
AC8
330
AC0
100
AcDbEntity
  8
DEFPOINTS
 62
     0
100
AcDbPoint
 10
157.5644054155727
 20
256.6936961726514
 30
0.0
  0
POINT
  5
AC9
330
AC0
100
AcDbEntity
  8
DEFPOINTS
 62
     0
100
AcDbPoint
 10
92.32082092393467
 20
256.6936961726514
 30
0.0
  0
ENDBLK
  5
ACB
330
AC0
100
AcDbEntity
  8
0
100
AcDbBlockEnd
  0
BLOCK
  5
AD7
330
ACD
100
AcDbEntity
  8
0
100
AcDbBlockBegin
  2
*D5
 70
     1
 10
0.0
 20
0.0
 30
0.0
  3
*D5
  1

  0
LINE
  5
AD9
330
ACD
100
AcDbEntity
  8
BEM
 62
     0
370
    -2
100
AcDbLine
 10
156.2520754626839
 20
264.3070776162517
 30
0.0
 11
156.2520754626839
 21
234.7164769908404
 31
0.0
  0
LINE
  5
ADA
330
ACD
100
AcDbEntity
  8
BEM
 62
     0
370
    -2
100
AcDbLine
 10
289.2520754626839
 20
264.3070776162515
 30
0.0
 11
289.2520754626839
 21
234.7164769908404
 31
0.0
  0
LINE
  5
ADB
330
ACD
100
AcDbEntity
  8
BEM
 62
     0
370
    -2
100
AcDbLine
 10
163.2520754626839
 20
236.7164769908404
 30
0.0
 11
282.252075462684
 21
236.7164769908404
 31
0.0
  0
SOLID
  5
ADC
330
ACD
100
AcDbEntity
  8
BEM
 62
     0
100
AcDbTrace
 10
163.2520754626839
 20
237.8831436575071
 30
0.0
 11
163.2520754626839
 21
235.5498103241738
 31
0.0
 12
156.2520754626839
 22
236.7164769908404
 32
0.0
 13
156.2520754626839
 23
236.7164769908404
 33
0.0
  0
SOLID
  5
ADD
330
ACD
100
AcDbEntity
  8
BEM
 62
     0
100
AcDbTrace
 10
282.252075462684
 20
237.8831436575071
 30
0.0
 11
282.252075462684
 21
235.5498103241738
 31
0.0
 12
289.2520754626839
 22
236.7164769908404
 32
0.0
 13
289.2520754626839
 23
236.7164769908404
 33
0.0
  0
MTEXT
  5
ADE
330
ACD
100
AcDbEntity
  8
BEM
 62
     1
100
AcDbMText
 10
222.7520754626839
 20
243.2164769908404
 30
0.0
 40
7.0
 41
0.0
 71
     5
 72
     1
  1
\A1;%%c133
 73
     1
 44
1.0
  0
POINT
  5
ADF
330
ACD
100
AcDbEntity
  8
DEFPOINTS
 62
     0
100
AcDbPoint
 10
156.2520754626839
 20
266.3070776162517
 30
0.0
  0
POINT
  5
AE0
330
ACD
100
AcDbEntity
  8
DEFPOINTS
 62
     0
100
AcDbPoint
 10
289.2520754626839
 20
266.3070776162515
 30
0.0
  0
POINT
  5
AE1
330
ACD
100
AcDbEntity
  8
DEFPOINTS
 62
     0
100
AcDbPoint
 10
289.2520754626839
 20
236.7164769908404
 30
0.0
  0
ENDBLK
  5
AD8
330
ACD
100
AcDbEntity
  8
0
100
AcDbBlockEnd
  0
ENDSEC
  0
SECTION
  2
ENTITIES
  0
LINE
  5
57
330
1E
100
AcDbEntity
  8
STEMPEL
100
AcDbLine
 10
410.0
 20
110.0
 30
0.0
 11
39.99999999999997
 21
110.0
 31
0.0
  0
LINE
  5
58
330
1E
100
AcDbEntity
  8
STEMPEL
100
AcDbLine
 10
136.0000000000001
 20
109.9999999999999
 30
0.0
 11
136.0
 21
9.999999999999971
 31
0.0
  0
LINE
  5
59
330
1E
100
AcDbEntity
  8
STEMPEL
100
AcDbLine
 10
220.0
 20
110.0
 30
0.0
 11
220.0
 21
9.999999999999971
 31
0.0
  0
LINE
  5
5A
330
1E
100
AcDbEntity
  8
STEMPEL
100
AcDbLine
 10
332.0
 20
109.9999999999997
 30
0.0
 11
332.0
 21
40.0
 31
0.0
  0
LINE
  5
5B
330
1E
100
AcDbEntity
  8
STEMPEL
100
AcDbLine
 10
135.9999999999999
 20
29.99999999999997
 30
0.0
 11
39.99999999999997
 21
29.99999999999997
 31
0.0
  0
LINE
  5
5C
330
1E
100
AcDbEntity
  8
STEMPEL
100
AcDbLine
 10
410.0
 20
40.0
 30
0.0
 11
136.0000000000001
 21
39.99999999999997
 31
0.0
  0
LINE
  5
5D
330
1E
100
AcDbEntity
  8
STEMPEL
100
AcDbLine
 10
410.0
 20
80.0
 30
0.0
 11
136.0000000000001
 21
79.99999999999994
 31
0.0
  0
LINE
  5
5E
330
1E
100
AcDbEntity
  8
VOLL
100
AcDbLine
 10
54.00000000000009
 20
110.0
 30
0.0
 11
53.99999999999997
 21
9.999999999999971
 31
0.0
  0
LINE
  5
5F
330
1E
100
AcDbEntity
  8
VOLL
100
AcDbLine
 10
94.00000000000011
 20
109.9999999999999
 30
0.0
 11
94.0
 21
9.999999999999971
 31
0.0
  0
LINE
  5
60
330
1E
100
AcDbEntity
  8
VOLL
100
AcDbLine
 10
114.0000000000001
 20
109.9999999999999
 30
0.0
 11
114.0
 21
9.999999999999971
 31
0.0
  0
LINE
  5
61
330
1E
100
AcDbEntity
  8
VOLL
100
AcDbLine
 10
154.0000000000001
 20
79.99999999999994
 30
0.0
 11
154.0000000000001
 21
39.99999999999997
 31
0.0
  0
LINE
  5
62
330
1E
100
AcDbEntity
  8
VOLL
100
AcDbLine
 10
180.0000000000001
 20
109.9999999999998
 30
0.0
 11
180.0
 21
39.99999999999997
 31
0.0
  0
LINE
  5
63
330
1E
100
AcDbEntity
  8
HILF
100
AcDbLine
 10
40.00000000000008
 20
100.0
 30
0.0
 11
136.0000000000001
 21
100.0
 31
0.0
  0
LINE
  5
64
330
1E
100
AcDbEntity
  8
HILF
100
AcDbLine
 10
40.00000000000008
 20
90.00000000000005
 30
0.0
 11
136.0000000000001
 21
90.00000000000005
 31
0.0
  0
LINE
  5
65
330
1E
100
AcDbEntity
  8
HILF
100
AcDbLine
 10
40.00000000000008
 20
79.99999999999994
 30
0.0
 11
136.0000000000001
 21
79.99999999999994
 31
0.0
  0
LINE
  5
66
330
1E
100
AcDbEntity
  8
HILF
100
AcDbLine
 10
40.00000000000008
 20
69.99999999999994
 30
0.0
 11
136.0000000000001
 21
69.99999999999994
 31
0.0
  0
LINE
  5
67
330
1E
100
AcDbEntity
  8
HILF
100
AcDbLine
 10
40.00000000000008
 20
59.99999999999997
 30
0.0
 11
136.0000000000001
 21
59.99999999999997
 31
0.0
  0
LINE
  5
68
330
1E
100
AcDbEntity
  8
HILF
100
AcDbLine
 10
40.00000000000008
 20
49.99999999999997
 30
0.0
 11
136.0000000000001
 21
49.99999999999997
 31
0.0
  0
LINE
  5
69
330
1E
100
AcDbEntity
  8
HILF
100
AcDbLine
 10
40.00000000000008
 20
39.99999999999997
 30
0.0
 11
136.0000000000001
 21
39.99999999999997
 31
0.0
  0
LINE
  5
6A
330
1E
100
AcDbEntity
  8
HILF
100
AcDbLine
 10
136.0000000000001
 20
69.99999999999994
 30
0.0
 11
220.0
 21
69.99999999999994
 31
0.0
  0
LINE
  5
6B
330
1E
100
AcDbEntity
  8
HILF
100
AcDbLine
 10
136.0000000000001
 20
59.99999999999997
 30
0.0
 11
220.0
 21
59.99999999999997
 31
0.0
  0
LINE
  5
6C
330
1E
100
AcDbEntity
  8
HILF
100
AcDbLine
 10
136.0000000000001
 20
49.99999999999997
 30
0.0
 11
220.0
 21
49.99999999999997
 31
0.0
  0
LINE
  5
6D
330
1E
100
AcDbEntity
  8
HILF
100
AcDbLine
 10
224.7736801096948
 20
84.03758247564139
 30
0.0
 11
324.8353916556311
 21
84.03758247564139
 31
0.0
  0
LINE
  5
6E
330
1E
100
AcDbEntity
  8
HILF
100
AcDbLine
 10
224.7736801096948
 20
69.99999999999994
 30
0.0
 11
324.835391655631
 21
69.99999999999994
 31
0.0
  0
LINE
  5
6F
330
1E
100
AcDbEntity
  8
HILF
100
AcDbLine
 10
224.7736801096948
 20
59.99999999999997
 30
0.0
 11
324.835391655631
 21
59.99999999999997
 31
0.0
  0
LINE
  5
70
330
1E
100
AcDbEntity
  8
HILF
100
AcDbLine
 10
224.7736801096948
 20
49.99999999999997
 30
0.0
 11
324.835391655631
 21
49.99999999999997
 31
0.0
  0
LINE
  5
71
330
1E
100
AcDbEntity
  8
VOLL
100
AcDbLine
 10
332.0
 20
60.0
 30
0.0
 11
410.0
 21
60.0
 31
0.0
  0
LINE
  5
72
330
1E
100
AcDbEntity
  8
HILF
100
AcDbLine
 10
336.7238616296993
 20
83.77983636955827
 30
0.0
 11
404.8588839326728
 21
83.77983636955827
 31
0.0
  0
LINE
  5
73
330
1E
100
AcDbEntity
  8
HILF
100
AcDbLine
 10
223.4909699289885
 20
14.89398258028314
 30
0.0
 11
404.8588839326728
 21
14.89398258028314
 31
0.0
  0
TEXT
  5
74
330
1E
100
AcDbEntity
  8
TEXT
100
AcDbText
 10
63.86165979631819
 20
18.67381894984132
 30
0.0
 40
4.0
  1
Änderung
 41
0.8
  7
GREEKS
 72
     1
 11
74.60451693917534
 21
18.67381894984132
 31
0.0
100
AcDbText
  0
TEXT
  5
75
330
1E
100
AcDbEntity
  8
TEXT
100
AcDbText
 10
143.5163572150377
 20
102.4620895087088
 30
0.0
 40
5.0
  1
Maßstab
 41
0.8
  7
GREEKS
100
AcDbText
  0
TEXT
  5
76
330
1E
100
AcDbEntity
  8
TEXT
100
AcDbText
 10
184.2858954734051
 20
102.4184168434819
 30
0.0
 40
5.0
  1
Zul. Abw.
 41
0.8
  7
GREEKS
100
AcDbText
  0
TEXT
  5
77
330
1E
100
AcDbEntity
  8
TEXT
100
AcDbText
 10
224.877940380901
 20
102.5489328011779
 30
0.0
 40
5.0
  1
Benennung
 41
0.8
  7
GREEKS
100
AcDbText
  0
TEXT
  5
78
330
1E
100
AcDbEntity
  8
TEXT
100
AcDbText
 10
336.178754957634
 20
102.3132034537136
 30
0.0
 40
5.0
  1
Zeichnungs Nr.
 41
0.8
  7
GREEKS
100
AcDbText
  0
TEXT
  5
79
330
1E
100
AcDbEntity
  8
TEXT
100
AcDbText
 10
224.742238391136
 20
30.84560570193057
 30
0.0
 40
5.0
  1
Bauvorhaben
 41
0.8
  7
GREEKS
100
AcDbText
  0
TEXT
  5
7A
330
1E
100
AcDbEntity
  8
TEXT
100
AcDbText
 10
336.7238616296993
 20
73.1811823709997
 30
0.0
 40
5.0
  1
Ersatz für:
 41
0.8
  7
GREEKS
100
AcDbText
  0
TEXT
  5
7B
330
1E
100
AcDbEntity
  8
TEXT
100
AcDbText
 10
48.26641107045756
 20
13.65465846027192
 30
0.0
 40
4.0
  1
Index
 50
90.0
 41
0.8
  7
GREEKS
100
AcDbText
  0
TEXT
  5
7C
330
1E
100
AcDbEntity
  8
TEXT
100
AcDbText
 10
100.0934676075481
 20
18.6715626933981
 30
0.0
 40
4.0
  1
Tag
 41
0.8
  7
GREEKS
 72
     1
 11
103.8268009408814
 21
18.6715626933981
 31
0.0
100
AcDbText
  0
TEXT
  5
7D
330
1E
100
AcDbEntity
  8
TEXT
100
AcDbText
 10
119.0122744386592
 20
18.59324216966408
 30
0.0
 40
4.0
  1
Name
 41
0.8
  7
GREEKS
 72
     1
 11
125.3360839624688
 21
18.59324216966408
 31
0.0
100
AcDbText
  0
TEXT
  5
7E
330
1E
100
AcDbEntity
  8
TEXT
100
AcDbText
 10
162.3311673153651
 20
73.31880501229926
 30
0.0
 40
4.0
  1
Tag
 41
0.8
  7
GREEKS
100
AcDbText
  0
TEXT
  5
7F
330
1E
100
AcDbEntity
  8
TEXT
100
AcDbText
 10
192.4626584226295
 20
73.30961091915225
 30
0.0
 40
4.0
  1
Name
 41
0.8
  7
GREEKS
100
AcDbText
  0
TEXT
  5
80
330
1E
100
AcDbEntity
  8
TEXT
100
AcDbText
 10
137.5836127167615
 20
63.62990369617964
 30
0.0
 40
4.0
  1
Gez.
 41
0.8
  7
GREEKS
100
AcDbText
  0
TEXT
  5
81
330
1E
100
AcDbEntity
  8
TEXT
100
AcDbText
 10
137.5515086571672
 20
53.68926291428377
 30
0.0
 40
4.0
  1
Gepr.
 41
0.8
  7
GREEKS
100
AcDbText
  0
TEXT
  5
82
330
1E
100
AcDbEntity
  8
TEXT
100
AcDbText
 10
137.6006777387304
 20
43.52946389649807
 30
0.0
 40
4.0
  1
Norm.
 41
0.8
  7
GREEKS
100
AcDbText
  0
LINE
  5
83
330
1E
100
AcDbEntity
  8
STEMPEL
100
AcDbLine
 10
49.99999999999989
 20
10.0
 30
0.0
 11
410.0
 21
10.0
 31
0.0
  0
TEXT
  5
84
330
1E
100
AcDbEntity
  8
TEXT
100
AcDbText
 10
337.2400861497006
 20
52.07416177878602
 30
0.0
 40
5.0
  1
ersetzt durch:
 41
0.8
  7
GREEKS
100
AcDbText
  0
LINE
  5
85
330
1E
100
AcDbEntity
  8
STEMPEL
100
AcDbLine
 10
410.0
 20
10.0
 30
0.0
 11
39.99999999999989
 21
10.0
 31
0.0
  0
LINE
  5
86
330
1E
100
AcDbEntity
  8
STEMPEL
100
AcDbLine
 10
410.0
 20
10.0
 30
0.0
 11
410.0
 21
584.0
 31
0.0
  0
LINE
  5
87
330
1E
100
AcDbEntity
  8
STEMPEL
100
AcDbLine
 10
40.0
 20
10.0
 30
0.0
 11
39.99999999999989
 21
584.0
 31
0.0
  0
LINE
  5
88
330
1E
100
AcDbEntity
  8
STEMPEL
100
AcDbLine
 10
410.0
 20
584.0
 30
0.0
 11
39.99999999999989
 21
584.0
 31
0.0
  0
LINE
  5
89
330
1E
100
AcDbEntity
  8
HILF
100
AcDbLine
 10
0.0
 20
0.0
 30
0.0
 11
-0.0000000000001137
 21
594.0
 31
0.0
  0
LINE
  5
8A
330
1E
100
AcDbEntity
  8
HILF
100
AcDbLine
 10
419.9999999999999
 20
594.0000000000002
 30
0.0
 11
0.0
 21
594.0
 31
0.0
  0
LINE
  5
8B
330
1E
100
AcDbEntity
  8
HILF
100
AcDbLine
 10
420.0
 20
0.0
 30
0.0
 11
0.0
 21
0.0
 31
0.0
  0
LINE
  5
8C
330
1E
100
AcDbEntity
  8
HILF
100
AcDbLine
 10
31.08767135713856
 20
297.0
 30
0.0
 11
0.0000000000001137
 21
297.0
 31
0.0
  0
TEXT
  5
8D
330
1E
100
AcDbEntity
  8
TEXT
100
AcDbText
 10
138.622109822104
 20
73.14025471151666
 30
0.0
 40
4.0
  1
2008
 41
0.8
  7
GREEKS
100
AcDbText
  0
LINE
  5
8E
330
1E
100
AcDbEntity
  8
HILF
100
AcDbLine
 10
420.0
 20
-0.0000000000001137
 30
0.0
 11
419.9999999999999
 21
594.0
 31
0.0
  0
TEXT
  5
8F
330
1E
100
AcDbEntity
  8
VOLL
100
AcDbText
 10
78.07675471698113
 20
31.02594776470585
 30
0.0
 40
1.8
  1

  7
GREEKS
100
AcDbText
  0
TEXT
  5
90
330
1E
100
AcDbEntity
  8
TEXT
100
AcDbText
 10
41.85509950977674
 20
111.6719999999999
 30
0.0
 40
5.0
  1
Erstellt mit AUTOCAD 2004
 41
0.8
  7
GREEKS
100
AcDbText
  0
TEXT
  5
91
330
1E
100
AcDbEntity
  8
TEXT
100
AcDbText
 10
194.4216048581257
 20
63.0896391972351
 30
0.0
 40
4.0
  1
Koeh
 41
0.8
  7
GREEKS
 72
     1
 11
199.6787477152685
 21
63.0896391972351
 31
0.0
100
AcDbText
  0
TEXT
  5
92
330
1E
100
AcDbEntity
  8
TEXT
 62
     1
100
AcDbText
 10
346.5977733115953
 20
88.14901428913959
 30
0.0
 40
7.0
  1
18620125W
 41
0.8
  7
GREEKS
 72
     1
 11
369.5311066449286
 21
88.14901428913959
 31
0.0
100
AcDbText
  0
TEXT
  5
93
330
1E
100
AcDbEntity
  8
TEXT
 62
     1
100
AcDbText
 10
150.5006306481887
 20
88.14901428913959
 30
0.0
 40
7.0
  1
1:2
 41
0.8
  7
GREEKS
100
AcDbText
  0
TEXT
  5
94
330
1E
100
AcDbEntity
  8
TEXT
100
AcDbText
 10
161.0085209177598
 20
63.10765040825732
 30
0.0
 40
4.0
  1
11.06.
 41
0.8
  7
GREEKS
 72
     1
 11
167.4085209177598
 21
63.10765040825732
 31
0.0
100
AcDbText
  0
TEXT
  5
95
330
1E
100
AcDbEntity
  8
TEXT
 62
     1
100
AcDbText
 10
226.8935731057402
 20
87.41748789253779
 30
0.0
 40
7.0
  1
Siebeinheit DN125
 41
0.8
  7
GREEKS
100
AcDbText
  0
TEXT
  5
98
330
1E
100
AcDbEntity
  8
TEXT
100
AcDbText
 10
225.1296391125315
 20
51.64011943042158
 30
0.0
 40
5.0
  1
EDV-Art.Nr. 18620.125X
 41
0.8
  7
GREEKS
100
AcDbText
  0
TEXT
  5
99
330
1E
100
AcDbEntity
  8
TEXT
100
AcDbText
 10
224.9837501577827
 20
42.62974153022632
 30
0.0
 40
4.0
  1
18620125W.DWG
 41
0.8
  7
GREEKS
100
AcDbText
  0
TEXT
  5
9A
330
1E
100
AcDbEntity
  8
TEXT
100
AcDbText
 10
182.626132208084
 20
90.76363841023022
 30
0.0
 40
4.0
  1
DIN EN1123-2
 41
0.8
  7
GREEKS
 72
     1
 11
199.6166083985602
 21
90.76363841023022
 31
0.0
100
AcDbText
  0
INSERT
  5
9B
330
1E
100
AcDbEntity
  8
STEMPEL
100
AcDbBlockReference
  2
LOGO
 10
140.9955485457794
 20
45.02105276448322
 30
0.0
 41
2.0
 42
2.0
 43
2.0
  0
TEXT
  5
118
330
1E
100
AcDbEntity
  8
BEM
100
AcDbText
 10
417.3022923857165
 20
10.16790107998849
 30
0.0
 40
4.0
  1
Diese Zeichnung ist urheberrechtlich geschützt und bleibt unser Eigentum. Sie darf weder ganz noch teilweise verfielfältigt und nicht an Dritte weitergegeben werden.
 50
90.0
 41
0.8
  7
GREEKS
100
AcDbText
  0
LINE
  5
3FA
330
1E
100
AcDbEntity
  8
STEMPEL
  6
Continuous
100
AcDbLine
 10
315.2520754626839
 20
391.6936961726515
 30
0.0
 11
130.2520754626839
 21
391.6936961726492
 31
0.0
  0
LINE
  5
90A
330
1E
100
AcDbEntity
  8
STEMPEL
100
AcDbLine
 10
316.2520754626839
 20
409.6936961726513
 30
0.0
 11
315.9872937550253
 21
404.6413602164085
 31
0.0
  0
POINT
  5
90B
330
1E
100
AcDbEntity
  8
DEFPOINTS
  6
ByBlock
 62
     0
100
AcDbPoint
 10
316.2520754626839
 20
409.6936961726513
 30
0.0
  0
POINT
  5
90C
330
1E
100
AcDbEntity
  8
DEFPOINTS
  6
ByBlock
 62
     0
100
AcDbPoint
 10
316.2520754626839
 20
409.6936961726513
 30
0.0
  0
POINT
  5
90D
330
1E
100
AcDbEntity
  8
DEFPOINTS
  6
ByBlock
 62
     0
100
AcDbPoint
 10
316.2520754626839
 20
409.6936961726513
 30
0.0
  0
LINE
  5
90E
330
1E
100
AcDbEntity
  8
STEMPEL
100
AcDbLine
 10
314.988664220271
 20
403.6936961726514
 30
0.0
 11
314.7520754626839
 21
403.6936961726514
 31
0.0
  0
POINT
  5
90F
330
1E
100
AcDbEntity
  8
DEFPOINTS
  6
ByBlock
 62
     0
100
AcDbPoint
 10
314.988664220271
 20
403.6936961726514
 30
0.0
  0
ARC
  5
910
330
1E
100
AcDbEntity
  8
STEMPEL
100
AcDbCircle
 10
313.1742175445725
 20
392.6936961726514
 30
0.0
 40
1.0
100
AcDbArc
 50
270.0
 51
357.0000000000009
  0
POINT
  5
911
330
1E
100
AcDbEntity
  8
DEFPOINTS
  6
ByBlock
 62
     0
100
AcDbPoint
 10
313.1742175445725
 20
391.6936961726514
 30
0.0
  0
LINE
  5
912
330
1E
100
AcDbEntity
  8
STEMPEL
100
AcDbLine
 10
314.7520754626839
 20
403.6936961726514
 30
0.0
 11
314.1728470793271
 21
392.6413602164085
 31
0.0
  0
ARC
  5
913
330
1E
100
AcDbEntity
  8
STEMPEL
100
AcDbCircle
 10
314.988664220271
 20
404.6936961726514
 30
0.0
 40
1.0
100
AcDbArc
 50
270.0
 51
357.0000000000009
  0
ARC
  5
914
330
1E
100
AcDbEntity
  8
STEMPEL
100
AcDbCircle
 10
303.1443800564937
 20
392.6936961726514
 30
0.0
 40
1.0
100
AcDbArc
 50
182.9999999999991
 51
270.0
  0
POINT
  5
915
330
1E
100
AcDbEntity
  8
DEFPOINTS
  6
ByBlock
 62
     0
100
AcDbPoint
 10
302.145750521739
 20
392.6413602164085
 30
0.0
  0
ARC
  5
916
330
1E
100
AcDbEntity
  8
STEMPEL
100
AcDbCircle
 10
289.3597708688744
 20
392.6936961726514
 30
0.0
 40
1.0
100
AcDbArc
 50
270.0
 51
357.0000000000009
  0
ARC
  5
917
330
1E
100
AcDbEntity
  8
STEMPEL
100
AcDbCircle
 10
282.1443800564935
 20
392.6936961726514
 30
0.0
 40
1.0
100
AcDbArc
 50
182.9999999999991
 51
270.0
  0
LINE
  5
918
330
1E
100
AcDbEntity
  8
STEMPEL
100
AcDbLine
 10
280.252075462684
 20
409.6936961726513
 30
0.0
 11
281.1457505217386
 21
392.6413602164085
 31
0.0
  0
LINE
  5
919
330
1E
100
AcDbEntity
  8
STEMPEL
100
AcDbLine
 10
291.2520754626839
 20
409.6936961726513
 30
0.0
 11
290.3584004036293
 21
392.6413602164085
 31
0.0
  0
LINE
  5
91A
330
1E
100
AcDbEntity
  8
STEMPEL
100
AcDbLine
 10
301.2520754626839
 20
409.6936961726513
 30
0.0
 11
302.145750521739
 21
392.6413602164085
 31
0.0
  0
ARC
  5
91B
330
1E
100
AcDbEntity
  8
STEMPEL
100
AcDbCircle
 10
268.3597708688744
 20
392.6936961726514
 30
0.0
 40
1.0
100
AcDbArc
 50
270.0
 51
357.0000000000009
  0
ARC
  5
91C
330
1E
100
AcDbEntity
  8
STEMPEL
100
AcDbCircle
 10
261.1443800564934
 20
392.6936961726514
 30
0.0
 40
1.0
100
AcDbArc
 50
182.9999999999991
 51
270.0
  0
ARC
  5
91D
330
1E
100
AcDbEntity
  8
STEMPEL
100
AcDbCircle
 10
247.3597708688744
 20
392.6936961726514
 30
0.0
 40
1.0
100
AcDbArc
 50
270.0
 51
357.0000000000009
  0
LINE
  5
91E
330
1E
100
AcDbEntity
  8
STEMPEL
100
AcDbLine
 10
249.2520754626839
 20
409.6936961726513
 30
0.0
 11
248.3584004036293
 21
392.6413602164085
 31
0.0
  0
LINE
  5
91F
330
1E
100
AcDbEntity
  8
STEMPEL
100
AcDbLine
 10
270.2520754626839
 20
409.6936961726513
 30
0.0
 11
269.3584004036293
 21
392.6413602164085
 31
0.0
  0
LINE
  5
920
330
1E
100
AcDbEntity
  8
STEMPEL
100
AcDbLine
 10
259.2520754626839
 20
409.6936961726513
 30
0.0
 11
260.1457505217386
 21
392.6413602164085
 31
0.0
  0
ARC
  5
921
330
1E
100
AcDbEntity
  8
STEMPEL
100
AcDbCircle
 10
240.1443800564934
 20
392.6936961726514
 30
0.0
 40
1.0
100
AcDbArc
 50
182.9999999999991
 51
270.0
  0
ARC
  5
922
330
1E
100
AcDbEntity
  8
STEMPEL
100
AcDbCircle
 10
226.3597708688744
 20
392.6936961726514
 30
0.0
 40
1.0
100
AcDbArc
 50
270.0
 51
357.0000000000009
  0
ARC
  5
923
330
1E
100
AcDbEntity
  8
STEMPEL
100
AcDbCircle
 10
219.1443800564934
 20
392.6936961726514
 30
0.0
 40
1.0
100
AcDbArc
 50
182.9999999999991
 51
270.0
  0
LINE
  5
924
330
1E
100
AcDbEntity
  8
STEMPEL
100
AcDbLine
 10
217.2520754626839
 20
409.6936961726513
 30
0.0
 11
218.1457505217386
 21
392.6413602164085
 31
0.0
  0
LINE
  5
925
330
1E
100
AcDbEntity
  8
STEMPEL
100
AcDbLine
 10
228.252075462684
 20
409.6936961726513
 30
0.0
 11
227.3584004036293
 21
392.6413602164085
 31
0.0
  0
LINE
  5
926
330
1E
100
AcDbEntity
  8
STEMPEL
100
AcDbLine
 10
238.2520754626839
 20
409.6936961726513
 30
0.0
 11
239.1457505217386
 21
392.6413602164085
 31
0.0
  0
ARC
  5
927
330
1E
100
AcDbEntity
  8
STEMPEL
100
AcDbCircle
 10
205.3597708688744
 20
392.6936961726514
 30
0.0
 40
1.0
100
AcDbArc
 50
270.0
 51
357.0000000000009
  0
ARC
  5
928
330
1E
100
AcDbEntity
  8
STEMPEL
100
AcDbCircle
 10
198.1443800564934
 20
392.6936961726514
 30
0.0
 40
1.0
100
AcDbArc
 50
182.9999999999991
 51
270.0
  0
ARC
  5
929
330
1E
100
AcDbEntity
  8
STEMPEL
100
AcDbCircle
 10
184.3597708688744
 20
392.6936961726514
 30
0.0
 40
1.0
100
AcDbArc
 50
270.0
 51
357.0000000000009
  0
ARC
  5
92A
330
1E
100
AcDbEntity
  8
STEMPEL
100
AcDbCircle
 10
177.1443800564934
 20
392.6936961726514
 30
0.0
 40
1.0
100
AcDbArc
 50
182.9999999999991
 51
270.0
  0
LINE
  5
92B
330
1E
100
AcDbEntity
  8
STEMPEL
100
AcDbLine
 10
186.2520754626839
 20
409.6936961726513
 30
0.0
 11
185.3584004036292
 21
392.6413602164085
 31
0.0
  0
LINE
  5
92C
330
1E
100
AcDbEntity
  8
STEMPEL
100
AcDbLine
 10
175.2520754626839
 20
409.6936961726513
 30
0.0
 11
176.1457505217386
 21
392.6413602164085
 31
0.0
  0
LINE
  5
92D
330
1E
100
AcDbEntity
  8
STEMPEL
100
AcDbLine
 10
207.2520754626839
 20
409.6936961726513
 30
0.0
 11
206.3584004036293
 21
392.6413602164085
 31
0.0
  0
LINE
  5
92E
330
1E
100
AcDbEntity
  8
STEMPEL
100
AcDbLine
 10
196.2520754626839
 20
409.6936961726513
 30
0.0
 11
197.1457505217386
 21
392.6413602164085
 31
0.0
  0
ARC
  5
92F
330
1E
100
AcDbEntity
  8
STEMPEL
100
AcDbCircle
 10
163.3597708688744
 20
392.6936961726514
 30
0.0
 40
1.0
100
AcDbArc
 50
270.0
 51
357.0000000000009
  0
ARC
  5
930
330
1E
100
AcDbEntity
  8
STEMPEL
100
AcDbCircle
 10
156.1443800564934
 20
392.6936961726514
 30
0.0
 40
1.0
100
AcDbArc
 50
182.9999999999991
 51
270.0
  0
ARC
  5
931
330
1E
100
AcDbEntity
  8
STEMPEL
100
AcDbCircle
 10
142.3597708688742
 20
392.6936961726514
 30
0.0
 40
1.0
100
AcDbArc
 50
270.0
 51
357.0000000000009
  0
POINT
  5
932
330
1E
100
AcDbEntity
  8
DEFPOINTS
  6
ByBlock
 62
     0
100
AcDbPoint
 10
143.3584004036288
 20
392.6413602164085
 30
0.0
  0
LINE
  5
933
330
1E
100
AcDbEntity
  8
STEMPEL
100
AcDbLine
 10
144.2520754626839
 20
409.6936961726513
 30
0.0
 11
143.3584004036288
 21
392.6413602164085
 31
0.0
  0
LINE
  5
934
330
1E
100
AcDbEntity
  8
STEMPEL
100
AcDbLine
 10
154.2520754626839
 20
409.6936961726513
 30
0.0
 11
155.1457505217386
 21
392.6413602164085
 31
0.0
  0
LINE
  5
935
330
1E
100
AcDbEntity
  8
STEMPEL
100
AcDbLine
 10
165.2520754626839
 20
409.6936961726513
 30
0.0
 11
164.3584004036292
 21
392.6413602164085
 31
0.0
  0
LINE
  5
936
330
1E
100
AcDbEntity
  8
STEMPEL
100
AcDbLine
 10
129.2520754626839
 20
409.6936961726513
 30
0.0
 11
129.5168571703425
 21
404.6413602164085
 31
0.0
  0
POINT
  5
937
330
1E
100
AcDbEntity
  8
DEFPOINTS
  6
ByBlock
 62
     0
100
AcDbPoint
 10
129.5168571703425
 20
404.6413602164085
 30
0.0
  0
ARC
  5
938
330
1E
100
AcDbEntity
  8
STEMPEL
100
AcDbCircle
 10
132.3299333807954
 20
392.6936961726514
 30
0.0
 40
1.0
100
AcDbArc
 50
182.9999999999991
 51
270.0
  0
POINT
  5
939
330
1E
100
AcDbEntity
  8
DEFPOINTS
  6
ByBlock
 62
     0
100
AcDbPoint
 10
131.3313038460408
 20
392.6413602164085
 30
0.0
  0
LINE
  5
93A
330
1E
100
AcDbEntity
  8
STEMPEL
100
AcDbLine
 10
130.7506062866489
 20
403.7217297213949
 30
0.0
 11
131.3313038460408
 21
392.6413602164085
 31
0.0
  0
ARC
  5
93B
330
1E
100
AcDbEntity
  8
STEMPEL
100
AcDbCircle
 10
130.5154867050971
 20
404.6936961726514
 30
0.0
 40
1.0
100
AcDbArc
 50
182.9999999999991
 51
283.5986717994572
  0
LINE
  5
93C
330
1E
100
AcDbEntity
  8
STEMPEL
  6
Continuous
100
AcDbLine
 10
315.2520754626839
 20
391.6936961726526
 30
0.0
 11
130.2520754626839
 21
391.6936961726504
 31
0.0
  0
HATCH
  5
97D
330
1E
100
AcDbEntity
  8
SCHRAFF
100
AcDbHatch
 10
0.0
 20
0.0
 30
0.0
210
0.0
220
0.0
230
1.0
  2
_USER
 70
     0
 71
     0
 91
       10
 92
        7
 72
     1
 73
     1
 93
        8
 10
144.2520754626839
 20
409.6936961726514
 42
0.0
 10
129.2520754626839
 20
409.6936961726514
 42
0.0
 10
129.5168571703425
 20
404.6413602164085
 42
0.469491746249005
 10
130.750606286649
 20
403.7217297213934
 42
0.0
 10
131.3313038460408
 20
392.6413602164085
 42
0.3989595459740209
 10
132.3299333807953
 20
391.6936961726504
 42
0.0
 10
142.3597708688742
 20
391.6936961726504
 42
0.3989595459740062
 10
143.3584004036288
 20
392.6413602164085
 42
0.0
 97
        0
 92
        7
 72
     1
 73
     1
 93
        6
 10
165.2520754626839
 20
409.6936961726514
 42
0.0
 10
154.2520754626839
 20
409.6936961726514
 42
0.0
 10
155.1457505217386
 20
392.6413602164085
 42
0.3989595459739429
 10
156.1443800564931
 20
391.6936961726506
 42
0.0
 10
163.3597708688744
 20
391.6936961726507
 42
0.3989595459739939
 10
164.3584004036292
 20
392.6413602164085
 42
0.0
 97
        0
 92
        7
 72
     1
 73
     1
 93
        6
 10
186.2520754626839
 20
409.6936961726514
 42
0.0
 10
175.2520754626839
 20
409.6936961726514
 42
0.0
 10
176.1457505217386
 20
392.6413602164085
 42
0.3989595459738647
 10
177.1443800564931
 20
391.6936961726509
 42
0.0
 10
184.3597708688744
 20
391.693696172651
 42
0.3989595459739157
 10
185.3584004036292
 20
392.6413602164085
 42
0.0
 97
        0
 92
        7
 72
     1
 73
     1
 93
        6
 10
207.2520754626839
 20
409.6936961726514
 42
0.0
 10
196.2520754626839
 20
409.6936961726515
 42
0.0
 10
197.1457505217386
 20
392.6413602164085
 42
0.3989595459738021
 10
198.1443800564932
 20
391.6936961726511
 42
0.0
 10
205.3597708688744
 20
391.6936961726512
 42
0.3989595459738533
 10
206.3584004036293
 20
392.6413602164085
 42
0.0
 97
        0
 92
        7
 72
     1
 73
     1
 93
        5
 10
222.7520754626839
 20
409.6936961726514
 42
0.0
 10
217.2520754626839
 20
409.6936961726514
 42
0.0
 10
218.1457505217386
 20
392.6413602164085
 42
0.398959545973724
 10
219.1443800564932
 20
391.6936961726514
 42
0.0
 10
222.7520754626839
 20
391.6936961726514
 42
0.0
 97
        0
 92
        7
 72
     1
 73
     1
 93
        5
 10
228.252075462684
 20
409.6936961726514
 42
0.0
 10
222.7520754626839
 20
409.6936961726514
 42
0.0
 10
222.7520754626839
 20
391.6936961726514
 42
0.0
 10
226.3597708688744
 20
391.6936961726515
 42
0.3989595459737906
 10
227.3584004036293
 20
392.6413602164085
 42
0.0
 97
        0
 92
        7
 72
     1
 73
     1
 93
        6
 10
249.2520754626839
 20
409.6936961726514
 42
0.0
 10
238.2520754626839
 20
409.6936961726514
 42
0.0
 10
239.1457505217386
 20
392.6413602164085
 42
0.3989595459736614
 10
240.1443800564932
 20
391.6936961726516
 42
0.0
 10
247.3597708688744
 20
391.6936961726518
 42
0.3989595459737125
 10
248.3584004036293
 20
392.6413602164085
 42
0.0
 97
        0
 92
        7
 72
     1
 73
     1
 93
        6
 10
270.2520754626839
 20
409.6936961726514
 42
0.0
 10
259.2520754626839
 20
409.6936961726514
 42
0.0
 10
260.1457505217386
 20
392.6413602164085
 42
0.3989595459735833
 10
261.1443800564932
 20
391.693696172652
 42
0.0
 10
268.3597708688744
 20
391.693696172652
 42
0.3989595459736499
 10
269.3584004036293
 20
392.6413602164085
 42
0.0
 97
        0
 92
        7
 72
     1
 73
     1
 93
        6
 10
291.2520754626839
 20
409.6936961726514
 42
0.0
 10
280.2520754626838
 20
409.6936961726513
 42
0.0
 10
281.1457505217386
 20
392.6413602164085
 42
0.3989595459735207
 10
282.1443800564931
 20
391.6936961726522
 42
0.0
 10
289.3597708688744
 20
391.6936961726523
 42
0.3989595459735718
 10
290.3584004036293
 20
392.6413602164085
 42
0.0
 97
        0
 92
        7
 72
     1
 73
     1
 93
        9
 10
314.7520754626839
 20
403.6936961726514
 42
0.0
 10
314.988664220271
 20
403.6936961726514
 42
0.3989595459736745
 10
315.9872937550253
 20
404.6413602164085
 42
0.0
 10
316.2520754626839
 20
409.6936961726513
 42
0.0
 10
301.2520754626839
 20
409.6936961726513
 42
0.0
 10
302.145750521739
 20
392.6413602164085
 42
0.3989595459734582
 10
303.1443800564936
 20
391.6936961726524
 42
0.0
 10
313.1742175445725
 20
391.6936961726525
 42
0.3989595459734434
 10
314.1728470793271
 20
392.6413602164085
 42
0.0
 97
        0
 75
     0
 76
     0
 52
45.0
 41
5.0
 77
     0
 78
     1
 53
45.0
 43
0.8145062668508558
 44
38.66856272497535
 45
-3.535533905932737
 46
3.535533905932737
 79
     0
 47
0.3352239651448677
 98
       10
 10
139.8837997608256
 20
403.9694967997718
 10
158.6703952504676
 20
403.9694967997718
 10
178.798889837174
 20
403.6342731563411
 10
200.6047603278953
 20
403.9694967997718
 10
220.7332576248468
 20
403.9694967997718
 10
225.4299058196961
 20
403.9694967997718
 10
241.8681772119135
 20
403.6342731563411
 10
261.6611977019147
 20
401.2877048532202
 10
283.1315940959312
 20
400.9524812097892
 10
304.6019904899472
 20
401.2877048532202
  0
DIMENSION
  5
97E
330
1E
100
AcDbEntity
  8
BEM
100
AcDbDimension
  2
*D1
 10
323.2520754626839
 20
421.4462058481696
 30
0.0
 11
223.2198394383422
 21
421.4462058481696
 31
0.0
 70
   160
 71
     5
 42
201.0
  3
Standard
100
AcDbAlignedDimension
 13
122.2520754626839
 23
409.6936961726514
 33
0.0
 14
323.2520754626839
 24
409.6936961726514
 34
0.0
100
AcDbRotatedDimension
1001
ACAD
1000
DSTYLE
1002
{
1070
    40
1040
2.0
1070
    41
1040
3.5
1070
    42
1040
1.0
1070
    43
1040
7.0
1070
    44
1040
1.0
1070
    73
1070
     0
1070
    74
1070
     0
1070
    77
1070
     1
1070
    78
1070
     8
1070
    79
1070
     2
1070
   140
1040
3.5
1070
   141
1040
1.5
1070
   146
1040
0.5142857142857144
1070
   147
1040
1.5
1070
   172
1070
     1
1070
   178
1070
     1
1070
   179
1070
     2
1070
   271
1070
     2
1070
   272
1070
     2
1070
   284
1070
     8
1070
   285
1070
     8
1070
   286
1070
     8
1002
}
  0
LINE
  5
993
330
1E
100
AcDbEntity
  8
BEM
 62
     1
100
AcDbLine
 10
207.8933080376236
 20
431.4658382644926
 30
0.0
 11
214.8933080376236
 21
431.4658382644926
 31
0.0
  0
LINE
  5
994
330
1E
100
AcDbEntity
  8
BEM
 62
     1
100
AcDbLine
 10
214.8933080376236
 20
424.4658382644925
 30
0.0
 11
207.8933080376236
 21
424.4658382644925
 31
0.0
  0
LINE
  5
995
330
1E
100
AcDbEntity
  8
BEM
 62
     1
100
AcDbLine
 10
207.8933080376236
 20
424.4658382644925
 30
0.0
 11
207.8933080376236
 21
431.4658382644926
 31
0.0
  0
LINE
  5
996
330
1E
100
AcDbEntity
  8
BEM
 62
     1
100
AcDbLine
 10
214.8933080376236
 20
431.4658382644926
 30
0.0
 11
214.8933080376236
 21
424.4658382644925
 31
0.0
  0
LINE
  5
9E5
330
1E
100
AcDbEntity
  8
TEXT
 62
     2
100
AcDbLine
 10
185.8049426593028
 20
469.6162845984114
 30
0.0
 11
167.490595570364
 21
424.7891362244766
 31
0.0
  0
LINE
  5
9E6
330
1E
100
AcDbEntity
  8
TEXT
 62
     2
100
AcDbLine
 10
185.8049426593028
 20
469.6162845984114
 30
0.0
 11
288.9344883441424
 21
469.6162845984114
 31
0.0
  0
TEXT
  5
9E7
330
1E
100
AcDbEntity
  8
TEXT
 62
     1
100
AcDbText
 10
186.3909175733252
 20
472.9961900153078
 30
0.0
 40
7.0
  1
Sieb
 41
0.8
  7
GREEKS
100
AcDbText
  0
TEXT
  5
9E8
330
1E
100
AcDbEntity
  8
TEXT
 62
     1
100
AcDbText
 10
186.3909175733252
 20
460.1298806213486
 30
0.0
 40
7.0
  1
EDV-Art.Nr. 18615.000X
 41
0.8
  7
GREEKS
100
AcDbText
  0
TEXT
  5
9E9
330
1E
100
AcDbEntity
  8
TEXT
 62
     1
100
AcDbText
 10
150.5308460873699
 20
198.8566226431657
 30
0.0
 40
7.0
  1
EDV-Art.Nr. 18610.125X
 41
0.8
  7
GREEKS
100
AcDbText
  0
TEXT
  5
9EA
330
1E
100
AcDbEntity
  8
TEXT
 62
     1
100
AcDbText
 10
150.5308460873699
 20
211.7229320371249
 30
0.0
 40
7.0
  1
Siebaufnahme DN125
 41
0.8
  7
GREEKS
100
AcDbText
  0
LINE
  5
9EB
330
1E
100
AcDbEntity
  8
TEXT
 62
     2
100
AcDbLine
 10
143.625255238091
 20
208.3430266202284
 30
0.0
 11
253.739638304414
 21
208.3430266202284
 31
0.0
  0
LINE
  5
9EC
330
1E
100
AcDbEntity
  8
TEXT
 62
     2
100
AcDbLine
 10
143.625255238091
 20
208.3430266202284
 30
0.0
 11
157.0161741925106
 21
278.6434518116751
 31
0.0
  0
LINE
  5
A1A
330
1E
100
AcDbEntity
  8
TEXT
 62
     2
100
AcDbLine
 10
164.5832543665859
 20
417.6729766976032
 30
0.0
 11
158.7399651456133
 21
403.3706381196394
 31
0.0
  0
TEXT
  5
A23
330
1E
100
AcDbEntity
  8
TEXT
100
AcDbText
 10
225.1296391125315
 20
71.64011943042154
 30
0.0
 40
5.0
  1
für Flachdach, begehbar
 41
0.8
  7
GREEKS
100
AcDbText
  0
HATCH
  5
A56
330
1E
100
AcDbEntity
  8
SCHRAFF
100
AcDbHatch
 10
0.0
 20
0.0
 30
0.0
210
0.0
220
0.0
230
1.0
  2
_USER
 70
     0
 71
     1
 91
        2
 92
        7
 72
     1
 73
     1
 93
       16
 10
319.2520754626839
 20
395.6936961726515
 42
-0.4142135623730909
 10
315.252075462684
 20
391.6936961726515
 42
0.0
 10
306.3708776162009
 20
391.6936961726514
 42
0.267949192431119
 10
299.4426743859254
 20
387.6936961726515
 42
0.0
 10
296.5559230399773
 20
382.6936961726515
 42
-0.2679491924311268
 10
293.0918214248396
 20
380.6936961726514
 42
0.0
 10
286.752075462684
 20
380.6936961726514
 42
0.0
 10
286.7520754626839
 20
376.6936961726514
 42
0.0
 10
293.0918214248396
 20
376.6936961726514
 42
0.2679491924311235
 10
300.0200246551151
 20
380.6936961726515
 42
0.0
 10
302.9067760010633
 20
385.6936961726514
 42
-0.2679491924311184
 10
306.3708776162009
 20
387.6936961726514
 42
0.0
 10
315.2520754626839
 20
387.6936961726515
 42
0.4142135623730951
 10
323.2520754626839
 20
395.6936961726515
 42
0.0
 10
323.2520754626839
 20
409.6936961726514
 42
0.0
 10
319.2520754626839
 20
409.6936961726514
 42
0.0
 97
       16
330
A62
330
A80
330
A77
330
A65
330
A79
330
A7D
330
A7B
330
A64
330
A5C
330
A66
330
A7C
330
A7A
330
A7F
330
A7E
330
A78
330
A81
 92
        7
 72
     1
 73
     1
 93
       16
 10
126.2520754626839
 20
409.6936961726515
 42
0.0
 10
122.2520754626839
 20
409.6936961726514
 42
0.0
 10
122.2520754626839
 20
395.6936961726515
 42
0.4142135623730909
 10
130.2520754626838
 20
387.6936961726515
 42
0.0
 10
139.1332733091669
 20
387.6936961726514
 42
-0.2679491924311261
 10
142.5973749243047
 20
385.6936961726514
 42
0.0
 10
145.4841262702528
 20
380.6936961726515
 42
0.2679491924311236
 10
152.4123295005282
 20
376.6936961726514
 42
0.0
 10
158.752075462684
 20
376.6936961726514
 42
0.0
 10
158.752075462684
 20
380.6936961726514
 42
0.0
 10
152.4123295005282
 20
380.6936961726514
 42
-0.267949192431123
 10
148.9482278853905
 20
382.6936961726515
 42
0.0
 10
146.0614765394424
 20
387.6936961726514
 42
0.2679491924310834
 10
139.1332733091668
 20
391.6936961726493
 42
0.0
 10
130.2520754626839
 20
391.6936961726492
 42
-0.4142135623730951
 10
126.2520754626839
 20
395.6936961726492
 42
0.0
 97
       16
330
A62
330
A6B
330
A69
330
A6A
330
A72
330
A71
330
A6F
330
A66
330
A5A
330
A64
330
A73
330
A6E
330
A70
330
A65
330
A6D
330
A6C
 75
     0
 76
     0
 52
135.0
 41
5.0
 77
     0
 78
     1
 53
135.0
 43
10.34606308286447
 44
-123.2466711443574
 45
-3.535533905932737
 46
-3.535533905932737
 79
     0
 47
0.4242665979185697
 98
        2
 10
321.0577784961947
 20
399.8357615628727
 10
124.4752856647328
 20
405.3512272498023
  0
HATCH
  5
A57
330
1E
100
AcDbEntity
  8
SCHRAFF
100
AcDbHatch
 10
0.0
 20
0.0
 30
0.0
210
0.0
220
0.0
230
1.0
  2
_USER
 70
     0
 71
     1
 91
        2
 92
        7
 72
     0
 73
     1
 93
        6
 10
158.752075462684
 20
376.6936961726514
 10
156.252075462684
 20
376.6936961726514
 10
156.252075462684
 20
266.3070776162513
 10
157.5644054155728
 20
256.6936961726514
 10
160.0875918757582
 20
256.6936961726514
 10
158.752075462684
 20
266.476928411471
 97
        6
330
A66
330
A59
330
A68
330
A63
330
A58
330
A5A
 92
        7
 72
     0
 73
     1
 93
        6
 10
286.752075462684
 20
266.4769284114712
 10
285.4165590496098
 20
256.6936961726514
 10
287.9397455097951
 20
256.6936961726514
 10
289.2520754626839
 20
266.3070776162517
 10
289.2520754626839
 20
376.6936961726514
 10
286.7520754626839
 20
376.6936961726514
 97
        6
330
A66
330
A5C
330
A5B
330
A63
330
A76
330
A75
 75
     0
 76
     0
 52
45.0
 41
2.0
 77
     0
 78
     1
 53
45.0
 43
10.34606308286447
 44
-123.2466711443574
 45
-1.414213562373094
 46
1.414213562373095
 79
     0
 47
0.4242665979185697
 98
        2
 10
158.4420223368893
 20
343.8325706487197
 10
287.5156265751102
 20
356.1363016887051
  0
LINE
  5
A58
102
{ACAD_REACTORS
330
A57
102
}
330
1E
100
AcDbEntity
  8
STEMPEL
100
AcDbLine
 10
158.752075462684
 20
266.476928411471
 30
0.0
 11
160.0875918757581
 21
256.6936961726514
 31
0.0
  0
LINE
  5
A59
102
{ACAD_REACTORS
330
A57
102
}
330
1E
100
AcDbEntity
  8
STEMPEL
  6
Continuous
100
AcDbLine
 10
156.252075462684
 20
376.6936961726514
 30
0.0
 11
156.252075462684
 21
266.3070776162515
 31
0.0
  0
LINE
  5
A5A
102
{ACAD_REACTORS
330
A57
330
A56
102
}
330
1E
100
AcDbEntity
  8
STEMPEL
  6
Continuous
100
AcDbLine
 10
158.752075462684
 20
380.6936961726514
 30
0.0
 11
158.752075462684
 21
266.476928411471
 31
0.0
  0
LINE
  5
A5B
102
{ACAD_REACTORS
330
A57
102
}
330
1E
100
AcDbEntity
  8
STEMPEL
100
AcDbLine
 10
286.7520754626839
 20
266.476928411471
 30
0.0
 11
285.4165590496098
 21
256.6936961726514
 31
0.0
  0
LINE
  5
A5C
102
{ACAD_REACTORS
330
A57
330
A56
102
}
330
1E
100
AcDbEntity
  8
STEMPEL
  6
Continuous
100
AcDbLine
 10
286.7520754626839
 20
380.6936961726514
 30
0.0
 11
286.7520754626839
 21
266.476928411471
 31
0.0
  0
TEXT
  5
A5D
330
1E
100
AcDbEntity
  8
VOLL
100
AcDbText
 10
217.2485613876005
 20
297.3841385139358
 30
0.0
 40
7.0
  1
DN125
 50
90.0
 41
0.8
  7
GREEKS
100
AcDbText
  0
HATCH
  5
A5E
330
1E
100
AcDbEntity
  8
SCHRAFF
100
AcDbHatch
 10
0.0
 20
0.0
 30
0.0
210
0.0
220
0.0
230
1.0
  2
_USER
 70
     0
 71
     0
 91
        2
 92
        7
 72
     1
 73
     1
 93
        3
 10
293.2520754626839
 20
376.6936961726514
 42
0.0
 10
289.2520754626839
 20
376.6936961726514
 42
0.0
 10
289.2520754626839
 20
372.6936961726514
 42
0.4142135623730951
 97
        0
 92
        7
 72
     1
 73
     1
 93
        3
 10
156.2520754626839
 20
376.6936961726514
 42
0.0
 10
152.252075462684
 20
376.6936961726514
 42
0.414213562373093
 10
156.2520754626839
 20
372.6936961726514
 42
0.0
 97
        0
 75
     0
 76
     0
 52
0.0
 41
0.1
 77
     0
 78
     1
 53
0.0
 43
10.34606308286447
 44
-123.2466711443574
 45
0.0
 46
0.1
 79
     0
 47
0.2046760829870156
 98
        2
 10
276.3213977961145
 20
375.7431972134229
 10
170.2198145604238
 20
375.1291696093913
  0
ARC
  5
A5F
330
1E
100
AcDbEntity
  8
SCHRAFF
100
AcDbCircle
 10
156.252075462684
 20
376.6936961726514
 30
0.0
 40
4.0
100
AcDbArc
 50
180.0
 51
270.0
  0
ARC
  5
A60
330
1E
100
AcDbEntity
  8
SCHRAFF
100
AcDbCircle
 10
289.2520754626839
 20
376.6936961726514
 30
0.0
 40
4.0
100
AcDbArc
 50
270.0
 51
0.0
  0
LINE
  5
A61
330
1E
100
AcDbEntity
  8
HILF
100
AcDbLine
 10
161.2865280065489
 20
266.3943995020688
 30
0.0
 11
284.2176229188191
 21
266.3943995020696
 31
0.0
  0
LINE
  5
A62
102
{ACAD_REACTORS
330
A56
102
}
330
1E
100
AcDbEntity
  8
STEMPEL
  6
Continuous
100
AcDbLine
 10
323.2520754626839
 20
409.6936961726514
 30
0.0
 11
122.252075462684
 21
409.6936961726514
 31
0.0
  0
LINE
  5
A63
102
{ACAD_REACTORS
330
A57
102
}
330
1E
100
AcDbEntity
  8
STEMPEL
100
AcDbLine
 10
157.5644054155727
 20
256.6936961726514
 30
0.0
 11
287.9397455097951
 21
256.6936961726514
 31
0.0
  0
LINE
  5
A64
102
{ACAD_REACTORS
330
A56
102
}
330
1E
100
AcDbEntity
  8
STEMPEL
  6
Continuous
100
AcDbLine
 10
293.0918214248396
 20
380.6936961726514
 30
0.0
 11
152.4123295005282
 21
380.6936961726514
 31
0.0
  0
LINE
  5
A65
102
{ACAD_REACTORS
330
A56
102
}
330
1E
100
AcDbEntity
  8
STEMPEL
  6
Continuous
100
AcDbLine
 10
315.2520754626839
 20
391.6936961726515
 30
0.0
 11
130.2520754626839
 21
391.6936961726492
 31
0.0
  0
LINE
  5
A66
102
{ACAD_REACTORS
330
A57
330
A56
102
}
330
1E
100
AcDbEntity
  8
STEMPEL
  6
Continuous
100
AcDbLine
 10
293.0918214248396
 20
376.6936961726514
 30
0.0
 11
152.4123295005282
 21
376.6936961726514
 31
0.0
  0
LINE
  5
A67
330
1E
100
AcDbEntity
  8
STEMPEL
  6
Continuous
100
AcDbLine
 10
156.2520754626839
 20
376.6936961726514
 30
0.0
 11
156.2520754626839
 21
266.3070776162517
 31
0.0
  0
LINE
  5
A68
102
{ACAD_REACTORS
330
A57
102
}
330
1E
100
AcDbEntity
  8
STEMPEL
100
AcDbLine
 10
156.2520754626839
 20
266.3070776162517
 30
0.0
 11
157.5644054155727
 21
256.6936961726514
 31
0.0
  0
ARC
  5
A69
102
{ACAD_REACTORS
330
A56
102
}
330
1E
100
AcDbEntity
  8
STEMPEL
  6
Continuous
100
AcDbCircle
 10
130.2520754626839
 20
395.6936961726515
 30
0.0
 40
8.0
100
AcDbArc
 50
180.0
 51
270.0
  0
LINE
  5
A6A
102
{ACAD_REACTORS
330
A56
102
}
330
1E
100
AcDbEntity
  8
STEMPEL
  6
Continuous
100
AcDbLine
 10
130.2520754626838
 20
387.6936961726515
 30
0.0
 11
139.1332733091669
 21
387.6936961726514
 31
0.0
  0
LINE
  5
A6B
102
{ACAD_REACTORS
330
A56
102
}
330
1E
100
AcDbEntity
  8
STEMPEL
  6
Continuous
100
AcDbLine
 10
122.2520754626839
 20
409.6936961726514
 30
0.0
 11
122.2520754626839
 21
395.6936961726515
 31
0.0
  0
LINE
  5
A6C
102
{ACAD_REACTORS
330
A56
102
}
330
1E
100
AcDbEntity
  8
STEMPEL
  6
Continuous
100
AcDbLine
 10
126.2520754626839
 20
395.6936961726515
 30
0.0
 11
126.2520754626839
 21
409.6936961726514
 31
0.0
  0
ARC
  5
A6D
102
{ACAD_REACTORS
330
A56
102
}
330
1E
100
AcDbEntity
  8
STEMPEL
  6
Continuous
100
AcDbCircle
 10
130.2520754626839
 20
395.6936961726515
 30
0.0
 40
4.0
100
AcDbArc
 50
180.0
 51
270.0
  0
LINE
  5
A6E
102
{ACAD_REACTORS
330
A56
102
}
330
1E
100
AcDbEntity
  8
STEMPEL
  6
Continuous
100
AcDbLine
 10
146.0614765394424
 20
387.6936961726514
 30
0.0
 11
148.9482278853905
 21
382.6936961726515
 31
0.0
  0
ARC
  5
A6F
102
{ACAD_REACTORS
330
A56
102
}
330
1E
100
AcDbEntity
  8
STEMPEL
  6
Continuous
100
AcDbCircle
 10
152.4123295005282
 20
384.6936961726515
 30
0.0
 40
8.0
100
AcDbArc
 50
210.0000000000005
 51
270.0
  0
ARC
  5
A70
102
{ACAD_REACTORS
330
A56
102
}
330
1E
100
AcDbEntity
  8
STEMPEL
  6
Continuous
100
AcDbCircle
 10
139.1332733091669
 20
383.6936961726514
 30
0.0
 40
8.0
100
AcDbArc
 50
30.00000000000055
 51
90.0
  0
LINE
  5
A71
102
{ACAD_REACTORS
330
A56
102
}
330
1E
100
AcDbEntity
  8
STEMPEL
  6
Continuous
100
AcDbLine
 10
142.5973749243047
 20
385.6936961726514
 30
0.0
 11
145.4841262702528
 21
380.6936961726515
 31
0.0
  0
ARC
  5
A72
102
{ACAD_REACTORS
330
A56
102
}
330
1E
100
AcDbEntity
  8
STEMPEL
  6
Continuous
100
AcDbCircle
 10
139.1332733091669
 20
383.6936961726514
 30
0.0
 40
4.0
100
AcDbArc
 50
30.00000000000055
 51
90.0
  0
ARC
  5
A73
102
{ACAD_REACTORS
330
A56
102
}
330
1E
100
AcDbEntity
  8
STEMPEL
  6
Continuous
100
AcDbCircle
 10
152.4123295005282
 20
384.6936961726515
 30
0.0
 40
4.0
100
AcDbArc
 50
210.0000000000005
 51
270.0
  0
LINE
  5
A74
330
1E
100
AcDbEntity
  8
MITTEL
100
AcDbLine
 10
222.7520754626839
 20
414.6936961726512
 30
0.0
 11
222.7520754626839
 21
251.6936961726514
 31
0.0
  0
LINE
  5
A75
102
{ACAD_REACTORS
330
A57
102
}
330
1E
100
AcDbEntity
  8
STEMPEL
  6
Continuous
100
AcDbLine
 10
289.2520754626839
 20
376.6936961726514
 30
0.0
 11
289.2520754626839
 21
266.3070776162515
 31
0.0
  0
LINE
  5
A76
102
{ACAD_REACTORS
330
A57
102
}
330
1E
100
AcDbEntity
  8
STEMPEL
100
AcDbLine
 10
289.2520754626839
 20
266.3070776162515
 30
0.0
 11
287.9397455097951
 21
256.6936961726514
 31
0.0
  0
ARC
  5
A77
102
{ACAD_REACTORS
330
A56
102
}
330
1E
100
AcDbEntity
  8
STEMPEL
  6
Continuous
100
AcDbCircle
 10
315.2520754626839
 20
395.6936961726515
 30
0.0
 40
4.0
100
AcDbArc
 50
270.0
 51
0.0
  0
ARC
  5
A78
102
{ACAD_REACTORS
330
A56
102
}
330
1E
100
AcDbEntity
  8
STEMPEL
  6
Continuous
100
AcDbCircle
 10
315.2520754626839
 20
395.6936961726515
 30
0.0
 40
8.0
100
AcDbArc
 50
270.0
 51
0.0
  0
ARC
  5
A79
102
{ACAD_REACTORS
330
A56
102
}
330
1E
100
AcDbEntity
  8
STEMPEL
  6
Continuous
100
AcDbCircle
 10
306.370877616201
 20
383.6936961726514
 30
0.0
 40
8.0
100
AcDbArc
 50
90.0
 51
149.9999999999994
  0
LINE
  5
A7A
102
{ACAD_REACTORS
330
A56
102
}
330
1E
100
AcDbEntity
  8
STEMPEL
  6
Continuous
100
AcDbLine
 10
302.9067760010633
 20
385.6936961726514
 30
0.0
 11
300.0200246551151
 21
380.6936961726515
 31
0.0
  0
ARC
  5
A7B
102
{ACAD_REACTORS
330
A56
102
}
330
1E
100
AcDbEntity
  8
STEMPEL
  6
Continuous
100
AcDbCircle
 10
293.0918214248396
 20
384.6936961726515
 30
0.0
 40
4.0
100
AcDbArc
 50
270.0
 51
329.9999999999995
  0
ARC
  5
A7C
102
{ACAD_REACTORS
330
A56
102
}
330
1E
100
AcDbEntity
  8
STEMPEL
  6
Continuous
100
AcDbCircle
 10
293.0918214248396
 20
384.6936961726515
 30
0.0
 40
8.0
100
AcDbArc
 50
270.0
 51
329.9999999999995
  0
LINE
  5
A7D
102
{ACAD_REACTORS
330
A56
102
}
330
1E
100
AcDbEntity
  8
STEMPEL
  6
Continuous
100
AcDbLine
 10
299.4426743859254
 20
387.6936961726514
 30
0.0
 11
296.5559230399773
 21
382.6936961726515
 31
0.0
  0
LINE
  5
A7E
102
{ACAD_REACTORS
330
A56
102
}
330
1E
100
AcDbEntity
  8
STEMPEL
  6
Continuous
100
AcDbLine
 10
315.2520754626839
 20
387.6936961726515
 30
0.0
 11
306.3708776162009
 21
387.6936961726514
 31
0.0
  0
ARC
  5
A7F
102
{ACAD_REACTORS
330
A56
102
}
330
1E
100
AcDbEntity
  8
STEMPEL
  6
Continuous
100
AcDbCircle
 10
306.370877616201
 20
383.6936961726514
 30
0.0
 40
4.0
100
AcDbArc
 50
90.0
 51
149.9999999999994
  0
LINE
  5
A80
102
{ACAD_REACTORS
330
A56
102
}
330
1E
100
AcDbEntity
  8
STEMPEL
  6
Continuous
100
AcDbLine
 10
319.2520754626839
 20
409.6936961726513
 30
0.0
 11
319.2520754626839
 21
395.6936961726515
 31
0.0
  0
LINE
  5
A81
102
{ACAD_REACTORS
330
A56
102
}
330
1E
100
AcDbEntity
  8
STEMPEL
  6
Continuous
100
AcDbLine
 10
323.2520754626839
 20
409.6936961726514
 30
0.0
 11
323.2520754626839
 21
395.6936961726515
 31
0.0
  0
DIMENSION
  5
AA5
330
1E
100
AcDbEntity
  8
BEM
100
AcDbDimension
  2
*D2
 10
107.3237114567382
 20
376.6936961726515
 30
0.0
 11
100.8237114567381
 21
316.6936961726515
 31
0.0
 70
    32
 71
     5
 42
120.0000000000001
  3
Standard
100
AcDbAlignedDimension
 13
157.5644054155727
 23
256.6936961726514
 33
0.0
 14
152.4123295005282
 24
376.6936961726515
 34
0.0
 50
90.0
100
AcDbRotatedDimension
1001
ACAD
1000
DSTYLE
1002
{
1070
    40
1040
2.0
1070
    41
1040
3.5
1070
    42
1040
1.0
1070
    43
1040
7.0
1070
    44
1040
1.0
1070
    73
1070
     0
1070
    74
1070
     0
1070
    77
1070
     1
1070
    78
1070
     8
1070
    79
1070
     2
1070
   140
1040
3.5
1070
   141
1040
1.5
1070
   146
1040
0.5142857142857144
1070
   147
1040
1.5
1070
   172
1070
     1
1070
   178
1070
     1
1070
   179
1070
     2
1070
   271
1070
     2
1070
   272
1070
     2
1070
   284
1070
     8
1070
   285
1070
     8
1070
   286
1070
     8
1002
}
  0
DIMENSION
  5
AB2
330
1E
100
AcDbEntity
  8
BEM
100
AcDbDimension
  2
*D3
 10
107.3237114567382
 20
409.6936961726514
 30
0.0
 11
100.8237114567382
 21
393.1936961726515
 31
0.0
 70
    32
 71
     5
 42
32.99999999999994
  3
Standard
100
AcDbAlignedDimension
 13
152.4123295005282
 23
376.6936961726515
 33
0.0
 14
122.252075462684
 24
409.6936961726514
 34
0.0
 50
90.0
100
AcDbRotatedDimension
1001
ACAD
1000
DSTYLE
1002
{
1070
   279
1070
     1
1070
    40
1040
2.0
1070
    41
1040
3.5
1070
    42
1040
1.0
1070
    43
1040
7.0
1070
    44
1040
1.0
1070
    73
1070
     0
1070
    74
1070
     0
1070
    77
1070
     1
1070
    78
1070
     8
1070
    79
1070
     2
1070
   140
1040
3.5
1070
   141
1040
1.5
1070
   146
1040
0.5142857142857144
1070
   147
1040
1.5
1070
   172
1070
     1
1070
   178
1070
     1
1070
   179
1070
     2
1070
   271
1070
     2
1070
   272
1070
     2
1070
   284
1070
     8
1070
   285
1070
     8
1070
   286
1070
     8
1002
}
  0
DIMENSION
  5
ABF
330
1E
100
AcDbEntity
  8
BEM
100
AcDbDimension
  2
*D4
 10
92.32082092393467
 20
256.6936961726514
 30
0.0
 11
85.82082092393461
 21
333.1936961726515
 31
0.0
 70
    32
 71
     5
 42
153.0
  3
Standard
100
AcDbAlignedDimension
 13
122.252075462684
 23
409.6936961726514
 33
0.0
 14
157.5644054155727
 24
256.6936961726514
 34
0.0
 50
90.0
100
AcDbRotatedDimension
1001
ACAD
1000
DSTYLE
1002
{
1070
    40
1040
2.0
1070
    41
1040
3.5
1070
    42
1040
1.0
1070
    43
1040
7.0
1070
    44
1040
1.0
1070
    73
1070
     0
1070
    74
1070
     0
1070
    77
1070
     1
1070
    78
1070
     8
1070
    79
1070
     2
1070
   140
1040
3.5
1070
   141
1040
1.5
1070
   146
1040
0.5142857142857144
1070
   147
1040
1.5
1070
   172
1070
     1
1070
   178
1070
     1
1070
   179
1070
     2
1070
   271
1070
     2
1070
   272
1070
     2
1070
   284
1070
     8
1070
   285
1070
     8
1070
   286
1070
     8
1002
}
  0
DIMENSION
  5
ACC
330
1E
100
AcDbEntity
  8
BEM
100
AcDbDimension
  2
*D5
 10
289.2520754626839
 20
236.7164769908404
 30
0.0
 11
222.7520754626839
 21
243.2164769908404
 31
0.0
 70
    32
  1
%%c<>
 71
     5
 42
133.0
  3
Standard
100
AcDbAlignedDimension
 13
156.2520754626839
 23
266.3070776162517
 33
0.0
 14
289.2520754626839
 24
266.3070776162515
 34
0.0
100
AcDbRotatedDimension
1001
ACAD
1000
DSTYLE
1002
{
1070
    40
1040
2.0
1070
    41
1040
3.5
1070
    42
1040
1.0
1070
    43
1040
7.0
1070
    44
1040
1.0
1070
    73
1070
     0
1070
    74
1070
     0
1070
    77
1070
     1
1070
    78
1070
     8
1070
    79
1070
     2
1070
   140
1040
3.5
1070
   141
1040
1.5
1070
   146
1040
0.5142857142857144
1070
   147
1040
1.5
1070
   172
1070
     1
1070
   178
1070
     1
1070
   179
1070
     2
1070
   271
1070
     2
1070
   272
1070
     2
1070
   284
1070
     8
1070
   285
1070
     8
1070
   286
1070
     8
1002
}
  0
ENDSEC
  0
SECTION
  2
OBJECTS
  0
DICTIONARY
  5
C
330
0
100
AcDbDictionary
281
     1
  3
ACAD_COLOR
350
DF
  3
ACAD_GROUP
350
D
  3
ACAD_LAYOUT
350
19
  3
ACAD_MATERIAL
350
DE
  3
ACAD_MLINESTYLE
350
16
  3
ACAD_PLOTSETTINGS
350
18
  3
ACAD_PLOTSTYLENAME
350
E
  3
AcDbVariableDictionary
350
EA
  0
DICTIONARY
  5
A0
330
1E
100
AcDbDictionary
280
     1
281
     1
  3
ACAD_LAYOUTSELFREF
360
D4
  0
DICTIONARY
  5
A2
330
1A
100
AcDbDictionary
280
     1
281
     1
  3
ACAD_LAYOUTSELFREF
360
D3
  0
DICTIONARY
  5
DF
102
{ACAD_REACTORS
330
C
102
}
330
C
100
AcDbDictionary
281
     1
  0
DICTIONARY
  5
D
102
{ACAD_REACTORS
330
C
102
}
330
C
100
AcDbDictionary
281
     1
  0
DICTIONARY
  5
19
102
{ACAD_REACTORS
330
C
102
}
330
C
100
AcDbDictionary
281
     1
  3
Layout1
350
1D
  3
Model
350
21
  0
DICTIONARY
  5
DE
102
{ACAD_REACTORS
330
C
102
}
330
C
100
AcDbDictionary
281
     1
  0
DICTIONARY
  5
16
102
{ACAD_REACTORS
330
C
102
}
330
C
100
AcDbDictionary
281
     1
  3
Standard
350
17
  0
DICTIONARY
  5
18
102
{ACAD_REACTORS
330
C
102
}
330
C
100
AcDbDictionary
281
     1
  0
ACDBDICTIONARYWDFLT
  5
E
102
{ACAD_REACTORS
330
C
102
}
330
C
100
AcDbDictionary
281
     1
  3
Normal
350
F
100
AcDbDictionaryWithDefault
340
F
  0
DICTIONARY
  5
EA
102
{ACAD_REACTORS
330
C
102
}
330
C
100
AcDbDictionary
281
     1
  3
DIMASSOC
350
EB
  3
PROJECTNAME
350
EC
  0
XRECORD
  5
D4
102
{ACAD_REACTORS
330
A0
102
}
330
A0
100
AcDbXrecord
280
     1
340
1E
  0
XRECORD
  5
D3
102
{ACAD_REACTORS
330
A2
102
}
330
A2
100
AcDbXrecord
280
     1
340
1A
  0
LAYOUT
  5
1D
102
{ACAD_REACTORS
330
19
102
}
330
19
100
AcDbPlotSettings
  1

  2
\\NT_WORK01\HP LaserJet 5000 PCL 6
  4

  6

 40
0.0
 41
0.0
 42
0.0
 43
0.0
 44
0.0
 45
0.0
 46
0.0
 47
0.0
 48
0.0
 49
0.0
140
0.0
141
0.0
142
1.0
143
1.0
 70
   688
 72
     0
 73
     0
 74
     5
  7

 75
    16
147
1.0
 76
     0
 77
     2
 78
   300
148
0.0
149
0.0
100
AcDbLayout
  1
Layout1
 70
     0
 71
     1
 10
0.0
 20
0.0
 11
12.0
 21
9.0
 12
0.0
 22
0.0
 32
0.0
 14
1.000000000000000E+20
 24
1.000000000000000E+20
 34
1.000000000000000E+20
 15
-1.000000000000000E+20
 25
-1.000000000000000E+20
 35
-1.000000000000000E+20
146
0.0
 13
0.0
 23
0.0
 33
0.0
 16
1.0
 26
0.0
 36
0.0
 17
0.0
 27
1.0
 37
0.0
 76
     0
330
1A
  0
LAYOUT
  5
21
102
{ACAD_REACTORS
330
19
102
}
330
19
100
AcDbPlotSettings
  1

  2
none_device
  4
Letter_(8.50_x_11.00_Inches)
  6

 40
6.349999904632568
 41
6.349999904632568
 42
6.350006103515625
 43
6.350006103515625
 44
215.8999938964844
 45
279.3999938964844
 46
0.0
 47
0.0
 48
0.0
 49
0.0
140
0.0
141
0.0
142
1.0
143
1.0
 70
 11952
 72
     0
 73
     1
 74
     0
  7

 75
     0
147
1.0
 76
     0
 77
     2
 78
   300
148
2308.834842883197
149
99.06852033336205
100
AcDbLayout
  1
Model
 70
     1
 71
     0
 10
0.0
 20
0.0
 11
12.0
 21
9.0
 12
0.0
 22
0.0
 32
0.0
 14
0.0
 24
0.0
 34
0.0
 15
0.0
 25
0.0
 35
0.0
146
0.0
 13
0.0
 23
0.0
 33
0.0
 16
1.0
 26
0.0
 36
0.0
 17
0.0
 27
1.0
 37
0.0
 76
     0
330
1E
  0
MLINESTYLE
  5
17
102
{ACAD_REACTORS
330
16
102
}
330
16
100
AcDbMlineStyle
  2
STANDARD
 70
     0
  3

 62
   256
 51
90.0
 52
90.0
 71
     2
 49
0.5
 62
   256
  6
BYLAYER
 49
-0.5
 62
   256
  6
BYLAYER
  0
ACDBPLACEHOLDER
  5
F
102
{ACAD_REACTORS
330
E
102
}
330
E
  0
DICTIONARYVAR
  5
EB
102
{ACAD_REACTORS
330
EA
102
}
330
EA
100
DictionaryVariables
280
     0
  1
1
  0
DICTIONARYVAR
  5
EC
102
{ACAD_REACTORS
330
EA
102
}
330
EA
100
DictionaryVariables
280
     0
  1

  0
ENDSEC
  0
EOF
