  0
SECTION
  2
HEADER
  9
$ACADVER
  1
AC1018
  9
$ACADMAINTVER
 70
     2
  9
$DWGCODEPAGE
  3
ANSI_1252
  9
$INSBASE
 10
0.0
 20
0.0
 30
0.0
  9
$EXTMIN
 10
-0.043778527968243
 20
-0.0309639658767083
 30
-0.0000000000000053
  9
$EXTMAX
 10
840.0406043276694
 20
594.0188998087733
 30
0.0000000000000099
  9
$LIMMIN
 10
0.0
 20
0.0
  9
$LIMMAX
 10
840.0
 20
594.0
  9
$ORTHOMODE
 70
     1
  9
$REGENMODE
 70
     1
  9
$FILLMODE
 70
     1
  9
$QTEXTMODE
 70
     0
  9
$MIRRTEXT
 70
     1
  9
$LTSCALE
 40
10.0
  9
$ATTMODE
 70
     1
  9
$TEXTSIZE
 40
3.5
  9
$TRACEWID
 40
1.0
  9
$TEXTSTYLE
  7
STANDARD
  9
$CLAYER
  8
VOLL
  9
$CELTYPE
  6
ByLayer
  9
$CECOLOR
 62
   256
  9
$CELTSCALE
 40
1.0
  9
$DISPSILH
 70
     0
  9
$DIMSCALE
 40
2.0
  9
$DIMASZ
 40
3.5
  9
$DIMEXO
 40
1.0
  9
$DIMDLI
 40
7.0
  9
$DIMRND
 40
0.0
  9
$DIMDLE
 40
0.0
  9
$DIMEXE
 40
1.0
  9
$DIMTP
 40
0.0
  9
$DIMTM
 40
0.0
  9
$DIMTXT
 40
3.5
  9
$DIMCEN
 40
1.5
  9
$DIMTSZ
 40
0.0
  9
$DIMTOL
 70
     0
  9
$DIMLIM
 70
     0
  9
$DIMTIH
 70
     0
  9
$DIMTOH
 70
     0
  9
$DIMSE1
 70
     0
  9
$DIMSE2
 70
     0
  9
$DIMTAD
 70
     1
  9
$DIMZIN
 70
     8
  9
$DIMBLK
  1

  9
$DIMASO
 70
     1
  9
$DIMSHO
 70
     0
  9
$DIMPOST
  1

  9
$DIMAPOST
  1

  9
$DIMALT
 70
     0
  9
$DIMALTD
 70
     2
  9
$DIMALTF
 40
25.4
  9
$DIMLFAC
 40
1.0
  9
$DIMTOFL
 70
     1
  9
$DIMTVP
 40
0.0
  9
$DIMTIX
 70
     0
  9
$DIMSOXD
 70
     0
  9
$DIMSAH
 70
     0
  9
$DIMBLK1
  1

  9
$DIMBLK2
  1

  9
$DIMSTYLE
  2
Standard
  9
$DIMCLRD
 70
     0
  9
$DIMCLRE
 70
     0
  9
$DIMCLRT
 70
     1
  9
$DIMTFAC
 40
0.5142857142857144
  9
$DIMGAP
 40
1.5
  9
$DIMJUST
 70
     0
  9
$DIMSD1
 70
     0
  9
$DIMSD2
 70
     0
  9
$DIMTOLJ
 70
     1
  9
$DIMTZIN
 70
     8
  9
$DIMALTZ
 70
     8
  9
$DIMALTTZ
 70
     8
  9
$DIMUPT
 70
     0
  9
$DIMDEC
 70
     2
  9
$DIMTDEC
 70
     2
  9
$DIMALTU
 70
     2
  9
$DIMALTTD
 70
     2
  9
$DIMTXSTY
  7
STANDARD
  9
$DIMAUNIT
 70
     0
  9
$DIMADEC
 70
     2
  9
$DIMALTRND
 40
0.0
  9
$DIMAZIN
 70
     2
  9
$DIMDSEP
 70
    46
  9
$DIMATFIT
 70
     3
  9
$DIMFRAC
 70
     0
  9
$DIMLDRBLK
  1

  9
$DIMLUNIT
 70
     2
  9
$DIMLWD
 70
    -2
  9
$DIMLWE
 70
    -2
  9
$DIMTMOVE
 70
     0
  9
$LUNITS
 70
     2
  9
$LUPREC
 70
     2
  9
$SKETCHINC
 40
1.0
  9
$FILLETRAD
 40
0.0
  9
$AUNITS
 70
     0
  9
$AUPREC
 70
     0
  9
$MENU
  1
ACAD
  9
$ELEVATION
 40
0.0
  9
$PELEVATION
 40
0.0
  9
$THICKNESS
 40
0.0
  9
$LIMCHECK
 70
     0
  9
$CHAMFERA
 40
0.0
  9
$CHAMFERB
 40
0.0
  9
$CHAMFERC
 40
0.0
  9
$CHAMFERD
 40
0.0
  9
$SKPOLY
 70
     0
  9
$TDCREATE
 40
2455397.867059838
  9
$TDUCREATE
 40
2455397.783726505
  9
$TDUPDATE
 40
2455469.449772373
  9
$TDUUPDATE
 40
2455469.366439039
  9
$TDINDWG
 40
0.0488540625
  9
$TDUSRTIMER
 40
0.0488540625
  9
$USRTIMER
 70
     1
  9
$ANGBASE
 50
0.0
  9
$ANGDIR
 70
     0
  9
$PDMODE
 70
     0
  9
$PDSIZE
 40
0.0
  9
$PLINEWID
 40
0.0
  9
$SPLFRAME
 70
     0
  9
$SPLINETYPE
 70
     6
  9
$SPLINESEGS
 70
     8
  9
$HANDSEED
  5
113C
  9
$SURFTAB1
 70
     6
  9
$SURFTAB2
 70
     6
  9
$SURFTYPE
 70
     6
  9
$SURFU
 70
     6
  9
$SURFV
 70
     6
  9
$UCSBASE
  2

  9
$UCSNAME
  2

  9
$UCSORG
 10
0.0
 20
0.0
 30
0.0
  9
$UCSXDIR
 10
1.0
 20
0.0
 30
0.0
  9
$UCSYDIR
 10
0.0
 20
1.0
 30
0.0
  9
$UCSORTHOREF
  2

  9
$UCSORTHOVIEW
 70
     0
  9
$UCSORGTOP
 10
0.0
 20
0.0
 30
0.0
  9
$UCSORGBOTTOM
 10
0.0
 20
0.0
 30
0.0
  9
$UCSORGLEFT
 10
0.0
 20
0.0
 30
0.0
  9
$UCSORGRIGHT
 10
0.0
 20
0.0
 30
0.0
  9
$UCSORGFRONT
 10
0.0
 20
0.0
 30
0.0
  9
$UCSORGBACK
 10
0.0
 20
0.0
 30
0.0
  9
$PUCSBASE
  2

  9
$PUCSNAME
  2

  9
$PUCSORG
 10
0.0
 20
0.0
 30
0.0
  9
$PUCSXDIR
 10
1.0
 20
0.0
 30
0.0
  9
$PUCSYDIR
 10
0.0
 20
1.0
 30
0.0
  9
$PUCSORTHOREF
  2

  9
$PUCSORTHOVIEW
 70
     0
  9
$PUCSORGTOP
 10
0.0
 20
0.0
 30
0.0
  9
$PUCSORGBOTTOM
 10
0.0
 20
0.0
 30
0.0
  9
$PUCSORGLEFT
 10
0.0
 20
0.0
 30
0.0
  9
$PUCSORGRIGHT
 10
0.0
 20
0.0
 30
0.0
  9
$PUCSORGFRONT
 10
0.0
 20
0.0
 30
0.0
  9
$PUCSORGBACK
 10
0.0
 20
0.0
 30
0.0
  9
$USERI1
 70
     0
  9
$USERI2
 70
     0
  9
$USERI3
 70
     0
  9
$USERI4
 70
     0
  9
$USERI5
 70
     0
  9
$USERR1
 40
0.0
  9
$USERR2
 40
0.0
  9
$USERR3
 40
0.0
  9
$USERR4
 40
0.0
  9
$USERR5
 40
0.0
  9
$WORLDVIEW
 70
     1
  9
$SHADEDGE
 70
     3
  9
$SHADEDIF
 70
    70
  9
$TILEMODE
 70
     1
  9
$MAXACTVP
 70
    16
  9
$PINSBASE
 10
0.0
 20
0.0
 30
0.0
  9
$PLIMCHECK
 70
     0
  9
$PEXTMIN
 10
1.000000000000000E+20
 20
1.000000000000000E+20
 30
1.000000000000000E+20
  9
$PEXTMAX
 10
-1.000000000000000E+20
 20
-1.000000000000000E+20
 30
-1.000000000000000E+20
  9
$PLIMMIN
 10
0.0
 20
0.0
  9
$PLIMMAX
 10
12.0
 20
9.0
  9
$UNITMODE
 70
     0
  9
$VISRETAIN
 70
     0
  9
$PLINEGEN
 70
     0
  9
$PSLTSCALE
 70
     0
  9
$TREEDEPTH
 70
  3020
  9
$CMLSTYLE
  2
Standard
  9
$CMLJUST
 70
     0
  9
$CMLSCALE
 40
1.0
  9
$PROXYGRAPHICS
 70
     1
  9
$MEASUREMENT
 70
     0
  9
$CELWEIGHT
370
    -1
  9
$ENDCAPS
280
     0
  9
$JOINSTYLE
280
     0
  9
$LWDISPLAY
290
     0
  9
$INSUNITS
 70
     0
  9
$HYPERLINKBASE
  1

  9
$STYLESHEET
  1
monochrome 1.ctb
  9
$XEDIT
290
     1
  9
$CEPSNTYPE
380
     0
  9
$PSTYLEMODE
290
     1
  9
$FINGERPRINTGUID
  2
{D68B0D0D-A558-11D7-B632-000102183313}
  9
$VERSIONGUID
  2
{0BFE82FE-9F8C-4A70-B8A8-841A40E82047}
  9
$EXTNAMES
290
     1
  9
$PSVPSCALE
 40
0.0
  9
$OLESTARTUP
290
     0
  9
$SORTENTS
280
   127
  9
$INDEXCTL
280
     0
  9
$HIDETEXT
280
     0
  9
$XCLIPFRAME
290
     0
  9
$HALOGAP
280
     0
  9
$OBSCOLOR
 70
   257
  9
$OBSLTYPE
280
     0
  9
$INTERSECTIONDISPLAY
280
     0
  9
$INTERSECTIONCOLOR
 70
   257
  9
$DIMASSOC
280
     1
  9
$PROJECTNAME
  1

  0
ENDSEC
  0
SECTION
  2
CLASSES
  0
CLASS
  1
ACDBDICTIONARYWDFLT
  2
AcDbDictionaryWithDefault
  3
ObjectDBX Classes
 90
        0
 91
        1
280
     0
281
     0
  0
CLASS
  1
DICTIONARYVAR
  2
AcDbDictionaryVar
  3
ObjectDBX Classes
 90
        0
 91
        2
280
     0
281
     0
  0
ENDSEC
  0
SECTION
  2
TABLES
  0
TABLE
  2
VPORT
  5
8
330
0
100
AcDbSymbolTable
 70
     2
  0
VPORT
  5
113B
330
8
100
AcDbSymbolTableRecord
100
AcDbViewportTableRecord
  2
*Active
 70
     0
 10
0.0
 20
0.0
 11
1.0
 21
1.0
 12
419.9984128998504
 22
296.9939679214482
 13
0.0
 23
0.0
 14
1.0
 24
1.0
 15
10.0
 25
10.0
 16
0.0
 26
0.0
 36
1.0
 17
0.0
 27
0.0
 37
0.0
 40
632.1650757800512
 41
1.336927223719676
 42
50.0
 43
0.0
 44
0.0
 50
0.0
 51
0.0
 71
     0
 72
  1500
 73
     1
 74
     0
 75
     0
 76
     0
 77
     0
 78
     0
281
     0
 65
     1
110
0.0
120
0.0
130
0.0
111
1.0
121
0.0
131
0.0
112
0.0
122
1.0
132
0.0
 79
     0
146
0.0
  0
ENDTAB
  0
TABLE
  2
LTYPE
  5
5
330
0
100
AcDbSymbolTable
 70
     3
  0
LTYPE
  5
13
330
5
100
AcDbSymbolTableRecord
100
AcDbLinetypeTableRecord
  2
ByBlock
 70
     0
  3

 72
    65
 73
     0
 40
0.0
  0
LTYPE
  5
14
330
5
100
AcDbSymbolTableRecord
100
AcDbLinetypeTableRecord
  2
ByLayer
 70
     0
  3

 72
    65
 73
     0
 40
0.0
  0
LTYPE
  5
15
330
5
100
AcDbSymbolTableRecord
100
AcDbLinetypeTableRecord
  2
Continuous
 70
     0
  3
Solid line
 72
    65
 73
     0
 40
0.0
  0
LTYPE
  5
25
330
5
100
AcDbSymbolTableRecord
100
AcDbLinetypeTableRecord
  2
STRICHPUNKT
 70
     0
  3
__ . __ . __ . __ . __ . __ . __ . __ . __ . __
 72
    65
 73
     4
 40
1.0
 49
0.5
 74
     0
 49
-0.25
 74
     0
 49
0.0
 74
     0
 49
-0.25
 74
     0
  0
LTYPE
  5
2E3
330
5
100
AcDbSymbolTableRecord
100
AcDbLinetypeTableRecord
  2
VERDECKT
 70
     0
  3
_ _ _ _ _ _ _ _ _ _ _ _ _ _ _ _ _ _ _ _ _ _ _
 72
    65
 73
     2
 40
0.375
 49
0.25
 74
     0
 49
-0.125
 74
     0
  0
ENDTAB
  0
TABLE
  2
LAYER
  5
2
330
0
100
AcDbSymbolTable
 70
    10
  0
LAYER
  5
10
330
2
100
AcDbSymbolTableRecord
100
AcDbLayerTableRecord
  2
0
 70
     0
 62
     7
  6
Continuous
370
    -3
390
F
  0
LAYER
  5
2B
330
2
100
AcDbSymbolTableRecord
100
AcDbLayerTableRecord
  2
VOLL
 70
     0
 62
     1
  6
Continuous
370
    -3
390
F
  0
LAYER
  5
2C
330
2
100
AcDbSymbolTableRecord
100
AcDbLayerTableRecord
  2
HILF
 70
     0
 62
     2
  6
Continuous
370
    -3
390
F
  0
LAYER
  5
2D
330
2
100
AcDbSymbolTableRecord
100
AcDbLayerTableRecord
  2
MITTEL
 70
     0
 62
     2
  6
STRICHPUNKT
370
    -3
390
F
  0
LAYER
  5
2F
330
2
100
AcDbSymbolTableRecord
100
AcDbLayerTableRecord
  2
BEM
 70
     0
 62
     7
  6
Continuous
370
    -3
390
F
  0
LAYER
  5
30
330
2
100
AcDbSymbolTableRecord
100
AcDbLayerTableRecord
  2
STEMPEL
 70
     0
 62
     3
  6
Continuous
370
    -3
390
F
  0
LAYER
  5
33
330
2
100
AcDbSymbolTableRecord
100
AcDbLayerTableRecord
  2
TEXT
 70
     0
 62
     7
  6
Continuous
370
    -3
390
F
  0
LAYER
  5
2E4
330
2
100
AcDbSymbolTableRecord
100
AcDbLayerTableRecord
  2
VERDECKT
 70
     0
 62
     6
  6
VERDECKT
370
    -3
390
F
  0
LAYER
  5
2E5
330
2
100
AcDbSymbolTableRecord
100
AcDbLayerTableRecord
  2
DEFPOINTS
 70
     0
 62
     7
  6
Continuous
290
     0
370
    -3
390
F
  0
LAYER
  5
2E6
330
2
100
AcDbSymbolTableRecord
100
AcDbLayerTableRecord
  2
SCHRAFF
 70
     0
 62
     7
  6
Continuous
370
    -3
390
F
  0
ENDTAB
  0
TABLE
  2
STYLE
  5
3
330
0
100
AcDbSymbolTable
 70
     2
  0
STYLE
  5
11
330
3
100
AcDbSymbolTableRecord
100
AcDbTextStyleTableRecord
  2
STANDARD
 70
     0
 40
0.0
 41
0.8
 50
0.0
 71
     0
 42
3.5
  3
simplex.shx
  4

  0
STYLE
  5
24
330
3
100
AcDbSymbolTableRecord
100
AcDbTextStyleTableRecord
  2
GREEKS
 70
     0
 40
0.0
 41
0.8
 50
0.0
 71
     0
 42
2.5
  3
SIMPLEX.shx
  4

  0
ENDTAB
  0
TABLE
  2
VIEW
  5
6
330
0
100
AcDbSymbolTable
 70
     0
  0
ENDTAB
  0
TABLE
  2
UCS
  5
7
330
0
100
AcDbSymbolTable
 70
     0
  0
ENDTAB
  0
TABLE
  2
APPID
  5
9
330
0
100
AcDbSymbolTable
 70
     1
  0
APPID
  5
12
330
9
100
AcDbSymbolTableRecord
100
AcDbRegAppTableRecord
  2
ACAD
 70
     0
  0
ENDTAB
  0
TABLE
  2
DIMSTYLE
  5
A
330
0
100
AcDbSymbolTable
 70
     1
100
AcDbDimStyleTable
 71
     1
340
A2
  0
DIMSTYLE
105
A2
102
{ACAD_REACTORS
330
CED
330
D72
330
D08
330
D03
330
D07
102
}
330
A
100
AcDbSymbolTableRecord
100
AcDbDimStyleTableRecord
  2
Standard
 70
     0
340
11
  0
ENDTAB
  0
TABLE
  2
BLOCK_RECORD
  5
1
330
0
100
AcDbSymbolTable
 70
    16
  0
BLOCK_RECORD
  5
1E
102
{ACAD_XDICTIONARY
360
DB
102
}
330
1
100
AcDbSymbolTableRecord
100
AcDbBlockTableRecord
  2
*Model_Space
340
21
  0
BLOCK_RECORD
  5
1A
102
{ACAD_XDICTIONARY
360
DD
102
}
330
1
100
AcDbSymbolTableRecord
100
AcDbBlockTableRecord
  2
*Paper_Space
340
1D
  0
BLOCK_RECORD
  5
22
330
1
100
AcDbSymbolTableRecord
100
AcDbBlockTableRecord
  2
LOGO
340
0
102
{BLKREFS
331
56
102
}
  0
BLOCK_RECORD
  5
23
330
1
100
AcDbSymbolTableRecord
100
AcDbBlockTableRecord
  2
LORO
340
0
102
{BLKREFS
331
9B
102
}
  0
BLOCK_RECORD
  5
D73
330
1
100
AcDbSymbolTableRecord
100
AcDbBlockTableRecord
  2
*D2
340
0
  0
BLOCK_RECORD
  5
DB6
330
1
100
AcDbSymbolTableRecord
100
AcDbBlockTableRecord
  2
*D5
340
0
  0
BLOCK_RECORD
  5
DEA
330
1
100
AcDbSymbolTableRecord
100
AcDbBlockTableRecord
  2
*D6
340
0
  0
BLOCK_RECORD
  5
DF7
330
1
100
AcDbSymbolTableRecord
100
AcDbBlockTableRecord
  2
*D7
340
0
  0
BLOCK_RECORD
  5
E1E
330
1
100
AcDbSymbolTableRecord
100
AcDbBlockTableRecord
  2
*D10
340
0
  0
ENDTAB
  0
ENDSEC
  0
SECTION
  2
BLOCKS
  0
BLOCK
  5
37
330
1E
100
AcDbEntity
  8
0
100
AcDbBlockBegin
  2
*Model_Space
 70
     0
 10
0.0
 20
0.0
 30
0.0
  3
*Model_Space
  1

  0
ENDBLK
  5
38
330
1E
100
AcDbEntity
  8
0
100
AcDbBlockEnd
  0
BLOCK
  5
35
330
1A
100
AcDbEntity
 67
     1
  8
0
100
AcDbBlockBegin
  2
*Paper_Space
 70
     0
 10
0.0
 20
0.0
 30
0.0
  3
*Paper_Space
  1

  0
ENDBLK
  5
36
330
1A
100
AcDbEntity
 67
     1
  8
0
100
AcDbBlockEnd
  0
BLOCK
  5
39
330
22
100
AcDbEntity
  8
0
100
AcDbBlockBegin
  2
LOGO
 70
     0
 10
0.0
 20
0.0
 30
0.0
  3
LOGO
  1

  0
ARC
  5
3A
330
22
100
AcDbEntity
  8
0
100
AcDbCircle
 10
11.59973089678112
 20
-9.271599258481501
 30
0.0
 40
4.5
100
AcDbArc
 50
270.0
 51
231.0575587310159
  0
LINE
  5
3B
330
22
100
AcDbEntity
  8
0
100
AcDbLine
 10
3.599730896781125
 20
-4.771599258481529
 30
0.0
 11
3.599730896781153
 21
-11.77159925848133
 31
0.0
  0
LINE
  5
3C
330
22
100
AcDbEntity
  8
0
100
AcDbLine
 10
2.599730896781125
 20
-4.771599258481529
 30
0.0
 11
2.599730896781153
 21
-11.77159925848133
 31
0.0
  0
CIRCLE
  5
3D
330
22
100
AcDbEntity
  8
0
100
AcDbCircle
 10
11.59973089678112
 20
-9.271599258481501
 30
0.0
 40
3.5
  0
ARC
  5
3E
330
22
100
AcDbEntity
  8
0
100
AcDbCircle
 10
31.59973089678115
 20
-9.271599258481472
 30
0.0
 40
4.5
100
AcDbArc
 50
270.0
 51
231.0575587310182
  0
LINE
  5
3F
330
22
100
AcDbEntity
  8
0
100
AcDbLine
 10
17.59973089678112
 20
-4.771599258481472
 30
0.0
 11
17.59973089678115
 21
-13.77159925848147
 31
0.0
  0
ARC
  5
40
330
22
100
AcDbEntity
  8
0
100
AcDbCircle
 10
22.59973089678116
 20
-7.271599258481472
 30
0.0
 40
2.5
100
AcDbArc
 50
293.1161887722295
 51
90.0
  0
CIRCLE
  5
41
330
22
100
AcDbEntity
  8
0
100
AcDbCircle
 10
31.59973089678115
 20
-9.271599258481472
 30
0.0
 40
3.5
  0
ARC
  5
42
330
22
100
AcDbEntity
  8
0
100
AcDbCircle
 10
4.599730896781153
 20
-11.77159925848133
 30
0.0
 40
1.0
100
AcDbArc
 50
180.0
 51
270.0
  0
ARC
  5
43
330
22
100
AcDbEntity
  8
0
100
AcDbCircle
 10
4.599730896781153
 20
-11.77159925848133
 30
0.0
 40
2.0
100
AcDbArc
 50
179.9999999999992
 51
270.0
  0
LINE
  5
44
330
22
100
AcDbEntity
  8
0
100
AcDbLine
 10
11.59973089678115
 20
-13.77159925848144
 30
0.0
 11
4.599730896781153
 21
-13.77159925848147
 31
0.0
  0
LINE
  5
45
330
22
100
AcDbEntity
  8
0
100
AcDbLine
 10
8.771303772034769
 20
-12.77159925848136
 30
0.0
 11
4.599730896781153
 21
-12.77159925848133
 31
0.0
  0
LINE
  5
46
330
22
100
AcDbEntity
  8
0
100
AcDbLine
 10
31.59973089678115
 20
-13.77159925848147
 30
0.0
 11
23.6715276665056
 21
-13.77159925848144
 31
0.0
  0
LINE
  5
47
330
22
100
AcDbEntity
  8
0
100
AcDbLine
 10
23.56565672307022
 20
-9.51278021337896
 30
0.0
 11
24.4388546544846
 21
-12.77159925848144
 31
0.0
  0
LINE
  5
48
330
22
100
AcDbEntity
  8
0
100
AcDbLine
 10
22.59973089678116
 20
-9.771599258481472
 30
0.0
 11
18.59973089678112
 21
-9.771599258481472
 31
0.0
  0
LINE
  5
49
330
22
100
AcDbEntity
  8
0
100
AcDbLine
 10
18.59973089678115
 20
-13.77159925848144
 30
0.0
 11
17.59973089678115
 21
-13.77159925848144
 31
0.0
  0
LINE
  5
4A
330
22
100
AcDbEntity
  8
0
100
AcDbLine
 10
18.59973089678115
 20
-9.771599258481472
 30
0.0
 11
18.59973089678115
 21
-13.77159925848144
 31
0.0
  0
LINE
  5
4B
330
22
100
AcDbEntity
  8
0
100
AcDbLine
 10
22.59973089678116
 20
-9.771599258481472
 30
0.0
 11
23.67152766650562
 21
-13.77159925848147
 31
0.0
  0
ARC
  5
4C
330
22
100
AcDbEntity
  8
0
100
AcDbCircle
 10
22.59973089678116
 20
-7.271599258481472
 30
0.0
 40
2.5
100
AcDbArc
 50
270.0
 51
270.0000000000007
  0
LINE
  5
4D
330
22
100
AcDbEntity
  8
0
100
AcDbLine
 10
28.77130377203494
 20
-12.77159925848147
 30
0.0
 11
24.43885465448463
 21
-12.77159925848144
 31
0.0
  0
LINE
  5
4E
330
22
100
AcDbEntity
  8
0
100
AcDbLine
 10
3.599730896781125
 20
-4.771599258481472
 30
0.0
 11
2.599730896781125
 21
-4.771599258481472
 31
0.0
  0
LINE
  5
4F
330
22
100
AcDbEntity
  8
0
100
AcDbLine
 10
22.59973089678116
 20
-8.771599258481472
 30
0.0
 11
18.59973089678115
 21
-8.771599258481472
 31
0.0
  0
LINE
  5
50
330
22
100
AcDbEntity
  8
0
100
AcDbLine
 10
22.59973089678116
 20
-5.771599258481472
 30
0.0
 11
18.59973089678115
 21
-5.771599258481472
 31
0.0
  0
LINE
  5
51
330
22
100
AcDbEntity
  8
0
100
AcDbLine
 10
22.59973089678116
 20
-4.771599258481472
 30
0.0
 11
17.59973089678115
 21
-4.771599258481472
 31
0.0
  0
LINE
  5
52
330
22
100
AcDbEntity
  8
0
100
AcDbLine
 10
18.59973089678115
 20
-5.771599258481472
 30
0.0
 11
18.59973089678115
 21
-8.771599258481472
 31
0.0
  0
ARC
  5
53
330
22
100
AcDbEntity
  8
0
100
AcDbCircle
 10
22.59973089678116
 20
-7.271599258481472
 30
0.0
 40
1.5
100
AcDbArc
 50
270.0
 51
90.0
  0
ENDBLK
  5
54
330
22
100
AcDbEntity
  8
0
100
AcDbBlockEnd
  0
BLOCK
  5
55
330
23
100
AcDbEntity
  8
0
100
AcDbBlockBegin
  2
LORO
 70
     0
 10
0.0
 20
0.0
 30
0.0
  3
LORO
  1

  0
INSERT
  5
56
330
23
100
AcDbEntity
  8
STEMPEL
100
AcDbBlockReference
  2
LOGO
 10
-1.748032802467321
 20
3.771489518552062
 30
0.0
  0
ENDBLK
  5
57
330
23
100
AcDbEntity
  8
0
100
AcDbBlockEnd
  0
BLOCK
  5
D7E
330
D73
100
AcDbEntity
  8
0
100
AcDbBlockBegin
  2
*D2
 70
     1
 10
0.0
 20
0.0
 30
0.0
  3
*D2
  1

  0
LINE
  5
EF9
330
D73
100
AcDbEntity
  8
BEM
 62
     0
370
    -2
100
AcDbLine
 10
538.7870447834914
 20
468.4504069980437
 30
0.0
 11
538.7870447834914
 21
440.8941396367963
 31
0.0
  0
LINE
  5
EFA
330
D73
100
AcDbEntity
  8
BEM
 62
     0
370
    -2
100
AcDbLine
 10
703.7870447834913
 20
468.4504069980437
 30
0.0
 11
703.7870447834913
 21
440.8941396367963
 31
0.0
  0
LINE
  5
EFB
330
D73
100
AcDbEntity
  8
BEM
 62
     0
370
    -2
100
AcDbLine
 10
545.7870447834913
 20
442.8941396367963
 30
0.0
 11
696.7870447834914
 21
442.8941396367963
 31
0.0
  0
SOLID
  5
EFC
330
D73
100
AcDbEntity
  8
BEM
 62
     0
100
AcDbTrace
 10
545.7870447834913
 20
444.060806303463
 30
0.0
 11
545.7870447834913
 21
441.7274729701296
 31
0.0
 12
538.7870447834914
 22
442.8941396367963
 32
0.0
 13
538.7870447834914
 23
442.8941396367963
 33
0.0
  0
SOLID
  5
EFD
330
D73
100
AcDbEntity
  8
BEM
 62
     0
100
AcDbTrace
 10
696.7870447834914
 20
444.060806303463
 30
0.0
 11
696.7870447834914
 21
441.7274729701296
 31
0.0
 12
703.7870447834913
 22
442.8941396367963
 32
0.0
 13
703.7870447834913
 23
442.8941396367963
 33
0.0
  0
MTEXT
  5
EFE
330
D73
100
AcDbEntity
  8
BEM
 62
     1
100
AcDbMText
 10
621.2870447834914
 20
449.3941396367963
 30
0.0
 40
7.0
 41
0.0
 71
     5
 72
     1
  1
\A1;165
 73
     1
 44
1.0
  0
POINT
  5
EFF
330
D73
100
AcDbEntity
  8
DEFPOINTS
 62
     0
100
AcDbPoint
 10
538.7870447834914
 20
470.4504069980436
 30
0.0
  0
POINT
  5
F00
330
D73
100
AcDbEntity
  8
DEFPOINTS
 62
     0
100
AcDbPoint
 10
703.7870447834913
 20
470.4504069980436
 30
0.0
  0
POINT
  5
F01
330
D73
100
AcDbEntity
  8
DEFPOINTS
 62
     0
100
AcDbPoint
 10
703.7870447834913
 20
442.8941396367963
 30
0.0
  0
ENDBLK
  5
D7F
330
D73
100
AcDbEntity
  8
0
100
AcDbBlockEnd
  0
BLOCK
  5
DC1
330
DB6
100
AcDbEntity
  8
0
100
AcDbBlockBegin
  2
*D5
 70
     1
 10
0.0
 20
0.0
 30
0.0
  3
*D5
  1

  0
LINE
  5
110F
330
DB6
100
AcDbEntity
  8
BEM
 62
     0
370
    -2
100
AcDbLine
 10
206.6278578086131
 20
468.4504069980437
 30
0.0
 11
206.6278578086131
 21
447.3961003383197
 31
0.0
  0
LINE
  5
1110
330
DB6
100
AcDbEntity
  8
BEM
 62
     0
370
    -2
100
AcDbLine
 10
371.627857808613
 20
468.4504069980437
 30
0.0
 11
371.627857808613
 21
447.3961003383197
 31
0.0
  0
LINE
  5
1111
330
DB6
100
AcDbEntity
  8
BEM
 62
     0
370
    -2
100
AcDbLine
 10
213.627857808613
 20
449.3961003383198
 30
0.0
 11
364.6278578086131
 21
449.3961003383198
 31
0.0
  0
SOLID
  5
1112
330
DB6
100
AcDbEntity
  8
BEM
 62
     0
100
AcDbTrace
 10
213.627857808613
 20
450.5627670049864
 30
0.0
 11
213.627857808613
 21
448.2294336716531
 31
0.0
 12
206.6278578086131
 22
449.3961003383198
 32
0.0
 13
206.6278578086131
 23
449.3961003383198
 33
0.0
  0
SOLID
  5
1113
330
DB6
100
AcDbEntity
  8
BEM
 62
     0
100
AcDbTrace
 10
364.6278578086131
 20
450.5627670049864
 30
0.0
 11
364.6278578086131
 21
448.2294336716531
 31
0.0
 12
371.627857808613
 22
449.3961003383198
 32
0.0
 13
371.627857808613
 23
449.3961003383198
 33
0.0
  0
MTEXT
  5
1114
330
DB6
100
AcDbEntity
  8
BEM
 62
     1
100
AcDbMText
 10
289.127857808613
 20
455.8961003383197
 30
0.0
 40
7.0
 41
0.0
 71
     5
 72
     1
  1
\A1;165
 73
     1
 44
1.0
  0
POINT
  5
1115
330
DB6
100
AcDbEntity
  8
DEFPOINTS
 62
     0
100
AcDbPoint
 10
206.6278578086131
 20
470.4504069980436
 30
0.0
  0
POINT
  5
1116
330
DB6
100
AcDbEntity
  8
DEFPOINTS
 62
     0
100
AcDbPoint
 10
371.627857808613
 20
470.4504069980436
 30
0.0
  0
POINT
  5
1117
330
DB6
100
AcDbEntity
  8
DEFPOINTS
 62
     0
100
AcDbPoint
 10
371.627857808613
 20
449.3961003383198
 30
0.0
  0
ENDBLK
  5
DC2
330
DB6
100
AcDbEntity
  8
0
100
AcDbBlockEnd
  0
BLOCK
  5
DF5
330
DEA
100
AcDbEntity
  8
0
100
AcDbBlockBegin
  2
*D6
 70
     1
 10
0.0
 20
0.0
 30
0.0
  3
*D6
  1

  0
LINE
  5
FC9
330
DEA
100
AcDbEntity
  8
BEM
 62
     0
370
    -2
100
AcDbLine
 10
204.6278578086131
 20
470.4504069980436
 30
0.0
 11
188.9737511650729
 21
470.4504069980436
 31
0.0
  0
LINE
  5
FCA
330
DEA
100
AcDbEntity
  8
BEM
 62
     0
370
    -2
100
AcDbLine
 10
202.1278578086131
 20
505.4504069980436
 30
0.0
 11
188.9737511650729
 21
505.4504069980436
 31
0.0
  0
LINE
  5
FCB
330
DEA
100
AcDbEntity
  8
BEM
 62
     0
370
    -2
100
AcDbLine
 10
190.9737511650729
 20
477.4504069980436
 30
0.0
 11
190.9737511650729
 21
498.4504069980435
 31
0.0
  0
SOLID
  5
FCC
330
DEA
100
AcDbEntity
  8
BEM
 62
     0
100
AcDbTrace
 10
189.8070844984063
 20
477.4504069980436
 30
0.0
 11
192.1404178317396
 21
477.4504069980436
 31
0.0
 12
190.9737511650729
 22
470.4504069980436
 32
0.0
 13
190.9737511650729
 23
470.4504069980436
 33
0.0
  0
SOLID
  5
FCD
330
DEA
100
AcDbEntity
  8
BEM
 62
     0
100
AcDbTrace
 10
189.8070844984063
 20
498.4504069980435
 30
0.0
 11
192.1404178317396
 21
498.4504069980435
 31
0.0
 12
190.9737511650729
 22
505.4504069980436
 32
0.0
 13
190.9737511650729
 23
505.4504069980436
 33
0.0
  0
MTEXT
  5
FCE
330
DEA
100
AcDbEntity
  8
BEM
 62
     1
100
AcDbMText
 10
184.4737511650728
 20
487.9504069980437
 30
0.0
 40
7.0
 41
0.0
 71
     5
 72
     1
  1
\A1;35
 11
0.0000000000000001
 21
1.0
 31
0.0
 73
     1
 44
1.0
  0
POINT
  5
FCF
330
DEA
100
AcDbEntity
  8
DEFPOINTS
 62
     0
100
AcDbPoint
 10
206.6278578086131
 20
470.4504069980436
 30
0.0
  0
POINT
  5
FD0
330
DEA
100
AcDbEntity
  8
DEFPOINTS
 62
     0
100
AcDbPoint
 10
204.1278578086131
 20
505.4504069980436
 30
0.0
  0
POINT
  5
FD1
330
DEA
100
AcDbEntity
  8
DEFPOINTS
 62
     0
100
AcDbPoint
 10
190.9737511650729
 20
505.4504069980436
 30
0.0
  0
ENDBLK
  5
DF6
330
DEA
100
AcDbEntity
  8
0
100
AcDbBlockEnd
  0
BLOCK
  5
E02
330
DF7
100
AcDbEntity
  8
0
100
AcDbBlockBegin
  2
*D7
 70
     1
 10
0.0
 20
0.0
 30
0.0
  3
*D7
  1

  0
LINE
  5
1118
330
DF7
100
AcDbEntity
  8
BEM
 62
     0
370
    -2
100
AcDbLine
 10
202.1278578086131
 20
319.9930089903929
 30
0.0
 11
186.4933560756574
 21
319.9930089903929
 31
0.0
  0
LINE
  5
1119
330
DF7
100
AcDbEntity
  8
BEM
 62
     0
370
    -2
100
AcDbLine
 10
202.1278578086131
 20
149.9930089903929
 30
0.0
 11
186.4933560756574
 21
149.9930089903929
 31
0.0
  0
LINE
  5
111A
330
DF7
100
AcDbEntity
  8
BEM
 62
     0
370
    -2
100
AcDbLine
 10
188.4933560756574
 20
312.9930089903929
 30
0.0
 11
188.4933560756574
 21
156.9930089903929
 31
0.0
  0
SOLID
  5
111B
330
DF7
100
AcDbEntity
  8
BEM
 62
     0
100
AcDbTrace
 10
187.3266894089907
 20
312.9930089903929
 30
0.0
 11
189.6600227423241
 21
312.9930089903929
 31
0.0
 12
188.4933560756574
 22
319.9930089903929
 32
0.0
 13
188.4933560756574
 23
319.9930089903929
 33
0.0
  0
SOLID
  5
111C
330
DF7
100
AcDbEntity
  8
BEM
 62
     0
100
AcDbTrace
 10
187.3266894089907
 20
156.9930089903929
 30
0.0
 11
189.660022742324
 21
156.9930089903929
 31
0.0
 12
188.4933560756574
 22
149.9930089903929
 32
0.0
 13
188.4933560756574
 23
149.9930089903929
 33
0.0
  0
MTEXT
  5
111D
330
DF7
100
AcDbEntity
  8
BEM
 62
     1
100
AcDbMText
 10
181.9933560756574
 20
234.993008990393
 30
0.0
 40
7.0
 41
0.0
 71
     5
 72
     1
  1
\A1;170
 11
0.0000000000000001
 21
1.0
 31
0.0
 73
     1
 44
1.0
  0
POINT
  5
111E
330
DF7
100
AcDbEntity
  8
DEFPOINTS
 62
     0
100
AcDbPoint
 10
204.1278578086131
 20
319.9930089903929
 30
0.0
  0
POINT
  5
111F
330
DF7
100
AcDbEntity
  8
DEFPOINTS
 62
     0
100
AcDbPoint
 10
204.1278578086131
 20
149.9930089903929
 30
0.0
  0
POINT
  5
1120
330
DF7
100
AcDbEntity
  8
DEFPOINTS
 62
     0
100
AcDbPoint
 10
188.4933560756574
 20
149.9930089903929
 30
0.0
  0
ENDBLK
  5
E03
330
DF7
100
AcDbEntity
  8
0
100
AcDbBlockEnd
  0
BLOCK
  5
E29
330
E1E
100
AcDbEntity
  8
0
100
AcDbBlockBegin
  2
*D10
 70
     1
 10
0.0
 20
0.0
 30
0.0
  3
*D10
  1

  0
LINE
  5
F02
330
E1E
100
AcDbEntity
  8
BEM
 62
     0
370
    -2
100
AcDbLine
 10
204.1278578086131
 20
147.9930089903929
 30
0.0
 11
204.1278578086131
 21
127.3640196150999
 31
0.0
  0
LINE
  5
F03
330
E1E
100
AcDbEntity
  8
BEM
 62
     0
370
    -2
100
AcDbLine
 10
374.127857808613
 20
147.9930089903928
 30
0.0
 11
374.127857808613
 21
127.3640196150999
 31
0.0
  0
LINE
  5
F04
330
E1E
100
AcDbEntity
  8
BEM
 62
     0
370
    -2
100
AcDbLine
 10
211.127857808613
 20
129.3640196150999
 30
0.0
 11
367.1278578086131
 21
129.3640196150999
 31
0.0
  0
SOLID
  5
F05
330
E1E
100
AcDbEntity
  8
BEM
 62
     0
100
AcDbTrace
 10
211.127857808613
 20
130.5306862817666
 30
0.0
 11
211.127857808613
 21
128.1973529484333
 31
0.0
 12
204.1278578086131
 22
129.3640196150999
 32
0.0
 13
204.1278578086131
 23
129.3640196150999
 33
0.0
  0
SOLID
  5
F06
330
E1E
100
AcDbEntity
  8
BEM
 62
     0
100
AcDbTrace
 10
367.1278578086131
 20
130.5306862817666
 30
0.0
 11
367.1278578086131
 21
128.1973529484333
 31
0.0
 12
374.127857808613
 22
129.3640196150999
 32
0.0
 13
374.127857808613
 23
129.3640196150999
 33
0.0
  0
MTEXT
  5
F07
330
E1E
100
AcDbEntity
  8
BEM
 62
     1
100
AcDbMText
 10
289.127857808613
 20
135.8640196150999
 30
0.0
 40
7.0
 41
0.0
 71
     5
 72
     1
  1
\A1;170
 73
     1
 44
1.0
  0
POINT
  5
F08
330
E1E
100
AcDbEntity
  8
DEFPOINTS
 62
     0
100
AcDbPoint
 10
204.1278578086131
 20
149.9930089903929
 30
0.0
  0
POINT
  5
F09
330
E1E
100
AcDbEntity
  8
DEFPOINTS
 62
     0
100
AcDbPoint
 10
374.127857808613
 20
149.9930089903928
 30
0.0
  0
POINT
  5
F0A
330
E1E
100
AcDbEntity
  8
DEFPOINTS
 62
     0
100
AcDbPoint
 10
374.127857808613
 20
129.3640196150999
 30
0.0
  0
ENDBLK
  5
E2A
330
E1E
100
AcDbEntity
  8
0
100
AcDbBlockEnd
  0
ENDSEC
  0
SECTION
  2
ENTITIES
  0
LINE
  5
58
330
1E
100
AcDbEntity
  8
STEMPEL
100
AcDbLine
 10
830.0000000000002
 20
110.0
 30
0.0
 11
470.0000000000001
 21
110.0
 31
0.0
  0
LINE
  5
59
330
1E
100
AcDbEntity
  8
STEMPEL
100
AcDbLine
 10
470.0000000000001
 20
110.0
 30
0.0
 11
470.0000000000001
 21
10.0
 31
0.0
  0
LINE
  5
5A
330
1E
100
AcDbEntity
  8
STEMPEL
100
AcDbLine
 10
566.0000000000002
 20
109.9999999999999
 30
0.0
 11
566.0000000000001
 21
9.999999999999886
 31
0.0
  0
LINE
  5
5B
330
1E
100
AcDbEntity
  8
STEMPEL
100
AcDbLine
 10
650.0
 20
110.0
 30
0.0
 11
650.0
 21
10.0
 31
0.0
  0
LINE
  5
5C
330
1E
100
AcDbEntity
  8
STEMPEL
100
AcDbLine
 10
752.0000000000002
 20
109.9999999999997
 30
0.0
 11
752.0000000000002
 21
40.0
 31
0.0
  0
LINE
  5
5D
330
1E
100
AcDbEntity
  8
STEMPEL
100
AcDbLine
 10
566.0
 20
30.0
 30
0.0
 11
470.0000000000001
 21
30.0
 31
0.0
  0
LINE
  5
5E
330
1E
100
AcDbEntity
  8
STEMPEL
100
AcDbLine
 10
830.0000000000002
 20
40.0
 30
0.0
 11
566.0000000000001
 21
40.0
 31
0.0
  0
LINE
  5
5F
330
1E
100
AcDbEntity
  8
STEMPEL
100
AcDbLine
 10
830.0000000000002
 20
80.0
 30
0.0
 11
566.0000000000002
 21
80.0
 31
0.0
  0
LINE
  5
60
330
1E
100
AcDbEntity
  8
VOLL
100
AcDbLine
 10
484.0000000000002
 20
110.0
 30
0.0
 11
484.0000000000001
 21
9.999999999999985
 31
0.0
  0
LINE
  5
61
330
1E
100
AcDbEntity
  8
VOLL
100
AcDbLine
 10
524.0000000000001
 20
109.9999999999999
 30
0.0
 11
524.0000000000001
 21
9.999999999999943
 31
0.0
  0
LINE
  5
62
330
1E
100
AcDbEntity
  8
VOLL
100
AcDbLine
 10
544.0000000000002
 20
109.9999999999999
 30
0.0
 11
544.0000000000001
 21
9.999999999999914
 31
0.0
  0
LINE
  5
63
330
1E
100
AcDbEntity
  8
VOLL
100
AcDbLine
 10
584.0000000000002
 20
80.0
 30
0.0
 11
584.0000000000002
 21
40.0
 31
0.0
  0
LINE
  5
64
330
1E
100
AcDbEntity
  8
VOLL
100
AcDbLine
 10
610.0000000000002
 20
109.9999999999998
 30
0.0
 11
610.0000000000001
 21
40.0
 31
0.0
  0
LINE
  5
65
330
1E
100
AcDbEntity
  8
HILF
100
AcDbLine
 10
470.0000000000001
 20
100.0
 30
0.0
 11
566.0000000000002
 21
100.0
 31
0.0
  0
LINE
  5
66
330
1E
100
AcDbEntity
  8
HILF
100
AcDbLine
 10
470.0000000000001
 20
90.0
 30
0.0
 11
566.0000000000002
 21
90.0
 31
0.0
  0
LINE
  5
67
330
1E
100
AcDbEntity
  8
HILF
100
AcDbLine
 10
470.0000000000001
 20
80.0
 30
0.0
 11
566.0000000000002
 21
80.0
 31
0.0
  0
LINE
  5
68
330
1E
100
AcDbEntity
  8
HILF
100
AcDbLine
 10
470.0000000000001
 20
70.0
 30
0.0
 11
566.0000000000002
 21
70.0
 31
0.0
  0
LINE
  5
69
330
1E
100
AcDbEntity
  8
HILF
100
AcDbLine
 10
470.0000000000001
 20
60.0
 30
0.0
 11
566.0000000000002
 21
60.0
 31
0.0
  0
LINE
  5
6A
330
1E
100
AcDbEntity
  8
HILF
100
AcDbLine
 10
470.0000000000001
 20
50.0
 30
0.0
 11
566.0000000000002
 21
50.0
 31
0.0
  0
LINE
  5
6B
330
1E
100
AcDbEntity
  8
HILF
100
AcDbLine
 10
470.0000000000001
 20
40.0
 30
0.0
 11
566.0000000000002
 21
40.0
 31
0.0
  0
LINE
  5
6C
330
1E
100
AcDbEntity
  8
HILF
100
AcDbLine
 10
566.0000000000002
 20
70.0
 30
0.0
 11
650.0
 21
70.0
 31
0.0
  0
LINE
  5
6D
330
1E
100
AcDbEntity
  8
HILF
100
AcDbLine
 10
566.0000000000002
 20
60.0
 30
0.0
 11
650.0
 21
60.0
 31
0.0
  0
LINE
  5
6E
330
1E
100
AcDbEntity
  8
HILF
100
AcDbLine
 10
566.0000000000002
 20
50.0
 30
0.0
 11
650.0
 21
50.0
 31
0.0
  0
LINE
  5
6F
330
1E
100
AcDbEntity
  8
HILF
100
AcDbLine
 10
654.7736801096948
 20
84.03758247564136
 30
0.0
 11
746.6297842514811
 21
84.03758247564136
 31
0.0
  0
LINE
  5
70
330
1E
100
AcDbEntity
  8
HILF
100
AcDbLine
 10
654.7736801096948
 20
70.0
 30
0.0
 11
746.6297842514811
 21
70.0
 31
0.0
  0
LINE
  5
71
330
1E
100
AcDbEntity
  8
HILF
100
AcDbLine
 10
654.7736801096948
 20
60.0
 30
0.0
 11
746.6297842514811
 21
60.0
 31
0.0
  0
LINE
  5
72
330
1E
100
AcDbEntity
  8
HILF
100
AcDbLine
 10
654.7736801096948
 20
50.0
 30
0.0
 11
746.6297842514811
 21
50.0
 31
0.0
  0
LINE
  5
73
330
1E
100
AcDbEntity
  8
VOLL
100
AcDbLine
 10
752.0000000000002
 20
60.0
 30
0.0
 11
830.0000000000002
 21
60.0
 31
0.0
  0
LINE
  5
74
330
1E
100
AcDbEntity
  8
HILF
100
AcDbLine
 10
756.7238616296995
 20
83.77983636955823
 30
0.0
 11
824.858883932673
 21
83.77983636955823
 31
0.0
  0
LINE
  5
75
330
1E
100
AcDbEntity
  8
HILF
100
AcDbLine
 10
654.7736801096948
 20
14.89398258028305
 30
0.0
 11
824.858883932673
 21
14.89398258028305
 31
0.0
  0
TEXT
  5
76
330
1E
100
AcDbEntity
  8
TEXT
100
AcDbText
 10
492.3998239263297
 20
18.67381894984129
 30
0.0
 40
4.0
  1
Änderung
 41
0.8
  7
GREEKS
 72
     1
 11
503.1426810691868
 21
18.67381894984129
 31
0.0
100
AcDbText
  0
TEXT
  5
78
330
1E
100
AcDbEntity
  8
TEXT
100
AcDbText
 10
573.5163572150378
 20
102.4620895087088
 30
0.0
 40
5.0
  1
Maßstab
 41
0.8
  7
GREEKS
100
AcDbText
  0
TEXT
  5
79
330
1E
100
AcDbEntity
  8
TEXT
100
AcDbText
 10
654.8779403809011
 20
102.5489328011779
 30
0.0
 40
5.0
  1
Benennung
 41
0.8
  7
GREEKS
100
AcDbText
  0
TEXT
  5
7A
330
1E
100
AcDbEntity
  8
TEXT
100
AcDbText
 10
756.1787549576343
 20
102.3132034537135
 30
0.0
 40
5.0
  1
Zeichnungs Nr.
 41
0.8
  7
GREEKS
100
AcDbText
  0
TEXT
  5
7B
330
1E
100
AcDbEntity
  8
TEXT
100
AcDbText
 10
654.742238391136
 20
30.84560570193055
 30
0.0
 40
5.0
  1
Bauvorhaben
 41
0.8
  7
GREEKS
100
AcDbText
  0
TEXT
  5
7C
330
1E
100
AcDbEntity
  8
TEXT
100
AcDbText
 10
756.7238616296995
 20
73.18118237099965
 30
0.0
 40
5.0
  1
Ersatz für:
 41
0.8
  7
GREEKS
100
AcDbText
  0
TEXT
  5
7D
330
1E
100
AcDbEntity
  8
TEXT
100
AcDbText
 10
478.2664110704577
 20
13.65465846027187
 30
0.0
 40
4.0
  1
Index
 50
90.0
 41
0.8
  7
GREEKS
100
AcDbText
  0
TEXT
  5
7E
330
1E
100
AcDbEntity
  8
TEXT
100
AcDbText
 10
529.8990113186979
 20
18.67156269339808
 30
0.0
 40
4.0
  1
Tag
 41
0.8
  7
GREEKS
 72
     1
 11
533.6323446520313
 21
18.67156269339808
 31
0.0
100
AcDbText
  0
TEXT
  5
7F
330
1E
100
AcDbEntity
  8
TEXT
100
AcDbText
 10
548.9795678138293
 20
18.59324216966404
 30
0.0
 40
4.0
  1
Name
 41
0.8
  7
GREEKS
 72
     1
 11
555.3033773376388
 21
18.59324216966404
 31
0.0
100
AcDbText
  0
TEXT
  5
80
330
1E
100
AcDbEntity
  8
TEXT
100
AcDbText
 10
592.3311673153651
 20
73.31880501229919
 30
0.0
 40
4.0
  1
Tag
 41
0.8
  7
GREEKS
100
AcDbText
  0
TEXT
  5
81
330
1E
100
AcDbEntity
  8
TEXT
100
AcDbText
 10
622.4626584226296
 20
73.3096109191522
 30
0.0
 40
4.0
  1
Name
 41
0.8
  7
GREEKS
100
AcDbText
  0
TEXT
  5
82
330
1E
100
AcDbEntity
  8
TEXT
100
AcDbText
 10
567.5836127167616
 20
63.62990369617961
 30
0.0
 40
4.0
  1
Gez.
 41
0.8
  7
GREEKS
100
AcDbText
  0
TEXT
  5
83
330
1E
100
AcDbEntity
  8
TEXT
100
AcDbText
 10
567.5515086571673
 20
53.68926291428373
 30
0.0
 40
4.0
  1
Gepr.
 41
0.8
  7
GREEKS
100
AcDbText
  0
TEXT
  5
84
330
1E
100
AcDbEntity
  8
TEXT
100
AcDbText
 10
567.6006777387304
 20
43.52946389649804
 30
0.0
 40
4.0
  1
Norm.
 41
0.8
  7
GREEKS
100
AcDbText
  0
TEXT
  5
85
330
1E
100
AcDbEntity
  8
TEXT
100
AcDbText
 10
757.2400861497007
 20
52.07416177878596
 30
0.0
 40
5.0
  1
ersetzt durch:
 41
0.8
  7
GREEKS
100
AcDbText
  0
TEXT
  5
86
330
1E
100
AcDbEntity
  8
TEXT
100
AcDbText
 10
568.8693027807324
 20
72.96682596523723
 30
0.0
 40
4.0
  1
2008
 41
0.8
  7
GREEKS
100
AcDbText
  0
LINE
  5
87
330
1E
100
AcDbEntity
  8
HILF
100
AcDbLine
 10
0.0
 20
0.0
 30
0.0
 11
840.0
 21
0.0
 31
0.0
  0
LINE
  5
88
330
1E
100
AcDbEntity
  8
HILF
100
AcDbLine
 10
840.0
 20
0.0
 30
0.0
 11
840.0
 21
594.0
 31
0.0
  0
LINE
  5
89
330
1E
100
AcDbEntity
  8
HILF
100
AcDbLine
 10
840.0
 20
594.0
 30
0.0
 11
0.0
 21
594.0
 31
0.0
  0
LINE
  5
8B
330
1E
100
AcDbEntity
  8
STEMPEL
100
AcDbLine
 10
830.0
 20
584.0
 30
0.0
 11
40.0
 21
584.0
 31
0.0
  0
LINE
  5
8D
330
1E
100
AcDbEntity
  8
STEMPEL
100
AcDbLine
 10
40.0
 20
10.0
 30
0.0
 11
830.0
 21
10.0
 31
0.0
  0
LINE
  5
8E
330
1E
100
AcDbEntity
  8
STEMPEL
100
AcDbLine
 10
830.0
 20
10.0
 30
0.0
 11
830.0
 21
584.0
 31
0.0
  0
TEXT
  5
8F
330
1E
100
AcDbEntity
  8
TEXT
 62
     1
100
AcDbText
 10
655.0390572473189
 20
87.37343075652544
 30
0.0
 40
7.0
  1
Sieb  170 mm
 41
0.8
  7
GREEKS
100
AcDbText
  0
TEXT
  5
90
330
1E
100
AcDbEntity
  8
TEXT
 62
     1
100
AcDbText
 10
767.1961422184136
 20
87.37343075652544
 30
0.0
 40
7.0
  1
18616000W
 41
0.8
  7
GREEKS
 72
     1
 11
790.1294755517469
 21
87.37343075652544
 31
0.0
100
AcDbText
  0
TEXT
  5
91
330
1E
100
AcDbEntity
  8
TEXT
100
AcDbText
 10
618.509022641583
 20
102.83989611379
 30
0.0
 40
5.0
  1
Zul.Abw.
 41
0.8
  7
GREEKS
100
AcDbText
  0
TEXT
  5
93
330
1E
100
AcDbEntity
  8
TEXT
100
AcDbText
 10
590.7660475607107
 20
63.1508587612022
 30
0.0
 40
4.0
  1
11.06.
 41
0.8
  7
GREEKS
 72
     1
 11
597.1660475607107
 21
63.1508587612022
 31
0.0
100
AcDbText
  0
TEXT
  5
94
330
1E
100
AcDbEntity
  8
TEXT
100
AcDbText
 10
624.023175322661
 20
62.94297655165468
 30
0.0
 40
4.0
  1
Koeh
 41
0.8
  7
GREEKS
 72
     1
 11
629.2803181798038
 21
62.94297655165468
 31
0.0
100
AcDbText
  0
TEXT
  5
95
330
1E
100
AcDbEntity
  8
TEXT
100
AcDbText
 10
654.3410940884992
 20
72.10021383107525
 30
0.0
 40
5.0
  1
Kl. M (12.5t)
 41
0.8
  7
GREEKS
100
AcDbText
  0
TEXT
  5
96
330
1E
100
AcDbEntity
  8
TEXT
100
AcDbText
 10
654.3410940884992
 20
62.34559085209035
 30
0.0
 40
5.0
  1

 41
0.8
  7
GREEKS
100
AcDbText
  0
TEXT
  5
97
330
1E
100
AcDbEntity
  8
TEXT
100
AcDbText
 10
654.3410940884992
 20
52.59097337846058
 30
0.0
 40
5.0
  1
EDV-Art.Nr. 18616.000X
 41
0.8
  7
GREEKS
100
AcDbText
  0
TEXT
  5
98
330
1E
100
AcDbEntity
  8
TEXT
100
AcDbText
 10
654.1676050109348
 20
43.31127624791508
 30
0.0
 40
4.0
  1
18616000W.DWG
 41
0.8
  7
GREEKS
100
AcDbText
  0
TEXT
  5
99
330
1E
100
AcDbEntity
  8
TEXT
 62
     1
100
AcDbText
 10
582.7034912034222
 20
87.47077088414977
 30
0.0
 40
7.0
  1
1:2
 41
0.8
  7
GREEKS
100
AcDbText
  0
TEXT
  5
9A
330
1E
100
AcDbEntity
  8
TEXT
100
AcDbText
 10
470.0441139350127
 20
114.1143585051043
 30
0.0
 40
5.0
  1
Erstellt mit AUTOCAD 2004
 41
0.8
  7
GREEKS
100
AcDbText
  0
INSERT
  5
9B
330
1E
100
AcDbEntity
  8
HILF
100
AcDbBlockReference
  2
LORO
 10
573.0624985962354
 20
36.9805930029896
 30
0.0
 41
2.0
 42
2.0
 43
2.0
  0
LINE
  5
9C
330
1E
100
AcDbEntity
  8
BEM
100
AcDbLine
 10
456.0
 20
0.0
 30
0.0
 11
456.0
 21
10.0
 31
0.0
  0
LINE
  5
13E
330
1E
100
AcDbEntity
  8
HILF
100
AcDbLine
 10
0.0
 20
0.0
 30
0.0
 11
0.0
 21
594.0
 31
0.0
  0
LINE
  5
13F
330
1E
100
AcDbEntity
  8
STEMPEL
100
AcDbLine
 10
40.0
 20
10.0
 30
0.0
 11
40.0
 21
584.0
 31
0.0
  0
LINE
  5
14A
330
1E
100
AcDbEntity
  8
HILF
100
AcDbLine
 10
0.0
 20
297.0
 30
0.0
 11
40.0
 21
297.0
 31
0.0
  0
TEXT
  5
15B
330
1E
100
AcDbEntity
  8
BEM
100
AcDbText
 10
837.3022923857165
 20
10.16790107998861
 30
0.0
 40
4.0
  1
Diese Zeichnung ist urheberrechtlich geschützt und bleibt unser Eigentum. Sie darf weder ganz noch teilweise verfielfältigt und nicht an Dritte weitergegeben werden.
 50
90.0
 41
0.8
  7
GREEKS
100
AcDbText
  0
TEXT
  5
B3D
330
1E
100
AcDbEntity
  8
TEXT
100
AcDbText
 10
615.2612705607563
 20
89.31728464863926
 30
0.0
 40
4.0
  1
DIN 7168-g
 41
0.8
  7
GREEKS
 72
     1
 11
629.2803181798038
 21
89.31728464863926
 31
0.0
100
AcDbText
  0
LWPOLYLINE
  5
B3F
330
1E
100
AcDbEntity
  8
TEXT
 62
     1
100
AcDbPolyline
 90
        4
 70
     1
 43
0.0
 10
673.9422522324367
 20
94.25843713376025
 10
673.9422522324367
 20
87.25843713376026
 10
680.9422522324366
 20
87.25843713376026
 10
680.9422522324366
 20
94.25843713376025
  0
DIMENSION
  5
CED
330
1E
100
AcDbEntity
  8
BEM
100
AcDbDimension
  2
*D2
 10
703.7870447834913
 20
442.8941396367963
 30
0.0
 11
621.2870447834914
 21
449.3941396367963
 31
0.0
 70
    32
 71
     5
 42
165.0
  3
Standard
100
AcDbAlignedDimension
 13
538.7870447834914
 23
470.4504069980436
 33
0.0
 14
703.7870447834913
 24
470.4504069980436
 34
0.0
100
AcDbRotatedDimension
1001
ACAD
1000
DSTYLE
1002
{
1070
    40
1040
2.0
1070
    41
1040
3.5
1070
    42
1040
1.0
1070
    43
1040
7.0
1070
    44
1040
1.0
1070
    73
1070
     0
1070
    74
1070
     0
1070
    77
1070
     1
1070
    78
1070
     8
1070
    79
1070
     2
1070
   140
1040
3.5
1070
   141
1040
1.5
1070
   146
1040
0.5142857142857144
1070
   147
1040
1.5
1070
   172
1070
     1
1070
   178
1070
     1
1070
   179
1070
     2
1070
   271
1070
     2
1070
   272
1070
     2
1070
   284
1070
     8
1070
   285
1070
     8
1070
   286
1070
     8
1002
}
  0
LWPOLYLINE
  5
CF1
330
1E
100
AcDbEntity
  8
HILF
100
AcDbPolyline
 90
        9
 70
     0
 43
0.0
 10
563.6748517535874
 20
505.4504069980436
 42
0.0389166475711639
 10
562.431093563076
 20
499.6740872587953
 42
0.0538386143268769
 10
562.3168495801771
 20
495.3986680721814
 42
0.0406455020402559
 10
563.1032799131237
 20
490.5898704036544
 42
-0.0604226491566674
 10
563.5051019708555
 20
487.3302166417133
 42
-0.1062922101360153
 10
562.7063394556308
 20
483.579631472303
 42
0.0765005216108854
 10
561.2983469722305
 20
478.4707414189674
 42
0.0762591102892893
 10
561.417313674947
 20
475.1681329363684
 42
0.0510223449105021
 10
562.8261008841506
 20
470.4504069980437
  0
LWPOLYLINE
  5
CF3
330
1E
100
AcDbEntity
  8
HILF
100
AcDbPolyline
 90
        2
 70
     0
 43
0.0
 10
350.9527347395918
 20
471.4504069980436
 10
350.9527347395918
 20
471.4504069980436
  0
LWPOLYLINE
  5
CF4
102
{ACAD_REACTORS
330
10FC
102
}
330
1E
100
AcDbEntity
  8
HILF
100
AcDbPolyline
 90
        9
 70
     0
 43
0.0
 10
306.0986683191966
 20
505.4504069980435
 42
0.0389166475711639
 10
304.8549101286852
 20
499.6740872587952
 42
0.0538386143268769
 10
304.7406661457864
 20
495.3986680721813
 42
0.0406455020402559
 10
305.5270964787329
 20
490.5898704036544
 42
-0.0604226491566674
 10
305.9289185364648
 20
487.3302166417132
 42
-0.1062922101360153
 10
305.13015602124
 20
483.579631472303
 42
0.0765005216108854
 10
303.7221635378397
 20
478.4707414189674
 42
0.0762591102892893
 10
303.8411302405563
 20
475.1681329363684
 42
0.0510223449105021
 10
305.2499174497598
 20
470.4504069980436
  0
POLYLINE
  5
CF8
102
{ACAD_REACTORS
330
10FC
102
}
330
1E
100
AcDbEntity
  8
HILF
100
AcDb2dPolyline
 66
     1
 10
0.0
 20
0.0
 30
0.0
 70
     2
  0
VERTEX
  5
CF9
330
CF8
100
AcDbEntity
  8
HILF
100
AcDbVertex
100
AcDb2dVertex
 10
275.2041042057785
 20
505.4504069980436
 30
0.0
 42
0.0389166475711639
  0
VERTEX
  5
CFA
330
CF8
100
AcDbEntity
  8
HILF
100
AcDbVertex
100
AcDb2dVertex
 10
273.9603460152672
 20
499.6740872587953
 30
0.0
 42
0.0538386143268769
 70
     1
  0
VERTEX
  5
CFB
330
CF8
100
AcDbEntity
  8
HILF
100
AcDbVertex
100
AcDb2dVertex
 10
273.8461020323683
 20
495.3986680721814
 30
0.0
 42
0.0406455020402559
  0
VERTEX
  5
CFC
330
CF8
100
AcDbEntity
  8
HILF
100
AcDbVertex
100
AcDb2dVertex
 10
274.6325323653149
 20
490.5898704036544
 30
0.0
 42
-0.0604226491566674
 70
     1
  0
VERTEX
  5
CFD
330
CF8
100
AcDbEntity
  8
HILF
100
AcDbVertex
100
AcDb2dVertex
 10
275.0343544230468
 20
487.3302166417133
 30
0.0
 42
-0.1062922101360153
  0
VERTEX
  5
CFE
330
CF8
100
AcDbEntity
  8
HILF
100
AcDbVertex
100
AcDb2dVertex
 10
274.2355919078219
 20
483.579631472303
 30
0.0
 42
0.0765005216108854
 70
     1
  0
VERTEX
  5
CFF
330
CF8
100
AcDbEntity
  8
HILF
100
AcDbVertex
100
AcDb2dVertex
 10
272.8275994244217
 20
478.4707414189674
 30
0.0
 42
0.0762591102892893
  0
VERTEX
  5
D00
330
CF8
100
AcDbEntity
  8
HILF
100
AcDbVertex
100
AcDb2dVertex
 10
272.9465661271382
 20
475.1681329363684
 30
0.0
 42
0.0510223449105023
 70
     1
  0
VERTEX
  5
D01
330
CF8
100
AcDbEntity
  8
HILF
100
AcDbVertex
100
AcDb2dVertex
 10
274.3553533363416
 20
470.4504069980436
 30
0.0
  0
SEQEND
  5
D02
330
CF8
100
AcDbEntity
  8
HILF
  0
DIMENSION
  5
D03
330
1E
100
AcDbEntity
  8
BEM
100
AcDbDimension
  2
*D5
 10
371.627857808613
 20
449.3961003383198
 30
0.0
 11
289.127857808613
 21
455.8961003383197
 31
0.0
 70
    32
 71
     5
 42
165.0
  3
Standard
100
AcDbAlignedDimension
 13
206.6278578086131
 23
470.4504069980436
 33
0.0
 14
371.627857808613
 24
470.4504069980436
 34
0.0
100
AcDbRotatedDimension
1001
ACAD
1000
DSTYLE
1002
{
1070
    40
1040
2.0
1070
    41
1040
3.5
1070
    42
1040
1.0
1070
    43
1040
7.0
1070
    44
1040
1.0
1070
    73
1070
     0
1070
    74
1070
     0
1070
    77
1070
     1
1070
    78
1070
     8
1070
    79
1070
     2
1070
   140
1040
3.5
1070
   141
1040
1.5
1070
   146
1040
0.5142857142857144
1070
   147
1040
1.5
1070
   172
1070
     1
1070
   178
1070
     1
1070
   179
1070
     2
1070
   271
1070
     2
1070
   272
1070
     2
1070
   284
1070
     8
1070
   285
1070
     8
1070
   286
1070
     8
1002
}
  0
DIMENSION
  5
D07
330
1E
100
AcDbEntity
  8
BEM
100
AcDbDimension
  2
*D6
 10
190.9737511650729
 20
505.4504069980436
 30
0.0
 11
184.4737511650728
 21
487.9504069980437
 31
0.0
 70
    32
 71
     5
 42
34.99999999999995
  3
Standard
100
AcDbAlignedDimension
 13
206.6278578086131
 23
470.4504069980436
 33
0.0
 14
204.1278578086131
 24
505.4504069980436
 34
0.0
 50
90.0
100
AcDbRotatedDimension
1001
ACAD
1000
DSTYLE
1002
{
1070
    40
1040
2.0
1070
    41
1040
3.5
1070
    42
1040
1.0
1070
    43
1040
7.0
1070
    44
1040
1.0
1070
    73
1070
     0
1070
    74
1070
     0
1070
    77
1070
     1
1070
    78
1070
     8
1070
    79
1070
     2
1070
   140
1040
3.5
1070
   141
1040
1.5
1070
   146
1040
0.5142857142857144
1070
   147
1040
1.5
1070
   172
1070
     1
1070
   178
1070
     1
1070
   179
1070
     2
1070
   271
1070
     2
1070
   272
1070
     2
1070
   284
1070
     8
1070
   285
1070
     8
1070
   286
1070
     8
1002
}
  0
DIMENSION
  5
D08
330
1E
100
AcDbEntity
  8
BEM
100
AcDbDimension
  2
*D7
 10
188.4933560756574
 20
149.9930089903929
 30
0.0
 11
181.9933560756574
 21
234.993008990393
 31
0.0
 70
    32
 71
     5
 42
169.9999999999999
  3
Standard
100
AcDbAlignedDimension
 13
204.1278578086131
 23
319.9930089903929
 33
0.0
 14
204.1278578086131
 24
149.9930089903929
 34
0.0
 50
90.0
100
AcDbRotatedDimension
1001
ACAD
1000
DSTYLE
1002
{
1070
    40
1040
2.0
1070
    41
1040
3.5
1070
    42
1040
1.0
1070
    43
1040
7.0
1070
    44
1040
1.0
1070
    73
1070
     0
1070
    74
1070
     0
1070
    77
1070
     1
1070
    78
1070
     8
1070
    79
1070
     2
1070
   140
1040
3.5
1070
   141
1040
1.5
1070
   146
1040
0.5142857142857144
1070
   147
1040
1.5
1070
   172
1070
     1
1070
   178
1070
     1
1070
   179
1070
     2
1070
   271
1070
     2
1070
   272
1070
     2
1070
   284
1070
     8
1070
   285
1070
     8
1070
   286
1070
     8
1002
}
  0
ARC
  5
D0B
330
1E
100
AcDbEntity
  8
VERDECKT
100
AcDbCircle
 10
693.0970199077154
 20
472.4504069980437
 30
0.0
 40
2.0
100
AcDbArc
 50
180.0
 51
270.0
  0
LINE
  5
D0C
330
1E
100
AcDbEntity
  8
VERDECKT
100
AcDbLine
 10
687.7870447834911
 20
505.4504069980436
 30
0.0
 11
691.1069455272954
 21
472.2513995600016
 31
0.0
  0
ARC
  5
D0D
102
{ACAD_REACTORS
330
FA9
102
}
330
1E
100
AcDbEntity
  8
STEMPEL
100
AcDbCircle
 10
549.4770696592673
 20
472.4504069980437
 30
0.0
 40
2.0
100
AcDbArc
 50
270.0
 51
0.0
  0
ARC
  5
D0E
330
1E
100
AcDbEntity
  8
VERDECKT
100
AcDbCircle
 10
217.3178826843889
 20
472.4504069980436
 30
0.0
 40
2.0
100
AcDbArc
 50
270.0
 51
0.0
  0
LINE
  5
D0F
330
1E
100
AcDbEntity
  8
VERDECKT
100
AcDbLine
 10
222.627857808613
 20
505.4504069980435
 30
0.0
 11
219.3079570648089
 21
472.2513995600016
 31
0.0
  0
ARC
  5
D10
330
1E
100
AcDbEntity
  8
VERDECKT
100
AcDbCircle
 10
240.9378329328373
 20
472.4504069980436
 30
0.0
 40
2.0
100
AcDbArc
 50
180.0
 51
270.0
  0
LINE
  5
D11
330
1E
100
AcDbEntity
  8
VERDECKT
100
AcDbLine
 10
235.6278578086131
 20
505.4504069980436
 30
0.0
 11
238.9477585524173
 21
472.2513995600016
 31
0.0
  0
ARC
  5
D12
330
1E
100
AcDbEntity
  8
VERDECKT
100
AcDbCircle
 10
247.3178826843889
 20
472.4504069980436
 30
0.0
 40
2.0
100
AcDbArc
 50
270.0
 51
0.0
  0
LINE
  5
D13
330
1E
100
AcDbEntity
  8
VERDECKT
100
AcDbLine
 10
252.627857808613
 20
505.4504069980435
 30
0.0
 11
249.3079570648089
 21
472.2513995600016
 31
0.0
  0
ARC
  5
D14
330
1E
100
AcDbEntity
  8
VERDECKT
100
AcDbCircle
 10
270.9378329328373
 20
472.4504069980436
 30
0.0
 40
2.0
100
AcDbArc
 50
180.0
 51
270.0
  0
LINE
  5
D15
330
1E
100
AcDbEntity
  8
VERDECKT
100
AcDbLine
 10
265.627857808613
 20
505.4504069980436
 30
0.0
 11
268.9477585524173
 21
472.2513995600016
 31
0.0
  0
ARC
  5
D16
330
1E
100
AcDbEntity
  8
VERDECKT
100
AcDbCircle
 10
337.3178826843889
 20
472.4504069980437
 30
0.0
 40
2.0
100
AcDbArc
 50
270.0
 51
0.0
  0
LINE
  5
D17
330
1E
100
AcDbEntity
  8
VERDECKT
100
AcDbLine
 10
342.6278578086132
 20
505.4504069980436
 30
0.0
 11
339.3079570648089
 21
472.2513995600016
 31
0.0
  0
ARC
  5
D18
330
1E
100
AcDbEntity
  8
VERDECKT
100
AcDbCircle
 10
360.9378329328373
 20
472.4504069980437
 30
0.0
 40
2.0
100
AcDbArc
 50
180.0
 51
270.0
  0
LINE
  5
D19
330
1E
100
AcDbEntity
  8
VERDECKT
100
AcDbLine
 10
355.6278578086132
 20
505.4504069980437
 30
0.0
 11
358.9477585524173
 21
472.2513995600016
 31
0.0
  0
ARC
  5
D1A
330
1E
100
AcDbEntity
  8
VERDECKT
100
AcDbCircle
 10
307.3178826843889
 20
472.4504069980437
 30
0.0
 40
2.0
100
AcDbArc
 50
270.0
 51
0.0
  0
LINE
  5
D1B
330
1E
100
AcDbEntity
  8
VERDECKT
100
AcDbLine
 10
312.6278578086131
 20
505.4504069980436
 30
0.0
 11
309.3079570648089
 21
472.2513995600016
 31
0.0
  0
ARC
  5
D1C
330
1E
100
AcDbEntity
  8
VERDECKT
100
AcDbCircle
 10
330.9378329328373
 20
472.4504069980437
 30
0.0
 40
2.0
100
AcDbArc
 50
180.0
 51
270.0
  0
LINE
  5
D1D
330
1E
100
AcDbEntity
  8
VERDECKT
100
AcDbLine
 10
325.627857808613
 20
505.4504069980437
 30
0.0
 11
328.9477585524173
 21
472.2513995600016
 31
0.0
  0
ARC
  5
D1E
102
{ACAD_REACTORS
330
10FC
102
}
330
1E
100
AcDbEntity
  8
STEMPEL
100
AcDbCircle
 10
300.9378329328373
 20
472.4504069980437
 30
0.0
 40
2.0
100
AcDbArc
 50
180.0
 51
270.0
  0
ARC
  5
D1F
102
{ACAD_REACTORS
330
10FC
102
}
330
1E
100
AcDbEntity
  8
STEMPEL
100
AcDbCircle
 10
277.3178826843889
 20
472.4504069980437
 30
0.0
 40
2.0
100
AcDbArc
 50
270.0
 51
0.0
  0
LINE
  5
D20
102
{ACAD_REACTORS
330
10FC
102
}
330
1E
100
AcDbEntity
  8
STEMPEL
100
AcDbLine
 10
295.6278578086131
 20
505.4504069980437
 30
0.0
 11
298.9477585524173
 21
472.2513995600016
 31
0.0
  0
LINE
  5
D21
102
{ACAD_REACTORS
330
10FC
102
}
330
1E
100
AcDbEntity
  8
STEMPEL
100
AcDbLine
 10
282.627857808613
 20
505.4504069980436
 30
0.0
 11
279.3079570648089
 21
472.2513995600016
 31
0.0
  0
LINE
  5
D22
102
{ACAD_REACTORS
330
FA9
102
}
330
1E
100
AcDbEntity
  8
STEMPEL
100
AcDbLine
 10
554.7870447834915
 20
505.4504069980436
 30
0.0
 11
551.4671440396873
 21
472.2513995600016
 31
0.0
  0
LINE
  5
D23
330
1E
100
AcDbEntity
  8
VERDECKT
100
AcDbLine
 10
204.1278578086131
 20
149.9930089903929
 30
0.0
 11
204.6992863800415
 21
150.5630089903928
 31
0.0
  0
LINE
  5
D24
330
1E
100
AcDbEntity
  8
VERDECKT
100
AcDbLine
 10
374.127857808613
 20
149.9930089903928
 30
0.0
 11
373.5484156726014
 21
150.5644375618213
 31
0.0
  0
LINE
  5
D25
330
1E
100
AcDbEntity
  8
VERDECKT
100
AcDbLine
 10
374.127857808613
 20
319.9930089903929
 30
0.0
 11
373.5564292371846
 21
319.4230089903929
 31
0.0
  0
LINE
  5
D26
330
1E
100
AcDbEntity
  8
VERDECKT
100
AcDbLine
 10
204.1278578086131
 20
319.9930089903929
 30
0.0
 11
204.6992863800416
 21
319.4230089903929
 31
0.0
  0
ARC
  5
D27
330
1E
100
AcDbEntity
  8
VERDECKT
100
AcDbCircle
 10
349.1278578086132
 20
294.9930089903929
 30
0.0
 40
10.0
100
AcDbArc
 50
0.0
 51
180.0
  0
LINE
  5
D28
330
1E
100
AcDbEntity
  8
VERDECKT
100
AcDbLine
 10
339.1278578086132
 20
294.9930089903929
 30
0.0
 11
339.1278578086132
 21
174.9930089903928
 31
0.0
  0
LINE
  5
D29
330
1E
100
AcDbEntity
  8
VERDECKT
100
AcDbLine
 10
359.127857808613
 20
294.9930089903929
 30
0.0
 11
359.1278578086132
 21
174.9930089903928
 31
0.0
  0
ARC
  5
D2A
330
1E
100
AcDbEntity
  8
VERDECKT
100
AcDbCircle
 10
349.1278578086132
 20
174.9930089903928
 30
0.0
 40
10.0
100
AcDbArc
 50
180.0
 51
0.0
  0
ARC
  5
D2B
330
1E
100
AcDbEntity
  8
VERDECKT
100
AcDbCircle
 10
319.1278578086131
 20
294.9930089903929
 30
0.0
 40
10.0
100
AcDbArc
 50
0.0
 51
180.0
  0
LINE
  5
D2C
330
1E
100
AcDbEntity
  8
VERDECKT
100
AcDbLine
 10
309.127857808613
 20
294.9930089903929
 30
0.0
 11
309.127857808613
 21
174.9930089903928
 31
0.0
  0
LINE
  5
D2D
330
1E
100
AcDbEntity
  8
VERDECKT
100
AcDbLine
 10
329.1278578086131
 20
294.9930089903929
 30
0.0
 11
329.1278578086131
 21
174.9930089903928
 31
0.0
  0
ARC
  5
D2E
330
1E
100
AcDbEntity
  8
VERDECKT
100
AcDbCircle
 10
319.1278578086131
 20
174.9930089903928
 30
0.0
 40
10.0
100
AcDbArc
 50
180.0
 51
0.0
  0
ARC
  5
D2F
330
1E
100
AcDbEntity
  8
VERDECKT
100
AcDbCircle
 10
289.127857808613
 20
294.9930089903929
 30
0.0
 40
10.0
100
AcDbArc
 50
0.0
 51
180.0
  0
LINE
  5
D30
330
1E
100
AcDbEntity
  8
VERDECKT
100
AcDbLine
 10
279.1278578086131
 20
294.9930089903929
 30
0.0
 11
279.1278578086131
 21
174.9930089903928
 31
0.0
  0
LINE
  5
D31
330
1E
100
AcDbEntity
  8
VERDECKT
100
AcDbLine
 10
299.127857808613
 20
294.9930089903929
 30
0.0
 11
299.127857808613
 21
174.9930089903928
 31
0.0
  0
ARC
  5
D32
330
1E
100
AcDbEntity
  8
VERDECKT
100
AcDbCircle
 10
289.127857808613
 20
174.9930089903928
 30
0.0
 40
10.0
100
AcDbArc
 50
180.0
 51
0.0
  0
ARC
  5
D33
330
1E
100
AcDbEntity
  8
VERDECKT
100
AcDbCircle
 10
259.127857808613
 20
294.9930089903929
 30
0.0
 40
10.0
100
AcDbArc
 50
0.0
 51
180.0
  0
LINE
  5
D34
330
1E
100
AcDbEntity
  8
VERDECKT
100
AcDbLine
 10
249.127857808613
 20
294.9930089903929
 30
0.0
 11
249.127857808613
 21
174.9930089903928
 31
0.0
  0
LINE
  5
D35
330
1E
100
AcDbEntity
  8
VERDECKT
100
AcDbLine
 10
269.1278578086131
 20
294.9930089903929
 30
0.0
 11
269.1278578086131
 21
174.9930089903928
 31
0.0
  0
ARC
  5
D36
330
1E
100
AcDbEntity
  8
VERDECKT
100
AcDbCircle
 10
259.127857808613
 20
174.9930089903928
 30
0.0
 40
10.0
100
AcDbArc
 50
180.0
 51
0.0
  0
ARC
  5
D37
330
1E
100
AcDbEntity
  8
VERDECKT
100
AcDbCircle
 10
229.1278578086131
 20
294.9930089903929
 30
0.0
 40
10.0
100
AcDbArc
 50
0.0
 51
180.0
  0
ARC
  5
D38
330
1E
100
AcDbEntity
  8
VERDECKT
100
AcDbCircle
 10
229.1278578086131
 20
174.9930089903928
 30
0.0
 40
10.0
100
AcDbArc
 50
180.0
 51
0.0
  0
LINE
  5
D39
330
1E
100
AcDbEntity
  8
VERDECKT
100
AcDbLine
 10
239.127857808613
 20
294.9930089903929
 30
0.0
 11
239.127857808613
 21
174.9930089903928
 31
0.0
  0
LINE
  5
D3A
330
1E
100
AcDbEntity
  8
VERDECKT
100
AcDbLine
 10
219.1278578086131
 20
294.9930089903929
 30
0.0
 11
219.1278578086131
 21
174.9930089903928
 31
0.0
  0
LINE
  5
D3B
330
1E
100
AcDbEntity
  8
VERDECKT
100
AcDbLine
 10
204.6992863800415
 20
150.5630089903928
 30
0.0
 11
206.6278578086131
 21
161.3907633135762
 31
0.0
  0
LINE
  5
D3C
330
1E
100
AcDbEntity
  8
VERDECKT
100
AcDbLine
 10
204.6992863800415
 20
150.5630089903928
 30
0.0
 11
215.5256121317964
 21
152.4930089903928
 31
0.0
  0
LINE
  5
D3D
330
1E
100
AcDbEntity
  8
VERDECKT
100
AcDbLine
 10
373.5564292371845
 20
150.5630089903928
 30
0.0
 11
362.7301034854296
 21
152.4930089903928
 31
0.0
  0
LINE
  5
D3E
330
1E
100
AcDbEntity
  8
VERDECKT
100
AcDbLine
 10
373.5564292371845
 20
150.5630089903928
 30
0.0
 11
371.6278578086129
 21
161.3907633135762
 31
0.0
  0
LINE
  5
D3F
330
1E
100
AcDbEntity
  8
VERDECKT
100
AcDbLine
 10
204.6992863800416
 20
319.4230089903929
 30
0.0
 11
215.5256121317965
 21
317.4930089903929
 31
0.0
  0
LINE
  5
D40
330
1E
100
AcDbEntity
  8
VERDECKT
100
AcDbLine
 10
204.6992863800416
 20
319.4230089903929
 30
0.0
 11
206.6278578086131
 21
308.5952546672095
 31
0.0
  0
LINE
  5
D41
330
1E
100
AcDbEntity
  8
VERDECKT
100
AcDbLine
 10
373.5564292371846
 20
319.4230089903929
 30
0.0
 11
371.627857808613
 21
308.5952546672095
 31
0.0
  0
LINE
  5
D42
330
1E
100
AcDbEntity
  8
VERDECKT
100
AcDbLine
 10
373.5564292371846
 20
319.4230089903929
 30
0.0
 11
362.7301034854297
 21
317.4930089903929
 31
0.0
  0
LINE
  5
D43
330
1E
100
AcDbEntity
  8
STEMPEL
100
AcDbLine
 10
705.7156162120628
 20
497.4504069980437
 30
0.0
 11
694.8892904603081
 21
470.4504069980436
 31
0.0
  0
LINE
  5
D44
330
1E
100
AcDbEntity
  8
STEMPEL
100
AcDbLine
 10
204.6992863800416
 20
497.4504069980436
 30
0.0
 11
215.5256121317965
 21
470.4504069980436
 31
0.0
  0
LINE
  5
D45
330
1E
100
AcDbEntity
  8
STEMPEL
100
AcDbLine
 10
373.5564292371845
 20
497.4504069980437
 30
0.0
 11
362.7301034854297
 21
470.4504069980436
 31
0.0
  0
LINE
  5
D46
330
1E
100
AcDbEntity
  8
VERDECKT
100
AcDbLine
 10
371.627857808613
 20
161.3907633135762
 30
0.0
 11
362.7301034854297
 21
152.4930089903928
 31
0.0
  0
LINE
  5
D47
330
1E
100
AcDbEntity
  8
VERDECKT
100
AcDbLine
 10
371.627857808613
 20
308.5952546672095
 30
0.0
 11
362.7301034854297
 21
317.4930089903929
 31
0.0
  0
LINE
  5
D48
330
1E
100
AcDbEntity
  8
VERDECKT
100
AcDbLine
 10
206.6278578086131
 20
308.5952546672095
 30
0.0
 11
215.5256121317965
 21
317.4930089903929
 31
0.0
  0
LINE
  5
D49
330
1E
100
AcDbEntity
  8
VERDECKT
100
AcDbLine
 10
206.6278578086131
 20
161.3907633135762
 30
0.0
 11
215.5256121317965
 21
152.4930089903929
 31
0.0
  0
LINE
  5
D4A
330
1E
100
AcDbEntity
  8
VERDECKT
100
AcDbLine
 10
215.5256121317965
 20
152.4930089903929
 30
0.0
 11
362.7301034854297
 21
152.4930089903928
 31
0.0
  0
LINE
  5
D4B
330
1E
100
AcDbEntity
  8
VERDECKT
100
AcDbLine
 10
215.5256121317965
 20
317.4930089903929
 30
0.0
 11
362.7301034854297
 21
317.4930089903929
 31
0.0
  0
LINE
  5
D4C
102
{ACAD_REACTORS
330
FA9
102
}
330
1E
100
AcDbEntity
  8
STEMPEL
100
AcDbLine
 10
536.2870447834914
 20
505.4504069980436
 30
0.0
 11
706.2870447834914
 21
505.4504069980437
 31
0.0
  0
LINE
  5
D4D
102
{ACAD_REACTORS
330
FA9
102
}
330
1E
100
AcDbEntity
  8
STEMPEL
100
AcDbLine
 10
538.7870447834914
 20
470.4504069980436
 30
0.0
 11
703.7870447834913
 21
470.4504069980436
 31
0.0
  0
LINE
  5
D4E
330
1E
100
AcDbEntity
  8
MITTEL
100
AcDbLine
 10
621.2870447834914
 20
510.4504069980436
 30
0.0
 11
621.2870447834914
 21
465.4504069980437
 31
0.0
  0
LINE
  5
D4F
330
1E
100
AcDbEntity
  8
STEMPEL
100
AcDbLine
 10
706.2870447834914
 20
505.4504069980436
 30
0.0
 11
703.7870447834913
 21
470.4504069980436
 31
0.0
  0
LINE
  5
D50
102
{ACAD_REACTORS
330
FA9
102
}
330
1E
100
AcDbEntity
  8
STEMPEL
100
AcDbLine
 10
536.2870447834914
 20
505.4504069980436
 30
0.0
 11
538.7870447834914
 21
470.4504069980436
 31
0.0
  0
LINE
  5
D51
330
1E
100
AcDbEntity
  8
VERDECKT
100
AcDbLine
 10
206.6278578086131
 20
308.5952546672095
 30
0.0
 11
206.6278578086131
 21
161.3907633135762
 31
0.0
  0
LINE
  5
D52
330
1E
100
AcDbEntity
  8
VERDECKT
100
AcDbLine
 10
371.627857808613
 20
308.5952546672095
 30
0.0
 11
371.627857808613
 21
161.3907633135762
 31
0.0
  0
ARC
  5
D53
330
1E
100
AcDbEntity
  8
STEMPEL
100
AcDbCircle
 10
289.127857808613
 20
174.9930089903928
 30
0.0
 40
6.5
100
AcDbArc
 50
180.0
 51
0.0
  0
ARC
  5
D54
330
1E
100
AcDbEntity
  8
STEMPEL
100
AcDbCircle
 10
229.1278578086129
 20
174.9930089903928
 30
0.0
 40
6.5
100
AcDbArc
 50
180.0
 51
0.0
  0
ARC
  5
D55
330
1E
100
AcDbEntity
  8
STEMPEL
100
AcDbCircle
 10
259.127857808613
 20
174.9930089903928
 30
0.0
 40
6.5
100
AcDbArc
 50
180.0
 51
0.0
  0
ARC
  5
D56
330
1E
100
AcDbEntity
  8
STEMPEL
100
AcDbCircle
 10
319.1278578086131
 20
174.9930089903928
 30
0.0
 40
6.5
100
AcDbArc
 50
180.0
 51
0.0
  0
ARC
  5
D57
330
1E
100
AcDbEntity
  8
STEMPEL
100
AcDbCircle
 10
349.127857808613
 20
174.9930089903928
 30
0.0
 40
6.5
100
AcDbArc
 50
180.0
 51
0.0
  0
ARC
  5
D58
330
1E
100
AcDbEntity
  8
STEMPEL
100
AcDbCircle
 10
289.127857808613
 20
294.9930089903929
 30
0.0
 40
6.5
100
AcDbArc
 50
0.0
 51
180.0
  0
ARC
  5
D59
330
1E
100
AcDbEntity
  8
STEMPEL
100
AcDbCircle
 10
229.1278578086131
 20
294.9930089903929
 30
0.0
 40
6.5
100
AcDbArc
 50
0.0
 51
180.0
  0
ARC
  5
D5A
330
1E
100
AcDbEntity
  8
STEMPEL
100
AcDbCircle
 10
259.127857808613
 20
294.9930089903929
 30
0.0
 40
6.5
100
AcDbArc
 50
0.0
 51
180.0
  0
ARC
  5
D5B
330
1E
100
AcDbEntity
  8
STEMPEL
100
AcDbCircle
 10
319.1278578086131
 20
294.9930089903928
 30
0.0
 40
6.5
100
AcDbArc
 50
0.0
 51
180.0
  0
ARC
  5
D5C
330
1E
100
AcDbEntity
  8
STEMPEL
100
AcDbCircle
 10
349.1278578086132
 20
294.9930089903928
 30
0.0
 40
6.5
100
AcDbArc
 50
0.0
 51
180.0
  0
LINE
  5
D5D
330
1E
100
AcDbEntity
  8
STEMPEL
100
AcDbLine
 10
342.6278578086132
 20
294.9930089903928
 30
0.0
 11
342.627857808613
 21
174.9930089903928
 31
0.0
  0
LINE
  5
D5E
330
1E
100
AcDbEntity
  8
STEMPEL
100
AcDbLine
 10
355.6278578086132
 20
294.9930089903928
 30
0.0
 11
355.627857808613
 21
174.9930089903928
 31
0.0
  0
LINE
  5
D5F
330
1E
100
AcDbEntity
  8
STEMPEL
100
AcDbLine
 10
325.6278578086132
 20
294.9930089903928
 30
0.0
 11
325.627857808613
 21
174.9930089903928
 31
0.0
  0
LINE
  5
D60
330
1E
100
AcDbEntity
  8
STEMPEL
100
AcDbLine
 10
222.627857808613
 20
294.9930089903929
 30
0.0
 11
222.627857808613
 21
174.9930089903928
 31
0.0
  0
LINE
  5
D61
330
1E
100
AcDbEntity
  8
STEMPEL
100
AcDbLine
 10
235.6278578086131
 20
294.9930089903929
 30
0.0
 11
235.6278578086131
 21
174.9930089903928
 31
0.0
  0
LINE
  5
D62
330
1E
100
AcDbEntity
  8
STEMPEL
100
AcDbLine
 10
252.627857808613
 20
294.9930089903929
 30
0.0
 11
252.627857808613
 21
174.9930089903928
 31
0.0
  0
LINE
  5
D63
330
1E
100
AcDbEntity
  8
STEMPEL
100
AcDbLine
 10
265.627857808613
 20
294.9930089903929
 30
0.0
 11
265.627857808613
 21
174.9930089903928
 31
0.0
  0
LINE
  5
D64
330
1E
100
AcDbEntity
  8
STEMPEL
100
AcDbLine
 10
312.6278578086131
 20
294.9930089903928
 30
0.0
 11
312.6278578086131
 21
174.9930089903928
 31
0.0
  0
LINE
  5
D65
330
1E
100
AcDbEntity
  8
STEMPEL
100
AcDbLine
 10
295.6278578086131
 20
294.9930089903929
 30
0.0
 11
295.6278578086131
 21
174.9930089903928
 31
0.0
  0
LINE
  5
D66
330
1E
100
AcDbEntity
  8
STEMPEL
100
AcDbLine
 10
282.627857808613
 20
294.9930089903929
 30
0.0
 11
282.627857808613
 21
174.9930089903928
 31
0.0
  0
LINE
  5
D67
330
1E
100
AcDbEntity
  8
MITTEL
100
AcDbLine
 10
289.127857808613
 20
324.9930089903929
 30
0.0
 11
289.127857808613
 21
144.9930089903928
 31
0.0
  0
LINE
  5
D68
330
1E
100
AcDbEntity
  8
STEMPEL
100
AcDbLine
 10
204.1278578086131
 20
319.9930089903929
 30
0.0
 11
204.1278578086131
 21
149.9930089903929
 31
0.0
  0
LINE
  5
D69
330
1E
100
AcDbEntity
  8
STEMPEL
100
AcDbLine
 10
374.127857808613
 20
319.9930089903929
 30
0.0
 11
374.127857808613
 21
149.9930089903928
 31
0.0
  0
LINE
  5
D6A
102
{ACAD_REACTORS
330
10FC
102
}
330
1E
100
AcDbEntity
  8
STEMPEL
100
AcDbLine
 10
206.6278578086131
 20
470.4504069980436
 30
0.0
 11
371.627857808613
 21
470.4504069980436
 31
0.0
  0
LINE
  5
D6B
102
{ACAD_REACTORS
330
10FC
102
}
330
1E
100
AcDbEntity
  8
STEMPEL
100
AcDbLine
 10
204.1278578086131
 20
505.4504069980436
 30
0.0
 11
374.127857808613
 21
505.4504069980437
 31
0.0
  0
LINE
  5
D6C
330
1E
100
AcDbEntity
  8
STEMPEL
100
AcDbLine
 10
204.1278578086131
 20
149.9930089903929
 30
0.0
 11
374.127857808613
 21
149.9930089903928
 31
0.0
  0
LINE
  5
D6D
330
1E
100
AcDbEntity
  8
STEMPEL
100
AcDbLine
 10
204.1278578086131
 20
319.9930089903929
 30
0.0
 11
374.127857808613
 21
319.9930089903929
 31
0.0
  0
LINE
  5
D6E
330
1E
100
AcDbEntity
  8
STEMPEL
100
AcDbLine
 10
204.1278578086131
 20
505.4504069980436
 30
0.0
 11
206.6278578086131
 21
470.4504069980436
 31
0.0
  0
LINE
  5
D6F
330
1E
100
AcDbEntity
  8
STEMPEL
100
AcDbLine
 10
374.127857808613
 20
505.4504069980436
 30
0.0
 11
371.627857808613
 21
470.4504069980436
 31
0.0
  0
LINE
  5
D70
330
1E
100
AcDbEntity
  8
MITTEL
100
AcDbLine
 10
199.127857808613
 20
234.9930089903929
 30
0.0
 11
379.1278578086131
 21
234.9930089903929
 31
0.0
  0
LINE
  5
D71
330
1E
100
AcDbEntity
  8
MITTEL
100
AcDbLine
 10
289.127857808613
 20
510.4504069980436
 30
0.0
 11
289.127857808613
 21
465.4504069980437
 31
0.0
  0
DIMENSION
  5
D72
330
1E
100
AcDbEntity
  8
BEM
100
AcDbDimension
  2
*D10
 10
374.127857808613
 20
129.3640196150999
 30
0.0
 11
289.127857808613
 21
135.8640196150999
 31
0.0
 70
    32
 71
     5
 42
170.0
  3
Standard
100
AcDbAlignedDimension
 13
204.1278578086131
 23
149.9930089903929
 33
0.0
 14
374.127857808613
 24
149.9930089903928
 34
0.0
100
AcDbRotatedDimension
1001
ACAD
1000
DSTYLE
1002
{
1070
    40
1040
2.0
1070
    41
1040
3.5
1070
    42
1040
1.0
1070
    43
1040
7.0
1070
    44
1040
1.0
1070
    73
1070
     0
1070
    74
1070
     0
1070
    77
1070
     1
1070
    78
1070
     8
1070
    79
1070
     2
1070
   140
1040
3.5
1070
   141
1040
1.5
1070
   146
1040
0.5142857142857144
1070
   147
1040
1.5
1070
   172
1070
     1
1070
   178
1070
     1
1070
   179
1070
     2
1070
   271
1070
     2
1070
   272
1070
     2
1070
   284
1070
     8
1070
   285
1070
     8
1070
   286
1070
     8
1002
}
  0
HATCH
  5
FA9
330
1E
100
AcDbEntity
  8
SCHRAFF
100
AcDbHatch
 10
0.0
 20
0.0
 30
0.0
210
0.0
220
0.0
230
1.0
  2
_USER
 70
     0
 71
     1
 91
        1
 92
        7
 72
     1
 73
     1
 93
        5
 10
538.7870447834914
 20
470.4504069980436
 42
0.0
 10
549.4770696592673
 20
470.4504069980436
 42
0.3853135861201901
 10
551.4671440396873
 20
472.2513995600015
 42
0.0
 10
554.7870447834915
 20
505.4504069980437
 42
0.0
 10
536.2870447834914
 20
505.4504069980436
 42
0.0
 97
        5
330
D4C
330
D50
330
D4D
330
D0D
330
D22
 75
     0
 76
     0
 52
45.0
 41
5.0
 77
     0
 78
     1
 53
45.0
 43
0.0
 44
0.0
 45
-3.535533905932737
 46
3.535533905932737
 79
     0
 47
0.3762889579132314
 98
        1
 10
543.1531894583086
 20
488.2022400269589
  0
HATCH
  5
10FC
330
1E
100
AcDbEntity
  8
SCHRAFF
100
AcDbHatch
 10
0.0
 20
0.0
 30
0.0
210
0.0
220
0.0
230
1.0
  2
_USER
 70
     0
 71
     1
 91
        2
 92
        7
 72
     1
 73
     1
 93
       12
 10
304.8549101286852
 20
499.6740872587953
 42
-0.038916647571164
 10
306.0986683191966
 20
505.4504069980437
 42
0.0
 10
295.6278578086131
 20
505.4504069980437
 42
0.0
 10
298.9477585524173
 20
472.2513995600016
 42
0.3853135861201812
 10
300.9378329328373
 20
470.4504069980436
 42
0.0
 10
305.2499174497598
 20
470.4504069980436
 42
-0.0510223449104873
 10
303.8411302405565
 20
475.168132936367
 42
-0.0762591102893015
 10
303.7221635378396
 20
478.4707414189664
 42
-0.0765005216108979
 10
305.13015602124
 20
483.5796314723029
 42
0.1062922101360113
 10
305.9289185364649
 20
487.330216641713
 42
0.0604226491566686
 10
305.527096478733
 20
490.5898704036542
 42
-0.0406455020402641
 10
304.7406661457862
 20
495.3986680721821
 42
-0.0538386143268683
 97
        5
330
CF4
330
D6B
330
D20
330
D1E
330
D6A
 92
        7
 72
     1
 73
     1
 93
       12
 10
282.627857808613
 20
505.4504069980436
 42
0.0
 10
275.2041042057785
 20
505.4504069980436
 42
0.0389166475711639
 10
273.9603460152672
 20
499.6740872587953
 42
0.0538386143268769
 10
273.8461020323683
 20
495.3986680721814
 42
0.0406455020402559
 10
274.6325323653149
 20
490.5898704036544
 42
-0.0604226491566674
 10
275.0343544230468
 20
487.3302166417133
 42
-0.1062922101360153
 10
274.2355919078219
 20
483.579631472303
 42
0.0765005216108854
 10
272.8275994244217
 20
478.4707414189674
 42
0.0762591102892893
 10
272.9465661271382
 20
475.1681329363684
 42
0.0510223449105023
 10
274.3553533363416
 20
470.4504069980436
 42
0.0
 10
277.3178826843889
 20
470.4504069980436
 42
0.3853135861201812
 10
279.3079570648089
 20
472.2513995600016
 42
0.0
 97
        5
330
D6B
330
CF8
330
D6A
330
D1F
330
D21
 75
     0
 76
     0
 52
45.0
 41
5.0
 77
     0
 78
     1
 53
45.0
 43
0.0
 44
0.0
 45
-3.535533905932737
 46
3.535533905932737
 79
     0
 47
0.2061718141803267
 98
        2
 10
302.3863177721414
 20
497.2434939549668
 10
278.249648534943
 20
499.511384550854
  0
ENDSEC
  0
SECTION
  2
OBJECTS
  0
DICTIONARY
  5
C
330
0
100
AcDbDictionary
281
     1
  3
ACAD_COLOR
350
11A
  3
ACAD_GROUP
350
D
  3
ACAD_LAYOUT
350
19
  3
ACAD_MATERIAL
350
119
  3
ACAD_MLINESTYLE
350
16
  3
ACAD_PLOTSETTINGS
350
18
  3
ACAD_PLOTSTYLENAME
350
E
  3
AcDbVariableDictionary
350
125
  0
DICTIONARY
  5
DB
330
1E
100
AcDbDictionary
280
     1
281
     1
  3
ACAD_LAYOUTSELFREF
360
10F
  0
DICTIONARY
  5
DD
330
1A
100
AcDbDictionary
280
     1
281
     1
  3
ACAD_LAYOUTSELFREF
360
10E
  0
DICTIONARY
  5
11A
102
{ACAD_REACTORS
330
C
102
}
330
C
100
AcDbDictionary
281
     1
  0
DICTIONARY
  5
D
102
{ACAD_REACTORS
330
C
102
}
330
C
100
AcDbDictionary
281
     1
  0
DICTIONARY
  5
19
102
{ACAD_REACTORS
330
C
102
}
330
C
100
AcDbDictionary
281
     1
  3
Layout1
350
1D
  3
Model
350
21
  0
DICTIONARY
  5
119
102
{ACAD_REACTORS
330
C
102
}
330
C
100
AcDbDictionary
281
     1
  0
DICTIONARY
  5
16
102
{ACAD_REACTORS
330
C
102
}
330
C
100
AcDbDictionary
281
     1
  3
Standard
350
17
  0
DICTIONARY
  5
18
102
{ACAD_REACTORS
330
C
102
}
330
C
100
AcDbDictionary
281
     1
  0
ACDBDICTIONARYWDFLT
  5
E
102
{ACAD_REACTORS
330
C
102
}
330
C
100
AcDbDictionary
281
     1
  3
Normal
350
F
100
AcDbDictionaryWithDefault
340
F
  0
DICTIONARY
  5
125
102
{ACAD_REACTORS
330
C
102
}
330
C
100
AcDbDictionary
281
     1
  3
DIMASSOC
350
126
  3
PROJECTNAME
350
127
  0
XRECORD
  5
10F
102
{ACAD_REACTORS
330
DB
102
}
330
DB
100
AcDbXrecord
280
     1
340
1E
  0
XRECORD
  5
10E
102
{ACAD_REACTORS
330
DD
102
}
330
DD
100
AcDbXrecord
280
     1
340
1A
  0
LAYOUT
  5
1D
102
{ACAD_REACTORS
330
19
102
}
330
19
100
AcDbPlotSettings
  1

  2
\\NT_WORK01\HP LaserJet 5000 PCL 6
  4

  6

 40
0.0
 41
0.0
 42
0.0
 43
0.0
 44
0.0
 45
0.0
 46
0.0
 47
0.0
 48
0.0
 49
0.0
140
0.0
141
0.0
142
1.0
143
1.0
 70
   688
 72
     0
 73
     0
 74
     5
  7

 75
    16
147
1.0
 76
     0
 77
     2
 78
   300
148
0.0
149
0.0
100
AcDbLayout
  1
Layout1
 70
     0
 71
     1
 10
0.0
 20
0.0
 11
12.0
 21
9.0
 12
0.0
 22
0.0
 32
0.0
 14
1.000000000000000E+20
 24
1.000000000000000E+20
 34
1.000000000000000E+20
 15
-1.000000000000000E+20
 25
-1.000000000000000E+20
 35
-1.000000000000000E+20
146
0.0
 13
0.0
 23
0.0
 33
0.0
 16
1.0
 26
0.0
 36
0.0
 17
0.0
 27
1.0
 37
0.0
 76
     0
330
1A
  0
LAYOUT
  5
21
102
{ACAD_REACTORS
330
19
102
}
330
19
100
AcDbPlotSettings
  1

  2
none_device
  4
Letter_(8.50_x_11.00_Inches)
  6

 40
6.349999904632568
 41
6.349999904632568
 42
6.350006103515625
 43
6.350006103515625
 44
215.8999938964844
 45
279.3999938964844
 46
0.0
 47
0.0
 48
0.0
 49
0.0
140
0.0
141
0.0
142
1.0
143
1.0
 70
 11952
 72
     0
 73
     1
 74
     0
  7

 75
     0
147
1.0
 76
     0
 77
     2
 78
   300
148
-3047.398259027577
149
76.91462887449765
100
AcDbLayout
  1
Model
 70
     1
 71
     0
 10
0.0
 20
0.0
 11
12.0
 21
9.0
 12
0.0
 22
0.0
 32
0.0
 14
0.0
 24
0.0
 34
0.0
 15
0.0
 25
0.0
 35
0.0
146
0.0
 13
0.0
 23
0.0
 33
0.0
 16
1.0
 26
0.0
 36
0.0
 17
0.0
 27
1.0
 37
0.0
 76
     0
330
1E
  0
MLINESTYLE
  5
17
102
{ACAD_REACTORS
330
16
102
}
330
16
100
AcDbMlineStyle
  2
STANDARD
 70
     0
  3

 62
   256
 51
90.0
 52
90.0
 71
     2
 49
0.5
 62
   256
  6
BYLAYER
 49
-0.5
 62
   256
  6
BYLAYER
  0
ACDBPLACEHOLDER
  5
F
102
{ACAD_REACTORS
330
E
102
}
330
E
  0
DICTIONARYVAR
  5
126
102
{ACAD_REACTORS
330
125
102
}
330
125
100
DictionaryVariables
280
     0
  1
1
  0
DICTIONARYVAR
  5
127
102
{ACAD_REACTORS
330
125
102
}
330
125
100
DictionaryVariables
280
     0
  1

  0
ENDSEC
  0
EOF
