  0
SECTION
  2
HEADER
  9
$ACADVER
  1
AC1018
  9
$ACADMAINTVER
 70
     2
  9
$DWGCODEPAGE
  3
ANSI_1252
  9
$INSBASE
 10
0.0
 20
0.0
 30
0.0
  9
$EXTMIN
 10
-0.0181170681464664
 20
-0.0256200963685842
 30
-0.0000000000000053
  9
$EXTMAX
 10
594.0181329738002
 20
840.0256425892131
 30
0.0000000000000099
  9
$LIMMIN
 10
0.0
 20
0.0
  9
$LIMMAX
 10
594.0
 20
840.0
  9
$ORTHOMODE
 70
     1
  9
$REGENMODE
 70
     1
  9
$FILLMODE
 70
     1
  9
$QTEXTMODE
 70
     0
  9
$MIRRTEXT
 70
     1
  9
$LTSCALE
 40
20.0
  9
$ATTMODE
 70
     1
  9
$TEXTSIZE
 40
3.5
  9
$TRACEWID
 40
1.0
  9
$TEXTSTYLE
  7
STANDARD
  9
$CLAYER
  8
BEM
  9
$CELTYPE
  6
ByLayer
  9
$CECOLOR
 62
   256
  9
$CELTSCALE
 40
1.0
  9
$DISPSILH
 70
     0
  9
$DIMSCALE
 40
2.0
  9
$DIMASZ
 40
3.5
  9
$DIMEXO
 40
1.0
  9
$DIMDLI
 40
7.0
  9
$DIMRND
 40
0.0
  9
$DIMDLE
 40
0.0
  9
$DIMEXE
 40
1.0
  9
$DIMTP
 40
0.0
  9
$DIMTM
 40
0.0
  9
$DIMTXT
 40
3.5
  9
$DIMCEN
 40
1.5
  9
$DIMTSZ
 40
0.0
  9
$DIMTOL
 70
     0
  9
$DIMLIM
 70
     0
  9
$DIMTIH
 70
     0
  9
$DIMTOH
 70
     0
  9
$DIMSE1
 70
     0
  9
$DIMSE2
 70
     0
  9
$DIMTAD
 70
     1
  9
$DIMZIN
 70
     8
  9
$DIMBLK
  1

  9
$DIMASO
 70
     1
  9
$DIMSHO
 70
     0
  9
$DIMPOST
  1

  9
$DIMAPOST
  1

  9
$DIMALT
 70
     0
  9
$DIMALTD
 70
     2
  9
$DIMALTF
 40
25.4
  9
$DIMLFAC
 40
1.0
  9
$DIMTOFL
 70
     1
  9
$DIMTVP
 40
0.0
  9
$DIMTIX
 70
     0
  9
$DIMSOXD
 70
     0
  9
$DIMSAH
 70
     0
  9
$DIMBLK1
  1

  9
$DIMBLK2
  1

  9
$DIMSTYLE
  2
Standard
  9
$DIMCLRD
 70
     0
  9
$DIMCLRE
 70
     0
  9
$DIMCLRT
 70
     1
  9
$DIMTFAC
 40
0.5142857142857144
  9
$DIMGAP
 40
1.5
  9
$DIMJUST
 70
     0
  9
$DIMSD1
 70
     0
  9
$DIMSD2
 70
     0
  9
$DIMTOLJ
 70
     1
  9
$DIMTZIN
 70
     8
  9
$DIMALTZ
 70
     8
  9
$DIMALTTZ
 70
     8
  9
$DIMUPT
 70
     0
  9
$DIMDEC
 70
     2
  9
$DIMTDEC
 70
     2
  9
$DIMALTU
 70
     2
  9
$DIMALTTD
 70
     2
  9
$DIMTXSTY
  7
STANDARD
  9
$DIMAUNIT
 70
     0
  9
$DIMADEC
 70
     2
  9
$DIMALTRND
 40
0.0
  9
$DIMAZIN
 70
     2
  9
$DIMDSEP
 70
    46
  9
$DIMATFIT
 70
     3
  9
$DIMFRAC
 70
     0
  9
$DIMLDRBLK
  1

  9
$DIMLUNIT
 70
     2
  9
$DIMLWD
 70
    -2
  9
$DIMLWE
 70
    -2
  9
$DIMTMOVE
 70
     0
  9
$LUNITS
 70
     2
  9
$LUPREC
 70
     2
  9
$SKETCHINC
 40
1.0
  9
$FILLETRAD
 40
0.0
  9
$AUNITS
 70
     0
  9
$AUPREC
 70
     0
  9
$MENU
  1
ACAD
  9
$ELEVATION
 40
0.0
  9
$PELEVATION
 40
0.0
  9
$THICKNESS
 40
0.0
  9
$LIMCHECK
 70
     0
  9
$CHAMFERA
 40
0.0
  9
$CHAMFERB
 40
0.0
  9
$CHAMFERC
 40
0.0
  9
$CHAMFERD
 40
0.0
  9
$SKPOLY
 70
     0
  9
$TDCREATE
 40
2455397.867059838
  9
$TDUCREATE
 40
2455397.783726505
  9
$TDUPDATE
 40
2456217.493176886
  9
$TDUUPDATE
 40
2456217.409843553
  9
$TDINDWG
 40
0.0390126505
  9
$TDUSRTIMER
 40
0.0390126505
  9
$USRTIMER
 70
     1
  9
$ANGBASE
 50
0.0
  9
$ANGDIR
 70
     0
  9
$PDMODE
 70
     0
  9
$PDSIZE
 40
0.0
  9
$PLINEWID
 40
0.0
  9
$SPLFRAME
 70
     0
  9
$SPLINETYPE
 70
     6
  9
$SPLINESEGS
 70
     8
  9
$HANDSEED
  5
C6F
  9
$SURFTAB1
 70
     6
  9
$SURFTAB2
 70
     6
  9
$SURFTYPE
 70
     6
  9
$SURFU
 70
     6
  9
$SURFV
 70
     6
  9
$UCSBASE
  2

  9
$UCSNAME
  2

  9
$UCSORG
 10
0.0
 20
0.0
 30
0.0
  9
$UCSXDIR
 10
1.0
 20
0.0
 30
0.0
  9
$UCSYDIR
 10
0.0
 20
1.0
 30
0.0
  9
$UCSORTHOREF
  2

  9
$UCSORTHOVIEW
 70
     0
  9
$UCSORGTOP
 10
0.0
 20
0.0
 30
0.0
  9
$UCSORGBOTTOM
 10
0.0
 20
0.0
 30
0.0
  9
$UCSORGLEFT
 10
0.0
 20
0.0
 30
0.0
  9
$UCSORGRIGHT
 10
0.0
 20
0.0
 30
0.0
  9
$UCSORGFRONT
 10
0.0
 20
0.0
 30
0.0
  9
$UCSORGBACK
 10
0.0
 20
0.0
 30
0.0
  9
$PUCSBASE
  2

  9
$PUCSNAME
  2

  9
$PUCSORG
 10
0.0
 20
0.0
 30
0.0
  9
$PUCSXDIR
 10
1.0
 20
0.0
 30
0.0
  9
$PUCSYDIR
 10
0.0
 20
1.0
 30
0.0
  9
$PUCSORTHOREF
  2

  9
$PUCSORTHOVIEW
 70
     0
  9
$PUCSORGTOP
 10
0.0
 20
0.0
 30
0.0
  9
$PUCSORGBOTTOM
 10
0.0
 20
0.0
 30
0.0
  9
$PUCSORGLEFT
 10
0.0
 20
0.0
 30
0.0
  9
$PUCSORGRIGHT
 10
0.0
 20
0.0
 30
0.0
  9
$PUCSORGFRONT
 10
0.0
 20
0.0
 30
0.0
  9
$PUCSORGBACK
 10
0.0
 20
0.0
 30
0.0
  9
$USERI1
 70
     0
  9
$USERI2
 70
     0
  9
$USERI3
 70
     0
  9
$USERI4
 70
     0
  9
$USERI5
 70
     0
  9
$USERR1
 40
0.0
  9
$USERR2
 40
0.0
  9
$USERR3
 40
0.0
  9
$USERR4
 40
0.0
  9
$USERR5
 40
0.0
  9
$WORLDVIEW
 70
     1
  9
$SHADEDGE
 70
     3
  9
$SHADEDIF
 70
    70
  9
$TILEMODE
 70
     1
  9
$MAXACTVP
 70
    16
  9
$PINSBASE
 10
0.0
 20
0.0
 30
0.0
  9
$PLIMCHECK
 70
     0
  9
$PEXTMIN
 10
1.000000000000000E+20
 20
1.000000000000000E+20
 30
1.000000000000000E+20
  9
$PEXTMAX
 10
-1.000000000000000E+20
 20
-1.000000000000000E+20
 30
-1.000000000000000E+20
  9
$PLIMMIN
 10
0.0
 20
0.0
  9
$PLIMMAX
 10
12.0
 20
9.0
  9
$UNITMODE
 70
     0
  9
$VISRETAIN
 70
     0
  9
$PLINEGEN
 70
     0
  9
$PSLTSCALE
 70
     0
  9
$TREEDEPTH
 70
  3020
  9
$CMLSTYLE
  2
Standard
  9
$CMLJUST
 70
     0
  9
$CMLSCALE
 40
1.0
  9
$PROXYGRAPHICS
 70
     1
  9
$MEASUREMENT
 70
     0
  9
$CELWEIGHT
370
    -1
  9
$ENDCAPS
280
     0
  9
$JOINSTYLE
280
     0
  9
$LWDISPLAY
290
     0
  9
$INSUNITS
 70
     0
  9
$HYPERLINKBASE
  1

  9
$STYLESHEET
  1

  9
$XEDIT
290
     1
  9
$CEPSNTYPE
380
     0
  9
$PSTYLEMODE
290
     1
  9
$FINGERPRINTGUID
  2
{D68B0D0D-A558-11D7-B632-000102183313}
  9
$VERSIONGUID
  2
{48DA0E08-EC1B-4DDF-9F93-E421CD99AABD}
  9
$EXTNAMES
290
     1
  9
$PSVPSCALE
 40
0.0
  9
$OLESTARTUP
290
     0
  9
$SORTENTS
280
   127
  9
$INDEXCTL
280
     0
  9
$HIDETEXT
280
     0
  9
$XCLIPFRAME
290
     0
  9
$HALOGAP
280
     0
  9
$OBSCOLOR
 70
   257
  9
$OBSLTYPE
280
     0
  9
$INTERSECTIONDISPLAY
280
     0
  9
$INTERSECTIONCOLOR
 70
   257
  9
$DIMASSOC
280
     1
  9
$PROJECTNAME
  1

  0
ENDSEC
  0
SECTION
  2
CLASSES
  0
CLASS
  1
ACDBDICTIONARYWDFLT
  2
AcDbDictionaryWithDefault
  3
ObjectDBX Classes
 90
        0
 91
        1
280
     0
281
     0
  0
CLASS
  1
DICTIONARYVAR
  2
AcDbDictionaryVar
  3
ObjectDBX Classes
 90
        0
 91
        2
280
     0
281
     0
  0
CLASS
  1
DIMASSOC
  2
AcDbDimAssoc
  3
"AcDbDimAssoc|Product Desc:     AcDim ARX App For Dimension|Company:          Autodesk, Inc.|WEB Address:      www.autodesk.com"
 90
        0
 91
        3
280
     0
281
     0
  0
ENDSEC
  0
SECTION
  2
TABLES
  0
TABLE
  2
VPORT
  5
8
330
0
100
AcDbSymbolTable
 70
     3
  0
VPORT
  5
C6E
330
8
100
AcDbSymbolTableRecord
100
AcDbViewportTableRecord
  2
*Active
 70
     0
 10
0.0
 20
0.0
 11
1.0
 21
1.0
 12
297.0000000000002
 22
419.9999999999999
 13
0.0
 23
0.0
 14
1.0
 24
1.0
 15
10.0
 25
10.0
 16
0.0
 26
0.0
 36
1.0
 17
0.0
 27
0.0
 37
0.0
 40
839.9999999999998
 41
1.404858299595141
 42
50.0
 43
0.0
 44
0.0
 50
0.0
 51
0.0
 71
     0
 72
  1500
 73
     1
 74
     0
 75
     0
 76
     0
 77
     0
 78
     0
281
     0
 65
     1
110
0.0
120
0.0
130
0.0
111
1.0
121
0.0
131
0.0
112
0.0
122
1.0
132
0.0
 79
     0
146
0.0
  0
ENDTAB
  0
TABLE
  2
LTYPE
  5
5
330
0
100
AcDbSymbolTable
 70
     4
  0
LTYPE
  5
13
330
5
100
AcDbSymbolTableRecord
100
AcDbLinetypeTableRecord
  2
ByBlock
 70
     0
  3

 72
    65
 73
     0
 40
0.0
  0
LTYPE
  5
14
330
5
100
AcDbSymbolTableRecord
100
AcDbLinetypeTableRecord
  2
ByLayer
 70
     0
  3

 72
    65
 73
     0
 40
0.0
  0
LTYPE
  5
15
330
5
100
AcDbSymbolTableRecord
100
AcDbLinetypeTableRecord
  2
Continuous
 70
     0
  3
Solid line
 72
    65
 73
     0
 40
0.0
  0
LTYPE
  5
25
330
5
100
AcDbSymbolTableRecord
100
AcDbLinetypeTableRecord
  2
STRICHPUNKT
 70
     0
  3
__ . __ . __ . __ . __ . __ . __ . __ . __ . __
 72
    65
 73
     4
 40
1.0
 49
0.5
 74
     0
 49
-0.25
 74
     0
 49
0.0
 74
     0
 49
-0.25
 74
     0
  0
LTYPE
  5
34
330
5
100
AcDbSymbolTableRecord
100
AcDbLinetypeTableRecord
  2
AUSGEZOGEN
 70
     0
  3
Ausgezogene Linie
 72
    65
 73
     0
 40
0.0
  0
LTYPE
  5
20B
330
5
100
AcDbSymbolTableRecord
100
AcDbLinetypeTableRecord
  2
VERDECKT
 70
     0
  3
_ _ _ _ _ _ _ _ _ _ _ _ _ _ _ _ _ _ _ _ _ _ _
 72
    65
 73
     2
 40
0.375
 49
0.25
 74
     0
 49
-0.125
 74
     0
  0
ENDTAB
  0
TABLE
  2
LAYER
  5
2
330
0
100
AcDbSymbolTable
 70
    10
  0
LAYER
  5
10
330
2
100
AcDbSymbolTableRecord
100
AcDbLayerTableRecord
  2
0
 70
     0
 62
     7
  6
Continuous
370
    -3
390
F
  0
LAYER
  5
2B
330
2
100
AcDbSymbolTableRecord
100
AcDbLayerTableRecord
  2
VOLL
 70
     0
 62
     1
  6
Continuous
370
    -3
390
F
  0
LAYER
  5
2C
330
2
100
AcDbSymbolTableRecord
100
AcDbLayerTableRecord
  2
HILF
 70
     0
 62
     2
  6
Continuous
370
    -3
390
F
  0
LAYER
  5
2D
330
2
100
AcDbSymbolTableRecord
100
AcDbLayerTableRecord
  2
MITTEL
 70
     0
 62
     2
  6
STRICHPUNKT
370
    -3
390
F
  0
LAYER
  5
2F
330
2
100
AcDbSymbolTableRecord
100
AcDbLayerTableRecord
  2
BEM
 70
     0
 62
     7
  6
Continuous
370
    -3
390
F
  0
LAYER
  5
30
330
2
100
AcDbSymbolTableRecord
100
AcDbLayerTableRecord
  2
STEMPEL
 70
     0
 62
     3
  6
Continuous
370
    -3
390
F
  0
LAYER
  5
33
330
2
100
AcDbSymbolTableRecord
100
AcDbLayerTableRecord
  2
TEXT
 70
     0
 62
     7
  6
Continuous
370
    -3
390
F
  0
LAYER
  5
20C
330
2
100
AcDbSymbolTableRecord
100
AcDbLayerTableRecord
  2
SCHRAFF
 70
     0
 62
     7
  6
AUSGEZOGEN
370
    -3
390
F
  0
LAYER
  5
20D
330
2
100
AcDbSymbolTableRecord
100
AcDbLayerTableRecord
  2
VERDECKT
 70
     0
 62
     6
  6
VERDECKT
370
    -3
390
F
  0
LAYER
  5
20E
330
2
100
AcDbSymbolTableRecord
100
AcDbLayerTableRecord
  2
DEFPOINTS
 70
     0
 62
     7
  6
AUSGEZOGEN
290
     0
370
    -3
390
F
  0
ENDTAB
  0
TABLE
  2
STYLE
  5
3
330
0
100
AcDbSymbolTable
 70
     1
  0
STYLE
  5
11
330
3
100
AcDbSymbolTableRecord
100
AcDbTextStyleTableRecord
  2
STANDARD
 70
     0
 40
0.0
 41
0.8
 50
0.0
 71
     0
 42
3.5
  3
simplex.shx
  4

  0
ENDTAB
  0
TABLE
  2
VIEW
  5
6
330
0
100
AcDbSymbolTable
 70
     0
  0
ENDTAB
  0
TABLE
  2
UCS
  5
7
330
0
100
AcDbSymbolTable
 70
     0
  0
ENDTAB
  0
TABLE
  2
APPID
  5
9
330
0
100
AcDbSymbolTable
 70
     1
  0
APPID
  5
12
330
9
100
AcDbSymbolTableRecord
100
AcDbRegAppTableRecord
  2
ACAD
 70
     0
  0
ENDTAB
  0
TABLE
  2
DIMSTYLE
  5
A
330
0
100
AcDbSymbolTable
 70
     1
100
AcDbDimStyleTable
 71
     1
340
A2
  0
DIMSTYLE
105
A2
102
{ACAD_REACTORS
330
A0A
330
A0B
330
A0D
330
98A
330
98D
330
990
330
991
330
C5C
102
}
330
A
100
AcDbSymbolTableRecord
100
AcDbDimStyleTableRecord
  2
Standard
 70
     0
340
11
  0
ENDTAB
  0
TABLE
  2
BLOCK_RECORD
  5
1
330
0
100
AcDbSymbolTable
 70
     9
  0
BLOCK_RECORD
  5
1E
102
{ACAD_XDICTIONARY
360
DB
102
}
330
1
100
AcDbSymbolTableRecord
100
AcDbBlockTableRecord
  2
*Model_Space
340
21
  0
BLOCK_RECORD
  5
1A
102
{ACAD_XDICTIONARY
360
DD
102
}
330
1
100
AcDbSymbolTableRecord
100
AcDbBlockTableRecord
  2
*Paper_Space
340
1D
  0
BLOCK_RECORD
  5
80A
330
1
100
AcDbSymbolTableRecord
100
AcDbBlockTableRecord
  2
LOGO
340
0
102
{BLKREFS
331
A1B
102
}
  0
BLOCK_RECORD
  5
A77
330
1
100
AcDbSymbolTableRecord
100
AcDbBlockTableRecord
  2
*D1
340
0
  0
BLOCK_RECORD
  5
A83
330
1
100
AcDbSymbolTableRecord
100
AcDbBlockTableRecord
  2
*D2
340
0
  0
BLOCK_RECORD
  5
A8F
330
1
100
AcDbSymbolTableRecord
100
AcDbBlockTableRecord
  2
*D3
340
0
  0
BLOCK_RECORD
  5
A9B
330
1
100
AcDbSymbolTableRecord
100
AcDbBlockTableRecord
  2
*D4
340
0
  0
BLOCK_RECORD
  5
ACC
330
1
100
AcDbSymbolTableRecord
100
AcDbBlockTableRecord
  2
*D5
340
0
  0
BLOCK_RECORD
  5
AD8
330
1
100
AcDbSymbolTableRecord
100
AcDbBlockTableRecord
  2
*D6
340
0
  0
BLOCK_RECORD
  5
AEF
330
1
100
AcDbSymbolTableRecord
100
AcDbBlockTableRecord
  2
*D7
340
0
  0
BLOCK_RECORD
  5
C5D
330
1
100
AcDbSymbolTableRecord
100
AcDbBlockTableRecord
  2
*D8
340
0
  0
ENDTAB
  0
ENDSEC
  0
SECTION
  2
BLOCKS
  0
BLOCK
  5
37
330
1E
100
AcDbEntity
  8
0
100
AcDbBlockBegin
  2
*Model_Space
 70
     0
 10
0.0
 20
0.0
 30
0.0
  3
*Model_Space
  1

  0
ENDBLK
  5
38
330
1E
100
AcDbEntity
  8
0
100
AcDbBlockEnd
  0
BLOCK
  5
35
330
1A
100
AcDbEntity
 67
     1
  8
0
100
AcDbBlockBegin
  2
*Paper_Space
 70
     0
 10
0.0
 20
0.0
 30
0.0
  3
*Paper_Space
  1

  0
ENDBLK
  5
36
330
1A
100
AcDbEntity
 67
     1
  8
0
100
AcDbBlockEnd
  0
BLOCK
  5
80B
330
80A
100
AcDbEntity
  8
0
100
AcDbBlockBegin
  2
LOGO
 70
     0
 10
0.0
 20
0.0
 30
0.0
  3
LOGO
  1

  0
ARC
  5
80C
330
80A
100
AcDbEntity
  8
0
100
AcDbCircle
 10
11.59973089678112
 20
-9.271599258481501
 30
0.0
 40
4.5
100
AcDbArc
 50
270.0
 51
231.0575587310159
  0
LINE
  5
80D
330
80A
100
AcDbEntity
  8
0
100
AcDbLine
 10
3.599730896781125
 20
-4.771599258481529
 30
0.0
 11
3.599730896781153
 21
-11.77159925848133
 31
0.0
  0
LINE
  5
80E
330
80A
100
AcDbEntity
  8
0
100
AcDbLine
 10
2.599730896781125
 20
-4.771599258481529
 30
0.0
 11
2.599730896781153
 21
-11.77159925848133
 31
0.0
  0
CIRCLE
  5
80F
330
80A
100
AcDbEntity
  8
0
100
AcDbCircle
 10
11.59973089678112
 20
-9.271599258481501
 30
0.0
 40
3.5
  0
ARC
  5
810
330
80A
100
AcDbEntity
  8
0
100
AcDbCircle
 10
31.59973089678115
 20
-9.271599258481472
 30
0.0
 40
4.5
100
AcDbArc
 50
270.0
 51
231.0575587310182
  0
LINE
  5
811
330
80A
100
AcDbEntity
  8
0
100
AcDbLine
 10
17.59973089678112
 20
-4.771599258481472
 30
0.0
 11
17.59973089678115
 21
-13.77159925848147
 31
0.0
  0
ARC
  5
812
330
80A
100
AcDbEntity
  8
0
100
AcDbCircle
 10
22.59973089678116
 20
-7.271599258481472
 30
0.0
 40
2.5
100
AcDbArc
 50
293.1161887722295
 51
90.0
  0
CIRCLE
  5
813
330
80A
100
AcDbEntity
  8
0
100
AcDbCircle
 10
31.59973089678115
 20
-9.271599258481472
 30
0.0
 40
3.5
  0
ARC
  5
814
330
80A
100
AcDbEntity
  8
0
100
AcDbCircle
 10
4.599730896781153
 20
-11.77159925848133
 30
0.0
 40
1.0
100
AcDbArc
 50
180.0
 51
270.0
  0
ARC
  5
815
330
80A
100
AcDbEntity
  8
0
100
AcDbCircle
 10
4.599730896781153
 20
-11.77159925848133
 30
0.0
 40
2.0
100
AcDbArc
 50
179.9999999999992
 51
270.0
  0
LINE
  5
816
330
80A
100
AcDbEntity
  8
0
100
AcDbLine
 10
11.59973089678115
 20
-13.77159925848144
 30
0.0
 11
4.599730896781153
 21
-13.77159925848147
 31
0.0
  0
LINE
  5
817
330
80A
100
AcDbEntity
  8
0
100
AcDbLine
 10
8.771303772034769
 20
-12.77159925848136
 30
0.0
 11
4.599730896781153
 21
-12.77159925848133
 31
0.0
  0
LINE
  5
818
330
80A
100
AcDbEntity
  8
0
100
AcDbLine
 10
31.59973089678115
 20
-13.77159925848147
 30
0.0
 11
23.6715276665056
 21
-13.77159925848144
 31
0.0
  0
LINE
  5
819
330
80A
100
AcDbEntity
  8
0
100
AcDbLine
 10
23.56565672307022
 20
-9.51278021337896
 30
0.0
 11
24.4388546544846
 21
-12.77159925848144
 31
0.0
  0
LINE
  5
81A
330
80A
100
AcDbEntity
  8
0
100
AcDbLine
 10
22.59973089678116
 20
-9.771599258481472
 30
0.0
 11
18.59973089678112
 21
-9.771599258481472
 31
0.0
  0
LINE
  5
81B
330
80A
100
AcDbEntity
  8
0
100
AcDbLine
 10
18.59973089678115
 20
-13.77159925848144
 30
0.0
 11
17.59973089678115
 21
-13.77159925848144
 31
0.0
  0
LINE
  5
81C
330
80A
100
AcDbEntity
  8
0
100
AcDbLine
 10
18.59973089678115
 20
-9.771599258481472
 30
0.0
 11
18.59973089678115
 21
-13.77159925848144
 31
0.0
  0
LINE
  5
81D
330
80A
100
AcDbEntity
  8
0
100
AcDbLine
 10
22.59973089678116
 20
-9.771599258481472
 30
0.0
 11
23.67152766650562
 21
-13.77159925848147
 31
0.0
  0
ARC
  5
81E
330
80A
100
AcDbEntity
  8
0
100
AcDbCircle
 10
22.59973089678116
 20
-7.271599258481472
 30
0.0
 40
2.5
100
AcDbArc
 50
270.0
 51
270.0000000000007
  0
LINE
  5
81F
330
80A
100
AcDbEntity
  8
0
100
AcDbLine
 10
28.77130377203494
 20
-12.77159925848147
 30
0.0
 11
24.43885465448463
 21
-12.77159925848144
 31
0.0
  0
LINE
  5
820
330
80A
100
AcDbEntity
  8
0
100
AcDbLine
 10
3.599730896781125
 20
-4.771599258481472
 30
0.0
 11
2.599730896781125
 21
-4.771599258481472
 31
0.0
  0
LINE
  5
821
330
80A
100
AcDbEntity
  8
0
100
AcDbLine
 10
22.59973089678116
 20
-8.771599258481472
 30
0.0
 11
18.59973089678115
 21
-8.771599258481472
 31
0.0
  0
LINE
  5
822
330
80A
100
AcDbEntity
  8
0
100
AcDbLine
 10
22.59973089678116
 20
-5.771599258481472
 30
0.0
 11
18.59973089678115
 21
-5.771599258481472
 31
0.0
  0
LINE
  5
823
330
80A
100
AcDbEntity
  8
0
100
AcDbLine
 10
22.59973089678116
 20
-4.771599258481472
 30
0.0
 11
17.59973089678115
 21
-4.771599258481472
 31
0.0
  0
LINE
  5
824
330
80A
100
AcDbEntity
  8
0
100
AcDbLine
 10
18.59973089678115
 20
-5.771599258481472
 30
0.0
 11
18.59973089678115
 21
-8.771599258481472
 31
0.0
  0
ARC
  5
825
330
80A
100
AcDbEntity
  8
0
100
AcDbCircle
 10
22.59973089678116
 20
-7.271599258481472
 30
0.0
 40
1.5
100
AcDbArc
 50
270.0
 51
90.0
  0
ENDBLK
  5
826
330
80A
100
AcDbEntity
  8
0
100
AcDbBlockEnd
  0
BLOCK
  5
A81
330
A77
100
AcDbEntity
  8
0
100
AcDbBlockBegin
  2
*D1
 70
     1
 10
0.0
 20
0.0
 30
0.0
  3
*D1
  1

  0
LINE
  5
C22
330
A77
100
AcDbEntity
  8
BEM
 62
     0
370
    -2
100
AcDbLine
 10
221.099766311993
 20
775.1750769287049
 30
0.0
 11
441.4003775865304
 21
775.1750769287048
 31
0.0
  0
LINE
  5
C23
330
A77
100
AcDbEntity
  8
BEM
 62
     0
370
    -2
100
AcDbLine
 10
410.6635137176482
 20
378.375076928705
 30
0.0
 11
441.4003775865303
 21
378.375076928705
 31
0.0
  0
LINE
  5
C24
330
A77
100
AcDbEntity
  8
BEM
 62
     0
370
    -2
100
AcDbLine
 10
439.4003775865304
 20
768.1750769287048
 30
0.0
 11
439.4003775865304
 21
385.375076928705
 31
0.0
  0
SOLID
  5
C25
330
A77
100
AcDbEntity
  8
BEM
 62
     0
100
AcDbTrace
 10
438.2337109198637
 20
768.1750769287048
 30
0.0
 11
440.5670442531971
 21
768.1750769287048
 31
0.0
 12
439.4003775865304
 22
775.1750769287048
 32
0.0
 13
439.4003775865304
 23
775.1750769287048
 33
0.0
  0
SOLID
  5
C26
330
A77
100
AcDbEntity
  8
BEM
 62
     0
100
AcDbTrace
 10
438.2337109198637
 20
385.375076928705
 30
0.0
 11
440.567044253197
 21
385.375076928705
 31
0.0
 12
439.4003775865303
 22
378.375076928705
 32
0.0
 13
439.4003775865303
 23
378.375076928705
 33
0.0
  0
MTEXT
  5
C27
330
A77
100
AcDbEntity
  8
BEM
 62
     1
100
AcDbMText
 10
432.9003775865303
 20
576.775076928705
 30
0.0
 40
7.0
 41
0.0
 71
     5
 72
     1
  1
\A1;396.8
 11
0.0000000000000001
 21
1.0
 31
0.0
 73
     1
 44
1.0
  0
POINT
  5
C28
330
A77
100
AcDbEntity
  8
DEFPOINTS
 62
     0
100
AcDbPoint
 10
219.099766311993
 20
775.1750769287049
 30
0.0
  0
POINT
  5
C29
330
A77
100
AcDbEntity
  8
DEFPOINTS
 62
     0
100
AcDbPoint
 10
408.6635137176482
 20
378.375076928705
 30
0.0
  0
POINT
  5
C2A
330
A77
100
AcDbEntity
  8
DEFPOINTS
 62
     0
100
AcDbPoint
 10
439.4003775865303
 20
378.375076928705
 30
0.0
  0
ENDBLK
  5
A82
330
A77
100
AcDbEntity
  8
0
100
AcDbBlockEnd
  0
BLOCK
  5
A8D
330
A83
100
AcDbEntity
  8
0
100
AcDbBlockBegin
  2
*D2
 70
     1
 10
0.0
 20
0.0
 30
0.0
  3
*D2
  1

  0
LINE
  5
C19
330
A83
100
AcDbEntity
  8
BEM
 62
     0
370
    -2
100
AcDbLine
 10
299.8997663119926
 20
298.3750769287048
 30
0.0
 11
421.916365281571
 21
298.3750769287047
 31
0.0
  0
LINE
  5
C1A
330
A83
100
AcDbEntity
  8
BEM
 62
     0
370
    -2
100
AcDbLine
 10
410.8997663119927
 20
378.3750769287049
 30
0.0
 11
421.916365281571
 21
378.3750769287049
 31
0.0
  0
LINE
  5
C1B
330
A83
100
AcDbEntity
  8
BEM
 62
     0
370
    -2
100
AcDbLine
 10
419.9163652815711
 20
305.3750769287047
 30
0.0
 11
419.9163652815711
 21
371.3750769287049
 31
0.0
  0
SOLID
  5
C1C
330
A83
100
AcDbEntity
  8
BEM
 62
     0
100
AcDbTrace
 10
418.7496986149043
 20
305.3750769287047
 30
0.0
 11
421.0830319482377
 21
305.3750769287047
 31
0.0
 12
419.9163652815711
 22
298.3750769287047
 32
0.0
 13
419.9163652815711
 23
298.3750769287047
 33
0.0
  0
SOLID
  5
C1D
330
A83
100
AcDbEntity
  8
BEM
 62
     0
100
AcDbTrace
 10
418.7496986149043
 20
371.3750769287049
 30
0.0
 11
421.0830319482377
 21
371.3750769287049
 31
0.0
 12
419.9163652815711
 22
378.3750769287049
 32
0.0
 13
419.9163652815711
 23
378.3750769287049
 33
0.0
  0
MTEXT
  5
C1E
330
A83
100
AcDbEntity
  8
BEM
 62
     1
100
AcDbMText
 10
413.4163652815709
 20
338.375076928705
 30
0.0
 40
7.0
 41
0.0
 71
     5
 72
     1
  1
\A1;80
 11
0.0000000000000001
 21
1.0
 31
0.0
 73
     1
 44
1.0
  0
POINT
  5
C1F
330
A83
100
AcDbEntity
  8
DEFPOINTS
 62
     0
100
AcDbPoint
 10
297.8997663119926
 20
298.3750769287048
 30
0.0
  0
POINT
  5
C20
330
A83
100
AcDbEntity
  8
DEFPOINTS
 62
     0
100
AcDbPoint
 10
408.8997663119926
 20
378.3750769287049
 30
0.0
  0
POINT
  5
C21
330
A83
100
AcDbEntity
  8
DEFPOINTS
 62
     0
100
AcDbPoint
 10
419.9163652815711
 20
378.3750769287049
 30
0.0
  0
ENDBLK
  5
A8E
330
A83
100
AcDbEntity
  8
0
100
AcDbBlockEnd
  0
BLOCK
  5
A99
330
A8F
100
AcDbEntity
  8
0
100
AcDbBlockBegin
  2
*D3
 70
     1
 10
0.0
 20
0.0
 30
0.0
  3
*D3
  1

  0
LINE
  5
C10
330
A8F
100
AcDbEntity
  8
BEM
 62
     0
370
    -2
100
AcDbLine
 10
411.4261980023306
 20
178.3750769287049
 30
0.0
 11
441.4003775865304
 21
178.3750769287049
 31
0.0
  0
LINE
  5
C11
330
A8F
100
AcDbEntity
  8
BEM
 62
     0
370
    -2
100
AcDbLine
 10
440.0269751102797
 20
378.3750769287049
 30
0.0
 11
441.4003775865304
 21
378.3750769287049
 31
0.0
  0
LINE
  5
C12
330
A8F
100
AcDbEntity
  8
BEM
 62
     0
370
    -2
100
AcDbLine
 10
439.4003775865304
 20
185.3750769287049
 30
0.0
 11
439.4003775865304
 21
371.3750769287049
 31
0.0
  0
SOLID
  5
C13
330
A8F
100
AcDbEntity
  8
BEM
 62
     0
100
AcDbTrace
 10
438.2337109198637
 20
185.3750769287049
 30
0.0
 11
440.5670442531971
 21
185.3750769287049
 31
0.0
 12
439.4003775865304
 22
178.3750769287049
 32
0.0
 13
439.4003775865304
 23
178.3750769287049
 33
0.0
  0
SOLID
  5
C14
330
A8F
100
AcDbEntity
  8
BEM
 62
     0
100
AcDbTrace
 10
438.2337109198637
 20
371.3750769287049
 30
0.0
 11
440.5670442531971
 21
371.3750769287049
 31
0.0
 12
439.4003775865304
 22
378.3750769287049
 32
0.0
 13
439.4003775865304
 23
378.3750769287049
 33
0.0
  0
MTEXT
  5
C15
330
A8F
100
AcDbEntity
  8
BEM
 62
     1
100
AcDbMText
 10
432.9003775865303
 20
278.375076928705
 30
0.0
 40
7.0
 41
0.0
 71
     5
 72
     1
  1
\A1;200
 11
0.0000000000000001
 21
1.0
 31
0.0
 73
     1
 44
1.0
  0
POINT
  5
C16
330
A8F
100
AcDbEntity
  8
DEFPOINTS
 62
     0
100
AcDbPoint
 10
409.4261980023307
 20
178.3750769287049
 30
0.0
  0
POINT
  5
C17
330
A8F
100
AcDbEntity
  8
DEFPOINTS
 62
     0
100
AcDbPoint
 10
438.0269751102797
 20
378.3750769287049
 30
0.0
  0
POINT
  5
C18
330
A8F
100
AcDbEntity
  8
DEFPOINTS
 62
     0
100
AcDbPoint
 10
439.4003775865304
 20
378.3750769287049
 30
0.0
  0
ENDBLK
  5
A9A
330
A8F
100
AcDbEntity
  8
0
100
AcDbBlockEnd
  0
BLOCK
  5
AA7
330
A9B
100
AcDbEntity
  8
0
100
AcDbBlockBegin
  2
*D4
 70
     1
 10
0.0
 20
0.0
 30
0.0
  3
*D4
  1

  0
LINE
  5
C36
330
A9B
100
AcDbEntity
  8
BEM
 62
     0
370
    -2
100
AcDbLine
 10
166.920755374039
 20
378.3750769287052
 30
0.0
 11
139.6849648496145
 21
378.3750769287052
 31
0.0
  0
LINE
  5
C37
330
A9B
100
AcDbEntity
  8
BEM
 62
     0
370
    -2
100
AcDbLine
 10
166.9207553740389
 20
380.3750769287052
 30
0.0
 11
139.6849648496145
 21
380.3750769287052
 31
0.0
  0
LINE
  5
C38
330
A9B
100
AcDbEntity
  8
BEM
 62
     0
370
    -2
100
AcDbLine
 10
141.6849648496145
 20
371.3750769287052
 30
0.0
 11
141.6849648496145
 21
364.3750769287052
 31
0.0
  0
LINE
  5
C39
330
A9B
100
AcDbEntity
  8
BEM
 62
     0
370
    -2
100
AcDbLine
 10
141.6849648496145
 20
387.3750769287052
 30
0.0
 11
141.6849648496145
 21
404.1084102620385
 31
0.0
  0
LINE
  5
C3A
330
A9B
100
AcDbEntity
  8
BEM
 62
     0
370
    -2
100
AcDbLine
 10
141.6849648496145
 20
378.3750769287052
 30
0.0
 11
141.6849648496145
 21
380.3750769287052
 31
0.0
  0
SOLID
  5
C3B
330
A9B
100
AcDbEntity
  8
BEM
 62
     0
100
AcDbTrace
 10
140.5182981829479
 20
371.3750769287052
 30
0.0
 11
142.8516315162812
 21
371.3750769287052
 31
0.0
 12
141.6849648496145
 22
378.3750769287052
 32
0.0
 13
141.6849648496145
 23
378.3750769287052
 33
0.0
  0
SOLID
  5
C3C
330
A9B
100
AcDbEntity
  8
BEM
 62
     0
100
AcDbTrace
 10
140.5182981829479
 20
387.3750769287052
 30
0.0
 11
142.8516315162812
 21
387.3750769287052
 31
0.0
 12
141.6849648496145
 22
380.3750769287052
 32
0.0
 13
141.6849648496145
 23
380.3750769287052
 33
0.0
  0
MTEXT
  5
C3D
330
A9B
100
AcDbEntity
  8
BEM
 62
     1
100
AcDbMText
 10
135.1849648496145
 20
399.2417435953719
 30
0.0
 40
7.0
 41
0.0
 71
     5
 72
     1
  1
\A1;2
 11
0.0000000000000001
 21
1.0
 31
0.0
 73
     1
 44
1.0
  0
POINT
  5
C3E
330
A9B
100
AcDbEntity
  8
DEFPOINTS
 62
     0
100
AcDbPoint
 10
168.920755374039
 20
378.3750769287052
 30
0.0
  0
POINT
  5
C3F
330
A9B
100
AcDbEntity
  8
DEFPOINTS
 62
     0
100
AcDbPoint
 10
168.9207553740389
 20
380.3750769287052
 30
0.0
  0
POINT
  5
C40
330
A9B
100
AcDbEntity
  8
DEFPOINTS
 62
     0
100
AcDbPoint
 10
141.6849648496145
 20
380.3750769287052
 30
0.0
  0
ENDBLK
  5
AA8
330
A9B
100
AcDbEntity
  8
0
100
AcDbBlockEnd
  0
BLOCK
  5
AD6
330
ACC
100
AcDbEntity
  8
0
100
AcDbBlockBegin
  2
*D5
 70
     1
 10
0.0
 20
0.0
 30
0.0
  3
*D5
  1

  0
LINE
  5
C4A
330
ACC
100
AcDbEntity
  8
BEM
 62
     0
370
    -2
100
AcDbLine
 10
168.8997663119926
 20
176.3750769287051
 30
0.0
 11
168.8997663119926
 21
119.4784468454266
 31
0.0
  0
LINE
  5
C4B
330
ACC
100
AcDbEntity
  8
BEM
 62
     0
370
    -2
100
AcDbLine
 10
408.8997663119926
 20
176.3750769287049
 30
0.0
 11
408.8997663119926
 21
119.4784468454266
 31
0.0
  0
LINE
  5
C4C
330
ACC
100
AcDbEntity
  8
BEM
 62
     0
370
    -2
100
AcDbLine
 10
175.8997663119926
 20
121.4784468454266
 30
0.0
 11
401.8997663119925
 21
121.4784468454266
 31
0.0
  0
SOLID
  5
C4D
330
ACC
100
AcDbEntity
  8
BEM
 62
     0
100
AcDbTrace
 10
175.8997663119926
 20
122.6451135120933
 30
0.0
 11
175.8997663119926
 21
120.3117801787599
 31
0.0
 12
168.8997663119926
 22
121.4784468454266
 32
0.0
 13
168.8997663119926
 23
121.4784468454266
 33
0.0
  0
SOLID
  5
C4E
330
ACC
100
AcDbEntity
  8
BEM
 62
     0
100
AcDbTrace
 10
401.8997663119925
 20
122.6451135120933
 30
0.0
 11
401.8997663119925
 21
120.3117801787599
 31
0.0
 12
408.8997663119926
 22
121.4784468454266
 32
0.0
 13
408.8997663119926
 23
121.4784468454266
 33
0.0
  0
MTEXT
  5
C4F
330
ACC
100
AcDbEntity
  8
BEM
 62
     1
100
AcDbMText
 10
290.9338843559067
 20
127.9784468454266
 30
0.0
 40
7.0
 41
0.0
 71
     5
 72
     1
  1
\A1;240
 73
     1
 44
1.0
  0
POINT
  5
C50
330
ACC
100
AcDbEntity
  8
DEFPOINTS
 62
     0
100
AcDbPoint
 10
168.8997663119926
 20
178.3750769287051
 30
0.0
  0
POINT
  5
C51
330
ACC
100
AcDbEntity
  8
DEFPOINTS
 62
     0
100
AcDbPoint
 10
408.8997663119926
 20
178.3750769287049
 30
0.0
  0
POINT
  5
C52
330
ACC
100
AcDbEntity
  8
DEFPOINTS
 62
     0
100
AcDbPoint
 10
408.8997663119926
 20
121.4784468454266
 30
0.0
  0
ENDBLK
  5
AD7
330
ACC
100
AcDbEntity
  8
0
100
AcDbBlockEnd
  0
BLOCK
  5
AE2
330
AD8
100
AcDbEntity
  8
0
100
AcDbBlockBegin
  2
*D6
 70
     1
 10
0.0
 20
0.0
 30
0.0
  3
*D6
  1

  0
LINE
  5
C41
330
AD8
100
AcDbEntity
  8
BEM
 62
     0
370
    -2
100
AcDbLine
 10
183.8997663119926
 20
171.0590841449903
 30
0.0
 11
183.8997663119926
 21
134.4984715337751
 31
0.0
  0
LINE
  5
C42
330
AD8
100
AcDbEntity
  8
BEM
 62
     0
370
    -2
100
AcDbLine
 10
393.8997663119926
 20
171.0590841449903
 30
0.0
 11
393.8997663119926
 21
134.4984715337751
 31
0.0
  0
LINE
  5
C43
330
AD8
100
AcDbEntity
  8
BEM
 62
     0
370
    -2
100
AcDbLine
 10
190.8997663119926
 20
136.4984715337751
 30
0.0
 11
386.8997663119926
 21
136.4984715337751
 31
0.0
  0
SOLID
  5
C44
330
AD8
100
AcDbEntity
  8
BEM
 62
     0
100
AcDbTrace
 10
190.8997663119926
 20
137.6651382004417
 30
0.0
 11
190.8997663119926
 21
135.3318048671084
 31
0.0
 12
183.8997663119926
 22
136.4984715337751
 32
0.0
 13
183.8997663119926
 23
136.4984715337751
 33
0.0
  0
SOLID
  5
C45
330
AD8
100
AcDbEntity
  8
BEM
 62
     0
100
AcDbTrace
 10
386.8997663119926
 20
137.6651382004417
 30
0.0
 11
386.8997663119926
 21
135.3318048671084
 31
0.0
 12
393.8997663119926
 22
136.4984715337751
 32
0.0
 13
393.8997663119926
 23
136.4984715337751
 33
0.0
  0
MTEXT
  5
C46
330
AD8
100
AcDbEntity
  8
BEM
 62
     1
100
AcDbMText
 10
288.8997663119926
 20
142.9984715337751
 30
0.0
 40
7.0
 41
0.0
 71
     5
 72
     1
  1
\A1;210
 73
     1
 44
1.0
  0
POINT
  5
C47
330
AD8
100
AcDbEntity
  8
DEFPOINTS
 62
     0
100
AcDbPoint
 10
183.8997663119926
 20
173.0590841449903
 30
0.0
  0
POINT
  5
C48
330
AD8
100
AcDbEntity
  8
DEFPOINTS
 62
     0
100
AcDbPoint
 10
393.8997663119926
 20
173.0590841449903
 30
0.0
  0
POINT
  5
C49
330
AD8
100
AcDbEntity
  8
DEFPOINTS
 62
     0
100
AcDbPoint
 10
393.8997663119926
 20
136.4984715337751
 30
0.0
  0
ENDBLK
  5
AE3
330
AD8
100
AcDbEntity
  8
0
100
AcDbBlockEnd
  0
BLOCK
  5
AFB
330
AEF
100
AcDbEntity
  8
0
100
AcDbBlockBegin
  2
*D7
 70
     1
 10
0.0
 20
0.0
 30
0.0
  3
*D7
  1

  0
LINE
  5
C2B
330
AEF
100
AcDbEntity
  8
BEM
 62
     0
370
    -2
100
AcDbLine
 10
166.8997663119926
 20
178.3750769287051
 30
0.0
 11
139.6639757875682
 21
178.3750769287051
 31
0.0
  0
LINE
  5
C2C
330
AEF
100
AcDbEntity
  8
BEM
 62
     0
370
    -2
100
AcDbLine
 10
166.8997663119926
 20
180.3750769287051
 30
0.0
 11
139.6639757875682
 21
180.3750769287051
 31
0.0
  0
LINE
  5
C2D
330
AEF
100
AcDbEntity
  8
BEM
 62
     0
370
    -2
100
AcDbLine
 10
141.6639757875682
 20
171.3750769287051
 30
0.0
 11
141.6639757875682
 21
164.3750769287051
 31
0.0
  0
LINE
  5
C2E
330
AEF
100
AcDbEntity
  8
BEM
 62
     0
370
    -2
100
AcDbLine
 10
141.6639757875682
 20
187.3750769287051
 30
0.0
 11
141.6639757875682
 21
204.1084102620385
 31
0.0
  0
LINE
  5
C2F
330
AEF
100
AcDbEntity
  8
BEM
 62
     0
370
    -2
100
AcDbLine
 10
141.6639757875682
 20
178.3750769287051
 30
0.0
 11
141.6639757875682
 21
180.3750769287051
 31
0.0
  0
SOLID
  5
C30
330
AEF
100
AcDbEntity
  8
BEM
 62
     0
100
AcDbTrace
 10
140.4973091209015
 20
171.3750769287051
 30
0.0
 11
142.8306424542349
 21
171.3750769287051
 31
0.0
 12
141.6639757875682
 22
178.3750769287051
 32
0.0
 13
141.6639757875682
 23
178.3750769287051
 33
0.0
  0
SOLID
  5
C31
330
AEF
100
AcDbEntity
  8
BEM
 62
     0
100
AcDbTrace
 10
140.4973091209015
 20
187.3750769287051
 30
0.0
 11
142.8306424542349
 21
187.3750769287051
 31
0.0
 12
141.6639757875682
 22
180.3750769287051
 32
0.0
 13
141.6639757875682
 23
180.3750769287051
 33
0.0
  0
MTEXT
  5
C32
330
AEF
100
AcDbEntity
  8
BEM
 62
     1
100
AcDbMText
 10
135.1639757875682
 20
199.2417435953718
 30
0.0
 40
7.0
 41
0.0
 71
     5
 72
     1
  1
\A1;2
 11
0.0000000000000001
 21
1.0
 31
0.0
 73
     1
 44
1.0
  0
POINT
  5
C33
330
AEF
100
AcDbEntity
  8
DEFPOINTS
 62
     0
100
AcDbPoint
 10
168.8997663119926
 20
178.3750769287051
 30
0.0
  0
POINT
  5
C34
330
AEF
100
AcDbEntity
  8
DEFPOINTS
 62
     0
100
AcDbPoint
 10
168.8997663119926
 20
180.3750769287051
 30
0.0
  0
POINT
  5
C35
330
AEF
100
AcDbEntity
  8
DEFPOINTS
 62
     0
100
AcDbPoint
 10
141.6639757875682
 20
180.3750769287051
 30
0.0
  0
ENDBLK
  5
AFC
330
AEF
100
AcDbEntity
  8
0
100
AcDbBlockEnd
  0
BLOCK
  5
C67
330
C5D
100
AcDbEntity
  8
0
100
AcDbBlockBegin
  2
*D8
 70
     1
 10
0.0
 20
0.0
 30
0.0
  3
*D8
  1

  0
LINE
  5
C5E
330
C5D
100
AcDbEntity
  8
BEM
 62
     0
370
    -2
100
AcDbLine
 10
149.2997663119929
 20
698.3750769287049
 30
0.0
 11
149.2997663119929
 21
795.7723144704516
 31
0.0
  0
LINE
  5
C5F
330
C5D
100
AcDbEntity
  8
BEM
 62
     0
370
    -2
100
AcDbLine
 10
288.899766311993
 20
698.3750769287049
 30
0.0
 11
288.899766311993
 21
795.7723144704516
 31
0.0
  0
LINE
  5
C60
330
C5D
100
AcDbEntity
  8
BEM
 62
     0
370
    -2
100
AcDbLine
 10
156.299766311993
 20
793.7723144704516
 30
0.0
 11
281.899766311993
 21
793.7723144704516
 31
0.0
  0
SOLID
  5
C61
330
C5D
100
AcDbEntity
  8
BEM
 62
     0
100
AcDbTrace
 10
156.299766311993
 20
794.9389811371182
 30
0.0
 11
156.299766311993
 21
792.605647803785
 31
0.0
 12
149.2997663119929
 22
793.7723144704516
 32
0.0
 13
149.2997663119929
 23
793.7723144704516
 33
0.0
  0
SOLID
  5
C62
330
C5D
100
AcDbEntity
  8
BEM
 62
     0
100
AcDbTrace
 10
281.899766311993
 20
794.9389811371182
 30
0.0
 11
281.899766311993
 21
792.605647803785
 31
0.0
 12
288.899766311993
 22
793.7723144704516
 32
0.0
 13
288.899766311993
 23
793.7723144704516
 33
0.0
  0
MTEXT
  5
C63
330
C5D
100
AcDbEntity
  8
BEM
 62
     1
100
AcDbMText
 10
219.099766311993
 20
800.2723144704516
 30
0.0
 40
7.0
 41
0.0
 71
     5
 72
     1
  1
\A1;139.6
 73
     1
 44
1.0
  0
POINT
  5
C64
330
C5D
100
AcDbEntity
  8
DEFPOINTS
 62
     0
100
AcDbPoint
 10
149.2997663119929
 20
696.375076928705
 30
0.0
  0
POINT
  5
C65
330
C5D
100
AcDbEntity
  8
DEFPOINTS
 62
     0
100
AcDbPoint
 10
288.899766311993
 20
696.375076928705
 30
0.0
  0
POINT
  5
C66
330
C5D
100
AcDbEntity
  8
DEFPOINTS
 62
     0
100
AcDbPoint
 10
288.899766311993
 20
793.7723144704516
 30
0.0
  0
ENDBLK
  5
C68
330
C5D
100
AcDbEntity
  8
0
100
AcDbBlockEnd
  0
ENDSEC
  0
SECTION
  2
ENTITIES
  0
DIMENSION
  5
98A
102
{ACAD_XDICTIONARY
360
98B
102
}
102
{ACAD_REACTORS
330
98C
102
}
330
1E
100
AcDbEntity
  8
BEM
100
AcDbDimension
  2
*D5
 10
408.8997663119926
 20
121.4784468454266
 30
0.0
 11
290.9338843559067
 21
121.4784468454266
 31
0.0
 70
   160
 71
     5
 42
239.9999999999999
  3
Standard
100
AcDbAlignedDimension
 13
168.8997663119926
 23
178.3750769287051
 33
0.0
 14
408.8997663119926
 24
178.3750769287049
 34
0.0
100
AcDbRotatedDimension
1001
ACAD
1000
DSTYLE
1002
{
1070
    40
1040
2.0
1070
    41
1040
3.5
1070
    42
1040
1.0
1070
    43
1040
7.0
1070
    44
1040
1.0
1070
    47
1040
0.5
1070
    48
1040
0.5
1070
    73
1070
     0
1070
    74
1070
     0
1070
    77
1070
     1
1070
    78
1070
     8
1070
    79
1070
     2
1070
   140
1040
3.5
1070
   141
1040
1.5
1070
   146
1040
0.5
1070
   147
1040
1.5
1070
   172
1070
     1
1070
   178
1070
     1
1070
   179
1070
     2
1070
   271
1070
     2
1070
   272
1070
     2
1070
   284
1070
     8
1070
   285
1070
     8
1070
   286
1070
     8
1002
}
  0
DIMENSION
  5
98D
102
{ACAD_XDICTIONARY
360
98E
102
}
102
{ACAD_REACTORS
330
98F
102
}
330
1E
100
AcDbEntity
  8
BEM
100
AcDbDimension
  2
*D6
 10
393.8997663119926
 20
136.4984715337751
 30
0.0
 11
288.8997663119926
 21
142.9984715337751
 31
0.0
 70
    32
 71
     5
 42
210.0
  3
Standard
100
AcDbAlignedDimension
 13
183.8997663119926
 23
173.0590841449903
 33
0.0
 14
393.8997663119926
 24
173.0590841449903
 34
0.0
100
AcDbRotatedDimension
1001
ACAD
1000
DSTYLE
1002
{
1070
    40
1040
2.0
1070
    41
1040
3.5
1070
    42
1040
1.0
1070
    43
1040
7.0
1070
    44
1040
1.0
1070
    47
1040
0.5
1070
    48
1040
0.5
1070
    73
1070
     0
1070
    74
1070
     0
1070
    77
1070
     1
1070
    78
1070
     8
1070
    79
1070
     2
1070
   140
1040
3.5
1070
   141
1040
1.5
1070
   146
1040
0.5
1070
   147
1040
1.5
1070
   172
1070
     1
1070
   178
1070
     1
1070
   179
1070
     2
1070
   271
1070
     2
1070
   272
1070
     2
1070
   284
1070
     8
1070
   285
1070
     8
1070
   286
1070
     8
1002
}
  0
DIMENSION
  5
990
330
1E
100
AcDbEntity
  8
BEM
100
AcDbDimension
  2
*D4
 10
141.6849648496145
 20
380.3750769287052
 30
0.0
 11
135.1849648496145
 21
399.2417435953719
 31
0.0
 70
    32
 71
     5
 42
2.0
  3
Standard
100
AcDbAlignedDimension
 13
168.920755374039
 23
378.3750769287052
 33
0.0
 14
168.9207553740389
 24
380.3750769287052
 34
0.0
 50
270.0
100
AcDbRotatedDimension
1001
ACAD
1000
DSTYLE
1002
{
1070
    40
1040
2.0
1070
    41
1040
3.5
1070
    42
1040
1.0
1070
    43
1040
7.0
1070
    44
1040
1.0
1070
    47
1040
0.5
1070
    48
1040
0.5
1070
    73
1070
     0
1070
    74
1070
     0
1070
    77
1070
     2
1070
    78
1070
     8
1070
    79
1070
     2
1070
   140
1040
3.5
1070
   141
1040
1.5
1070
   146
1040
0.5
1070
   147
1040
1.5
1070
   172
1070
     1
1070
   178
1070
     1
1070
   179
1070
     2
1070
   271
1070
     2
1070
   272
1070
     2
1070
   284
1070
     8
1070
   285
1070
     8
1070
   286
1070
     8
1002
}
  0
DIMENSION
  5
991
102
{ACAD_XDICTIONARY
360
992
102
}
102
{ACAD_REACTORS
330
993
102
}
330
1E
100
AcDbEntity
  8
BEM
100
AcDbDimension
  2
*D7
 10
141.6639757875682
 20
180.3750769287051
 30
0.0
 11
135.1639757875682
 21
199.2417435953718
 31
0.0
 70
    32
 71
     5
 42
2.0
  3
Standard
100
AcDbAlignedDimension
 13
168.8997663119926
 23
178.3750769287051
 33
0.0
 14
168.8997663119926
 24
180.3750769287051
 34
0.0
 50
270.0
100
AcDbRotatedDimension
1001
ACAD
1000
DSTYLE
1002
{
1070
    40
1040
2.0
1070
    41
1040
3.5
1070
    42
1040
1.0
1070
    43
1040
7.0
1070
    44
1040
1.0
1070
    47
1040
0.5
1070
    48
1040
0.5
1070
    73
1070
     0
1070
    74
1070
     0
1070
    77
1070
     2
1070
    78
1070
     8
1070
    79
1070
     2
1070
   140
1040
3.5
1070
   141
1040
1.5
1070
   146
1040
0.5
1070
   147
1040
1.5
1070
   172
1070
     1
1070
   178
1070
     1
1070
   179
1070
     2
1070
   271
1070
     2
1070
   272
1070
     2
1070
   284
1070
     8
1070
   285
1070
     8
1070
   286
1070
     8
1002
}
  0
POLYLINE
  5
997
330
1E
100
AcDbEntity
  8
HILF
100
AcDb2dPolyline
 66
     1
 10
0.0
 20
0.0
 30
0.0
 70
     4
 75
     6
  0
VERTEX
  5
998
330
997
100
AcDbEntity
  8
HILF
100
AcDbVertex
100
AcDb2dVertex
 10
279.899766311993
 20
501.3750769287049
 30
0.0
 70
    16
  0
VERTEX
  5
999
330
997
100
AcDbEntity
  8
HILF
100
AcDbVertex
100
AcDb2dVertex
 10
279.899766311993
 20
501.3750769287049
 30
0.0
 70
     8
  0
VERTEX
  5
99A
330
997
100
AcDbEntity
  8
HILF
100
AcDbVertex
100
AcDb2dVertex
 10
280.3077210081871
 20
501.0954536602244
 30
0.0
 70
     8
  0
VERTEX
  5
99B
330
997
100
AcDbEntity
  8
HILF
100
AcDbVertex
100
AcDb2dVertex
 10
280.7749121145696
 20
500.7886568272278
 30
0.0
 70
     8
  0
VERTEX
  5
99C
330
997
100
AcDbEntity
  8
HILF
100
AcDbVertex
100
AcDb2dVertex
 10
281.2913301578414
 20
500.4603429394288
 30
0.0
 70
     8
  0
VERTEX
  5
99D
330
997
100
AcDbEntity
  8
HILF
100
AcDbVertex
100
AcDb2dVertex
 10
281.846965664703
 20
500.1161685065413
 30
0.0
 70
     8
  0
VERTEX
  5
99E
330
997
100
AcDbEntity
  8
HILF
100
AcDbVertex
100
AcDb2dVertex
 10
282.4318091618551
 20
499.7617900382794
 30
0.0
 70
     8
  0
VERTEX
  5
99F
330
997
100
AcDbEntity
  8
HILF
100
AcDbVertex
100
AcDb2dVertex
 10
283.0358511759988
 20
499.4028640443571
 30
0.0
 70
     8
  0
VERTEX
  5
9A0
330
997
100
AcDbEntity
  8
HILF
100
AcDbVertex
100
AcDb2dVertex
 10
283.6490822338344
 20
499.045047034488
 30
0.0
 70
     8
  0
VERTEX
  5
9A1
330
997
100
AcDbEntity
  8
HILF
100
AcDbVertex
100
AcDb2dVertex
 10
284.2614928620629
 20
498.6939955183861
 30
0.0
 70
     8
  0
VERTEX
  5
9A2
330
997
100
AcDbEntity
  8
HILF
100
AcDbVertex
100
AcDb2dVertex
 10
284.86447423107
 20
498.3540737472818
 30
0.0
 70
     8
  0
VERTEX
  5
9A3
330
997
100
AcDbEntity
  8
HILF
100
AcDbVertex
100
AcDb2dVertex
 10
285.455020085982
 20
498.0244769384699
 30
0.0
 70
     8
  0
VERTEX
  5
9A4
330
997
100
AcDbEntity
  8
HILF
100
AcDbVertex
100
AcDb2dVertex
 10
286.0315248156101
 20
497.7031080507619
 30
0.0
 70
     8
  0
VERTEX
  5
9A5
330
997
100
AcDbEntity
  8
HILF
100
AcDbVertex
100
AcDb2dVertex
 10
286.5923828087657
 20
497.3878700429688
 30
0.0
 70
     8
  0
VERTEX
  5
9A6
330
997
100
AcDbEntity
  8
HILF
100
AcDbVertex
100
AcDb2dVertex
 10
287.13598845426
 20
497.0766658739021
 30
0.0
 70
     8
  0
VERTEX
  5
9A7
330
997
100
AcDbEntity
  8
HILF
100
AcDbVertex
100
AcDb2dVertex
 10
287.6607361409044
 20
496.767398502373
 30
0.0
 70
     8
  0
VERTEX
  5
9A8
330
997
100
AcDbEntity
  8
HILF
100
AcDbVertex
100
AcDb2dVertex
 10
288.1650202575102
 20
496.4579708871927
 30
0.0
 70
     8
  0
VERTEX
  5
9A9
330
997
100
AcDbEntity
  8
HILF
100
AcDbVertex
100
AcDb2dVertex
 10
288.6472351928885
 20
496.1462859871726
 30
0.0
 70
     8
  0
VERTEX
  5
9AA
330
997
100
AcDbEntity
  8
HILF
100
AcDbVertex
100
AcDb2dVertex
 10
289.1079948476399
 20
495.8315487796255
 30
0.0
 70
     8
  0
VERTEX
  5
9AB
330
997
100
AcDbEntity
  8
HILF
100
AcDbVertex
100
AcDb2dVertex
 10
289.5567911695206
 20
495.5181723158703
 30
0.0
 70
     8
  0
VERTEX
  5
9AC
330
997
100
AcDbEntity
  8
HILF
100
AcDbVertex
100
AcDb2dVertex
 10
290.0053356180758
 20
495.2118716657274
 30
0.0
 70
     8
  0
VERTEX
  5
9AD
330
997
100
AcDbEntity
  8
HILF
100
AcDbVertex
100
AcDb2dVertex
 10
290.465339652851
 20
494.9183618990175
 30
0.0
 70
     8
  0
VERTEX
  5
9AE
330
997
100
AcDbEntity
  8
HILF
100
AcDbVertex
100
AcDb2dVertex
 10
290.9485147333914
 20
494.643358085561
 30
0.0
 70
     8
  0
VERTEX
  5
9AF
330
997
100
AcDbEntity
  8
HILF
100
AcDbVertex
100
AcDb2dVertex
 10
291.4665723192425
 20
494.3925752951786
 30
0.0
 70
     8
  0
VERTEX
  5
9B0
330
997
100
AcDbEntity
  8
HILF
100
AcDbVertex
100
AcDb2dVertex
 10
292.0312238699494
 20
494.1717285976905
 30
0.0
 70
     8
  0
VERTEX
  5
9B1
330
997
100
AcDbEntity
  8
HILF
100
AcDbVertex
100
AcDb2dVertex
 10
292.6541808450576
 20
493.9865330629175
 30
0.0
 70
     8
  0
VERTEX
  5
9B2
330
997
100
AcDbEntity
  8
HILF
100
AcDbVertex
100
AcDb2dVertex
 10
293.3408218120073
 20
493.8408894525322
 30
0.0
 70
     8
  0
VERTEX
  5
9B3
330
997
100
AcDbEntity
  8
HILF
100
AcDbVertex
100
AcDb2dVertex
 10
294.0711937698182
 20
493.7314412956153
 30
0.0
 70
     8
  0
VERTEX
  5
9B4
330
997
100
AcDbEntity
  8
HILF
100
AcDbVertex
100
AcDb2dVertex
 10
294.8190108254051
 20
493.6530178131001
 30
0.0
 70
     8
  0
VERTEX
  5
9B5
330
997
100
AcDbEntity
  8
HILF
100
AcDbVertex
100
AcDb2dVertex
 10
295.5579870856825
 20
493.6004482259195
 30
0.0
 70
     8
  0
VERTEX
  5
9B6
330
997
100
AcDbEntity
  8
HILF
100
AcDbVertex
100
AcDb2dVertex
 10
296.2618366575654
 20
493.5685617550068
 30
0.0
 70
     8
  0
VERTEX
  5
9B7
330
997
100
AcDbEntity
  8
HILF
100
AcDbVertex
100
AcDb2dVertex
 10
296.9042736479683
 20
493.5521876212948
 30
0.0
 70
     8
  0
VERTEX
  5
9B8
330
997
100
AcDbEntity
  8
HILF
100
AcDbVertex
100
AcDb2dVertex
 10
297.459012163806
 20
493.5461550457167
 30
0.0
 70
     8
  0
VERTEX
  5
9B9
330
997
100
AcDbEntity
  8
HILF
100
AcDbVertex
100
AcDb2dVertex
 10
297.8997663119931
 20
493.5452932492055
 30
0.0
 70
     8
  0
VERTEX
  5
9BA
330
997
100
AcDbEntity
  8
HILF
100
AcDbVertex
100
AcDb2dVertex
 10
280.8997663119933
 20
500.6706743074134
 30
0.0
 70
    16
  0
VERTEX
  5
9BB
330
997
100
AcDbEntity
  8
HILF
100
AcDbVertex
100
AcDb2dVertex
 10
284.3770118263983
 20
498.5614941479196
 30
0.0
 70
    16
  0
VERTEX
  5
9BC
330
997
100
AcDbEntity
  8
HILF
100
AcDbVertex
100
AcDb2dVertex
 10
288.8997663119931
 20
496.1927321314777
 30
0.0
 70
    16
  0
VERTEX
  5
9BD
330
997
100
AcDbEntity
  8
HILF
100
AcDbVertex
100
AcDb2dVertex
 10
291.9073340829609
 20
493.5452932492055
 30
0.0
 70
    16
  0
VERTEX
  5
9BE
330
997
100
AcDbEntity
  8
HILF
100
AcDbVertex
100
AcDb2dVertex
 10
296.899766311993
 20
493.5452932492055
 30
0.0
 70
    16
  0
VERTEX
  5
9BF
330
997
100
AcDbEntity
  8
HILF
100
AcDbVertex
100
AcDb2dVertex
 10
297.8997663119931
 20
493.5452932492055
 30
0.0
 70
    16
  0
SEQEND
  5
9C0
330
997
100
AcDbEntity
  8
HILF
  0
LINE
  5
9C1
330
1E
100
AcDbEntity
  8
STEMPEL
100
AcDbLine
 10
297.899766311993
 20
378.3750769287049
 30
0.0
 11
299.8997663119928
 21
378.3750769287049
 31
0.0
  0
HATCH
  5
9C2
330
1E
100
AcDbEntity
  8
SCHRAFF
100
AcDbHatch
 10
0.0
 20
0.0
 30
0.0
210
0.0
220
0.0
230
1.0
  2
ANSI31
 70
     0
 71
     0
 91
        2
 92
        7
 72
     1
 73
     1
 93
        3
 10
277.8997663119927
 20
192.201640645476
 42
0.6862432661967492
 10
276.0728106834061
 20
190.375076928705
 42
0.0
 10
277.8997663119927
 20
190.375076928705
 42
0.0
 97
        0
 92
        7
 72
     1
 73
     1
 93
        3
 10
299.8997663119928
 20
192.2016406454762
 42
0.0
 10
299.8997663119928
 20
190.375076928705
 42
0.0
 10
301.7267219405791
 20
190.375076928705
 42
0.6862432661966901
 97
        0
 75
     0
 76
     1
 52
0.0
 41
0.25
 77
     0
 78
     1
 53
45.0
 43
619.1660136430137
 44
-363.8551338528802
 45
-0.0220970869120796
 46
0.0220970869120796
 79
     0
 47
0.0510137438937661
 98
        2
 10
277.2193690516829
 20
191.2137077695302
 10
300.5949728167177
 20
190.7545841521265
  0
ARC
  5
9C3
330
1E
100
AcDbEntity
  8
SCHRAFF
100
AcDbCircle
 10
300.4611895265235
 20
190.9362286496635
 30
0.0
 40
1.384363949602978
100
AcDbArc
 50
336.0869475282524
 51
113.925344670452
  0
ARC
  5
9C4
330
1E
100
AcDbEntity
  8
SCHRAFF
100
AcDbCircle
 10
277.3383430974619
 20
190.9362286496635
 30
0.0
 40
1.384363949602978
100
AcDbArc
 50
66.07465532954802
 51
203.9130524717476
  0
HATCH
  5
9C5
330
1E
100
AcDbEntity
  8
SCHRAFF
100
AcDbHatch
 10
0.0
 20
0.0
 30
0.0
210
0.0
220
0.0
230
1.0
  2
_U
 70
     0
 71
     0
 91
        4
 92
        7
 72
     1
 73
     1
 93
        6
 10
277.8997663119927
 20
190.375076928705
 42
0.0
 10
275.8773149515367
 20
190.375076928705
 42
-0.3500558568021979
 10
264.8395147851716
 20
180.3750769287051
 42
0.0
 10
183.8997663119926
 20
180.3750769287051
 42
0.0
 10
183.8997663119926
 20
178.375076928705
 42
0.0
 10
264.8997663119938
 20
178.375076928705
 42
0.3579227290616393
 97
        0
 92
        7
 72
     0
 73
     1
 93
        4
 10
183.8997663119926
 20
180.3750769287051
 10
168.8997663119926
 20
180.3750769287051
 10
168.8997663119926
 20
178.3750769287051
 10
183.8997663119926
 20
178.3750769287051
 97
        0
 92
        7
 72
     1
 73
     1
 93
        6
 10
301.9222176724487
 20
190.375076928705
 42
0.0
 10
299.8997663119926
 20
190.375076928705
 42
0.3579227290616326
 10
312.8997663119912
 20
178.375076928705
 42
0.0
 10
393.8997663119926
 20
178.375076928705
 42
0.0
 10
393.8997663119926
 20
180.375076928705
 42
0.0
 10
312.9600178388137
 20
180.3750769287051
 42
-0.3500558568021963
 97
        0
 92
        7
 72
     0
 73
     1
 93
        4
 10
408.8997663119926
 20
180.3750769287051
 10
393.8997663119926
 20
180.3750769287051
 10
393.8997663119926
 20
178.3750769287048
 10
408.8997663119926
 20
178.3750769287049
 97
        0
 75
     0
 76
     0
 52
135.0
 41
2.0
 77
     0
 78
     1
 53
135.0
 43
14.84288252803617
 44
0.0
 45
-1.414213562373095
 46
-1.414213562373094
 79
     0
 47
0.6103704595383627
 98
        4
 10
220.3250176300699
 20
179.7720366131046
 10
178.1890731051255
 20
179.7720366131046
 10
303.9862393805024
 20
182.8238881317166
 10
398.639447736763
 20
179.1616654548039
  0
HATCH
  5
9C6
330
1E
100
AcDbEntity
  8
SCHRAFF
100
AcDbHatch
 10
0.0
 20
0.0
 30
0.0
210
0.0
220
0.0
230
1.0
  2
_U
 70
     0
 71
     0
 91
        2
 92
        7
 72
     0
 73
     1
 93
        4
 10
279.0997663119928
 20
378.3750769287048
 10
277.8997663119927
 20
378.3750769287048
 10
277.8997663119927
 20
183.3750769287049
 10
279.0997663119926
 20
183.3750769287049
 97
        0
 92
        7
 72
     0
 73
     1
 93
        4
 10
299.8997663119928
 20
378.3750769287049
 10
298.6997663119928
 20
378.375076928705
 10
298.6997663119927
 20
183.375076928705
 10
299.8997663119928
 20
183.375076928705
 97
        0
 75
     0
 76
     0
 52
45.0
 41
2.0
 77
     0
 78
     1
 53
45.0
 43
14.84288252803617
 44
0.0
 45
-1.414213562373094
 46
1.414213562373095
 79
     0
 47
0.6888493234984241
 98
        2
 10
278.3918660295042
 20
315.5270584965042
 10
299.0673478910037
 20
309.3274133775372
  0
LINE
  5
9C7
330
1E
100
AcDbEntity
  8
STEMPEL
100
AcDbLine
 10
408.8997663119926
 20
180.3750769287051
 30
0.0
 11
312.9600178388138
 21
180.3750769287051
 31
0.0
  0
LINE
  5
9C8
330
1E
100
AcDbEntity
  8
STEMPEL
100
AcDbLine
 10
301.9222176724487
 20
190.375076928705
 30
0.0
 11
299.8997663119926
 21
190.375076928705
 31
0.0
  0
ARC
  5
9C9
330
1E
100
AcDbEntity
  8
STEMPEL
100
AcDbCircle
 10
313.7076955036382
 20
192.2920002196543
 30
0.0
 40
13.94035521300955
100
AcDbArc
 50
187.9037241329454
 51
266.6774959523283
  0
ARC
  5
9CA
330
1E
100
AcDbEntity
  8
STEMPEL
100
AcDbCircle
 10
313.7076955036382
 20
192.2920002196543
 30
0.0
 40
11.94035521300955
100
AcDbArc
 50
189.2383318729084
 51
266.6774959523283
  0
ARC
  5
9CB
330
1E
100
AcDbEntity
  8
STEMPEL
100
AcDbCircle
 10
264.0918371203471
 20
192.2920002196543
 30
0.0
 40
11.94035521300955
100
AcDbArc
 50
273.3225040476717
 51
350.7616681270915
  0
ARC
  5
9CC
330
1E
100
AcDbEntity
  8
STEMPEL
100
AcDbCircle
 10
264.0918371203471
 20
192.2920002196543
 30
0.0
 40
13.94035521300955
100
AcDbArc
 50
273.3225040476717
 51
352.0962758670545
  0
LINE
  5
9CD
330
1E
100
AcDbEntity
  8
STEMPEL
100
AcDbLine
 10
275.8773149515367
 20
190.375076928705
 30
0.0
 11
277.8997663119927
 21
190.375076928705
 31
0.0
  0
LINE
  5
9CE
330
1E
100
AcDbEntity
  8
STEMPEL
100
AcDbLine
 10
277.8997663119927
 20
183.375076928705
 30
0.0
 11
299.8997663119927
 21
183.375076928705
 31
0.0
  0
LINE
  5
9CF
102
{ACAD_REACTORS
330
993
102
}
330
1E
100
AcDbEntity
  8
STEMPEL
100
AcDbLine
 10
168.8997663119926
 20
180.3750769287051
 30
0.0
 11
264.8395147851715
 21
180.3750769287051
 31
0.0
  0
LINE
  5
9D0
330
1E
100
AcDbEntity
  8
STEMPEL
100
AcDbLine
 10
277.8997663119928
 20
378.3750769287048
 30
0.0
 11
279.899766311993
 21
378.3750769287047
 31
0.0
  0
LINE
  5
9D1
330
1E
100
AcDbEntity
  8
STEMPEL
100
AcDbLine
 10
298.6997663119927
 20
183.375076928705
 30
0.0
 11
298.6997663119928
 21
378.3750769287049
 31
0.0
  0
LINE
  5
9D2
330
1E
100
AcDbEntity
  8
STEMPEL
100
AcDbLine
 10
279.0997663119927
 20
183.375076928705
 30
0.0
 11
279.0997663119928
 21
378.3750769287048
 31
0.0
  0
LINE
  5
9D3
330
1E
100
AcDbEntity
  8
STEMPEL
100
AcDbLine
 10
299.8997663119928
 20
183.375076928705
 30
0.0
 11
299.8997663119928
 21
378.3750769287049
 31
0.0
  0
LINE
  5
9D4
330
1E
100
AcDbEntity
  8
STEMPEL
100
AcDbLine
 10
277.8997663119927
 20
183.375076928705
 30
0.0
 11
277.8997663119928
 21
378.3750769287048
 31
0.0
  0
LINE
  5
9D5
102
{ACAD_REACTORS
330
993
330
98C
102
}
330
1E
100
AcDbEntity
  8
STEMPEL
100
AcDbLine
 10
168.8997663119926
 20
178.3750769287051
 30
0.0
 11
408.8997663119926
 21
178.3750769287049
 31
0.0
  0
LINE
  5
9D6
102
{ACAD_REACTORS
330
98F
102
}
330
1E
100
AcDbEntity
  8
MITTEL
100
AcDbLine
 10
393.8997663119926
 20
173.0590841449903
 30
0.0
 11
393.8997663119926
 21
184.6257780094291
 31
0.0
  0
LINE
  5
9D7
102
{ACAD_REACTORS
330
98F
102
}
330
1E
100
AcDbEntity
  8
MITTEL
100
AcDbLine
 10
183.8997663119926
 20
173.0590841449903
 30
0.0
 11
183.8997663119926
 21
184.6257780094291
 31
0.0
  0
LINE
  5
9D8
330
1E
100
AcDbEntity
  8
STEMPEL
100
AcDbLine
 10
408.8997663119926
 20
178.3750769287049
 30
0.0
 11
408.8997663119926
 21
180.3750769287049
 31
0.0
  0
LINE
  5
9D9
330
1E
100
AcDbEntity
  8
STEMPEL
100
AcDbLine
 10
168.8997663119926
 20
178.3750769287051
 30
0.0
 11
168.8997663119926
 21
180.3750769287051
 31
0.0
  0
HATCH
  5
9DA
330
1E
100
AcDbEntity
  8
SCHRAFF
100
AcDbHatch
 10
0.0
 20
0.0
 30
0.0
210
0.0
220
0.0
230
1.0
  2
ANSI31
 70
     0
 71
     0
 91
        2
 92
        7
 72
     1
 73
     1
 93
        3
 10
297.899766311993
 20
393.5395208436824
 42
0.0
 10
297.899766311993
 20
390.3750769287051
 42
0.0
 10
299.8619451309841
 20
390.3750769287049
 42
0.4515131117736022
 97
        0
 92
        7
 72
     1
 73
     1
 93
        3
 10
277.9375874930019
 20
390.3750769287049
 42
0.0
 10
279.899766311993
 20
390.3750769287051
 42
0.0
 10
279.899766311993
 20
393.5395208436824
 42
0.4515131117735952
 97
        0
 75
     0
 76
     1
 52
90.0
 41
0.25
 77
     0
 78
     1
 53
135.0
 43
619.1660136430138
 44
-134.5804211219571
 45
-0.0220970869120796
 46
-0.0220970869120796
 79
     0
 47
0.0778554698300747
 98
        2
 10
299.3268281516661
 20
391.82035139171
 10
279.0065499543074
 20
391.7424578644857
  0
ARC
  5
9DB
330
1E
100
AcDbEntity
  8
SCHRAFF
100
AcDbCircle
 10
280.3136128245524
 20
391.0923400518307
 30
0.0
 40
2.481927227773914
100
AcDbArc
 50
99.59856289324569
 51
196.7977630782218
  0
ARC
  5
9DC
330
1E
100
AcDbEntity
  8
SCHRAFF
100
AcDbCircle
 10
297.4859197994336
 20
391.0923400518307
 30
0.0
 40
2.481927227773914
100
AcDbArc
 50
343.2022369217782
 51
80.40143710676074
  0
LINE
  5
9DD
330
1E
100
AcDbEntity
  8
MITTEL
100
AcDbLine
 10
288.8997663119931
 20
153.0204714568879
 30
0.0
 11
288.899766311993
 21
696.375076928705
 31
0.0
  0
HATCH
  5
9DE
330
1E
100
AcDbEntity
  8
SCHRAFF
100
AcDbHatch
 10
0.0
 20
0.0
 30
0.0
210
0.0
220
0.0
230
1.0
  2
_U
 70
     0
 71
     0
 91
        4
 92
        7
 72
     1
 73
     1
 93
        7
 10
183.899766311993
 20
380.3750769287051
 42
0.0
 10
183.8997663119931
 20
378.3750769287049
 42
0.0
 10
264.8997663119877
 20
378.3750769287051
 42
0.3378705696239134
 10
279.899766311993
 20
390.3013562705326
 42
0.0
 10
279.899766311993
 20
390.3750769287051
 42
0.0
 10
277.8486391403272
 20
390.3750769287049
 42
-0.3288055757368453
 10
264.8790063185329
 20
380.3750769287051
 42
0.0
 97
        0
 92
        7
 72
     0
 73
     1
 93
        4
 10
168.8997663119929
 20
380.3750769287051
 10
168.8997663119929
 20
378.3750769287049
 10
183.899766311993
 20
378.3750769287049
 10
183.8997663119929
 20
380.3750769287051
 97
        0
 92
        7
 72
     1
 73
     1
 93
        7
 10
312.9205263054529
 20
380.3750769287051
 42
-0.3288055757368395
 10
299.9508934836589
 20
390.3750769287049
 42
0.0
 10
297.899766311993
 20
390.3750769287051
 42
0.0
 10
297.899766311993
 20
390.3013562705333
 42
0.3378705696238237
 10
312.8997663119924
 20
378.3750769287051
 42
0.0
 10
393.899766311993
 20
378.3750769287051
 42
0.0
 10
393.899766311993
 20
380.3750769287051
 42
0.0
 97
        0
 92
        7
 72
     0
 73
     1
 93
        4
 10
393.899766311993
 20
380.3750769287049
 10
393.899766311993
 20
378.3750769287049
 10
408.8997663119929
 20
378.3750769287049
 10
408.8997663119929
 20
380.3750769287051
 97
        0
 75
     0
 76
     0
 52
45.0
 41
2.0
 77
     0
 78
     1
 53
45.0
 43
14.84288252803617
 44
0.0
 45
-1.414213562373094
 46
1.414213562373095
 79
     0
 47
0.526337816488696
 98
        4
 10
238.5203750098038
 20
379.1609555048765
 10
173.7808221886565
 20
379.6875483986708
 10
317.9973857907838
 20
379.1609555048765
 10
401.6850988460013
 20
379.6875483986708
  0
LINE
  5
9E4
330
1E
100
AcDbEntity
  8
STEMPEL
100
AcDbLine
 10
299.9508934836589
 20
390.3750769287049
 30
0.0
 11
297.8997663119931
 21
390.3750769287051
 31
0.0
  0
ARC
  5
9E5
330
1E
100
AcDbEntity
  8
STEMPEL
100
AcDbCircle
 10
313.2169733461084
 20
394.1701266321537
 30
0.0
 40
15.79823456709356
100
AcDbArc
 50
194.175111341757
 51
268.8495014667931
  0
ARC
  5
9E6
330
1E
100
AcDbEntity
  8
STEMPEL
100
AcDbCircle
 10
313.2169733461084
 20
394.1701266321537
 30
0.0
 40
13.79823456709356
100
AcDbArc
 50
195.9643256505832
 51
268.8495014667931
  0
ARC
  5
9E7
330
1E
100
AcDbEntity
  8
STEMPEL
100
AcDbCircle
 10
264.5825592778777
 20
394.1701266321537
 30
0.0
 40
13.79823456709356
100
AcDbArc
 50
271.1504985332069
 51
344.0356743494167
  0
ARC
  5
9E8
330
1E
100
AcDbEntity
  8
STEMPEL
100
AcDbCircle
 10
264.5825592778777
 20
394.1701266321537
 30
0.0
 40
15.79823456709356
100
AcDbArc
 50
271.1504985332069
 51
345.824888658243
  0
LINE
  5
9E9
330
1E
100
AcDbEntity
  8
STEMPEL
100
AcDbLine
 10
277.8486391403272
 20
390.3750769287049
 30
0.0
 11
279.899766311993
 21
390.3750769287051
 31
0.0
  0
LINE
  5
9EA
330
1E
100
AcDbEntity
  8
STEMPEL
100
AcDbLine
 10
168.8997663119929
 20
380.3750769287051
 30
0.0
 11
264.879006318533
 21
380.3750769287051
 31
0.0
  0
LINE
  5
9EB
330
1E
100
AcDbEntity
  8
STEMPEL
100
AcDbLine
 10
312.9205263054501
 20
380.3750769287051
 30
0.0
 11
408.8997663119928
 21
380.3750769287051
 31
0.0
  0
LINE
  5
9ED
330
1E
100
AcDbEntity
  8
STEMPEL
100
AcDbLine
 10
297.899766311993
 20
378.3750769287051
 30
0.0
 11
408.8997663119928
 21
378.3750769287049
 31
0.0
  0
LINE
  5
9EE
330
1E
100
AcDbEntity
  8
STEMPEL
100
AcDbLine
 10
296.8997663119929
 20
298.3750769287049
 30
0.0
 11
296.899766311993
 21
493.5452932492055
 31
0.0
  0
LINE
  5
9EF
330
1E
100
AcDbEntity
  8
STEMPEL
100
AcDbLine
 10
280.8997663119929
 20
298.3750769287049
 30
0.0
 11
280.8997663119931
 21
500.6830401321055
 31
0.0
  0
LINE
  5
9F0
330
1E
100
AcDbEntity
  8
STEMPEL
100
AcDbLine
 10
297.899766311993
 20
378.3750769287051
 30
0.0
 11
299.899766311993
 21
378.3750769287051
 31
0.0
  0
LINE
  5
9F1
330
1E
100
AcDbEntity
  8
STEMPEL
100
AcDbLine
 10
297.8997663119929
 20
298.3750769287049
 30
0.0
 11
297.8997663119933
 21
696.3750769287047
 31
0.0
  0
LINE
  5
9F2
330
1E
100
AcDbEntity
  8
STEMPEL
100
AcDbLine
 10
279.8997663119929
 20
298.3750769287049
 30
0.0
 11
279.8997663119933
 21
696.3750769287047
 31
0.0
  0
LINE
  5
9F3
330
1E
100
AcDbEntity
  8
MITTEL
100
AcDbLine
 10
393.8997663119929
 20
373.0590841449903
 30
0.0
 11
393.8997663119929
 21
384.6257780094291
 31
0.0
  0
LINE
  5
9F4
330
1E
100
AcDbEntity
  8
MITTEL
100
AcDbLine
 10
183.8997663119929
 20
373.0590841449903
 30
0.0
 11
183.8997663119929
 21
384.6257780094291
 31
0.0
  0
LINE
  5
9F5
330
1E
100
AcDbEntity
  8
STEMPEL
100
AcDbLine
 10
408.8997663119928
 20
378.3750769287049
 30
0.0
 11
408.8997663119928
 21
380.3750769287051
 31
0.0
  0
LINE
  5
9F6
330
1E
100
AcDbEntity
  8
STEMPEL
100
AcDbLine
 10
168.8997663119929
 20
378.3750769287049
 30
0.0
 11
168.8997663119929
 21
380.3750769287051
 31
0.0
  0
LINE
  5
9F7
330
1E
100
AcDbEntity
  8
STEMPEL
100
AcDbLine
 10
168.8997663119929
 20
378.3750769287049
 30
0.0
 11
279.899766311993
 21
378.3750769287051
 31
0.0
  0
LINE
  5
9FE
330
1E
100
AcDbEntity
  8
STEMPEL
100
AcDbLine
 10
279.8997663119929
 20
298.3750769287049
 30
0.0
 11
297.8997663119929
 21
298.3750769287049
 31
0.0
  0
LINE
  5
A01
330
1E
100
AcDbEntity
  8
TEXT
 62
     2
100
AcDbLine
 10
139.7116795584274
 20
283.7429904859383
 30
0.0
 11
278.3861294971571
 21
219.2217134345145
 31
0.0
  0
LINE
  5
A02
330
1E
100
AcDbEntity
  8
TEXT
 62
     2
100
AcDbLine
 10
139.7116795584277
 20
488.4168605073217
 30
0.0
 11
280.675742707077
 21
422.5623996389548
 31
0.0
  0
LINE
  5
A03
330
1E
100
AcDbEntity
  8
TEXT
 62
     2
100
AcDbLine
 10
36.02344553769853
 20
283.7429904859384
 30
0.0
 11
139.7116795584274
 21
283.7429904859383
 31
0.0
  0
TEXT
  5
A04
330
1E
100
AcDbEntity
  8
TEXT
 62
     1
100
AcDbText
 10
37.72471877007183
 20
272.729735766625
 30
0.0
 40
7.0
  1
EDV-Art.Nr. 18232.000X
 41
0.8
100
AcDbText
  0
TEXT
  5
A05
330
1E
100
AcDbEntity
  8
TEXT
 62
     1
100
AcDbText
 10
37.72471877007183
 20
287.854383714701
 30
0.0
 40
7.0
  1
Unterteil mit Flansch
 41
0.8
100
AcDbText
  0
TEXT
  5
A06
330
1E
100
AcDbEntity
  8
TEXT
 62
     1
100
AcDbText
 10
37.72471877007183
 20
492.5282537360843
 30
0.0
 40
7.0
  1
Oberteil mit Flansch
 41
0.8
100
AcDbText
  0
TEXT
  5
A07
330
1E
100
AcDbEntity
  8
TEXT
 62
     1
100
AcDbText
 10
37.72471877007183
 20
477.4036057880084
 30
0.0
 40
7.0
  1
EDV-Art.Nr. 18231.000X
 41
0.8
100
AcDbText
  0
LINE
  5
A08
330
1E
100
AcDbEntity
  8
TEXT
 62
     2
100
AcDbLine
 10
36.02344553769853
 20
488.4168605073218
 30
0.0
 11
139.7116795584277
 21
488.4168605073217
 31
0.0
  0
TEXT
  5
A09
330
1E
100
AcDbEntity
  8
BEM
 62
     1
100
AcDbText
 10
449.7330004802166
 20
238.0713194566193
 30
0.0
 40
7.0
  1
bauseits anpassen
 50
90.0
 41
0.8
100
AcDbText
  0
DIMENSION
  5
A0A
330
1E
100
AcDbEntity
  8
BEM
100
AcDbDimension
  2
*D1
 10
439.4003775865303
 20
378.375076928705
 30
0.0
 11
432.9003775865303
 21
576.775076928705
 31
0.0
 70
    32
 71
     5
 42
396.7999999999998
  3
Standard
100
AcDbAlignedDimension
 13
219.099766311993
 23
775.1750769287049
 33
0.0
 14
408.6635137176482
 24
378.375076928705
 34
0.0
 50
90.0
100
AcDbRotatedDimension
1001
ACAD
1000
DSTYLE
1002
{
1070
    40
1040
2.0
1070
    41
1040
3.5
1070
    42
1040
1.0
1070
    43
1040
7.0
1070
    44
1040
1.0
1070
    47
1040
0.5
1070
    48
1040
0.5
1070
    73
1070
     0
1070
    74
1070
     0
1070
    77
1070
     1
1070
    78
1070
     8
1070
    79
1070
     2
1070
   140
1040
3.5
1070
   141
1040
1.5
1070
   146
1040
0.5
1070
   147
1040
1.5
1070
   172
1070
     1
1070
   178
1070
     1
1070
   179
1070
     2
1070
   271
1070
     2
1070
   272
1070
     2
1070
   284
1070
     8
1070
   285
1070
     8
1070
   286
1070
     8
1002
}
  0
DIMENSION
  5
A0B
330
1E
100
AcDbEntity
  8
BEM
100
AcDbDimension
  2
*D2
 10
419.9163652815711
 20
378.3750769287049
 30
0.0
 11
413.4163652815709
 21
338.375076928705
 31
0.0
 70
    32
 71
     5
 42
80.00000000000017
  3
Standard
100
AcDbAlignedDimension
 13
297.8997663119926
 23
298.3750769287048
 33
0.0
 14
408.8997663119926
 24
378.3750769287049
 34
0.0
 50
270.0
100
AcDbRotatedDimension
1001
ACAD
1000
DSTYLE
1002
{
1070
    40
1040
2.0
1070
    41
1040
3.5
1070
    42
1040
1.0
1070
    43
1040
7.0
1070
    44
1040
1.0
1070
    47
1040
0.5
1070
    48
1040
0.5
1070
    73
1070
     0
1070
    74
1070
     0
1070
    77
1070
     1
1070
    78
1070
     8
1070
    79
1070
     2
1070
   140
1040
3.5
1070
   141
1040
1.5
1070
   146
1040
0.5
1070
   147
1040
1.5
1070
   172
1070
     1
1070
   178
1070
     1
1070
   179
1070
     2
1070
   271
1070
     2
1070
   272
1070
     2
1070
   284
1070
     8
1070
   285
1070
     8
1070
   286
1070
     8
1002
}
  0
LWPOLYLINE
  5
A0C
330
1E
100
AcDbEntity
  8
HILF
100
AcDbPolyline
 90
       10
 70
     0
 43
0.0
 10
283.8997663119926
 20
152.6875959741087
 10
284.9846312818081
 20
152.5444742574539
 10
286.5602920612419
 20
152.4013506860743
 10
287.3481224509587
 20
152.6160351157814
 10
288.9954071565339
 20
153.0454002657453
 10
290.3562059968949
 20
153.6178889870892
 10
291.7886287633974
 20
153.8325734167964
 10
292.5048385067567
 20
154.2619385667602
 10
293.5791547616877
 20
154.6913055714495
 10
293.8997663119926
 20
154.883511866183
  0
DIMENSION
  5
A0D
330
1E
100
AcDbEntity
  8
BEM
100
AcDbDimension
  2
*D3
 10
439.4003775865304
 20
378.3750769287049
 30
0.0
 11
432.9003775865303
 21
278.375076928705
 31
0.0
 70
    32
 71
     5
 42
200.0
  3
Standard
100
AcDbAlignedDimension
 13
409.4261980023307
 23
178.3750769287049
 33
0.0
 14
438.0269751102797
 24
378.3750769287049
 34
0.0
 50
270.0
100
AcDbRotatedDimension
1001
ACAD
1000
DSTYLE
1002
{
1070
    40
1040
2.0
1070
    41
1040
3.5
1070
    42
1040
1.0
1070
    43
1040
7.0
1070
    44
1040
1.0
1070
    47
1040
0.5
1070
    48
1040
0.5
1070
    73
1070
     0
1070
    74
1070
     0
1070
    77
1070
     1
1070
    78
1070
     8
1070
    79
1070
     2
1070
   140
1040
3.5
1070
   141
1040
1.5
1070
   146
1040
0.5
1070
   147
1040
1.5
1070
   172
1070
     1
1070
   178
1070
     1
1070
   179
1070
     2
1070
   271
1070
     2
1070
   272
1070
     2
1070
   284
1070
     8
1070
   285
1070
     8
1070
   286
1070
     8
1002
}
  0
LWPOLYLINE
  5
A0E
330
1E
100
AcDbEntity
  8
BEM
 62
     1
100
AcDbPolyline
 90
        4
 70
     1
 43
0.0
 10
280.6427037070557
 20
124.4318823503584
 10
273.3547016602809
 20
124.4318823503584
 10
273.3547016602809
 20
131.71378582445
 10
280.6427037070557
 20
131.71378582445
  0
TEXT
  5
A0F
330
1E
100
AcDbEntity
  8
TEXT
100
AcDbText
 10
480.3726737809213
 20
471.9193103470078
 30
0.0
 40
5.0
  1
Erstellt mit AUTOCAD 2004
 50
90.0
 41
0.8
100
AcDbText
  0
TEXT
  5
A10
330
1E
100
AcDbEntity
  8
TEXT
100
AcDbText
 10
531.0000000000002
 20
624.7428571428569
 30
0.0
 40
4.0
  1
Koeh
 50
90.0
 41
0.8
 72
     4
 11
529.0000000000002
 21
629.9999999999998
 31
0.0
100
AcDbText
  0
TEXT
  5
A11
330
1E
100
AcDbEntity
  8
TEXT
100
AcDbText
 10
531.0000000000002
 20
590.5999999999997
 30
0.0
 40
4.0
  1
16.10.
 50
90.0
 41
0.8
 72
     4
 11
529.0000000000002
 21
596.9999999999997
 31
0.0
100
AcDbText
  0
TEXT
  5
A12
330
1E
100
AcDbEntity
  8
TEXT
100
AcDbText
 10
521.0000000000002
 20
623.6761904761903
 30
0.0
 40
4.0
  1
Name
 50
90.0
 41
0.8
 72
     4
 11
519.0000000000002
 21
629.9999999999998
 31
0.0
100
AcDbText
  0
TEXT
  5
A13
330
1E
100
AcDbEntity
  8
TEXT
100
AcDbText
 10
520.3333333333335
 20
593.2666666666664
 30
0.0
 40
4.0
  1
Tag
 50
90.0
 41
0.8
 72
     4
 11
519.0000000000002
 21
596.9999999999997
 31
0.0
100
AcDbText
  0
TEXT
  5
A14
330
1E
100
AcDbEntity
  8
TEXT
100
AcDbText
 10
521.0
 20
569.6666666666664
 30
0.0
 40
4.0
  1
2012
 50
90.0
 41
0.8
 72
     4
 11
519.0000000000001
 21
574.9999999999998
 31
0.0
100
AcDbText
  0
TEXT
  5
A15
330
1E
100
AcDbEntity
  8
TEXT
 62
     1
100
AcDbText
 10
504.7881548967771
 20
581.9999999999999
 30
0.0
 40
7.0
  1
1:2
 50
90.0
 41
0.8
 72
     1
 11
504.7881548967771
 21
587.9999999999999
 31
0.0
100
AcDbText
  0
TEXT
  5
A16
330
1E
100
AcDbEntity
  8
TEXT
100
AcDbText
 10
506.0254814117802
 20
613.0095238095235
 30
0.0
 40
4.0
  1
DIN EN1124-3
 50
90.0
 41
0.8
 72
     1
 11
506.0254814117802
 21
629.9999999999998
 31
0.0
100
AcDbText
  0
TEXT
  5
A17
330
1E
100
AcDbEntity
  8
TEXT
100
AcDbText
 10
491.4510671988223
 20
616.5714285714283
 30
0.0
 40
5.0
  1
Zul. Abw.
 50
90.0
 41
0.8
 72
     1
 11
491.4510671988223
 21
629.9999999999998
 31
0.0
100
AcDbText
  0
TEXT
  5
A18
330
1E
100
AcDbEntity
  8
TEXT
100
AcDbText
 10
491.4510671988222
 20
576.190476190476
 30
0.0
 40
5.0
  1
Maßstab
 50
90.0
 41
0.8
 72
     1
 11
491.4510671988222
 21
587.9999999999999
 31
0.0
100
AcDbText
  0
LINE
  5
A19
330
1E
100
AcDbEntity
  8
HILF
100
AcDbLine
 10
10.00000000000011
 20
460.0000000000001
 30
0.0
 11
0.0000000000001137
 21
460.0000000000001
 31
0.0
  0
LINE
  5
A1A
330
1E
100
AcDbEntity
  8
HILF
100
AcDbLine
 10
594.0000000000001
 20
459.9999999999999
 30
0.0
 11
584.0000000000001
 21
459.9999999999999
 31
0.0
  0
INSERT
  5
A1B
330
1E
100
AcDbEntity
  8
STEMPEL
100
AcDbBlockReference
  2
LOGO
 10
549.6760802813287
 20
568.9705276546527
 30
0.0
 41
2.0
 42
2.0
 43
2.0
 50
90.0
  0
TEXT
  5
A1C
330
1E
100
AcDbEntity
  8
TEXT
100
AcDbText
 10
552.0000000000002
 20
654.9713400534561
 30
0.0
 40
4.0
  1
18230000W.DWG
 50
90.0
 41
0.8
100
AcDbText
  0
TEXT
  5
A1D
330
1E
100
AcDbEntity
  8
TEXT
 62
     1
100
AcDbText
 10
507.4475907325535
 20
766.9044394842361
 30
0.0
 40
7.0
  1
18230000W
 50
90.0
 41
0.8
 72
     1
 11
507.4475907325535
 21
790.3711061509028
 31
0.0
100
AcDbText
  0
TEXT
  5
A1E
330
1E
100
AcDbEntity
  8
TEXT
100
AcDbText
 10
583.4462193823218
 20
836.413205537806
 30
0.0
 40
4.0
  1
Diese Zeichnung ist urheberrechtlich geschützt und bleibt unser Eigentum. Sie darf weder ganz noch teilweise vervielfältigt und nicht an Dritte weitergegeben werden.
 50
180.0
 41
0.8
100
AcDbText
  0
TEXT
  5
A1F
330
1E
100
AcDbEntity
  8
TEXT
100
AcDbText
 10
522.0000000000002
 20
654.8629872542568
 30
0.0
 40
5.0
  1
für Siebkorbbeheizte Abläufe
 50
90.0
 41
0.8
100
AcDbText
  0
LINE
  5
A20
330
1E
100
AcDbEntity
  8
STEMPEL
100
AcDbLine
 10
10.0
 20
40.0
 30
0.0
 11
584.0
 21
39.99999999999982
 31
0.0
  0
LINE
  5
A21
330
1E
100
AcDbEntity
  8
STEMPEL
100
AcDbLine
 10
584.0000000000002
 20
829.9999999999998
 30
0.0
 11
10.00000000000011
 21
830.0
 31
0.0
  0
LINE
  5
A22
330
1E
100
AcDbEntity
  8
STEMPEL
100
AcDbLine
 10
584.0
 20
39.99999999999982
 30
0.0
 11
584.0000000000002
 21
829.9999999999998
 31
0.0
  0
LINE
  5
A23
330
1E
100
AcDbEntity
  8
STEMPEL
100
AcDbLine
 10
10.00000000000011
 20
830.0
 30
0.0
 11
10.0
 21
40.0
 31
0.0
  0
LINE
  5
A24
330
1E
100
AcDbEntity
  8
HILF
100
AcDbLine
 10
0.0
 20
0.0
 30
0.0
 11
594.0
 21
-0.0000000000001819
 31
0.0
  0
LINE
  5
A25
330
1E
100
AcDbEntity
  8
HILF
100
AcDbLine
 10
0.0000000000001137
 20
840.0
 30
0.0
 11
0.0
 21
0.0
 31
0.0
  0
LINE
  5
A26
330
1E
100
AcDbEntity
  8
HILF
100
AcDbLine
 10
594.0000000000002
 20
839.9999999999998
 30
0.0
 11
0.0000000000001137
 21
840.0
 31
0.0
  0
LINE
  5
A27
330
1E
100
AcDbEntity
  8
HILF
100
AcDbLine
 10
594.0
 20
-0.0000000000001819
 30
0.0
 11
594.0000000000002
 21
839.9999999999998
 31
0.0
  0
TEXT
  5
A28
330
1E
100
AcDbEntity
  8
TEXT
100
AcDbText
 10
541.9258382212142
 20
757.2400861497004
 30
0.0
 40
5.0
  1
ersetzt durch:
 50
90.0
 41
0.8
100
AcDbText
  0
TEXT
  5
A29
330
1E
100
AcDbEntity
  8
TEXT
100
AcDbText
 10
550.470536103502
 20
567.60067773873
 30
0.0
 40
4.0
  1
Norm.
 50
90.0
 41
0.8
100
AcDbText
  0
TEXT
  5
A2A
330
1E
100
AcDbEntity
  8
TEXT
100
AcDbText
 10
540.3107370857164
 20
567.5515086571668
 30
0.0
 40
4.0
  1
Gepr.
 50
90.0
 41
0.8
100
AcDbText
  0
TEXT
  5
A2B
330
1E
100
AcDbEntity
  8
TEXT
100
AcDbText
 10
530.3700963038205
 20
567.5836127167611
 30
0.0
 40
4.0
  1
Gez.
 50
90.0
 41
0.8
100
AcDbText
  0
TEXT
  5
A2C
330
1E
100
AcDbEntity
  8
TEXT
100
AcDbText
 10
576.0000000000002
 20
548.6761904761902
 30
0.0
 40
4.0
  1
Name
 50
90.0
 41
0.8
 72
     4
 11
574.0000000000001
 21
554.9999999999996
 31
0.0
100
AcDbText
  0
TEXT
  5
A2D
330
1E
100
AcDbEntity
  8
TEXT
100
AcDbText
 10
575.3333333333334
 20
530.2666666666664
 30
0.0
 40
4.0
  1
Tag
 50
90.0
 41
0.8
 72
     4
 11
574.0000000000001
 21
533.9999999999998
 31
0.0
100
AcDbText
  0
TEXT
  5
A2E
330
1E
100
AcDbEntity
  8
TEXT
100
AcDbText
 10
580.3453415397282
 20
478.2664110704573
 30
0.0
 40
4.0
  1
Index
 50
180.0
 41
0.8
100
AcDbText
  0
TEXT
  5
A2F
330
1E
100
AcDbEntity
  8
TEXT
100
AcDbText
 10
520.8188176290006
 20
756.7238616296991
 30
0.0
 40
5.0
  1
Ersatz für:
 50
90.0
 41
0.8
100
AcDbText
  0
TEXT
  5
A30
330
1E
100
AcDbEntity
  8
TEXT
100
AcDbText
 10
563.1543942980696
 20
654.7422383911356
 30
0.0
 40
5.0
  1
Bauvorhaben
 50
90.0
 41
0.8
100
AcDbText
  0
TEXT
  5
A31
330
1E
100
AcDbEntity
  8
TEXT
100
AcDbText
 10
491.6867965462866
 20
756.1787549576339
 30
0.0
 40
5.0
  1
Zeichnungs Nr.
 50
90.0
 41
0.8
100
AcDbText
  0
TEXT
  5
A32
330
1E
100
AcDbEntity
  8
TEXT
100
AcDbText
 10
491.4510671988223
 20
654.8779403809007
 30
0.0
 40
5.0
  1
Benennung
 50
90.0
 41
0.8
100
AcDbText
  0
TEXT
  5
A33
330
1E
100
AcDbEntity
  8
TEXT
100
AcDbText
 10
575.7142857142858
 20
493.2571428571426
 30
0.0
 40
4.0
  1
Änderung
 50
90.0
 41
0.8
 72
     4
 11
574.0000000000001
 21
503.9999999999998
 31
0.0
100
AcDbText
  0
LINE
  5
A34
330
1E
100
AcDbEntity
  8
HILF
100
AcDbLine
 10
579.1060174197172
 20
654.7736801096945
 30
0.0
 11
579.1060174197172
 21
824.8588839326727
 31
0.0
  0
LINE
  5
A35
330
1E
100
AcDbEntity
  8
HILF
100
AcDbLine
 10
510.220163630442
 20
756.7238616296991
 30
0.0
 11
510.220163630442
 21
824.8588839326727
 31
0.0
  0
LINE
  5
A36
330
1E
100
AcDbEntity
  8
VOLL
100
AcDbLine
 10
534.0000000000002
 20
751.9999999999998
 30
0.0
 11
534.0000000000002
 21
829.9999999999998
 31
0.0
  0
LINE
  5
A37
330
1E
100
AcDbEntity
  8
HILF
100
AcDbLine
 10
544.0000000000002
 20
654.7736801096945
 30
0.0
 11
544.0000000000002
 21
746.6297842514808
 31
0.0
  0
LINE
  5
A38
330
1E
100
AcDbEntity
  8
HILF
100
AcDbLine
 10
534.0000000000002
 20
654.7736801096945
 30
0.0
 11
534.0000000000002
 21
746.6297842514808
 31
0.0
  0
LINE
  5
A39
330
1E
100
AcDbEntity
  8
HILF
100
AcDbLine
 10
524.0000000000001
 20
654.7736801096945
 30
0.0
 11
524.0000000000001
 21
746.6297842514808
 31
0.0
  0
LINE
  5
A3A
330
1E
100
AcDbEntity
  8
HILF
100
AcDbLine
 10
509.9624175243588
 20
654.7736801096945
 30
0.0
 11
509.9624175243588
 21
746.6297842514808
 31
0.0
  0
LINE
  5
A3B
330
1E
100
AcDbEntity
  8
HILF
100
AcDbLine
 10
544.0000000000002
 20
565.9999999999999
 30
0.0
 11
544.0000000000002
 21
649.9999999999996
 31
0.0
  0
LINE
  5
A3C
330
1E
100
AcDbEntity
  8
HILF
100
AcDbLine
 10
534.0000000000002
 20
565.9999999999999
 30
0.0
 11
534.0000000000002
 21
649.9999999999996
 31
0.0
  0
LINE
  5
A3D
330
1E
100
AcDbEntity
  8
HILF
100
AcDbLine
 10
524.0000000000001
 20
565.9999999999999
 30
0.0
 11
524.0000000000001
 21
649.9999999999996
 31
0.0
  0
LINE
  5
A3E
330
1E
100
AcDbEntity
  8
HILF
100
AcDbLine
 10
554.0
 20
469.9999999999998
 30
0.0
 11
554.0000000000002
 21
565.9999999999999
 31
0.0
  0
LINE
  5
A3F
330
1E
100
AcDbEntity
  8
HILF
100
AcDbLine
 10
544.0000000000001
 20
469.9999999999998
 30
0.0
 11
544.0000000000002
 21
565.9999999999999
 31
0.0
  0
LINE
  5
A40
330
1E
100
AcDbEntity
  8
HILF
100
AcDbLine
 10
534.0000000000001
 20
469.9999999999998
 30
0.0
 11
534.0000000000002
 21
565.9999999999999
 31
0.0
  0
LINE
  5
A41
330
1E
100
AcDbEntity
  8
HILF
100
AcDbLine
 10
524.0000000000001
 20
469.9999999999998
 30
0.0
 11
524.0000000000001
 21
565.9999999999999
 31
0.0
  0
LINE
  5
A42
330
1E
100
AcDbEntity
  8
HILF
100
AcDbLine
 10
514.0000000000001
 20
469.9999999999998
 30
0.0
 11
514.0000000000001
 21
565.9999999999999
 31
0.0
  0
LINE
  5
A43
330
1E
100
AcDbEntity
  8
HILF
100
AcDbLine
 10
504.0
 20
469.9999999999998
 30
0.0
 11
504.0000000000001
 21
565.9999999999999
 31
0.0
  0
LINE
  5
A44
330
1E
100
AcDbEntity
  8
HILF
100
AcDbLine
 10
494.0000000000001
 20
469.9999999999998
 30
0.0
 11
494.0000000000002
 21
565.9999999999999
 31
0.0
  0
LINE
  5
A45
330
1E
100
AcDbEntity
  8
VOLL
100
AcDbLine
 10
484.0000000000003
 20
609.9999999999998
 30
0.0
 11
554.0000000000002
 21
609.9999999999996
 31
0.0
  0
LINE
  5
A46
330
1E
100
AcDbEntity
  8
VOLL
100
AcDbLine
 10
514.0000000000002
 20
583.9999999999998
 30
0.0
 11
554.0000000000002
 21
583.9999999999998
 31
0.0
  0
LINE
  5
A47
330
1E
100
AcDbEntity
  8
VOLL
100
AcDbLine
 10
484.0000000000002
 20
543.9999999999998
 30
0.0
 11
584.0000000000002
 21
543.9999999999996
 31
0.0
  0
LINE
  5
A48
330
1E
100
AcDbEntity
  8
VOLL
100
AcDbLine
 10
484.0000000000002
 20
523.9999999999999
 30
0.0
 11
584.0000000000002
 21
523.9999999999996
 31
0.0
  0
LINE
  5
A49
330
1E
100
AcDbEntity
  8
VOLL
100
AcDbLine
 10
484.0000000000001
 20
483.9999999999998
 30
0.0
 11
584.0000000000001
 21
483.9999999999997
 31
0.0
  0
LINE
  5
A4A
330
1E
100
AcDbEntity
  8
STEMPEL
100
AcDbLine
 10
514.0000000000002
 20
829.9999999999998
 30
0.0
 11
514.0000000000001
 21
565.9999999999999
 31
0.0
  0
LINE
  5
A4B
330
1E
100
AcDbEntity
  8
STEMPEL
100
AcDbLine
 10
554.0000000000002
 20
829.9999999999998
 30
0.0
 11
554.0000000000002
 21
565.9999999999996
 31
0.0
  0
LINE
  5
A4C
330
1E
100
AcDbEntity
  8
STEMPEL
100
AcDbLine
 10
564.0000000000002
 20
565.9999999999996
 30
0.0
 11
564.0000000000001
 21
469.9999999999997
 31
0.0
  0
LINE
  5
A4D
330
1E
100
AcDbEntity
  8
STEMPEL
100
AcDbLine
 10
484.0000000000006
 20
751.9999999999998
 30
0.0
 11
554.0000000000002
 21
751.9999999999998
 31
0.0
  0
LINE
  5
A4E
330
1E
100
AcDbEntity
  8
STEMPEL
100
AcDbLine
 10
484.0000000000002
 20
649.9999999999996
 30
0.0
 11
584.0000000000002
 21
649.9999999999996
 31
0.0
  0
LINE
  5
A4F
330
1E
100
AcDbEntity
  8
STEMPEL
100
AcDbLine
 10
484.0000000000002
 20
565.9999999999999
 30
0.0
 11
584.0000000000003
 21
565.9999999999996
 31
0.0
  0
LINE
  5
A50
330
1E
100
AcDbEntity
  8
STEMPEL
100
AcDbLine
 10
484.0000000000001
 20
469.9999999999998
 30
0.0
 11
584.0000000000001
 21
469.9999999999997
 31
0.0
  0
LINE
  5
A51
330
1E
100
AcDbEntity
  8
STEMPEL
100
AcDbLine
 10
484.0000000000002
 20
829.9999999999998
 30
0.0
 11
484.0000000000001
 21
469.9999999999998
 31
0.0
  0
TEXT
  5
A52
330
1E
100
AcDbEntity
  8
TEXT
 62
     1
100
AcDbText
 10
507.9624175243589
 20
654.9791173409947
 30
0.0
 40
7.0
  1
Kabeldurchführung
 50
90.0
 41
0.8
100
AcDbText
  0
LINE
  5
A59
330
1E
100
AcDbEntity
  8
VERDECKT
100
AcDbLine
 10
293.8997663119926
 20
154.883511866183
 30
0.0
 11
293.8997663119926
 21
493.757130150593
 31
0.0
  0
LINE
  5
A5A
330
1E
100
AcDbEntity
  8
VERDECKT
100
AcDbLine
 10
283.8997663119926
 20
152.6875959741087
 30
0.0
 11
283.8997663119926
 21
498.9013476575607
 31
0.0
  0
HATCH
  5
B1C
330
1E
100
AcDbEntity
  8
SCHRAFF
100
AcDbHatch
 10
0.0
 20
0.0
 30
0.0
210
0.0
220
0.0
230
1.0
  2
_USER
 70
     0
 71
     0
 91
        2
 92
        7
 72
     0
 73
     1
 93
        5
 10
297.8997663119931
 20
493.5452932492055
 10
297.4590121638164
 20
493.5461550457166
 10
296.899766311993
 20
493.5522366369014
 10
296.8997663119928
 20
298.3750769287049
 10
297.8997663119929
 20
298.3750769287048
 97
        0
 92
        7
 72
     0
 73
     1
 93
        5
 10
280.8997663119932
 20
500.7066670979018
 10
280.3077210081923
 20
501.0954536602226
 10
279.899766311993
 20
501.3750769287047
 10
279.8997663119929
 20
298.3750769287049
 10
280.8997663119929
 20
298.3750769287049
 97
        0
 75
     0
 76
     0
 52
135.0
 41
2.0
 77
     0
 78
     1
 53
135.0
 43
14.84288252803617
 44
0.0
 45
-1.414213562373095
 46
-1.414213562373094
 79
     0
 47
0.371725506425815
 98
        2
 10
297.3915409703149
 20
402.1535396996187
 10
280.6537932663587
 20
404.3838919559193
  0
LINE
  5
B63
330
1E
100
AcDbEntity
  8
STEMPEL
100
AcDbLine
 10
162.6447357022203
 20
696.3750769287048
 30
0.0
 11
162.6447357022204
 21
678.3962343625939
 31
0.0
  0
LINE
  5
B64
330
1E
100
AcDbEntity
  8
STEMPEL
100
AcDbLine
 10
136.2447357022202
 20
696.375076928705
 30
0.0
 11
136.2447357022202
 21
678.396234362594
 31
0.0
  0
LINE
  5
B65
330
1E
100
AcDbEntity
  8
STEMPEL
100
AcDbLine
 10
136.2447357022202
 20
681.3750769287049
 30
0.0
 11
162.6447357022203
 21
681.3750769287048
 31
0.0
  0
LINE
  5
B66
330
1E
100
AcDbEntity
  8
STEMPEL
100
AcDbLine
 10
136.2447357022202
 20
696.375076928705
 30
0.0
 11
162.6447357022203
 21
696.3750769287048
 31
0.0
  0
ARC
  5
B69
102
{ACAD_REACTORS
330
B81
102
}
330
1E
100
AcDbEntity
  8
STEMPEL
100
AcDbCircle
 10
219.099766311993
 20
696.375076928705
 30
0.0
 40
60.8
100
AcDbArc
 50
0.0
 51
180.0
  0
ARC
  5
B6B
330
1E
100
AcDbEntity
  8
MITTEL
100
AcDbCircle
 10
219.099766311993
 20
696.375076928705
 30
0.0
 40
69.8
100
AcDbArc
 50
0.0
 51
180.0
  0
LINE
  5
B6C
330
1E
100
AcDbEntity
  8
STEMPEL
100
AcDbLine
 10
136.2447357022201
 20
681.3750769287055
 30
0.0
 11
162.4997663119928
 21
681.3750769287054
 31
0.0
  0
LINE
  5
B6D
330
1E
100
AcDbEntity
  8
STEMPEL
100
AcDbLine
 10
162.4997663119928
 20
681.396234362594
 30
0.0
 11
136.2447357022201
 21
681.3962343625941
 31
0.0
  0
LINE
  5
B6E
330
1E
100
AcDbEntity
  8
STEMPEL
100
AcDbLine
 10
156.2997663119927
 20
678.3962343625939
 30
0.0
 11
156.299766311993
 21
681.396234362594
 31
0.0
  0
LINE
  5
B6F
330
1E
100
AcDbEntity
  8
STEMPEL
100
AcDbLine
 10
142.2997663119927
 20
678.3962343625939
 30
0.0
 11
142.299766311993
 21
681.396234362594
 31
0.0
  0
LINE
  5
B70
330
1E
100
AcDbEntity
  8
STEMPEL
100
AcDbLine
 10
162.6447357022204
 20
678.3962343625939
 30
0.0
 11
136.2447357022202
 21
678.396234362594
 31
0.0
  0
LINE
  5
B71
330
1E
100
AcDbEntity
  8
STEMPEL
100
AcDbLine
 10
161.2997663119923
 20
671.3962343625939
 30
0.0
 11
137.2997663119925
 21
671.3962343625939
 31
0.0
  0
LINE
  5
B72
330
1E
100
AcDbEntity
  8
STEMPEL
100
AcDbLine
 10
162.4997663119925
 20
668.396234362594
 30
0.0
 11
136.0997663119927
 21
668.396234362594
 31
0.0
  0
LINE
  5
B73
330
1E
100
AcDbEntity
  8
STEMPEL
100
AcDbLine
 10
160.2997663119927
 20
671.3962343625939
 30
0.0
 11
160.2997663119927
 21
678.3962343625939
 31
0.0
  0
LINE
  5
B74
330
1E
100
AcDbEntity
  8
STEMPEL
100
AcDbLine
 10
138.299766311993
 20
671.3962343625939
 30
0.0
 11
138.2997663119932
 21
678.3962343625939
 31
0.0
  0
LINE
  5
B75
330
1E
100
AcDbEntity
  8
STEMPEL
100
AcDbLine
 10
161.2997663119927
 20
668.396234362594
 30
0.0
 11
161.2997663119923
 21
671.3962343625939
 31
0.0
  0
LINE
  5
B76
330
1E
100
AcDbEntity
  8
STEMPEL
100
AcDbLine
 10
137.2997663119927
 20
668.396234362594
 30
0.0
 11
137.2997663119925
 21
671.3962343625939
 31
0.0
  0
LINE
  5
B77
330
1E
100
AcDbEntity
  8
HILF
100
AcDbLine
 10
159.749766311993
 20
671.3962343625939
 30
0.0
 11
159.7497663119928
 21
678.3962343625939
 31
0.0
  0
LINE
  5
B78
330
1E
100
AcDbEntity
  8
HILF
100
AcDbLine
 10
138.8497663119929
 20
671.3962343625939
 30
0.0
 11
138.8497663119929
 21
678.3962343625939
 31
0.0
  0
LINE
  5
B79
330
1E
100
AcDbEntity
  8
STEMPEL
100
AcDbLine
 10
136.2447357022202
 20
681.396234362594
 30
0.0
 11
162.6447357022204
 21
681.396234362594
 31
0.0
  0
ARC
  5
B7B
102
{ACAD_REACTORS
330
B81
102
}
330
1E
100
AcDbEntity
  8
STEMPEL
100
AcDbCircle
 10
219.099766311993
 20
696.375076928705
 30
0.0
 40
78.79999999999999
100
AcDbArc
 50
0.0
 51
180.0
  0
LINE
  5
B7D
102
{ACAD_REACTORS
330
B81
102
}
330
1E
100
AcDbEntity
  8
MITTEL
100
AcDbLine
 10
135.299766311993
 20
696.375076928705
 30
0.0
 11
302.899766311993
 21
696.375076928705
 31
0.0
  0
LINE
  5
B7E
330
1E
100
AcDbEntity
  8
MITTEL
100
AcDbLine
 10
219.099766311993
 20
693.3750769287049
 30
0.0
 11
219.099766311993
 21
780.1750769287049
 31
0.0
  0
ARC
  5
B7F
102
{ACAD_REACTORS
330
B81
102
}
330
1E
100
AcDbEntity
  8
SCHRAFF
100
AcDbCircle
 10
140.299766311993
 20
696.3750769287051
 30
0.0
 40
3.0
100
AcDbArc
 50
88.90927842107299
 51
180.0
  0
ARC
  5
B80
102
{ACAD_REACTORS
330
B81
102
}
330
1E
100
AcDbEntity
  8
SCHRAFF
100
AcDbCircle
 10
158.299766311993
 20
696.375076928705
 30
0.0
 40
3.0
100
AcDbArc
 50
0.0
 51
88.58630937364022
  0
HATCH
  5
B81
330
1E
100
AcDbEntity
  8
SCHRAFF
100
AcDbHatch
 10
0.0
 20
0.0
 30
0.0
210
0.0
220
0.0
230
1.0
  2
_USER
 70
     0
 71
     1
 91
        2
 92
        7
 72
     1
 73
     1
 93
        3
 10
140.3568729109777
 20
699.3745333521846
 42
0.4198003331202381
 10
137.299766311993
 20
696.375076928705
 42
0.0
 10
140.299766311993
 20
696.375076928705
 42
-0.0095186288479872
 97
        3
330
B7F
330
B7D
330
B7B
 92
        7
 72
     1
 73
     1
 93
        3
 10
158.3737794698877
 20
699.3741637984802
 42
0.0123374039251926
 10
158.299766311993
 20
696.375076928705
 42
0.0
 10
161.299766311993
 20
696.375076928705
 42
0.4070051713603105
 97
        3
330
B69
330
B7D
330
B80
 75
     0
 76
     0
 52
0.0
 41
0.1
 77
     0
 78
     1
 53
0.0
 43
595.1890490048506
 44
-20.57432026300069
 45
0.0
 46
0.1
 79
     0
 47
0.0376667663019069
 98
        2
 10
139.5932230558321
 20
697.7642399460572
 10
159.7150945396204
 20
697.9149070272418
  0
LINE
  5
B82
330
1E
100
AcDbEntity
  8
MITTEL
100
AcDbLine
 10
149.2997663119929
 20
696.3750769287048
 30
0.0
 11
149.2997663119927
 21
573.3962343625943
 31
0.0
  0
LINE
  5
B8A
330
1E
100
AcDbEntity
  8
VERDECKT
100
AcDbLine
 10
154.2997663119932
 20
578.3962343625944
 30
0.0
 11
144.299766311993
 21
578.396234362594
 31
0.0
  0
LINE
  5
B8B
330
1E
100
AcDbEntity
  8
VERDECKT
100
AcDbLine
 10
154.2997663119932
 20
578.3962343625944
 30
0.0
 11
154.2997663119927
 21
658.3962343625944
 31
0.0
  0
LINE
  5
B8C
330
1E
100
AcDbEntity
  8
VERDECKT
100
AcDbLine
 10
144.299766311993
 20
578.396234362594
 30
0.0
 11
144.2997663119927
 21
658.3962343625941
 31
0.0
  0
LINE
  5
B8D
330
1E
100
AcDbEntity
  8
STEMPEL
100
AcDbLine
 10
156.799766311993
 20
658.3962343625944
 30
0.0
 11
141.7997663119934
 21
658.3962343625939
 31
0.0
  0
LINE
  5
B8E
330
1E
100
AcDbEntity
  8
STEMPEL
100
AcDbLine
 10
162.4997663119925
 20
663.3962343625939
 30
0.0
 11
136.0997663119927
 21
663.3962343625939
 31
0.0
  0
LINE
  5
B8F
330
1E
100
AcDbEntity
  8
STEMPEL
100
AcDbLine
 10
162.4997663119925
 20
663.3962343625939
 30
0.0
 11
162.4997663119925
 21
668.396234362594
 31
0.0
  0
LINE
  5
B90
330
1E
100
AcDbEntity
  8
STEMPEL
100
AcDbLine
 10
136.0997663119927
 20
663.3962343625939
 30
0.0
 11
136.0997663119927
 21
668.396234362594
 31
0.0
  0
LINE
  5
B91
330
1E
100
AcDbEntity
  8
STEMPEL
100
AcDbLine
 10
156.2997663119927
 20
663.3962343625939
 30
0.0
 11
156.299766311993
 21
668.396234362594
 31
0.0
  0
LINE
  5
B92
330
1E
100
AcDbEntity
  8
STEMPEL
100
AcDbLine
 10
142.2997663119927
 20
663.3962343625939
 30
0.0
 11
142.299766311993
 21
668.396234362594
 31
0.0
  0
LINE
  5
B93
330
1E
100
AcDbEntity
  8
STEMPEL
100
AcDbLine
 10
160.7997663119929
 20
663.3962343625939
 30
0.0
 11
160.7997663119929
 21
663.3962343625944
 31
0.0
  0
LINE
  5
B94
330
1E
100
AcDbEntity
  8
STEMPEL
100
AcDbLine
 10
137.7997663119932
 20
663.3962343625939
 30
0.0
 11
137.7997663119927
 21
663.3962343625939
 31
0.0
  0
LINE
  5
B95
330
1E
100
AcDbEntity
  8
STEMPEL
100
AcDbLine
 10
160.7997663119929
 20
663.3962343625939
 30
0.0
 11
160.7997663119929
 21
662.3962343625944
 31
0.0
  0
LINE
  5
B96
330
1E
100
AcDbEntity
  8
STEMPEL
100
AcDbLine
 10
137.7997663119932
 20
663.3962343625939
 30
0.0
 11
137.7997663119932
 21
662.3962343625939
 31
0.0
  0
ARC
  5
B97
330
1E
100
AcDbEntity
  8
STEMPEL
100
AcDbCircle
 10
156.799766311993
 20
662.3962343625944
 30
0.0
 40
4.0
100
AcDbArc
 50
270.0
 51
0.0
  0
ARC
  5
B98
330
1E
100
AcDbEntity
  8
STEMPEL
100
AcDbCircle
 10
141.7997663119932
 20
662.3962343625939
 30
0.0
 40
4.0
100
AcDbArc
 50
180.0
 51
270.0
  0
TEXT
  5
BAC
330
1E
100
AcDbEntity
  8
TEXT
 62
     1
100
AcDbText
 10
531.7836370160379
 20
790.3711061509028
 30
0.0
 40
7.0
  1

 50
90.0
 41
0.8
 72
     1
 11
531.7836370160379
 21
790.3711061509028
 31
0.0
100
AcDbText
  0
ARC
  5
C55
330
1E
100
AcDbEntity
  8
SCHRAFF
100
AcDbCircle
 10
136.9282661012636
 20
697.8750769287048
 30
0.0
 40
5.0
100
AcDbArc
 50
342.5423968762805
 51
17.45760312372213
  0
ARC
  5
C56
330
1E
100
AcDbEntity
  8
SCHRAFF
100
AcDbCircle
 10
139.9282661012636
 20
697.8750769287048
 30
0.0
 40
5.0
100
AcDbArc
 50
342.5423968762805
 51
17.45760312372213
  0
ARC
  5
C57
330
1E
100
AcDbEntity
  8
SCHRAFF
100
AcDbCircle
 10
145.9282661012635
 20
697.8750769287048
 30
0.0
 40
5.0
100
AcDbArc
 50
342.5423968762805
 51
17.45760312372213
  0
ARC
  5
C58
330
1E
100
AcDbEntity
  8
SCHRAFF
100
AcDbCircle
 10
142.9282661012635
 20
697.8750769287048
 30
0.0
 40
5.0
100
AcDbArc
 50
342.5423968762805
 51
17.45760312372213
  0
ARC
  5
C59
330
1E
100
AcDbEntity
  8
SCHRAFF
100
AcDbCircle
 10
151.9282661012636
 20
697.8750769287048
 30
0.0
 40
5.0
100
AcDbArc
 50
342.5423968762805
 51
17.45760312372213
  0
ARC
  5
C5B
330
1E
100
AcDbEntity
  8
SCHRAFF
100
AcDbCircle
 10
148.9282661012635
 20
697.8750769287048
 30
0.0
 40
5.0
100
AcDbArc
 50
342.5423968762805
 51
17.45760312372213
  0
DIMENSION
  5
C5C
330
1E
100
AcDbEntity
  8
BEM
100
AcDbDimension
  2
*D8
 10
288.899766311993
 20
793.7723144704516
 30
0.0
 11
219.099766311993
 21
800.2723144704516
 31
0.0
 70
    32
 71
     5
 42
139.6
  3
Standard
100
AcDbAlignedDimension
 13
149.2997663119929
 23
696.375076928705
 33
0.0
 14
288.899766311993
 24
696.375076928705
 34
0.0
100
AcDbRotatedDimension
1001
ACAD
1000
DSTYLE
1002
{
1070
    40
1040
2.0
1070
    41
1040
3.5
1070
    42
1040
1.0
1070
    43
1040
7.0
1070
    44
1040
1.0
1070
    73
1070
     0
1070
    74
1070
     0
1070
    77
1070
     1
1070
    78
1070
     8
1070
    79
1070
     2
1070
   140
1040
3.5
1070
   141
1040
1.5
1070
   146
1040
0.5142857142857144
1070
   147
1040
1.5
1070
   172
1070
     1
1070
   178
1070
     1
1070
   179
1070
     2
1070
   271
1070
     2
1070
   272
1070
     2
1070
   284
1070
     8
1070
   285
1070
     8
1070
   286
1070
     8
1002
}
  0
ENDSEC
  0
SECTION
  2
OBJECTS
  0
DICTIONARY
  5
C
330
0
100
AcDbDictionary
281
     1
  3
ACAD_COLOR
350
11A
  3
ACAD_GROUP
350
D
  3
ACAD_LAYOUT
350
19
  3
ACAD_MATERIAL
350
119
  3
ACAD_MLINESTYLE
350
16
  3
ACAD_PLOTSETTINGS
350
18
  3
ACAD_PLOTSTYLENAME
350
E
  3
AcDbVariableDictionary
350
125
  0
DICTIONARY
  5
DB
330
1E
100
AcDbDictionary
280
     1
281
     1
  3
ACAD_LAYOUTSELFREF
360
10F
  0
DICTIONARY
  5
DD
330
1A
100
AcDbDictionary
280
     1
281
     1
  3
ACAD_LAYOUTSELFREF
360
10E
  0
DICTIONARY
  5
98B
330
98A
100
AcDbDictionary
280
     1
281
     1
  3
ACAD_DIMASSOC
360
98C
  0
DICTIONARY
  5
98E
330
98D
100
AcDbDictionary
280
     1
281
     1
  3
ACAD_DIMASSOC
360
98F
  0
DICTIONARY
  5
992
330
991
100
AcDbDictionary
280
     1
281
     1
  3
ACAD_DIMASSOC
360
993
  0
DICTIONARY
  5
11A
102
{ACAD_REACTORS
330
C
102
}
330
C
100
AcDbDictionary
281
     1
  0
DICTIONARY
  5
D
102
{ACAD_REACTORS
330
C
102
}
330
C
100
AcDbDictionary
281
     1
  0
DICTIONARY
  5
19
102
{ACAD_REACTORS
330
C
102
}
330
C
100
AcDbDictionary
281
     1
  3
Layout1
350
1D
  3
Model
350
21
  0
DICTIONARY
  5
119
102
{ACAD_REACTORS
330
C
102
}
330
C
100
AcDbDictionary
281
     1
  0
DICTIONARY
  5
16
102
{ACAD_REACTORS
330
C
102
}
330
C
100
AcDbDictionary
281
     1
  3
Standard
350
17
  0
DICTIONARY
  5
18
102
{ACAD_REACTORS
330
C
102
}
330
C
100
AcDbDictionary
281
     1
  0
ACDBDICTIONARYWDFLT
  5
E
102
{ACAD_REACTORS
330
C
102
}
330
C
100
AcDbDictionary
281
     1
  3
Normal
350
F
100
AcDbDictionaryWithDefault
340
F
  0
DICTIONARY
  5
125
102
{ACAD_REACTORS
330
C
102
}
330
C
100
AcDbDictionary
281
     1
  3
DIMASSOC
350
126
  3
PROJECTNAME
350
127
  0
XRECORD
  5
10F
102
{ACAD_REACTORS
330
DB
102
}
330
DB
100
AcDbXrecord
280
     1
340
1E
  0
XRECORD
  5
10E
102
{ACAD_REACTORS
330
DD
102
}
330
DD
100
AcDbXrecord
280
     1
340
1A
  0
DIMASSOC
  5
98C
102
{ACAD_REACTORS
330
98B
102
}
330
98B
100
AcDbDimAssoc
330
98A
 90
        3
 70
     0
 71
     0
  1
AcDbOsnapPointRef
 72
    13
331
9D5
 73
     2
 91
        0
 40
0.0
 10
0.0
 20
0.0
 30
2.000000000000000E+50
 75
     0
  1
AcDbOsnapPointRef
 72
     1
331
9D5
 73
     2
 91
        0
 40
0.9999999999999998
 10
0.0
 20
0.0
 30
2.000000000000000E+50
 75
     0
  0
DIMASSOC
  5
98F
102
{ACAD_REACTORS
330
98E
102
}
330
98E
100
AcDbDimAssoc
330
98D
 90
        3
 70
     0
 71
     0
  1
AcDbOsnapPointRef
 72
    13
331
9D7
 73
     2
 91
        0
 40
0.0
 10
0.0
 20
0.0
 30
2.000000000000000E+50
 75
     0
  1
AcDbOsnapPointRef
 72
    13
331
9D6
 73
     2
 91
        0
 40
0.0
 10
0.0
 20
0.0
 30
2.000000000000000E+50
 75
     0
  0
DIMASSOC
  5
993
102
{ACAD_REACTORS
330
992
102
}
330
992
100
AcDbDimAssoc
330
991
 90
        3
 70
     0
 71
     0
  1
AcDbOsnapPointRef
 72
    13
331
9D5
 73
     2
 91
        0
 40
0.0
 10
0.0
 20
0.0
 30
2.000000000000000E+50
 75
     0
  1
AcDbOsnapPointRef
 72
    13
331
9CF
 73
     2
 91
        0
 40
0.0
 10
0.0
 20
0.0
 30
2.000000000000000E+50
 75
     0
  0
LAYOUT
  5
1D
102
{ACAD_REACTORS
330
19
102
}
330
19
100
AcDbPlotSettings
  1

  2
\\NT_WORK01\HP LaserJet 5000 PCL 6
  4

  6

 40
0.0
 41
0.0
 42
0.0
 43
0.0
 44
0.0
 45
0.0
 46
0.0
 47
0.0
 48
0.0
 49
0.0
140
0.0
141
0.0
142
1.0
143
1.0
 70
   688
 72
     0
 73
     0
 74
     5
  7

 75
    16
147
1.0
 76
     0
 77
     2
 78
   300
148
0.0
149
0.0
100
AcDbLayout
  1
Layout1
 70
     0
 71
     1
 10
0.0
 20
0.0
 11
12.0
 21
9.0
 12
0.0
 22
0.0
 32
0.0
 14
1.000000000000000E+20
 24
1.000000000000000E+20
 34
1.000000000000000E+20
 15
-1.000000000000000E+20
 25
-1.000000000000000E+20
 35
-1.000000000000000E+20
146
0.0
 13
0.0
 23
0.0
 33
0.0
 16
1.0
 26
0.0
 36
0.0
 17
0.0
 27
1.0
 37
0.0
 76
     0
330
1A
  0
LAYOUT
  5
21
102
{ACAD_REACTORS
330
19
102
}
330
19
100
AcDbPlotSettings
  1

  2
\\NT_WORK01\HP LaserJet 5000 PCL 6
  4

  6

 40
0.0
 41
0.0
 42
0.0
 43
0.0
 44
0.0
 45
0.0
 46
0.0
 47
0.0
 48
0.0
 49
0.0
140
0.0
141
0.0
142
1.0
143
1.0
 70
  1712
 72
     0
 73
     0
 74
     0
  7

 75
     0
147
1.0
 76
     0
 77
     2
 78
   300
148
0.0
149
0.0
100
AcDbLayout
  1
Model
 70
     1
 71
     0
 10
0.0
 20
0.0
 11
12.0
 21
9.0
 12
0.0
 22
0.0
 32
0.0
 14
0.0
 24
0.0
 34
0.0
 15
0.0
 25
0.0
 35
0.0
146
0.0
 13
0.0
 23
0.0
 33
0.0
 16
1.0
 26
0.0
 36
0.0
 17
0.0
 27
1.0
 37
0.0
 76
     0
330
1E
  0
MLINESTYLE
  5
17
102
{ACAD_REACTORS
330
16
102
}
330
16
100
AcDbMlineStyle
  2
STANDARD
 70
     0
  3

 62
   256
 51
90.0
 52
90.0
 71
     2
 49
0.5
 62
   256
  6
BYLAYER
 49
-0.5
 62
   256
  6
BYLAYER
  0
ACDBPLACEHOLDER
  5
F
102
{ACAD_REACTORS
330
E
102
}
330
E
  0
DICTIONARYVAR
  5
126
102
{ACAD_REACTORS
330
125
102
}
330
125
100
DictionaryVariables
280
     0
  1
1
  0
DICTIONARYVAR
  5
127
102
{ACAD_REACTORS
330
125
102
}
330
125
100
DictionaryVariables
280
     0
  1

  0
ENDSEC
  0
EOF
