  0
SECTION
  2
HEADER
  9
$ACADVER
  1
AC1018
  9
$ACADMAINTVER
 70
     2
  9
$DWGCODEPAGE
  3
ANSI_1252
  9
$INSBASE
 10
0.0
 20
0.0
 30
0.0
  9
$EXTMIN
 10
-0.0063978361731643
 20
-0.0090483683025013
 30
-0.0000000000000053
  9
$EXTMAX
 10
420.0064129945077
 20
594.0090698065175
 30
0.0000000000000099
  9
$LIMMIN
 10
0.0
 20
0.0
  9
$LIMMAX
 10
419.9999999999999
 20
594.0
  9
$ORTHOMODE
 70
     0
  9
$REGENMODE
 70
     1
  9
$FILLMODE
 70
     1
  9
$QTEXTMODE
 70
     0
  9
$MIRRTEXT
 70
     1
  9
$LTSCALE
 40
20.0
  9
$ATTMODE
 70
     1
  9
$TEXTSIZE
 40
3.5
  9
$TRACEWID
 40
0.5
  9
$TEXTSTYLE
  7
STANDARD
  9
$CLAYER
  8
VOLL
  9
$CELTYPE
  6
ByLayer
  9
$CECOLOR
 62
   256
  9
$CELTSCALE
 40
1.0
  9
$DISPSILH
 70
     0
  9
$DIMSCALE
 40
2.0
  9
$DIMASZ
 40
3.5
  9
$DIMEXO
 40
1.0
  9
$DIMDLI
 40
7.0
  9
$DIMRND
 40
0.0
  9
$DIMDLE
 40
0.0
  9
$DIMEXE
 40
1.0
  9
$DIMTP
 40
0.0
  9
$DIMTM
 40
0.0
  9
$DIMTXT
 40
3.5
  9
$DIMCEN
 40
1.5
  9
$DIMTSZ
 40
0.0
  9
$DIMTOL
 70
     0
  9
$DIMLIM
 70
     0
  9
$DIMTIH
 70
     0
  9
$DIMTOH
 70
     0
  9
$DIMSE1
 70
     0
  9
$DIMSE2
 70
     0
  9
$DIMTAD
 70
     1
  9
$DIMZIN
 70
     8
  9
$DIMBLK
  1

  9
$DIMASO
 70
     1
  9
$DIMSHO
 70
     0
  9
$DIMPOST
  1

  9
$DIMAPOST
  1

  9
$DIMALT
 70
     0
  9
$DIMALTD
 70
     2
  9
$DIMALTF
 40
25.4
  9
$DIMLFAC
 40
1.0
  9
$DIMTOFL
 70
     1
  9
$DIMTVP
 40
0.0
  9
$DIMTIX
 70
     0
  9
$DIMSOXD
 70
     0
  9
$DIMSAH
 70
     0
  9
$DIMBLK1
  1

  9
$DIMBLK2
  1

  9
$DIMSTYLE
  2
Standard
  9
$DIMCLRD
 70
     0
  9
$DIMCLRE
 70
     0
  9
$DIMCLRT
 70
     1
  9
$DIMTFAC
 40
0.5142857142857144
  9
$DIMGAP
 40
1.5
  9
$DIMJUST
 70
     0
  9
$DIMSD1
 70
     0
  9
$DIMSD2
 70
     0
  9
$DIMTOLJ
 70
     1
  9
$DIMTZIN
 70
     8
  9
$DIMALTZ
 70
     8
  9
$DIMALTTZ
 70
     8
  9
$DIMUPT
 70
     0
  9
$DIMDEC
 70
     2
  9
$DIMTDEC
 70
     2
  9
$DIMALTU
 70
     2
  9
$DIMALTTD
 70
     2
  9
$DIMTXSTY
  7
STANDARD
  9
$DIMAUNIT
 70
     0
  9
$DIMADEC
 70
     2
  9
$DIMALTRND
 40
0.0
  9
$DIMAZIN
 70
     2
  9
$DIMDSEP
 70
    46
  9
$DIMATFIT
 70
     3
  9
$DIMFRAC
 70
     0
  9
$DIMLDRBLK
  1

  9
$DIMLUNIT
 70
     2
  9
$DIMLWD
 70
    -2
  9
$DIMLWE
 70
    -2
  9
$DIMTMOVE
 70
     0
  9
$LUNITS
 70
     2
  9
$LUPREC
 70
     2
  9
$SKETCHINC
 40
1.0
  9
$FILLETRAD
 40
0.0
  9
$AUNITS
 70
     0
  9
$AUPREC
 70
     0
  9
$MENU
  1
ACAD
  9
$ELEVATION
 40
0.0
  9
$PELEVATION
 40
0.0
  9
$THICKNESS
 40
0.0
  9
$LIMCHECK
 70
     0
  9
$CHAMFERA
 40
0.0
  9
$CHAMFERB
 40
0.0
  9
$CHAMFERC
 40
0.0
  9
$CHAMFERD
 40
0.0
  9
$SKPOLY
 70
     0
  9
$TDCREATE
 40
2455397.864709028
  9
$TDUCREATE
 40
2455397.781375695
  9
$TDUPDATE
 40
2455469.432251389
  9
$TDUUPDATE
 40
2455469.348918056
  9
$TDINDWG
 40
0.0429514468
  9
$TDUSRTIMER
 40
0.0429514468
  9
$USRTIMER
 70
     1
  9
$ANGBASE
 50
0.0
  9
$ANGDIR
 70
     0
  9
$PDMODE
 70
     0
  9
$PDSIZE
 40
0.0
  9
$PLINEWID
 40
0.0
  9
$SPLFRAME
 70
     0
  9
$SPLINETYPE
 70
     6
  9
$SPLINESEGS
 70
     8
  9
$HANDSEED
  5
A10
  9
$SURFTAB1
 70
     6
  9
$SURFTAB2
 70
     6
  9
$SURFTYPE
 70
     6
  9
$SURFU
 70
     6
  9
$SURFV
 70
     6
  9
$UCSBASE
  2

  9
$UCSNAME
  2

  9
$UCSORG
 10
0.0
 20
0.0
 30
0.0
  9
$UCSXDIR
 10
1.0
 20
0.0
 30
0.0
  9
$UCSYDIR
 10
0.0
 20
1.0
 30
0.0
  9
$UCSORTHOREF
  2

  9
$UCSORTHOVIEW
 70
     0
  9
$UCSORGTOP
 10
0.0
 20
0.0
 30
0.0
  9
$UCSORGBOTTOM
 10
0.0
 20
0.0
 30
0.0
  9
$UCSORGLEFT
 10
0.0
 20
0.0
 30
0.0
  9
$UCSORGRIGHT
 10
0.0
 20
0.0
 30
0.0
  9
$UCSORGFRONT
 10
0.0
 20
0.0
 30
0.0
  9
$UCSORGBACK
 10
0.0
 20
0.0
 30
0.0
  9
$PUCSBASE
  2

  9
$PUCSNAME
  2

  9
$PUCSORG
 10
0.0
 20
0.0
 30
0.0
  9
$PUCSXDIR
 10
1.0
 20
0.0
 30
0.0
  9
$PUCSYDIR
 10
0.0
 20
1.0
 30
0.0
  9
$PUCSORTHOREF
  2

  9
$PUCSORTHOVIEW
 70
     0
  9
$PUCSORGTOP
 10
0.0
 20
0.0
 30
0.0
  9
$PUCSORGBOTTOM
 10
0.0
 20
0.0
 30
0.0
  9
$PUCSORGLEFT
 10
0.0
 20
0.0
 30
0.0
  9
$PUCSORGRIGHT
 10
0.0
 20
0.0
 30
0.0
  9
$PUCSORGFRONT
 10
0.0
 20
0.0
 30
0.0
  9
$PUCSORGBACK
 10
0.0
 20
0.0
 30
0.0
  9
$USERI1
 70
     0
  9
$USERI2
 70
     0
  9
$USERI3
 70
     0
  9
$USERI4
 70
     0
  9
$USERI5
 70
     0
  9
$USERR1
 40
0.0
  9
$USERR2
 40
0.0
  9
$USERR3
 40
0.0
  9
$USERR4
 40
0.0
  9
$USERR5
 40
0.0
  9
$WORLDVIEW
 70
     1
  9
$SHADEDGE
 70
     3
  9
$SHADEDIF
 70
    70
  9
$TILEMODE
 70
     1
  9
$MAXACTVP
 70
    16
  9
$PINSBASE
 10
0.0
 20
0.0
 30
0.0
  9
$PLIMCHECK
 70
     0
  9
$PEXTMIN
 10
1.000000000000000E+20
 20
1.000000000000000E+20
 30
1.000000000000000E+20
  9
$PEXTMAX
 10
-1.000000000000000E+20
 20
-1.000000000000000E+20
 30
-1.000000000000000E+20
  9
$PLIMMIN
 10
0.0
 20
0.0
  9
$PLIMMAX
 10
12.0
 20
9.0
  9
$UNITMODE
 70
     0
  9
$VISRETAIN
 70
     0
  9
$PLINEGEN
 70
     0
  9
$PSLTSCALE
 70
     0
  9
$TREEDEPTH
 70
  3020
  9
$CMLSTYLE
  2
Standard
  9
$CMLJUST
 70
     0
  9
$CMLSCALE
 40
1.0
  9
$PROXYGRAPHICS
 70
     1
  9
$MEASUREMENT
 70
     0
  9
$CELWEIGHT
370
    -1
  9
$ENDCAPS
280
     0
  9
$JOINSTYLE
280
     0
  9
$LWDISPLAY
290
     0
  9
$INSUNITS
 70
     0
  9
$HYPERLINKBASE
  1

  9
$STYLESHEET
  1
monochrome 1.ctb
  9
$XEDIT
290
     1
  9
$CEPSNTYPE
380
     0
  9
$PSTYLEMODE
290
     1
  9
$FINGERPRINTGUID
  2
{D68B0D02-A558-11D7-B632-000102183313}
  9
$VERSIONGUID
  2
{8664C92E-D676-4B84-A2A6-02919D567A10}
  9
$EXTNAMES
290
     1
  9
$PSVPSCALE
 40
0.0
  9
$OLESTARTUP
290
     0
  9
$SORTENTS
280
   127
  9
$INDEXCTL
280
     0
  9
$HIDETEXT
280
     0
  9
$XCLIPFRAME
290
     0
  9
$HALOGAP
280
     0
  9
$OBSCOLOR
 70
   257
  9
$OBSLTYPE
280
     0
  9
$INTERSECTIONDISPLAY
280
     0
  9
$INTERSECTIONCOLOR
 70
   257
  9
$DIMASSOC
280
     1
  9
$PROJECTNAME
  1

  0
ENDSEC
  0
SECTION
  2
CLASSES
  0
CLASS
  1
ACDBDICTIONARYWDFLT
  2
AcDbDictionaryWithDefault
  3
ObjectDBX Classes
 90
        0
 91
        1
280
     0
281
     0
  0
CLASS
  1
DICTIONARYVAR
  2
AcDbDictionaryVar
  3
ObjectDBX Classes
 90
        0
 91
        2
280
     0
281
     0
  0
ENDSEC
  0
SECTION
  2
TABLES
  0
TABLE
  2
VPORT
  5
8
330
0
100
AcDbSymbolTable
 70
     2
  0
VPORT
  5
A0F
330
8
100
AcDbSymbolTableRecord
100
AcDbViewportTableRecord
  2
*Active
 70
     0
 10
0.0
 20
0.0
 11
1.0
 21
1.0
 12
210.0000075791673
 22
297.0000107191075
 13
0.0
 23
0.0
 14
1.0
 24
1.0
 15
10.0
 25
10.0
 16
0.0
 26
0.0
 36
1.0
 17
0.0
 27
0.0
 37
0.0
 40
598.8150343377392
 41
1.336927223719676
 42
50.0
 43
0.0
 44
0.0
 50
0.0
 51
0.0
 71
     0
 72
  1500
 73
     1
 74
     0
 75
     0
 76
     0
 77
     0
 78
     0
281
     0
 65
     1
110
0.0
120
0.0
130
0.0
111
1.0
121
0.0
131
0.0
112
0.0
122
1.0
132
0.0
 79
     0
146
0.0
  0
ENDTAB
  0
TABLE
  2
LTYPE
  5
5
330
0
100
AcDbSymbolTable
 70
     2
  0
LTYPE
  5
13
330
5
100
AcDbSymbolTableRecord
100
AcDbLinetypeTableRecord
  2
ByBlock
 70
     0
  3

 72
    65
 73
     0
 40
0.0
  0
LTYPE
  5
14
330
5
100
AcDbSymbolTableRecord
100
AcDbLinetypeTableRecord
  2
ByLayer
 70
     0
  3

 72
    65
 73
     0
 40
0.0
  0
LTYPE
  5
15
330
5
100
AcDbSymbolTableRecord
100
AcDbLinetypeTableRecord
  2
Continuous
 70
     0
  3
Solid line
 72
    65
 73
     0
 40
0.0
  0
LTYPE
  5
25
330
5
100
AcDbSymbolTableRecord
100
AcDbLinetypeTableRecord
  2
STRICHPUNKT
 70
     0
  3
__ . __ . __ . __ . __ . __ . __ . __ . __ . __
 72
    65
 73
     4
 40
1.0
 49
0.5
 74
     0
 49
-0.25
 74
     0
 49
0.0
 74
     0
 49
-0.25
 74
     0
  0
ENDTAB
  0
TABLE
  2
LAYER
  5
2
330
0
100
AcDbSymbolTable
 70
     9
  0
LAYER
  5
10
330
2
100
AcDbSymbolTableRecord
100
AcDbLayerTableRecord
  2
0
 70
     0
 62
     7
  6
Continuous
370
    -3
390
F
  0
LAYER
  5
2A
330
2
100
AcDbSymbolTableRecord
100
AcDbLayerTableRecord
  2
VOLL
 70
     0
 62
     1
  6
Continuous
370
    -3
390
F
  0
LAYER
  5
2B
330
2
100
AcDbSymbolTableRecord
100
AcDbLayerTableRecord
  2
HILF
 70
     0
 62
     2
  6
Continuous
370
    -3
390
F
  0
LAYER
  5
2C
330
2
100
AcDbSymbolTableRecord
100
AcDbLayerTableRecord
  2
MITTEL
 70
     0
 62
     2
  6
STRICHPUNKT
370
    -3
390
F
  0
LAYER
  5
2F
330
2
100
AcDbSymbolTableRecord
100
AcDbLayerTableRecord
  2
BEM
 70
     0
 62
     7
  6
Continuous
370
    -3
390
F
  0
LAYER
  5
30
330
2
100
AcDbSymbolTableRecord
100
AcDbLayerTableRecord
  2
STEMPEL
 70
     0
 62
     3
  6
Continuous
370
    -3
390
F
  0
LAYER
  5
31
330
2
100
AcDbSymbolTableRecord
100
AcDbLayerTableRecord
  2
TEXT
 70
     0
 62
     7
  6
Continuous
370
    -3
390
F
  0
LAYER
  5
7D5
330
2
100
AcDbSymbolTableRecord
100
AcDbLayerTableRecord
  2
DEFPOINTS
 70
     0
 62
     7
  6
Continuous
290
     0
370
    -3
390
F
  0
LAYER
  5
9C4
330
2
100
AcDbSymbolTableRecord
100
AcDbLayerTableRecord
  2
SCHRAFF
 70
     0
 62
     7
  6
Continuous
370
    -3
390
F
  0
ENDTAB
  0
TABLE
  2
STYLE
  5
3
330
0
100
AcDbSymbolTable
 70
     2
  0
STYLE
  5
11
330
3
100
AcDbSymbolTableRecord
100
AcDbTextStyleTableRecord
  2
STANDARD
 70
     0
 40
0.0
 41
0.8
 50
0.0
 71
     0
 42
3.5
  3
simplex.shx
  4

  0
STYLE
  5
24
330
3
100
AcDbSymbolTableRecord
100
AcDbTextStyleTableRecord
  2
GREEKS
 70
     0
 40
0.0
 41
0.8
 50
0.0
 71
     0
 42
2.5
  3
SIMPLEX.shx
  4

  0
ENDTAB
  0
TABLE
  2
VIEW
  5
6
330
0
100
AcDbSymbolTable
 70
     0
  0
ENDTAB
  0
TABLE
  2
UCS
  5
7
330
0
100
AcDbSymbolTable
 70
     0
  0
ENDTAB
  0
TABLE
  2
APPID
  5
9
330
0
100
AcDbSymbolTable
 70
     1
  0
APPID
  5
12
330
9
100
AcDbSymbolTableRecord
100
AcDbRegAppTableRecord
  2
ACAD
 70
     0
  0
ENDTAB
  0
TABLE
  2
DIMSTYLE
  5
A
330
0
100
AcDbSymbolTable
 70
     1
100
AcDbDimStyleTable
 71
     1
340
9D
  0
DIMSTYLE
105
9D
102
{ACAD_REACTORS
330
842
330
841
330
840
330
83C
330
823
330
83E
102
}
330
A
100
AcDbSymbolTableRecord
100
AcDbDimStyleTableRecord
  2
Standard
 70
     0
340
11
  0
ENDTAB
  0
TABLE
  2
BLOCK_RECORD
  5
1
330
0
100
AcDbSymbolTable
 70
     7
  0
BLOCK_RECORD
  5
1E
102
{ACAD_XDICTIONARY
360
A0
102
}
330
1
100
AcDbSymbolTableRecord
100
AcDbBlockTableRecord
  2
*Model_Space
340
21
  0
BLOCK_RECORD
  5
1A
102
{ACAD_XDICTIONARY
360
A2
102
}
330
1
100
AcDbSymbolTableRecord
100
AcDbBlockTableRecord
  2
*Paper_Space
340
1D
  0
BLOCK_RECORD
  5
22
330
1
100
AcDbSymbolTableRecord
100
AcDbBlockTableRecord
  2
LOGO
340
0
102
{BLKREFS
331
9B
102
}
  0
BLOCK_RECORD
  5
86C
330
1
100
AcDbSymbolTableRecord
100
AcDbBlockTableRecord
  2
*D1
340
0
  0
BLOCK_RECORD
  5
879
330
1
100
AcDbSymbolTableRecord
100
AcDbBlockTableRecord
  2
*D2
340
0
  0
BLOCK_RECORD
  5
893
330
1
100
AcDbSymbolTableRecord
100
AcDbBlockTableRecord
  2
*D3
340
0
  0
BLOCK_RECORD
  5
8AD
330
1
100
AcDbSymbolTableRecord
100
AcDbBlockTableRecord
  2
*D4
340
0
  0
BLOCK_RECORD
  5
8BA
330
1
100
AcDbSymbolTableRecord
100
AcDbBlockTableRecord
  2
*D5
340
0
  0
BLOCK_RECORD
  5
8C7
330
1
100
AcDbSymbolTableRecord
100
AcDbBlockTableRecord
  2
*D6
340
0
  0
ENDTAB
  0
ENDSEC
  0
SECTION
  2
BLOCKS
  0
BLOCK
  5
35
330
1E
100
AcDbEntity
  8
0
100
AcDbBlockBegin
  2
*Model_Space
 70
     0
 10
0.0
 20
0.0
 30
0.0
  3
*Model_Space
  1

  0
ENDBLK
  5
36
330
1E
100
AcDbEntity
  8
0
100
AcDbBlockEnd
  0
BLOCK
  5
33
330
1A
100
AcDbEntity
 67
     1
  8
0
100
AcDbBlockBegin
  2
*Paper_Space
 70
     0
 10
0.0
 20
0.0
 30
0.0
  3
*Paper_Space
  1

  0
ENDBLK
  5
34
330
1A
100
AcDbEntity
 67
     1
  8
0
100
AcDbBlockEnd
  0
BLOCK
  5
37
330
22
100
AcDbEntity
  8
0
100
AcDbBlockBegin
  2
LOGO
 70
     0
 10
0.0
 20
0.0
 30
0.0
  3
LOGO
  1

  0
ARC
  5
38
330
22
100
AcDbEntity
  8
0
100
AcDbCircle
 10
11.59973089678112
 20
-9.271599258481501
 30
0.0
 40
4.5
100
AcDbArc
 50
270.0
 51
231.0575587310159
  0
LINE
  5
39
330
22
100
AcDbEntity
  8
0
100
AcDbLine
 10
3.599730896781125
 20
-4.771599258481529
 30
0.0
 11
3.599730896781153
 21
-11.77159925848133
 31
0.0
  0
LINE
  5
3A
330
22
100
AcDbEntity
  8
0
100
AcDbLine
 10
2.599730896781125
 20
-4.771599258481529
 30
0.0
 11
2.599730896781153
 21
-11.77159925848133
 31
0.0
  0
CIRCLE
  5
3B
330
22
100
AcDbEntity
  8
0
100
AcDbCircle
 10
11.59973089678112
 20
-9.271599258481501
 30
0.0
 40
3.5
  0
ARC
  5
3C
330
22
100
AcDbEntity
  8
0
100
AcDbCircle
 10
31.59973089678115
 20
-9.271599258481472
 30
0.0
 40
4.5
100
AcDbArc
 50
270.0
 51
231.0575587310182
  0
LINE
  5
3D
330
22
100
AcDbEntity
  8
0
100
AcDbLine
 10
17.59973089678112
 20
-4.771599258481472
 30
0.0
 11
17.59973089678115
 21
-13.77159925848147
 31
0.0
  0
ARC
  5
3E
330
22
100
AcDbEntity
  8
0
100
AcDbCircle
 10
22.59973089678116
 20
-7.271599258481472
 30
0.0
 40
2.5
100
AcDbArc
 50
293.1161887722295
 51
90.0
  0
CIRCLE
  5
3F
330
22
100
AcDbEntity
  8
0
100
AcDbCircle
 10
31.59973089678115
 20
-9.271599258481472
 30
0.0
 40
3.5
  0
ARC
  5
40
330
22
100
AcDbEntity
  8
0
100
AcDbCircle
 10
4.599730896781153
 20
-11.77159925848133
 30
0.0
 40
1.0
100
AcDbArc
 50
180.0
 51
270.0
  0
ARC
  5
41
330
22
100
AcDbEntity
  8
0
100
AcDbCircle
 10
4.599730896781153
 20
-11.77159925848133
 30
0.0
 40
2.0
100
AcDbArc
 50
179.9999999999992
 51
270.0
  0
LINE
  5
42
330
22
100
AcDbEntity
  8
0
100
AcDbLine
 10
11.59973089678115
 20
-13.77159925848144
 30
0.0
 11
4.599730896781153
 21
-13.77159925848147
 31
0.0
  0
LINE
  5
43
330
22
100
AcDbEntity
  8
0
100
AcDbLine
 10
8.771303772034769
 20
-12.77159925848136
 30
0.0
 11
4.599730896781153
 21
-12.77159925848133
 31
0.0
  0
LINE
  5
44
330
22
100
AcDbEntity
  8
0
100
AcDbLine
 10
31.59973089678115
 20
-13.77159925848147
 30
0.0
 11
23.6715276665056
 21
-13.77159925848144
 31
0.0
  0
LINE
  5
45
330
22
100
AcDbEntity
  8
0
100
AcDbLine
 10
23.56565672307022
 20
-9.51278021337896
 30
0.0
 11
24.4388546544846
 21
-12.77159925848144
 31
0.0
  0
LINE
  5
46
330
22
100
AcDbEntity
  8
0
100
AcDbLine
 10
22.59973089678116
 20
-9.771599258481472
 30
0.0
 11
18.59973089678112
 21
-9.771599258481472
 31
0.0
  0
LINE
  5
47
330
22
100
AcDbEntity
  8
0
100
AcDbLine
 10
18.59973089678115
 20
-13.77159925848144
 30
0.0
 11
17.59973089678115
 21
-13.77159925848144
 31
0.0
  0
LINE
  5
48
330
22
100
AcDbEntity
  8
0
100
AcDbLine
 10
18.59973089678115
 20
-9.771599258481472
 30
0.0
 11
18.59973089678115
 21
-13.77159925848144
 31
0.0
  0
LINE
  5
49
330
22
100
AcDbEntity
  8
0
100
AcDbLine
 10
22.59973089678116
 20
-9.771599258481472
 30
0.0
 11
23.67152766650562
 21
-13.77159925848147
 31
0.0
  0
ARC
  5
4A
330
22
100
AcDbEntity
  8
0
100
AcDbCircle
 10
22.59973089678116
 20
-7.271599258481472
 30
0.0
 40
2.5
100
AcDbArc
 50
270.0
 51
270.0000000000007
  0
LINE
  5
4B
330
22
100
AcDbEntity
  8
0
100
AcDbLine
 10
28.77130377203494
 20
-12.77159925848147
 30
0.0
 11
24.43885465448463
 21
-12.77159925848144
 31
0.0
  0
LINE
  5
4C
330
22
100
AcDbEntity
  8
0
100
AcDbLine
 10
3.599730896781125
 20
-4.771599258481472
 30
0.0
 11
2.599730896781125
 21
-4.771599258481472
 31
0.0
  0
LINE
  5
4D
330
22
100
AcDbEntity
  8
0
100
AcDbLine
 10
22.59973089678116
 20
-8.771599258481472
 30
0.0
 11
18.59973089678115
 21
-8.771599258481472
 31
0.0
  0
LINE
  5
4E
330
22
100
AcDbEntity
  8
0
100
AcDbLine
 10
22.59973089678116
 20
-5.771599258481472
 30
0.0
 11
18.59973089678115
 21
-5.771599258481472
 31
0.0
  0
LINE
  5
4F
330
22
100
AcDbEntity
  8
0
100
AcDbLine
 10
22.59973089678116
 20
-4.771599258481472
 30
0.0
 11
17.59973089678115
 21
-4.771599258481472
 31
0.0
  0
LINE
  5
50
330
22
100
AcDbEntity
  8
0
100
AcDbLine
 10
18.59973089678115
 20
-5.771599258481472
 30
0.0
 11
18.59973089678115
 21
-8.771599258481472
 31
0.0
  0
ARC
  5
51
330
22
100
AcDbEntity
  8
0
100
AcDbCircle
 10
22.59973089678116
 20
-7.271599258481472
 30
0.0
 40
1.5
100
AcDbArc
 50
270.0
 51
90.0
  0
ENDBLK
  5
52
330
22
100
AcDbEntity
  8
0
100
AcDbBlockEnd
  0
BLOCK
  5
877
330
86C
100
AcDbEntity
  8
0
100
AcDbBlockBegin
  2
*D1
 70
     1
 10
0.0
 20
0.0
 30
0.0
  3
*D1
  1

  0
LINE
  5
95C
330
86C
100
AcDbEntity
  8
BEM
 62
     0
370
    -2
100
AcDbLine
 10
234.4497538796604
 20
325.5572581916233
 30
0.0
 11
234.4497538796604
 21
325.5245124844419
 31
0.0
  0
LINE
  5
95D
330
86C
100
AcDbEntity
  8
BEM
 62
     0
370
    -2
100
AcDbLine
 10
227.4497538796603
 20
327.5245124844419
 30
0.0
 11
220.4497538796604
 21
327.5245124844419
 31
0.0
  0
LINE
  5
95E
330
86C
100
AcDbEntity
  8
BEM
 62
     0
370
    -2
100
AcDbLine
 10
242.9497538796604
 20
327.5245124844419
 30
0.0
 11
266.616420546327
 21
327.5245124844419
 31
0.0
  0
LINE
  5
95F
330
86C
100
AcDbEntity
  8
BEM
 62
     0
370
    -2
100
AcDbLine
 10
234.4497538796604
 20
327.5245124844419
 30
0.0
 11
235.9497538796603
 21
327.5245124844419
 31
0.0
  0
SOLID
  5
960
330
86C
100
AcDbEntity
  8
BEM
 62
     0
100
AcDbTrace
 10
227.4497538796603
 20
328.6911791511085
 30
0.0
 11
227.4497538796603
 21
326.3578458177752
 31
0.0
 12
234.4497538796604
 22
327.5245124844419
 32
0.0
 13
234.4497538796604
 23
327.5245124844419
 33
0.0
  0
SOLID
  5
961
330
86C
100
AcDbEntity
  8
BEM
 62
     0
100
AcDbTrace
 10
242.9497538796604
 20
328.6911791511085
 30
0.0
 11
242.9497538796604
 21
326.3578458177752
 31
0.0
 12
235.9497538796603
 22
327.5245124844419
 32
0.0
 13
235.9497538796603
 23
327.5245124844419
 33
0.0
  0
MTEXT
  5
962
330
86C
100
AcDbEntity
  8
BEM
 62
     1
100
AcDbMText
 10
258.2830872129937
 20
334.0245124844419
 30
0.0
 40
7.0
 41
0.0
 71
     5
 72
     1
  1
\A1;1.5
 73
     1
 44
1.0
  0
POINT
  5
963
330
86C
100
AcDbEntity
  8
DEFPOINTS
 62
     0
100
AcDbPoint
 10
234.4497538796604
 20
327.5572581916233
 30
0.0
  0
POINT
  5
964
330
86C
100
AcDbEntity
  8
DEFPOINTS
 62
     0
100
AcDbPoint
 10
235.9497538796603
 20
327.5245124844419
 30
0.0
  0
POINT
  5
965
330
86C
100
AcDbEntity
  8
DEFPOINTS
 62
     0
100
AcDbPoint
 10
235.9497538796603
 20
327.5245124844419
 30
0.0
  0
ENDBLK
  5
878
330
86C
100
AcDbEntity
  8
0
100
AcDbBlockEnd
  0
BLOCK
  5
884
330
879
100
AcDbEntity
  8
0
100
AcDbBlockBegin
  2
*D2
 70
     1
 10
0.0
 20
0.0
 30
0.0
  3
*D2
  1

  0
LINE
  5
953
330
879
100
AcDbEntity
  8
BEM
 62
     0
370
    -2
100
AcDbLine
 10
44.44975387966036
 20
461.0881759042704
 30
0.0
 11
44.44975387966036
 21
418.8001960256172
 31
0.0
  0
LINE
  5
954
330
879
100
AcDbEntity
  8
BEM
 62
     0
370
    -2
100
AcDbLine
 10
374.4497538796604
 20
461.0881759042703
 30
0.0
 11
374.4497538796604
 21
418.8001960256172
 31
0.0
  0
LINE
  5
955
330
879
100
AcDbEntity
  8
BEM
 62
     0
370
    -2
100
AcDbLine
 10
51.44975387966036
 20
420.8001960256171
 30
0.0
 11
367.4497538796604
 21
420.8001960256171
 31
0.0
  0
SOLID
  5
956
330
879
100
AcDbEntity
  8
BEM
 62
     0
100
AcDbTrace
 10
51.44975387966036
 20
421.9668626922838
 30
0.0
 11
51.44975387966036
 21
419.6335293589505
 31
0.0
 12
44.44975387966036
 22
420.8001960256171
 32
0.0
 13
44.44975387966036
 23
420.8001960256171
 33
0.0
  0
SOLID
  5
957
330
879
100
AcDbEntity
  8
BEM
 62
     0
100
AcDbTrace
 10
367.4497538796604
 20
421.9668626922838
 30
0.0
 11
367.4497538796604
 21
419.6335293589505
 31
0.0
 12
374.4497538796604
 22
420.8001960256171
 32
0.0
 13
374.4497538796604
 23
420.8001960256171
 33
0.0
  0
MTEXT
  5
958
330
879
100
AcDbEntity
  8
BEM
 62
     1
100
AcDbMText
 10
209.4497538796604
 20
427.3001960256172
 30
0.0
 40
7.0
 41
0.0
 71
     5
 72
     1
  1
\A1;%%C330
 73
     1
 44
1.0
  0
POINT
  5
959
330
879
100
AcDbEntity
  8
DEFPOINTS
 62
     0
100
AcDbPoint
 10
44.44975387966036
 20
463.0881759042703
 30
0.0
  0
POINT
  5
95A
330
879
100
AcDbEntity
  8
DEFPOINTS
 62
     0
100
AcDbPoint
 10
374.4497538796604
 20
463.0881759042702
 30
0.0
  0
POINT
  5
95B
330
879
100
AcDbEntity
  8
DEFPOINTS
 62
     0
100
AcDbPoint
 10
374.4497538796604
 20
420.8001960256171
 30
0.0
  0
ENDBLK
  5
885
330
879
100
AcDbEntity
  8
0
100
AcDbBlockEnd
  0
BLOCK
  5
89E
330
893
100
AcDbEntity
  8
0
100
AcDbBlockBegin
  2
*D3
 70
     1
 10
0.0
 20
0.0
 30
0.0
  3
*D3
  1

  0
LINE
  5
966
330
893
100
AcDbEntity
  8
BEM
 62
     0
370
    -2
100
AcDbLine
 10
182.9497538796603
 20
151.0881759042703
 30
0.0
 11
182.9497538796603
 21
122.0454317859403
 31
0.0
  0
LINE
  5
967
330
893
100
AcDbEntity
  8
BEM
 62
     0
370
    -2
100
AcDbLine
 10
235.9497538796603
 20
151.0881759042701
 30
0.0
 11
235.9497538796603
 21
122.0454317859403
 31
0.0
  0
LINE
  5
968
330
893
100
AcDbEntity
  8
BEM
 62
     0
370
    -2
100
AcDbLine
 10
189.9497538796603
 20
124.0454317859403
 30
0.0
 11
228.9497538796604
 21
124.0454317859403
 31
0.0
  0
SOLID
  5
969
330
893
100
AcDbEntity
  8
BEM
 62
     0
100
AcDbTrace
 10
189.9497538796603
 20
125.212098452607
 30
0.0
 11
189.9497538796603
 21
122.8787651192736
 31
0.0
 12
182.9497538796603
 22
124.0454317859403
 32
0.0
 13
182.9497538796603
 23
124.0454317859403
 33
0.0
  0
SOLID
  5
96A
330
893
100
AcDbEntity
  8
BEM
 62
     0
100
AcDbTrace
 10
228.9497538796604
 20
125.212098452607
 30
0.0
 11
228.9497538796604
 21
122.8787651192736
 31
0.0
 12
235.9497538796603
 22
124.0454317859403
 32
0.0
 13
235.9497538796603
 23
124.0454317859403
 33
0.0
  0
MTEXT
  5
96B
330
893
100
AcDbEntity
  8
BEM
 62
     1
100
AcDbMText
 10
209.4497538796604
 20
130.5454317859403
 30
0.0
 40
7.0
 41
0.0
 71
     5
 72
     1
  1
\A1;%%C53
 73
     1
 44
1.0
  0
POINT
  5
96C
330
893
100
AcDbEntity
  8
DEFPOINTS
 62
     0
100
AcDbPoint
 10
182.9497538796603
 20
153.0881759042703
 30
0.0
  0
POINT
  5
96D
330
893
100
AcDbEntity
  8
DEFPOINTS
 62
     0
100
AcDbPoint
 10
235.9497538796603
 20
153.0881759042701
 30
0.0
  0
POINT
  5
96E
330
893
100
AcDbEntity
  8
DEFPOINTS
 62
     0
100
AcDbPoint
 10
235.9497538796603
 20
124.0454317859403
 30
0.0
  0
ENDBLK
  5
89F
330
893
100
AcDbEntity
  8
0
100
AcDbBlockEnd
  0
BLOCK
  5
8B8
330
8AD
100
AcDbEntity
  8
0
100
AcDbBlockBegin
  2
*D4
 70
     1
 10
0.0
 20
0.0
 30
0.0
  3
*D4
  1

  0
LINE
  5
938
330
8AD
100
AcDbEntity
  8
BEM
 62
     0
370
    -2
100
AcDbLine
 10
241.0561070295971
 20
545.0881759042702
 30
0.0
 11
404.3005808198282
 21
545.08817590427
 31
0.0
  0
LINE
  5
939
330
8AD
100
AcDbEntity
  8
BEM
 62
     0
370
    -2
100
AcDbLine
 10
237.2498445714531
 20
145.0881759042703
 30
0.0
 11
404.3005808198282
 21
145.0881759042703
 31
0.0
  0
LINE
  5
93A
330
8AD
100
AcDbEntity
  8
BEM
 62
     0
370
    -2
100
AcDbLine
 10
402.3005808198282
 20
538.0881759042701
 30
0.0
 11
402.3005808198282
 21
152.0881759042703
 31
0.0
  0
SOLID
  5
93B
330
8AD
100
AcDbEntity
  8
BEM
 62
     0
100
AcDbTrace
 10
401.1339141531616
 20
538.0881759042701
 30
0.0
 11
403.4672474864949
 21
538.0881759042701
 31
0.0
 12
402.3005808198282
 22
545.08817590427
 32
0.0
 13
402.3005808198282
 23
545.08817590427
 33
0.0
  0
SOLID
  5
93C
330
8AD
100
AcDbEntity
  8
BEM
 62
     0
100
AcDbTrace
 10
401.1339141531615
 20
152.0881759042703
 30
0.0
 11
403.4672474864948
 21
152.0881759042703
 31
0.0
 12
402.3005808198282
 22
145.0881759042703
 32
0.0
 13
402.3005808198282
 23
145.0881759042703
 33
0.0
  0
MTEXT
  5
93D
330
8AD
100
AcDbEntity
  8
BEM
 62
     1
100
AcDbMText
 10
395.8005808198281
 20
345.0881759042703
 30
0.0
 40
7.0
 41
0.0
 71
     5
 72
     1
  1
\A1;400
 11
0.0000000000000001
 21
1.0
 31
0.0
 73
     1
 44
1.0
  0
POINT
  5
93E
330
8AD
100
AcDbEntity
  8
DEFPOINTS
 62
     0
100
AcDbPoint
 10
239.0561070295971
 20
545.0881759042702
 30
0.0
  0
POINT
  5
93F
330
8AD
100
AcDbEntity
  8
DEFPOINTS
 62
     0
100
AcDbPoint
 10
235.2498445714531
 20
145.0881759042703
 30
0.0
  0
POINT
  5
940
330
8AD
100
AcDbEntity
  8
DEFPOINTS
 62
     0
100
AcDbPoint
 10
402.3005808198282
 20
145.0881759042703
 30
0.0
  0
ENDBLK
  5
8B9
330
8AD
100
AcDbEntity
  8
0
100
AcDbBlockEnd
  0
BLOCK
  5
8C5
330
8BA
100
AcDbEntity
  8
0
100
AcDbBlockBegin
  2
*D5
 70
     1
 10
0.0
 20
0.0
 30
0.0
  3
*D5
  1

  0
LINE
  5
92D
330
8BA
100
AcDbEntity
  8
BEM
 62
     0
370
    -2
100
AcDbLine
 10
376.4497538796604
 20
465.0881759042702
 30
0.0
 11
391.2232308934282
 21
465.0881759042702
 31
0.0
  0
LINE
  5
92E
330
8BA
100
AcDbEntity
  8
BEM
 62
     0
370
    -2
100
AcDbLine
 10
376.4497538796604
 20
463.0881759042702
 30
0.0
 11
391.2232308934282
 21
463.0881759042702
 31
0.0
  0
LINE
  5
92F
330
8BA
100
AcDbEntity
  8
BEM
 62
     0
370
    -2
100
AcDbLine
 10
389.2232308934282
 20
472.0881759042701
 30
0.0
 11
389.2232308934282
 21
479.0881759042702
 31
0.0
  0
LINE
  5
930
330
8BA
100
AcDbEntity
  8
BEM
 62
     0
370
    -2
100
AcDbLine
 10
389.2232308934282
 20
456.0881759042702
 30
0.0
 11
389.2232308934282
 21
439.3548425709369
 31
0.0
  0
LINE
  5
931
330
8BA
100
AcDbEntity
  8
BEM
 62
     0
370
    -2
100
AcDbLine
 10
389.2232308934282
 20
465.0881759042702
 30
0.0
 11
389.2232308934282
 21
463.0881759042702
 31
0.0
  0
SOLID
  5
932
330
8BA
100
AcDbEntity
  8
BEM
 62
     0
100
AcDbTrace
 10
388.0565642267614
 20
472.0881759042701
 30
0.0
 11
390.3898975600948
 21
472.0881759042701
 31
0.0
 12
389.2232308934282
 22
465.0881759042702
 32
0.0
 13
389.2232308934282
 23
465.0881759042702
 33
0.0
  0
SOLID
  5
933
330
8BA
100
AcDbEntity
  8
BEM
 62
     0
100
AcDbTrace
 10
388.0565642267614
 20
456.0881759042702
 30
0.0
 11
390.3898975600948
 21
456.0881759042702
 31
0.0
 12
389.2232308934282
 22
463.0881759042702
 32
0.0
 13
389.2232308934282
 23
463.0881759042702
 33
0.0
  0
MTEXT
  5
934
330
8BA
100
AcDbEntity
  8
BEM
 62
     1
100
AcDbMText
 10
382.723230893428
 20
444.2215092376037
 30
0.0
 40
7.0
 41
0.0
 71
     5
 72
     1
  1
\A1;2
 11
0.0000000000000001
 21
1.0
 31
0.0
 73
     1
 44
1.0
  0
POINT
  5
935
330
8BA
100
AcDbEntity
  8
DEFPOINTS
 62
     0
100
AcDbPoint
 10
374.4497538796604
 20
465.0881759042702
 30
0.0
  0
POINT
  5
936
330
8BA
100
AcDbEntity
  8
DEFPOINTS
 62
     0
100
AcDbPoint
 10
374.4497538796604
 20
463.0881759042702
 30
0.0
  0
POINT
  5
937
330
8BA
100
AcDbEntity
  8
DEFPOINTS
 62
     0
100
AcDbPoint
 10
389.2232308934282
 20
463.0881759042702
 30
0.0
  0
ENDBLK
  5
8C6
330
8BA
100
AcDbEntity
  8
0
100
AcDbBlockEnd
  0
BLOCK
  5
8D2
330
8C7
100
AcDbEntity
  8
0
100
AcDbBlockBegin
  2
*D6
 70
     1
 10
0.0
 20
0.0
 30
0.0
  3
*D6
  1

  0
LINE
  5
924
330
8C7
100
AcDbEntity
  8
BEM
 62
     0
370
    -2
100
AcDbLine
 10
241.0561070295971
 20
545.0881759042702
 30
0.0
 11
391.2232308934282
 21
545.08817590427
 31
0.0
  0
LINE
  5
925
330
8C7
100
AcDbEntity
  8
BEM
 62
     0
370
    -2
100
AcDbLine
 10
376.4497538796604
 20
465.0881759042702
 30
0.0
 11
391.2232308934282
 21
465.0881759042702
 31
0.0
  0
LINE
  5
926
330
8C7
100
AcDbEntity
  8
BEM
 62
     0
370
    -2
100
AcDbLine
 10
389.2232308934282
 20
538.0881759042701
 30
0.0
 11
389.2232308934282
 21
472.0881759042701
 31
0.0
  0
SOLID
  5
927
330
8C7
100
AcDbEntity
  8
BEM
 62
     0
100
AcDbTrace
 10
388.0565642267614
 20
538.0881759042701
 30
0.0
 11
390.3898975600948
 21
538.0881759042701
 31
0.0
 12
389.2232308934282
 22
545.08817590427
 32
0.0
 13
389.2232308934282
 23
545.08817590427
 33
0.0
  0
SOLID
  5
928
330
8C7
100
AcDbEntity
  8
BEM
 62
     0
100
AcDbTrace
 10
388.0565642267614
 20
472.0881759042701
 30
0.0
 11
390.3898975600948
 21
472.0881759042701
 31
0.0
 12
389.2232308934282
 22
465.0881759042702
 32
0.0
 13
389.2232308934282
 23
465.0881759042702
 33
0.0
  0
MTEXT
  5
929
330
8C7
100
AcDbEntity
  8
BEM
 62
     1
100
AcDbMText
 10
382.7232308934281
 20
505.0881759042702
 30
0.0
 40
7.0
 41
0.0
 71
     5
 72
     1
  1
\A1;80
 11
0.0000000000000001
 21
1.0
 31
0.0
 73
     1
 44
1.0
  0
POINT
  5
92A
330
8C7
100
AcDbEntity
  8
DEFPOINTS
 62
     0
100
AcDbPoint
 10
239.0561070295971
 20
545.0881759042702
 30
0.0
  0
POINT
  5
92B
330
8C7
100
AcDbEntity
  8
DEFPOINTS
 62
     0
100
AcDbPoint
 10
374.4497538796604
 20
465.0881759042702
 30
0.0
  0
POINT
  5
92C
330
8C7
100
AcDbEntity
  8
DEFPOINTS
 62
     0
100
AcDbPoint
 10
389.2232308934282
 20
465.0881759042702
 30
0.0
  0
ENDBLK
  5
8D3
330
8C7
100
AcDbEntity
  8
0
100
AcDbBlockEnd
  0
ENDSEC
  0
SECTION
  2
ENTITIES
  0
LINE
  5
57
330
1E
100
AcDbEntity
  8
STEMPEL
100
AcDbLine
 10
410.0
 20
110.0
 30
0.0
 11
29.99999999999997
 21
110.0
 31
0.0
  0
LINE
  5
58
330
1E
100
AcDbEntity
  8
STEMPEL
100
AcDbLine
 10
136.0000000000001
 20
109.9999999999999
 30
0.0
 11
136.0
 21
9.999999999999971
 31
0.0
  0
LINE
  5
59
330
1E
100
AcDbEntity
  8
STEMPEL
100
AcDbLine
 10
220.0
 20
110.0
 30
0.0
 11
220.0
 21
9.999999999999971
 31
0.0
  0
LINE
  5
5A
330
1E
100
AcDbEntity
  8
STEMPEL
100
AcDbLine
 10
332.0
 20
109.9999999999997
 30
0.0
 11
332.0
 21
40.0
 31
0.0
  0
LINE
  5
5B
330
1E
100
AcDbEntity
  8
STEMPEL
100
AcDbLine
 10
135.9999999999999
 20
29.99999999999997
 30
0.0
 11
29.99999999999997
 21
29.99999999999997
 31
0.0
  0
LINE
  5
5C
330
1E
100
AcDbEntity
  8
STEMPEL
100
AcDbLine
 10
410.0
 20
40.0
 30
0.0
 11
136.0000000000001
 21
39.99999999999997
 31
0.0
  0
LINE
  5
5D
330
1E
100
AcDbEntity
  8
STEMPEL
100
AcDbLine
 10
410.0
 20
80.0
 30
0.0
 11
136.0000000000001
 21
79.99999999999994
 31
0.0
  0
LINE
  5
5E
330
1E
100
AcDbEntity
  8
VOLL
100
AcDbLine
 10
44.00000000000008
 20
110.0
 30
0.0
 11
43.99999999999997
 21
9.999999999999971
 31
0.0
  0
LINE
  5
5F
330
1E
100
AcDbEntity
  8
VOLL
100
AcDbLine
 10
94.00000000000011
 20
109.9999999999999
 30
0.0
 11
94.0
 21
9.999999999999971
 31
0.0
  0
LINE
  5
60
330
1E
100
AcDbEntity
  8
VOLL
100
AcDbLine
 10
114.0000000000001
 20
109.9999999999999
 30
0.0
 11
114.0
 21
9.999999999999971
 31
0.0
  0
LINE
  5
61
330
1E
100
AcDbEntity
  8
VOLL
100
AcDbLine
 10
154.0000000000001
 20
79.99999999999994
 30
0.0
 11
154.0000000000001
 21
39.99999999999997
 31
0.0
  0
LINE
  5
62
330
1E
100
AcDbEntity
  8
VOLL
100
AcDbLine
 10
180.0000000000001
 20
109.9999999999998
 30
0.0
 11
180.0
 21
39.99999999999997
 31
0.0
  0
LINE
  5
63
330
1E
100
AcDbEntity
  8
HILF
100
AcDbLine
 10
30.00000000000009
 20
100.0
 30
0.0
 11
136.0000000000001
 21
100.0
 31
0.0
  0
LINE
  5
64
330
1E
100
AcDbEntity
  8
HILF
100
AcDbLine
 10
30.00000000000009
 20
90.00000000000005
 30
0.0
 11
136.0000000000001
 21
90.00000000000005
 31
0.0
  0
LINE
  5
65
330
1E
100
AcDbEntity
  8
HILF
100
AcDbLine
 10
30.00000000000009
 20
79.99999999999994
 30
0.0
 11
136.0000000000001
 21
79.99999999999994
 31
0.0
  0
LINE
  5
66
330
1E
100
AcDbEntity
  8
HILF
100
AcDbLine
 10
30.00000000000009
 20
69.99999999999994
 30
0.0
 11
136.0000000000001
 21
69.99999999999994
 31
0.0
  0
LINE
  5
67
330
1E
100
AcDbEntity
  8
HILF
100
AcDbLine
 10
30.00000000000009
 20
59.99999999999997
 30
0.0
 11
136.0000000000001
 21
59.99999999999997
 31
0.0
  0
LINE
  5
68
330
1E
100
AcDbEntity
  8
HILF
100
AcDbLine
 10
30.00000000000009
 20
49.99999999999997
 30
0.0
 11
136.0000000000001
 21
49.99999999999997
 31
0.0
  0
LINE
  5
69
330
1E
100
AcDbEntity
  8
HILF
100
AcDbLine
 10
30.00000000000009
 20
39.99999999999997
 30
0.0
 11
136.0000000000001
 21
39.99999999999997
 31
0.0
  0
LINE
  5
6A
330
1E
100
AcDbEntity
  8
HILF
100
AcDbLine
 10
136.0000000000001
 20
69.99999999999994
 30
0.0
 11
220.0
 21
69.99999999999994
 31
0.0
  0
LINE
  5
6B
330
1E
100
AcDbEntity
  8
HILF
100
AcDbLine
 10
136.0000000000001
 20
59.99999999999997
 30
0.0
 11
220.0
 21
59.99999999999997
 31
0.0
  0
LINE
  5
6C
330
1E
100
AcDbEntity
  8
HILF
100
AcDbLine
 10
136.0000000000001
 20
49.99999999999997
 30
0.0
 11
220.0
 21
49.99999999999997
 31
0.0
  0
LINE
  5
6D
330
1E
100
AcDbEntity
  8
HILF
100
AcDbLine
 10
224.7736801096948
 20
84.03758247564139
 30
0.0
 11
324.8353916556311
 21
84.03758247564139
 31
0.0
  0
LINE
  5
6E
330
1E
100
AcDbEntity
  8
HILF
100
AcDbLine
 10
224.7736801096948
 20
69.99999999999994
 30
0.0
 11
324.835391655631
 21
69.99999999999994
 31
0.0
  0
LINE
  5
6F
330
1E
100
AcDbEntity
  8
HILF
100
AcDbLine
 10
224.7736801096948
 20
59.99999999999997
 30
0.0
 11
324.835391655631
 21
59.99999999999997
 31
0.0
  0
LINE
  5
70
330
1E
100
AcDbEntity
  8
HILF
100
AcDbLine
 10
224.7736801096948
 20
49.99999999999997
 30
0.0
 11
324.835391655631
 21
49.99999999999997
 31
0.0
  0
LINE
  5
71
330
1E
100
AcDbEntity
  8
VOLL
100
AcDbLine
 10
332.0
 20
60.0
 30
0.0
 11
410.0
 21
60.0
 31
0.0
  0
LINE
  5
72
330
1E
100
AcDbEntity
  8
HILF
100
AcDbLine
 10
336.7238616296993
 20
83.77983636955827
 30
0.0
 11
404.8588839326728
 21
83.77983636955827
 31
0.0
  0
LINE
  5
73
330
1E
100
AcDbEntity
  8
HILF
100
AcDbLine
 10
223.4909699289885
 20
14.89398258028314
 30
0.0
 11
404.8588839326728
 21
14.89398258028314
 31
0.0
  0
TEXT
  5
74
330
1E
100
AcDbEntity
  8
TEXT
100
AcDbText
 10
59.34071736793199
 20
18.67381894984132
 30
0.0
 40
4.0
  1
Änderung
 41
0.8
  7
GREEKS
 72
     1
 11
70.08357451078913
 21
18.67381894984132
 31
0.0
100
AcDbText
  0
TEXT
  5
75
330
1E
100
AcDbEntity
  8
TEXT
100
AcDbText
 10
143.5163572150377
 20
102.4620895087088
 30
0.0
 40
5.0
  1
Maßstab
 41
0.8
  7
GREEKS
100
AcDbText
  0
TEXT
  5
76
330
1E
100
AcDbEntity
  8
TEXT
100
AcDbText
 10
184.2858954734051
 20
102.4184168434819
 30
0.0
 40
5.0
  1
Zul. Abw.
 41
0.8
  7
GREEKS
100
AcDbText
  0
TEXT
  5
77
330
1E
100
AcDbEntity
  8
TEXT
100
AcDbText
 10
224.877940380901
 20
102.5489328011779
 30
0.0
 40
5.0
  1
Benennung
 41
0.8
  7
GREEKS
100
AcDbText
  0
TEXT
  5
78
330
1E
100
AcDbEntity
  8
TEXT
100
AcDbText
 10
336.178754957634
 20
102.3132034537136
 30
0.0
 40
5.0
  1
Zeichnungs Nr.
 41
0.8
  7
GREEKS
100
AcDbText
  0
TEXT
  5
79
330
1E
100
AcDbEntity
  8
TEXT
100
AcDbText
 10
224.742238391136
 20
30.84560570193057
 30
0.0
 40
5.0
  1
Bauvorhaben
 41
0.8
  7
GREEKS
100
AcDbText
  0
TEXT
  5
7A
330
1E
100
AcDbEntity
  8
TEXT
100
AcDbText
 10
336.7238616296993
 20
73.1811823709997
 30
0.0
 40
5.0
  1
Ersatz für:
 41
0.8
  7
GREEKS
100
AcDbText
  0
TEXT
  5
7B
330
1E
100
AcDbEntity
  8
TEXT
100
AcDbText
 10
38.26641107045757
 20
13.65465846027192
 30
0.0
 40
4.0
  1
Index
 50
90.0
 41
0.8
  7
GREEKS
100
AcDbText
  0
TEXT
  5
7C
330
1E
100
AcDbEntity
  8
TEXT
100
AcDbText
 10
100.0934676075481
 20
18.6715626933981
 30
0.0
 40
4.0
  1
Tag
 41
0.8
  7
GREEKS
 72
     1
 11
103.8268009408814
 21
18.6715626933981
 31
0.0
100
AcDbText
  0
TEXT
  5
7D
330
1E
100
AcDbEntity
  8
TEXT
100
AcDbText
 10
119.0122744386592
 20
18.59324216966408
 30
0.0
 40
4.0
  1
Name
 41
0.8
  7
GREEKS
 72
     1
 11
125.3360839624688
 21
18.59324216966408
 31
0.0
100
AcDbText
  0
TEXT
  5
7E
330
1E
100
AcDbEntity
  8
TEXT
100
AcDbText
 10
162.3311673153651
 20
73.31880501229926
 30
0.0
 40
4.0
  1
Tag
 41
0.8
  7
GREEKS
100
AcDbText
  0
TEXT
  5
7F
330
1E
100
AcDbEntity
  8
TEXT
100
AcDbText
 10
192.4626584226295
 20
73.30961091915225
 30
0.0
 40
4.0
  1
Name
 41
0.8
  7
GREEKS
100
AcDbText
  0
TEXT
  5
80
330
1E
100
AcDbEntity
  8
TEXT
100
AcDbText
 10
137.5836127167615
 20
63.62990369617964
 30
0.0
 40
4.0
  1
Gez.
 41
0.8
  7
GREEKS
100
AcDbText
  0
TEXT
  5
81
330
1E
100
AcDbEntity
  8
TEXT
100
AcDbText
 10
137.5515086571672
 20
53.68926291428377
 30
0.0
 40
4.0
  1
Gepr.
 41
0.8
  7
GREEKS
100
AcDbText
  0
TEXT
  5
82
330
1E
100
AcDbEntity
  8
TEXT
100
AcDbText
 10
137.6006777387304
 20
43.52946389649807
 30
0.0
 40
4.0
  1
Norm.
 41
0.8
  7
GREEKS
100
AcDbText
  0
LINE
  5
83
330
1E
100
AcDbEntity
  8
STEMPEL
100
AcDbLine
 10
39.99999999999989
 20
10.0
 30
0.0
 11
410.0
 21
10.0
 31
0.0
  0
TEXT
  5
84
330
1E
100
AcDbEntity
  8
TEXT
100
AcDbText
 10
337.2400861497006
 20
52.07416177878602
 30
0.0
 40
5.0
  1
ersetzt durch:
 41
0.8
  7
GREEKS
100
AcDbText
  0
LINE
  5
85
330
1E
100
AcDbEntity
  8
STEMPEL
100
AcDbLine
 10
410.0
 20
10.0
 30
0.0
 11
29.99999999999989
 21
10.0
 31
0.0
  0
LINE
  5
86
330
1E
100
AcDbEntity
  8
STEMPEL
100
AcDbLine
 10
410.0
 20
10.0
 30
0.0
 11
410.0
 21
584.0
 31
0.0
  0
LINE
  5
87
330
1E
100
AcDbEntity
  8
STEMPEL
100
AcDbLine
 10
30.0
 20
10.0
 30
0.0
 11
29.99999999999989
 21
584.0
 31
0.0
  0
LINE
  5
88
330
1E
100
AcDbEntity
  8
STEMPEL
100
AcDbLine
 10
410.0
 20
584.0
 30
0.0
 11
29.99999999999989
 21
584.0
 31
0.0
  0
LINE
  5
89
330
1E
100
AcDbEntity
  8
HILF
100
AcDbLine
 10
0.0
 20
0.0
 30
0.0
 11
-0.0000000000001137
 21
594.0
 31
0.0
  0
LINE
  5
8A
330
1E
100
AcDbEntity
  8
HILF
100
AcDbLine
 10
419.9999999999999
 20
594.0000000000002
 30
0.0
 11
0.0
 21
594.0
 31
0.0
  0
LINE
  5
8B
330
1E
100
AcDbEntity
  8
HILF
100
AcDbLine
 10
420.0
 20
0.0
 30
0.0
 11
0.0
 21
0.0
 31
0.0
  0
LINE
  5
8C
330
1E
100
AcDbEntity
  8
HILF
100
AcDbLine
 10
31.08767135713856
 20
297.0
 30
0.0
 11
0.0000000000001137
 21
297.0
 31
0.0
  0
TEXT
  5
8D
330
1E
100
AcDbEntity
  8
TEXT
100
AcDbText
 10
138.622109822104
 20
73.14025471151666
 30
0.0
 40
4.0
  1
2008
 41
0.8
  7
GREEKS
100
AcDbText
  0
LINE
  5
8E
330
1E
100
AcDbEntity
  8
HILF
100
AcDbLine
 10
420.0
 20
-0.0000000000001137
 30
0.0
 11
419.9999999999999
 21
594.0
 31
0.0
  0
TEXT
  5
8F
330
1E
100
AcDbEntity
  8
VOLL
100
AcDbText
 10
78.07675471698113
 20
31.02594776470585
 30
0.0
 40
1.8
  1

  7
GREEKS
100
AcDbText
  0
TEXT
  5
90
330
1E
100
AcDbEntity
  8
TEXT
100
AcDbText
 10
31.85509950977675
 20
111.6719999999999
 30
0.0
 40
5.0
  1
Erstellt mit AUTOCAD 2004
 41
0.8
  7
GREEKS
100
AcDbText
  0
TEXT
  5
91
330
1E
100
AcDbEntity
  8
TEXT
100
AcDbText
 10
194.4216048581257
 20
63.0896391972351
 30
0.0
 40
4.0
  1
Koeh
 41
0.8
  7
GREEKS
 72
     1
 11
199.6787477152685
 21
63.0896391972351
 31
0.0
100
AcDbText
  0
TEXT
  5
92
330
1E
100
AcDbEntity
  8
TEXT
 62
     1
100
AcDbText
 10
344.3143841209336
 20
88.14901428913959
 30
0.0
 40
7.0
  1
18130050W
 41
0.8
  7
GREEKS
 72
     1
 11
367.247717454267
 21
88.14901428913959
 31
0.0
100
AcDbText
  0
TEXT
  5
93
330
1E
100
AcDbEntity
  8
TEXT
 62
     1
100
AcDbText
 10
150.5006306481887
 20
88.14901428913959
 30
0.0
 40
7.0
  1
1:2
 41
0.8
  7
GREEKS
100
AcDbText
  0
TEXT
  5
94
330
1E
100
AcDbEntity
  8
TEXT
100
AcDbText
 10
160.7037590129979
 20
63.10765040825732
 30
0.0
 40
4.0
  1
13.09.
 41
0.8
  7
GREEKS
 72
     1
 11
167.4085209177598
 21
63.10765040825732
 31
0.0
100
AcDbText
  0
TEXT
  5
95
330
1E
100
AcDbEntity
  8
TEXT
 62
     1
100
AcDbText
 10
224.9022698906435
 20
87.41748789253779
 30
0.0
 40
7.0
  1
Wanddurchführung DN50
 41
0.75
  7
GREEKS
100
AcDbText
  0
TEXT
  5
96
330
1E
100
AcDbEntity
  8
TEXT
100
AcDbText
 10
225.1296391125315
 20
71.50334417585288
 30
0.0
 40
5.0
  1
mit Sperrflansch
 41
0.8
  7
GREEKS
100
AcDbText
  0
TEXT
  5
98
330
1E
100
AcDbEntity
  8
TEXT
100
AcDbText
 10
225.1296391125315
 20
51.64011943042158
 30
0.0
 40
5.0
  1
EDV-Art.Nr. 18130.050X
 41
0.8
  7
GREEKS
100
AcDbText
  0
TEXT
  5
99
330
1E
100
AcDbEntity
  8
TEXT
100
AcDbText
 10
224.9837501577827
 20
42.62974153022632
 30
0.0
 40
4.0
  1
18130050W.DWG
 41
0.8
  7
GREEKS
100
AcDbText
  0
TEXT
  5
9A
330
1E
100
AcDbEntity
  8
TEXT
100
AcDbText
 10
182.626132208084
 20
90.76363841023022
 30
0.0
 40
4.0
  1
DIN EN1123-2
 41
0.8
  7
GREEKS
 72
     1
 11
199.6166083985602
 21
90.76363841023022
 31
0.0
100
AcDbText
  0
INSERT
  5
9B
330
1E
100
AcDbEntity
  8
STEMPEL
100
AcDbBlockReference
  2
LOGO
 10
140.9955485457794
 20
45.02105276448322
 30
0.0
 41
2.0
 42
2.0
 43
2.0
  0
TEXT
  5
118
330
1E
100
AcDbEntity
  8
BEM
100
AcDbText
 10
417.3022923857165
 20
10.16790107998849
 30
0.0
 40
4.0
  1
Diese Zeichnung ist urheberrechtlich geschützt und bleibt unser Eigentum. Sie darf weder ganz noch teilweise verfielfältigt und nicht an Dritte weitergegeben werden.
 50
90.0
 41
0.8
  7
GREEKS
100
AcDbText
  0
DIMENSION
  5
823
330
1E
100
AcDbEntity
  8
BEM
100
AcDbDimension
  2
*D1
 10
235.9497538796603
 20
327.5245124844419
 30
0.0
 11
258.2830872129937
 21
334.0245124844419
 31
0.0
 70
    32
 71
     5
 42
1.5
  3
Standard
100
AcDbAlignedDimension
 13
234.4497538796604
 23
327.5572581916233
 33
0.0
 14
235.9497538796603
 24
327.5245124844419
 34
0.0
100
AcDbRotatedDimension
1001
ACAD
1000
DSTYLE
1002
{
1070
    40
1040
2.0
1070
    41
1040
3.5
1070
    42
1040
1.0
1070
    43
1040
7.0
1070
    44
1040
1.0
1070
    73
1070
     0
1070
    74
1070
     0
1070
    77
1070
     1
1070
    78
1070
     8
1070
    79
1070
     2
1070
   140
1040
3.5
1070
   141
1040
1.5
1070
   146
1040
0.5142857142857144
1070
   147
1040
1.5
1070
   172
1070
     1
1070
   178
1070
     1
1070
   179
1070
     2
1070
   271
1070
     2
1070
   272
1070
     2
1070
   284
1070
     8
1070
   285
1070
     8
1070
   286
1070
     8
1002
}
  0
ARC
  5
825
330
1E
100
AcDbEntity
  8
SCHRAFF
100
AcDbCircle
 10
235.9497538796603
 20
450.0881759042703
 30
0.0
 40
3.0
100
AcDbArc
 50
270.0
 51
6.260577467116731
  0
ARC
  5
826
330
1E
100
AcDbEntity
  8
SCHRAFF
100
AcDbCircle
 10
182.9497538796603
 20
450.0881759042703
 30
0.0
 40
3.0
100
AcDbArc
 50
173.7394225328833
 51
270.0
  0
LINE
  5
829
330
1E
100
AcDbEntity
  8
MITTEL
100
AcDbLine
 10
209.4497538796604
 20
417.3124384872147
 30
0.0
 11
209.4497538796604
 21
140.0881759042704
 31
0.0
  0
LINE
  5
82A
330
1E
100
AcDbEntity
  8
STEMPEL
100
AcDbLine
 10
234.4497538796604
 20
153.153667318633
 30
0.0
 11
233.7441148151381
 21
145.0881759042703
 31
0.0
  0
LINE
  5
82B
330
1E
100
AcDbEntity
  8
STEMPEL
100
AcDbLine
 10
184.4497538796603
 20
153.1536673186328
 30
0.0
 11
185.1553929441827
 21
145.0881759042704
 31
0.0
  0
ARC
  5
82C
330
1E
100
AcDbEntity
  8
STEMPEL
100
AcDbCircle
 10
197.4497538796603
 20
536.7056745616094
 30
0.0
 40
18.0
100
AcDbArc
 50
152.2448206083876
 51
180.0
  0
LINE
  5
82D
330
1E
100
AcDbEntity
  8
STEMPEL
100
AcDbLine
 10
179.4497538796603
 20
536.7056745616094
 30
0.0
 11
179.4497538796603
 21
532.2101402022619
 31
0.0
  0
ARC
  5
82E
330
1E
100
AcDbEntity
  8
STEMPEL
100
AcDbCircle
 10
202.9497538796604
 20
532.25017590427
 30
0.0
 40
23.50003205712821
100
AcDbArc
 50
179.9082450081906
 51
199.4630994446918
  0
ARC
  5
82F
330
1E
100
AcDbEntity
  8
STEMPEL
100
AcDbCircle
 10
169.9497538796603
 20
520.5881759042702
 30
0.0
 40
11.5
100
AcDbArc
 50
0.0
 51
19.46309944469181
  0
LINE
  5
830
330
1E
100
AcDbEntity
  8
STEMPEL
100
AcDbLine
 10
181.4497538796603
 20
520.5881759042702
 30
0.0
 11
181.4497538796603
 21
512.4965028174661
 31
0.0
  0
ARC
  5
831
330
1E
100
AcDbEntity
  8
STEMPEL
100
AcDbCircle
 10
191.9497538796603
 20
512.4965028174661
 30
0.0
 40
10.5
100
AcDbArc
 50
180.0
 51
211.7883306170488
  0
ARC
  5
832
330
1E
100
AcDbEntity
  8
STEMPEL
100
AcDbCircle
 10
174.9497538796603
 20
501.9608490646136
 30
0.0
 40
9.5
100
AcDbArc
 50
0.0
 51
31.78833061704886
  0
LINE
  5
833
330
1E
100
AcDbEntity
  8
STEMPEL
100
AcDbLine
 10
184.4497538796603
 20
501.9608490646136
 30
0.0
 11
184.4497538796603
 21
153.1536673186328
 31
0.0
  0
LINE
  5
834
330
1E
100
AcDbEntity
  8
STEMPEL
100
AcDbLine
 10
234.4497538796604
 20
501.9608490646136
 30
0.0
 11
234.4497538796604
 21
153.153667318633
 31
0.0
  0
ARC
  5
835
330
1E
100
AcDbEntity
  8
STEMPEL
100
AcDbCircle
 10
243.9497538796604
 20
501.9608490646136
 30
0.0
 40
9.5
100
AcDbArc
 50
148.2116693829511
 51
180.0
  0
ARC
  5
836
330
1E
100
AcDbEntity
  8
STEMPEL
100
AcDbCircle
 10
226.9497538796604
 20
512.4965028174661
 30
0.0
 40
10.5
100
AcDbArc
 50
328.2116693829511
 51
0.0
  0
LINE
  5
837
330
1E
100
AcDbEntity
  8
STEMPEL
100
AcDbLine
 10
237.4497538796604
 20
520.5881759042702
 30
0.0
 11
237.4497538796604
 21
512.4965028174661
 31
0.0
  0
ARC
  5
838
330
1E
100
AcDbEntity
  8
STEMPEL
100
AcDbCircle
 10
248.9497538796604
 20
520.5881759042702
 30
0.0
 40
11.5
100
AcDbArc
 50
160.5369005553082
 51
180.0
  0
ARC
  5
839
330
1E
100
AcDbEntity
  8
STEMPEL
100
AcDbCircle
 10
215.9497538796604
 20
532.25017590427
 30
0.0
 40
23.50003205712821
100
AcDbArc
 50
340.5369005553082
 51
0.0917549918093325
  0
LINE
  5
83A
330
1E
100
AcDbEntity
  8
STEMPEL
100
AcDbLine
 10
239.4497538796604
 20
536.7056745616094
 30
0.0
 11
239.4497538796604
 21
532.2101402022619
 31
0.0
  0
ARC
  5
83B
330
1E
100
AcDbEntity
  8
STEMPEL
100
AcDbCircle
 10
221.4497538796603
 20
536.7056745616094
 30
0.0
 40
18.0
100
AcDbArc
 50
0.0
 51
27.75517939161238
  0
DIMENSION
  5
83C
330
1E
100
AcDbEntity
  8
BEM
100
AcDbDimension
  2
*D2
 10
374.4497538796604
 20
420.8001960256171
 30
0.0
 11
209.4497538796604
 21
427.3001960256172
 31
0.0
 70
    32
  1
%%C<>
 71
     5
 42
330.0
  3
Standard
100
AcDbAlignedDimension
 13
44.44975387966036
 23
463.0881759042703
 33
0.0
 14
374.4497538796604
 24
463.0881759042702
 34
0.0
100
AcDbRotatedDimension
1001
ACAD
1000
DSTYLE
1002
{
1070
    40
1040
2.0
1070
    41
1040
3.5
1070
    42
1040
1.0
1070
    43
1040
7.0
1070
    44
1040
1.0
1070
    73
1070
     0
1070
    74
1070
     0
1070
    77
1070
     1
1070
    78
1070
     8
1070
    79
1070
     2
1070
   140
1040
3.5
1070
   141
1040
1.5
1070
   146
1040
0.5142857142857144
1070
   147
1040
1.5
1070
   172
1070
     1
1070
   178
1070
     1
1070
   179
1070
     2
1070
   271
1070
     2
1070
   272
1070
     2
1070
   284
1070
     8
1070
   285
1070
     8
1070
   286
1070
     8
1002
}
  0
DIMENSION
  5
83E
330
1E
100
AcDbEntity
  8
BEM
100
AcDbDimension
  2
*D3
 10
235.9497538796603
 20
124.0454317859403
 30
0.0
 11
209.4497538796604
 21
130.5454317859403
 31
0.0
 70
    32
  1
%%C<>
 71
     5
 42
53.0
  3
Standard
100
AcDbAlignedDimension
 13
182.9497538796603
 23
153.0881759042703
 33
0.0
 14
235.9497538796603
 24
153.0881759042701
 34
0.0
100
AcDbRotatedDimension
1001
ACAD
1000
DSTYLE
1002
{
1070
    40
1040
2.0
1070
    41
1040
3.5
1070
    42
1040
1.0
1070
    43
1040
7.0
1070
    44
1040
1.0
1070
    73
1070
     0
1070
    74
1070
     0
1070
    77
1070
     1
1070
    78
1070
     8
1070
    79
1070
     2
1070
   140
1040
3.5
1070
   141
1040
1.5
1070
   146
1040
0.5142857142857144
1070
   147
1040
1.5
1070
   172
1070
     1
1070
   178
1070
     1
1070
   179
1070
     2
1070
   271
1070
     2
1070
   272
1070
     2
1070
   284
1070
     8
1070
   285
1070
     8
1070
   286
1070
     8
1002
}
  0
DIMENSION
  5
840
330
1E
100
AcDbEntity
  8
BEM
100
AcDbDimension
  2
*D4
 10
402.3005808198282
 20
145.0881759042703
 30
0.0
 11
395.8005808198281
 21
345.0881759042703
 31
0.0
 70
    32
 71
     5
 42
399.9999999999998
  3
Standard
100
AcDbAlignedDimension
 13
239.0561070295971
 23
545.0881759042702
 33
0.0
 14
235.2498445714531
 24
145.0881759042703
 34
0.0
 50
90.0
100
AcDbRotatedDimension
1001
ACAD
1000
DSTYLE
1002
{
1070
    40
1040
2.0
1070
    41
1040
3.5
1070
    42
1040
1.0
1070
    43
1040
7.0
1070
    44
1040
1.0
1070
    73
1070
     0
1070
    74
1070
     0
1070
    77
1070
     1
1070
    78
1070
     8
1070
    79
1070
     2
1070
   140
1040
3.5
1070
   141
1040
1.5
1070
   146
1040
0.5142857142857144
1070
   147
1040
1.5
1070
   172
1070
     1
1070
   178
1070
     1
1070
   179
1070
     2
1070
   271
1070
     2
1070
   272
1070
     2
1070
   284
1070
     8
1070
   285
1070
     8
1070
   286
1070
     8
1002
}
  0
DIMENSION
  5
841
330
1E
100
AcDbEntity
  8
BEM
100
AcDbDimension
  2
*D5
 10
389.2232308934282
 20
463.0881759042702
 30
0.0
 11
382.723230893428
 21
444.2215092376037
 31
0.0
 70
    32
 71
     5
 42
1.999999999999943
  3
Standard
100
AcDbAlignedDimension
 13
374.4497538796604
 23
465.0881759042702
 33
0.0
 14
374.4497538796604
 24
463.0881759042702
 34
0.0
 50
90.0
100
AcDbRotatedDimension
1001
ACAD
1000
DSTYLE
1002
{
1070
    40
1040
2.0
1070
    41
1040
3.5
1070
    42
1040
1.0
1070
    43
1040
7.0
1070
    44
1040
1.0
1070
    73
1070
     0
1070
    74
1070
     0
1070
    77
1070
     1
1070
    78
1070
     8
1070
    79
1070
     2
1070
   140
1040
3.5
1070
   141
1040
1.5
1070
   146
1040
0.5142857142857144
1070
   147
1040
1.5
1070
   172
1070
     1
1070
   178
1070
     1
1070
   179
1070
     2
1070
   271
1070
     2
1070
   272
1070
     2
1070
   284
1070
     8
1070
   285
1070
     8
1070
   286
1070
     8
1002
}
  0
DIMENSION
  5
842
330
1E
100
AcDbEntity
  8
BEM
100
AcDbDimension
  2
*D6
 10
389.2232308934282
 20
465.0881759042702
 30
0.0
 11
382.7232308934281
 21
505.0881759042702
 31
0.0
 70
    32
 71
     5
 42
79.99999999999989
  3
Standard
100
AcDbAlignedDimension
 13
239.0561070295971
 23
545.0881759042702
 33
0.0
 14
374.4497538796604
 24
465.0881759042702
 34
0.0
 50
90.0
100
AcDbRotatedDimension
1001
ACAD
1000
DSTYLE
1002
{
1070
    40
1040
2.0
1070
    41
1040
3.5
1070
    42
1040
1.0
1070
    43
1040
7.0
1070
    44
1040
1.0
1070
    73
1070
     0
1070
    74
1070
     0
1070
    77
1070
     1
1070
    78
1070
     8
1070
    79
1070
     2
1070
   140
1040
3.5
1070
   141
1040
1.5
1070
   146
1040
0.5142857142857144
1070
   147
1040
1.5
1070
   172
1070
     1
1070
   178
1070
     1
1070
   179
1070
     2
1070
   271
1070
     2
1070
   272
1070
     2
1070
   284
1070
     8
1070
   285
1070
     8
1070
   286
1070
     8
1002
}
  0
ARC
  5
843
330
1E
100
AcDbEntity
  8
STEMPEL
100
AcDbCircle
 10
354.7778834875961
 20
457.0881759042702
 30
0.0
 40
6.0
100
AcDbArc
 50
90.0
 51
96.26057746711708
  0
ARC
  5
844
330
1E
100
AcDbEntity
  8
STEMPEL
100
AcDbCircle
 10
354.7778834875961
 20
457.0881759042702
 30
0.0
 40
8.0
100
AcDbArc
 50
90.0
 51
96.26057746711708
  0
LINE
  5
845
330
1E
100
AcDbEntity
  8
STEMPEL
100
AcDbLine
 10
374.4497538796604
 20
465.0881759042703
 30
0.0
 11
374.4497538796604
 21
463.0881759042702
 31
0.0
  0
LINE
  5
846
330
1E
100
AcDbEntity
  8
STEMPEL
100
AcDbLine
 10
354.7778834875961
 20
463.0881759042702
 30
0.0
 11
374.4497538796604
 21
463.0881759042702
 31
0.0
  0
LINE
  5
847
330
1E
100
AcDbEntity
  8
STEMPEL
100
AcDbLine
 10
354.1235811634698
 20
463.0523932434224
 30
0.0
 11
235.9497538796604
 21
450.0881759042703
 31
0.0
  0
LINE
  5
848
330
1E
100
AcDbEntity
  8
STEMPEL
100
AcDbLine
 10
353.9054803887609
 20
465.0404656898063
 30
0.0
 11
235.9497538796603
 21
452.100175017922
 31
0.0
  0
LINE
  5
849
330
1E
100
AcDbEntity
  8
STEMPEL
100
AcDbLine
 10
235.9497538796604
 20
465.0881759042702
 30
0.0
 11
374.4497538796604
 21
465.0881759042702
 31
0.0
  0
ARC
  5
84A
330
1E
100
AcDbEntity
  8
STEMPEL
100
AcDbCircle
 10
64.12162427172467
 20
457.0881759042703
 30
0.0
 40
8.0
100
AcDbArc
 50
83.73942253288291
 51
90.0
  0
ARC
  5
84B
330
1E
100
AcDbEntity
  8
STEMPEL
100
AcDbCircle
 10
64.12162427172461
 20
457.0881759042703
 30
0.0
 40
6.0
100
AcDbArc
 50
83.73942253288291
 51
90.0
  0
LINE
  5
84C
330
1E
100
AcDbEntity
  8
STEMPEL
100
AcDbLine
 10
64.99402737055987
 20
465.0404656898064
 30
0.0
 11
182.9497538796603
 21
452.100175017922
 31
0.0
  0
LINE
  5
84D
330
1E
100
AcDbEntity
  8
STEMPEL
100
AcDbLine
 10
64.77592659585105
 20
463.0523932434224
 30
0.0
 11
182.9497538796603
 21
450.0881759042703
 31
0.0
  0
LINE
  5
84E
330
1E
100
AcDbEntity
  8
STEMPEL
100
AcDbLine
 10
64.12162427172461
 20
463.0881759042702
 30
0.0
 11
44.44975387966036
 21
463.0881759042703
 31
0.0
  0
LINE
  5
84F
330
1E
100
AcDbEntity
  8
STEMPEL
100
AcDbLine
 10
374.4497538796604
 20
465.0881759042703
 30
0.0
 11
374.4497538796604
 21
463.0881759042703
 31
0.0
  0
LINE
  5
850
330
1E
100
AcDbEntity
  8
STEMPEL
100
AcDbLine
 10
44.44975387966036
 20
465.0881759042703
 30
0.0
 11
44.44975387966036
 21
463.0881759042703
 31
0.0
  0
LINE
  5
851
330
1E
100
AcDbEntity
  8
STEMPEL
100
AcDbLine
 10
182.9497538796603
 20
465.0881759042702
 30
0.0
 11
44.44975387966036
 21
465.0881759042703
 31
0.0
  0
LINE
  5
852
330
1E
100
AcDbEntity
  8
MITTEL
100
AcDbLine
 10
209.4497538796604
 20
550.0881759042702
 30
0.0
 11
209.4497538796604
 21
433.4565291202428
 31
0.0
  0
LINE
  5
853
330
1E
100
AcDbEntity
  8
STEMPEL
100
AcDbLine
 10
177.9497538796603
 20
536.7056745616094
 30
0.0
 11
177.9497538796603
 21
532.2101402022619
 31
0.0
  0
LINE
  5
854
330
1E
100
AcDbEntity
  8
STEMPEL
100
AcDbLine
 10
179.8427090304691
 20
545.0881759042702
 30
0.0
 11
179.7767520324457
 21
544.9467306655528
 31
0.0
  0
ARC
  5
855
330
1E
100
AcDbEntity
  8
STEMPEL
100
AcDbCircle
 10
197.4497538796603
 20
536.7056745616094
 30
0.0
 40
19.5
100
AcDbArc
 50
155.0000000000006
 51
180.0
  0
ARC
  5
856
330
1E
100
AcDbEntity
  8
STEMPEL
100
AcDbCircle
 10
202.9497538796604
 20
532.25017590427
 30
0.0
 40
25.00003205712822
100
AcDbArc
 50
179.9082450081906
 51
199.4630994446918
  0
LINE
  5
857
330
1E
100
AcDbEntity
  8
STEMPEL
100
AcDbLine
 10
179.9497538796603
 20
520.5881759042702
 30
0.0
 11
179.9497538796603
 21
512.4965028174661
 31
0.0
  0
ARC
  5
858
330
1E
100
AcDbEntity
  8
STEMPEL
100
AcDbCircle
 10
174.9497538796603
 20
501.9608490646136
 30
0.0
 40
8.0
100
AcDbArc
 50
0.0
 51
31.78833061704886
  0
ARC
  5
859
330
1E
100
AcDbEntity
  8
STEMPEL
100
AcDbCircle
 10
191.9497538796603
 20
512.4965028174661
 30
0.0
 40
12.0
100
AcDbArc
 50
180.0
 51
211.7883306170488
  0
ARC
  5
85A
330
1E
100
AcDbEntity
  8
STEMPEL
100
AcDbCircle
 10
169.9497538796603
 20
520.5881759042702
 30
0.0
 40
10.0
100
AcDbArc
 50
0.0
 51
19.46309944469181
  0
ARC
  5
85B
330
1E
100
AcDbEntity
  8
STEMPEL
100
AcDbCircle
 10
215.9497538796604
 20
532.25017590427
 30
0.0
 40
25.00003205712822
100
AcDbArc
 50
340.5369005553082
 51
0.0917549918093325
  0
LINE
  5
85C
330
1E
100
AcDbEntity
  8
STEMPEL
100
AcDbLine
 10
240.9497538796604
 20
536.7056745616094
 30
0.0
 11
240.9497538796604
 21
532.2101402022619
 31
0.0
  0
ARC
  5
85D
330
1E
100
AcDbEntity
  8
STEMPEL
100
AcDbCircle
 10
221.4497538796603
 20
536.7056745616094
 30
0.0
 40
19.5
100
AcDbArc
 50
0.0
 51
25.45942856882275
  0
LINE
  5
85E
330
1E
100
AcDbEntity
  8
STEMPEL
100
AcDbLine
 10
238.9497538796604
 20
520.5881759042702
 30
0.0
 11
238.9497538796604
 21
512.4965028174661
 31
0.0
  0
ARC
  5
85F
330
1E
100
AcDbEntity
  8
STEMPEL
100
AcDbCircle
 10
243.9497538796604
 20
501.9608490646136
 30
0.0
 40
8.0
100
AcDbArc
 50
148.2116693829511
 51
180.0
  0
ARC
  5
860
330
1E
100
AcDbEntity
  8
STEMPEL
100
AcDbCircle
 10
226.9497538796604
 20
512.4965028174661
 30
0.0
 40
12.0
100
AcDbArc
 50
328.2116693829511
 51
0.0
  0
ARC
  5
861
330
1E
100
AcDbEntity
  8
STEMPEL
100
AcDbCircle
 10
248.9497538796604
 20
520.5881759042702
 30
0.0
 40
10.0
100
AcDbArc
 50
160.5369005553082
 51
180.0
  0
LINE
  5
862
330
1E
100
AcDbEntity
  8
STEMPEL
100
AcDbLine
 10
239.0561070295971
 20
545.0881759042702
 30
0.0
 11
179.8427090304691
 21
545.0881759042702
 31
0.0
  0
LINE
  5
863
330
1E
100
AcDbEntity
  8
HILF
100
AcDbLine
 10
182.6975295695303
 20
523.1365508689803
 30
0.0
 11
236.2019781897904
 21
523.1365508689803
 31
0.0
  0
LINE
  5
864
330
1E
100
AcDbEntity
  8
HILF
100
AcDbLine
 10
182.9740335369669
 20
511.835863483366
 30
0.0
 11
235.9254742223538
 21
511.835863483366
 31
0.0
  0
LINE
  5
865
330
1E
100
AcDbEntity
  8
HILF
100
AcDbLine
 10
185.7748173003143
 20
503.9148198778092
 30
0.0
 11
233.1246904590064
 21
503.9148198778092
 31
0.0
  0
LINE
  5
866
330
1E
100
AcDbEntity
  8
STEMPEL
100
AcDbLine
 10
182.9497538796603
 20
153.0881759042703
 30
0.0
 11
183.6496631878677
 21
145.0881759042704
 31
0.0
  0
LINE
  5
867
330
1E
100
AcDbEntity
  8
STEMPEL
100
AcDbLine
 10
235.9497538796603
 20
153.0881759042701
 30
0.0
 11
235.2498445714531
 21
145.0881759042703
 31
0.0
  0
LINE
  5
868
330
1E
100
AcDbEntity
  8
STEMPEL
100
AcDbLine
 10
235.2498445714531
 20
145.0881759042703
 30
0.0
 11
183.6496631878677
 21
145.0881759042704
 31
0.0
  0
LINE
  5
869
330
1E
100
AcDbEntity
  8
HILF
100
AcDbLine
 10
232.9497538796604
 20
153.0881759042703
 30
0.0
 11
185.9497538796603
 21
153.0881759042704
 31
0.0
  0
LINE
  5
86A
330
1E
100
AcDbEntity
  8
STEMPEL
100
AcDbLine
 10
182.9497538796603
 20
501.9608490646136
 30
0.0
 11
182.9497538796603
 21
153.0881759042703
 31
0.0
  0
LINE
  5
86B
330
1E
100
AcDbEntity
  8
STEMPEL
100
AcDbLine
 10
235.9497538796603
 20
501.9608490646136
 30
0.0
 11
235.9497538796603
 21
153.0881759042701
 31
0.0
  0
TEXT
  5
96F
330
1E
100
AcDbEntity
  8
TEXT
 62
     1
100
AcDbText
 10
200.0860232734597
 20
352.9169482618017
 30
0.0
 40
7.0
  1
DN50
 50
90.0
 41
0.8
  7
GREEKS
100
AcDbText
  0
HATCH
  5
9A6
330
1E
100
AcDbEntity
  8
SCHRAFF
100
AcDbHatch
 10
0.0
 20
0.0
 30
0.0
210
0.0
220
0.0
230
1.0
  2
_USER
 70
     0
 71
     0
 91
        2
 92
        7
 72
     1
 73
     1
 93
       20
 10
235.9497538796603
 20
501.9608490646136
 42
-0.1395991324168488
 10
237.1497538796602
 20
506.1751105657544
 42
0.139599132416864
 10
238.9497538796604
 20
512.4965028174661
 42
0.0
 10
238.9497538796604
 20
520.5881759042702
 42
-0.0851285408962631
 10
239.521191086879
 20
523.9201728524348
 42
0.0847252966075785
 10
240.9497538796604
 20
532.210140202224
 42
0.0
 10
240.9497538796604
 20
536.7056745616094
 42
0.111546939082125
 10
239.0561070295972
 20
545.0881759042702
 42
0.0
 10
237.3787736624433
 20
545.0881759042702
 42
-0.1217003665640586
 10
239.4497538796604
 20
536.7056745616094
 42
0.0
 10
239.4497538796604
 20
532.2889919583306
 42
-0.0855444844067825
 10
238.1069066679612
 20
524.4199723946576
 42
0.0851285408962261
 10
237.4497538796604
 20
520.5881759042698
 42
0.0
 10
237.4497538796604
 20
512.4965028174661
 42
-0.1395991324168488
 10
235.8747538796606
 20
506.9652845972188
 42
0.139599132416874
 10
234.4497538796604
 20
501.9608490646134
 42
0.0
 10
234.4497538796604
 20
153.1536673186329
 42
0.0
 10
233.7441148151382
 20
145.0881759042703
 42
0.0
 10
235.2498445714531
 20
145.0881759042703
 42
0.0
 10
235.9497538796604
 20
153.0881759042702
 42
0.0
 97
        0
 92
        7
 72
     1
 73
     1
 93
       20
 10
184.4497538796603
 20
501.9608490646136
 42
0.1395991324168584
 10
183.0247538796603
 20
506.9652845972185
 42
-0.1395991324168575
 10
181.4497538796603
 20
512.4965028174661
 42
0.0
 10
181.4497538796603
 20
520.5881759042702
 42
0.0851285408962475
 10
180.7926010913591
 20
524.4199723946588
 42
-0.0855444844071303
 10
179.4497538796603
 20
532.2889919583643
 42
0.0
 10
179.4497538796603
 20
536.7056745616094
 42
-0.1217003665640584
 10
181.5207340968774
 20
545.0881759042702
 42
0.0
 10
179.8434007297235
 20
545.0881759042702
 42
0.1115469390821242
 10
177.9497538796603
 20
536.7056745616094
 42
0.0
 10
177.9497538796603
 20
532.2101402022208
 42
0.0847252966075523
 10
179.3783166724418
 20
523.9201728524343
 42
-0.0851285408962541
 10
179.9497538796603
 20
520.5881759042699
 42
0.0
 10
179.9497538796603
 20
512.4965028174661
 42
0.1395991324168576
 10
181.7497538796603
 20
506.1751105657545
 42
-0.1395991324168639
 10
182.9497538796603
 20
501.9608490646134
 42
0.0
 10
182.9497538796603
 20
153.0881759042703
 42
0.0
 10
183.6496631878677
 20
145.0881759042704
 42
0.0
 10
185.1553929441827
 20
145.0881759042704
 42
0.0
 10
184.4497538796603
 20
153.1536673186329
 42
0.0
 97
        0
 75
     0
 76
     0
 52
45.0
 41
2.0
 77
     0
 78
     1
 53
45.0
 43
0.0
 44
0.0
 45
-1.414213562373094
 46
1.414213562373095
 79
     0
 47
0.7054390269990911
 98
        2
 10
234.8799577418394
 20
461.5898896216704
 10
184.0578282550696
 20
459.4735716722221
  0
HATCH
  5
9BB
330
1E
100
AcDbEntity
  8
SCHRAFF
100
AcDbHatch
 10
0.0
 20
0.0
 30
0.0
210
0.0
220
0.0
230
1.0
  2
_USER
 70
     0
 71
     0
 91
        2
 92
        7
 72
     1
 73
     1
 93
        7
 10
374.4497538796604
 20
465.0881759042702
 42
0.0
 10
354.7778834875963
 20
465.0881759042702
 42
0.0273237192570615
 10
353.905480388761
 20
465.0404656898063
 42
0.0
 10
235.9497538796604
 20
452.100175017922
 42
0.0
 10
235.9497538796604
 20
450.0881759042703
 42
0.0
 10
354.44975387966
 20
463.0881759042702
 42
0.0
 10
374.4497538796604
 20
463.0881759042702
 42
0.0
 97
        0
 92
        7
 72
     1
 73
     1
 93
        7
 10
64.99402737055987
 20
465.0404656898064
 42
0.0273237192570623
 10
64.12162427172461
 20
465.0881759042703
 42
0.0
 10
44.44975387966036
 20
465.0881759042702
 42
0.0
 10
44.44975387966035
 20
463.0881759042703
 42
0.0
 10
64.44975387966052
 20
463.0881759042702
 42
0.0
 10
182.9497538796603
 20
450.0881759042703
 42
0.0
 10
182.9497538796603
 20
452.1001750179219
 42
0.0
 97
        0
 75
     0
 76
     0
 52
135.0
 41
2.0
 77
     0
 78
     1
 53
135.0
 43
0.0
 44
0.0
 45
-1.414213562373095
 46
-1.414213562373094
 79
     0
 47
0.7054390269990911
 98
        2
 10
364.0528710572989
 20
464.4116459562194
 10
52.76732534107395
 20
464.4116459562194
  0
HATCH
  5
9C3
330
1E
100
AcDbEntity
  8
SCHRAFF
100
AcDbHatch
 10
0.0
 20
0.0
 30
0.0
210
0.0
220
0.0
230
1.0
  2
_USER
 70
     0
 71
     0
 91
        2
 92
        7
 72
     1
 73
     1
 93
        3
 10
238.9318625492364
 20
450.4153270663335
 42
0.0
 10
235.9497538796603
 20
450.0881759042703
 42
0.0
 10
235.9497538796603
 20
447.0881759042703
 42
0.4465917422537098
 97
        0
 92
        7
 72
     1
 73
     1
 93
        3
 10
182.9497538796603
 20
447.0881759042703
 42
0.0
 10
182.9497538796603
 20
450.0881759042703
 42
0.0
 10
179.9676452100843
 20
450.4153270663334
 42
0.4465917422537033
 97
        0
 75
     0
 76
     0
 52
0.0
 41
0.1
 77
     0
 78
     1
 53
0.0
 43
0.0
 44
0.0
 45
0.0
 46
0.1
 79
     0
 47
0.1204377267966809
 98
        2
 10
237.7959492209147
 20
448.7181747823219
 10
180.5536512249869
 20
449.3203638340114
  0
TEXT
  5
9F1
330
1E
100
AcDbEntity
  8
TEXT
 62
     1
100
AcDbText
 10
119.1460004372457
 20
165.6481336872466
 30
0.0
 40
7.0
  1
Werkstoff: E195 EN10305 feuerverzinkt
 50
90.0
 41
0.8
  7
GREEKS
100
AcDbText
  0
TEXT
  5
9F2
330
1E
100
AcDbEntity
  8
TEXT
 62
     1
100
AcDbText
 10
129.8681122522491
 20
213.5978511246444
 30
0.0
 40
7.0
  1
außen und innen beschichtet
 50
90.0
 41
0.8
  7
GREEKS
100
AcDbText
  0
ENDSEC
  0
SECTION
  2
OBJECTS
  0
DICTIONARY
  5
C
330
0
100
AcDbDictionary
281
     1
  3
ACAD_COLOR
350
DF
  3
ACAD_GROUP
350
D
  3
ACAD_LAYOUT
350
19
  3
ACAD_MATERIAL
350
DE
  3
ACAD_MLINESTYLE
350
16
  3
ACAD_PLOTSETTINGS
350
18
  3
ACAD_PLOTSTYLENAME
350
E
  3
AcDbVariableDictionary
350
EA
  0
DICTIONARY
  5
A0
330
1E
100
AcDbDictionary
280
     1
281
     1
  3
ACAD_LAYOUTSELFREF
360
D4
  0
DICTIONARY
  5
A2
330
1A
100
AcDbDictionary
280
     1
281
     1
  3
ACAD_LAYOUTSELFREF
360
D3
  0
DICTIONARY
  5
DF
102
{ACAD_REACTORS
330
C
102
}
330
C
100
AcDbDictionary
281
     1
  0
DICTIONARY
  5
D
102
{ACAD_REACTORS
330
C
102
}
330
C
100
AcDbDictionary
281
     1
  0
DICTIONARY
  5
19
102
{ACAD_REACTORS
330
C
102
}
330
C
100
AcDbDictionary
281
     1
  3
Layout1
350
1D
  3
Model
350
21
  0
DICTIONARY
  5
DE
102
{ACAD_REACTORS
330
C
102
}
330
C
100
AcDbDictionary
281
     1
  0
DICTIONARY
  5
16
102
{ACAD_REACTORS
330
C
102
}
330
C
100
AcDbDictionary
281
     1
  3
Standard
350
17
  0
DICTIONARY
  5
18
102
{ACAD_REACTORS
330
C
102
}
330
C
100
AcDbDictionary
281
     1
  0
ACDBDICTIONARYWDFLT
  5
E
102
{ACAD_REACTORS
330
C
102
}
330
C
100
AcDbDictionary
281
     1
  3
Normal
350
F
100
AcDbDictionaryWithDefault
340
F
  0
DICTIONARY
  5
EA
102
{ACAD_REACTORS
330
C
102
}
330
C
100
AcDbDictionary
281
     1
  3
DIMASSOC
350
EB
  3
PROJECTNAME
350
EC
  0
XRECORD
  5
D4
102
{ACAD_REACTORS
330
A0
102
}
330
A0
100
AcDbXrecord
280
     1
340
1E
  0
XRECORD
  5
D3
102
{ACAD_REACTORS
330
A2
102
}
330
A2
100
AcDbXrecord
280
     1
340
1A
  0
LAYOUT
  5
1D
102
{ACAD_REACTORS
330
19
102
}
330
19
100
AcDbPlotSettings
  1

  2
\\NT_WORK01\HP LaserJet 5000 PCL 6
  4

  6

 40
0.0
 41
0.0
 42
0.0
 43
0.0
 44
0.0
 45
0.0
 46
0.0
 47
0.0
 48
0.0
 49
0.0
140
0.0
141
0.0
142
1.0
143
1.0
 70
   688
 72
     0
 73
     0
 74
     5
  7

 75
    16
147
1.0
 76
     0
 77
     2
 78
   300
148
0.0
149
0.0
100
AcDbLayout
  1
Layout1
 70
     0
 71
     1
 10
0.0
 20
0.0
 11
12.0
 21
9.0
 12
0.0
 22
0.0
 32
0.0
 14
1.000000000000000E+20
 24
1.000000000000000E+20
 34
1.000000000000000E+20
 15
-1.000000000000000E+20
 25
-1.000000000000000E+20
 35
-1.000000000000000E+20
146
0.0
 13
0.0
 23
0.0
 33
0.0
 16
1.0
 26
0.0
 36
0.0
 17
0.0
 27
1.0
 37
0.0
 76
     0
330
1A
  0
LAYOUT
  5
21
102
{ACAD_REACTORS
330
19
102
}
330
19
100
AcDbPlotSettings
  1

  2
none_device
  4
Letter_(8.50_x_11.00_Inches)
  6

 40
6.349999904632568
 41
6.349999904632568
 42
6.350006103515625
 43
6.350006103515625
 44
215.8999938964844
 45
279.3999938964844
 46
0.0
 47
0.0
 48
0.0
 49
0.0
140
0.0
141
0.0
142
1.0
143
1.0
 70
 11952
 72
     0
 73
     1
 74
     0
  7

 75
     0
147
1.0
 76
     0
 77
     2
 78
   300
148
-120.7163762029402
149
80.8517610804872
100
AcDbLayout
  1
Model
 70
     1
 71
     0
 10
0.0
 20
0.0
 11
12.0
 21
9.0
 12
0.0
 22
0.0
 32
0.0
 14
0.0
 24
0.0
 34
0.0
 15
0.0
 25
0.0
 35
0.0
146
0.0
 13
0.0
 23
0.0
 33
0.0
 16
1.0
 26
0.0
 36
0.0
 17
0.0
 27
1.0
 37
0.0
 76
     0
330
1E
  0
MLINESTYLE
  5
17
102
{ACAD_REACTORS
330
16
102
}
330
16
100
AcDbMlineStyle
  2
STANDARD
 70
     0
  3

 62
   256
 51
90.0
 52
90.0
 71
     2
 49
0.5
 62
   256
  6
BYLAYER
 49
-0.5
 62
   256
  6
BYLAYER
  0
ACDBPLACEHOLDER
  5
F
102
{ACAD_REACTORS
330
E
102
}
330
E
  0
DICTIONARYVAR
  5
EB
102
{ACAD_REACTORS
330
EA
102
}
330
EA
100
DictionaryVariables
280
     0
  1
1
  0
DICTIONARYVAR
  5
EC
102
{ACAD_REACTORS
330
EA
102
}
330
EA
100
DictionaryVariables
280
     0
  1

  0
ENDSEC
  0
EOF
