  0
SECTION
  2
HEADER
  9
$ACADVER
  1
AC1018
  9
$ACADMAINTVER
 70
   104
  9
$DWGCODEPAGE
  3
ANSI_1252
  9
$LASTSAVEDBY
  1
w.koehlhoff
  9
$INSBASE
 10
0.0
 20
0.0
 30
0.0
  9
$EXTMIN
 10
-0.0128083857498496
 20
-0.0090573584946014
 30
-0.0000000000112498
  9
$EXTMAX
 10
840.0128201211309
 20
594.0090656570857
 30
0.0000000000002956
  9
$LIMMIN
 10
0.0
 20
0.0
  9
$LIMMAX
 10
839.9999999999998
 20
594.0
  9
$ORTHOMODE
 70
     1
  9
$REGENMODE
 70
     1
  9
$FILLMODE
 70
     1
  9
$QTEXTMODE
 70
     0
  9
$MIRRTEXT
 70
     1
  9
$LTSCALE
 40
20.0
  9
$ATTMODE
 70
     1
  9
$TEXTSIZE
 40
3.5
  9
$TRACEWID
 40
0.5
  9
$TEXTSTYLE
  7
STANDARD
  9
$CLAYER
  8
VOLL
  9
$CELTYPE
  6
BYLAYER
  9
$CECOLOR
 62
   256
  9
$CELTSCALE
 40
1.0
  9
$DISPSILH
 70
     0
  9
$DIMSCALE
 40
2.0
  9
$DIMASZ
 40
3.5
  9
$DIMEXO
 40
1.0
  9
$DIMDLI
 40
7.0
  9
$DIMRND
 40
0.0
  9
$DIMDLE
 40
0.0
  9
$DIMEXE
 40
1.0
  9
$DIMTP
 40
3.0
  9
$DIMTM
 40
3.0
  9
$DIMTXT
 40
3.5
  9
$DIMCEN
 40
1.5
  9
$DIMTSZ
 40
0.0
  9
$DIMTOL
 70
     0
  9
$DIMLIM
 70
     0
  9
$DIMTIH
 70
     0
  9
$DIMTOH
 70
     0
  9
$DIMSE1
 70
     0
  9
$DIMSE2
 70
     0
  9
$DIMTAD
 70
     1
  9
$DIMZIN
 70
     8
  9
$DIMBLK
  1

  9
$DIMASO
 70
     1
  9
$DIMSHO
 70
     0
  9
$DIMPOST
  1

  9
$DIMAPOST
  1

  9
$DIMALT
 70
     0
  9
$DIMALTD
 70
     2
  9
$DIMALTF
 40
25.4
  9
$DIMLFAC
 40
1.0
  9
$DIMTOFL
 70
     1
  9
$DIMTVP
 40
0.0
  9
$DIMTIX
 70
     0
  9
$DIMSOXD
 70
     0
  9
$DIMSAH
 70
     0
  9
$DIMBLK1
  1

  9
$DIMBLK2
  1

  9
$DIMSTYLE
  2
STANDARD
  9
$DIMCLRD
 70
     0
  9
$DIMCLRE
 70
     0
  9
$DIMCLRT
 70
     1
  9
$DIMTFAC
 40
0.5
  9
$DIMGAP
 40
1.5
  9
$DIMJUST
 70
     0
  9
$DIMSD1
 70
     0
  9
$DIMSD2
 70
     0
  9
$DIMTOLJ
 70
     1
  9
$DIMTZIN
 70
     8
  9
$DIMALTZ
 70
     8
  9
$DIMALTTZ
 70
     8
  9
$DIMUPT
 70
     0
  9
$DIMDEC
 70
     2
  9
$DIMTDEC
 70
     2
  9
$DIMALTU
 70
     2
  9
$DIMALTTD
 70
     2
  9
$DIMTXSTY
  7
STANDARD
  9
$DIMAUNIT
 70
     0
  9
$DIMADEC
 70
     2
  9
$DIMALTRND
 40
0.0
  9
$DIMAZIN
 70
     2
  9
$DIMDSEP
 70
    46
  9
$DIMATFIT
 70
     3
  9
$DIMFRAC
 70
     0
  9
$DIMLDRBLK
  1

  9
$DIMLUNIT
 70
     2
  9
$DIMLWD
 70
    -2
  9
$DIMLWE
 70
    -2
  9
$DIMTMOVE
 70
     0
  9
$LUNITS
 70
     2
  9
$LUPREC
 70
     2
  9
$SKETCHINC
 40
1.0
  9
$FILLETRAD
 40
0.0
  9
$AUNITS
 70
     0
  9
$AUPREC
 70
     1
  9
$MENU
  1
ACAD
  9
$ELEVATION
 40
0.0
  9
$PELEVATION
 40
0.0
  9
$THICKNESS
 40
0.0
  9
$LIMCHECK
 70
     0
  9
$CHAMFERA
 40
0.0
  9
$CHAMFERB
 40
0.0
  9
$CHAMFERC
 40
0.0
  9
$CHAMFERD
 40
0.0
  9
$SKPOLY
 70
     0
  9
$TDCREATE
 40
2451449.622447570
  9
$TDUCREATE
 40
2451449.580780903
  9
$TDUPDATE
 40
2456594.592797558
  9
$TDUUPDATE
 40
2456594.551130891
  9
$TDINDWG
 40
0.1229701273
  9
$TDUSRTIMER
 40
0.1229701273
  9
$USRTIMER
 70
     1
  9
$ANGBASE
 50
0.0
  9
$ANGDIR
 70
     0
  9
$PDMODE
 70
     0
  9
$PDSIZE
 40
0.0
  9
$PLINEWID
 40
0.0
  9
$SPLFRAME
 70
     0
  9
$SPLINETYPE
 70
     6
  9
$SPLINESEGS
 70
     8
  9
$HANDSEED
  5
1752
  9
$SURFTAB1
 70
     6
  9
$SURFTAB2
 70
     6
  9
$SURFTYPE
 70
     6
  9
$SURFU
 70
     6
  9
$SURFV
 70
     6
  9
$UCSBASE
  2

  9
$UCSNAME
  2

  9
$UCSORG
 10
0.0
 20
0.0
 30
0.0
  9
$UCSXDIR
 10
1.0
 20
0.0
 30
0.0
  9
$UCSYDIR
 10
0.0
 20
1.0
 30
0.0
  9
$UCSORTHOREF
  2

  9
$UCSORTHOVIEW
 70
     0
  9
$UCSORGTOP
 10
0.0
 20
0.0
 30
0.0
  9
$UCSORGBOTTOM
 10
0.0
 20
0.0
 30
0.0
  9
$UCSORGLEFT
 10
0.0
 20
0.0
 30
0.0
  9
$UCSORGRIGHT
 10
0.0
 20
0.0
 30
0.0
  9
$UCSORGFRONT
 10
0.0
 20
0.0
 30
0.0
  9
$UCSORGBACK
 10
0.0
 20
0.0
 30
0.0
  9
$PUCSBASE
  2

  9
$PUCSNAME
  2

  9
$PUCSORG
 10
0.0
 20
0.0
 30
0.0
  9
$PUCSXDIR
 10
1.0
 20
0.0
 30
0.0
  9
$PUCSYDIR
 10
0.0
 20
1.0
 30
0.0
  9
$PUCSORTHOREF
  2

  9
$PUCSORTHOVIEW
 70
     0
  9
$PUCSORGTOP
 10
0.0
 20
0.0
 30
0.0
  9
$PUCSORGBOTTOM
 10
0.0
 20
0.0
 30
0.0
  9
$PUCSORGLEFT
 10
0.0
 20
0.0
 30
0.0
  9
$PUCSORGRIGHT
 10
0.0
 20
0.0
 30
0.0
  9
$PUCSORGFRONT
 10
0.0
 20
0.0
 30
0.0
  9
$PUCSORGBACK
 10
0.0
 20
0.0
 30
0.0
  9
$USERI1
 70
     0
  9
$USERI2
 70
     0
  9
$USERI3
 70
     0
  9
$USERI4
 70
     0
  9
$USERI5
 70
     0
  9
$USERR1
 40
0.0
  9
$USERR2
 40
0.0
  9
$USERR3
 40
0.0
  9
$USERR4
 40
0.0
  9
$USERR5
 40
0.0
  9
$WORLDVIEW
 70
     1
  9
$SHADEDGE
 70
     3
  9
$SHADEDIF
 70
    70
  9
$TILEMODE
 70
     1
  9
$MAXACTVP
 70
    16
  9
$PINSBASE
 10
-64.62384697381565
 20
50.00000000000001
 30
-67.27695346289357
  9
$PLIMCHECK
 70
     0
  9
$PEXTMIN
 10
1.000000000000000E+20
 20
1.000000000000000E+20
 30
1.000000000000000E+20
  9
$PEXTMAX
 10
-1.000000000000000E+20
 20
-1.000000000000000E+20
 30
-1.000000000000000E+20
  9
$PLIMMIN
 10
0.0
 20
0.0
  9
$PLIMMAX
 10
12.0
 20
9.0
  9
$UNITMODE
 70
     0
  9
$VISRETAIN
 70
     0
  9
$PLINEGEN
 70
     0
  9
$PSLTSCALE
 70
     0
  9
$TREEDEPTH
 70
  3020
  9
$CMLSTYLE
  2
STANDARD
  9
$CMLJUST
 70
     0
  9
$CMLSCALE
 40
1.0
  9
$PROXYGRAPHICS
 70
     1
  9
$MEASUREMENT
 70
     0
  9
$CELWEIGHT
370
    -1
  9
$ENDCAPS
280
     0
  9
$JOINSTYLE
280
     0
  9
$LWDISPLAY
290
     0
  9
$INSUNITS
 70
     0
  9
$HYPERLINKBASE
  1

  9
$STYLESHEET
  1
monochrome1.ctb
  9
$XEDIT
290
     1
  9
$CEPSNTYPE
380
     0
  9
$PSTYLEMODE
290
     1
  9
$FINGERPRINTGUID
  2
{289D2341-2CFC-4370-8FA0-5B261E53FF4A}
  9
$VERSIONGUID
  2
{04A3DAC9-EF47-47F4-AF0D-901FCCA9E56E}
  9
$EXTNAMES
290
     1
  9
$PSVPSCALE
 40
0.0
  9
$OLESTARTUP
290
     0
  9
$SORTENTS
280
    96
  9
$INDEXCTL
280
     0
  9
$HIDETEXT
280
     0
  9
$XCLIPFRAME
290
     0
  9
$HALOGAP
280
     0
  9
$OBSCOLOR
 70
   257
  9
$OBSLTYPE
280
     0
  9
$INTERSECTIONDISPLAY
280
     0
  9
$INTERSECTIONCOLOR
 70
   257
  9
$DIMASSOC
280
     1
  9
$PROJECTNAME
  1

  0
ENDSEC
  0
SECTION
  2
CLASSES
  0
CLASS
  1
DICTIONARYVAR
  2
AcDbDictionaryVar
  3
ObjectDBX Classes
 90
        0
 91
        9
280
     0
281
     0
  0
CLASS
  1
ACDBDICTIONARYWDFLT
  2
AcDbDictionaryWithDefault
  3
ObjectDBX Classes
 90
        0
 91
        1
280
     0
281
     0
  0
CLASS
  1
MATERIAL
  2
AcDbMaterial
  3
ObjectDBX Classes
 90
     1153
 91
        3
280
     0
281
     0
  0
CLASS
  1
VISUALSTYLE
  2
AcDbVisualStyle
  3
ObjectDBX Classes
 90
     4095
 91
       24
280
     0
281
     0
  0
CLASS
  1
TABLESTYLE
  2
AcDbTableStyle
  3
ObjectDBX Classes
 90
     4095
 91
        1
280
     0
281
     0
  0
CLASS
  1
SCALE
  2
AcDbScale
  3
ObjectDBX Classes
 90
     1153
 91
       17
280
     0
281
     0
  0
CLASS
  1
MLEADERSTYLE
  2
AcDbMLeaderStyle
  3
ACDB_MLEADERSTYLE_CLASS
 90
     4095
 91
        1
280
     0
281
     0
  0
CLASS
  1
ACDBSECTIONVIEWSTYLE
  2
AcDbSectionViewStyle
  3
ObjectDBX Classes
 90
     1025
 91
        1
280
     0
281
     0
  0
CLASS
  1
ACDBDETAILVIEWSTYLE
  2
AcDbDetailViewStyle
  3
ObjectDBX Classes
 90
     1025
 91
        1
280
     0
281
     0
  0
CLASS
  1
SORTENTSTABLE
  2
AcDbSortentsTable
  3
ObjectDBX Classes
 90
        0
 91
        0
280
     0
281
     0
  0
CLASS
  1
CELLSTYLEMAP
  2
AcDbCellStyleMap
  3
ObjectDBX Classes
 90
     1152
 91
        3
280
     0
281
     0
  0
ENDSEC
  0
SECTION
  2
TABLES
  0
TABLE
  2
VPORT
  5
8
102
{ACAD_XDICTIONARY
360
14ED
102
}
330
0
100
AcDbSymbolTable
 70
     1
  0
VPORT
  5
11E8
330
8
100
AcDbSymbolTableRecord
100
AcDbViewportTableRecord
  2
*Active
 70
     0
 10
0.0
 20
0.0
 11
1.0
 21
1.0
 12
420.0000058676905
 22
297.0000041492955
 13
0.0
 23
0.0
 14
1.0
 24
1.0
 15
20.0
 25
20.0
 16
0.0
 26
0.0
 36
1.0
 17
0.0
 27
0.0
 37
0.0
 40
598.0272442057867
 41
1.70045045045045
 42
50.0
 43
0.0
 44
0.0
 50
0.0
 51
0.0
 71
     0
 72
  1500
 73
     1
 74
     0
 75
     0
 76
     0
 77
     0
 78
     0
281
     0
 65
     1
110
0.0
120
0.0
130
0.0
111
1.0
121
0.0
131
0.0
112
0.0
122
1.0
132
0.0
 79
     0
146
0.0
1001
ACAD_NAV_VCDISPLAY
1070
     3
  0
ENDTAB
  0
TABLE
  2
LTYPE
  5
5
330
0
100
AcDbSymbolTable
 70
     6
  0
LTYPE
  5
11
330
5
100
AcDbSymbolTableRecord
100
AcDbLinetypeTableRecord
  2
BYBLOCK
 70
     0
  3

 72
    65
 73
     0
 40
0.0
  0
LTYPE
  5
12
330
5
100
AcDbSymbolTableRecord
100
AcDbLinetypeTableRecord
  2
BYLAYER
 70
     0
  3

 72
    65
 73
     0
 40
0.0
  0
LTYPE
  5
13
330
5
100
AcDbSymbolTableRecord
100
AcDbLinetypeTableRecord
  2
AUSGEZOGEN
 70
     0
  3
Ausgezogene Linie
 72
    65
 73
     0
 40
0.0
  0
LTYPE
  5
33
330
5
100
AcDbSymbolTableRecord
100
AcDbLinetypeTableRecord
  2
STRICHPUNKT
 70
     0
  3
__ . __ . __ . __ . __ . __ . __ . __ . __ . __
 72
    65
 73
     4
 40
1.0
 49
0.5
 74
     0
 49
-0.25
 74
     0
 49
0.0
 74
     0
 49
-0.25
 74
     0
  0
LTYPE
  5
3E
330
5
100
AcDbSymbolTableRecord
100
AcDbLinetypeTableRecord
  2
CONTINUOUS
 70
     0
  3
Solid line
 72
    65
 73
     0
 40
0.0
  0
LTYPE
  5
1232
330
5
100
AcDbSymbolTableRecord
100
AcDbLinetypeTableRecord
  2
PHANTOM2
 70
     0
  3
Phantom (.5x) ___ _ _ ___ _ _ ___ _ _ ___ _ _
 72
    65
 73
     6
 40
1.25
 49
0.625
 74
     0
 49
-0.125
 74
     0
 49
0.125
 74
     0
 49
-0.125
 74
     0
 49
0.125
 74
     0
 49
-0.125
 74
     0
  0
LTYPE
  5
1292
330
5
100
AcDbSymbolTableRecord
100
AcDbLinetypeTableRecord
  2
VERDECKT2
 70
     0
  3
Verdeckt (.5x) _ _ _ _ _ _ _ _ _ _ _ _ _ _ _ _ 
 72
    65
 73
     2
 40
0.1875
 49
0.125
 74
     0
 49
-0.0625
 74
     0
  0
ENDTAB
  0
TABLE
  2
LAYER
  5
2
102
{ACAD_XDICTIONARY
360
129A
102
}
330
0
100
AcDbSymbolTable
 70
    10
  0
LAYER
  5
E
102
{ACAD_XDICTIONARY
360
14D8
102
}
330
2
100
AcDbSymbolTableRecord
100
AcDbLayerTableRecord
  2
0
 70
     0
 62
     7
  6
AUSGEZOGEN
370
    -3
390
104A
  0
LAYER
  5
36
102
{ACAD_XDICTIONARY
360
14DA
102
}
330
2
100
AcDbSymbolTableRecord
100
AcDbLayerTableRecord
  2
VOLL
 70
     0
 62
     1
  6
AUSGEZOGEN
370
    -3
390
104A
  0
LAYER
  5
37
102
{ACAD_XDICTIONARY
360
14DC
102
}
330
2
100
AcDbSymbolTableRecord
100
AcDbLayerTableRecord
  2
HILF
 70
     0
 62
     2
  6
AUSGEZOGEN
370
    -3
390
104A
  0
LAYER
  5
38
102
{ACAD_XDICTIONARY
360
14DE
102
}
330
2
100
AcDbSymbolTableRecord
100
AcDbLayerTableRecord
  2
MITTEL
 70
     0
 62
     2
  6
STRICHPUNKT
370
    -3
390
104A
  0
LAYER
  5
39
102
{ACAD_XDICTIONARY
360
14E0
102
}
330
2
100
AcDbSymbolTableRecord
100
AcDbLayerTableRecord
  2
BEM
 70
     0
 62
     7
  6
AUSGEZOGEN
370
    -3
390
104A
  0
LAYER
  5
3A
102
{ACAD_XDICTIONARY
360
14E2
102
}
330
2
100
AcDbSymbolTableRecord
100
AcDbLayerTableRecord
  2
STEMPEL
 70
     0
 62
     3
  6
AUSGEZOGEN
370
    -3
390
104A
  0
LAYER
  5
3B
102
{ACAD_XDICTIONARY
360
14E4
102
}
330
2
100
AcDbSymbolTableRecord
100
AcDbLayerTableRecord
  2
TEXT
 70
     0
 62
     7
  6
AUSGEZOGEN
370
    -3
390
104A
  0
LAYER
  5
3C
330
2
100
AcDbSymbolTableRecord
100
AcDbLayerTableRecord
  2
DEFPOINTS
 70
     0
 62
     7
  6
AUSGEZOGEN
290
     0
370
    -3
390
104A
  0
LAYER
  5
3D
102
{ACAD_XDICTIONARY
360
14E6
102
}
330
2
100
AcDbSymbolTableRecord
100
AcDbLayerTableRecord
  2
SCHRAFF
 70
     0
 62
     7
  6
AUSGEZOGEN
370
    -3
390
104A
  0
LAYER
  5
1293
102
{ACAD_XDICTIONARY
360
14E8
102
}
330
2
100
AcDbSymbolTableRecord
100
AcDbLayerTableRecord
  2
VERDECKT
 70
     0
 62
     6
  6
VERDECKT2
370
    -3
390
104A
1001
AcAecLayerStandard
1000

1000

1001
AcCmTransparency
1071
        0
  0
ENDTAB
  0
TABLE
  2
STYLE
  5
3
330
0
100
AcDbSymbolTable
 70
     3
  0
STYLE
  5
F
330
3
100
AcDbSymbolTableRecord
100
AcDbTextStyleTableRecord
  2
STANDARD
 70
     0
 40
0.0
 41
0.8
 50
0.0
 71
     0
 42
3.5
  3
simplex.shx
  4

  0
STYLE
  5
32
330
3
100
AcDbSymbolTableRecord
100
AcDbTextStyleTableRecord
  2
GREEKS
 70
     0
 40
0.0
 41
0.8
 50
0.0
 71
     0
 42
2.5
  3
SIMPLEX.shx
  4

  0
ENDTAB
  0
TABLE
  2
VIEW
  5
6
330
0
100
AcDbSymbolTable
 70
     0
  0
ENDTAB
  0
TABLE
  2
UCS
  5
7
330
0
100
AcDbSymbolTable
 70
     0
  0
ENDTAB
  0
TABLE
  2
APPID
  5
9
330
0
100
AcDbSymbolTable
 70
     9
  0
APPID
  5
10
330
9
100
AcDbSymbolTableRecord
100
AcDbRegAppTableRecord
  2
ACAD
 70
     0
  0
APPID
  5
1294
330
9
100
AcDbSymbolTableRecord
100
AcDbRegAppTableRecord
  2
ACAD_NAV_VCDISPLAY
 70
     0
  0
APPID
  5
1295
330
9
100
AcDbSymbolTableRecord
100
AcDbRegAppTableRecord
  2
GradientColor1ACI
 70
     0
  0
APPID
  5
1296
330
9
100
AcDbSymbolTableRecord
100
AcDbRegAppTableRecord
  2
GradientColor2ACI
 70
     0
  0
APPID
  5
1297
330
9
100
AcDbSymbolTableRecord
100
AcDbRegAppTableRecord
  2
AcAecLayerStandard
 70
     0
  0
APPID
  5
1298
330
9
100
AcDbSymbolTableRecord
100
AcDbRegAppTableRecord
  2
AcCmTransparency
 70
     0
  0
APPID
  5
1299
330
9
100
AcDbSymbolTableRecord
100
AcDbRegAppTableRecord
  2
ACAD_PSEXT
 70
     0
  0
APPID
  5
14D2
330
9
100
AcDbSymbolTableRecord
100
AcDbRegAppTableRecord
  2
ACAD_EXEMPT_FROM_CAD_STANDARDS
 70
     0
  0
APPID
  5
1524
330
9
100
AcDbSymbolTableRecord
100
AcDbRegAppTableRecord
  2
ACAD_MLEADERVER
 70
     0
  0
ENDTAB
  0
TABLE
  2
DIMSTYLE
  5
A
330
0
100
AcDbSymbolTable
 70
     2
100
AcDbDimStyleTable
 71
     1
340
89D
  0
DIMSTYLE
105
89D
102
{ACAD_REACTORS
330
FA2
330
651
330
1393
330
1394
330
1395
330
136B
330
136C
330
136E
330
136F
330
14A0
102
}
330
A
100
AcDbSymbolTableRecord
100
AcDbDimStyleTableRecord
  2
STANDARD
 70
     0
 40
2.0
 41
3.5
 42
1.0
 43
7.0
 44
1.0
 47
3.0
 48
3.0
 73
     0
 74
     0
 77
     1
 78
     8
 79
     2
140
3.5
141
1.5
146
0.5
147
1.5
172
     1
178
     1
179
     2
271
     2
272
     2
284
     8
285
     8
286
     8
340
F
  0
ENDTAB
  0
TABLE
  2
BLOCK_RECORD
  5
1
330
0
100
AcDbSymbolTable
 70
    12
  0
BLOCK_RECORD
  5
17
330
1
100
AcDbSymbolTableRecord
100
AcDbBlockTableRecord
  2
*MODEL_SPACE
340
104F
  0
BLOCK_RECORD
  5
14
330
1
100
AcDbSymbolTableRecord
100
AcDbBlockTableRecord
  2
*PAPER_SPACE
340
1050
  0
BLOCK_RECORD
  5
1C
330
1
100
AcDbSymbolTableRecord
100
AcDbBlockTableRecord
  2
LOGO
340
0
102
{BLKREFS
331
775
102
}
  0
BLOCK_RECORD
  5
E72
330
1
100
AcDbSymbolTableRecord
100
AcDbBlockTableRecord
  2
*D1
340
0
  0
BLOCK_RECORD
  5
F96
330
1
100
AcDbSymbolTableRecord
100
AcDbBlockTableRecord
  2
*D2
340
0
  0
BLOCK_RECORD
  5
13E8
330
1
100
AcDbSymbolTableRecord
100
AcDbBlockTableRecord
  2
*D3
340
0
  0
BLOCK_RECORD
  5
13F4
330
1
100
AcDbSymbolTableRecord
100
AcDbBlockTableRecord
  2
*D4
340
0
  0
BLOCK_RECORD
  5
1400
330
1
100
AcDbSymbolTableRecord
100
AcDbBlockTableRecord
  2
*D5
340
0
  0
BLOCK_RECORD
  5
140C
330
1
100
AcDbSymbolTableRecord
100
AcDbBlockTableRecord
  2
*D6
340
0
  0
BLOCK_RECORD
  5
1418
330
1
100
AcDbSymbolTableRecord
100
AcDbBlockTableRecord
  2
*D7
340
0
  0
BLOCK_RECORD
  5
1429
330
1
100
AcDbSymbolTableRecord
100
AcDbBlockTableRecord
  2
*D8
340
0
  0
BLOCK_RECORD
  5
1435
330
1
100
AcDbSymbolTableRecord
100
AcDbBlockTableRecord
  2
*D9
340
0
  0
BLOCK_RECORD
  5
14A1
330
1
100
AcDbSymbolTableRecord
100
AcDbBlockTableRecord
  2
*D10
340
0
  0
ENDTAB
  0
ENDSEC
  0
SECTION
  2
BLOCKS
  0
BLOCK
  5
41
330
17
100
AcDbEntity
  8
0
100
AcDbBlockBegin
  2
*MODEL_SPACE
 70
     0
 10
0.0
 20
0.0
 30
0.0
  3
*MODEL_SPACE
  1

  0
ENDBLK
  5
42
330
17
100
AcDbEntity
  8
0
100
AcDbBlockEnd
  0
BLOCK
  5
3F
330
14
100
AcDbEntity
 67
     1
  8
0
100
AcDbBlockBegin
  2
*PAPER_SPACE
 70
     0
 10
0.0
 20
0.0
 30
0.0
  3
*PAPER_SPACE
  1

  0
ENDBLK
  5
40
330
14
100
AcDbEntity
 67
     1
  8
0
100
AcDbBlockEnd
  0
BLOCK
  5
45
330
1C
100
AcDbEntity
  8
0
100
AcDbBlockBegin
  2
LOGO
 70
     0
 10
0.0
 20
0.0
 30
0.0
  3
LOGO
  1

  0
ARC
  5
46
330
1C
100
AcDbEntity
  8
0
100
AcDbCircle
 10
11.59973089678112
 20
-9.271599258481501
 30
0.0
 40
4.5
100
AcDbArc
 50
270.0
 51
231.0575587310159
  0
LINE
  5
47
330
1C
100
AcDbEntity
  8
0
100
AcDbLine
 10
3.599730896781125
 20
-4.771599258481529
 30
0.0
 11
3.599730896781153
 21
-11.77159925848133
 31
0.0
  0
LINE
  5
48
330
1C
100
AcDbEntity
  8
0
100
AcDbLine
 10
2.599730896781125
 20
-4.771599258481529
 30
0.0
 11
2.599730896781153
 21
-11.77159925848133
 31
0.0
  0
CIRCLE
  5
49
330
1C
100
AcDbEntity
  8
0
100
AcDbCircle
 10
11.59973089678112
 20
-9.271599258481501
 30
0.0
 40
3.5
  0
ARC
  5
4A
330
1C
100
AcDbEntity
  8
0
100
AcDbCircle
 10
31.59973089678115
 20
-9.271599258481472
 30
0.0
 40
4.5
100
AcDbArc
 50
270.0
 51
231.0575587310182
  0
LINE
  5
4B
330
1C
100
AcDbEntity
  8
0
100
AcDbLine
 10
17.59973089678112
 20
-4.771599258481472
 30
0.0
 11
17.59973089678115
 21
-13.77159925848147
 31
0.0
  0
ARC
  5
4C
330
1C
100
AcDbEntity
  8
0
100
AcDbCircle
 10
22.59973089678116
 20
-7.271599258481472
 30
0.0
 40
2.5
100
AcDbArc
 50
293.1161887722295
 51
90.0
  0
CIRCLE
  5
4D
330
1C
100
AcDbEntity
  8
0
100
AcDbCircle
 10
31.59973089678115
 20
-9.271599258481472
 30
0.0
 40
3.5
  0
ARC
  5
4E
330
1C
100
AcDbEntity
  8
0
100
AcDbCircle
 10
4.599730896781153
 20
-11.77159925848133
 30
0.0
 40
1.0
100
AcDbArc
 50
180.0
 51
270.0
  0
ARC
  5
4F
330
1C
100
AcDbEntity
  8
0
100
AcDbCircle
 10
4.599730896781153
 20
-11.77159925848133
 30
0.0
 40
2.0
100
AcDbArc
 50
179.9999999999992
 51
270.0
  0
LINE
  5
50
330
1C
100
AcDbEntity
  8
0
100
AcDbLine
 10
11.59973089678115
 20
-13.77159925848144
 30
0.0
 11
4.599730896781153
 21
-13.77159925848147
 31
0.0
  0
LINE
  5
51
330
1C
100
AcDbEntity
  8
0
100
AcDbLine
 10
8.771303772034769
 20
-12.77159925848136
 30
0.0
 11
4.599730896781153
 21
-12.77159925848133
 31
0.0
  0
LINE
  5
52
330
1C
100
AcDbEntity
  8
0
100
AcDbLine
 10
31.59973089678115
 20
-13.77159925848147
 30
0.0
 11
23.6715276665056
 21
-13.77159925848144
 31
0.0
  0
LINE
  5
53
330
1C
100
AcDbEntity
  8
0
100
AcDbLine
 10
23.56565672307022
 20
-9.51278021337896
 30
0.0
 11
24.4388546544846
 21
-12.77159925848144
 31
0.0
  0
LINE
  5
54
330
1C
100
AcDbEntity
  8
0
100
AcDbLine
 10
22.59973089678116
 20
-9.771599258481472
 30
0.0
 11
18.59973089678112
 21
-9.771599258481472
 31
0.0
  0
LINE
  5
55
330
1C
100
AcDbEntity
  8
0
100
AcDbLine
 10
18.59973089678115
 20
-13.77159925848144
 30
0.0
 11
17.59973089678115
 21
-13.77159925848144
 31
0.0
  0
LINE
  5
56
330
1C
100
AcDbEntity
  8
0
100
AcDbLine
 10
18.59973089678115
 20
-9.771599258481472
 30
0.0
 11
18.59973089678115
 21
-13.77159925848144
 31
0.0
  0
LINE
  5
57
330
1C
100
AcDbEntity
  8
0
100
AcDbLine
 10
22.59973089678116
 20
-9.771599258481472
 30
0.0
 11
23.67152766650562
 21
-13.77159925848147
 31
0.0
  0
ARC
  5
58
330
1C
100
AcDbEntity
  8
0
100
AcDbCircle
 10
22.59973089678116
 20
-7.271599258481472
 30
0.0
 40
2.5
100
AcDbArc
 50
270.0
 51
270.0000000000007
  0
LINE
  5
59
330
1C
100
AcDbEntity
  8
0
100
AcDbLine
 10
28.77130377203494
 20
-12.77159925848147
 30
0.0
 11
24.43885465448463
 21
-12.77159925848144
 31
0.0
  0
LINE
  5
5A
330
1C
100
AcDbEntity
  8
0
100
AcDbLine
 10
3.599730896781125
 20
-4.771599258481472
 30
0.0
 11
2.599730896781125
 21
-4.771599258481472
 31
0.0
  0
LINE
  5
5B
330
1C
100
AcDbEntity
  8
0
100
AcDbLine
 10
22.59973089678116
 20
-8.771599258481472
 30
0.0
 11
18.59973089678115
 21
-8.771599258481472
 31
0.0
  0
LINE
  5
5C
330
1C
100
AcDbEntity
  8
0
100
AcDbLine
 10
22.59973089678116
 20
-5.771599258481472
 30
0.0
 11
18.59973089678115
 21
-5.771599258481472
 31
0.0
  0
LINE
  5
5D
330
1C
100
AcDbEntity
  8
0
100
AcDbLine
 10
22.59973089678116
 20
-4.771599258481472
 30
0.0
 11
17.59973089678115
 21
-4.771599258481472
 31
0.0
  0
LINE
  5
5E
330
1C
100
AcDbEntity
  8
0
100
AcDbLine
 10
18.59973089678115
 20
-5.771599258481472
 30
0.0
 11
18.59973089678115
 21
-8.771599258481472
 31
0.0
  0
ARC
  5
5F
330
1C
100
AcDbEntity
  8
0
100
AcDbCircle
 10
22.59973089678116
 20
-7.271599258481472
 30
0.0
 40
1.5
100
AcDbArc
 50
270.0
 51
90.0
  0
ENDBLK
  5
60
330
1C
100
AcDbEntity
  8
0
100
AcDbBlockEnd
  0
BLOCK
  5
F14
330
E72
100
AcDbEntity
  8
0
100
AcDbBlockBegin
  2
*D1
 70
     1
 10
0.0
 20
0.0
 30
0.0
  3
*D1
  1

  0
LINE
  5
14C8
330
E72
100
AcDbEntity
  8
BEM
 62
     0
440
 16777216
370
    -2
100
AcDbLine
 10
217.1286308032951
 20
443.7675383062951
 30
0.0
 11
217.1286308032951
 21
478.5772955649719
 31
0.0
  0
LINE
  5
14C9
330
E72
100
AcDbEntity
  8
BEM
 62
     0
440
 16777216
370
    -2
100
AcDbLine
 10
547.1286308032952
 20
443.7675383062951
 30
0.0
 11
547.1286308032952
 21
478.5772955649719
 31
0.0
  0
LINE
  5
14CA
330
E72
100
AcDbEntity
  8
BEM
 62
     0
440
 16777216
370
    -2
100
AcDbLine
 10
224.1286308032951
 20
476.577295564972
 30
0.0
 11
540.1286308032951
 21
476.577295564972
 31
0.0
  0
SOLID
  5
14CB
330
E72
100
AcDbEntity
  8
BEM
 62
     0
440
 16777216
100
AcDbTrace
 10
224.1286308032951
 20
477.7439622316387
 30
0.0
 11
224.1286308032951
 21
475.4106288983053
 31
0.0
 12
217.1286308032951
 22
476.577295564972
 32
0.0
 13
217.1286308032951
 23
476.577295564972
 33
0.0
  0
SOLID
  5
14CC
330
E72
100
AcDbEntity
  8
BEM
 62
     0
440
 16777216
100
AcDbTrace
 10
540.1286308032951
 20
477.7439622316387
 30
0.0
 11
540.1286308032951
 21
475.4106288983053
 31
0.0
 12
547.1286308032952
 22
476.577295564972
 32
0.0
 13
547.1286308032952
 23
476.577295564972
 33
0.0
  0
MTEXT
  5
14CD
330
E72
100
AcDbEntity
  8
BEM
 62
     1
440
 16777216
100
AcDbMText
 10
382.1286308032952
 20
483.0772955649719
 30
0.0
 40
7.0
 41
0.0
 71
     5
 72
     1
  1
\A1;%%c330
 73
     1
 44
1.0
  0
POINT
  5
14CE
330
E72
100
AcDbEntity
  8
DEFPOINTS
 62
     0
440
 16777216
100
AcDbPoint
 10
217.1286308032951
 20
441.7675383062951
 30
0.0
  0
POINT
  5
14CF
330
E72
100
AcDbEntity
  8
DEFPOINTS
 62
     0
440
 16777216
100
AcDbPoint
 10
547.1286308032952
 20
441.7675383062951
 30
0.0
  0
POINT
  5
14D0
330
E72
100
AcDbEntity
  8
DEFPOINTS
 62
     0
440
 16777216
100
AcDbPoint
 10
547.1286308032952
 20
476.577295564972
 30
0.0
  0
ENDBLK
  5
F1E
330
E72
100
AcDbEntity
  8
0
100
AcDbBlockEnd
  0
BLOCK
  5
FA3
330
F96
100
AcDbEntity
  8
0
100
AcDbBlockBegin
  2
*D2
 70
     1
 10
0.0
 20
0.0
 30
0.0
  3
*D2
  1

  0
LINE
  5
14BF
330
F96
100
AcDbEntity
  8
BEM
 62
     0
440
 16777216
370
    -2
100
AcDbLine
 10
132.1286308032951
 20
446.7675383062951
 30
0.0
 11
132.1286308032951
 21
494.577295564972
 31
0.0
  0
LINE
  5
14C0
330
F96
100
AcDbEntity
  8
BEM
 62
     0
440
 16777216
370
    -2
100
AcDbLine
 10
632.1286308032949
 20
446.7675383062951
 30
0.0
 11
632.1286308032949
 21
494.577295564972
 31
0.0
  0
LINE
  5
14C1
330
F96
100
AcDbEntity
  8
BEM
 62
     0
440
 16777216
370
    -2
100
AcDbLine
 10
139.1286308032951
 20
492.577295564972
 30
0.0
 11
625.1286308032949
 21
492.577295564972
 31
0.0
  0
SOLID
  5
14C2
330
F96
100
AcDbEntity
  8
BEM
 62
     0
440
 16777216
100
AcDbTrace
 10
139.1286308032951
 20
493.7439622316387
 30
0.0
 11
139.1286308032951
 21
491.4106288983053
 31
0.0
 12
132.1286308032951
 22
492.577295564972
 32
0.0
 13
132.1286308032951
 23
492.577295564972
 33
0.0
  0
SOLID
  5
14C3
330
F96
100
AcDbEntity
  8
BEM
 62
     0
440
 16777216
100
AcDbTrace
 10
625.1286308032949
 20
493.7439622316387
 30
0.0
 11
625.1286308032949
 21
491.4106288983053
 31
0.0
 12
632.1286308032949
 22
492.577295564972
 32
0.0
 13
632.1286308032949
 23
492.577295564972
 33
0.0
  0
MTEXT
  5
14C4
330
F96
100
AcDbEntity
  8
BEM
 62
     1
440
 16777216
100
AcDbMText
 10
382.128630803295
 20
499.077295564972
 30
0.0
 40
7.0
 41
0.0
 71
     5
 72
     1
  1
\A1; 500
 73
     1
 44
1.0
  0
POINT
  5
14C5
330
F96
100
AcDbEntity
  8
DEFPOINTS
 62
     0
440
 16777216
100
AcDbPoint
 10
132.1286308032951
 20
444.7675383062952
 30
0.0
  0
POINT
  5
14C6
330
F96
100
AcDbEntity
  8
DEFPOINTS
 62
     0
440
 16777216
100
AcDbPoint
 10
632.1286308032949
 20
444.7675383062952
 30
0.0
  0
POINT
  5
14C7
330
F96
100
AcDbEntity
  8
DEFPOINTS
 62
     0
440
 16777216
100
AcDbPoint
 10
632.1286308032949
 20
492.577295564972
 30
0.0
  0
ENDBLK
  5
FAD
330
F96
100
AcDbEntity
  8
0
100
AcDbBlockEnd
  0
BLOCK
  5
13E9
330
13E8
100
AcDbEntity
  8
0
100
AcDbBlockBegin
  2
*D3
 70
     1
 10
0.0
 20
0.0
 30
0.0
  3
*D3
  1

  0
LINE
  5
1485
330
13E8
100
AcDbEntity
  8
BEM
 62
     0
440
 16777216
370
    -2
100
AcDbLine
 10
215.1286308032951
 20
439.7675383062951
 30
0.0
 11
202.9662163679517
 21
439.7675383062951
 31
0.0
  0
LINE
  5
1486
330
13E8
100
AcDbEntity
  8
BEM
 62
     0
440
 16777216
370
    -2
100
AcDbLine
 10
289.4827294910005
 20
238.7675383062949
 30
0.0
 11
202.9662163679516
 21
238.7675383062949
 31
0.0
  0
LINE
  5
1487
330
13E8
100
AcDbEntity
  8
BEM
 62
     0
440
 16777216
370
    -2
100
AcDbLine
 10
204.9662163679517
 20
432.7675383062951
 30
0.0
 11
204.9662163679516
 21
245.7675383062948
 31
0.0
  0
SOLID
  5
1488
330
13E8
100
AcDbEntity
  8
BEM
 62
     0
440
 16777216
100
AcDbTrace
 10
203.799549701285
 20
432.7675383062951
 30
0.0
 11
206.1328830346183
 21
432.7675383062951
 31
0.0
 12
204.9662163679517
 22
439.7675383062951
 32
0.0
 13
204.9662163679517
 23
439.7675383062951
 33
0.0
  0
SOLID
  5
1489
330
13E8
100
AcDbEntity
  8
BEM
 62
     0
440
 16777216
100
AcDbTrace
 10
203.799549701285
 20
245.7675383062948
 30
0.0
 11
206.1328830346183
 21
245.7675383062948
 31
0.0
 12
204.9662163679516
 22
238.7675383062949
 32
0.0
 13
204.9662163679516
 23
238.7675383062949
 33
0.0
  0
MTEXT
  5
148A
330
13E8
100
AcDbEntity
  8
BEM
 62
     1
440
 16777216
100
AcDbMText
 10
198.4662163679516
 20
339.267538306295
 30
0.0
 40
7.0
 41
0.0
 71
     5
 72
     1
  1
\A1;201
 11
0.0000000000000001
 21
1.0
 31
0.0
 73
     1
 44
1.0
  0
POINT
  5
148B
330
13E8
100
AcDbEntity
  8
DEFPOINTS
 62
     0
440
 16777216
100
AcDbPoint
 10
217.1286308032951
 20
439.7675383062951
 30
0.0
  0
POINT
  5
148C
330
13E8
100
AcDbEntity
  8
DEFPOINTS
 62
     0
440
 16777216
100
AcDbPoint
 10
291.4827294910005
 20
238.7675383062949
 30
0.0
  0
POINT
  5
148D
330
13E8
100
AcDbEntity
  8
DEFPOINTS
 62
     0
440
 16777216
100
AcDbPoint
 10
204.9662163679516
 20
238.7675383062949
 30
0.0
  0
ENDBLK
  5
13EA
330
13E8
100
AcDbEntity
  8
0
100
AcDbBlockEnd
  0
BLOCK
  5
13F5
330
13F4
100
AcDbEntity
  8
0
100
AcDbBlockBegin
  2
*D4
 70
     1
 10
0.0
 20
0.0
 30
0.0
  3
*D4
  1

  0
LINE
  5
144A
330
13F4
100
AcDbEntity
  8
BEM
 62
     0
440
 16777216
370
    -2
100
AcDbLine
 10
291.4827294910005
 20
236.7675383062949
 30
0.0
 11
291.4827294910005
 21
218.4809999895693
 31
0.0
  0
LINE
  5
144B
330
13F4
100
AcDbEntity
  8
BEM
 62
     0
440
 16777216
370
    -2
100
AcDbLine
 10
547.69948272597
 20
236.7675383062941
 30
0.0
 11
547.69948272597
 21
218.4809999895693
 31
0.0
  0
LINE
  5
144C
330
13F4
100
AcDbEntity
  8
BEM
 62
     0
440
 16777216
370
    -2
100
AcDbLine
 10
298.4827294910005
 20
220.4809999895693
 30
0.0
 11
540.69948272597
 21
220.4809999895693
 31
0.0
  0
SOLID
  5
144D
330
13F4
100
AcDbEntity
  8
BEM
 62
     0
440
 16777216
100
AcDbTrace
 10
298.4827294910005
 20
221.647666656236
 30
0.0
 11
298.4827294910005
 21
219.3143333229026
 31
0.0
 12
291.4827294910005
 22
220.4809999895693
 32
0.0
 13
291.4827294910005
 23
220.4809999895693
 33
0.0
  0
SOLID
  5
144E
330
13F4
100
AcDbEntity
  8
BEM
 62
     0
440
 16777216
100
AcDbTrace
 10
540.69948272597
 20
221.647666656236
 30
0.0
 11
540.69948272597
 21
219.3143333229026
 31
0.0
 12
547.69948272597
 22
220.4809999895693
 32
0.0
 13
547.69948272597
 23
220.4809999895693
 33
0.0
  0
MTEXT
  5
144F
330
13F4
100
AcDbEntity
  8
BEM
 62
     1
440
 16777216
100
AcDbMText
 10
419.5911061084853
 20
226.9809999895693
 30
0.0
 40
7.0
 41
0.0
 71
     5
 72
     1
  1
\A1;256
 73
     1
 44
1.0
  0
POINT
  5
1450
330
13F4
100
AcDbEntity
  8
DEFPOINTS
 62
     0
440
 16777216
100
AcDbPoint
 10
291.4827294910005
 20
238.7675383062949
 30
0.0
  0
POINT
  5
1451
330
13F4
100
AcDbEntity
  8
DEFPOINTS
 62
     0
440
 16777216
100
AcDbPoint
 10
547.69948272597
 20
238.7675383062941
 30
0.0
  0
POINT
  5
1452
330
13F4
100
AcDbEntity
  8
DEFPOINTS
 62
     0
440
 16777216
100
AcDbPoint
 10
547.69948272597
 20
220.4809999895693
 30
0.0
  0
ENDBLK
  5
13F6
330
13F4
100
AcDbEntity
  8
0
100
AcDbBlockEnd
  0
BLOCK
  5
1401
330
1400
100
AcDbEntity
  8
0
100
AcDbBlockBegin
  2
*D5
 70
     1
 10
0.0
 20
0.0
 30
0.0
  3
*D5
  1

  0
LINE
  5
1604
330
1400
100
AcDbEntity
  8
BEM
 62
     0
440
 16777216
370
    -2
100
AcDbLine
 10
618.1773812687073
 20
273.8889291732954
 30
0.0
 11
616.5097951304367
 21
242.0694901303942
 31
0.0
  0
LINE
  5
1605
330
1400
100
AcDbEntity
  8
BEM
 62
     0
440
 16777216
370
    -2
100
AcDbLine
 10
548.6311773970424
 20
256.5453316762539
 30
0.0
 11
548.0605317464952
 21
245.6567640179066
 31
0.0
  0
LINE
  5
1606
330
1400
100
AcDbEntity
  8
BEM
 62
     0
440
 16777216
370
    -2
100
AcDbLine
 10
609.6240602996406
 20
244.4331008936039
 30
0.0
 11
555.1556104022631
 21
247.2876713937151
 31
0.0
  0
SOLID
  5
1607
330
1400
100
AcDbEntity
  8
BEM
 62
     0
440
 16777216
100
AcDbTrace
 10
609.6851189152573
 20
245.5981686841509
 30
0.0
 11
609.5630016840239
 21
243.2680331030569
 31
0.0
 12
616.6144670429226
 22
244.0667491999033
 32
0.0
 13
616.6144670429226
 23
244.0667491999033
 33
0.0
  0
SOLID
  5
1608
330
1400
100
AcDbEntity
  8
BEM
 62
     0
440
 16777216
100
AcDbTrace
 10
555.2166690178799
 20
248.4527391842621
 30
0.0
 11
555.0945517866464
 21
246.1226036031681
 31
0.0
 12
548.1652036589811
 22
247.6540230874157
 32
0.0
 13
548.1652036589811
 23
247.6540230874157
 33
0.0
  0
MTEXT
  5
1609
330
1400
100
AcDbEntity
  8
BEM
 62
     1
440
 16777216
100
AcDbMText
 10
582.7300190665308
 20
252.3514781195643
 30
0.0
 40
7.0
 41
0.0
 71
     5
 72
     1
  1
\A1;68.5
 11
0.9986295347545739
 21
-0.0523359562429441
 31
0.0
 73
     1
 44
1.0
  0
POINT
  5
160A
330
1400
100
AcDbEntity
  8
DEFPOINTS
 62
     0
440
 16777216
100
AcDbPoint
 10
618.2820531811931
 20
275.8861882428045
 30
0.0
  0
POINT
  5
160B
330
1400
100
AcDbEntity
  8
DEFPOINTS
 62
     0
440
 16777216
100
AcDbPoint
 10
548.7358493095282
 20
258.5425907457631
 30
0.0
  0
POINT
  5
160C
330
1400
100
AcDbEntity
  8
DEFPOINTS
 62
     0
440
 16777216
100
AcDbPoint
 10
548.1652036589811
 20
247.6540230874157
 30
0.0
  0
ENDBLK
  5
1402
330
1400
100
AcDbEntity
  8
0
100
AcDbBlockEnd
  0
BLOCK
  5
140D
330
140C
100
AcDbEntity
  8
0
100
AcDbBlockBegin
  2
*D6
 70
     1
 10
0.0
 20
0.0
 30
0.0
  3
*D6
  1

  0
LINE
  5
145C
330
140C
100
AcDbEntity
  8
BEM
 62
     0
440
 16777216
370
    -2
100
AcDbLine
 10
605.318789230301
 20
275.259083354447
 30
0.0
 11
639.2446518516894
 21
273.4811042341986
 31
0.0
  0
LINE
  5
145D
330
140C
100
AcDbEntity
  8
BEM
 62
     0
440
 16777216
370
    -2
100
AcDbLine
 10
610.657056767081
 20
377.1192958994137
 30
0.0
 11
644.5829193884694
 21
375.3413167791653
 31
0.0
  0
LINE
  5
145E
330
140C
100
AcDbEntity
  8
BEM
 62
     0
440
 16777216
370
    -2
100
AcDbLine
 10
637.6137444758809
 20
280.5761828899666
 30
0.0
 11
642.2193086252597
 21
368.4555819483691
 31
0.0
  0
SOLID
  5
145F
330
140C
100
AcDbEntity
  8
BEM
 62
     0
440
 16777216
100
AcDbTrace
 10
636.448676685334
 20
280.6372415055833
 30
0.0
 11
638.778812266428
 21
280.5151242743498
 31
0.0
 12
637.2473927821803
 22
273.5857761466846
 32
0.0
 13
637.2473927821803
 23
273.5857761466846
 33
0.0
  0
SOLID
  5
1460
330
140C
100
AcDbEntity
  8
BEM
 62
     0
440
 16777216
100
AcDbTrace
 10
641.0542408347128
 20
368.5166405639859
 30
0.0
 11
643.3843764158067
 21
368.3945233327523
 31
0.0
 12
642.5856603189603
 22
375.4459886916512
 32
0.0
 13
642.5856603189603
 23
375.4459886916512
 33
0.0
  0
MTEXT
  5
1461
330
140C
100
AcDbEntity
  8
BEM
 62
     1
440
 16777216
100
AcDbMText
 10
633.4254345746657
 20
324.856066134747
 30
0.0
 40
7.0
 41
0.0
 71
     5
 72
     1
  1
\A1;%%C102
 11
0.0523359562429411
 21
0.9986295347545739
 31
0.0
 73
     1
 44
1.0
  0
POINT
  5
1462
330
140C
100
AcDbEntity
  8
DEFPOINTS
 62
     0
440
 16777216
100
AcDbPoint
 10
603.3215301607919
 20
275.363755266933
 30
0.0
  0
POINT
  5
1463
330
140C
100
AcDbEntity
  8
DEFPOINTS
 62
     0
440
 16777216
100
AcDbPoint
 10
608.6597976975719
 20
377.2239678118996
 30
0.0
  0
POINT
  5
1464
330
140C
100
AcDbEntity
  8
DEFPOINTS
 62
     0
440
 16777216
100
AcDbPoint
 10
642.5856603189603
 20
375.4459886916512
 30
0.0
  0
ENDBLK
  5
140E
330
140C
100
AcDbEntity
  8
0
100
AcDbBlockEnd
  0
BLOCK
  5
1419
330
1418
100
AcDbEntity
  8
0
100
AcDbBlockBegin
  2
*D7
 70
     1
 10
0.0
 20
0.0
 30
0.0
  3
*D7
  1

  0
LINE
  5
1465
330
1418
100
AcDbEntity
  8
BEM
 62
     0
440
 16777216
370
    -2
100
AcDbLine
 10
384.1286308032991
 20
338.0259735613305
 30
0.0
 11
485.3595520417137
 21
338.0259735613302
 31
0.0
  0
ARC
  5
1466
330
1418
100
AcDbEntity
  8
BEM
 62
     0
440
 16777216
370
    -2
100
AcDbCircle
 10
382.1286308032991
 20
338.0259735613305
 30
0.0
 40
101.2309212384146
100
AcDbArc
 50
349.0697991248109
 51
357.0
  0
LINE
  5
1467
330
1418
100
AcDbEntity
  8
BEM
 62
     0
440
 16777216
370
    -2
100
AcDbLine
 10
481.523112099282
 20
318.831273702239
 30
0.0
 11
479.171910753478
 21
306.6562233026929
 31
0.0
  0
ARC
  5
1468
330
1418
100
AcDbEntity
  8
BEM
 62
     0
440
 16777216
370
    -2
100
AcDbCircle
 10
382.1286308032991
 20
338.0259735613305
 30
0.0
 40
101.2309212384146
100
AcDbArc
 50
349.0745479612237
 51
353.0372739806118
  0
ARC
  5
1469
330
1418
100
AcDbEntity
  8
BEM
 62
     0
440
 16777216
370
    -2
100
AcDbCircle
 10
382.1286308032991
 20
338.0259735613305
 30
0.0
 40
101.2309212384146
100
AcDbArc
 50
3.962726019387945
 51
7.925452038776131
  0
ARC
  5
146A
330
1418
100
AcDbEntity
  8
BEM
 62
     0
440
 16777216
370
    -2
100
AcDbCircle
 10
382.1286308032991
 20
338.0259735613305
 30
0.0
 40
101.2309212384146
100
AcDbArc
 50
357.0
 51
359.9999999999998
  0
SOLID
  5
146B
330
1418
100
AcDbEntity
  8
BEM
 62
     0
440
 16777216
100
AcDbTrace
 10
481.4507365278733
 20
325.855699179941
 30
0.0
 11
483.7752568498547
 21
325.6530918820977
 31
0.0
 12
483.2208185823939
 22
332.7279564969638
 32
0.0
 13
483.2208185823939
 23
332.7279564969638
 33
0.0
  0
SOLID
  5
146C
330
1418
100
AcDbEntity
  8
BEM
 62
     0
440
 16777216
100
AcDbTrace
 10
484.2835002757066
 20
345.0621252632204
 30
0.0
 11
481.9515619813643
 21
344.9814516254943
 31
0.0
 12
483.3595520417137
 22
338.0259735613302
 32
0.0
 13
483.3595520417137
 23
338.0259735613302
 33
0.0
  0
MTEXT
  5
146D
330
1418
100
AcDbEntity
  8
BEM
 62
     1
440
 16777216
100
AcDbMText
 10
473.9654285556502
 20
313.9762330788955
 30
0.0
 40
7.0
 41
0.0
 71
     5
 72
     1
  1
\A1;3°
 11
0.189613011758381
 21
0.981858903189209
 31
0.0
 73
     1
 44
1.0
  0
POINT
  5
146E
330
1418
100
AcDbEntity
  8
DEFPOINTS
 62
     0
440
 16777216
100
AcDbPoint
 10
483.3441340820861
 20
336.2592503798568
 30
0.0
  0
POINT
  5
146F
330
1418
100
AcDbEntity
  8
DEFPOINTS
 62
     0
440
 16777216
100
AcDbPoint
 10
380.1286308032949
 20
338.0259735613305
 30
0.0
  0
POINT
  5
1470
330
1418
100
AcDbEntity
  8
DEFPOINTS
 62
     0
440
 16777216
100
AcDbPoint
 10
382.1286308032951
 20
338.0259735613308
 30
0.0
  0
POINT
  5
1471
330
1418
100
AcDbEntity
  8
DEFPOINTS
 62
     0
440
 16777216
100
AcDbPoint
 10
625.8760524100668
 20
325.2517124889525
 30
0.0
  0
POINT
  5
1472
330
1418
100
AcDbEntity
  8
DEFPOINTS
 62
     0
440
 16777216
100
AcDbPoint
 10
364.7472076639496
 20
338.0259735613306
 30
0.0
  0
ENDBLK
  5
141A
330
1418
100
AcDbEntity
  8
0
100
AcDbBlockEnd
  0
BLOCK
  5
142A
330
1429
100
AcDbEntity
  8
0
100
AcDbBlockBegin
  2
*D8
 70
     1
 10
0.0
 20
0.0
 30
0.0
  3
*D8
  1

  0
LINE
  5
1473
330
1429
100
AcDbEntity
  8
BEM
 62
     0
440
 16777216
370
    -2
100
AcDbLine
 10
549.1286308032952
 20
441.7675383062951
 30
0.0
 11
662.7611068479157
 21
441.7675383062951
 31
0.0
  0
LINE
  5
1474
330
1429
100
AcDbEntity
  8
BEM
 62
     0
440
 16777216
370
    -2
100
AcDbLine
 10
641.9688038266742
 20
325.5133922701672
 30
0.0
 11
662.7611068479157
 21
325.5133922701672
 31
0.0
  0
LINE
  5
1475
330
1429
100
AcDbEntity
  8
BEM
 62
     0
440
 16777216
370
    -2
100
AcDbLine
 10
660.7611068479156
 20
434.767538306295
 30
0.0
 11
660.7611068479156
 21
332.5133922701672
 31
0.0
  0
SOLID
  5
1476
330
1429
100
AcDbEntity
  8
BEM
 62
     0
440
 16777216
100
AcDbTrace
 10
659.5944401812491
 20
434.767538306295
 30
0.0
 11
661.9277735145823
 21
434.767538306295
 31
0.0
 12
660.7611068479156
 22
441.7675383062951
 32
0.0
 13
660.7611068479156
 23
441.7675383062951
 33
0.0
  0
SOLID
  5
1477
330
1429
100
AcDbEntity
  8
BEM
 62
     0
440
 16777216
100
AcDbTrace
 10
659.5944401812491
 20
332.5133922701672
 30
0.0
 11
661.9277735145823
 21
332.5133922701672
 31
0.0
 12
660.7611068479156
 22
325.5133922701672
 32
0.0
 13
660.7611068479156
 23
325.5133922701672
 33
0.0
  0
MTEXT
  5
1478
330
1429
100
AcDbEntity
  8
BEM
 62
     1
440
 16777216
100
AcDbMText
 10
654.2611068479155
 20
383.6404652882313
 30
0.0
 40
7.0
 41
0.0
 71
     5
 72
     1
  1
\A1;116
 11
0.0000000000000001
 21
1.0
 31
0.0
 73
     1
 44
1.0
  0
POINT
  5
1479
330
1429
100
AcDbEntity
  8
DEFPOINTS
 62
     0
440
 16777216
100
AcDbPoint
 10
547.1286308032952
 20
441.7675383062951
 30
0.0
  0
POINT
  5
147A
330
1429
100
AcDbEntity
  8
DEFPOINTS
 62
     0
440
 16777216
100
AcDbPoint
 10
639.9688038266742
 20
325.5133922701673
 30
0.0
  0
POINT
  5
147B
330
1429
100
AcDbEntity
  8
DEFPOINTS
 62
     0
440
 16777216
100
AcDbPoint
 10
660.7611068479156
 20
325.5133922701672
 30
0.0
  0
ENDBLK
  5
142B
330
1429
100
AcDbEntity
  8
0
100
AcDbBlockEnd
  0
BLOCK
  5
1436
330
1435
100
AcDbEntity
  8
0
100
AcDbBlockBegin
  2
*D9
 70
     1
 10
0.0
 20
0.0
 30
0.0
  3
*D9
  1

  0
LINE
  5
147C
330
1435
100
AcDbEntity
  8
BEM
 62
     0
440
 16777216
370
    -2
100
AcDbLine
 10
382.1286308032952
 20
218.4809999895693
 30
0.0
 11
382.1286308032952
 21
197.5596438502126
 31
0.0
  0
LINE
  5
147D
330
1435
100
AcDbEntity
  8
BEM
 62
     0
440
 16777216
370
    -2
100
AcDbLine
 10
620.8829047362939
 20
323.5133922701673
 30
0.0
 11
620.8829047362939
 21
197.5596438502126
 31
0.0
  0
LINE
  5
147E
330
1435
100
AcDbEntity
  8
BEM
 62
     0
440
 16777216
370
    -2
100
AcDbLine
 10
389.1286308032952
 20
199.5596438502126
 30
0.0
 11
613.8829047362939
 21
199.5596438502126
 31
0.0
  0
SOLID
  5
147F
330
1435
100
AcDbEntity
  8
BEM
 62
     0
440
 16777216
100
AcDbTrace
 10
389.1286308032952
 20
200.7263105168792
 30
0.0
 11
389.1286308032952
 21
198.3929771835459
 31
0.0
 12
382.1286308032952
 22
199.5596438502126
 32
0.0
 13
382.1286308032952
 23
199.5596438502126
 33
0.0
  0
SOLID
  5
1480
330
1435
100
AcDbEntity
  8
BEM
 62
     0
440
 16777216
100
AcDbTrace
 10
613.8829047362939
 20
200.7263105168792
 30
0.0
 11
613.8829047362939
 21
198.3929771835459
 31
0.0
 12
620.8829047362939
 22
199.5596438502126
 32
0.0
 13
620.8829047362939
 23
199.5596438502126
 33
0.0
  0
MTEXT
  5
1481
330
1435
100
AcDbEntity
  8
BEM
 62
     1
440
 16777216
100
AcDbMText
 10
501.5057677697946
 20
206.0596438502126
 30
0.0
 40
7.0
 41
0.0
 71
     5
 72
     1
  1
\A1;239
 73
     1
 44
1.0
  0
POINT
  5
1482
330
1435
100
AcDbEntity
  8
DEFPOINTS
 62
     0
440
 16777216
100
AcDbPoint
 10
382.1286308032952
 20
220.4809999895693
 30
0.0
  0
POINT
  5
1483
330
1435
100
AcDbEntity
  8
DEFPOINTS
 62
     0
440
 16777216
100
AcDbPoint
 10
620.8829047362939
 20
325.5133922701673
 30
0.0
  0
POINT
  5
1484
330
1435
100
AcDbEntity
  8
DEFPOINTS
 62
     0
440
 16777216
100
AcDbPoint
 10
620.8829047362939
 20
199.5596438502126
 30
0.0
  0
ENDBLK
  5
1437
330
1435
100
AcDbEntity
  8
0
100
AcDbBlockEnd
  0
BLOCK
  5
14A2
330
14A1
100
AcDbEntity
  8
0
100
AcDbBlockBegin
  2
*D10
 70
     1
 10
0.0
 20
0.0
 30
0.0
  3
*D10
  1

  0
LINE
  5
14B6
330
14A1
100
AcDbEntity
  8
BEM
 62
     0
440
 16777216
370
    -2
100
AcDbLine
 10
382.1286308032951
 20
451.7675383062951
 30
0.0
 11
382.1286308032951
 21
464.1497351876764
 31
0.0
  0
LINE
  5
14B7
330
14A1
100
AcDbEntity
  8
BEM
 62
     0
440
 16777216
370
    -2
100
AcDbLine
 10
272.1286308032952
 20
441.7675383062952
 30
0.0
 11
272.1286308032952
 21
464.1497351876764
 31
0.0
  0
LINE
  5
14B8
330
14A1
100
AcDbEntity
  8
BEM
 62
     0
440
 16777216
370
    -2
100
AcDbLine
 10
375.1286308032951
 20
462.1497351876764
 30
0.0
 11
279.1286308032951
 21
462.1497351876764
 31
0.0
  0
SOLID
  5
14B9
330
14A1
100
AcDbEntity
  8
BEM
 62
     0
440
 16777216
100
AcDbTrace
 10
375.1286308032951
 20
463.3164018543431
 30
0.0
 11
375.1286308032951
 21
460.9830685210098
 31
0.0
 12
382.1286308032951
 22
462.1497351876764
 32
0.0
 13
382.1286308032951
 23
462.1497351876764
 33
0.0
  0
SOLID
  5
14BA
330
14A1
100
AcDbEntity
  8
BEM
 62
     0
440
 16777216
100
AcDbTrace
 10
279.1286308032951
 20
463.3164018543431
 30
0.0
 11
279.1286308032951
 21
460.9830685210098
 31
0.0
 12
272.1286308032952
 22
462.1497351876764
 32
0.0
 13
272.1286308032952
 23
462.1497351876764
 33
0.0
  0
MTEXT
  5
14BB
330
14A1
100
AcDbEntity
  8
BEM
 62
     1
440
 16777216
100
AcDbMText
 10
327.1286308032951
 20
468.6497351876765
 30
0.0
 40
7.0
 41
0.0
 71
     5
 72
     1
  1
\A1;110
 73
     1
 44
1.0
  0
POINT
  5
14BC
330
14A1
100
AcDbEntity
  8
DEFPOINTS
 62
     0
440
 16777216
100
AcDbPoint
 10
382.1286308032951
 20
449.7675383062951
 30
0.0
  0
POINT
  5
14BD
330
14A1
100
AcDbEntity
  8
DEFPOINTS
 62
     0
440
 16777216
100
AcDbPoint
 10
272.1286308032952
 20
439.7675383062952
 30
0.0
  0
POINT
  5
14BE
330
14A1
100
AcDbEntity
  8
DEFPOINTS
 62
     0
440
 16777216
100
AcDbPoint
 10
272.1286308032952
 20
462.1497351876764
 30
0.0
  0
ENDBLK
  5
14A3
330
14A1
100
AcDbEntity
  8
0
100
AcDbBlockEnd
  0
ENDSEC
  0
SECTION
  2
ENTITIES
  0
LINE
  5
646
330
17
100
AcDbEntity
  8
STEMPEL
100
AcDbLine
 10
327.628630803295
 20
413.848954019253
 30
0.0
 11
436.6286308032954
 21
413.848954019253
 31
0.0
  0
LINE
  5
647
330
17
100
AcDbEntity
  8
STEMPEL
100
AcDbLine
 10
333.8068300656496
 20
415.8489540192531
 30
0.0
 11
430.4504315409408
 21
415.8489540192531
 31
0.0
  0
DIMENSION
  5
651
330
17
100
AcDbEntity
  8
BEM
100
AcDbDimension
  2
*D1
 10
547.1286308032952
 20
476.577295564972
 30
0.0
 11
382.1286308032952
 21
483.0772955649719
 31
0.0
 70
    32
  1
%%c<>
 71
     5
 42
330.0000000000001
  3
STANDARD
100
AcDbAlignedDimension
 13
217.1286308032951
 23
441.7675383062951
 33
0.0
 14
547.1286308032952
 24
441.7675383062951
 34
0.0
100
AcDbRotatedDimension
  0
LINE
  5
653
330
17
100
AcDbEntity
  8
HILF
100
AcDbLine
 10
840.0
 20
0.0
 30
0.0
 11
0.0
 21
0.0
 31
0.0
  0
LINE
  5
654
330
17
100
AcDbEntity
  8
HILF
100
AcDbLine
 10
839.9999999999998
 20
594.0000000000002
 30
0.0
 11
-0.0000000000001705
 21
593.9999999999997
 31
0.0
  0
LINE
  5
655
330
17
100
AcDbEntity
  8
STEMPEL
100
AcDbLine
 10
830.0
 20
584.0
 30
0.0
 11
39.99999999999989
 21
584.0
 31
0.0
  0
LINE
  5
656
330
17
100
AcDbEntity
  8
STEMPEL
100
AcDbLine
 10
830.0
 20
10.0
 30
0.0
 11
40.0
 21
10.0
 31
0.0
  0
LINE
  5
657
330
17
100
AcDbEntity
  8
STEMPEL
100
AcDbLine
 10
323.0623875330357
 20
405.7675383062951
 30
0.0
 11
441.1948740735542
 21
405.7675383062951
 31
0.0
  0
LINE
  5
658
330
17
100
AcDbEntity
  8
STEMPEL
100
AcDbLine
 10
323.0623875330357
 20
407.7675383062951
 30
0.0
 11
441.1948740735542
 21
407.7675383062952
 31
0.0
  0
LINE
  5
659
102
{ACAD_REACTORS
330
1151
102
}
330
17
100
AcDbEntity
  8
STEMPEL
100
AcDbLine
 10
132.1286308032951
 20
444.7675383062952
 30
0.0
 11
632.1286308032949
 21
444.767538306295
 31
0.0
  0
LINE
  5
65A
102
{ACAD_REACTORS
330
1151
102
}
330
17
100
AcDbEntity
  8
STEMPEL
100
AcDbLine
 10
320.128630803295
 20
412.8489540192529
 30
0.0
 11
444.1286308032954
 21
412.8489540192529
 31
0.0
  0
LINE
  5
65B
330
17
100
AcDbEntity
  8
STEMPEL
100
AcDbLine
 10
322.1362704783819
 20
442.848954019253
 30
0.0
 11
442.1209911282087
 21
442.8489540192565
 31
0.0
  0
LINE
  5
65C
330
17
100
AcDbEntity
  8
STEMPEL
100
AcDbLine
 10
326.8285401115027
 20
432.848954019253
 30
0.0
 11
437.4287214950877
 21
432.8489540192529
 31
0.0
  0
LINE
  5
65D
102
{ACAD_REACTORS
330
1151
102
}
330
17
100
AcDbEntity
  8
STEMPEL
100
AcDbLine
 10
318.5187439306667
 20
409.8489540192529
 30
0.0
 11
445.7385176759216
 21
409.8489540192529
 31
0.0
  0
LINE
  5
663
330
17
100
AcDbEntity
  8
TEXT
 62
     2
100
AcDbLine
 10
347.9983336390205
 20
290.203094706249
 30
0.0
 11
260.3009486266834
 21
211.0068481847561
 31
0.0
  0
LINE
  5
66D
330
17
100
AcDbEntity
  8
STEMPEL
100
AcDbLine
 10
40.0
 20
10.0
 30
0.0
 11
39.99999999999989
 21
584.0
 31
0.0
  0
LINE
  5
66E
330
17
100
AcDbEntity
  8
HILF
100
AcDbLine
 10
0.0
 20
0.0
 30
0.0
 11
-0.0000000000001705
 21
593.9999999999997
 31
0.0
  0
TEXT
  5
66F
330
17
100
AcDbEntity
  8
TEXT
 62
     1
100
AcDbText
 10
157.3447785630192
 20
201.184968393658
 30
0.0
 40
7.0
  1
EDV-Art.Nr. 17190.100A
 41
0.8
  7
GREEKS
100
AcDbText
  0
LINE
  5
670
330
17
100
AcDbEntity
  8
TEXT
 62
     2
100
AcDbLine
 10
157.3214305145263
 20
211.0068481847561
 30
0.0
 11
260.3009486266834
 21
211.0068481847561
 31
0.0
  0
TEXT
  5
671
330
17
100
AcDbEntity
  8
TEXT
 62
     1
100
AcDbText
 10
158.083957007836
 20
214.7298014845624
 30
0.0
 40
7.0
  1
Ablauftopf DN100
 41
0.8
  7
GREEKS
100
AcDbText
  0
LINE
  5
672
330
17
100
AcDbEntity
  8
HILF
100
AcDbLine
 10
31.08767135713851
 20
296.9999999999999
 30
0.0
 11
0.0000000000000568
 21
296.9999999999999
 31
0.0
  0
LINE
  5
6A2
102
{ACAD_REACTORS
330
1151
102
}
330
17
100
AcDbEntity
  8
STEMPEL
100
AcDbLine
 10
132.1286308032951
 20
441.7675383062951
 30
0.0
 11
303.8769927975277
 21
441.7675383062951
 31
0.0
  0
TEXT
  5
6A3
330
17
100
AcDbEntity
  8
TEXT
 62
     1
100
AcDbText
 10
70.93343936756809
 20
368.6082344216132
 30
0.0
 40
7.0
  1
Klemmring DN100
 41
0.8
  7
GREEKS
100
AcDbText
  0
TEXT
  5
6A4
330
17
100
AcDbEntity
  8
TEXT
 62
     1
100
AcDbText
 10
70.30868957321217
 20
355.218959096039
 30
0.0
 40
7.0
  1
EDV-Art.Nr. 17201.100A
 41
0.8
  7
GREEKS
100
AcDbText
  0
LINE
  5
6A5
330
17
100
AcDbEntity
  8
TEXT
 62
     2
100
AcDbLine
 10
70.28534152471912
 20
364.8852811218068
 30
0.0
 11
175.5351045747393
 21
364.8852811218068
 31
0.0
  0
LINE
  5
6A6
102
{ACAD_REACTORS
330
1151
102
}
330
17
100
AcDbEntity
  8
STEMPEL
100
AcDbLine
 10
132.1286308032951
 20
444.7675383062952
 30
0.0
 11
132.1286308032951
 21
441.7675383062951
 31
0.0
  0
LINE
  5
6A7
330
17
100
AcDbEntity
  8
TEXT
 62
     2
100
AcDbLine
 10
317.4081968718233
 20
423.9801835368913
 30
0.0
 11
208.7237853956807
 21
378.7094800776734
 31
0.0
  0
LINE
  5
6A8
330
17
100
AcDbEntity
  8
STEMPEL
100
AcDbLine
 10
217.1286308032951
 20
439.7675383062951
 30
0.0
 11
303.8769927975277
 21
439.7675383062952
 31
0.0
  0
LINE
  5
6A9
330
17
100
AcDbEntity
  8
TEXT
 62
     2
100
AcDbLine
 10
200.677745151808
 20
375.3580343923716
 30
0.0
 11
175.5351045747393
 21
364.8852811218068
 31
0.0
  0
LINE
  5
6AA
330
17
100
AcDbEntity
  8
STEMPEL
100
AcDbLine
 10
217.1286308032951
 20
441.7675383062951
 30
0.0
 11
217.1286308032951
 21
439.7675383062951
 31
0.0
  0
LINE
  5
6AE
330
17
100
AcDbEntity
  8
MITTEL
100
AcDbLine
 10
382.1286308032951
 20
449.7675383062951
 30
0.0
 11
382.128630803295
 21
338.0259735613308
 31
0.0
  0
LINE
  5
6E5
330
17
100
AcDbEntity
  8
STEMPEL
100
AcDbLine
 10
326.1133805243921
 20
441.0232655047484
 30
0.0
 11
326.8285401115027
 21
432.848954019253
 31
0.0
  0
LINE
  5
6E6
330
17
100
AcDbEntity
  8
STEMPEL
100
AcDbLine
 10
320.1438810821983
 20
441.0232655047484
 30
0.0
 11
319.2250662072993
 21
430.5211634281
 31
0.0
  0
LINE
  5
6E7
102
{ACAD_REACTORS
330
112C
102
}
330
17
100
AcDbEntity
  8
STEMPEL
100
AcDbLine
 10
324.128630803295
 20
417.848954019253
 30
0.0
 11
324.128630803295
 21
440.848954019253
 31
0.0
  0
LINE
  5
6E8
102
{ACAD_REACTORS
330
112C
102
}
330
17
100
AcDbEntity
  8
STEMPEL
100
AcDbLine
 10
322.128630803295
 20
417.848954019253
 30
0.0
 11
322.128630803295
 21
440.848954019253
 31
0.0
  0
ARC
  5
6EA
330
17
100
AcDbEntity
  8
STEMPEL
100
AcDbCircle
 10
303.8769927975277
 20
433.7675383062951
 30
0.0
 40
6.0
100
AcDbArc
 50
348.9999999999999
 51
90.0
  0
ARC
  5
6EB
102
{ACAD_REACTORS
330
1151
102
}
330
17
100
AcDbEntity
  8
STEMPEL
100
AcDbCircle
 10
303.8769927975277
 20
433.7675383062951
 30
0.0
 40
8.0
100
AcDbArc
 50
348.9999999999997
 51
90.0
  0
ARC
  5
6EC
102
{ACAD_REACTORS
330
1151
102
}
330
17
100
AcDbEntity
  8
STEMPEL
100
AcDbCircle
 10
303.8769927975277
 20
433.7675383062951
 30
0.0
 40
11.0
100
AcDbArc
 50
349.0
 51
90.0
  0
LINE
  5
70F
330
17
100
AcDbEntity
  8
STEMPEL
100
AcDbLine
 10
334.128630803295
 20
413.848954019253
 30
0.0
 11
334.128630803295
 21
415.8489540192531
 31
0.0
  0
LINE
  5
710
330
17
100
AcDbEntity
  8
STEMPEL
100
AcDbLine
 10
308.628630803295
 20
422.7675383062951
 30
0.0
 11
316.1341843027603
 21
409.7675383062951
 31
0.0
  0
LINE
  5
711
102
{ACAD_REACTORS
330
1151
102
}
330
17
100
AcDbEntity
  8
STEMPEL
100
AcDbLine
 10
310.628630803295
 20
423.3034366911573
 30
0.0
 11
317.866235110329
 21
410.7675383062951
 31
0.0
  0
LINE
  5
712
102
{ACAD_REACTORS
330
1151
102
}
330
17
100
AcDbEntity
  8
STEMPEL
100
AcDbLine
 10
320.128630803295
 20
412.8489540192529
 30
0.0
 11
313.6286308032952
 21
424.1072842684507
 31
0.0
  0
ARC
  5
718
330
17
100
AcDbEntity
  8
STEMPEL
100
AcDbCircle
 10
323.0623875330357
 20
413.7675383062951
 30
0.0
 40
8.0
100
AcDbArc
 50
210.0
 51
270.0
  0
ARC
  5
719
102
{ACAD_REACTORS
330
1151
102
}
330
17
100
AcDbEntity
  8
STEMPEL
100
AcDbCircle
 10
323.0623875330357
 20
413.7675383062951
 30
0.0
 40
6.0
100
AcDbArc
 50
210.0
 51
270.0
  0
LINE
  5
725
330
17
100
AcDbEntity
  8
STEMPEL
100
AcDbLine
 10
327.628630803295
 20
413.848954019253
 30
0.0
 11
325.8965799957264
 21
412.848954019253
 31
0.0
  0
LINE
  5
726
330
17
100
AcDbEntity
  8
STEMPEL
100
AcDbLine
 10
324.628630803295
 20
407.7675383062951
 30
0.0
 11
324.628630803295
 21
405.7675383062951
 31
0.0
  0
LINE
  5
727
102
{ACAD_REACTORS
330
1151
102
}
330
17
100
AcDbEntity
  8
STEMPEL
100
AcDbLine
 10
324.628630803295
 20
412.8489540192529
 30
0.0
 11
324.628630803295
 21
409.8489540192529
 31
0.0
  0
LINE
  5
729
330
17
100
AcDbEntity
  8
STEMPEL
100
AcDbLine
 10
308.628630803295
 20
426.7675383062951
 30
0.0
 11
309.7667558982139
 21
432.6226843340359
 31
0.0
  0
LINE
  5
72A
102
{ACAD_REACTORS
330
1151
102
}
330
17
100
AcDbEntity
  8
STEMPEL
100
AcDbLine
 10
310.628630803295
 20
426.5749602098999
 30
0.0
 11
311.7300102651093
 21
432.2410663432828
 31
0.0
  0
LINE
  5
72B
102
{ACAD_REACTORS
330
1151
102
}
330
17
100
AcDbEntity
  8
STEMPEL
100
AcDbLine
 10
313.628630803295
 20
426.2860930653074
 30
0.0
 11
314.6748918154522
 21
431.6686393571532
 31
0.0
  0
LINE
  5
732
330
17
100
AcDbEntity
  8
STEMPEL
100
AcDbLine
 10
308.628630803295
 20
426.7675383062951
 30
0.0
 11
308.628630803295
 21
422.7675383062951
 31
0.0
  0
LINE
  5
733
102
{ACAD_REACTORS
330
1151
102
}
330
17
100
AcDbEntity
  8
STEMPEL
100
AcDbLine
 10
310.628630803295
 20
426.5749602098999
 30
0.0
 11
310.628630803295
 21
423.3034366911573
 31
0.0
  0
LINE
  5
734
102
{ACAD_REACTORS
330
1151
102
}
330
17
100
AcDbEntity
  8
STEMPEL
100
AcDbLine
 10
313.628630803295
 20
426.2860930653074
 30
0.0
 11
313.628630803295
 21
424.1072842684507
 31
0.0
  0
ARC
  5
73E
330
17
100
AcDbEntity
  8
STEMPEL
100
AcDbCircle
 10
316.29111806526
 20
426.8969900829351
 30
0.0
 40
2.499999999999928
100
AcDbArc
 50
61.94621637939599
 51
133.262461155386
  0
ARC
  5
73F
330
17
100
AcDbEntity
  8
STEMPEL
100
AcDbCircle
 10
317.2326768111161
 20
430.6954749135953
 30
0.0
 40
2.0
100
AcDbArc
 50
314.788508703245
 51
354.9999999999999
  0
ARC
  5
740
330
17
100
AcDbEntity
  8
STEMPEL
100
AcDbCircle
 10
317.9371686947179
 20
429.9857628692146
 30
0.0
 40
1.0
100
AcDbArc
 50
241.9462163793961
 51
314.7885087032456
  0
LINE
  5
741
330
17
100
AcDbEntity
  8
STEMPEL
100
AcDbLine
 10
316.29111806526
 20
429.3969900829351
 30
0.0
 11
318.7538399005134
 21
429.3969900829351
 31
0.0
  0
LINE
  5
742
330
17
100
AcDbEntity
  8
STEMPEL
100
AcDbLine
 10
313.9945709658221
 20
428.1686919980399
 30
0.0
 11
314.5777645997498
 21
428.717544916557
 31
0.0
  0
LINE
  5
743
330
17
100
AcDbEntity
  8
STEMPEL
100
AcDbLine
 10
331.8372145596254
 20
417.5016576639191
 30
0.0
 11
329.4953424358387
 21
430.7830744634203
 31
0.0
  0
LINE
  5
744
102
{ACAD_REACTORS
330
112C
102
}
330
17
100
AcDbEntity
  8
STEMPEL
100
AcDbLine
 10
322.128630803295
 20
417.848954019253
 30
0.0
 11
324.128630803295
 21
417.848954019253
 31
0.0
  0
ARC
  5
745
330
17
100
AcDbEntity
  8
STEMPEL
100
AcDbCircle
 10
333.8068300656496
 20
417.848954019253
 30
0.0
 40
2.0
100
AcDbArc
 50
189.9999999999995
 51
270.0
  0
ARC
  5
746
330
17
100
AcDbEntity
  8
STEMPEL
100
AcDbCircle
 10
327.0333230533083
 20
430.3489540192529
 30
0.0
 40
2.5
100
AcDbArc
 50
9.999999999999989
 51
90.0
  0
ARC
  5
747
330
17
100
AcDbEntity
  8
STEMPEL
100
AcDbCircle
 10
322.1362704783819
 20
440.8489540192531
 30
0.0
 40
2.0
100
AcDbArc
 50
90.0
 51
174.9999999999993
  0
ARC
  5
748
330
17
100
AcDbEntity
  8
STEMPEL
100
AcDbCircle
 10
324.1209911282085
 20
440.8489540192531
 30
0.0
 40
2.0
100
AcDbArc
 50
5.000000000000045
 51
90.0
  0
LINE
  5
749
102
{ACAD_REACTORS
330
112C
102
}
330
17
100
AcDbEntity
  8
STEMPEL
100
AcDbLine
 10
322.128630803295
 20
440.848954019253
 30
0.0
 11
324.128630803295
 21
440.848954019253
 31
0.0
  0
LINE
  5
74A
330
17
100
AcDbEntity
  8
BEM
 62
     1
100
AcDbLine
 10
371.653540202117
 20
494.8807333314526
 30
0.0
 11
366.053540202117
 21
494.8807333314526
 31
0.0
  0
LINE
  5
74B
330
17
100
AcDbEntity
  8
BEM
 62
     1
100
AcDbLine
 10
366.053540202117
 20
500.4807333314527
 30
0.0
 11
371.653540202117
 21
500.4807333314527
 31
0.0
  0
LINE
  5
74C
330
17
100
AcDbEntity
  8
BEM
 62
     1
100
AcDbLine
 10
366.053540202117
 20
494.8807333314526
 30
0.0
 11
366.053540202117
 21
500.4807333314527
 31
0.0
  0
LINE
  5
74D
330
17
100
AcDbEntity
  8
BEM
 62
     1
100
AcDbLine
 10
371.653540202117
 20
500.4807333314527
 30
0.0
 11
371.653540202117
 21
494.8807333314526
 31
0.0
  0
LINE
  5
74F
330
17
100
AcDbEntity
  8
HILF
100
AcDbLine
 10
840.0
 20
-0.0000000000001137
 30
0.0
 11
839.9999999999998
 21
594.0
 31
0.0
  0
LINE
  5
750
330
17
100
AcDbEntity
  8
STEMPEL
100
AcDbLine
 10
830.0
 20
110.0
 30
0.0
 11
830.0
 21
584.0
 31
0.0
  0
TEXT
  5
754
330
17
100
AcDbEntity
  8
TEXT
100
AcDbText
 10
655.1296391125315
 20
62.13257460422962
 30
0.0
 40
5.0
  1
Wärmedämmung und Heizung
 41
0.75
  7
GREEKS
100
AcDbText
  0
TEXT
  5
755
330
17
100
AcDbEntity
  8
TEXT
100
AcDbText
 10
654.8779403809009
 20
102.5489328011779
 30
0.0
 40
5.0
  1
Benennung
 41
0.8
  7
GREEKS
100
AcDbText
  0
TEXT
  5
756
330
17
100
AcDbEntity
  8
TEXT
100
AcDbText
 10
654.7422383911359
 20
30.84560570193057
 30
0.0
 40
5.0
  1
Bauvorhaben
 41
0.8
  7
GREEKS
100
AcDbText
  0
LINE
  5
757
330
17
100
AcDbEntity
  8
STEMPEL
100
AcDbLine
 10
479.9999999999998
 20
10.0
 30
0.0
 11
830.0
 21
10.0
 31
0.0
  0
LINE
  5
758
330
17
100
AcDbEntity
  8
HILF
100
AcDbLine
 10
653.4909699289885
 20
14.89398258028314
 30
0.0
 11
824.8588839326728
 21
14.89398258028314
 31
0.0
  0
LINE
  5
759
330
17
100
AcDbEntity
  8
HILF
100
AcDbLine
 10
654.7736801096947
 20
49.99999999999997
 30
0.0
 11
744.8353916556309
 21
49.99999999999997
 31
0.0
  0
LINE
  5
75A
330
17
100
AcDbEntity
  8
HILF
100
AcDbLine
 10
654.7736801096947
 20
59.99999999999997
 30
0.0
 11
744.8353916556309
 21
59.99999999999997
 31
0.0
  0
LINE
  5
75B
330
17
100
AcDbEntity
  8
HILF
100
AcDbLine
 10
654.7736801096947
 20
69.99999999999994
 30
0.0
 11
744.8353916556309
 21
69.99999999999994
 31
0.0
  0
LINE
  5
75C
330
17
100
AcDbEntity
  8
HILF
100
AcDbLine
 10
654.7736801096947
 20
84.03758247564139
 30
0.0
 11
744.835391655631
 21
84.03758247564139
 31
0.0
  0
LINE
  5
75D
330
17
100
AcDbEntity
  8
STEMPEL
100
AcDbLine
 10
830.0
 20
80.0
 30
0.0
 11
566.0000000000001
 21
79.99999999999994
 31
0.0
  0
LINE
  5
75E
330
17
100
AcDbEntity
  8
STEMPEL
100
AcDbLine
 10
830.0
 20
40.0
 30
0.0
 11
566.0000000000001
 21
39.99999999999997
 31
0.0
  0
LINE
  5
75F
330
17
100
AcDbEntity
  8
STEMPEL
100
AcDbLine
 10
830.0
 20
110.0
 30
0.0
 11
470.0
 21
110.0
 31
0.0
  0
TEXT
  5
760
330
17
100
AcDbEntity
  8
TEXT
 62
     1
100
AcDbText
 10
655.3728834634153
 20
87.41748789253779
 30
0.0
 40
7.0
  1
Flachdachablauf DN100
 41
0.75
  7
GREEKS
100
AcDbText
  0
TEXT
  5
761
330
17
100
AcDbEntity
  8
TEXT
100
AcDbText
 10
655.1296391125315
 20
71.50334417585288
 30
0.0
 40
5.0
  1
Grundeinheit, seitlich mit
 41
0.8
  7
GREEKS
100
AcDbText
  0
TEXT
  5
762
330
17
100
AcDbEntity
  8
TEXT
100
AcDbText
 10
655.1296391125315
 20
51.64011943042158
 30
0.0
 40
5.0
  1
EDV-Art.Nr. 17501.100A
 41
0.8
  7
GREEKS
100
AcDbText
  0
TEXT
  5
763
330
17
100
AcDbEntity
  8
TEXT
100
AcDbText
 10
654.9837501577826
 20
42.62974153022632
 30
0.0
 40
4.0
  1
17501100AB.DWG
 41
0.8
  7
GREEKS
100
AcDbText
  0
TEXT
  5
764
330
17
100
AcDbEntity
  8
TEXT
100
AcDbText
 10
549.0907332233425
 20
18.59324216966408
 30
0.0
 40
4.0
  1
Name
 41
0.8
 72
     1
 11
555.414542747152
 21
18.59324216966408
 31
0.0
100
AcDbText
  0
LINE
  5
765
330
17
100
AcDbEntity
  8
HILF
100
AcDbLine
 10
470.0000000000001
 20
39.99999999999997
 30
0.0
 11
566.0000000000001
 21
39.99999999999997
 31
0.0
  0
LINE
  5
766
330
17
100
AcDbEntity
  8
HILF
100
AcDbLine
 10
470.0000000000001
 20
49.99999999999997
 30
0.0
 11
566.0000000000001
 21
49.99999999999997
 31
0.0
  0
LINE
  5
767
330
17
100
AcDbEntity
  8
HILF
100
AcDbLine
 10
470.0000000000001
 20
59.99999999999997
 30
0.0
 11
566.0000000000001
 21
59.99999999999997
 31
0.0
  0
LINE
  5
768
330
17
100
AcDbEntity
  8
HILF
100
AcDbLine
 10
470.0000000000001
 20
69.99999999999994
 30
0.0
 11
566.0000000000001
 21
69.99999999999994
 31
0.0
  0
LINE
  5
769
330
17
100
AcDbEntity
  8
HILF
100
AcDbLine
 10
470.0000000000001
 20
79.99999999999994
 30
0.0
 11
566.0000000000001
 21
79.99999999999994
 31
0.0
  0
LINE
  5
76A
330
17
100
AcDbEntity
  8
HILF
100
AcDbLine
 10
470.0000000000001
 20
90.00000000000005
 30
0.0
 11
566.0000000000001
 21
90.00000000000005
 31
0.0
  0
LINE
  5
76B
330
17
100
AcDbEntity
  8
HILF
100
AcDbLine
 10
470.0000000000001
 20
100.0
 30
0.0
 11
566.0000000000001
 21
100.0
 31
0.0
  0
LINE
  5
76C
330
17
100
AcDbEntity
  8
STEMPEL
100
AcDbLine
 10
565.9999999999999
 20
29.99999999999997
 30
0.0
 11
470.0
 21
29.99999999999997
 31
0.0
  0
LINE
  5
76D
330
17
100
AcDbEntity
  8
VOLL
100
AcDbLine
 10
544.0000000000001
 20
109.9999999999999
 30
0.0
 11
544.0
 21
9.999999999999971
 31
0.0
  0
LINE
  5
76E
330
17
100
AcDbEntity
  8
VOLL
100
AcDbLine
 10
524.0000000000001
 20
109.9999999999999
 30
0.0
 11
524.0
 21
9.999999999999971
 31
0.0
  0
TEXT
  5
76F
330
17
100
AcDbEntity
  8
TEXT
100
AcDbText
 10
529.7359040559697
 20
18.6715626933981
 30
0.0
 40
4.0
  1
Tag
 41
0.8
 72
     1
 11
533.469237389303
 21
18.6715626933981
 31
0.0
100
AcDbText
  0
LINE
  5
770
330
17
100
AcDbEntity
  8
STEMPEL
100
AcDbLine
 10
470.0
 20
10.0
 30
0.0
 11
470.0
 21
110.0
 31
0.0
  0
LINE
  5
771
330
17
100
AcDbEntity
  8
VOLL
100
AcDbLine
 10
484.0000000000001
 20
110.0
 30
0.0
 11
484.0
 21
9.999999999999971
 31
0.0
  0
TEXT
  5
772
330
17
100
AcDbEntity
  8
TEXT
100
AcDbText
 10
478.2664110704575
 20
13.65465846027192
 30
0.0
 40
4.0
  1
Index
 50
90.0
 41
0.8
  7
GREEKS
100
AcDbText
  0
TEXT
  5
773
330
17
100
AcDbEntity
  8
TEXT
100
AcDbText
 10
491.9308479143396
 20
18.67381894984132
 30
0.0
 40
4.0
  1
Änderung
 41
0.8
 72
     1
 11
502.6737050571967
 21
18.67381894984132
 31
0.0
100
AcDbText
  0
LINE
  5
774
330
17
100
AcDbEntity
  8
HILF
 62
     7
100
AcDbLine
 10
460.0
 20
-0.0000000000002824
 30
0.0
 11
460.0
 21
10.0
 31
0.0
  0
INSERT
  5
775
330
17
100
AcDbEntity
  8
STEMPEL
100
AcDbBlockReference
  2
LOGO
 10
570.9955485457794
 20
45.02105276448322
 30
0.0
 41
2.0
 42
2.0
 43
2.0
  0
LINE
  5
776
330
17
100
AcDbEntity
  8
STEMPEL
100
AcDbLine
 10
566.0000000000001
 20
109.9999999999999
 30
0.0
 11
566.0
 21
9.999999999999971
 31
0.0
  0
LINE
  5
777
330
17
100
AcDbEntity
  8
STEMPEL
100
AcDbLine
 10
650.0
 20
110.0
 30
0.0
 11
650.0
 21
9.999999999999971
 31
0.0
  0
TEXT
  5
778
330
17
100
AcDbEntity
  8
TEXT
100
AcDbText
 10
614.2858954734052
 20
102.4184168434819
 30
0.0
 40
5.0
  1
Zul. Abw.
 41
0.8
  7
GREEKS
100
AcDbText
  0
LINE
  5
779
330
17
100
AcDbEntity
  8
HILF
100
AcDbLine
 10
566.0000000000001
 20
49.99999999999997
 30
0.0
 11
650.0
 21
49.99999999999997
 31
0.0
  0
LINE
  5
77A
330
17
100
AcDbEntity
  8
HILF
100
AcDbLine
 10
566.0000000000001
 20
59.99999999999997
 30
0.0
 11
650.0
 21
59.99999999999997
 31
0.0
  0
LINE
  5
77B
330
17
100
AcDbEntity
  8
HILF
100
AcDbLine
 10
566.0000000000001
 20
69.99999999999994
 30
0.0
 11
650.0
 21
69.99999999999994
 31
0.0
  0
LINE
  5
77C
330
17
100
AcDbEntity
  8
VOLL
100
AcDbLine
 10
584.0000000000001
 20
79.99999999999994
 30
0.0
 11
584.0000000000001
 21
39.99999999999997
 31
0.0
  0
TEXT
  5
77D
330
17
100
AcDbEntity
  8
TEXT
100
AcDbText
 10
567.5836127167615
 20
63.62990369617964
 30
0.0
 40
4.0
  1
Gez.
 41
0.8
  7
GREEKS
100
AcDbText
  0
LINE
  5
77E
330
17
100
AcDbEntity
  8
VOLL
100
AcDbLine
 10
610.0000000000001
 20
109.9999999999998
 30
0.0
 11
610.0
 21
39.99999999999997
 31
0.0
  0
TEXT
  5
77F
330
17
100
AcDbEntity
  8
TEXT
100
AcDbText
 10
590.703759012998
 20
63.10765040825732
 30
0.0
 40
4.0
  1
15.04.
 41
0.8
  7
GREEKS
 72
     1
 11
597.4085209177599
 21
63.10765040825732
 31
0.0
100
AcDbText
  0
TEXT
  5
780
330
17
100
AcDbEntity
  8
TEXT
100
AcDbText
 10
567.6006777387303
 20
43.52946389649807
 30
0.0
 40
4.0
  1
Norm.
 41
0.8
  7
GREEKS
100
AcDbText
  0
TEXT
  5
781
330
17
100
AcDbEntity
  8
TEXT
100
AcDbText
 10
567.5515086571672
 20
53.68926291428377
 30
0.0
 40
4.0
  1
Gepr.
 41
0.8
  7
GREEKS
100
AcDbText
  0
TEXT
  5
782
330
17
100
AcDbEntity
  8
TEXT
100
AcDbText
 10
573.5163572150376
 20
102.4620895087088
 30
0.0
 40
5.0
  1
Maßstab
 41
0.8
  7
GREEKS
100
AcDbText
  0
TEXT
  5
783
330
17
100
AcDbEntity
  8
TEXT
 62
     1
100
AcDbText
 10
580.5006306481886
 20
88.14901428913959
 30
0.0
 40
7.0
  1
1:2
 41
0.8
  7
GREEKS
100
AcDbText
  0
TEXT
  5
784
330
17
100
AcDbEntity
  8
TEXT
100
AcDbText
 10
568.6221098221039
 20
73.14025471151666
 30
0.0
 40
4.0
  1
2008
 41
0.8
  7
GREEKS
100
AcDbText
  0
TEXT
  5
785
330
17
100
AcDbEntity
  8
TEXT
100
AcDbText
 10
592.3311673153651
 20
73.31880501229926
 30
0.0
 40
4.0
  1
Tag
 41
0.8
  7
GREEKS
100
AcDbText
  0
TEXT
  5
786
330
17
100
AcDbEntity
  8
TEXT
100
AcDbText
 10
624.4216048581257
 20
63.0896391972351
 30
0.0
 40
4.0
  1
Koeh
 41
0.8
  7
GREEKS
 72
     1
 11
629.6787477152686
 21
63.0896391972351
 31
0.0
100
AcDbText
  0
TEXT
  5
787
330
17
100
AcDbEntity
  8
TEXT
100
AcDbText
 10
622.4626584226294
 20
73.30961091915225
 30
0.0
 40
4.0
  1
Name
 41
0.8
  7
GREEKS
100
AcDbText
  0
TEXT
  5
78C
330
17
100
AcDbEntity
  8
TEXT
100
AcDbText
 10
471.8550995097768
 20
111.6719999999999
 30
0.0
 40
5.0
  1
Erstellt mit AUTOCAD 2004
 41
0.8
  7
GREEKS
100
AcDbText
  0
LINE
  5
806
330
17
100
AcDbEntity
  8
HILF
100
AcDbLine
 10
756.7238616296992
 20
83.77983636955827
 30
0.0
 11
824.8588839326728
 21
83.77983636955827
 31
0.0
  0
LINE
  5
807
330
17
100
AcDbEntity
  8
VOLL
100
AcDbLine
 10
752.0
 20
60.0
 30
0.0
 11
830.0
 21
60.0
 31
0.0
  0
LINE
  5
808
330
17
100
AcDbEntity
  8
STEMPEL
100
AcDbLine
 10
752.0
 20
109.9999999999997
 30
0.0
 11
752.0
 21
40.0
 31
0.0
  0
TEXT
  5
809
330
17
100
AcDbEntity
  8
TEXT
100
AcDbText
 10
757.2400861497006
 20
52.07416177878602
 30
0.0
 40
5.0
  1
ersetzt durch:
 41
0.8
  7
GREEKS
100
AcDbText
  0
TEXT
  5
80A
330
17
100
AcDbEntity
  8
TEXT
100
AcDbText
 10
756.178754957634
 20
102.3132034537136
 30
0.0
 40
5.0
  1
Zeichnungs Nr.
 41
0.8
  7
GREEKS
100
AcDbText
  0
TEXT
  5
80B
330
17
100
AcDbEntity
  8
TEXT
100
AcDbText
 10
756.7238616296992
 20
73.1811823709997
 30
0.0
 40
5.0
  1
Ersatz für:
 41
0.8
  7
GREEKS
100
AcDbText
  0
TEXT
  5
80C
330
17
100
AcDbEntity
  8
TEXT
 62
     1
100
AcDbText
 10
766.650974698665
 20
87.41748789253779
 30
0.0
 40
7.0
  1
17501100A
 41
0.8
  7
GREEKS
 72
     1
 11
788.5176413653318
 21
87.41748789253779
 31
0.0
100
AcDbText
  0
LINE
  5
80D
330
17
100
AcDbEntity
  8
STEMPEL
100
AcDbLine
 10
830.0
 20
110.0
 30
0.0
 11
830.0
 21
10.0
 31
0.0
  0
LINE
  5
80E
330
17
100
AcDbEntity
  8
TEXT
 62
     2
100
AcDbLine
 10
676.761565087339
 20
487.0024799100136
 30
0.0
 11
630.6220320777057
 21
443.0851779411549
 31
0.0
  0
LINE
  5
815
330
17
100
AcDbEntity
  8
STEMPEL
100
AcDbLine
 10
547.128630803295
 20
439.7675383062951
 30
0.0
 11
460.3802688090622
 21
439.7675383062952
 31
0.0
  0
LINE
  5
816
102
{ACAD_REACTORS
330
1151
102
}
330
17
100
AcDbEntity
  8
STEMPEL
100
AcDbLine
 10
460.3802688090622
 20
441.7675383062951
 30
0.0
 11
632.1286308032949
 21
441.7675383062951
 31
0.0
  0
LINE
  5
821
330
17
100
AcDbEntity
  8
STEMPEL
100
AcDbLine
 10
438.1438810821983
 20
441.0232655047485
 30
0.0
 11
437.4287214950877
 21
432.8489540192529
 31
0.0
  0
LINE
  5
822
330
17
100
AcDbEntity
  8
STEMPEL
100
AcDbLine
 10
444.1133805243921
 20
441.0232655047485
 30
0.0
 11
445.0321953992911
 21
430.5211634281
 31
0.0
  0
ARC
  5
823
102
{ACAD_REACTORS
330
1151
102
}
330
17
100
AcDbEntity
  8
STEMPEL
100
AcDbCircle
 10
460.3802688090622
 20
433.7675383062951
 30
0.0
 40
8.0
100
AcDbArc
 50
90.0
 51
191.0000000000002
  0
ARC
  5
824
330
17
100
AcDbEntity
  8
STEMPEL
100
AcDbCircle
 10
460.3802688090622
 20
433.7675383062951
 30
0.0
 40
6.0
100
AcDbArc
 50
90.0
 51
191.0
  0
LINE
  5
825
102
{ACAD_REACTORS
330
112C
102
}
330
17
100
AcDbEntity
  8
STEMPEL
100
AcDbLine
 10
442.1286308032954
 20
417.8489540192532
 30
0.0
 11
442.1286308032954
 21
440.8489540192531
 31
0.0
  0
LINE
  5
826
102
{ACAD_REACTORS
330
112C
102
}
330
17
100
AcDbEntity
  8
STEMPEL
100
AcDbLine
 10
440.1286308032954
 20
417.8489540192532
 30
0.0
 11
440.1286308032954
 21
440.8489540192531
 31
0.0
  0
ARC
  5
827
102
{ACAD_REACTORS
330
1151
102
}
330
17
100
AcDbEntity
  8
STEMPEL
100
AcDbCircle
 10
460.3802688090622
 20
433.7675383062951
 30
0.0
 40
11.0
100
AcDbArc
 50
90.0
 51
191.0000000000002
  0
ARC
  5
829
330
17
100
AcDbEntity
  8
STEMPEL
100
AcDbCircle
 10
437.2239385532825
 20
430.348954019253
 30
0.0
 40
2.5
100
AcDbArc
 50
90.00000000000012
 51
170.0000000000001
  0
LINE
  5
82C
330
17
100
AcDbEntity
  8
STEMPEL
100
AcDbLine
 10
436.6286308032954
 20
413.848954019253
 30
0.0
 11
438.360681610864
 21
412.8489540192531
 31
0.0
  0
LINE
  5
82D
330
17
100
AcDbEntity
  8
STEMPEL
100
AcDbLine
 10
430.1286308032954
 20
413.8489540192532
 30
0.0
 11
430.1286308032954
 21
415.8489540192531
 31
0.0
  0
LINE
  5
82E
330
17
100
AcDbEntity
  8
STEMPEL
100
AcDbLine
 10
432.420047046965
 20
417.5016576639192
 30
0.0
 11
434.7619191707517
 21
430.7830744634204
 31
0.0
  0
ARC
  5
82F
330
17
100
AcDbEntity
  8
STEMPEL
100
AcDbCircle
 10
430.4504315409408
 20
417.8489540192532
 30
0.0
 40
2.0
100
AcDbArc
 50
270.0
 51
350.0000000000006
  0
LINE
  5
831
102
{ACAD_REACTORS
330
1151
102
}
330
17
100
AcDbEntity
  8
STEMPEL
100
AcDbLine
 10
453.6286308032949
 20
423.3034366911573
 30
0.0
 11
446.391026496261
 21
410.7675383062951
 31
0.0
  0
LINE
  5
832
330
17
100
AcDbEntity
  8
STEMPEL
100
AcDbLine
 10
455.628630803295
 20
422.7675383062951
 30
0.0
 11
448.1230773038298
 21
409.7675383062951
 31
0.0
  0
LINE
  5
833
102
{ACAD_REACTORS
330
1151
102
}
330
17
100
AcDbEntity
  8
STEMPEL
100
AcDbLine
 10
444.128630803295
 20
412.8489540192529
 30
0.0
 11
450.6286308032949
 21
424.1072842684507
 31
0.0
  0
ARC
  5
83F
330
17
100
AcDbEntity
  8
STEMPEL
100
AcDbCircle
 10
441.1948740735542
 20
413.7675383062951
 30
0.0
 40
8.0
100
AcDbArc
 50
270.0
 51
330.0000000000001
  0
ARC
  5
840
102
{ACAD_REACTORS
330
1151
102
}
330
17
100
AcDbEntity
  8
STEMPEL
100
AcDbCircle
 10
441.1948740735542
 20
413.7675383062951
 30
0.0
 40
6.0
100
AcDbArc
 50
270.0
 51
330.0000000000001
  0
LINE
  5
842
330
17
100
AcDbEntity
  8
STEMPEL
100
AcDbLine
 10
439.628630803295
 20
407.7675383062951
 30
0.0
 11
439.628630803295
 21
405.7675383062951
 31
0.0
  0
LINE
  5
843
102
{ACAD_REACTORS
330
1151
102
}
330
17
100
AcDbEntity
  8
STEMPEL
100
AcDbLine
 10
439.628630803295
 20
412.8489540192529
 30
0.0
 11
439.628630803295
 21
409.8489540192529
 31
0.0
  0
LINE
  5
844
102
{ACAD_REACTORS
330
1151
102
}
330
17
100
AcDbEntity
  8
STEMPEL
100
AcDbLine
 10
453.6286308032949
 20
426.5749602098999
 30
0.0
 11
452.5272513414809
 21
432.2410663432828
 31
0.0
  0
LINE
  5
845
102
{ACAD_REACTORS
330
1151
102
}
330
17
100
AcDbEntity
  8
STEMPEL
100
AcDbLine
 10
450.6286308032949
 20
426.2860930653072
 30
0.0
 11
449.5823697911378
 21
431.6686393571532
 31
0.0
  0
LINE
  5
846
102
{ACAD_REACTORS
330
112C
102
}
330
17
100
AcDbEntity
  8
STEMPEL
100
AcDbLine
 10
442.1286308032954
 20
417.8489540192532
 30
0.0
 11
440.1286308032954
 21
417.8489540192532
 31
0.0
  0
LINE
  5
847
102
{ACAD_REACTORS
330
1151
102
}
330
17
100
AcDbEntity
  8
STEMPEL
100
AcDbLine
 10
450.6286308032949
 20
426.2860930653072
 30
0.0
 11
450.6286308032949
 21
424.1072842684507
 31
0.0
  0
LINE
  5
848
330
17
100
AcDbEntity
  8
STEMPEL
100
AcDbLine
 10
450.2626906407681
 20
428.1686919980399
 30
0.0
 11
449.6794970068406
 21
428.717544916557
 31
0.0
  0
ARC
  5
849
330
17
100
AcDbEntity
  8
STEMPEL
100
AcDbCircle
 10
447.9661435413301
 20
426.8969900829351
 30
0.0
 40
2.499999999999928
100
AcDbArc
 50
46.73753884461084
 51
118.053783620604
  0
ARC
  5
84A
330
17
100
AcDbEntity
  8
STEMPEL
100
AcDbCircle
 10
446.3200929118722
 20
429.9857628692146
 30
0.0
 40
1.0
100
AcDbArc
 50
225.2114912967544
 51
298.0537836206039
  0
LINE
  5
84B
330
17
100
AcDbEntity
  8
STEMPEL
100
AcDbLine
 10
447.9661435413301
 20
429.3969900829351
 30
0.0
 11
445.5034217060765
 21
429.3969900829351
 31
0.0
  0
ARC
  5
84C
330
17
100
AcDbEntity
  8
STEMPEL
100
AcDbCircle
 10
447.0245847954743
 20
430.6954749135953
 30
0.0
 40
2.0
100
AcDbArc
 50
184.9999999999997
 51
225.2114912967544
  0
LINE
  5
84D
330
17
100
AcDbEntity
  8
STEMPEL
100
AcDbLine
 10
455.628630803295
 20
426.7675383062951
 30
0.0
 11
454.4905057083763
 21
432.6226843340359
 31
0.0
  0
LINE
  5
84F
330
17
100
AcDbEntity
  8
STEMPEL
100
AcDbLine
 10
455.628630803295
 20
426.7675383062951
 30
0.0
 11
455.628630803295
 21
422.7675383062951
 31
0.0
  0
LINE
  5
850
102
{ACAD_REACTORS
330
1151
102
}
330
17
100
AcDbEntity
  8
STEMPEL
100
AcDbLine
 10
453.6286308032949
 20
426.5749602098999
 30
0.0
 11
453.6286308032949
 21
423.3034366911573
 31
0.0
  0
ARC
  5
851
330
17
100
AcDbEntity
  8
STEMPEL
100
AcDbCircle
 10
440.1362704783819
 20
440.8489540192531
 30
0.0
 40
2.0
100
AcDbArc
 50
90.00000000000012
 51
175.0000000000002
  0
ARC
  5
852
330
17
100
AcDbEntity
  8
STEMPEL
100
AcDbCircle
 10
442.1209911282089
 20
440.8489540192531
 30
0.0
 40
2.0
100
AcDbArc
 50
4.999999999999742
 51
90.00000000000161
  0
LINE
  5
853
102
{ACAD_REACTORS
330
112C
102
}
330
17
100
AcDbEntity
  8
STEMPEL
100
AcDbLine
 10
442.1286308032954
 20
440.8489540192531
 30
0.0
 11
440.1286308032954
 21
440.8489540192531
 31
0.0
  0
LINE
  5
894
330
17
100
AcDbEntity
  8
STEMPEL
100
AcDbLine
 10
547.128630803295
 20
441.7675383062951
 30
0.0
 11
547.128630803295
 21
439.7675383062951
 31
0.0
  0
LINE
  5
896
102
{ACAD_REACTORS
330
1151
102
}
330
17
100
AcDbEntity
  8
STEMPEL
100
AcDbLine
 10
632.1286308032949
 20
444.767538306295
 30
0.0
 11
632.1286308032949
 21
441.7675383062951
 31
0.0
  0
LINE
  5
897
330
17
100
AcDbEntity
  8
BEM
 62
     0
100
AcDbLine
 10
634.1286308032949
 20
441.7675383062951
 30
0.0
 11
664.7472116419649
 21
441.7675383062951
 31
0.0
  0
LINE
  5
898
330
17
100
AcDbEntity
  8
HILF
 62
     7
100
AcDbLine
 10
459.9999999999998
 20
584.0
 30
0.0
 11
459.9999999999998
 21
593.9999999999998
 31
0.0
  0
TEXT
  5
899
330
17
100
AcDbEntity
  8
TEXT
 62
     1
100
AcDbText
 10
679.1581315594539
 20
477.4810938699961
 30
0.0
 40
7.0
  1
EDV-Art.Nr. 17000.100A
 41
0.8
  7
GREEKS
100
AcDbText
  0
TEXT
  5
89A
330
17
100
AcDbEntity
  8
TEXT
 62
     1
100
AcDbText
 10
679.2565130820914
 20
490.7254332098199
 30
0.0
 40
7.0
  1
Anschlußmanschette DN100
 41
0.8
  7
GREEKS
100
AcDbText
  0
LINE
  5
89B
330
17
100
AcDbEntity
  8
TEXT
 62
     2
100
AcDbLine
 10
676.761565087339
 20
487.0024799100136
 30
0.0
 11
800.8526898430051
 21
487.0024799100136
 31
0.0
  0
TEXT
  5
89C
330
17
100
AcDbEntity
  8
TEXT
100
AcDbText
 10
612.8583279223899
 20
88.49781547544106
 30
0.0
 40
4.0
  1
DIN EN1123-2
 41
0.8
  7
GREEKS
100
AcDbText
  0
TEXT
  5
8A5
330
17
100
AcDbEntity
  8
TEXT
100
AcDbText
 10
836.5811541437437
 20
12.14804815338303
 30
0.0
 40
4.0
  1
Diese Zeichnung ist urheberrechtlich geschützt und bleibt unser Eigentum. Sie darf weder ganz noch teilweise vervielfältigt und nicht an Dritte weitergegeben werden.
 50
90.0
 41
0.8
  7
GREEKS
100
AcDbText
  0
DIMENSION
  5
FA2
330
17
100
AcDbEntity
  8
BEM
100
AcDbDimension
  2
*D2
 10
632.1286308032949
 20
492.577295564972
 30
0.0
 11
382.128630803295
 21
499.077295564972
 31
0.0
 70
    32
  1
 <>
 71
     5
 42
499.9999999999999
  3
STANDARD
100
AcDbAlignedDimension
 13
132.1286308032951
 23
444.7675383062952
 33
0.0
 14
632.1286308032949
 24
444.7675383062952
 34
0.0
100
AcDbRotatedDimension
  0
TEXT
  5
10BD
330
17
100
AcDbEntity
  8
TEXT
 62
     1
100
AcDbText
 10
562.9889331122037
 20
357.962339918775
 30
0.0
 40
7.0
  1
DN100
 50
358.0
 41
0.8
  7
GREEKS
100
AcDbText
  0
HATCH
  5
111D
330
17
100
AcDbEntity
  8
SCHRAFF
100
AcDbHatch
 10
0.0
 20
0.0
 30
0.0
210
0.0
220
0.0
230
1.0
  2
_USER
 70
     0
 71
     0
 91
        2
 92
        7
 72
     1
 73
     1
 93
       16
 10
547.128630803295
 20
439.767538306295
 42
0.0
 10
547.1286308032951
 20
441.7675383062951
 42
0.0
 10
460.3802688090622
 20
441.7675383062951
 42
0.4716306187712197
 10
452.5272513414809
 20
432.2410663432828
 42
0.0
 10
453.6286308032948
 20
426.5749602099001
 42
0.0
 10
453.6286308032949
 20
423.3034366911573
 42
0.0
 10
446.391026496261
 20
410.7675383062951
 42
-0.2679491924311265
 10
441.1948740735542
 20
407.7675383062952
 42
0.0
 10
439.6286308032949
 20
407.7675383062952
 42
0.0
 10
439.6286308032951
 20
405.7675383062951
 42
0.0
 10
441.1948740735542
 20
405.7675383062951
 42
0.2679491924311237
 10
448.1230773038298
 20
409.7675383062951
 42
0.0
 10
455.628630803295
 20
422.7675383062951
 42
0.0
 10
455.628630803295
 20
426.7675383062952
 42
0.0
 10
454.4905057083763
 20
432.6226843340359
 42
-0.4716306187712213
 10
460.3802688090622
 20
439.7675383062952
 42
0.0
 97
        0
 92
        7
 72
     1
 73
     1
 93
       17
 10
303.8769927975277
 20
439.7675383062952
 42
-0.4716306187712328
 10
309.7667558982139
 20
432.6226843340359
 42
0.0
 10
308.628630803295
 20
426.767538306295
 42
0.0
 10
308.628630803295
 20
422.767538306295
 42
0.0
 10
316.1341843027603
 20
409.7675383062951
 42
0.2701822080978109
 10
323.1290192917689
 20
405.7678157980622
 42
0.0
 10
323.1286308032949
 20
405.767538306295
 42
0.0
 10
324.628630803295
 20
405.767538306295
 42
0.0
 10
324.628630803295
 20
407.7675383062952
 42
0.0
 10
323.0623875330357
 20
407.7675383062951
 42
-0.267949192431128
 10
317.866235110329
 20
410.7675383062951
 42
0.0
 10
310.628630803295
 20
423.3034366911573
 42
0.0
 10
310.628630803295
 20
426.5749602099001
 42
0.0
 10
311.7300102651093
 20
432.2410663432828
 42
0.4716306187712282
 10
303.8769927975277
 20
441.7675383062951
 42
0.0
 10
217.128630803295
 20
441.7675383062951
 42
0.0
 10
217.1286308032951
 20
439.767538306295
 42
0.0
 97
        0
 75
     0
 76
     0
 52
45.0
 41
2.0
 77
     0
 78
     1
 53
45.0
 43
0.0
 44
0.0
 45
-1.414213562373094
 46
1.414213562373095
 79
     0
 47
0.5685203422855506
 98
        2
 10
532.9338189205823
 20
440.633241234276
 10
269.5499769025237
 20
440.633241234276
  0
HATCH
  5
112C
330
17
100
AcDbEntity
  8
SCHRAFF
100
AcDbHatch
 10
0.0
 20
0.0
 30
0.0
210
0.0
220
0.0
230
1.0
  2
_USER
 70
     0
 71
     1
 91
        2
 92
        7
 72
     0
 73
     1
 93
        4
 10
440.1286308032954
 20
417.8489540192532
 10
442.1286308032954
 20
417.8489540192532
 10
442.1286308032954
 20
440.8489540192531
 10
440.1286308032954
 20
440.8489540192531
 97
        4
330
853
330
826
330
846
330
825
 92
        7
 72
     0
 73
     1
 93
        4
 10
324.128630803295
 20
440.848954019253
 10
322.128630803295
 20
440.8489540192529
 10
322.128630803295
 20
417.848954019253
 10
324.1286308032949
 20
417.848954019253
 97
        4
330
749
330
6E8
330
744
330
6E7
 75
     0
 76
     0
 52
45.0
 41
2.0
 77
     0
 78
     1
 53
45.0
 43
0.0
 44
0.0
 45
-1.414213562373094
 46
1.414213562373095
 79
     0
 47
0.5685203422855506
 98
        2
 10
440.7779178236278
 20
432.1054358629797
 10
323.5920176045925
 20
427.5572729049827
  0
HATCH
  5
1151
330
17
100
AcDbEntity
  8
SCHRAFF
100
AcDbHatch
 10
0.0
 20
0.0
 30
0.0
210
0.0
220
0.0
230
1.0
  2
NET
 70
     0
 71
     1
 91
        2
 92
        7
 72
     1
 73
     1
 93
       15
 10
460.3802688090622
 20
444.767538306295
 42
0.4716306187712198
 10
449.5823697911378
 20
431.6686393571532
 42
0.0
 10
450.6286308032949
 20
426.2860930653075
 42
0.0
 10
450.6286308032949
 20
424.1072842684507
 42
0.0
 10
444.128630803295
 20
412.8489540192529
 42
0.0
 10
439.628630803295
 20
412.8489540192529
 42
0.0
 10
439.6286308032949
 20
409.8489540192529
 42
0.0
 10
445.7385176759229
 20
409.8489540192529
 42
0.0470518403705455
 10
446.391026496261
 20
410.7675383062951
 42
0.0
 10
453.6286308032948
 20
423.3034366911574
 42
0.0
 10
453.6286308032949
 20
426.5749602099002
 42
0.0
 10
452.5272513414809
 20
432.2410663432828
 42
-0.4716306187712175
 10
460.3802688090622
 20
441.7675383062951
 42
0.0
 10
632.1286308032949
 20
441.7675383062951
 42
0.0
 10
632.1286308032949
 20
444.767538306295
 42
0.0
 97
       15
330
659
330
827
330
845
330
847
330
833
330
65A
330
843
330
65D
330
840
330
831
330
850
330
844
330
823
330
816
330
896
 92
        7
 72
     1
 73
     1
 93
       15
 10
132.1286308032951
 20
444.7675383062952
 42
0.0
 10
132.128630803295
 20
441.767538306295
 42
0.0
 10
303.8769927975277
 20
441.7675383062951
 42
-0.4716306187712282
 10
311.7300102651093
 20
432.2410663432828
 42
0.0
 10
310.628630803295
 20
426.5749602099001
 42
0.0
 10
310.628630803295
 20
423.3034366911573
 42
0.0
 10
317.866235110329
 20
410.7675383062951
 42
0.0470518403705428
 10
318.5187439306669
 20
409.8489540192529
 42
0.0
 10
324.628630803295
 20
409.8489540192529
 42
0.0
 10
324.628630803295
 20
412.8489540192529
 42
0.0
 10
320.128630803295
 20
412.848954019253
 42
0.0
 10
313.6286308032949
 20
424.1072842684512
 42
0.0
 10
313.628630803295
 20
426.2860930653076
 42
0.0
 10
314.6748918154522
 20
431.6686393571532
 42
0.4716306187712192
 10
303.8769927975279
 20
444.7675383062951
 42
0.0
 97
       15
330
659
330
6A6
330
6A2
330
6EB
330
72A
330
733
330
711
330
719
330
65D
330
727
330
65A
330
712
330
734
330
72B
330
6EC
 75
     0
 76
     1
 52
45.0
 41
10.0
 77
     0
 78
     2
 53
45.0
 43
0.0
 44
0.0
 45
-0.8838834764831842
 46
0.8838834764831844
 79
     0
 53
135.0
 43
0.0
 44
0.0
 45
-0.8838834764831844
 46
-0.8838834764831842
 79
     0
 47
0.5618839193545062
 98
        2
 10
526.5645371524315
 20
443.4846921453445
 10
261.195208924767
 20
443.4846921453445
  0
HATCH
  5
1188
330
17
100
AcDbEntity
  8
SCHRAFF
100
AcDbHatch
 10
0.0
 20
0.0
 30
0.0
210
0.0
220
0.0
230
1.0
  2
NET
 70
     0
 71
     0
 91
        4
 92
        7
 72
     1
 73
     1
 93
       20
 10
450.6286308032949
 20
424.1072842684507
 42
0.0
 10
450.628630803295
 20
426.2860930653069
 42
0.0
 10
450.2626906407678
 20
428.1686919980399
 42
0.0
 10
449.6794970068406
 20
428.717544916557
 42
0.321624465135632
 10
446.7903930917175
 20
429.1032563588491
 42
-0.3289877664941172
 10
445.6156010282704
 20
429.2760508248341
 42
-0.1772786318082581
 10
445.0321953992911
 20
430.5211634281
 42
0.0
 10
444.1133805243921
 20
441.0232655047485
 42
0.3888787318534093
 10
442.1209911282087
 20
442.8489540192565
 42
0.0
 10
440.1362704783818
 20
442.8489540192564
 42
0.3888787318529576
 10
438.1438810821985
 20
441.0232655047517
 42
0.0
 10
437.4279917123973
 20
432.8406125649321
 42
0.3872810292961061
 10
434.7619191707517
 20
430.7830744634204
 42
0.0
 10
432.420047046965
 20
417.5016576639192
 42
-0.36397023426618
 10
430.4504315409408
 20
415.8489540192531
 42
0.0
 10
430.1286308032953
 20
415.8489540192531
 42
0.0
 10
430.1286308032954
 20
413.848954019253
 42
0.0
 10
436.6286308032954
 20
413.848954019253
 42
0.0
 10
438.3606816108644
 20
412.8489540192529
 42
0.0
 10
444.128630803295
 20
412.848954019253
 42
0.0
 97
        0
 92
       22
 72
     0
 73
     1
 93
        4
 10
440.1286308032955
 20
440.8489540192531
 10
442.1286308032954
 20
440.848954019253
 10
442.1286308032954
 20
417.8489540192532
 10
440.1286308032954
 20
417.8489540192532
 97
        0
 92
        7
 72
     1
 73
     1
 93
       20
 10
329.4953424358387
 20
430.7830744634203
 42
0.3872810292960992
 10
326.8292698941931
 20
432.8406125649319
 42
0.0
 10
326.1133805243921
 20
441.0232655047484
 42
0.3888787318530051
 10
324.1209911282086
 20
442.8489540192531
 42
0.0
 10
322.1362704783819
 20
442.848954019253
 42
0.3888787318530029
 10
320.1438810821983
 20
441.0232655047484
 42
0.0
 10
319.2250662072993
 20
430.5211634281
 42
-0.1772786318082569
 10
318.6416605783203
 20
429.276050824834
 42
-0.3289877664942693
 10
317.4668685148728
 20
429.103256358849
 42
0.3216244651356022
 10
314.5777645997498
 20
428.717544916557
 42
0.0
 10
313.9945709658218
 20
428.1686919980398
 42
0.0
 10
313.628630803295
 20
426.2860930653073
 42
0.0
 10
313.628630803295
 20
424.1072842684513
 42
0.0
 10
320.128630803295
 20
412.8489540192529
 42
0.0
 10
325.8965799957262
 20
412.8489540192529
 42
0.0
 10
327.628630803295
 20
413.848954019253
 42
0.0
 10
334.128630803295
 20
413.848954019253
 42
0.0
 10
334.1286308032949
 20
415.8489540192531
 42
0.0
 10
333.8068300656496
 20
415.8489540192531
 42
-0.3639702342661728
 10
331.8372145596254
 20
417.5016576639192
 42
0.0
 97
        0
 92
       22
 72
     0
 73
     1
 93
        4
 10
324.128630803295
 20
417.848954019253
 10
322.128630803295
 20
417.848954019253
 10
322.128630803295
 20
440.8489540192529
 10
324.128630803295
 20
440.8489540192529
 97
        0
 75
     0
 76
     1
 52
45.0
 41
20.0
 77
     0
 78
     2
 53
45.0
 43
0.0
 44
0.0
 45
-1.767766952966368
 46
1.767766952966368
 79
     0
 53
135.0
 43
0.0
 44
0.0
 45
-1.767766952966368
 46
-1.767766952966368
 79
     0
 47
0.5618839193545062
 98
        4
 10
434.9221632870821
 20
419.885566770972
 10
434.9221632870821
 20
419.885566770972
 10
328.0997625034515
 20
419.885566770972
 10
328.0997625034515
 20
419.885566770972
  0
HATCH
  5
1345
330
17
100
AcDbEntity
  8
SCHRAFF
100
AcDbHatch
 10
0.0
 20
0.0
 30
0.0
210
0.0
220
0.0
230
1.0
  2
_USER
 70
     0
 71
     0
 91
        3
 92
        7
 72
     0
 73
     1
 93
        6
 10
433.128630803295
 20
386.4231664637896
 10
431.1286308032951
 20
384.5252373303599
 10
608.4679235708788
 20
375.2312788167857
 10
623.3786845492074
 20
373.1357080228435
 10
623.4837562913944
 20
375.1405962975302
 10
608.659797697572
 20
377.2239678118996
 97
        0
 92
        7
 72
     0
 73
     1
 93
        6
 10
382.128630803295
 20
288.9587286074326
 10
382.128630803295
 20
286.9559839154367
 10
603.3215301607922
 20
275.363755266933
 10
618.2820531811935
 20
275.8861882428044
 10
618.3871249233805
 20
277.8910765174911
 10
603.3389998590712
 20
277.3655844108373
 97
        0
 92
        7
 72
     0
 73
     1
 93
        4
 10
382.128630803295
 20
288.9587286074326
 10
333.1286308032952
 20
291.5267097923016
 10
331.1286308032951
 20
289.6287806588718
 10
382.128630803295
 20
286.9559839154367
 97
        0
 75
     1
 76
     0
 52
45.0
 41
2.0
 77
     0
 78
     1
 53
45.0
 43
17.27727101876081
 44
8.781028284323213
 45
-1.414213562373094
 46
1.414213562373095
 79
     0
 47
0.324238351223264
 98
        3
 10
454.9790914315643
 20
384.5830241507445
 10
430.9743397824557
 20
285.3660879990362
 10
372.2600198913727
 20
287.9599958295976
1001
GradientColor1ACI
1070
     5
1001
GradientColor2ACI
1070
     2
1001
ACAD
1010
0.0
1020
0.0
1030
0.0
  0
LINE
  5
1346
330
17
100
AcDbEntity
  8
STEMPEL
100
AcDbLine
 10
608.4679235708788
 20
375.2312788167857
 30
0.0
 11
623.3786845492074
 21
373.1357080228435
 31
0.0
  0
LINE
  5
1347
330
17
100
AcDbEntity
  8
STEMPEL
100
AcDbLine
 10
608.659797697572
 20
377.2239678118996
 30
0.0
 11
623.4837562913944
 21
375.1405962975302
 31
0.0
  0
ARC
  5
1348
102
{ACAD_REACTORS
330
1367
102
}
330
17
100
AcDbEntity
  8
SCHRAFF
100
AcDbCircle
 10
441.128630803295
 20
405.7675383062951
 30
0.0
 40
4.0
100
AcDbArc
 50
251.9771488048857
 51
14.0066406337022
  0
LINE
  5
1349
330
17
100
AcDbEntity
  8
STEMPEL
100
AcDbLine
 10
603.321530160792
 20
275.363755266933
 30
0.0
 11
618.2820531811935
 21
275.8861882428044
 31
0.0
  0
LINE
  5
134A
330
17
100
AcDbEntity
  8
STEMPEL
100
AcDbLine
 10
603.338999859071
 20
277.3655844108373
 30
0.0
 11
618.3871249233803
 21
277.8910765174911
 31
0.0
  0
LINE
  5
134B
330
17
100
AcDbEntity
  8
STEMPEL
100
AcDbLine
 10
618.2820531811935
 20
275.8861882428044
 30
0.0
 11
623.4837562913944
 21
375.1405962975302
 31
0.0
  0
LINE
  5
134C
330
17
100
AcDbEntity
  8
HILF
100
AcDbLine
 10
603.4440716012579
 20
279.370472685524
 30
0.0
 11
608.3628518286925
 21
373.2263905420989
 31
0.0
  0
ARC
  5
134D
102
{ACAD_REACTORS
330
1367
102
}
330
17
100
AcDbEntity
  8
SCHRAFF
100
AcDbCircle
 10
323.1286308032951
 20
405.7675383062951
 30
0.0
 40
4.0
100
AcDbArc
 50
165.9933593663009
 51
288.0228511951184
  0
LINE
  5
134E
330
17
100
AcDbEntity
  8
STEMPEL
100
AcDbLine
 10
333.128630803295
 20
291.5267097923016
 30
0.0
 11
603.338999859071
 21
277.3655844108373
 31
0.0
  0
HATCH
  5
134F
330
17
100
AcDbEntity
  8
SCHRAFF
100
AcDbHatch
 10
0.0
 20
0.0
 30
0.0
210
0.0
220
0.0
230
1.0
  2
_USER
 70
     0
 71
     1
 91
        2
 92
        7
 72
     1
 73
     1
 93
        3
 10
433.128630803295
 20
390.4231664637895
 42
0.0
 10
433.128630803295
 20
386.4231664637896
 42
0.0
 10
437.1231489423132
 20
386.2138226388178
 42
0.4296339059668358
 97
        3
330
1359
330
1352
330
1368
 92
        7
 72
     1
 73
     1
 93
        3
 10
331.1286308032951
 20
294.9908114074395
 42
1.268493952745326
 10
336.4833130750767
 20
289.3481536522415
 42
0.0
 10
331.1286308032951
 20
289.6287806588718
 42
0.0
 97
        3
330
1369
330
1351
330
1358
 75
     1
 76
     0
 52
0.0
 41
0.1
 77
     0
 78
     1
 53
0.0
 43
17.27727101876081
 44
8.781028284323213
 45
0.0
 46
0.1
 79
     0
 47
0.2004681758513254
 98
        2
 10
435.1795736511615
 20
388.3299819365623
 10
329.8850389101624
 20
290.7019796439709
1001
GradientColor1ACI
1070
     5
1001
GradientColor2ACI
1070
     2
1001
ACAD
1010
0.0
1020
0.0
1030
0.0
  0
LINE
  5
1351
102
{ACAD_REACTORS
330
134F
102
}
330
17
100
AcDbEntity
  8
STEMPEL
100
AcDbLine
 10
331.1286308032951
 20
289.6287806588718
 30
0.0
 11
603.321530160792
 21
275.363755266933
 31
0.0
  0
LINE
  5
1352
102
{ACAD_REACTORS
330
134F
102
}
330
17
100
AcDbEntity
  8
STEMPEL
100
AcDbLine
 10
433.128630803295
 20
386.4231664637896
 30
0.0
 11
608.659797697572
 21
377.2239678118996
 31
0.0
  0
LINE
  5
1353
330
17
100
AcDbEntity
  8
STEMPEL
100
AcDbLine
 10
431.128630803295
 20
384.5252373303599
 30
0.0
 11
608.4679235708788
 21
375.2312788167857
 31
0.0
  0
LINE
  5
1354
330
17
100
AcDbEntity
  8
MITTEL
100
AcDbLine
 10
382.128630803295
 20
338.0259735613308
 30
0.0
 11
625.8760524100666
 21
325.2517124889526
 31
0.0
  0
LINE
  5
1355
330
17
100
AcDbEntity
  8
VERDECKT
100
AcDbLine
 10
544.1884598205535
 20
326.528660773553
 30
0.0
 11
552.2766334836233
 21
326.104777553416
 31
0.0
  0
LINE
  5
1356
330
17
100
AcDbEntity
  8
VERDECKT
100
AcDbLine
 10
542.604353873541
 20
332.6199143243725
 30
0.0
 11
552.5906492210808
 21
332.0965547619433
 31
0.0
  0
HATCH
  5
1357
330
17
100
AcDbEntity
  8
SCHRAFF
100
AcDbHatch
 10
0.0
 20
0.0
 30
0.0
210
0.0
220
0.0
230
1.0
  2
_USER
 70
     0
 71
     1
 91
        2
 92
        7
 72
     1
 73
     1
 93
        8
 10
333.1286308032952
 20
393.7675383062952
 42
0.2159700026434403
 10
330.7442384910981
 20
399.0302529738688
 42
0.0
 10
323.0623875330359
 20
405.7675383062951
 42
0.0
 10
321.7436424793779
 20
404.2639055441312
 42
0.0
 10
329.4254934374401
 20
397.5266202117049
 42
-0.2159700026434398
 10
331.1286308032951
 20
393.7675383062952
 42
0.0
 10
331.1286308032951
 20
289.6287806588718
 42
0.0
 10
333.128630803295
 20
291.5267097923015
 42
0.0
 97
        8
330
1363
330
1362
330
1365
330
1361
330
1364
330
1358
330
136A
330
135A
 92
        7
 72
     1
 73
     1
 93
        8
 10
433.128630803295
 20
393.7675383062952
 42
-0.2159700026434399
 10
434.83176816915
 20
397.5266202117049
 42
0.0
 10
442.5136191272123
 20
404.2639055441312
 42
0.0
 10
441.1948740735543
 20
405.7675383062951
 42
0.0
 10
433.5130231154921
 20
399.0302529738688
 42
0.2159700026434349
 10
431.128630803295
 20
393.7675383062953
 42
0.0
 10
431.128630803295
 20
384.5252373303598
 42
0.0
 10
433.128630803295
 20
386.4231664637896
 42
0.0
 97
        8
330
135C
330
135F
330
1360
330
135E
330
135D
330
135B
330
136A
330
1359
 75
     1
 76
     0
 52
135.0
 41
2.0
 77
     0
 78
     1
 53
135.0
 43
17.27727101876081
 44
8.781028284323213
 45
-1.414213562373095
 46
-1.414213562373094
 79
     0
 47
0.2016123893600025
 98
        2
 10
331.9884507802361
 20
376.6938322622335
 10
432.6396285083482
 20
393.0244361841852
1001
GradientColor1ACI
1070
     5
1001
GradientColor2ACI
1070
     2
1001
ACAD
1010
0.0
1020
0.0
1030
0.0
  0
LINE
  5
1358
102
{ACAD_REACTORS
330
134F
330
1357
102
}
330
17
100
AcDbEntity
  8
STEMPEL
100
AcDbLine
 10
331.1286308032951
 20
393.7675383062952
 30
0.0
 11
331.1286308032951
 21
289.6287806588718
 31
0.0
  0
LINE
  5
1359
102
{ACAD_REACTORS
330
134F
330
1357
102
}
330
17
100
AcDbEntity
  8
STEMPEL
100
AcDbLine
 10
433.128630803295
 20
393.7675383062953
 30
0.0
 11
433.128630803295
 21
386.4231664637896
 31
0.0
  0
LINE
  5
135A
102
{ACAD_REACTORS
330
1357
102
}
330
17
100
AcDbEntity
  8
STEMPEL
100
AcDbLine
 10
333.1286308032951
 20
393.7675383062952
 30
0.0
 11
333.128630803295
 21
291.5267097923016
 31
0.0
  0
LINE
  5
135B
102
{ACAD_REACTORS
330
1357
102
}
330
17
100
AcDbEntity
  8
STEMPEL
100
AcDbLine
 10
431.1286308032951
 20
393.7675383062952
 30
0.0
 11
431.128630803295
 21
384.5252373303599
 31
0.0
  0
ARC
  5
135C
102
{ACAD_REACTORS
330
1357
102
}
330
17
100
AcDbEntity
  8
STEMPEL
100
AcDbCircle
 10
438.128630803295
 20
393.7675383062952
 30
0.0
 40
5.0
100
AcDbArc
 50
131.2520356639262
 51
180.0
  0
ARC
  5
135D
102
{ACAD_REACTORS
330
1357
102
}
330
17
100
AcDbEntity
  8
STEMPEL
100
AcDbCircle
 10
438.128630803295
 20
393.7675383062952
 30
0.0
 40
7.0
100
AcDbArc
 50
131.2520356639262
 51
180.0
  0
LINE
  5
135E
102
{ACAD_REACTORS
330
1357
102
}
330
17
100
AcDbEntity
  8
STEMPEL
100
AcDbLine
 10
441.1948740735543
 20
405.7675383062951
 30
0.0
 11
433.5130231154921
 21
399.0302529738688
 31
0.0
  0
LINE
  5
135F
102
{ACAD_REACTORS
330
1367
330
1357
102
}
330
17
100
AcDbEntity
  8
STEMPEL
100
AcDbLine
 10
442.5136191272123
 20
404.2639055441312
 30
0.0
 11
434.8317681691501
 21
397.5266202117049
 31
0.0
  0
LINE
  5
1360
102
{ACAD_REACTORS
330
1367
330
1357
102
}
330
17
100
AcDbEntity
  8
STEMPEL
100
AcDbLine
 10
441.1948740735543
 20
405.7675383062951
 30
0.0
 11
442.5136191272123
 21
404.2639055441312
 31
0.0
  0
LINE
  5
1361
102
{ACAD_REACTORS
330
1367
330
1357
102
}
330
17
100
AcDbEntity
  8
STEMPEL
100
AcDbLine
 10
321.7436424793779
 20
404.2639055441312
 30
0.0
 11
329.4254934374401
 21
397.5266202117049
 31
0.0
  0
LINE
  5
1362
102
{ACAD_REACTORS
330
1357
102
}
330
17
100
AcDbEntity
  8
STEMPEL
100
AcDbLine
 10
323.0623875330359
 20
405.7675383062951
 30
0.0
 11
330.7442384910981
 21
399.0302529738688
 31
0.0
  0
ARC
  5
1363
102
{ACAD_REACTORS
330
1357
102
}
330
17
100
AcDbEntity
  8
STEMPEL
100
AcDbCircle
 10
326.1286308032952
 20
393.7675383062952
 30
0.0
 40
7.0
100
AcDbArc
 50
0.0
 51
48.74796433607378
  0
ARC
  5
1364
102
{ACAD_REACTORS
330
1357
102
}
330
17
100
AcDbEntity
  8
STEMPEL
100
AcDbCircle
 10
326.1286308032952
 20
393.7675383062952
 30
0.0
 40
5.0
100
AcDbArc
 50
0.0
 51
48.74796433607378
  0
LINE
  5
1365
102
{ACAD_REACTORS
330
1367
330
1357
102
}
330
17
100
AcDbEntity
  8
STEMPEL
100
AcDbLine
 10
323.0623875330359
 20
405.7675383062951
 30
0.0
 11
321.7436424793779
 21
404.2639055441312
 31
0.0
  0
LINE
  5
1366
330
17
100
AcDbEntity
  8
HILF
100
AcDbLine
 10
429.6048624519547
 20
396.6563742470662
 30
0.0
 11
334.6523991546354
 21
396.6563742470663
 31
0.0
  0
HATCH
  5
1367
330
17
100
AcDbEntity
  8
SCHRAFF
100
AcDbHatch
 10
0.0
 20
0.0
 30
0.0
210
0.0
220
0.0
230
1.0
  2
_USER
 70
     0
 71
     1
 91
        2
 92
        7
 72
     1
 73
     1
 93
        4
 10
445.0097015264478
 20
406.7356757148723
 42
-0.1249115044796325
 10
441.1948740735543
 20
405.7675383062951
 42
0.0
 10
442.5136191272122
 20
404.2639055441312
 42
0.0
 10
439.8910456900144
 20
401.9638055229116
 42
0.5892183613835658
 97
        3
330
1360
330
135F
330
1348
 92
        7
 72
     1
 73
     1
 93
        4
 10
321.7436424793779
 20
404.2639055441312
 42
0.0
 10
323.0623875330359
 20
405.7675383062951
 42
-0.1249115044796365
 10
319.2475600801423
 20
406.7356757148724
 42
0.5892183613835896
 10
324.3662159165758
 20
401.9638055229115
 42
0.0
 97
        3
330
1365
330
134D
330
1361
 75
     0
 76
     0
 52
0.0
 41
0.1
 77
     0
 78
     1
 53
0.0
 43
17.27727101876081
 44
8.781028284323213
 45
0.0
 46
0.1
 79
     0
 47
0.1832780298637171
 98
        2
 10
443.783281932516
 20
405.3298501890209
 10
319.8391956636229
 20
403.6803489560139
  0
ARC
  5
1368
102
{ACAD_REACTORS
330
134F
102
}
330
17
100
AcDbEntity
  8
SCHRAFF
100
AcDbCircle
 10
433.128630803295
 20
386.4231664637896
 30
0.0
 40
4.0
100
AcDbArc
 50
357.0000000000009
 51
90.0
  0
ARC
  5
1369
102
{ACAD_REACTORS
330
134F
102
}
330
17
100
AcDbEntity
  8
SCHRAFF
100
AcDbCircle
 10
333.128630803295
 20
291.5267097923016
 30
0.0
 40
4.0
100
AcDbArc
 50
119.9999999999961
 51
326.9999999999989
  0
LINE
  5
136A
102
{ACAD_REACTORS
330
1357
102
}
330
17
100
AcDbEntity
  8
STEMPEL
100
AcDbLine
 10
433.128630803295
 20
386.4231664637896
 30
0.0
 11
331.1286308032951
 21
289.6287806588718
 31
0.0
  0
DIMENSION
  5
136B
330
17
100
AcDbEntity
  8
BEM
100
AcDbDimension
  2
*D6
 10
642.5856603189603
 20
375.4459886916512
 30
0.0
 11
633.4254345746657
 21
324.856066134747
 31
0.0
 70
    33
  1
%%C<>
 71
     5
 42
102.0
  3
STANDARD
100
AcDbAlignedDimension
 13
603.321530160792
 23
275.363755266933
 33
0.0
 14
608.659797697572
 24
377.2239678118996
 34
0.0
1001
ACAD
1000
DSTYLE
1002
{
1070
    40
1040
2.0
1070
    41
1040
3.5
1070
    42
1040
1.0
1070
    43
1040
7.0
1070
    44
1040
1.0
1070
    73
1070
     0
1070
    74
1070
     0
1070
    77
1070
     1
1070
    78
1070
     8
1070
    79
1070
     2
1070
   140
1040
3.5
1070
   141
1040
1.5
1070
   146
1040
0.5142857142857144
1070
   147
1040
1.5
1070
   172
1070
     1
1070
   178
1070
     1
1070
   179
1070
     2
1070
   271
1070
     2
1070
   272
1070
     2
1070
   284
1070
     8
1070
   285
1070
     8
1070
   286
1070
     8
1002
}
  0
DIMENSION
  5
136C
330
17
100
AcDbEntity
  8
BEM
100
AcDbDimension
  2
*D7
 10
364.7472076639496
 20
338.0259735613306
 30
0.0
 11
473.9654285556502
 21
313.9762330788955
 31
0.0
 70
    34
 71
     5
 42
0.0523598775598275
  3
STANDARD
100
AcDb2LineAngularDimension
 13
382.1286308032951
 23
338.0259735613308
 33
0.0
 14
625.8760524100666
 24
325.2517124889526
 34
0.0
 15
380.128630803295
 25
338.0259735613306
 35
0.0
 16
483.3441340820861
 26
336.2592503798568
 36
0.0
1001
ACAD
1000
DSTYLE
1002
{
1070
    40
1040
2.0
1070
    41
1040
3.5
1070
    42
1040
1.0
1070
    43
1040
7.0
1070
    44
1040
1.0
1070
    73
1070
     0
1070
    74
1070
     0
1070
    77
1070
     1
1070
    78
1070
     8
1070
    79
1070
     2
1070
   140
1040
3.5
1070
   141
1040
1.5
1070
   146
1040
0.5142857142857144
1070
   147
1040
1.5
1070
   172
1070
     1
1070
   178
1070
     1
1070
   179
1070
     2
1070
   271
1070
     2
1070
   272
1070
     2
1070
   284
1070
     8
1070
   285
1070
     8
1070
   286
1070
     8
1002
}
  0
LINE
  5
136D
330
17
100
AcDbEntity
  8
BEM
100
AcDbLine
 10
620.8829047362939
 20
325.5133922701673
 30
0.0
 11
629.0623930572267
 21
325.5133922701673
 31
0.0
  0
DIMENSION
  5
136E
330
17
100
AcDbEntity
  8
BEM
100
AcDbDimension
  2
*D8
 10
660.7611068479156
 20
325.5133922701672
 30
0.0
 11
654.2611068479155
 21
383.6404652882313
 31
0.0
 70
    32
  1
116
 71
     5
 42
116.2541460361278
  3
STANDARD
100
AcDbAlignedDimension
 13
547.1286308032952
 23
441.7675383062951
 33
0.0
 14
639.9688038266742
 24
325.5133922701673
 34
0.0
 50
90.0
100
AcDbRotatedDimension
1001
ACAD
1000
DSTYLE
1002
{
1070
    40
1040
2.0
1070
    41
1040
3.5
1070
    42
1040
1.0
1070
    43
1040
7.0
1070
    44
1040
1.0
1070
    73
1070
     0
1070
    74
1070
     0
1070
    77
1070
     1
1070
    78
1070
     8
1070
    79
1070
     2
1070
   140
1040
3.5
1070
   141
1040
1.5
1070
   146
1040
0.5142857142857144
1070
   147
1040
1.5
1070
   172
1070
     1
1070
   178
1070
     1
1070
   179
1070
     2
1070
   271
1070
     2
1070
   272
1070
     2
1070
   284
1070
     8
1070
   285
1070
     8
1070
   286
1070
     8
1002
}
  0
DIMENSION
  5
136F
330
17
100
AcDbEntity
  8
BEM
100
AcDbDimension
  2
*D9
 10
620.8829047362939
 20
199.5596438502126
 30
0.0
 11
501.5057677697946
 21
206.0596438502126
 31
0.0
 70
    32
  1
239
 71
     5
 42
238.7542739329988
  3
STANDARD
100
AcDbAlignedDimension
 13
382.1286308032952
 23
220.4809999895693
 33
0.0
 14
620.8829047362939
 24
325.5133922701673
 34
0.0
100
AcDbRotatedDimension
1001
ACAD
1000
DSTYLE
1002
{
1070
    40
1040
2.0
1070
    41
1040
3.5
1070
    42
1040
1.0
1070
    43
1040
7.0
1070
    44
1040
1.0
1070
    73
1070
     0
1070
    74
1070
     0
1070
    77
1070
     1
1070
    78
1070
     8
1070
    79
1070
     2
1070
   140
1040
3.5
1070
   141
1040
1.5
1070
   146
1040
0.5142857142857144
1070
   147
1040
1.5
1070
   172
1070
     1
1070
   178
1070
     1
1070
   179
1070
     2
1070
   271
1070
     2
1070
   272
1070
     2
1070
   284
1070
     8
1070
   285
1070
     8
1070
   286
1070
     8
1002
}
  0
LINE
  5
1370
330
17
100
AcDbEntity
  8
STEMPEL
100
AcDbLine
 10
303.6286308032949
 20
416.2172857746017
 30
0.0
 11
312.6286308032949
 21
404.8252652057346
 31
0.0
  0
HATCH
  5
1371
330
17
100
AcDbEntity
  8
SCHRAFF
100
AcDbHatch
 10
0.0
 20
0.0
 30
0.0
210
0.0
220
0.0
230
1.0
  2
HONEY
 70
     0
 71
     0
 91
        2
 92
        7
 72
     0
 73
     1
 93
       13
 10
312.6286308032948
 20
404.8252652057348
 10
303.6286308032949
 20
416.2172857746017
 10
303.6286308032949
 20
428.217285774602
 10
292.0783782716009
 20
439.7675383062952
 10
272.1286308032952
 20
439.7675383062952
 10
291.4827294910005
 20
238.7675383062949
 10
547.69948272597
 20
238.7675383062941
 10
548.7358493095282
 20
258.5425907457631
 10
312.6286308032948
 20
270.9164457403712
 10
312.6286308032948
 20
331.6137114334814
 10
302.6286308032947
 20
332.1377892263119
 10
302.6286308032948
 20
352.1652361462701
 10
312.6286308032949
 20
351.6411583534396
 97
        0
 92
        7
 72
     1
 73
     1
 93
       10
 10
472.1788833349894
 20
439.7675383062952
 42
0.0
 10
460.6286308032955
 20
428.2172857746018
 42
0.0
 10
460.6286308032955
 20
416.2172857746017
 42
0.0
 10
458.8210549095234
 20
413.9292922455311
 42
0.0
 10
457.1832385154056
 20
411.8561769066625
 42
0.6086651829755413
 10
460.1125814507745
 20
405.3820125387513
 42
0.0
 10
556.167555096026
 20
400.3479846809125
 42
0.0
 10
558.1286308032949
 20
437.7675383062942
 42
0.0
 10
534.1286308032949
 20
437.7675383062949
 42
0.0
 10
534.1286308032949
 20
439.7675383062952
 42
0.0
 97
        0
 75
     1
 76
     1
 52
0.0
 41
30.0
 77
     0
 78
     3
 53
0.0
 43
-662.0451103790688
 44
24.5243569029463
 45
5.625
 46
3.247595264191644
 79
     2
 49
3.75
 49
-7.5
 53
120.0
 43
-662.0451103790688
 44
24.5243569029463
 45
-5.624999999999998
 46
3.247595264191645
 79
     2
 49
3.749999999999996
 49
-7.499999999999993
 53
60.0
 43
-662.0451103790688
 44
24.5243569029463
 45
0.0000000000000012
 46
6.49519052838329
 79
     2
 49
-7.5
 49
3.75
 47
0.4219096744919601
 98
        2
 10
295.819763703657
 20
390.5002778294775
 10
500.9628297556851
 20
430.1597873286732
1001
GradientColor1ACI
1070
     5
1001
GradientColor2ACI
1070
     2
1001
ACAD
1010
0.0
1020
0.0
1030
0.0
  0
LINE
  5
1372
330
17
100
AcDbEntity
  8
VERDECKT
100
AcDbLine
 10
542.9685690405663
 20
339.5695537102307
 30
0.0
 11
331.1286308032951
 21
350.6716144367033
 31
0.0
  0
LINE
  5
1373
330
17
100
AcDbEntity
  8
STEMPEL
100
AcDbLine
 10
331.1286308032951
 20
350.6716144367033
 30
0.0
 11
302.6286308032865
 21
352.1652361462705
 31
0.0
  0
LINE
  5
1374
330
17
100
AcDbEntity
  8
VERDECKT
100
AcDbLine
 10
541.9218499157072
 20
319.5969630151393
 30
0.0
 11
331.1286308032951
 21
330.6441675167451
 31
0.0
  0
LINE
  5
1375
330
17
100
AcDbEntity
  8
STEMPEL
100
AcDbLine
 10
331.1286308032951
 20
330.6441675167451
 30
0.0
 11
302.6286308032865
 21
332.1377892263123
 31
0.0
  0
LINE
  5
1376
330
17
100
AcDbEntity
  8
STEMPEL
100
AcDbLine
 10
548.7358493095282
 20
258.5425907457631
 30
0.0
 11
312.6286308032948
 21
270.9164457403712
 31
0.0
  0
LINE
  5
1377
330
17
100
AcDbEntity
  8
STEMPEL
100
AcDbLine
 10
556.167555096026
 20
400.3479846809124
 30
0.0
 11
460.1125814507746
 21
405.3820125387514
 31
0.0
  0
LINE
  5
1378
330
17
100
AcDbEntity
  8
STEMPEL
100
AcDbLine
 10
558.1286308032949
 20
437.7675383062942
 30
0.0
 11
534.1286308032949
 21
437.7675383062949
 31
0.0
  0
LINE
  5
1379
330
17
100
AcDbEntity
  8
STEMPEL
100
AcDbLine
 10
291.4827294910005
 20
238.7675383062949
 30
0.0
 11
547.69948272597
 21
238.7675383062941
 31
0.0
  0
LINE
  5
137A
330
17
100
AcDbEntity
  8
STEMPEL
100
AcDbLine
 10
312.6286308032948
 20
270.9164457403712
 30
0.0
 11
332.2835363076234
 21
289.5682546261081
 31
0.0
  0
LINE
  5
137B
330
17
100
AcDbEntity
  8
STEMPEL
100
AcDbLine
 10
312.6286308032948
 20
331.6137114334815
 30
0.0
 11
312.6286308032948
 21
270.9164457403712
 31
0.0
  0
LINE
  5
137C
330
17
100
AcDbEntity
  8
STEMPEL
100
AcDbLine
 10
272.1286308032952
 20
439.7675383062952
 30
0.0
 11
291.4827294910005
 21
238.7675383062949
 31
0.0
  0
LINE
  5
137D
330
17
100
AcDbEntity
  8
STEMPEL
100
AcDbLine
 10
303.6286308032949
 20
416.2172857746017
 30
0.0
 11
312.4104208657283
 21
416.2172857746018
 31
0.0
  0
LINE
  5
137E
330
17
100
AcDbEntity
  8
STEMPEL
100
AcDbLine
 10
451.8468407408618
 20
416.2172857746018
 30
0.0
 11
460.6286308032955
 21
416.2172857746017
 31
0.0
  0
LINE
  5
137F
330
17
100
AcDbEntity
  8
STEMPEL
100
AcDbLine
 10
312.6286308032948
 20
404.8252652057346
 30
0.0
 11
322.2359769746685
 21
404.8252652057346
 31
0.0
  0
LINE
  5
1380
330
17
100
AcDbEntity
  8
STEMPEL
100
AcDbLine
 10
303.6286308032949
 20
428.217285774602
 30
0.0
 11
308.9104331643562
 21
428.217285774602
 31
0.0
  0
LINE
  5
1381
330
17
100
AcDbEntity
  8
STEMPEL
100
AcDbLine
 10
455.3468284422339
 20
428.2172857746018
 30
0.0
 11
460.6286308032955
 21
428.2172857746018
 31
0.0
  0
LINE
  5
1382
330
17
100
AcDbEntity
  8
STEMPEL
100
AcDbLine
 10
312.6286308032948
 20
404.8252652057346
 30
0.0
 11
312.6286308032949
 21
351.6411583534396
 31
0.0
  0
LINE
  5
1383
330
17
100
AcDbEntity
  8
STEMPEL
100
AcDbLine
 10
302.6286308032948
 20
352.1652361462701
 30
0.0
 11
302.6286308032947
 21
332.1377892263119
 31
0.0
  0
LINE
  5
1384
330
17
100
AcDbEntity
  8
STEMPEL
100
AcDbLine
 10
292.0783782716009
 20
439.7675383062952
 30
0.0
 11
303.6286308032949
 21
428.217285774602
 31
0.0
  0
LINE
  5
1385
330
17
100
AcDbEntity
  8
STEMPEL
100
AcDbLine
 10
441.310919995507
 20
405.6352227767092
 30
0.0
 11
452.3882891112535
 21
405.7868255467987
 31
0.0
  0
LINE
  5
1386
330
17
100
AcDbEntity
  8
STEMPEL
100
AcDbLine
 10
433.128630803295
 20
386.8951244132838
 30
0.0
 11
452.3882891112535
 21
405.7868255467987
 31
0.0
  0
LINE
  5
1387
330
17
100
AcDbEntity
  8
STEMPEL
100
AcDbLine
 10
303.6286308032949
 20
428.217285774602
 30
0.0
 11
303.6286308032949
 21
416.2172857746017
 31
0.0
  0
LINE
  5
1388
330
17
100
AcDbEntity
  8
STEMPEL
100
AcDbLine
 10
460.6286308032955
 20
416.2172857746017
 30
0.0
 11
458.8210549095234
 21
413.9292922455311
 31
0.0
  0
LINE
  5
1389
330
17
100
AcDbEntity
  8
STEMPEL
100
AcDbLine
 10
460.6286308032955
 20
416.2172857746016
 30
0.0
 11
457.1832385154062
 21
411.8561769066629
 31
0.0
  0
LINE
  5
138A
330
17
100
AcDbEntity
  8
STEMPEL
100
AcDbLine
 10
460.6286308032955
 20
428.2172857746018
 30
0.0
 11
460.6286308032955
 21
416.2172857746016
 31
0.0
  0
ARC
  5
138B
330
17
100
AcDbEntity
  8
STEMPEL
100
AcDbCircle
 10
460.3219252757463
 20
409.3765306777696
 30
0.0
 40
4.0
100
AcDbArc
 50
141.6903237986803
 51
267.0000000000009
  0
LINE
  5
138C
330
17
100
AcDbEntity
  8
STEMPEL
100
AcDbLine
 10
460.1125814507746
 20
405.3820125387514
 30
0.0
 11
452.3882891112535
 21
405.7868255467987
 31
0.0
  0
LINE
  5
138D
330
17
100
AcDbEntity
  8
STEMPEL
100
AcDbLine
 10
457.1832385154062
 20
411.8561769066628
 30
0.0
 11
452.3882891112535
 21
405.7868255467987
 31
0.0
  0
LINE
  5
138E
330
17
100
AcDbEntity
  8
STEMPEL
100
AcDbLine
 10
558.1286308032949
 20
437.7675383062942
 30
0.0
 11
556.1675550960261
 21
400.3479846809124
 31
0.0
  0
LINE
  5
138F
330
17
100
AcDbEntity
  8
STEMPEL
100
AcDbLine
 10
548.7358493095281
 20
258.5425907457631
 30
0.0
 11
547.69948272597
 21
238.7675383062941
 31
0.0
  0
LINE
  5
1390
330
17
100
AcDbEntity
  8
STEMPEL
100
AcDbLine
 10
472.1788833349894
 20
439.7675383062952
 30
0.0
 11
460.6286308032955
 21
428.2172857746018
 31
0.0
  0
LINE
  5
1391
330
17
100
AcDbEntity
  8
STEMPEL
100
AcDbLine
 10
534.1286308032949
 20
439.7675383062952
 30
0.0
 11
534.1286308032949
 21
437.7675383062949
 31
0.0
  0
LINE
  5
1392
330
17
100
AcDbEntity
  8
VERDECKT
100
AcDbLine
 10
542.9685690405663
 20
339.5695537102307
 30
0.0
 11
541.9218499157072
 21
319.5969630151393
 31
0.0
  0
DIMENSION
  5
1393
330
17
100
AcDbEntity
  8
BEM
100
AcDbDimension
  2
*D3
 10
204.9662163679516
 20
238.7675383062949
 30
0.0
 11
198.4662163679516
 21
339.267538306295
 31
0.0
 70
    32
 71
     5
 42
201.0000000000003
  3
STANDARD
100
AcDbAlignedDimension
 13
217.1286308032951
 23
439.7675383062951
 33
0.0
 14
291.4827294910005
 24
238.7675383062949
 34
0.0
 50
90.0
100
AcDbRotatedDimension
1001
ACAD
1000
DSTYLE
1002
{
1070
    40
1040
2.0
1070
    41
1040
3.5
1070
    42
1040
1.0
1070
    43
1040
7.0
1070
    44
1040
1.0
1070
    73
1070
     0
1070
    74
1070
     0
1070
    77
1070
     1
1070
    78
1070
     8
1070
    79
1070
     2
1070
   140
1040
3.5
1070
   141
1040
1.5
1070
   146
1040
0.5142857142857144
1070
   147
1040
1.5
1070
   172
1070
     1
1070
   178
1070
     1
1070
   179
1070
     2
1070
   271
1070
     2
1070
   272
1070
     2
1070
   284
1070
     8
1070
   285
1070
     8
1070
   286
1070
     8
1002
}
  0
DIMENSION
  5
1394
330
17
100
AcDbEntity
  8
BEM
100
AcDbDimension
  2
*D4
 10
547.69948272597
 20
220.4809999895693
 30
0.0
 11
419.5911061084853
 21
226.9809999895693
 31
0.0
 70
    32
  1
256
 71
     5
 42
256.2167532349695
  3
STANDARD
100
AcDbAlignedDimension
 13
291.4827294910005
 23
238.7675383062949
 33
0.0
 14
547.69948272597
 24
238.7675383062941
 34
0.0
100
AcDbRotatedDimension
1001
ACAD
1000
DSTYLE
1002
{
1070
    40
1040
2.0
1070
    41
1040
3.5
1070
    42
1040
1.0
1070
    43
1040
7.0
1070
    44
1040
1.0
1070
    73
1070
     0
1070
    74
1070
     0
1070
    77
1070
     1
1070
    78
1070
     8
1070
    79
1070
     2
1070
   140
1040
3.5
1070
   141
1040
1.5
1070
   146
1040
0.5142857142857144
1070
   147
1040
1.5
1070
   172
1070
     1
1070
   178
1070
     1
1070
   179
1070
     2
1070
   271
1070
     2
1070
   272
1070
     2
1070
   284
1070
     8
1070
   285
1070
     8
1070
   286
1070
     8
1002
}
  0
DIMENSION
  5
1395
330
17
100
AcDbEntity
  8
BEM
100
AcDbDimension
  2
*D5
 10
548.1652036589811
 20
247.6540230874157
 30
0.0
 11
582.7300190665308
 21
252.3514781195643
 31
0.0
 70
    32
  1
68.5
 71
     5
 42
68.54319945660711
 51
3.000000000000016
  3
STANDARD
100
AcDbAlignedDimension
 13
618.2820531811933
 23
275.8861882428045
 33
0.0
 14
548.7358493095282
 24
258.5425907457631
 34
0.0
 50
357.0000000000009
100
AcDbRotatedDimension
1001
ACAD
1000
DSTYLE
1002
{
1070
    40
1040
2.0
1070
    41
1040
3.5
1070
    42
1040
1.0
1070
    43
1040
7.0
1070
    44
1040
1.0
1070
    73
1070
     0
1070
    74
1070
     0
1070
    77
1070
     1
1070
    78
1070
     8
1070
    79
1070
     2
1070
   140
1040
3.5
1070
   141
1040
1.5
1070
   146
1040
0.5142857142857144
1070
   147
1040
1.5
1070
   172
1070
     1
1070
   178
1070
     1
1070
   179
1070
     2
1070
   271
1070
     2
1070
   272
1070
     2
1070
   284
1070
     8
1070
   285
1070
     8
1070
   286
1070
     8
1002
}
  0
LINE
  5
13C1
330
17
100
AcDbEntity
  8
STEMPEL
  6
CONTINUOUS
100
AcDbLine
 10
441.4042173540442
 20
385.9894613504002
 30
0.0
 11
447.3959945625717
 21
385.6754456129425
 31
0.0
  0
HATCH
  5
13C2
330
17
100
AcDbEntity
  8
SCHRAFF
100
AcDbHatch
 10
0.0
 20
0.0
 30
0.0
210
0.0
220
0.0
230
1.0
  2
_USER
 70
     0
 71
     1
 91
        1
 92
        7
 72
     1
 73
     1
 93
        8
 10
447.4483305188146
 20
386.6740751476971
 42
0.4142135623731006
 10
448.4992960098121
 20
387.6203687262087
 42
0.0
 10
448.5516319660551
 20
388.6189982609633
 42
0.4142135623730898
 10
447.6053383875434
 20
389.6699637519608
 42
0.0
 10
441.6135611790159
 20
389.9839794894185
 42
0.4142135623731333
 10
440.5625956880184
 20
389.0376859109067
 42
0.0
 10
440.5102597317756
 20
388.0390563761521
 42
0.4142135623730562
 10
441.4565533102872
 20
386.9880908851548
 42
0.0
 97
        5
330
13C6
330
13C5
330
13C7
330
13C3
330
13C4
 75
     0
 76
     0
 52
222.0
 41
0.9999999999999998
 77
     0
 78
     1
 53
222.0
 43
849.7559886978717
 44
189.9958086167488
 45
0.6691306063588581
 46
-0.7431448254773944
 79
     0
 47
0.1071053300341939
 98
        1
 10
444.7511538463364
 20
388.2522472862822
  0
LINE
  5
13C3
102
{ACAD_REACTORS
330
13C2
102
}
330
17
100
AcDbEntity
  8
STEMPEL
  6
CONTINUOUS
100
AcDbLine
 10
441.6135611790159
 20
389.9839794894185
 30
0.0
 11
447.6053383875434
 21
389.6699637519608
 31
0.0
  0
LINE
  5
13C4
102
{ACAD_REACTORS
330
13C2
102
}
330
17
100
AcDbEntity
  8
STEMPEL
  6
CONTINUOUS
100
AcDbLine
 10
441.4565533102872
 20
386.9880908851548
 30
0.0
 11
447.4483305188146
 21
386.6740751476971
 31
0.0
  0
LINE
  5
13C5
102
{ACAD_REACTORS
330
13C2
102
}
330
17
100
AcDbEntity
  8
STEMPEL
100
AcDbLine
 10
440.5625956880184
 20
389.0376859109068
 30
0.0
 11
440.5102597317756
 21
388.0390563761523
 31
0.0
  0
ARC
  5
13C6
102
{ACAD_REACTORS
330
13C2
102
}
330
17
100
AcDbEntity
  8
STEMPEL
100
AcDbCircle
 10
441.5088892665301
 20
387.9867204199093
 30
0.0
 40
0.9999999999999998
100
AcDbArc
 50
177.0000000000009
 51
267.0000000000009
  0
ARC
  5
13C7
102
{ACAD_REACTORS
330
13C2
102
}
330
17
100
AcDbEntity
  8
STEMPEL
100
AcDbCircle
 10
441.5612252227729
 20
388.9853499546639
 30
0.0
 40
0.9999999999999998
100
AcDbArc
 50
87.00000000000091
 51
177.0000000000009
  0
LINE
  5
13C8
330
17
100
AcDbEntity
  8
STEMPEL
100
AcDbLine
 10
439.511630197021
 20
388.0913923323952
 30
0.0
 11
439.5639661532638
 21
389.0900218671498
 31
0.0
  0
ARC
  5
13C9
330
17
100
AcDbEntity
  8
STEMPEL
100
AcDbCircle
 10
441.5088892665301
 20
387.9867204199093
 30
0.0
 40
1.999999999999999
100
AcDbArc
 50
177.0000000000009
 51
267.0000000000009
  0
ARC
  5
13CA
330
17
100
AcDbEntity
  8
STEMPEL
100
AcDbCircle
 10
441.5612252227729
 20
388.9853499546639
 30
0.0
 40
1.999999999999999
100
AcDbArc
 50
87.00000000000091
 51
177.0000000000009
  0
HATCH
  5
13CB
330
17
100
AcDbEntity
  8
SCHRAFF
100
AcDbHatch
 10
0.0
 20
0.0
 30
0.0
210
0.0
220
0.0
230
1.0
  2
NET
 70
     0
 71
     0
 91
        2
 92
        7
 72
     1
 73
     1
 93
       10
 10
441.665897135259
 20
390.982609024173
 42
0.2539150913703598
 10
439.9434234235094
 20
390.1612399743084
 42
0.0005032130446828
 10
439.9258565870613
 20
390.1366837139753
 42
0.1411920676771369
 10
439.5639661532639
 20
389.0900218671499
 42
0.0
 10
439.5116301970209
 20
388.0913923323952
 42
0.4142135623730951
 10
441.4042173540441
 20
385.9894613504002
 42
0.0
 10
447.3959945625717
 20
385.6754456129425
 42
0.4142135623730951
 10
449.4979255445668
 20
387.5680327699658
 42
0.0
 10
449.5502615008097
 20
388.5666623047204
 42
0.4142135623730951
 10
447.6576743437864
 20
390.6685932867154
 42
0.0
 97
        0
 92
       22
 72
     1
 73
     1
 93
        8
 10
447.6053383875434
 20
389.6699637519608
 42
-0.4142135623730951
 10
448.5516319660551
 20
388.6189982609633
 42
0.0
 10
448.4992960098121
 20
387.6203687262087
 42
-0.4142135623730951
 10
447.4483305188146
 20
386.6740751476971
 42
0.0
 10
441.4565533102871
 20
386.9880908851548
 42
-0.4142135623731284
 10
440.5102597317754
 20
388.0390563761523
 42
0.0
 10
440.5625956880185
 20
389.0376859109068
 42
-0.4142135623730951
 10
441.613561179016
 20
389.9839794894185
 42
0.0
 97
        0
 75
     0
 76
     1
 52
132.0
 41
9.999999999999998
 77
     0
 78
     2
 53
132.0
 43
809.7882467235379
 44
108.3993846042214
 45
-0.9289310318467428
 46
-0.8364132579485726
 79
     0
 53
222.0
 43
809.7882467235379
 44
108.3993846042214
 45
0.8364132579485726
 46
-0.9289310318467428
 79
     0
 47
0.1212528115745328
 98
        2
 10
443.0963088541489
 20
390.2337024247677
 10
443.0963088541489
 20
390.2337024247677
  0
LINE
  5
13CC
330
17
100
AcDbEntity
  8
STEMPEL
  6
CONTINUOUS
100
AcDbLine
 10
441.6658971352588
 20
390.982609024173
 30
0.0
 11
447.6576743437863
 21
390.6685932867154
 31
0.0
  0
LINE
  5
13CD
330
17
100
AcDbEntity
  8
STEMPEL
  6
CONTINUOUS
100
AcDbLine
 10
489.4673112156458
 20
383.4705813356413
 30
0.0
 11
495.4590884241732
 21
383.1565655981836
 31
0.0
  0
HATCH
  5
13CE
330
17
100
AcDbEntity
  8
SCHRAFF
100
AcDbHatch
 10
0.0
 20
0.0
 30
0.0
210
0.0
220
0.0
230
1.0
  2
_USER
 70
     0
 71
     1
 91
        1
 92
        7
 72
     1
 73
     1
 93
        8
 10
495.5114243804162
 20
384.1551951329382
 42
0.4142135623731006
 10
496.5623898714137
 20
385.1014887114498
 42
0.0
 10
496.6147258276566
 20
386.1001182462044
 42
0.4142135623730898
 10
495.668432249145
 20
387.1510837372019
 42
0.0
 10
489.6766550406174
 20
387.4650994746596
 42
0.4142135623731333
 10
488.6256895496199
 20
386.5188058961478
 42
0.0
 10
488.5733535933771
 20
385.5201763613932
 42
0.4142135623730562
 10
489.5196471718888
 20
384.4692108703958
 42
0.0
 97
        8
330
13D6
330
13D1
330
13D8
330
13CF
330
13D9
330
13D2
330
13D3
330
13D0
 75
     0
 76
     0
 52
222.0
 41
0.9999999999999998
 77
     0
 78
     1
 53
222.0
 43
897.8190825594733
 44
187.4769286019899
 45
0.6691306063588581
 46
-0.7431448254773944
 79
     0
 47
0.1071053300341939
 98
        1
 10
492.8142477079378
 20
385.7333672715233
  0
LINE
  5
13CF
102
{ACAD_REACTORS
330
13CE
102
}
330
17
100
AcDbEntity
  8
STEMPEL
  6
CONTINUOUS
100
AcDbLine
 10
489.6766550406174
 20
387.4650994746596
 30
0.0
 11
495.668432249145
 21
387.1510837372019
 31
0.0
  0
LINE
  5
13D0
102
{ACAD_REACTORS
330
13CE
102
}
330
17
100
AcDbEntity
  8
STEMPEL
  6
CONTINUOUS
100
AcDbLine
 10
489.5196471718888
 20
384.4692108703958
 30
0.0
 11
495.5114243804161
 21
384.1551951329382
 31
0.0
  0
LINE
  5
13D1
102
{ACAD_REACTORS
330
13CE
102
}
330
17
100
AcDbEntity
  8
STEMPEL
100
AcDbLine
 10
488.6256895496199
 20
386.5188058961479
 30
0.0
 11
488.5733535933771
 21
385.5201763613933
 31
0.0
  0
LINE
  5
13D2
102
{ACAD_REACTORS
330
13CE
102
}
330
17
100
AcDbEntity
  8
STEMPEL
100
AcDbLine
 10
496.6147258276566
 20
386.1001182462044
 30
0.0
 11
496.5623898714137
 21
385.1014887114498
 31
0.0
  0
ARC
  5
13D3
102
{ACAD_REACTORS
330
13CE
102
}
330
17
100
AcDbEntity
  8
STEMPEL
100
AcDbCircle
 10
495.5637603366591
 20
385.1538246676927
 30
0.0
 40
0.9999999999999998
100
AcDbArc
 50
267.0000000000009
 51
357.0000000000009
  0
LINE
  5
13D4
330
17
100
AcDbEntity
  8
STEMPEL
100
AcDbLine
 10
497.6133553624112
 20
386.0477822899614
 30
0.0
 11
497.5610194061683
 21
385.0491527552069
 31
0.0
  0
ARC
  5
13D5
330
17
100
AcDbEntity
  8
STEMPEL
100
AcDbCircle
 10
495.5637603366591
 20
385.1538246676927
 30
0.0
 40
1.999999999999999
100
AcDbArc
 50
267.0000000000009
 51
357.0000000000009
  0
ARC
  5
13D6
102
{ACAD_REACTORS
330
13CE
102
}
330
17
100
AcDbEntity
  8
STEMPEL
100
AcDbCircle
 10
489.5719831281317
 20
385.4678404051504
 30
0.0
 40
0.9999999999999998
100
AcDbArc
 50
177.0000000000009
 51
267.0000000000009
  0
ARC
  5
13D7
330
17
100
AcDbEntity
  8
STEMPEL
100
AcDbCircle
 10
495.6160962929021
 20
386.1524542024473
 30
0.0
 40
1.999999999999999
100
AcDbArc
 50
357.0000000000009
 51
87.00000000000091
  0
ARC
  5
13D8
102
{ACAD_REACTORS
330
13CE
102
}
330
17
100
AcDbEntity
  8
STEMPEL
100
AcDbCircle
 10
489.6243190843745
 20
386.466469939905
 30
0.0
 40
0.9999999999999998
100
AcDbArc
 50
87.00000000000091
 51
177.0000000000009
  0
ARC
  5
13D9
102
{ACAD_REACTORS
330
13CE
102
}
330
17
100
AcDbEntity
  8
STEMPEL
100
AcDbCircle
 10
495.6160962929021
 20
386.1524542024473
 30
0.0
 40
0.9999999999999998
100
AcDbArc
 50
357.0000000000009
 51
87.00000000000091
  0
LINE
  5
13DA
330
17
100
AcDbEntity
  8
STEMPEL
100
AcDbLine
 10
487.5747240586226
 20
385.5725123176363
 30
0.0
 11
487.6270600148654
 21
386.5711418523909
 31
0.0
  0
ARC
  5
13DB
330
17
100
AcDbEntity
  8
STEMPEL
100
AcDbCircle
 10
489.5719831281317
 20
385.4678404051504
 30
0.0
 40
1.999999999999999
100
AcDbArc
 50
177.0000000000009
 51
267.0000000000009
  0
ARC
  5
13DC
330
17
100
AcDbEntity
  8
STEMPEL
100
AcDbCircle
 10
489.6243190843745
 20
386.466469939905
 30
0.0
 40
1.999999999999999
100
AcDbArc
 50
87.00000000000091
 51
177.0000000000009
  0
HATCH
  5
13DD
330
17
100
AcDbEntity
  8
SCHRAFF
100
AcDbHatch
 10
0.0
 20
0.0
 30
0.0
210
0.0
220
0.0
230
1.0
  2
NET
 70
     0
 71
     0
 91
        2
 92
        7
 72
     1
 73
     1
 93
       10
 10
489.7289909968605
 20
388.4637290094141
 42
0.2539150913703598
 10
488.006517285111
 20
387.6423599595495
 42
0.0005032130446828
 10
487.9889504486628
 20
387.6178036992164
 42
0.1411920676771369
 10
487.6270600148655
 20
386.571141852391
 42
0.0
 10
487.5747240586224
 20
385.5725123176363
 42
0.4142135623730951
 10
489.4673112156456
 20
383.4705813356413
 42
0.0
 10
495.4590884241732
 20
383.1565655981836
 42
0.4142135623730951
 10
497.5610194061683
 20
385.0491527552069
 42
0.0
 10
497.6133553624112
 20
386.0477822899614
 42
0.4142135623730951
 10
495.720768205388
 20
388.1497132719565
 42
0.0
 97
        0
 92
       22
 72
     1
 73
     1
 93
        8
 10
495.668432249145
 20
387.1510837372019
 42
-0.4142135623730951
 10
496.6147258276566
 20
386.1001182462044
 42
0.0
 10
496.5623898714137
 20
385.1014887114498
 42
-0.4142135623730951
 10
495.5114243804161
 20
384.1551951329382
 42
0.0
 10
489.5196471718886
 20
384.4692108703958
 42
-0.4142135623731284
 10
488.573353593377
 20
385.5201763613934
 42
0.0
 10
488.6256895496201
 20
386.5188058961479
 42
-0.4142135623730951
 10
489.6766550406176
 20
387.4650994746596
 42
0.0
 97
        0
 75
     0
 76
     1
 52
132.0
 41
9.999999999999998
 77
     0
 78
     2
 53
132.0
 43
857.8513405851392
 44
105.8805045894624
 45
-0.9289310318467428
 46
-0.8364132579485726
 79
     0
 53
222.0
 43
857.8513405851392
 44
105.8805045894624
 45
0.8364132579485726
 46
-0.9289310318467428
 79
     0
 47
0.1212528115745328
 98
        2
 10
491.1594027157505
 20
387.7148224100088
 10
491.1594027157505
 20
387.7148224100088
  0
LINE
  5
13DE
330
17
100
AcDbEntity
  8
STEMPEL
  6
CONTINUOUS
100
AcDbLine
 10
489.7289909968604
 20
388.4637290094141
 30
0.0
 11
495.7207682053879
 21
388.1497132719565
 31
0.0
  0
ARC
  5
13DF
330
17
100
AcDbEntity
  8
VERDECKT
100
AcDbCircle
 10
546.0724009425218
 20
381.1629790614781
 30
0.0
 40
48.66679036615717
100
AcDbArc
 50
175.4199021030808
 51
265.9135784590999
  0
ARC
  5
13E0
330
17
100
AcDbEntity
  8
VERDECKT
100
AcDbCircle
 10
546.0724009425218
 20
381.1629790614781
 30
0.0
 40
54.66679036615717
100
AcDbArc
 50
177.6897043570833
 51
268.0250669192299
  0
ARC
  5
13E1
330
17
100
AcDbEntity
  8
VERDECKT
100
AcDbCircle
 10
550.1831952339054
 20
286.159596163233
 30
0.0
 40
40.0
100
AcDbArc
 50
29.25091171331045
 51
87.00000000000091
  0
ARC
  5
13E2
330
17
100
AcDbEntity
  8
VERDECKT
100
AcDbCircle
 10
550.1831952339054
 20
286.159596163233
 30
0.0
 40
46.0
100
AcDbArc
 50
29.25091171331045
 51
87.00000000000091
  0
LINE
  5
13E3
330
17
100
AcDbEntity
  8
STEMPEL
100
AcDbLine
 10
628.3077663654369
 20
240.8031168649881
 30
0.0
 11
608.8441489433271
 21
275.5566093644287
 31
0.0
  0
LINE
  5
13E4
330
17
100
AcDbEntity
  8
VERDECKT
100
AcDbLine
 10
608.8441489433271
 20
275.5566093644287
 30
0.0
 11
590.3176538979078
 21
308.636811910462
 31
0.0
  0
LINE
  5
13E5
330
17
100
AcDbEntity
  8
STEMPEL
100
AcDbLine
 10
623.8584132972069
 20
236.4686110126091
 30
0.0
 11
602.0375880657065
 21
275.4310438208646
 31
0.0
  0
LINE
  5
13E6
330
17
100
AcDbEntity
  8
VERDECKT
100
AcDbLine
 10
602.0375880657065
 20
275.4310438208646
 30
0.0
 11
585.0827245069511
 21
305.7050011608235
 31
0.0
  0
LINE
  5
13E7
330
17
100
AcDbEntity
  8
MITTEL
100
AcDbLine
 10
620.3527631128126
 20
233.053449076113
 30
0.0
 11
631.8134165498313
 21
244.2182788014844
 31
0.0
  0
DIMENSION
  5
14A0
330
17
100
AcDbEntity
  8
BEM
100
AcDbDimension
  2
*D10
 10
272.1286308032952
 20
462.1497351876764
 30
0.0
 11
327.1286308032951
 21
468.6497351876765
 31
0.0
 70
    32
 71
     5
 42
109.9999999999999
  3
STANDARD
100
AcDbAlignedDimension
 13
382.1286308032951
 23
449.7675383062951
 33
0.0
 14
272.1286308032952
 24
439.7675383062952
 34
0.0
100
AcDbRotatedDimension
  0
HATCH
  5
15B2
330
17
100
AcDbEntity
  8
SCHRAFF
100
AcDbHatch
 10
0.0
 20
0.0
 30
0.0
210
0.0
220
0.0
230
1.0
  2
NET
 70
     0
 71
     1
 91
        2
 92
        7
 72
     0
 73
     1
 93
        7
 10
558.3218220342643
 20
403.2392013726902
 10
556.3526097191757
 20
403.879037239927
 10
556.167555096026
 20
400.3479846809124
 10
543.1853711442167
 20
401.0283521120707
 10
542.9152509816169
 20
395.8741523673893
 10
548.7927358086184
 20
393.3793080756731
 10
557.7804016214097
 20
392.9082844694865
 97
        5
330
15B8
330
15B5
330
15B7
330
15BE
330
15B3
 92
        7
 72
     0
 73
     1
 93
        7
 10
551.0813992223129
 20
265.0837040209012
 10
542.0937334095221
 20
265.5547276270878
 10
535.9876638194684
 20
263.6879148102867
 10
535.7536653577186
 20
259.2229581769213
 10
548.7358493095281
 20
258.5425907457631
 10
548.5507946863784
 20
255.0115381867485
 10
550.5761005103084
 20
255.4420302290135
 97
        5
330
15C9
330
15B9
330
15B6
330
15BA
330
15B4
 75
     1
 76
     1
 52
45.0
 41
15.0
 77
     0
 78
     2
 53
45.0
 43
17.27727101876076
 44
8.781028284323213
 45
-1.325825214724776
 46
1.325825214724776
 79
     0
 53
135.0
 43
17.27727101876076
 44
8.781028284323213
 45
-1.325825214724776
 46
-1.325825214724776
 79
     0
 47
0.2987060804198341
 98
        2
 10
551.9572274666336
 20
397.1391598777318
 10
543.5895800054343
 20
261.2278918284008
1001
GradientColor1ACI
1070
     5
1001
GradientColor2ACI
1070
     2
1001
ACAD
1010
0.0
1020
0.0
1030
0.0
  0
LINE
  5
15B3
102
{ACAD_REACTORS
330
15B2
102
}
330
17
100
AcDbEntity
  8
STEMPEL
100
AcDbLine
 10
558.3218220342643
 20
403.2392013726902
 30
0.0
 11
557.7804016214097
 21
392.9082844694865
 31
0.0
  0
LINE
  5
15B4
102
{ACAD_REACTORS
330
15B2
102
}
330
17
100
AcDbEntity
  8
STEMPEL
100
AcDbLine
 10
551.0813992223129
 20
265.0837040209012
 30
0.0
 11
550.5761005103084
 21
255.4420302290135
 31
0.0
  0
LINE
  5
15B5
102
{ACAD_REACTORS
330
15B2
102
}
330
17
100
AcDbEntity
  8
STEMPEL
100
AcDbLine
 10
543.1853711442167
 20
401.0283521120707
 30
0.0
 11
542.8009586000911
 21
393.6933238131307
 31
0.0
  0
LINE
  5
15B6
102
{ACAD_REACTORS
330
15B2
102
}
330
17
100
AcDbEntity
  8
STEMPEL
100
AcDbLine
 10
536.1019562009942
 20
265.8687433645454
 30
0.0
 11
535.7536653577186
 21
259.2229581769213
 31
0.0
  0
LINE
  5
15B7
102
{ACAD_REACTORS
330
15B2
102
}
330
17
100
AcDbEntity
  8
STEMPEL
100
AcDbLine
 10
548.7927358086184
 20
393.3793080756731
 30
0.0
 11
542.9152509816167
 21
395.8741523673894
 31
0.0
  0
LINE
  5
15B8
102
{ACAD_REACTORS
330
15B2
102
}
330
17
100
AcDbEntity
  8
STEMPEL
100
AcDbLine
 10
558.3218220342643
 20
403.2392013726902
 30
0.0
 11
556.3526097191759
 21
403.8790372399269
 31
0.0
  0
LINE
  5
15B9
102
{ACAD_REACTORS
330
15B2
102
}
330
17
100
AcDbEntity
  8
STEMPEL
100
AcDbLine
 10
542.0937334095218
 20
265.5547276270876
 30
0.0
 11
535.9876638194687
 21
263.6879148102867
 31
0.0
  0
LINE
  5
15BA
102
{ACAD_REACTORS
330
15B2
102
}
330
17
100
AcDbEntity
  8
STEMPEL
100
AcDbLine
 10
550.5761005103086
 20
255.4420302290135
 30
0.0
 11
548.5507946863784
 21
255.0115381867485
 31
0.0
  0
LINE
  5
15BB
330
17
100
AcDbEntity
  8
STEMPEL
100
AcDbLine
 10
553.0001543574578
 20
263.4810878062834
 30
0.0
 11
553.7590257229805
 21
277.9612160602246
 31
0.0
  0
LINE
  5
15BC
330
17
100
AcDbEntity
  8
STEMPEL
100
AcDbLine
 10
559.0972932597606
 20
379.8214286051912
 30
0.0
 11
559.8561646252834
 21
394.3015568591325
 31
0.0
  0
LINE
  5
15BD
330
17
100
AcDbEntity
  8
STEMPEL
100
AcDbLine
 10
559.8561646252834
 20
394.3015568591325
 30
0.0
 11
557.8589055557743
 21
394.4062287716184
 31
0.0
  0
LINE
  5
15BE
102
{ACAD_REACTORS
330
15B2
102
}
330
17
100
AcDbEntity
  8
STEMPEL
100
AcDbLine
 10
557.7804016214098
 20
392.9082844694865
 30
0.0
 11
541.8023290653366
 21
393.7456597693737
 31
0.0
  0
LINE
  5
15BF
330
17
100
AcDbEntity
  8
STEMPEL
100
AcDbLine
 10
535.6005182505478
 20
275.4080599009567
 30
0.0
 11
535.7836940973981
 21
278.9032632725976
 31
0.0
  0
LINE
  5
15C0
330
17
100
AcDbEntity
  8
STEMPEL
100
AcDbLine
 10
541.1219616341782
 20
380.7634758175641
 30
0.0
 11
541.3051374810287
 21
384.2586791892053
 31
0.0
  0
LINE
  5
15C1
330
17
100
AcDbEntity
  8
STEMPEL
100
AcDbLine
 10
551.1082569817241
 20
380.2401162551348
 30
0.0
 11
541.1219616341784
 21
380.7634758175642
 31
0.0
  0
LINE
  5
15C2
330
17
100
AcDbEntity
  8
STEMPEL
100
AcDbLine
 10
545.5083096637292
 20
273.3867560363954
 30
0.0
 11
545.7699894449439
 21
278.3799037101681
 31
0.0
  0
LINE
  5
15C3
330
17
100
AcDbEntity
  8
STEMPEL
100
AcDbLine
 10
551.1082569817241
 20
380.2401162551347
 30
0.0
 11
551.3699367629389
 21
385.2332639289077
 31
0.0
  0
LINE
  5
15C4
330
17
100
AcDbEntity
  8
STEMPEL
100
AcDbLine
 10
551.3699367629389
 20
385.2332639289077
 30
0.0
 11
559.6007024683768
 21
389.4270485246543
 31
0.0
  0
LINE
  5
15C5
330
17
100
AcDbEntity
  8
STEMPEL
100
AcDbLine
 10
545.6136713575046
 20
390.0411125727609
 30
0.0
 11
540.1212089163545
 21
390.3289603320971
 31
0.0
  0
LINE
  5
15C6
330
17
100
AcDbEntity
  8
STEMPEL
100
AcDbLine
 10
545.299655620047
 20
384.0493353642335
 30
0.0
 11
541.3051374810287
 21
384.2586791892053
 31
0.0
  0
ARC
  5
15C7
330
17
100
AcDbEntity
  8
STEMPEL
100
AcDbCircle
 10
545.4566634887759
 20
387.0452239684972
 30
0.0
 40
2.999999999999999
100
AcDbArc
 50
266.9999999999944
 51
86.99999999999441
  0
LINE
  5
15C8
330
17
100
AcDbEntity
  8
STEMPEL
100
AcDbLine
 10
541.8023290653366
 20
393.7456597693737
 30
0.0
 11
540.2258808288403
 21
392.326219401606
 31
0.0
  0
LINE
  5
15C9
102
{ACAD_REACTORS
330
15B2
102
}
330
17
100
AcDbEntity
  8
STEMPEL
100
AcDbLine
 10
551.081399222313
 20
265.0837040209012
 30
0.0
 11
535.1033266662398
 21
265.9210793207884
 31
0.0
  0
LINE
  5
15CA
330
17
100
AcDbEntity
  8
STEMPEL
100
AcDbLine
 10
539.2810206521085
 20
269.2069388674575
 30
0.0
 11
533.7885582109582
 21
269.4947866267936
 31
0.0
  0
LINE
  5
15CB
330
17
100
AcDbEntity
  8
STEMPEL
100
AcDbLine
 10
539.5950363895662
 20
275.1987160759849
 30
0.0
 11
535.6005182505478
 21
275.4080599009567
 31
0.0
  0
LINE
  5
15CC
330
17
100
AcDbEntity
  8
STEMPEL
100
AcDbLine
 10
545.7699894449439
 20
278.3799037101682
 30
0.0
 11
535.7836940973981
 21
278.9032632725977
 31
0.0
  0
LINE
  5
15CD
330
17
100
AcDbEntity
  8
STEMPEL
100
AcDbLine
 10
535.1033266662398
 20
265.9210793207884
 30
0.0
 11
533.6838862984724
 21
267.4975275572845
 31
0.0
  0
ARC
  5
15CE
330
17
100
AcDbEntity
  8
STEMPEL
100
AcDbCircle
 10
539.4380285208373
 20
272.2028274717211
 30
0.0
 40
2.999999999999999
100
AcDbArc
 50
266.9999999999944
 51
86.99999999999441
  0
LINE
  5
15CF
330
17
100
AcDbEntity
  8
STEMPEL
100
AcDbLine
 10
545.5083096637292
 20
273.3867560363954
 30
0.0
 11
553.2556165143645
 21
268.3555961407618
 31
0.0
  0
LINE
  5
15D0
330
17
100
AcDbEntity
  8
STEMPEL
100
AcDbLine
 10
553.0001543574577
 20
263.4810878062834
 30
0.0
 11
551.0028952879486
 21
263.5857597187692
 31
0.0
  0
LINE
  5
15D1
330
17
100
AcDbEntity
  8
STEMPEL
100
AcDbLine
 10
533.6838862984724
 20
267.4975275572843
 30
0.0
 11
534.2857497952663
 21
278.9817672069619
 31
0.0
  0
LINE
  5
15D2
330
17
100
AcDbEntity
  8
STEMPEL
100
AcDbLine
 10
539.6240173320466
 20
380.8419797519286
 30
0.0
 11
540.2258808288403
 21
392.326219401606
 31
0.0
  0
HATCH
  5
15D3
330
17
100
AcDbEntity
  8
SCHRAFF
100
AcDbHatch
 10
0.0
 20
0.0
 30
0.0
210
0.0
220
0.0
230
1.0
  2
NET
 70
     0
 71
     0
 91
        2
 92
        7
 72
     1
 73
     1
 93
       13
 10
535.7836940973982
 20
278.9032632725977
 42
0.0
 10
535.6005182505478
 20
275.4080599009567
 42
0.0
 10
539.5950363895662
 20
275.1987160759849
 42
-1.0
 10
539.2810206521083
 20
269.2069388674574
 42
0.0
 10
533.7885582109582
 20
269.4947866267936
 42
0.0
 10
533.6838862984724
 20
267.4975275572845
 42
0.0
 10
535.1033266662398
 20
265.9210793207884
 42
0.0
 10
551.081399222313
 20
265.0837040209012
 42
0.0
 10
551.0028952879486
 20
263.5857597187692
 42
0.0
 10
553.0001543574578
 20
263.4810878062834
 42
0.0
 10
553.2556165143645
 20
268.3555961407618
 42
0.0
 10
545.5083096637292
 20
273.3867560363954
 42
0.0
 10
545.7699894449439
 20
278.3799037101682
 42
0.0
 97
        0
 92
        7
 72
     1
 73
     1
 93
       13
 10
551.3699367629389
 20
385.2332639289077
 42
0.0
 10
559.6007024683768
 20
389.4270485246543
 42
0.0
 10
559.8561646252834
 20
394.3015568591325
 42
0.0
 10
557.8589055557743
 20
394.4062287716184
 42
0.0
 10
557.7804016214098
 20
392.9082844694865
 42
0.0
 10
541.8023290653366
 20
393.7456597693737
 42
0.0
 10
540.2258808288403
 20
392.326219401606
 42
0.0
 10
540.1212089163545
 20
390.3289603320971
 42
0.0
 10
545.6136713575046
 20
390.0411125727609
 42
-1.0
 10
545.2996556200469
 20
384.0493353642334
 42
0.0
 10
541.3051374810287
 20
384.2586791892053
 42
0.0
 10
541.1219616341784
 20
380.7634758175642
 42
0.0
 10
551.1082569817241
 20
380.2401162551348
 42
0.0
 97
        0
 75
     0
 76
     1
 52
312.0
 41
20.0
 77
     0
 78
     2
 53
312.0
 43
330.9360650182429
 44
684.2082305721644
 45
1.857862063693485
 46
1.672826515897144
 79
     0
 53
41.99999999999998
 43
330.9360650182429
 44
684.2082305721644
 45
-1.672826515897144
 46
1.857862063693485
 79
     0
 47
0.3063785370066298
 98
        2
 10
543.2778728395668
 20
276.9226283876256
 10
549.7169215774571
 20
382.2247777391745
  0
ENDSEC
  0
SECTION
  2
OBJECTS
  0
DICTIONARY
  5
C
330
0
100
AcDbDictionary
281
     1
  3
ACAD_CIP_PREVIOUS_PRODUCT_INFO
350
1238
  3
ACAD_COLOR
350
104C
  3
ACAD_DETAILVIEWSTYLE
350
1234
  3
ACAD_GROUP
350
D
  3
ACAD_LAYOUT
350
104D
  3
ACAD_MATERIAL
350
104B
  3
ACAD_MLEADERSTYLE
350
122F
  3
ACAD_MLINESTYLE
350
1A
  3
ACAD_PLOTSETTINGS
350
104E
  3
ACAD_PLOTSTYLENAME
350
1049
  3
ACAD_SCALELIST
350
121D
  3
ACAD_SECTIONVIEWSTYLE
350
1231
  3
ACAD_TABLESTYLE
350
121B
  3
ACAD_VISUALSTYLE
350
1202
  3
ACDB_RECOMPOSE_DATA
350
171B
  3
ACDBVARIABLEDICTIONARY
350
43
  0
DICTIONARY
  5
14ED
330
8
100
AcDbDictionary
280
     1
281
     1
  0
DICTIONARY
  5
129A
330
2
100
AcDbDictionary
280
     1
281
     1
  3
ACAD_LAYERSTATES
360
129B
  0
DICTIONARY
  5
14D8
330
E
100
AcDbDictionary
280
     1
281
     1
  3
ADSK_XREC_LAYER_RECONCILED
360
14D9
  0
DICTIONARY
  5
14DA
330
36
100
AcDbDictionary
280
     1
281
     1
  3
ADSK_XREC_LAYER_RECONCILED
360
14DB
  0
DICTIONARY
  5
14DC
330
37
100
AcDbDictionary
280
     1
281
     1
  3
ADSK_XREC_LAYER_RECONCILED
360
14DD
  0
DICTIONARY
  5
14DE
330
38
100
AcDbDictionary
280
     1
281
     1
  3
ADSK_XREC_LAYER_RECONCILED
360
14DF
  0
DICTIONARY
  5
14E0
330
39
100
AcDbDictionary
280
     1
281
     1
  3
ADSK_XREC_LAYER_RECONCILED
360
14E1
  0
DICTIONARY
  5
14E2
330
3A
100
AcDbDictionary
280
     1
281
     1
  3
ADSK_XREC_LAYER_RECONCILED
360
14E3
  0
DICTIONARY
  5
14E4
330
3B
100
AcDbDictionary
280
     1
281
     1
  3
ADSK_XREC_LAYER_RECONCILED
360
14E5
  0
DICTIONARY
  5
14E6
330
3D
100
AcDbDictionary
280
     1
281
     1
  3
ADSK_XREC_LAYER_RECONCILED
360
14E7
  0
DICTIONARY
  5
14E8
330
1293
100
AcDbDictionary
280
     1
281
     1
  3
ADSK_XREC_LAYER_RECONCILED
360
14E9
  0
XRECORD
  5
1238
102
{ACAD_REACTORS
330
C
102
}
330
C
100
AcDbXrecord
280
     1
300
ACD
300
2013
300
ACD_F_S
  0
DICTIONARY
  5
104C
102
{ACAD_REACTORS
330
C
102
}
330
C
100
AcDbDictionary
281
     1
  0
DICTIONARY
  5
1234
102
{ACAD_REACTORS
330
C
102
}
330
C
100
AcDbDictionary
281
     1
  3
Imperial24
350
1235
  0
DICTIONARY
  5
D
102
{ACAD_REACTORS
330
C
102
}
330
C
100
AcDbDictionary
281
     1
  0
DICTIONARY
  5
104D
102
{ACAD_REACTORS
330
C
102
}
330
C
100
AcDbDictionary
281
     1
  3
Layout1
350
1050
  3
Model
350
104F
  0
DICTIONARY
  5
104B
102
{ACAD_REACTORS
330
C
102
}
330
C
100
AcDbDictionary
281
     1
  3
ByBlock
350
11F2
  3
ByLayer
350
11EA
  3
Global
350
11FA
  0
DICTIONARY
  5
122F
102
{ACAD_REACTORS
330
C
102
}
330
C
100
AcDbDictionary
281
     1
  3
Standard
350
1230
  0
DICTIONARY
  5
1A
102
{ACAD_REACTORS
330
C
102
}
330
C
100
AcDbDictionary
281
     1
  3
STANDARD
350
1B
  0
DICTIONARY
  5
104E
102
{ACAD_REACTORS
330
C
102
}
330
C
100
AcDbDictionary
281
     1
  0
ACDBDICTIONARYWDFLT
  5
1049
102
{ACAD_REACTORS
330
C
102
}
330
C
100
AcDbDictionary
281
     1
  3
Normal
350
104A
100
AcDbDictionaryWithDefault
340
104A
  0
DICTIONARY
  5
121D
102
{ACAD_REACTORS
330
C
102
}
330
C
100
AcDbDictionary
281
     1
  3
A0
350
121E
  3
A1
350
121F
  3
A2
350
1220
  3
A3
350
1221
  3
A4
350
1222
  3
A5
350
1223
  3
A6
350
1224
  3
A7
350
1225
  3
A8
350
1226
  3
A9
350
1227
  3
B0
350
1228
  3
B1
350
1229
  3
B2
350
122A
  3
B3
350
122B
  3
B4
350
122C
  3
B5
350
122D
  3
B6
350
122E
  0
DICTIONARY
  5
1231
102
{ACAD_REACTORS
330
C
102
}
330
C
100
AcDbDictionary
281
     1
  3
Imperial24
350
1233
  0
DICTIONARY
  5
121B
102
{ACAD_REACTORS
330
C
102
}
330
C
100
AcDbDictionary
281
     1
  3
Standard
350
121C
  0
DICTIONARY
  5
1202
102
{ACAD_REACTORS
330
C
102
}
330
C
100
AcDbDictionary
281
     1
  3
2dWireframe
350
1208
  3
Basic
350
1207
  3
Brighten
350
120E
  3
ColorChange
350
1212
  3
Conceptual
350
120B
  3
Dim
350
120D
  3
EdgeColorOff
350
121A
  3
Facepattern
350
1211
  3
Flat
350
1203
  3
FlatWithEdges
350
1204
  3
Gouraud
350
1205
  3
GouraudWithEdges
350
1206
  3
Hidden
350
120A
  3
JitterOff
350
1218
  3
Linepattern
350
1210
  3
OverhangOff
350
1219
  3
Realistic
350
120C
  3
Shaded
350
1217
  3
Shaded with edges
350
1216
  3
Shades of Gray
350
1213
  3
Sketchy
350
1214
  3
Thicken
350
120F
  3
Wireframe
350
1209
  3
X-Ray
350
1215
  0
XRECORD
  5
171B
102
{ACAD_REACTORS
330
C
102
}
330
C
100
AcDbXrecord
280
     1
 90
        1
330
121C
  0
DICTIONARY
  5
43
102
{ACAD_REACTORS
330
C
102
}
330
C
100
AcDbDictionary
281
     1
  3
CANNOSCALE
350
152B
  3
CMLEADERSTYLE
350
1528
  3
CTABLESTYLE
350
1527
  3
CVIEWDETAILSTYLE
350
1529
  3
CVIEWSECTIONSTYLE
350
152A
  3
DIMADEC
350
44
  3
DIMASSOC
350
10D0
  3
PROJECTNAME
350
10D1
  3
SORTENTS
350
FAE
  0
DICTIONARY
  5
129B
102
{ACAD_REACTORS
330
129A
102
}
330
129A
100
AcDbDictionary
281
     1
  0
XRECORD
  5
14D9
102
{ACAD_REACTORS
330
14D8
102
}
330
14D8
100
AcDbXrecord
280
     1
290
     1
  0
XRECORD
  5
14DB
102
{ACAD_REACTORS
330
14DA
102
}
330
14DA
100
AcDbXrecord
280
     1
290
     1
  0
XRECORD
  5
14DD
102
{ACAD_REACTORS
330
14DC
102
}
330
14DC
100
AcDbXrecord
280
     1
290
     1
  0
XRECORD
  5
14DF
102
{ACAD_REACTORS
330
14DE
102
}
330
14DE
100
AcDbXrecord
280
     1
290
     1
  0
XRECORD
  5
14E1
102
{ACAD_REACTORS
330
14E0
102
}
330
14E0
100
AcDbXrecord
280
     1
290
     1
  0
XRECORD
  5
14E3
102
{ACAD_REACTORS
330
14E2
102
}
330
14E2
100
AcDbXrecord
280
     1
290
     1
  0
XRECORD
  5
14E5
102
{ACAD_REACTORS
330
14E4
102
}
330
14E4
100
AcDbXrecord
280
     1
290
     1
  0
XRECORD
  5
14E7
102
{ACAD_REACTORS
330
14E6
102
}
330
14E6
100
AcDbXrecord
280
     1
290
     1
  0
XRECORD
  5
14E9
102
{ACAD_REACTORS
330
14E8
102
}
330
14E8
100
AcDbXrecord
280
     1
290
     1
  0
ACDBDETAILVIEWSTYLE
  5
1235
102
{ACAD_REACTORS
330
1234
102
}
330
1234
100
AcDbModelDocViewStyle
 70
     0
  3
Imperial24
290
     0
100
AcDbDetailViewStyle
 70
     0
 71
     0
 90
        3
 71
     1
340
F
 62
   256
 40
0.24
340
0
 62
   256
 40
0.24
300

 40
0.36
280
     3
 71
     2
340
13
 90
       25
 62
   256
 71
     3
340
F
 62
   256
 40
0.24
 90
        1
 40
0.75
 90
        1
300
%<\AcVar ViewType \f "%tc1">% %<\AcVar ViewDetailId>%\PVARIA %<\AcVar ViewScale \f "%sn">%
 71
     4
340
13
 90
       25
 62
   256
340
13
 90
       25
 62
   256
280
     0
  0
LAYOUT
  5
1050
102
{ACAD_REACTORS
330
104D
102
}
330
104D
100
AcDbPlotSettings
  1

  2
RICOH Aficio 2027 PCL 6
  4

  6

 40
0.0
 41
0.0
 42
0.0
 43
0.0
 44
0.0
 45
0.0
 46
0.0
 47
0.0
 48
0.0
 49
0.0
140
0.0
141
0.0
142
1.0
143
1.0
 70
   688
 72
     0
 73
     0
 74
     5
  7
monochrome1.ctb
 75
    16
147
1.0
 76
     0
 77
     2
 78
   300
148
0.0
149
0.0
100
AcDbLayout
  1
Layout1
 70
     0
 71
     1
 10
0.0
 20
0.0
 11
12.0
 21
9.0
 12
-64.62384697381565
 22
50.00000000000001
 32
-67.27695346289357
 14
1.000000000000000E+20
 24
1.000000000000000E+20
 34
1.000000000000000E+20
 15
-1.000000000000000E+20
 25
-1.000000000000000E+20
 35
-1.000000000000000E+20
146
0.0
 13
0.0
 23
0.0
 33
0.0
 16
1.0
 26
0.0
 36
0.0
 17
0.0
 27
1.0
 37
0.0
 76
     0
330
14
  0
LAYOUT
  5
104F
102
{ACAD_XDICTIONARY
360
154F
102
}
102
{ACAD_REACTORS
330
104D
102
}
330
104D
100
AcDbPlotSettings
  1

  2
RICOH Aficio 2027 PCL 6
  4
A4
  6

 40
5.027083396911621
 41
5.027085304260253
 42
5.027084350585937
 43
5.027069091796875
 44
209.9733276367187
 45
296.9259948730469
 46
0.0
 47
0.0
 48
0.0
 49
0.0
140
0.0
141
0.0
142
1.0
143
1.0
 70
 11952
 72
     0
 73
     1
 74
     0
  7
monochrome1.ctb
 75
     0
147
1.0
 76
     0
 77
     2
 78
   300
148
-3033.802295558624
149
90.39774808860634
100
AcDbLayout
  1
Model
 70
     1
 71
     0
 10
0.0
 20
0.0
 11
12.0
 21
9.0
 12
0.0
 22
0.0
 32
0.0
 14
0.0
 24
0.0
 34
0.0
 15
0.0
 25
0.0
 35
0.0
146
0.0
 13
0.0
 23
0.0
 33
0.0
 16
1.0
 26
0.0
 36
0.0
 17
0.0
 27
1.0
 37
0.0
 76
     0
330
17
331
11E8
  0
MATERIAL
  5
11F2
102
{ACAD_XDICTIONARY
360
11F3
102
}
102
{ACAD_REACTORS
330
104B
102
}
330
104B
100
AcDbMaterial
  1
ByBlock
 72
     0
 43
0.0208333333333333
 43
0.0
 43
0.0
 43
0.0
 43
0.0
 43
0.0208333333333333
 43
0.0
 43
0.0
 43
0.0
 43
0.0
 43
1.0
 43
0.0
 43
0.0
 43
0.0
 43
0.0
 43
1.0
 77
     0
 47
0.0208333333333333
 47
0.0
 47
0.0
 47
0.0
 47
0.0
 47
0.0208333333333333
 47
0.0
 47
0.0
 47
0.0
 47
0.0
 47
1.0
 47
0.0
 47
0.0
 47
0.0
 47
0.0
 47
1.0
171
     0
 49
0.0208333333333333
 49
0.0
 49
0.0
 49
0.0
 49
0.0
 49
0.0208333333333333
 49
0.0
 49
0.0
 49
0.0
 49
0.0
 49
1.0
 49
0.0
 49
0.0
 49
0.0
 49
0.0
 49
1.0
175
     0
142
0.0208333333333333
142
0.0
142
0.0
142
0.0
142
0.0
142
0.0208333333333333
142
0.0
142
0.0
142
0.0
142
0.0
142
1.0
142
0.0
142
0.0
142
0.0
142
0.0
142
1.0
179
     0
144
0.0208333333333333
144
0.0
144
0.0
144
0.0
144
0.0
144
0.0208333333333333
144
0.0
144
0.0
144
0.0
144
0.0
144
1.0
144
0.0
144
0.0
144
0.0
144
0.0
144
1.0
147
0.0208333333333333
147
0.0
147
0.0
147
0.0
147
0.0
147
0.0208333333333333
147
0.0
147
0.0
147
0.0
147
0.0
147
1.0
147
0.0
147
0.0
147
0.0
147
0.0
147
1.0
  0
MATERIAL
  5
11EA
102
{ACAD_XDICTIONARY
360
11EB
102
}
102
{ACAD_REACTORS
330
104B
102
}
330
104B
100
AcDbMaterial
  1
ByLayer
 72
     0
 43
0.0208333333333333
 43
0.0
 43
0.0
 43
0.0
 43
0.0
 43
0.0208333333333333
 43
0.0
 43
0.0
 43
0.0
 43
0.0
 43
1.0
 43
0.0
 43
0.0
 43
0.0
 43
0.0
 43
1.0
 77
     0
 47
0.0208333333333333
 47
0.0
 47
0.0
 47
0.0
 47
0.0
 47
0.0208333333333333
 47
0.0
 47
0.0
 47
0.0
 47
0.0
 47
1.0
 47
0.0
 47
0.0
 47
0.0
 47
0.0
 47
1.0
171
     0
 49
0.0208333333333333
 49
0.0
 49
0.0
 49
0.0
 49
0.0
 49
0.0208333333333333
 49
0.0
 49
0.0
 49
0.0
 49
0.0
 49
1.0
 49
0.0
 49
0.0
 49
0.0
 49
0.0
 49
1.0
175
     0
142
0.0208333333333333
142
0.0
142
0.0
142
0.0
142
0.0
142
0.0208333333333333
142
0.0
142
0.0
142
0.0
142
0.0
142
1.0
142
0.0
142
0.0
142
0.0
142
0.0
142
1.0
179
     0
144
0.0208333333333333
144
0.0
144
0.0
144
0.0
144
0.0
144
0.0208333333333333
144
0.0
144
0.0
144
0.0
144
0.0
144
1.0
144
0.0
144
0.0
144
0.0
144
0.0
144
1.0
147
0.0208333333333333
147
0.0
147
0.0
147
0.0
147
0.0
147
0.0208333333333333
147
0.0
147
0.0
147
0.0
147
0.0
147
1.0
147
0.0
147
0.0
147
0.0
147
0.0
147
1.0
  0
MATERIAL
  5
11FA
102
{ACAD_XDICTIONARY
360
11FB
102
}
102
{ACAD_REACTORS
330
104B
102
}
330
104B
100
AcDbMaterial
  1
Global
 72
     0
 43
0.0208333333333333
 43
0.0
 43
0.0
 43
0.0
 43
0.0
 43
0.0208333333333333
 43
0.0
 43
0.0
 43
0.0
 43
0.0
 43
1.0
 43
0.0
 43
0.0
 43
0.0
 43
0.0
 43
1.0
 77
     0
 47
0.0208333333333333
 47
0.0
 47
0.0
 47
0.0
 47
0.0
 47
0.0208333333333333
 47
0.0
 47
0.0
 47
0.0
 47
0.0
 47
1.0
 47
0.0
 47
0.0
 47
0.0
 47
0.0
 47
1.0
171
     0
 49
0.0208333333333333
 49
0.0
 49
0.0
 49
0.0
 49
0.0
 49
0.0208333333333333
 49
0.0
 49
0.0
 49
0.0
 49
0.0
 49
1.0
 49
0.0
 49
0.0
 49
0.0
 49
0.0
 49
1.0
175
     0
142
0.0208333333333333
142
0.0
142
0.0
142
0.0
142
0.0
142
0.0208333333333333
142
0.0
142
0.0
142
0.0
142
0.0
142
1.0
142
0.0
142
0.0
142
0.0
142
0.0
142
1.0
179
     0
144
0.0208333333333333
144
0.0
144
0.0
144
0.0
144
0.0
144
0.0208333333333333
144
0.0
144
0.0
144
0.0
144
0.0
144
1.0
144
0.0
144
0.0
144
0.0
144
0.0
144
1.0
147
0.0208333333333333
147
0.0
147
0.0
147
0.0
147
0.0
147
0.0208333333333333
147
0.0
147
0.0
147
0.0
147
0.0
147
1.0
147
0.0
147
0.0
147
0.0
147
0.0
147
1.0
  0
MLEADERSTYLE
  5
1230
102
{ACAD_XDICTIONARY
360
1750
102
}
102
{ACAD_REACTORS
330
122F
102
}
330
122F
100
AcDbMLeaderStyle
170
     2
171
     1
172
     0
 90
        2
 40
0.0
 41
0.0
173
     1
 91
-1056964608
340
11
 92
       -2
290
     1
 42
0.09
291
     1
 43
0.36
  3
Standard
 44
0.18
300

342
F
174
     1
178
     6
175
     1
176
     0
 93
-1056964608
 45
0.18
292
     0
297
     0
 46
0.18
 94
-1056964608
 47
1.0
 49
1.0
140
1.0
293
     1
141
0.0
294
     1
177
     0
142
1.0
295
     0
296
     0
143
0.125
1001
ACAD_MLEADERVER
1070
     2
  0
MLINESTYLE
  5
1B
102
{ACAD_REACTORS
330
1A
102
}
330
1A
100
AcDbMlineStyle
  2
STANDARD
 70
     0
  3

 62
   256
 51
90.0
 52
90.0
 71
     2
 49
0.5
 62
   256
  6
BYLAYER
 49
-0.5
 62
   256
  6
BYLAYER
  0
ACDBPLACEHOLDER
  5
104A
102
{ACAD_REACTORS
330
1049
102
}
330
1049
  0
SCALE
  5
121E
102
{ACAD_REACTORS
330
121D
102
}
330
121D
100
AcDbScale
 70
     0
300
1:1
140
1.0
141
1.0
290
     1
  0
SCALE
  5
121F
102
{ACAD_REACTORS
330
121D
102
}
330
121D
100
AcDbScale
 70
     0
300
1/128" = 1'-0"
140
0.0078125
141
12.0
290
     0
  0
SCALE
  5
1220
102
{ACAD_REACTORS
330
121D
102
}
330
121D
100
AcDbScale
 70
     0
300
1/64" = 1'-0"
140
0.015625
141
12.0
290
     0
  0
SCALE
  5
1221
102
{ACAD_REACTORS
330
121D
102
}
330
121D
100
AcDbScale
 70
     0
300
1/32" = 1'-0"
140
0.03125
141
12.0
290
     0
  0
SCALE
  5
1222
102
{ACAD_REACTORS
330
121D
102
}
330
121D
100
AcDbScale
 70
     0
300
1/16" = 1'-0"
140
0.0625
141
12.0
290
     0
  0
SCALE
  5
1223
102
{ACAD_REACTORS
330
121D
102
}
330
121D
100
AcDbScale
 70
     0
300
3/32" = 1'-0"
140
0.09375
141
12.0
290
     0
  0
SCALE
  5
1224
102
{ACAD_REACTORS
330
121D
102
}
330
121D
100
AcDbScale
 70
     0
300
1/8" = 1'-0"
140
0.125
141
12.0
290
     0
  0
SCALE
  5
1225
102
{ACAD_REACTORS
330
121D
102
}
330
121D
100
AcDbScale
 70
     0
300
3/16" = 1'-0"
140
0.1875
141
12.0
290
     0
  0
SCALE
  5
1226
102
{ACAD_REACTORS
330
121D
102
}
330
121D
100
AcDbScale
 70
     0
300
1/4" = 1'-0"
140
0.25
141
12.0
290
     0
  0
SCALE
  5
1227
102
{ACAD_REACTORS
330
121D
102
}
330
121D
100
AcDbScale
 70
     0
300
3/8" = 1'-0"
140
0.375
141
12.0
290
     0
  0
SCALE
  5
1228
102
{ACAD_REACTORS
330
121D
102
}
330
121D
100
AcDbScale
 70
     0
300
1/2" = 1'-0"
140
0.5
141
12.0
290
     0
  0
SCALE
  5
1229
102
{ACAD_REACTORS
330
121D
102
}
330
121D
100
AcDbScale
 70
     0
300
3/4" = 1'-0"
140
0.75
141
12.0
290
     0
  0
SCALE
  5
122A
102
{ACAD_REACTORS
330
121D
102
}
330
121D
100
AcDbScale
 70
     0
300
1" = 1'-0"
140
1.0
141
12.0
290
     0
  0
SCALE
  5
122B
102
{ACAD_REACTORS
330
121D
102
}
330
121D
100
AcDbScale
 70
     0
300
1-1/2" = 1'-0"
140
1.5
141
12.0
290
     0
  0
SCALE
  5
122C
102
{ACAD_REACTORS
330
121D
102
}
330
121D
100
AcDbScale
 70
     0
300
3" = 1'-0"
140
3.0
141
12.0
290
     0
  0
SCALE
  5
122D
102
{ACAD_REACTORS
330
121D
102
}
330
121D
100
AcDbScale
 70
     0
300
6" = 1'-0"
140
6.0
141
12.0
290
     0
  0
SCALE
  5
122E
102
{ACAD_REACTORS
330
121D
102
}
330
121D
100
AcDbScale
 70
     0
300
1'-0" = 1'-0"
140
12.0
141
12.0
290
     0
  0
ACDBSECTIONVIEWSTYLE
  5
1233
102
{ACAD_REACTORS
330
1231
102
}
330
1231
100
AcDbModelDocViewStyle
 70
     0
  3
Imperial24
290
     0
100
AcDbSectionViewStyle
 70
     0
 71
     0
 90
       78
 71
     1
340
F
 62
   256
 40
0.24
340
0
340
0
 62
   256
 40
0.24
300
I, O, Q, S, X, Z
 40
0.48
 90
        3
 40
0.18
 90
        1
 71
     2
340
1232
 90
       25
 62
   256
340
13
 90
       50
 62
   256
 40
0.24
 40
0.0
 40
0.24
 71
     3
340
F
 62
   256
 40
0.24
 90
        1
 40
0.75
 90
        1
300
%<\AcVar ViewType \f "%tc1">% %<\AcVar ViewSectionStartId>%-%<\AcVar ViewSectionEndId>%\PVARIA %<\AcVar ViewScale \f "%sn">%
 71
     4
 62
   256
 62
   257
300
ANSI31
 40
1.0
 90
        0
290
     0
290
     0
 90
        6
 40
0.0
 40
1.570796326794896
 40
0.2617993877991494
 40
1.308996938995747
 40
-0.2617993877991494
 40
1.832595714594046
  0
TABLESTYLE
  5
121C
102
{ACAD_XDICTIONARY
360
14EA
102
}
102
{ACAD_REACTORS
330
121B
102
}
330
121B
100
AcDbTableStyle
  3
Standard
 70
     0
 71
     0
 40
0.06
 41
0.06
280
     0
281
     0
  7
STANDARD
140
0.18
170
     2
 62
     0
 63
     7
283
     0
274
    -2
284
     1
 64
     0
275
    -2
285
     1
 65
     0
276
    -2
286
     1
 66
     0
277
    -2
287
     1
 67
     0
278
    -2
288
     1
 68
     0
279
    -2
289
     1
 69
     0
  7
STANDARD
140
0.25
170
     5
 62
     0
 63
     7
283
     0
274
    -2
284
     1
 64
     0
275
    -2
285
     1
 65
     0
276
    -2
286
     1
 66
     0
277
    -2
287
     1
 67
     0
278
    -2
288
     1
 68
     0
279
    -2
289
     1
 69
     0
  7
STANDARD
140
0.18
170
     5
 62
     0
 63
     7
283
     0
274
    -2
284
     1
 64
     0
275
    -2
285
     1
 65
     0
276
    -2
286
     1
 66
     0
277
    -2
287
     1
 67
     0
278
    -2
288
     1
 68
     0
279
    -2
289
     1
 69
     0
  0
VISUALSTYLE
  5
1208
102
{ACAD_XDICTIONARY
360
1729
102
}
102
{ACAD_REACTORS
330
1202
102
}
330
1202
100
AcDbVisualStyle
  2
2dWireframe
 70
     4
 71
     0
 72
     2
 73
     0
 90
        0
 40
-0.6
 41
-30.0
 62
     5
 63
     7
421
 16777215
 74
     1
 91
        4
 64
     7
 65
   257
 75
     1
175
     1
 42
1.0
 92
        0
 66
   257
 43
1.0
 76
     1
 77
     6
 78
     2
 67
     7
 79
     5
170
     0
171
     0
290
     0
174
     0
 93
        1
 44
0.0
173
     0
291
     0
 45
0.0
1001
ACAD
1000
AcDbSavedByObjectVersion
1070
     0
  0
VISUALSTYLE
  5
1207
102
{ACAD_XDICTIONARY
360
1727
102
}
102
{ACAD_REACTORS
330
1202
102
}
330
1202
100
AcDbVisualStyle
  2
Basic
 70
     7
 71
     1
 72
     0
 73
     1
 90
        0
 40
-0.6
 41
-30.0
 62
     5
 63
     7
421
 16777215
 74
     0
 91
        4
 64
     7
 65
   257
 75
     1
175
     1
 42
1.0
 92
        8
 66
     7
 43
1.0
 76
     1
 77
     6
 78
     2
 67
     7
 79
     5
170
     0
171
     0
290
     0
174
     0
 93
        1
 44
0.0
173
     0
291
     1
 45
0.0
1001
ACAD
1000
AcDbSavedByObjectVersion
1070
     0
  0
VISUALSTYLE
  5
120E
102
{ACAD_XDICTIONARY
360
1735
102
}
102
{ACAD_REACTORS
330
1202
102
}
330
1202
100
AcDbVisualStyle
  2
Brighten
 70
    12
 71
     2
 72
     2
 73
     0
 90
        0
 40
-0.6
 41
-30.0
 62
     5
 63
     7
421
 16777215
 74
     1
 91
        4
 64
     7
 65
   257
 75
     1
175
     1
 42
1.0
 92
        8
 66
     7
 43
1.0
 76
     1
 77
     6
 78
     2
 67
     7
 79
     5
170
     0
171
     0
290
     0
174
     0
 93
        1
 44
50.0
173
     0
291
     1
 45
0.0
1001
ACAD
1000
AcDbSavedByObjectVersion
1070
     0
  0
VISUALSTYLE
  5
1212
102
{ACAD_XDICTIONARY
360
173D
102
}
102
{ACAD_REACTORS
330
1202
102
}
330
1202
100
AcDbVisualStyle
  2
ColorChange
 70
    16
 71
     2
 72
     2
 73
     3
 90
        0
 40
-0.6
 41
-30.0
 62
     5
 63
     8
421
  8421504
 74
     1
 91
        4
 64
     7
 65
   257
 75
     1
175
     1
 42
1.0
 92
        8
 66
     8
424
  8421504
 43
1.0
 76
     1
 77
     6
 78
     2
 67
     7
 79
     5
170
     0
171
     0
290
     0
174
     0
 93
        1
 44
0.0
173
     0
291
     1
 45
0.0
1001
ACAD
1000
AcDbSavedByObjectVersion
1070
     0
  0
VISUALSTYLE
  5
120B
102
{ACAD_XDICTIONARY
360
172F
102
}
102
{ACAD_REACTORS
330
1202
102
}
330
1202
100
AcDbVisualStyle
  2
Conceptual
 70
     9
 71
     3
 72
     2
 73
     0
 90
        0
 40
-0.6
 41
-30.0
 62
     5
 63
     7
421
 16777215
 74
     2
 91
        2
 64
     7
 65
   257
 75
     1
175
     1
 42
179.0
 92
        8
 66
     7
 43
1.0
 76
     1
 77
     6
 78
     2
 67
     7
 79
     3
170
     0
171
     0
290
     0
174
     0
 93
        1
 44
0.0
173
     0
291
     0
 45
0.0
1001
ACAD
1000
AcDbSavedByObjectVersion
1070
     0
  0
VISUALSTYLE
  5
120D
102
{ACAD_XDICTIONARY
360
1733
102
}
102
{ACAD_REACTORS
330
1202
102
}
330
1202
100
AcDbVisualStyle
  2
Dim
 70
    11
 71
     2
 72
     2
 73
     0
 90
        0
 40
-0.6
 41
-30.0
 62
     5
 63
     7
421
 16777215
 74
     1
 91
        4
 64
     7
 65
   257
 75
     1
175
     1
 42
1.0
 92
        8
 66
     7
 43
1.0
 76
     1
 77
     6
 78
     2
 67
     7
 79
     5
170
     0
171
     0
290
     0
174
     0
 93
        1
 44
-50.0
173
     0
291
     1
 45
0.0
1001
ACAD
1000
AcDbSavedByObjectVersion
1070
     0
  0
VISUALSTYLE
  5
121A
102
{ACAD_XDICTIONARY
360
174D
102
}
102
{ACAD_REACTORS
330
1202
102
}
330
1202
100
AcDbVisualStyle
  2
EdgeColorOff
 70
    22
 71
     2
 72
     2
 73
     0
 90
        0
 40
-0.6
 41
-30.0
 62
     5
 63
     7
421
 16777215
 74
     1
 91
        4
 64
     7
 65
   257
 75
     1
175
     1
 42
1.0
 92
        8
 66
     7
 43
1.0
 76
     1
 77
     6
 78
     2
 67
     7
 79
     5
170
     0
171
     0
290
     0
174
     0
 93
        1
 44
0.0
173
     0
291
     1
 45
0.0
1001
ACAD
1000
AcDbSavedByObjectVersion
1070
     0
  0
VISUALSTYLE
  5
1211
102
{ACAD_XDICTIONARY
360
173B
102
}
102
{ACAD_REACTORS
330
1202
102
}
330
1202
100
AcDbVisualStyle
  2
Facepattern
 70
    15
 71
     2
 72
     2
 73
     0
 90
        0
 40
-0.6
 41
-30.0
 62
     5
 63
     7
421
 16777215
 74
     1
 91
        4
 64
     7
 65
   257
 75
     1
175
     1
 42
1.0
 92
        8
 66
     7
 43
1.0
 76
     1
 77
     6
 78
     2
 67
     7
 79
     5
170
     0
171
     0
290
     0
174
     0
 93
        1
 44
0.0
173
     0
291
     1
 45
0.0
1001
ACAD
1000
AcDbSavedByObjectVersion
1070
     0
  0
VISUALSTYLE
  5
1203
102
{ACAD_XDICTIONARY
360
171F
102
}
102
{ACAD_REACTORS
330
1202
102
}
330
1202
100
AcDbVisualStyle
  2
Flat
 70
     0
 71
     2
 72
     1
 73
     1
 90
        2
 40
-0.6
 41
30.0
 62
     5
 63
     7
421
 16777215
 74
     0
 91
        0
 64
     7
 65
   257
 75
     1
175
     1
 42
1.0
 92
        8
 66
     7
 43
1.0
 76
     1
 77
     6
 78
     2
 67
     7
 79
     5
170
     0
171
     0
290
     0
174
     0
 93
       13
 44
0.0
173
     0
291
     1
 45
0.0
1001
ACAD
1000
AcDbSavedByObjectVersion
1070
     0
  0
VISUALSTYLE
  5
1204
102
{ACAD_XDICTIONARY
360
1721
102
}
102
{ACAD_REACTORS
330
1202
102
}
330
1202
100
AcDbVisualStyle
  2
FlatWithEdges
 70
     1
 71
     2
 72
     1
 73
     1
 90
        2
 40
-0.6
 41
30.0
 62
     5
 63
     7
421
 16777215
 74
     1
 91
        0
 64
     7
 65
   257
 75
     1
175
     1
 42
1.0
 92
        0
 66
   257
 43
1.0
 76
     1
 77
     6
 78
     2
 67
     7
 79
     5
170
     0
171
     0
290
     0
174
     0
 93
       13
 44
0.0
173
     0
291
     1
 45
0.0
1001
ACAD
1000
AcDbSavedByObjectVersion
1070
     0
  0
VISUALSTYLE
  5
1205
102
{ACAD_XDICTIONARY
360
1723
102
}
102
{ACAD_REACTORS
330
1202
102
}
330
1202
100
AcDbVisualStyle
  2
Gouraud
 70
     2
 71
     2
 72
     2
 73
     1
 90
        2
 40
-0.6
 41
30.0
 62
     5
 63
     7
421
 16777215
 74
     0
 91
        0
 64
     7
 65
   257
 75
     1
175
     1
 42
1.0
 92
        0
 66
     7
 43
1.0
 76
     1
 77
     6
 78
     2
 67
     7
 79
     5
170
     0
171
     0
290
     0
174
     0
 93
       13
 44
0.0
173
     0
291
     1
 45
0.0
1001
ACAD
1000
AcDbSavedByObjectVersion
1070
     0
  0
VISUALSTYLE
  5
1206
102
{ACAD_XDICTIONARY
360
1725
102
}
102
{ACAD_REACTORS
330
1202
102
}
330
1202
100
AcDbVisualStyle
  2
GouraudWithEdges
 70
     3
 71
     2
 72
     2
 73
     1
 90
        2
 40
-0.6
 41
30.0
 62
     5
 63
     7
421
 16777215
 74
     1
 91
        0
 64
     7
 65
   257
 75
     1
175
     1
 42
1.0
 92
        0
 66
   257
 43
1.0
 76
     1
 77
     6
 78
     2
 67
     7
 79
     5
170
     0
171
     0
290
     0
174
     0
 93
       13
 44
0.0
173
     0
291
     1
 45
0.0
1001
ACAD
1000
AcDbSavedByObjectVersion
1070
     0
  0
VISUALSTYLE
  5
120A
102
{ACAD_XDICTIONARY
360
172D
102
}
102
{ACAD_REACTORS
330
1202
102
}
330
1202
100
AcDbVisualStyle
  2
Hidden
 70
     6
 71
     1
 72
     2
 73
     2
 90
        0
 40
-0.6
 41
-30.0
 62
     5
 63
     7
421
 16777215
 74
     2
 91
        2
 64
     7
 65
   257
 75
     2
175
     1
 42
40.0
 92
        0
 66
   257
 43
1.0
 76
     1
 77
     6
 78
     2
 67
     7
 79
     3
170
     0
171
     0
290
     0
174
     0
 93
        1
 44
0.0
173
     0
291
     0
 45
0.0
1001
ACAD
1000
AcDbSavedByObjectVersion
1070
     0
  0
VISUALSTYLE
  5
1218
102
{ACAD_XDICTIONARY
360
1749
102
}
102
{ACAD_REACTORS
330
1202
102
}
330
1202
100
AcDbVisualStyle
  2
JitterOff
 70
    20
 71
     2
 72
     2
 73
     0
 90
        0
 40
-0.6
 41
-30.0
 62
     5
 63
     7
421
 16777215
 74
     1
 91
        4
 64
     7
 65
   257
 75
     1
175
     1
 42
1.0
 92
       10
 66
     7
 43
1.0
 76
     1
 77
     6
 78
     2
 67
     7
 79
     5
170
     0
171
     0
290
     0
174
     0
 93
        1
 44
0.0
173
     0
291
     1
 45
0.0
1001
ACAD
1000
AcDbSavedByObjectVersion
1070
     0
  0
VISUALSTYLE
  5
1210
102
{ACAD_XDICTIONARY
360
1739
102
}
102
{ACAD_REACTORS
330
1202
102
}
330
1202
100
AcDbVisualStyle
  2
Linepattern
 70
    14
 71
     2
 72
     2
 73
     0
 90
        0
 40
-0.6
 41
-30.0
 62
     5
 63
     7
421
 16777215
 74
     1
 91
        4
 64
     7
 65
   257
 75
     7
175
     7
 42
1.0
 92
        8
 66
     7
 43
1.0
 76
     1
 77
     6
 78
     2
 67
     7
 79
     5
170
     0
171
     0
290
     0
174
     0
 93
        1
 44
0.0
173
     0
291
     1
 45
0.0
1001
ACAD
1000
AcDbSavedByObjectVersion
1070
     0
  0
VISUALSTYLE
  5
1219
102
{ACAD_XDICTIONARY
360
174B
102
}
102
{ACAD_REACTORS
330
1202
102
}
330
1202
100
AcDbVisualStyle
  2
OverhangOff
 70
    21
 71
     2
 72
     2
 73
     0
 90
        0
 40
-0.6
 41
-30.0
 62
     5
 63
     7
421
 16777215
 74
     1
 91
        4
 64
     7
 65
   257
 75
     1
175
     1
 42
1.0
 92
        9
 66
     7
 43
1.0
 76
     1
 77
     6
 78
     2
 67
     7
 79
     5
170
     0
171
     0
290
     0
174
     0
 93
        1
 44
0.0
173
     0
291
     1
 45
0.0
1001
ACAD
1000
AcDbSavedByObjectVersion
1070
     0
  0
VISUALSTYLE
  5
120C
102
{ACAD_XDICTIONARY
360
1731
102
}
102
{ACAD_REACTORS
330
1202
102
}
330
1202
100
AcDbVisualStyle
  2
Realistic
 70
     8
 71
     2
 72
     2
 73
     0
 90
        2
 40
-0.6
 41
30.0
 62
     5
 63
     7
421
 16777215
 74
     0
 91
        0
 64
     7
 65
   257
 75
     1
175
     1
 42
1.0
 92
        8
 66
   257
 43
1.0
 76
     1
 77
     6
 78
     2
 67
     7
 79
     3
170
     0
171
     0
290
     0
174
     0
 93
       13
 44
0.0
173
     0
291
     0
 45
0.0
1001
ACAD
1000
AcDbSavedByObjectVersion
1070
     0
  0
VISUALSTYLE
  5
1217
102
{ACAD_XDICTIONARY
360
1747
102
}
102
{ACAD_REACTORS
330
1202
102
}
330
1202
100
AcDbVisualStyle
  2
Shaded
 70
    27
 71
     2
 72
     2
 73
     1
 90
        2
 40
-0.6
 41
30.0
 62
     5
 63
     7
421
 16777215
 74
     0
 91
        4
 64
     7
 65
   257
 75
     1
175
     1
 42
1.0
 92
        8
 66
   257
 43
1.0
 76
     1
 77
     6
 78
     2
 67
     8
425
  7895160
 79
     3
170
     0
171
     0
290
     0
174
     0
 93
        5
 44
0.0
173
     0
291
     0
 45
0.0
1001
ACAD
1000
AcDbSavedByObjectVersion
1070
     0
  0
VISUALSTYLE
  5
1216
102
{ACAD_XDICTIONARY
360
1745
102
}
102
{ACAD_REACTORS
330
1202
102
}
330
1202
100
AcDbVisualStyle
  2
Shaded with edges
 70
    26
 71
     2
 72
     2
 73
     1
 90
        2
 40
-0.6
 41
30.0
 62
     5
 63
     7
421
 16777215
 74
     1
 91
       10
 64
     7
 65
   257
 75
     2
175
     1
 42
1.0
 92
        8
 66
   257
 43
1.0
 76
     1
 77
     6
 78
     2
 67
     7
 79
     3
170
     0
171
     0
290
     0
174
     0
 93
        5
 44
0.0
173
     0
291
     0
 45
0.0
1001
ACAD
1000
AcDbSavedByObjectVersion
1070
     0
  0
VISUALSTYLE
  5
1213
102
{ACAD_XDICTIONARY
360
173F
102
}
102
{ACAD_REACTORS
330
1202
102
}
330
1202
100
AcDbVisualStyle
  2
Shades of Gray
 70
    23
 71
     2
 72
     2
 73
     3
 90
        0
 40
-0.6
 41
-30.0
 62
     5
 63
     7
421
 16777215
 74
     2
 91
        2
 64
     7
 65
     7
 75
     1
175
     1
 42
40.0
 92
        8
 66
     7
 43
1.0
 76
     1
 77
     6
 78
     2
 67
     7
 79
     3
170
     0
171
     0
290
     0
174
     0
 93
        1
 44
0.0
173
     0
291
     0
 45
0.0
1001
ACAD
1000
AcDbSavedByObjectVersion
1070
     0
  0
VISUALSTYLE
  5
1214
102
{ACAD_XDICTIONARY
360
1741
102
}
102
{ACAD_REACTORS
330
1202
102
}
330
1202
100
AcDbVisualStyle
  2
Sketchy
 70
    24
 71
     1
 72
     2
 73
     2
 90
        0
 40
-0.6
 41
-30.0
 62
     5
 63
     7
421
 16777215
 74
     2
 91
        2
 64
     7
 65
     7
 75
     1
175
     1
 42
40.0
 92
       11
 66
     7
 43
1.0
 76
     1
 77
     6
 78
     2
 67
     7
 79
     6
170
     0
171
     0
290
     0
174
     0
 93
        1
 44
0.0
173
     0
291
     0
 45
0.0
1001
ACAD
1000
AcDbSavedByObjectVersion
1070
     0
  0
VISUALSTYLE
  5
120F
102
{ACAD_XDICTIONARY
360
1737
102
}
102
{ACAD_REACTORS
330
1202
102
}
330
1202
100
AcDbVisualStyle
  2
Thicken
 70
    13
 71
     2
 72
     2
 73
     0
 90
        0
 40
-0.6
 41
-30.0
 62
     5
 63
     7
421
 16777215
 74
     1
 91
        4
 64
     7
 65
   257
 75
     1
175
     1
 42
1.0
 92
       12
 66
     7
 43
1.0
 76
     1
 77
     6
 78
     2
 67
     7
 79
     5
170
     0
171
     0
290
     0
174
     0
 93
        1
 44
0.0
173
     0
291
     1
 45
0.0
1001
ACAD
1000
AcDbSavedByObjectVersion
1070
     0
  0
VISUALSTYLE
  5
1209
102
{ACAD_XDICTIONARY
360
172B
102
}
102
{ACAD_REACTORS
330
1202
102
}
330
1202
100
AcDbVisualStyle
  2
Wireframe
 70
     5
 71
     0
 72
     2
 73
     0
 90
        0
 40
-0.6
 41
-30.0
 62
     5
 63
     7
421
 16777215
 74
     1
 91
        4
 64
     7
 65
   257
 75
     1
175
     1
 42
1.0
 92
        0
 66
   257
 43
1.0
 76
     1
 77
     6
 78
     2
 67
     7
 79
     3
170
     0
171
     0
290
     0
174
     0
 93
        1
 44
0.0
173
     0
291
     0
 45
0.0
1001
ACAD
1000
AcDbSavedByObjectVersion
1070
     0
  0
VISUALSTYLE
  5
1215
102
{ACAD_XDICTIONARY
360
1743
102
}
102
{ACAD_REACTORS
330
1202
102
}
330
1202
100
AcDbVisualStyle
  2
X-Ray
 70
    25
 71
     2
 72
     2
 73
     1
 90
        1
 40
0.5
 41
-30.0
 62
     5
 63
     7
421
 16777215
 74
     1
 91
        0
 64
     7
 65
   257
 75
     1
175
     1
 42
1.0
 92
        8
 66
     7
 43
1.0
 76
     1
 77
     6
 78
     2
 67
     7
 79
     3
170
     0
171
     0
290
     0
174
     0
 93
       13
 44
0.0
173
     0
291
     0
 45
0.0
1001
ACAD
1000
AcDbSavedByObjectVersion
1070
     0
  0
DICTIONARYVAR
  5
152B
102
{ACAD_REACTORS
330
43
102
}
330
43
100
DictionaryVariables
280
     0
  1
1:1
  0
DICTIONARYVAR
  5
1528
102
{ACAD_REACTORS
330
43
102
}
330
43
100
DictionaryVariables
280
     0
  1
STANDARD
  0
DICTIONARYVAR
  5
1527
102
{ACAD_REACTORS
330
43
102
}
330
43
100
DictionaryVariables
280
     0
  1
STANDARD
  0
DICTIONARYVAR
  5
1529
102
{ACAD_REACTORS
330
43
102
}
330
43
100
DictionaryVariables
280
     0
  1
Imperial24
  0
DICTIONARYVAR
  5
152A
102
{ACAD_REACTORS
330
43
102
}
330
43
100
DictionaryVariables
280
     0
  1
Imperial24
  0
DICTIONARYVAR
  5
44
102
{ACAD_REACTORS
330
43
102
}
330
43
100
DictionaryVariables
280
     0
  1
1
  0
DICTIONARYVAR
  5
10D0
102
{ACAD_REACTORS
330
43
102
}
330
43
100
DictionaryVariables
280
     0
  1
1
  0
DICTIONARYVAR
  5
10D1
102
{ACAD_REACTORS
330
43
102
}
330
43
100
DictionaryVariables
280
     0
  1

  0
DICTIONARYVAR
  5
FAE
102
{ACAD_REACTORS
330
43
102
}
330
43
100
DictionaryVariables
280
     0
  1
96
  0
DICTIONARY
  5
154F
330
104F
100
AcDbDictionary
280
     1
281
     1
  3
ADSK_XREC_LAYOUTTHUMBNAIL
360
1550
  0
DICTIONARY
  5
11F3
330
11F2
100
AcDbDictionary
280
     1
281
     1
  3
ACAD_XREC_ROUNDTRIP
360
171D
  3
BUMPTILE
360
11F5
  3
DIFFUSETILE
360
11F4
  3
OPACITYTILE
360
11F8
  3
REFLECTIONTILE
360
11F7
  3
REFRACTIONTILE
360
11F9
  3
SPECULARTILE
360
11F6
  0
DICTIONARY
  5
11EB
330
11EA
100
AcDbDictionary
280
     1
281
     1
  3
ACAD_XREC_ROUNDTRIP
360
171C
  3
BUMPTILE
360
11ED
  3
DIFFUSETILE
360
11EC
  3
OPACITYTILE
360
11F0
  3
REFLECTIONTILE
360
11EF
  3
REFRACTIONTILE
360
11F1
  3
SPECULARTILE
360
11EE
  0
DICTIONARY
  5
11FB
330
11FA
100
AcDbDictionary
280
     1
281
     1
  3
ACAD_XREC_ROUNDTRIP
360
171E
  3
BUMPTILE
360
11FD
  3
DIFFUSETILE
360
11FC
  3
OPACITYTILE
360
1200
  3
REFLECTIONTILE
360
11FF
  3
REFRACTIONTILE
360
1201
  3
SPECULARTILE
360
11FE
  0
DICTIONARY
  5
1750
330
1230
100
AcDbDictionary
280
     1
281
     1
  3
ACAD_XREC_ROUNDTRIP
360
1751
  0
DICTIONARY
  5
14EA
330
121C
100
AcDbDictionary
280
     1
281
     1
  3
ACAD_ROUNDTRIP_2008_TABLESTYLE_CELLSTYLEMAP
360
171A
  3
ACAD_XREC_ROUNDTRIP
360
174F
  0
DICTIONARY
  5
1729
330
1208
100
AcDbDictionary
280
     1
281
     1
  3
ACAD_XREC_ROUNDTRIP
360
172A
  0
DICTIONARY
  5
1727
330
1207
100
AcDbDictionary
280
     1
281
     1
  3
ACAD_XREC_ROUNDTRIP
360
1728
  0
DICTIONARY
  5
1735
330
120E
100
AcDbDictionary
280
     1
281
     1
  3
ACAD_XREC_ROUNDTRIP
360
1736
  0
DICTIONARY
  5
173D
330
1212
100
AcDbDictionary
280
     1
281
     1
  3
ACAD_XREC_ROUNDTRIP
360
173E
  0
DICTIONARY
  5
172F
330
120B
100
AcDbDictionary
280
     1
281
     1
  3
ACAD_XREC_ROUNDTRIP
360
1730
  0
DICTIONARY
  5
1733
330
120D
100
AcDbDictionary
280
     1
281
     1
  3
ACAD_XREC_ROUNDTRIP
360
1734
  0
DICTIONARY
  5
174D
330
121A
100
AcDbDictionary
280
     1
281
     1
  3
ACAD_XREC_ROUNDTRIP
360
174E
  0
DICTIONARY
  5
173B
330
1211
100
AcDbDictionary
280
     1
281
     1
  3
ACAD_XREC_ROUNDTRIP
360
173C
  0
DICTIONARY
  5
171F
330
1203
100
AcDbDictionary
280
     1
281
     1
  3
ACAD_XREC_ROUNDTRIP
360
1720
  0
DICTIONARY
  5
1721
330
1204
100
AcDbDictionary
280
     1
281
     1
  3
ACAD_XREC_ROUNDTRIP
360
1722
  0
DICTIONARY
  5
1723
330
1205
100
AcDbDictionary
280
     1
281
     1
  3
ACAD_XREC_ROUNDTRIP
360
1724
  0
DICTIONARY
  5
1725
330
1206
100
AcDbDictionary
280
     1
281
     1
  3
ACAD_XREC_ROUNDTRIP
360
1726
  0
DICTIONARY
  5
172D
330
120A
100
AcDbDictionary
280
     1
281
     1
  3
ACAD_XREC_ROUNDTRIP
360
172E
  0
DICTIONARY
  5
1749
330
1218
100
AcDbDictionary
280
     1
281
     1
  3
ACAD_XREC_ROUNDTRIP
360
174A
  0
DICTIONARY
  5
1739
330
1210
100
AcDbDictionary
280
     1
281
     1
  3
ACAD_XREC_ROUNDTRIP
360
173A
  0
DICTIONARY
  5
174B
330
1219
100
AcDbDictionary
280
     1
281
     1
  3
ACAD_XREC_ROUNDTRIP
360
174C
  0
DICTIONARY
  5
1731
330
120C
100
AcDbDictionary
280
     1
281
     1
  3
ACAD_XREC_ROUNDTRIP
360
1732
  0
DICTIONARY
  5
1747
330
1217
100
AcDbDictionary
280
     1
281
     1
  3
ACAD_XREC_ROUNDTRIP
360
1748
  0
DICTIONARY
  5
1745
330
1216
100
AcDbDictionary
280
     1
281
     1
  3
ACAD_XREC_ROUNDTRIP
360
1746
  0
DICTIONARY
  5
173F
330
1213
100
AcDbDictionary
280
     1
281
     1
  3
ACAD_XREC_ROUNDTRIP
360
1740
  0
DICTIONARY
  5
1741
330
1214
100
AcDbDictionary
280
     1
281
     1
  3
ACAD_XREC_ROUNDTRIP
360
1742
  0
DICTIONARY
  5
1737
330
120F
100
AcDbDictionary
280
     1
281
     1
  3
ACAD_XREC_ROUNDTRIP
360
1738
  0
DICTIONARY
  5
172B
330
1209
100
AcDbDictionary
280
     1
281
     1
  3
ACAD_XREC_ROUNDTRIP
360
172C
  0
DICTIONARY
  5
1743
330
1215
100
AcDbDictionary
280
     1
281
     1
  3
ACAD_XREC_ROUNDTRIP
360
1744
  0
XRECORD
  5
1550
102
{ACAD_REACTORS
330
154F
102
}
330
154F
100
AcDbXrecord
280
     1
310
280000000001000096000000010008000000000000960000010000000100000000010000000000000000000000000000C8C8C8FF000000FF000000FF000000FF000000FF000000FF000000FF000000FF000000FF330000FF660000FF990000FFCC0000FFFF0000FF003300FF333300FF663300FF993300FFCC3300FFFF3300
310
FF006600FF336600FF666600FF996600FFCC6600FFFF6600FF009900FF339900FF669900FF999900FFCC9900FFFF9900FF00CC00FF33CC00FF66CC00FF99CC00FFCCCC00FFFFCC00FF00FF00FF33FF00FF66FF00FF99FF00FFCCFF00FFFFFF00FF000033FF330033FF660033FF990033FFCC0033FFFF0033FF003333FF3333
310
33FF663333FF993333FFCC3333FFFF3333FF006633FF336633FF666633FF996633FFCC6633FFFF6633FF009933FF339933FF669933FF999933FFCC9933FFFF9933FF00CC33FF33CC33FF66CC33FF99CC33FFCCCC33FFFFCC33FF00FF33FF33FF33FF66FF33FF99FF33FFCCFF33FFFFFF33FF000066FF330066FF660066FF99
310
0066FFCC0066FFFF0066FF003366FF333366FF663366FF993366FFCC3366FFFF3366FF006666FF336666FF666666FF996666FFCC6666FFFF6666FF009966FF339966FF669966FF999966FFCC9966FFFF9966FF00CC66FF33CC66FF66CC66FF99CC66FFCCCC66FFFFCC66FF00FF66FF33FF66FF66FF66FF99FF66FFCCFF66FF
310
FFFF66FF000099FF330099FF660099FF990099FFCC0099FFFF0099FF003399FF333399FF663399FF993399FFCC3399FFFF3399FF006699FF336699FF666699FF996699FFCC6699FFFF6699FF009999FF339999FF669999FF999999FFCC9999FFFF9999FF00CC99FF33CC99FF66CC99FF99CC99FFCCCC99FFFFCC99FF00FF99
310
FF33FF99FF66FF99FF99FF99FFCCFF99FFFFFF99FF0000CCFF3300CCFF6600CCFF9900CCFFCC00CCFFFF00CCFF0033CCFF3333CCFF6633CCFF9933CCFFCC33CCFFFF33CCFF0066CCFF3366CCFF6666CCFF9966CCFFCC66CCFFFF66CCFF0099CCFF3399CCFF6699CCFF9999CCFFCC99CCFFFF99CCFF00CCCCFF33CCCCFF66CC
310
CCFF99CCCCFFCCCCCCFFFFCCCCFF00FFCCFF33FFCCFF66FFCCFF99FFCCFFCCFFCCFFFFFFCCFF0000FFFF3300FFFF6600FFFF9900FFFFCC00FFFFFF00FFFF0033FFFF3333FFFF6633FFFF9933FFFFCC33FFFFFF33FFFF0066FFFF3366FFFF6666FFFF9966FFFFCC66FFFFFF66FFFF0099FFFF3399FFFF6699FFFF9999FFFFCC
310
99FFFFFF99FFFF00CCFFFF33CCFFFF66CCFFFF99CCFFFFCCCCFFFFFFCCFFFF00FFFFFF33FFFFFF66FFFFFF99FFFFFFCCFFFFFFFFFFFFFF000000FF0D0D0DFF1A1A1AFF282828FF353535FF434343FF505050FF5D5D5DFF6B6B6BFF787878FF868686FF939393FFA1A1A1FFAEAEAEFFBBBBBBFFC9C9C9FFD6D6D6FFE4E4E4FF
310
F1F1F1FFFFFFFFFF000000FF000000FF000000FF000000FF000000FF000000FF000000FF000000FF000000FF000000FF00000000000000000000000000000000000000000000000000000000000000000000000000000000000000000000000000000000000000000000000000000000000000000000000000000000000000
310
00000000000000000000000000000000000000000000000000000000000000000000000000000000000000000000000000000000000000000000000000000000000000000000000000000000000000000000000000000000000000000000000000000000000000000000000000000000000000000000000000000000000000
310
000000000000000000000000000000000000000000000000000000000000000000000000000000000000000000000000000000000000000000000000000000000000000000000000DCDCDCDCDCDCDCDCDCDCDCDCDCDCDCDCDCDCDCDCDCDCDCDCDCDCDCDCDCDCDCDCDCDCDCDCDCDCDCDCDCDCDCDCDCDCDCDCDCDCDCDCDCDCDC
310
DCDCDCDCDCDCDCDCDCDCDCDCDCDCDCDCDCDCDCDCDCDCDCDCDCDCDCDCDCDCDCDCDCDCDCDCDCDCDCDCDCDCDCDCDCDCDCDCDCDCDCDCDCDCDCDCDCDCDCDCDCF5DCDCDCDCDCDCDCDCDCDCDCDCDCDCDCDCDCDCDCDCDCDCDCDCDCDCDCDCDCDCDCDCDCDCDCDCDCDCDCDCDCDCDCDCDCDCDCDCDCDCDCDCDCDCDCDCDCDCDCDCDCDCDCDCDC
310
DCDCDCDCDCDCDCDCDCDCDCDCDCDCDCDCDCDCDCDCDCDCDCDCDCDCDCDCDCDC0000000000000000000000000000000000000000000000000000000000000000000000000000000000000000DC00000000000000000000000000000000000000000000000000000000000000000000000000000000000000000000000000000000
310
000000000000000000000000000000000000000000000000000000000000000000000000000000000000000000000000000000000000000000000000000000F5000000000000000000000000000000000000000000000000000000000000000000000000000000000000000000000000000000000000000000000000000000
310
00000000000000000000000000000000000000000000000000000000000000DC0000000000000000000000000000000000000000000000000000000000000000000000000000000000000000DC0000000000000000002828282828282828282828282828282828282828282828282828282828282828282828282828282828
310
2828282828282828282828282828282828282828282828282828282828282828282828282828282828282828282828282828282828282828282828282828282828F52828282828BE282828282828282828BE28282828BE28282828282828282828282828282828282828282828282828282828282828282828282828282828
310
282828282828282828282828282828282828282828282828282828282828280000DC0000000000000000000000000000000000000000000000000000000000000000000000000000000000000000DC000000000000000000280000000000000000000000000000000000000000000000000000000000000000000000000000
310
00000000000000000000000000000000000000000000000000000000000000000000000000000000000000000000000000000000000000000000000000000000000000000028F5F500BE000000000000000000BE00000000BE0000000028000000000000000000000000000000000000000028DCDCDCDCDCDCDCDCDCDCDCDC
310
DCDCDCDCDCDCDCDCDCDCDCDCDCDCDCDCDCDCDCDCDCDCDCDCDCDCDCDCDCDCDCDC28F5F5DC0000000000000000000000000000000000000000000000000000000000000000000000000000000000000000DC00000000000000000028000000000000000000000000000000000000000000000000000000000000000000000000
310
000000000000000000000000000000000000000000000000000000000000000000000000000000000000000000000000000000000000000000000000000000000000000000000028F5F500BE00F5F5F5F5F5F50000BEF5F5F500BEF5F5F5F52800002828282828282828280028282828282828002800000000000000000000
310
0000000000000000000000000000000000000000000000000000000000000000000028F5F5DC0000000000000000000000000000000000000000000000000000000000000000000000000000000000000000DC0000000000000000002800000000000000000000000000000000000000000000000000000000000000000000
310
0000000000000000000000000000000000000000000000000000000000000000000000000000000000000000000000000000000000000000000000000000000000000000000000000028F5F500BE00F5F5F5F5F5F50000BEF5F5F500BEF5F5F5F5280000280028280028282828002828282800282800280000000000000000
310
00000000000000000000000000000000000000000000000000000000000000000000000028F5F5DC0000000000000000000000000000000000000000000000000000000000000000000000000000000000000000DC000000000000000000280000000000000000000000000000000000000000000000000000000000000000
310
00000000000000000000000000000000000000000000000000000000000000000000000000000000000000000000000000000000000000000000000000000000000000000000000000000028F5F500BE000000000000000000BE00000000BE0000000028000028002800000028282828282828280000280028000000000000
310
000000000000000000000000000000000000000000000000000000000000000000000000000028F5F5DC0000000000000000000000000000000000000000000000000000000000000000000000000000000000000000DC00000000000000000028000000000000000000000000000000000000000000000000000000000000
310
000000000000000000000000000000000000000000000000000000000000000000000000000000000000000000000000000000000000000000000000000000000000000000000000000000000028282828BE28282828F528282828BE28282828BE2828282828000028002828002828282800282828280028280028F5F5F5F5
310
F5F5F5F5F5F5F500000000000000000000000000000000000000000000000000000000000000000028F5F5DC0000000000000000000000000000000000000000000000000000000000000000000000000000000000000000DC0000000000000000002800000000000000000000000000000000000000000000000000000000
310
0000000000000000000000000000000000000000000000000000000000000000000000000000000000000000000000000000000000000000000000000000000000000000000000000000000000000028F5F500F5F5F5F5F5F5F5F5F5F5F5F5F5F5F5BEF5F5F5F528000028002828282828282828282828282828280028F5F5
310
F5F5F5F5F5F5F5F5F500000000000000000000000000000000000000000000000000000000000000000028F5F5DC0000000000000000000000000000000000000000000000000000000000000000000000000000000000000000DC000000000000000000280000000000000000000000000000000000000000000000000000
310
00000000000000000000000000000000000000000000000000000000000000000000000000000000000000000000000000000000000000000000000000000000000000000000000000000000000000000028DCF5DCF5F5F5F5F5DCF5DCDCDCF5F5F5F5F5BEF5F5F5DC2828282828BE2828282828BE28282828282828282828
310
282828282828282828282828282828282828282828282828282828282828282828282828282828282828282828F5F5DC0000000000000000000000000000000000000000000000000000000000000000000000000000000000000000DC00000000000000000028000000000000000000000000000000000000000000000000
310
000000000000000000000000000000000000000000000000000000000000000000000000000000000000000000000000000000000000000000000000000000000000000000000000000000000000000000000028F5F500F5F5F5F5F5F5F5F5F5F5F5F5F5F5F5BEF5F5F5F528F5F5F5F5BEF5F5F5F5F5BE000000F5F5F5F500
310
002800F5F5F5F5F5F5F5F5F5F500000000000000000000000000002800000000000000000000000000000000000028F5F5DC0000000000000000000000000000000000000000000000000000000000000000000000000000000000000000DC0000000000000000002800000000000000000000000000000000000000000000
310
0000000000000000000000000000000000000000000000000000000000000000000000000000000000000000000000000000000000000000000000000000000000000000000000000000000000000000000000000028F5F500F5F5F5F5F5F5F5F5F5F5F5F5F5F5F5BEF5F5F5F528F5F5F500BEF5F5F5F5F5BE000000F5F5F5
310
F5000028F5F5F5F5F5F5F5F5F5F5F500000000000000000000000000002800000000000000000000000000000000000028F5F5DC0000000000000000000000000000000000000000000000000000000000000000000000000000000000000000DC000000000000000000280000000000000000000000000000000000000000
310
00000000000000000000000000000000000000000000000000000000000000000000000000000000000000000000000000000000000000000000000000000000000000000000000000000000000000000000000000000028DCDCDCBEDCDCDCDCDCDCDCDCDCBEDCDCDCDCBEDCDCDCDCDCDCDCDCDCBEDCDCDCDCDCBEDCDCDCDC
310
DCDCDCDCDCDCF5F5F5F5DCF5F5F5F5F5DCF5F5F5F5F5F5F5F5F5DCDCDCDC0028F5F5F5F5F5F500F5F5F5F5F500000000000028F5F5DC0000000000000000000000000000000000000000000000000000000000000000000000000000000000000000DC00000000000000000028000000000000000000000000000000000000
310
000000000000000000000000000000000000000000000000000000000000000000000000000000000000000000000000000000000000000000000000000000000000000000000000000000000000000000000000000000000028000000BE000000000000000000BE00000000BE00000000F5F5F5F500BEF5F5F5F5F5BE0000
310
00F5F5F500000028F5F5F5F5F5F5F5F5F5F5F5F5F5F5F5F5F5F5F5F5000000000028F5F5F5F5F5F5F5F5F5F5F5F500000000000028F5F5DC0000000000000000000000000000000000000000000000000000000000000000000000000000000000000000DC0000000000000000002800000000000000000000000000000000
310
0000000000000000000000000000000000000000000000000000000000000000000000000000000000000000000000000000000000000000000000000000000000000000000000000000000000000000000000000000000000000028DCDCDCBEDCDCDCDCDCDCDCDCDCBEDCDCDCDCBEDCDCDCDCF5F5F5F5DCBEF5F5F5F5F5BE
310
DCDCDCF5F5F5DCDCDCDCF5F5F5F5DCF5F5F5F5DCDCF5F5F5F5DCF5F5F5DCDCDCDCDC0028BEBEBEF5BEF5BEF5BEBEF5BEBEBEBEBEBEBE28F5F5DC0000000000000000000000000000000000000000000000000000000000000000000000000000000000000000DC000000000000000000280000000000000000000000000000
310
00000000000000000000000000000000000000000000000000000000000000000000000000000000000000000000000000000000000000000000000000000000000000000000000000000000000000000000000000000000000000000028000000BE000000000000000000BE00000000BE0000000028F5F5F500BEF5F5F5F5
310
F5BE000000F5F5F50000002800F5F5F5F5F5F5F5F5F5F5F5F5F5F5F5F5F5F5F5F5F50000002800BEBEBEBEBEBE00BEBEBEBEBE00BEBE000028F5F5DC0000000000000000000000000000000000000000000000000000000000000000000000000000000000000000DC00000000000000000028000000000000000000000000
310
000000000000000000000000000000000000000000000000000000000000000000000000000000000000000000000000000000000000000000000000000000000000000000000000000000000000000000000000000000000000000000000028000000BE000000000000000000BE00000000BE0000000028F5F50000BEF5F5
310
F5F500BE000000F5F5F500000028F5F5F5F5F5F5F5F5F5F5F5F5F5F5F5F5F5F5F5F5F5F50000002800BE00BEBEBEBEBEBEBEBEBEBE00BEBE000028F5F5DC0000000000000000000000000000000000000000000000000000000000000000000000000000000000000000DC0000000000000000002800000000000000000000
310
0000000000000000000000000000000000000000000000000000000000000000000000000000000000000000000000000000000000000000000000000000000000000000000000000000000000000000000000000000000000000000000000000028DCDCDCBEDCDCDCDCDCDCDCDCDCBEDCDCDCDCBEDCDCDCDCDCDCDCDCDCBE
310
DCDCF5F5DCBEDCDCDCDCDCDCDCDCDCDCDCF5F5F5F5F5F5F5F5F5F5F5F5F5F5F5F5F5F5F5F5DCDCDC002800BEBEBEBEBEBEBEBEBEBEBE0000BE00000028F5F5DC0000000000000000000000000000000000000000000000000000000000000000000000000000000000000000DC000000000000000000280000000000000000
310
00000000000000000000000000000000000000000000000000000000000000000000000000000000000000000000000000000000000000000000000000000000000000000000000000000000000000000000000000000000000000000000000000000028000000BE000000000000000000BE00000000BE0000000028F5F5F5
310
F5BE00F5F5F500BE0000F5F5F5F500000028F5F5F5F5F5F5F5F5F5F500F5F5F5F5F5F5F5F5F5000000000028F5F5F5F5F500F5F5F500000000000000000028F5F5DC0000000000000000000000000000000000000000000000000000000000000000000000000000000000000000DC00000000000000000028000000000000
310
000000000000000000000000000000000000000000000000000000000000000000000000000000000000000000000000000000000000000000000000000000000000000000000000000000000000000000000000000000000000000000000000000000000028DCDCDCBEDCDCDCDCDCDCDCDCDCBEDCDCDCDCBEDCDCDCDC28F5
310
F5F5F5BE28F5282828BE2828F5F528282828282828F52828F528F5F528F5282828F5F5F5282828F5282828282828F5F5F5F5F528F5F5F528282828282828282828F5F5DC0000000000000000000000000000000000000000000000000000000000000000000000000000000000000000DC0000000000000000002800000000
310
0000000000000000000000000000000000000000000000000000000000000000000000000000000000000000000000000000000000000000000000000000000000000000000000000000000000000000000000000000000000000000000000000000000000000028000000BE000000000000000000BE00000000BE00000000
310
2800000000000000000000BE00000000000000000028DCDCDCDCDCDCDCDCDCDCDCDCDCDCDCDCDCDCDCDCDCDCDCDC0028DCDCDCDCDCDCDCDCDCDCDCDCDCDCDCDCDCDC28F5F5DC0000000000000000000000000000000000000000000000000000000000000000000000000000000000000000DC000000000000000000280000
310
00000000000000000000000000000000000000000000000000000000000000000000000000000000000000000000000000000000000000000000000000000000000000000000000000000000000000000000000000000000000000000000000000000000000000000028000000BE000000000000000000BE00000000BE0000
310
000028000000BEBEBEBE000000BE0000000000000000002800BEBEBEBEBEBEBEBEBEBEBEBEBEBEBEBE00BEBEBEBEBEBE002800BEBE00BEBEBEBEBEBEBEBEBE00BEBE000028F5F5DC0000000000000000000000000000000000000000000000000000000000000000000000000000000000000000DC00000000000000000028
310
000000000000000000000000000000000000000000000000000000000000000000000000000000000000000000000000000000000000000000000000000000000000000000000000000000000000000000000000000000000000000000000000000000000000000000000028DCDCDCBEDCDCDCDCDCDCDCDCDCBEDCDCDCDCBE
310
DCDCDCDC28000000BEBEBE00000000BEF5F500F5F5F5F5F5F52800BEBEBEBEBEBEBEBEBEBEBEBEBEBEBEBE00BEBEBEBEBEBE002800BE00BEBEBEBEBEBEBEBEBEBE00BEBE000028F5F5DC0000000000000000000000000000000000000000000000000000000000000000000000000000000000000000DC0000000000000000
310
0028000000000000000000000000000000000000000000000000000000000000000000000000000000000000000000000000000000000000000000000000000000000000000000000000000000000000000000000000000000000000000000000000000000000000000000000028000000BE000000000000000000BE000000
310
00BE0000000028000000BEBEBEBE000000BEF5F500F5F5F5F5F5F52800BEBE00BE00BE0000BE0000BEBE0000BE00BEBEBEBEBEBE002800BEBEBEBEBEBEBEBEBEBEBEBE00BEBE000028F5F5DC0000000000000000000000000000000000000000000000000000000000000000000000000000000000000000DC000000000000
310
00000028000000000000000000000000000000000000000000000000000000000000000000000000000000000000000000000000000000000000000000000000000000000000000000000000000000000000000000000000000000000000000000000000000000000000000000000028DCDCDCBEDCDCDCDCDCDCDCDCDCBEDC
310
DCDCDCBEDCDCDCDC2800000000000000000000BE00000000000000000028000000000000000000000000000000000000000000000000002800000000000000000000000000000000000028F5F5DC0000000000000000000000000000000000000000000000000000000000000000000000000000000000000000DC00000000
310
000000000028000000000000000000000000000000000000000000000000000000000000000000000000000000000000000000000000000000000000000000000000000000000000000000000000000000000000000000000000000000000000000000000000000000000000000000000028000000BE000000000000000000
310
BE00000000BE000000002800F5F5F5F5F5F5F50000BEF5F5F5F5F5F5F5F50028F5F5F5F5F5F5F5F5F50000000000000000000000000000000028F5F5F5F5F5F5F5F5F5F5F5F500000000000028F5F5DC0000000000000000000000000000000000000000000000000000000000000000000000000000000000000000DC0000
310
0000000000000028000000000000000000000000000000000000000000000000000000000000000000000000000000000000000000000000000000000000000000000000000000000000000000000000000000000000000000000000000000000000000000000000000000000000000000000028000000BE00000000000000
310
0000BE00000000BE000000002800F5F5F5F5F5F5F50000BEF5F5F500F5F5F5F50028F5F5F5F5F5F5F5F5F50000000000000000000000000000000028F5F5F5F5F5F5F5F5F5F5F5F500000000000028F5F5DC0000000000000000000000000000000000000000000000000000000000000000000000000000000000000000DC
310
00000000000000000028000000000000000000000000000000000000000000000000000000000000000000000000000000000000000000000000000000000000000000000000000000000000000000000000000000000000000000000000000000000000000000000000000000000000000000000028F5F5F5F5F5F5F5F5F5
310
F5F5F5F5F5F5F5F5F5F5F5F528282828282828282828282828BE28282828282828282828282828282828282828282828282828282828282828282828282828282828282828282828282828282828282828F5F5DC00000000000000000000000000000000000000000000000000000000000000000000000000000000000000
310
00DC00000000000000000028000000000000000000000000000000000000000000000000000000000000000000000000000000000000000000000000000000000000000000000000000000000000000000000000000000000000000000000000000000000000000000000000000000000000000000000000F5F5F5F5F500F5
310
F5F5F5F5F5F5F5F5F5F5F5F5F5F5F50000000000000000000000000000000000000000000000000000000000000000000000000000000000000000000000000000000000000000000000000000000000000028F5F5DC0000000000000000000000000000000000000000000000000000000000000000000000000000000000
310
000000DC00000000000000000028000000000000000000000000000000000000000000000000000000000000000000000000000000000000000000000000000000000000000000000000000000000000000000000000000000000000000000000000000000000000000000000000000000000000000000000000F500F5F5F5
310
0000F5F5F5F5F5F5F5F5F5F5F5F5F5F5000000000000000000000000000000000000000000000000000000000000000000000000000000000000000000000000000000000000000000000000000000000000000028F5F5DC000000000000000000000000000000000000000000000000000000000000000000000000000000
310
0000000000DC00000000000000000028000000000000000000000000000000000000000000000000000000000000000000000000000000000000000000000000000000000000000000000000000000000000000000000000000000000000000000000000000000000000000000000000000000000000000000000000000000
310
000000000000000000000000000000000000000000000000000000000000000000000000000000000000000000000000000000000000000000000000000000000000000000000000000000000000000000000000000028F5F5DC00000000000000000000000000000000000000000000000000000000000000000000000000
310
00000000000000DC0000000000000000002800000000000000000000000000000000000000000000000000000000000000000000000000000000000000000000000000000000000000000000000000000000000000000000000000000000000000000000000000000000000000000000000000000000000000000000000000
310
0000000000000000000000000000000000000000000000000000000000000000000000000000000000000000000000000000000000000000000000000000000000000000000000000000000000000000000000000000000028F5F5DC0000000000000000000000000000000000000000000000000000000000000000000000
310
000000000000000000DC000000000000000000280000000000000000000000000000000000000000000000000000000000000000000000000000000000000000000000000000000000000000000000000000000000000000000000000000000000000000000000000000000000000000000000000000000000000000000000
310
00000000000000000000000000000000000000000000000000000000000000000000000000000000000000000000000000000000000000000000000000000000000000000000000000000000000000000000000000000000000028F5F5DC000000000000000000000000000000000000000000000000000000000000000000
310
0000000000000000000000DC00000000000000000028000000000000000000000000000000000000000000000000000000000000000000000000000000000000000000000000000000000000000000000000000000000000000000000000000000000000000000000000000000000000000000000000000000000000000000
310
000000000000000000000000000000000000000000000000000000000000000000000000000000000000000000000000000000000000000000000000000000000000000000000000000000000000000000000000000000000000000028F5F5DC00000000000000000000000000000000000000000000000000000000000000
310
00000000000000000000000000DC0000000000000000002800000000000000000000000000000000000000000000000000000000000000000000000000000000000000000000000000000000000000000000000000000000000000000000000000000000000000000000000000000000000000000000000000000000000000
310
0000000000000000000000000000000000000000000000000000000000000000000000000000000000000000000000000000000000000000000000000000000000000000000000000000000000000000000000000000000000000000000028F5F5DC0000000000000000000000000000000000000000000000000000000000
310
000000000000000000000000000000DC000000000000000000280000000000000000000000000000000000000000000000000000000000000000000000000000000000000000000000000000000000000000000000000000000000000000000000000000000000000000000000000000000000000000000000000000000000
310
00000000000000000000000000000000000000000000000000000000000000000000000000000000000000000000000000000000000000000000000000000000000000000000000000000000000000000000000000000000000000000000000028F5F5DC000000000000000000000000000000000000000000000000000000
310
0000000000000000000000000000000000DC00000000000000000028000000000000000000000000000000000000000000000000000000000000000000000000000000000000000000000000000000000000000000000000000000000000000000000000000000000000000000000000000000000000000000000000000000
310
000000000000000000000000000000000000000000000000000000000000000000000000000000000000000000000000000000000000000000000000000000000000000000000000000000000000000000000000000000000000000000000000000028F5F5DC00000000000000000000000000000000000000000000000000
310
00000000000000000000000000000000000000DC0000000000000000002800000000000000000000000000000000000000000000000000000000000000000000000000000000000000000000000000000000000000000000000000000000000000000000000000000000000000000000000000000000000000000000000000
310
0000000000000000000000000000000000000000000000000000000000000000000000000000000000000000000000000000000000000000000000000000000000000000000000000000000000000000000000000000000000000000000000000000000028F5F5DC0000000000000000000000000000000000000000000000
310
000000000000000000000000000000000000000000DC000000000000000000280000000000000000000000000000000000000000000000000000000000000000000000000000000000000000000000000000000000000000000000000000000000000000000000000000000000000000000000000000000000000000000000
310
00000000000000000000000000000000000000000000000000000000000000000000000000000000000000000000000000000000000000000000000000000000000000000000000000000000000000000000000000000000000000000000000000000000000028F5F5DC000000000000000000000000000000000000000000
310
0000000000000000000000000000000000000000000000DC00000000000000000028000000000000000000000000000000000000000000000000000000000000000000000000000000000000000000000000000000000000000000000000000000000000000000000000000000000000000000000000000000000000000000
310
000000000000000000000000000000000000000000000000000000000000000000000000000000000000000000000000000000000000000000000000000000000000000000000000000000000000000000000000000000000000000000000000000000000000000028F5F5DC00000000000000000000000000000000000000
310
00000000000000000000000000000000000000000000000000DC0000000000000000002800000000000000000000000000000000000000000000000000000000000000000000000000000000000000000000000000000000000000000000000000000000000000000000000000000000000000000000000000000000000000
310
0000000000000000000000000000000000000000000000000000000000000000000000000000000000000000000000000000000000000000000000000000000000000000000000000000000000000000000000000000000000000000000000000000000000000000000028F5F5DC0000000000000000000000000000000000
310
000000000000000000000000000000000000000000000000000000DC000000000000000000280000000000000000000000000000000000000000000000000000000000000000000000000000000000000000000000000000000000000000000000000000000000000000000000000000000000000000000000000000000000
310
00000000000000000000000000000000000000000000000000000000000000000000000000000000000000000000000000000000000000000000000000000000000000000000000000000000000000000000000000000000000000000000000000000000000000000000000028F5F5DC000000000000000000000000000000
310
0000000000000000000000000000000000000000000000000000000000DC00000000000000000028000000000000000000000000000000000000000000000000000000000000000000000000000000000000000000000000000000000000000000000000000000000000000000000000000000000000000000000000000000
310
000000000000000000000000000000000000000000000000000000000000000000000000000000000000000000000000000000000000000000000000000000000000000000000000000000000000000000000000000000000000000000000000000000000000000000000000000028F5F5DC00000000000000000000000000
310
00000000000000000000000000000000000000000000000000000000000000DC0000000000000000002800000000000000000000000000000000000000000000000000000000000000000000000000000000000000000000000000000000000000000000000000000000000000000000000000000000000000000000000000
310
0000000000000000000000000000000000000000000000000000000000000000000000000000000000000000000000000000000000000000000000000000000000000000000000000000000000000000000000000000000000000000000000000000000000000000000000000000000028F5F5DC0000000000000000000000
310
000000000000000000000000000000000000000000000000000000000000000000DC000000000000000000280000000000000000000000000000000000000000000000000000000000000000000000000000000000000000000000000000000000000000000000000000000000000000000000000000000000000000000000
310
00000000000000000000000000000000000000000000000000000000000000000000000000000000000000000000000000000000000000000000000000000000000000000000000000000000000000000000000000000000000000000000000000000000000000000000000000000000000028F5F5DC000000000000000000
310
0000000000000000000000000000000000000000000000000000000000000000000000DC00000000000000000028000000000000000000000000000000000000000000000000000000000000000000000000000000000000000000000000000000000000000000000000000000000000000000000000000000000000000000
310
000000000000000000000000000000000000000000000000000000000000000000000000000000000000000000000000000000000000000000000000000000000000000000000000000000000000000000000000000000000000000000000000000000000000000000000000000000000000000028F5F5DC00000000000000
310
00000000000000000000000000000000000000000000000000000000000000000000000000DC0000000000000000002800000000000000000000000000000000000000000000000000000000000000000000000000000000000000000000000000000000000000000000000000000000000000000000000000000000000000
310
0000000000000000000000000000000000000000000000000000000000000000000000000000000000000000000000000000000000000000000000000000000000000000000000000000000000000000000000000000000000000000000000000000000000000000000000000000000000000000000028F5F5DC0000000000
310
000000000000000000000000000000000000000000000000000000000000000000000000000000DC000000000000000000280000000000000000000000000000000000000000000000000000000000000000000000000000000000000000000000000000000000000000000000000000000000000000000000000000000000
310
00000000000000000000000000000000000000000000000000000000000000000000000000000000000000000000000000000000000000000000000000000000000000000000000000000000000000000000000000000000000000000000000000000000000000000000000000000000000000000000000028F5F5DC000000
310
0000000000000000000000000000000000000000000000000000000000000000000000000000000000DC00000000000000000028000000000000000000000000000000000000000000000000000000000000000000000000000000000000000000000000000000000000000000000000000000000000000000000000000000
310
000000000000000000000000000000000000000000000000000000000000000000000000000000000000000000000000000000000000000000000000000000000000000000000000000000000000000000000000000000000000000000000000000000000000000000000000000000000000000000000000000028F5F5DC00
310
00000000000000000000000000000000000000000000000000000000000000000000000000000000000000DC0000000000000000002800000000000000000000000000000000000000000000000000000000000000000000000000000000000000000000000000000000000000000000000000000000000000000000000000
310
000000000000000000000000F5F5F5F5F5F5F5F5F5F5F5F5F5F5F5F5F5F5F5F5F5F5F5F5F5F5F5F5F5F5F5F5F5F5F5F5F5F5F5F5F5F5F5F5F5F5F5F5F5F5F5F5F5F5F5F5F5F5F5F5F50000000000000000000000000000000000000000000000000000000000000000000000000000000000000000000000000000002800F5
310
DC0000000000000000000000000000000000000000000000000000000000000000000000000000000000000000DC000000000000000000280000000000000000000000000000000000000000000000000000000000BEBEBEBEBEBEBEBEBEBEBEBEBE00BEBEBEBEBEBEBEBEBEBEBEBE00000000000000000000000000000000
310
0000000000000000000000000000F5F5F500000000000000000000000000000000000000000000000000BEBEBEBEBE00000000000000000000000000000000000000000000000000F5F5F500000000000000000000000000000000000000000000000000000000000000000000000000000000000000000000000000000028
310
F5F5DC0000000000000000000000000000000000000000000000000000000000000000000000000000000000000000DC000000000000000000280000000000000000000000000000000000000000000000000000000000BEBEBEBE0000BEBEBEBEBEBE0000BEBEBEBEBEBEBEBEBEBEBEBE0000000000000000000000000000
310
00000000000000000000000000000000F5000000000000000000000000000000000000000000000000000000BEBEBEBEBE000000000000000000000000000000000000000000000000000000F50000000000000000000000000000000000000000000000000000000000000000000000000000000000000000000000000000
310
0028F5F5DC0000000000000000000000000000000000000000000000000000000000000000000000000000000000000000DC000000000000000000280000000000000000000000000000000000000000000000000000000000DCDCDCDCDCDCDCDCDCBEDCDCDCDCDCDCDCDCDCDCDCDCDCDCDCDC000000000000000000000000
310
000000000000000000000000000000000000F5000000000000000000000000000000000000000000000000000000BEBEBEBEBE000000000000000000000000000000000000000000000000000000F5000000000000000000000000000000000000000000000000000000000000000000000000000000000000000000000000
310
00000028F5F5DC0000000000000000000000000000000000000000000000000000000000000000000000000000000000000000DC000000000000000000280000000000000000000000000000000000000000000000000000000000BEBEBEBEBEBEBEBEBEBEBE00BEBEBEBEBEBEBE00000000000000DC000000000000000000
310
0000000000000000000000000000000000000000F50000000000000000000000000000000000000000000000000000000000000000000000000000000000000000000000000000000000000000000000F500000000000000000000000000000000000000000000000000000000000000000000000000000000000000000000
310
000000000028F5F5DC0000000000000000000000000000000000000000000000000000000000000000000000000000000000000000DC000000000000000000280000000000000000000000000000000000000000000000000000000000BEBEBEBEBEBEBEBEBEBEBE00BEBEBEBEBEBEBE0000000000000000DC0000000000F5
310
F5F5F5F5F5F5F5F5F5F5F5F5F5F5F5F5F5F5F5F5F5F5F5F5F5F5F5F5F5F5F5F5F5F5F5F5F5F5F5F5F5F5F5F5F5F5F5F5F5F5F5F5F5F5F5F5F5F5F5F5F5F5F5F5F50000000000000000000000000000000000F50000000000000000000000000000000000000000000000000000000000000000000000000000000000000000
310
0000000000000028F5F5DC0000000000000000000000000000000000000000000000000000000000000000000000000000000000000000DC000000000000000000280000000000000000000000000000000000000000000000000000000000BEBE00BE0000BEBE0000BE00BEBEBEBEBEBEBE000000000000000000DC000000
310
00F5F5F500000000000000000000000000000000000000000000000000000000BEBEBEBE00000000000000000000000000000000000000000000000000000000F5F5F50000000000000000000000000000000000F5000000000000000000000000000000000000000000000000000000000000000000000000000000000000
310
00000000000000000028F500DC0000000000000000000000000000000000000000000000000000000000000000000000000000000000000000DC0000000000000000002800000000000000000000000000000000000000000000000000000000000000000000000000000000000000000000000000000000000000000000DC
310
000000F5000000000000000000000000000000000000000000000000000000000000BEBEBEBE000000000000000000000000000000000000000000000000000000000000F50000000000000000000000000000000000F500000000000000000000000000000000000000000000000000000000000000000000000000000000
310
000000000000000000000028F5F5DC0000000000000000000000000000000000000000000000000000000000000000000000000000000000000000DC00000000000000000028000000000000000000000000000000000000000000000000000000000000000000000000000000000000000000000000000000000000000000
310
0000DCDC00F5000000000000000000000000000000000000000000000000000000000000BEBEBEBE000000000000000000000000000000000000000000000000000000000000F50000000000000000000000000000000000F50000000000000000000000000000000000000000000000000000000000000000000000000000
310
0000000000000000000000000028F5F5DC0000000000000000000000000000000000000000000000000000000000000000000000000000000000000000DC0000000000000000002800000000000000000000000000000000000000000000000000000000000000000000000000000000000000000000000000000000000000
310
000000000000DCF500000000000000000000000000000000000000000000000000000000000000000000000000000000000000000000000000000000000000000000000000000000F50000000000000000000000000000000000DC280000000000000000000000000000000000000000000000000000000000000000000000
310
00000000000000000000000000000028F5F5DC0000000000000000000000000000000000000000000000000000000000000000000000000000000000000000DC0000000000000000002800000000000000000000000000000000000000000000000000000000000000000000000000000000F5F5F5F5F5F5F5F5F5F5F5F5F5
310
F5F5F5F5F5F5F5F5F5F528282828282828282828282828282828282828282828282828282828282828282828282828282828282828282828282828282828282828282828282828282828F5000000000000000000000000000000000028DCDC0000000000000000000000000000000000000000000000000000000000000000
310
000000000000000000000000000000000028F500DC0000000000000000000000000000000000000000000000000000000000000000000000000000000000000000DC000000000000000000280000000000000000000000000000000000000000000000000000000000000000000000000000000000F5000000000000000000
310
000000000000000000000028DCF5F500F5F500F5F500F5F500F5F5F5F500F5F500F5F500F5F500F5F500F5F5F5F500F5F500F5F500F5F500F5F500F500F5F500F5F500F5F500F5F500F5F5F5280000000000000000F5F5F5F5F5F5F5F5F5282800DC0000000000000000000000000000000000000000000000000000000000
310
0000000000000000000000000000000000000028F5F5DC0000000000000000000000000000000000000000000000000000000000000000000000000000000000000000DC0000000000000000002800000000000000000000000000000000000000000000000000000000000000000000000000000000F5F500000000000000
310
0000000000000000000000000028F5F5F5F5F5F5F5F5F5F5F5F5F5F5F5F5F5F5F5F5F5F5F5F5F5F5F5F5F5F5F5F5F5F5F5F5F5F5F5F5F5F5F5F5F5F5F5F5F5F5F5F5F5F5F5F5F5F5F5F5F5F5F5F5F5F5F5F5F5F5F5F5F5BEBE00000000F5F528F5280000000000000000000000000000000000000000000000000000000000
310
00000000000000000000000000000000000000000028F5F5DC0000000000000000000000000000000000000000000000000000000000000000000000000000000000000000DC000000000000000000280000000000000000000000000000000000000000000000000000000000000000000000000000000000F50000000000
310
00000000000000000000000000000028F5F5DCF5F500F5F5F5F500F5F500F5F500F5F500F5F500F500F5F500F5F500F5F500F5F500F5F5F5F500F5F500F5F500F5F500F5F500F500F5F500F5F500F5F5F50000000000BEBEBEBEBE000000000000282800000000000000000000000000000000000000000000000000000000
310
000000000000000000000000000000000000000000000028F5F5DC0000000000000000000000000000000000000000000000000000000000000000000000000000000000000000DC000000000000000000280000000000000000000000000000000000000000000000000000000000000000000000000000000000F5000000
310
00000000000000000000000000000000002800F5F5DCF5F500F5F500F5F500F5F5F5F500F5F500F5F500F5F500F5F500F5F5F5F500F5F500F5F500F5F500F5F500F500F5F500F5F500F5F500F5F500F5F5F5280000000000BEBEBE00BE000000000028F5280000000000000000000000000000000000000000000000000000
310
0000000000000000000000000000000000000000000000000028F5F5DC0000000000000000000000000000000000000000000000000000000000000000000000000000000000000000DC000000000000000000280000000000000000000000000000000000000000000000000000000000000000000000000000000000F500
310
0000000000000000000000000000000000002800F5F500F5F500F5F5F5F500F5F500F5F500F5F500F5F500F500F5F500F5F500F5F500F5F500F5F5F5F500F5F500F5F500F5F500F5F5F5F528282828282828F5F5280000000000000000000000000000280028F5000000000000000000000000000000000000000000000000
310
00000000000000000000000000000000000000000000000000000028F5F5DC0000000000000000000000000000000000000000000000000000000000000000000000000000000000000000DC000000000000000000280000000000000000000000000000000000000000000000000000000000000000000000000000000000
310
F50000000000000000000000000000000000000028F5F5F5F5F5F5F5F5F5F5F5F5F5F5F5F5F5F5F5F5F5F5F5F5F5F5F5F5F5F5F5F5F5F5F5F5282828282828282828282828282828282828282800000000000028F5F5F52800000000000000000000000000280028F500000000000000000000000000000000000000000000
310
000000000000000000000000000000000000000000000000000000000028F5F5DC0000000000000000000000000000000000000000000000000000000000000000000000000000000000000000DC00000000000000000028000000000000000000000000000000000000000000000000000000000000000000000000000000
310
0000F50000000000000000000000000000000000000028F500F5F500F5F5DCF5F500F5F500F5F5282828282828282828282828282828282828282800000000000000000000000000000000000000000000000000F5F5F5F5F5F5000000000000000000000000280028F5F50000000000000000000000000000000000000000
310
0000000000000000000000000000000000000000000000000000000000000028F5F5DC0000000000000000000000000000000000000000000000000000000000000000000000000000000000000000DC0000000000000000002800000000000000000000000000000000000000000000000000000000000000000000000000
310
00000000F5000000000000000000000000000000000000002800F5F500F5F528282828282828282828000000000000000000000000000000000000000000000000000000000000000000000000000000000000000000F5F5F5F5F528000000000000000000000000280028F5F5000000000000000000000000000000000000
310
00000000000000000000000000000000000000000000000000000000000000000028F5F5DC0000000000000000000000000000000000000000000000000000000000000000000000000000000000000000DC000000000000000000280000000000000000000000000000000000000000000000000000000000000000000000
310
000000000000F50000000000000000000000000000000000000028F500F5F500F528280000DC0000000000000000000000000000000000000000000000000000000000000000000000000000000000000000000000000000F5F5F5F500280000002828282828282828C3F5C3F5F5F5F5F5F5F5000000000000000000000000
310
000000000000000000000000000000000000000000000000000000000000000000000028F5F5DC0000000000000000000000000000000000000000000000000000000000000000000000000000000000000000DC00000000000000000028000000000000000000000000000000000000000000000000000000000000000000
310
0000000000000000F5000000000000000000000000000000000000002800F5F500F5F52800280000DC00000000000000000000000000000000000000000000000000000000000000000000000000000000F5282828282828282828F5F5F5282828282828282828282828C3C3C3C32828F5000000F500000000000000000000
310
0000000000000000000000000000000000000000000000000000000000000000000000000028F5F5DC0000000000000000000000000000000000000000000000000000000000000000000000000000000000000000DC0000000000000000002800000000000000000000000000000000000000000000000000000000000000
310
00000000000000000000F50000000000000000000000000000000000000028F5F5F5F5F5F5280000280000DC0000000000000000000000000000000000000000F5F5F52828282828282828282828282828282828282828282828282828282828282800000000000000000000C3DCC3000028F5000000F50000000000000000
310
00000000000000000000000000000000000000000000000000000000000000000000000000000028F5F5DC0000000000000000000000000000000000000000000000000000000000000000000000000000000000000000DC000000000000000000280000000000000000000000000000000000000000000000000000000000
310
000000000000000000000000F50000000000000000000000000000000000000028F500F5F500F528000000F5F500DCF5F5F5F5F5282828282828282828282828282828282828282828282828282800000000000000000000000000000000000000000000000000000000000000C3C3C300000028F5000000F5000000000000
310
000000000000000000000000000000000000000000000000000000000000000000000000000000000028F5F5DC0000000000000000000000000000000000000000000000000000000000000000000000000000000000000000DC00000000000000000028000000000000000000000000000000000000000000000000000000
310
0000000000000000000000000000F5000000000000000000000000000000000000002800F5F500F5F528000000F5F5F5282828282828282828280000000000000000000000000000000000000000000000000000000000000000000000000000000000000000000000000000000000C300C300000028F5000000F500000000
310
0000000000000000000000000000000000000000000000000000000000000000000000000000000000000028F500DC0000000000000000000000000000000000000000000000000000000000000000000000000000000000000000DCDCDCDCDCDCDCDCDC002800000000000000000000000000000000000000000000000000
310
00000000000000000000000000000000F50000000000000000000000000000000000000028F500F5F500F528000000F528000000000000000000000000000000000000000000000000000000000000000000000000000000000000000000000000000000000000000000000000000000C3C3C3DC00000028F5000000F50000
310
00000000000000000000000000000000000000000000000000000000000000000000000000000000000000000028F5F5DC0000000000000000000000000000000000000000000000000000000000000000000000000000000000000000DC000000000000000000280000000000000000000000000000000000000000000000
310
000000000000000000000000000000000000F500000000000000000000000000000000000028F5F5F5F5F5F5F5280000002828280000000000000000000000000000000000000000000000000000000000000000000000000000000000000000000000000000000000000000000000000000C3C3C3DC00000028F5000000F5
310
000000000000000000000000000000000000000000000000000000000000000000000000000000000000000000000028F5F5DC0000000000000000000000000000000000000000000000000000000000000000000000000000000000000000DC00000000000000000028000000000000000000000000000000000000000000
310
0000000000000000000000000000000000000000F500000000000000000000000000000000000028F500F5F500F5F52800000028280028000000000000000000000000000000000000000000000000000000000000000000000000000000000000000000000000000000000000000000000000C300C30000DC000000F50000
310
00F5000000000000000000000000000000000000000000000000000000000000000000000000000000000000000000000028F5F5DC0000000000000000000000000000000000000000000000000000000000000000000000000000000000000000DC0000000000000000002800000000000000000000000000000000000000
310
00000000000000000000000000000000000000000000F50000000000000000000000000000000000002800F500F5F500F52800000028280000280000000000000000000000000000000000000000000000000000000000000000F500000000000000000000000000000000000000000000000000C3C3C3C30000DC000000F5
310
000000F5000000000000000000000000000000000000000000000000000000000000000000000000000000000000000000000028F5F5DC0000000000000000000000000000000000000000000000000000000000000000000000000000000000000000DC000000000000000000280000000000000000000000000000000000
310
000000000000000000000000000000000000000000000000F500000000000000000000000000000000000028F500F5F500F5F5280000002828000000280000000000000000000000000000000000000000000000000000000000BEBEBE00000000000000000000000000000000000000000000000000C300C3000000DC0000
310
00F5000000F5000000000000000000000000000000000000000000000000000000000000000000000000000000000000000000000028F5F5DC0000000000000000000000000000000000000000000000000000000000000000000000000000000000000000DC00000000000000000028000000000000000000000000000000
310
0000000000000000000000000000000000000000000000000000F500000000000000000000000000000000000028F5F5F5F5F5F5F5280000002828000000002828000000000000000000000000000000000000000000000000000000BEBEBEF50000000000000000000000000000000000000000000000C300C300000000DC
310
000000F500BEBEBE000000000000000000000000000000000000000000000000000000000000000000000000000000000000000000000028F5F5DC0000000000000000000000000000000000000000000000000000000000000000000000000000000000000000DC0000000000000000002800000000000000000000000000
310
00000000000000000000000000000000000000000000000000000000F50000000000000000000000000000000000002800F500F5F500F5280000002828000000000000280000000000000000000000000000000000000000000000000000BEBE00F500000000000000C3C3C3C3C3C3C3C3000000000000C3C300C3C3000000
310
00DC000000F500BEBEBE000000000000000000000000000000000000000000000000000000000000000000000000000000000000000000000028F5F5DC0000000000000000000000000000000000000000000000000000000000000000000000000000000000000000DC000000000000000000280000000000000000000000
310
000000000000000000000000000000000000000000000000000000000000F500000000000000000000000000000000000028F500F5F500F5F528000000282800000000000000280000000000000000000000000000000000C3C3C3C3C3C3C3C3C3C3C3C3C3C3C3C3C3C3C3C3000000000000C300000000C3C3C3C3C3C30000
310
000000DC000000F500BEBEBE000000000000000000000000000000000000000000000000000000000000000000000000000000000000000000000028F5F5DC0000000000000000000000000000000000000000000000000000000000000000000000000000000000000000DC00000000000000000028000000000000000000
310
0000000000000000000000000000000000000000000000000000000000000000F50000000000000000000000000000000000002800F500F5F500F5280000002828000000000000C3C3C3C3C3C3C3C3C3C3C3C3C3C3C3C3C3C3C30000000000000000000000F50000000000000000000000C3C3C3C3C3C3C3C3DCC3C3C3DCDC
310
DCDCDCDCDCDCDCDCDCF5F5F5BEBEF5F5F5F5F5F5000000000000000000000000000000000000000000000000000000000000000000000000000000000028F5F5DC0000000000000000000000000000000000000000000000000000000000000000000000000000000000000000DC0000000000000000002800000000000000
310
00000000000000000000000000000000000000000000000000000000000000000000F500000000000000000000000000000000000028F5F5F5F52828282828282828C3C3C3C3C3C3C30000002800000000000000000000000000000000000000000000000000DCF5DCDCDCDCDCDCDCDCDCC3C3C3DCC3C3C3C3C3C3C3C30000
310
00000000000000DC0000002800BEBEBEF500000000F5000000000000000000000000000000000000000000000000000000000000000000000000000000000028F5F5DC0000000000000000000000000000000000000000000000000000000000000000000000000000000000000000DC000000000000000000280000000000
310
000000000000000000000000000000000000000000000000000000000000000000BEBEBEF500000000000000000000000000000000000028F500F5F5280000000000002828000000000000000000002800000000DCDCDCDCDCDCDCDCDCDCDCDCDCDCDCDCDCDCDCDC00F500000000000000C3C3C3C3C3C3C3C3000000000000
310
000000000000000000DC0000002800BEBEBEF500000000F5000000000000000000000000000000000000000000000000000000000000000000000000000000000028F5F5DC0000000000000000000000000000000000000000000000000000000000000000000000000000000000000000DC00000000000000000028000000
310
0000000000000000000000000000000000000000000000000000000000000000000000BEBEBEF5000000000000000000000000000000000028F500F500F528000000000000282800000000000000F5000000F5F5F5F5F5F5F5F5F5F5F5F5F5F5F5F5F5F5F5F5F5F5F5F5F5F5F50000000000C3C3C3C3C3C3C3C3C300000000
310
0000000000000000000000DC0000002800000000F500000000F5000000000000000000000000000000000000000000000000000000000000000000000000000000000028F5F5DC0000000000000000000000000000000000000000000000000000000000000000000000000000000000000000DC0000000000000000002800
310
00000000000000000000000000000000000000000000000000000000000000000000000000BEBEBEF5000000000000000000000000000000000028F5F500F5F52800000000000028280000000000000000000000DC28000000000000000000000000C3C3C3C3C3C3C3C3C3C3C3C3C3C3C3C3C3C3C3C3C30000000000000000
310
00000000000000000000000000DC0000002800000000F500000000F5000000000000000000000000000000000000000000000000000000000000000000000000000000000028F5F5DC0000000000000000000000000000000000000000000000000000000000000000000000000000000000000000DC000000000000000000
310
280000000000000000000000000000000000000000000000000000000000000000000000000000BEBEBEF5000000000000000000000000000000000028F500F500F52800000000000028280000000000C3C3C3C3C3C3C3C3C3C3C3C3C3C3C3C3C3C3C3C30000000000000000000000F500000000C3C3C3C300000000000000
310
000000000000000000000000000000DC0000002800000000F500000000F5000000000000000000000000000000000000000000000000000000000000000000000000000000000028F5F5DC0000000000000000000000000000000000000000000000000000000000000000000000000000000000000000DC00000000000000
310
0000280000000000000000000000000000000000000000000000000000000000000000000000000000000000F5000000000000000000000000000000000028F5F5F5F5F52828282828282828C3C3C3C3C3C3C3000000000000000028000000000000000000000000000000000000000000F5000000C3C3C3C3000000000000
310
000000000000000000000000000000000000DC00000028000000F500000000F5000000000000000000000000000000000000000000000000000000000000000000000000000000000028F5F5DC0000000000000000000000000000000000000000000000000000000000000000000000000000000000000000DC0000000000
310
000000002800000000000000BEBEBEBE0000BEBEBEBEBEBEBE00BEBEBEBEBEBEBEBEBEBEBEBE0000000000000000F5000000000000000000000000000000000028F5F500F5F500F5F52800000028280000000000000000000000DC00000028000000000000000000000000000000000000000000000000C300C30000000000
310
0000000000000000000000000000BE0000000000DC00000028000000F500000000F5000000000000000000000000000000000000000000000000000000000000000000000000000000000028F5F5DC0000000000000000000000000000000000000000000000000000000000000000000000000000000000000000DC000000
310
0000000000002800000000000000BEBEBEBEBEBEBEBEBE00BEBEBE00BE00BEBEBEBE00BEBEBEBEBE0000000000000000F5000000000000000000000000000000000028F500F500F5F500F52800000028280000000000000000000000DC000000002800000000000000000000000000000000000000000000C3C3C300000000
310
00000000000000000000BEBEBEBEBEBEBEBE00000000DC00000028000000F500000000F5000000000000000000000000000000000000000000000000000000000000000000000000000000000028F5F5DC0000000000000000000000000000000000000000000000000000000000000000000000000000000000000000DC00
310
00000000000000002800000000000000DCDCDCDCDCDCDCDCDCDCDCDCDCDCDCDCDCDCDCDCDCDCDCDCDCDCDCDC000000000000F5000000000000000000000000000000000028F5F500F5F500F5F52800000028280000000000000000000000DC000000000028280000000000000000000000000000000000000000C300C30000
310
000000000000000000000000BEBEBEBEBEBEBEBE00000000DC00000028000000F500000000F5000000000000000000000000000000000000000000000000000000000000000000000000000000000028F5F5DC0000000000000000000000000000000000000000000000000000000000000000000000000000000000000000
310
DC0000000000000000002800000000000000BEBEBEBEBEBEBEBEBEBEBEBEBEBEBEBEBEBEBE000000000000000000DCDC00000000F5000000000000000000000000000000000028F5F5F5F5F5F5F5F52800000028280000000000000000000000DC000000000000002800000000000000000000000000000000000000C3C3C3
310
0000000000000000000000000000000000000000000000000000DC00000028000000F5F5000000F5000000000000000000000000000000000000000000000000000000000000000000000000000000000028F5F5DC000000000000000000000000000000000000000000000000000000000000000000000000000000000000
310
0000DC0000000000000000002800000000000000BEBEBEBEBEBEBEBEBEBEBEBEBEBEBEBEBEBEBEBE00000000000000000000DCDC0000F5000000000000000000000000000000000028F500F500F5F500F5280000002828000000000000000000000000000000000000000028000000000000000000000000000000000000C3
310
C3000000000000000000000000000000000000000000000000000000DC00282828000000F5F5000000F5000000000000000000000000000000000000000000000000000000000000000000000000000000000028F5F5DC00000000000000000000000000000000000000000000000000000000000000000000000000000000
310
00000000DC0000000000000000002800000000000000BEBEBEBEBEBEBEBEBEBEBEBEBEBEBEBEBEBEBE00000000000000000000000000DCDCF5000000000000000000000000000000000028F5F500F5F500F5F52800000028280000000000000000000000DC0000000000000000002800000000000000000000000000000000
310
C300C3000000000000000000000000000000002828282828282828282828F5F5F5F5F5F5F5F5F5F5000000F5000000000000000000000000000000000000000000000000000000000000000000000000000000000028F5F5DC0000000000000000000000000000000000000000000000000000000000000000000000000000
310
000000000000DC000000000000000000280000000000000000000000000000000000000000000000000000000000000000000000000000000000F5DCDC000000000000000000000000000028F5F500F500F5F500F52800000028280000000000000000000000DC000000000000000000002800000000000000000000000028
310
2828C328C328282828282828282828F5F5F528282828282828F5F5F5F5F5F5F500000000000000000000BEBEBEF5000000000000000000000000000000000000000000000000000000000000000000000000000000000028F5F5DC000000000000000000000000000000000000000000000000000000000000000000000000
310
0000000000000000DC000000000000000000280000000000000000000000000000000000000000000000000000000000000000000000000000000000F50000DCDC00000000000000000000000028F5F5F5F5F5F5F5F5F52800000028280000000000000000000000DC00000000000000000000002828282828282828282828
310
282828F5C3F5C32828282828F5F5F50028F5F5F5002800000000000000000000000000000000000000000000BEBEBEF5000000000000000000000000000000000000000000000000000000000000000000000000000000000028F5F5DC00000000000000000000000000000000000000000000000000000000000000000000
310
00000000000000000000DC000000000000000000280000000000000000000000000000000000000000000000000000000000000000000000000000000000F500000000DCDCDC0000000000000000002800F5F500F5F500F5F52800000028280000000000000000000000DC000000000000000000000028F5F5F5F5F5282828
310
0000000000F52828F5000000000000000000002828F5F5F528000000000000000000000000000000000000000000BEBEBEF5000000000000000000000000000000000000000000000000000000000000000000000000000000000028F5F5DC0000000000000000000000000000000000000000000000000000000000000000
310
000000000000000000000000DC000000000000000000280000000000000000000000000000000000000000000000000000000000000000000000000000000000F500000000000000DCDC0000000000000028F5F500F500F5F500F5280000002828000000000000000000000000000000000000000000000028F5282828F500
310
000000000000000000000000000000000000000000F5F5F5F5F5F500000000000000000000000000000000000000000000BEBEF5000000000000000000000000000000000000000000000000000000000000000000000000000000000028F5F5DC000000000000000000000000000000000000000000000000000000000000
310
0000000000000000000000000000DC000000000000000000280000000000000000000000000000000000000000000000000000000000000000000000000000000000F5000000000000000000DCDCDC000000002800F5F500F5F500F5F52800000028DCDCDCDCDCDCDCDCDCDCDCDCDCDCDCDCDCDCDCDCDCDCDCDCDC28002800
310
0000000000000000000000000000000000000000000000F5F5F5F5F528000000000000000000000000000000000000000000000000F5000000000000000000000000000000000000000000000000000000000000000000000000000000000028F5F5DC00000000000000000000000000000000000000000000000000000000
310
00000000000000000000000000000000DC000000000000000000280000000000000000000000000000000000000000000000000000000000000000000000000000000000F5000000000000000000000000DCDC000028F5F5F5F5F5F5F5F5F5280000F528000000000000000000000000DC00000000000000000000000028F5
310
0028000000000000000000000000000000000000000000002828F5F5F52800000000000000000000000000000000000000000000000000F5000000000000000000000000000000000000000000000000000000000000000000000000000000000028F5F5DC0000000000000000000000000000000000000000000000000000
310
000000000000000000000000000000000000DC000000000000000000280000000000000000000000000000000000000000000000000000000000000000000000000000000000F50000000000000000000000000000DCDC28F5F500F500F5F500F528F5F5F500000000000000000000000000DC000000000000000000000000
310
00F5F5F5280000F500F5F5F5F500282828282828282828282828F5F5F5F5002800000000000000000000000000000000000000000000000000F5000000000000000000000000000000000000000000000000000000000000000000000000000000000028F5F5DC000000000000000000000000000000000000000000000000
310
0000000000000000000000000000000000000000DC000000000000000000280000000000000000000000000000000000000000000000000000000000000000000000000000000000F50000000000000000000000000000000028DCF5F500F5F500F5F500F5F5F528282828282828282828282828DC28282828282828282828
310
282828F5F5F528282828282828282828F500F5F500F500F5F500F5F500F5F500F52800000000000000000000000000000000000000000000000000F5000000000000000000000000000000000000000000000000000000000000000000000000000000000028F5F5DC00000000000000000000000000000000000000000000
310
00000000000000000000000000000000000000000000DC000000000000000000280000000000000000000000000000000000000000000000000000000000000000000000000000000000F50000000000000000000000000000000028F5F5DCF500F5F52800F5F5F5F528282828282828282828282828282828282828282828
310
2828282828F5F5F5280028F500F5F500F500F5F500F5F500F5F500F5F500F5F5F5F5002800000000000000000000000000000000000000000000000000F5000000000000000000000000000000000000000000000000000000000000000000000000000000000028F5F5DC0000000000000000000000000000000000000000
310
000000000000000000000000000000000000000000000000DC000000000000000000280000000000000000000000000000000000000000000000000000000000000000000000000000000000F5000000000000000000000000000000002800F5F500F5F528282828F5F5F5F5F52828282828282828282828DC282828282828
310
2828282828F5F5F5F5F528282828F500F5F500F5F500F5F500F500F5F500F5F500F5F500F52800000000000000000000000000000000000000000000000000F5000000000000000000000000000000000000000000000000000000000000000000000000000000000028F5F5DC000000000000000000000000000000000000
310
0000000000000000000000000000000000000000000000000000DC000000000000000000280000000000000000000000000000000000000000000000000000000000000000000000000000000000F500000000000000000000000000000028F5F5F5F5F5F5F528DCF5F5F5F5F5F5000000000000000000000000DC00000000
310
0000000000000000F5F5F5F5F5F50028F5F5F5F5F5F5F5F5F5F5F5F5F5F5F5F5F5F5F5F5F5F5F52800000000000000000000000000000000000000000000000000F5000000000000000000000000000000000000000000000000000000000000000000000000000000000028F5F5DC00000000000000000000000000000000
310
00000000000000000000000000000000000000000000000000000000DC000000000000000000280000000000000000000000000000000000000000000000000000000000000000000000000000000000F50000000000000000000000000000002800F5F500F500F52800F5F5F5F5F5F5000000000000000000000000DC0000
310
00000000000000000000F5F5F5F5F5F5002800F5F500F500F5F500F5F500F5F500F5F500F5F5F5F5002800000000000000000000000000000000000000000000000000F5000000000000000000000000000000000000000000000000000000000000000000000000000000000028F5F5DC0000000000000000000000000000
310
000000000000000000000000000000000000000000000000000000000000DC000000000000000000280000000000000000000000000000000000000000000000000000000000000000000000000000000000F500000000000000000000000000000028F500F5F500F5F5282828F5F5F5F5F5000000000000000000000000DC
310
000000000000000000000000F5F5F5F5F5282828F500F5F500F5F500F5F500F500F5F500F5F500F5F500F52800000000000000000000000000000000000000000000000000F5000000000000000000000000000000000000000000000000000000000000000000000000000000000028F5F5DC000000000000000000000000
310
0000000000000000000000000000000000000000000000000000000000000000DC0000000000000000002800000000000000000000000000000000000000000000000000000000000000000000000000000000F5F50000000000000000000000000000002800F5F500F50028F500F5F5F5F5F5F52828282828282828282828
310
2828282828282828282828282828F5F5F5F5F5F5000028F5F500F500F5F500F5F500F5F500F5F500F5F5F5F5002800000000000000000000000000000000000000000000000000F50000000000000000000000000000000000000000000000000000000000000000000000000000000000280000DC00000000000000000000
310
00000000000000000000000000000000000000000000000000000000000000000000DC000000000000000000280000000000000000000000000000000000000000000000000000000000000000000000000000000000F500000000000000000000000000000028F5F5F5F5F528F50000F5F5F5F5F500000000000000000000
310
000000DC00000000000000000000000000F5F5F5F5F50000F528F5F5F5F5F5F5F5F5F5F5F5F5F5F5F5F5F5F5F5F5F52800000000000000000000000000000000000000000000000000F50000000000000000000000000000000000000000000000000000000000000000000000000000000000280000DC0000000000000000
310
000000000000000000000000000000000000000000000000000000000000000000000000DC0000000000000000002800000000000000000000000000000000000000000000000000000000000000000000000000000000F5F5F5F5F5F5F5F5F5F5F5F5F5F5F5F5F5F5F5F5F5F528F5F5F5F5F5F5F5F5F50000000000000000
310
0000000000DC00000000000000000000000000F5F5F5F5F5F5F5F5F528F5F5F5F5F5F5F5F5F5F5F5F5F5F52828282828282800000000000000000000000000000000000000000000000000F50000000000000000000000000000000000000000000000000000000000000000000000000000000000280000DC000000000000
310
0000000000000000000000000000000000000000000000000000000000000000000000000000DC0000000000000000002800000000000000000000000000000000000000000000F5F5F5F5F5F5F5F5F5F5F5F5F5F5F5F5F5F5F5F5F5F5F5F5F5F5F5F5F5F5F5F5F5F5F5F5F5F5F5F5F5F5F5F5F5F52828F5F5282828282828
310
28282828282828DC28282828282828282828282828F5F52828F5F5F5F5F5F5F5F5F5F5F5F5F5F5F5F5F5F5F5F5F5F5F5F5F5F5F5F5F5F5F5F5F5F5F5F5F5F5F5F5F5F5F5F5F5F5F5F5F5F5F5F5F5F500000000000000000000000000000000000000000000000000000000000000000000000000000000280000DC00000000
310
00000000000000000000000000000000000000000000000000000000000000000000000000000000DC0000000000000000002800000000000000000000000000000000000000000000F5000000000000000000000000000000000000000000F5000000000000000000000000F5000000000000000000000000000000000000
310
000000000000000000DC00000000000000000000000000000000000000000000000000000000000000000000000000000000F5000000000000000000000000000000000000000000F5000000000000000000000000000000000000000000000000000000000000000000000000000000000000000000000000280000DC0000
310
000000000000000000000000000000000000000000000000000000000000000000000000000000000000DC0000000000000000002800000000000000000000000000000000000000000000F5000000000000000000000000000000000000000000F5000000000000000000000000F500000000000000000000000000000000
310
0000000000000000000000F500000000000000000000000000000000000000000000000000000000000000000000000000000000F5000000000000000000000000000000000000000000F5DC0000000000000000000000000000000000000000000000000000000000000000000000000000000000000000000000280000DC
310
0000000000000000000000000000000000000000000000000000000000000000000000000000000000000000DC0000000000000000002800000000000000000000000000000000000000000000F5000000000000000000000000000000000000000000F5000000000000000000000000F50000000000000000000000000000
310
00000000000000000000000000F500000000000000000000000000000000000000000000000000000000000000000000000000000000F5000000000000000000000000000000000000000000F500DC000000000000000000000000000000000000000000000000000000000000000000000000000000000000000000002800
310
00DC0000000000000000000000000000000000000000000000000000000000000000000000000000000000000000DC0000000000000000002800000000000000000000000000000000000000000000F5000000000000000000000000000000000000000000F5000000000000000000000000F500F500000000000000000000
310
00000000000000000000000000F500F500000000000000000000000000000000000000000000000000000000000000000000000000000000F5000000000000000000000000000000000000000000F50000DC000000000000000000000000000000000000000000000000000000000000000000000000000000000000000000
310
280000DC0000000000000000000000000000000000000000000000000000000000000000000000000000000000000000DC0000000000000000002800000000000000000000000000000000000000000000F5000000000000000000000000000000000000000000F5000000000000000000000000F5F5F5F5F5F5F5F5F5F5F5
310
F5F5BEBEBEBEF5F5F5F5F5F5F5F5F5F5F5F500000000000000000000000000000000000000000000000000000000000000000000000000000000F5000000000000000000000000000000000000000000F5000000DCDC0000000000000000000000000000000000000000000000000000000000000000000000000000000000
310
0000280000DC0000000000000000000000000000000000000000000000000000000000000000000000000000000000000000DC0000000000000000002800000000000000000000000000000000000000000000F5000000000000000000000000000000000000000000F5000000000000000000000000000000000000000000
310
00000000BEBEBEBE00000000000000000000000000000000000000000000000000000000000000000000000000000000000000000000000000000000F5000000000000000000000000000000000000000000F50000000000DC0000000000000000000000000000000000000000000000000000000000000000000000000000
310
00000000280000DC0000000000000000000000000000000000000000000000000000000000000000000000000000000000000000DC0000000000000000002800000000000000000000000000000000000000000000F5000000000000000000000000000000000000000000F500000000000000000000000000000000000000
310
000000000000BEBEBEBE00000000000000000000000000000000000000000000000000000000000000000000000000000000000000000000000000000000F5000000000000000000000000000000000000000000F5000000000000DC0000000000000000000000000000000000000000000000000000000000000000000000
310
000000000000280000DC0000000000000000000000000000000000000000000000000000000000000000000000000000000000000000DC0000000000000000002800000000000000000000000000000000000000000000F5000000000000000000000000000000000000000000F5F5F5F5F5F5F5F5F5F5F5F5F5F5F5F5F5F5
310
F5F5F5F5F5F5F5F5F5F5F5F5F5F5F5F5F5F5F5F5F5F5F5F5F5F5F5F5F5F5F5F5F5F5F5F5F5F5F5F5F5F5F5F5F5F5F5F5F5F5F5F5F5F5F5F5F5F5F5F5F5F5F5F5F5000000000000000000000000000000000000000000F500000000000000DC0000BEBEBE00BE00BEBEBEBEBEBEBEBE00BEBEBE00BEBEBEBEBEBEBEBE000000
310
0000000000000000280000DC0000000000000000000000000000000000000000000000000000000000000000000000000000000000000000DC0000000000000000002800000000000000000000000000000000000000000000F5000000000000000000000000000000000000000000F5F50000000000000000000000000000
310
0000000000000000000000000000000000000000000000BEBEBEBEBE00000000000000000000000000000000000000000000000000000000000000000000000000F5F5000000000000000000000000000000000000000000F50000000000000000DC00BEBEBEBEBEBEBEBEBEBEBEBEBEBE00BEBEBEBEBEBEBEBEBEBEBEBE00
310
00000000000000000000280000DC0000000000000000000000000000000000000000000000000000000000000000000000000000000000000000DC0000000000000000002800000000000000000000000000000000000000000000F50000000000000000000000000000000000000000000000000000000000000000000000
310
00000000000000000000000000000000000000000000000000BEBEBEBEBE000000000000000000000000000000000000000000000000000000000000000000000000000000000000000000000000000000000000000000000000F5000000000000000000DCBEBEBEBEBE0000BEBEBEBEBEBE00BEBEBEBEBEBEBE00BEBEBEBE
310
BE0000000000000000000000280000DC0000000000000000000000000000000000000000000000000000000000000000000000000000000000000000DC0000000000000000002800000000000000000000000000000000000000000000F5000000000000000000000000000000000000000000000000000000000000000000
310
000000000000000000000000000000000000000000000000000000BEBEBEBEBE000000000000000000000000000000000000000000000000000000000000000000000000000000000000000000000000000000000000000000000000F500000000000000000000DCDCDCDCDCDCDCDCDCDCDCDCDCDCDCDCDCDCDCDCDCDCDCDC
310
DCDCDCDCDCDCDCDC000000000000280000DC0000000000000000000000000000000000000000000000000000000000000000000000000000000000000000DC0000000000000000002800000000000000000000000000000000000000000000F5F5F5F5F5F5F5F5F5F5F5F5F5F5F5F5F5F5F5F5F5F5F5F5F5F5F5F5F5F5F5F5
310
F5F5F5F5F5F5F5F5F5F5F5F5F5F5F5F5F5F5F5F5F5F5F5F5F5F5F5F5F5F5F5F5F5F5F5F5F5F5F5F5F5F5F5F5F5F5F5F5F5F5F5F5F5F5F5F5F5F5F5F5F5F5F5F5F5F5F5F5F5F5F5F5F5F5F5F5F5F5F5F5F5F5F5F5F5F5F5F5F5F5F5F5F5F5F50000000000000000000000BEBEBEBEBEBEBEBEBEBEBEBEBEBEBEBEBEBEBEBEBE
310
BE00BEBEBEBEBEBEBE00000000000000280000DC0000000000000000000000000000000000000000000000000000000000000000000000000000000000000000DC0000000000000000002800000000000000000000000000000000000000000000F5F5F5000000000000000000000000000000000000000000000000000000
310
0000000000000000000000000000000000000000000000000000000000BEBE00BEBEBEBE00000000000000000000000000000000000000000000000000000000000000000000000000000000000000000000000000000000000000000000F5F5F50000000000000000000000BEBEBEBEBEBEBEBEBEBEBEBEBEBEBEBEBEBEBE
310
BEBEBE00BEBEBEBEBEBEBE00000000000000280000DC0000000000000000000000000000000000000000000000000000000000000000000000000000000000000000DC000000000000000000280000000000000000000000000000000000000000000000000000000000000000000000000000000000000000000000000000
310
00000000000000000000000000000000000000000000000000000000000000BEBE00BEBEBEBE000000000000000000000000000000000000000000000000000000000000000000000000000000000000000000000000000000000000000000000000000000000000000000000000BE00000000BEBE00BE00000000000000BE
310
00BEBE000000BEBEBEBEBEBE0000000000000000280000DC0000000000000000000000000000000000000000000000000000000000000000000000000000000000000000DC00000000000000000028000000000000000000000000000000000000000000000000000000000000000000000000000000000000000000000000
310
000000000000000000000000000000000000000000000000000000000000000000000000BEBEBEBE000000000000000000000000000000000000000000000000000000000000000000000000000000000000000000000000000000000000000000000000000000000000000000000000000000000000000000000000000000
310
00000000000000000000000000000000000000000000280000DC0000000000000000000000000000000000000000000000000000000000000000000000000000000000000000DC0000000000000000002800000000000000000000000000000000000000000000000000000000000000000000000000000000000000000000
310
00000000000000000000000000000000000000000000000000000000000000000000000000000000000000000000000000000000000000000000000000000000000000000000000000000000000000000000000000000000000000000000000000000000000000000000000000000000000000000000000000000000000000
310
000000000000000000000000000000000000000000000000280000DC0000000000000000000000000000000000000000000000000000000000000000000000000000000000000000DC000000000000000000280000000000000000000000000000000000000000000000000000000000000000000000000000000000000000
310
00000000000000000000000000000000000000000000000000000000000000000000000000000000000000000000000000000000000000000000000000000000000000000000000000000000000000000000000000000000000000000000000000000000000000000000000000000000000000000000000000000000000000
310
0000000000000000000000000000000000000000000000000000280000DC0000000000000000000000000000000000000000000000000000000000000000000000000000000000000000DC00000000000000000028000000000000000000000000000000000000000000000000000000000000000000000000000000000000
310
00000000000000000000000000000000000000000000000000000000000000000000000000000000000000000000000000000000000000000000000000000000000000000000000000000000000000000000000000000000000000000000000000000000000000000000000000000000000000000000000000000000000000
310
00000000000000000000000000000000000000000000000000000000280000DC0000000000000000000000000000000000000000000000000000000000000000000000000000000000000000DC0000000000000000002800000000000000000000000000000000000000000000000000000000000000000000000000000000
310
00000000000000000000000000000000000000000000000000000000000000000000000000000000000000000000000000000000000000000000000000000000000000000000000000000000000000000000000000000000000000000000000000000000000000000000000000000000000000000000000000000000000000
310
000000000000000000000000000000000000000000000000000000000000280000DC0000000000000000000000000000000000000000000000000000000000000000000000000000000000000000DC000000000000000000280000000000000000000000000000000000000000000000000000000000000000000000000000
310
00000000000000000000000000000000000000000000000000000000000000000000000000000000000000000000000000000000000000000000000000000000000000000000000000000000000000000000000000000000000000000000000000000000000000000000000000000000000000000000000000000000000000
310
0000000000000000000000000000000000000000000000000000000000000000280000DC0000000000000000000000000000000000000000000000000000000000000000000000000000000000000000DC00000000000000000028000000000000000000000000000000000000000000000000000000000000000000000000
310
00000000000000000000000000000000000000000000000000000000000000000000000000000000000000000000000000000000000000000000000000000000000000000000000000000000000000000000000000000000000000000000000000000000000000000000000000000000000000000000000000000000000000
310
00000000000000000000000000000000000000000000000000000000000000000000280000DC0000000000000000000000000000000000000000000000000000000000000000000000000000000000000000DC0000000000000000002800000000000000000000000000000000000000000000000000000000000000000000
310
00000000000000000000000000000000000000000000000000000000000000000000000000000000000000000000000000000000000000000000000000000000000000000000000000000000000000000000000000000000000000000000000000000000000000000000000000000000000000000000000000000000000000
310
000000000000000000000000000000000000000000000000000000000000000000000000280000DC0000000000000000000000000000000000000000000000000000000000000000000000000000000000000000DC000000000000000000280000000000000000000000000000000000000000000000000000000000000000
310
00000000000000000000000000000000000000000000000000000000000000000000000000000000000000000000000000000000000000000000000000000000000000000000000000000000000000000000000000000000000000000000000000000000000000000000000000000000000000000000000000000000000000
310
0000000000000000000000000000000000000000000000000000000000000000000000000000280000DC0000000000000000000000000000000000000000000000000000000000000000000000000000000000000000DC00000000000000000028000000000000000000000000000000000000000000000000000000000000
310
00000000000000000000000000000000000000000000000000000000000000000000000000000000000000000000000000000000000000000000000000000000000000000000000000000000000000000000000000000000000000000000000000000000000000000000000000000000000000000000000000000000000000
310
00000000000000000000000000000000000000000000000000000000000000000000000000000000280000DC0000000000000000000000000000000000000000000000000000000000000000000000000000000000000000DC0000000000000000002800000000000000000000000000000000000000000000000000000000
310
00000000000000000000000000000000000000000000000000000000000000000000000000000000000000000000000000000000000000000000000000000000000000000000000000000000000000000000000000000000000000000000000000000000000000000000000000000000000000000000000000000000000000
310
000000000000000000000000000000000000000000000000000000000000000000000000000000000000280000DC0000000000000000000000000000000000000000000000000000000000000000000000000000000000000000DC000000000000000000280000000000000000000000000000000000000000000000000000
310
00000000000000000000000000000000000000000000000000000000000000000000000000000000000000000000000000000000000000000000000000000000000000000000000000000000000000000000000000000000000000000000000000000000000000000000000000000000000000000000000000000000000000
310
0000000000000000000000000000000000000000000000000000000000000000000000000000000000000000280000DC0000000000000000000000000000000000000000000000000000000000000000000000000000000000000000DC00000000000000000028000000000000000000000000000000000000000000000000
310
00000000000000000000000000000000000000000000000000000000000000000000000000000000000000000000000000000000000000000000000000000000000000000000000000000000000000000000000000000000000000000000000000000000000000000000000000000000000000000000000000000000000000
310
00000000000000000000000000000000000000000000000000000000000000000000000000000000000000000000280000DC0000000000000000000000000000000000000000000000000000000000000000000000000000000000000000DC0000000000000000002800000000000000000000000000000000000000000000
310
00000000000000000000000000000000000000000000000000000000000000000000000000000000000000000000000000000000000000000000000000000000000000000000000000000000000000000000000000000000000000000000000000000000000000000000000000000000000000000000000000000000000000
310
000000000000000000000000000000000000000000000000000000000000000000000000000000000000000000000000280000DC0000000000000000000000000000000000000000000000000000000000000000000000000000000000000000DC000000000000000000280000000000000000000000000000000000000000
310
00000000000000000000000000000000000000000000000000000000000000000000000000000000000000000000000000000000000000000000000000000000000000000000000000000000000000000000000000000000000000000000000000000000000000000000000000000000000000000000000000000000000000
310
0000000000000000000000000000000000000000000000000000000000000000000000000000000000000000000000000000280000DC0000000000000000000000000000000000000000000000000000000000000000000000000000000000000000DC00000000000000000028000000000000000000000000000000000000
310
00000000000000000000000000000000000000000000000000000000000000000000000000000000000000000000000000000000000000000000000000000000000000000000000000000000000000000000000000000000000000000000000000000000000000000000000000000000000000000000000000000000000000
310
00000000000000000000000000000000000000000000000000000000000000000000000000000000000000000000000000000000280000DC0000000000000000000000000000000000000000000000000000000000000000000000000000000000000000DC0000000000000000002800000000000000000000000000000000
310
00000000000000000000000000000000000000000000000000000000000000000000000000000000000000000000000000000000000000000000000000000000000000000000000000000000000000000000000000000000000000000000000000000000000000000000000000000000000000000000000000000000000000
310
000000000000000000000000000000000000000000000000000000000000000000000000000000000000000000000000000000000000280000DC0000000000000000000000000000000000000000000000000000000000000000000000000000000000000000DC000000000000000000280000000000000000000000000000
310
00000000000000000000000000000000000000000000000000000000000000000000000000000000000000000000000000000000000000000000000000000000000000000000000000000000000000000000000000000000000000000000000000000000000000000000000000000000000000000000000000000000000000
310
0000000000000000000000000000000000000000000000000000000000000000000000000000000000000000000000000000000000000000280000DC0000000000000000000000000000000000000000000000000000000000000000000000000000000000000000DC00000000000000000028000000000000000000000000
310
00000000000000000000000000000000000000000000000000000000000000000000000000000000000000000000000000000000000000000000000000000000000000000000000000000000000000000000000000000000000000000000000000000000000000000000000000000000000000000000000000000000000000
310
00000000000000000000000000000000000000000000000000000000000000000000000000000000000000000000000000000000000000000000280000DC0000000000000000000000000000000000000000000000000000000000000000000000000000000000000000DC0000000000000000002800000000000000000000
310
00000000000000000000000000000000000000000000000000000000000000000000000000000000000000000000000000000000000000000000000000000000000000000000000000000000000000000000000000000000000000000000000000000000000000000000000000000000000000000000000000000000000000
310
000000000000000000000000000000000000000000000000000000000000000000000000000000000000000000000000000000000000000000000000280000DC0000000000000000000000000000000000000000000000000000000000000000000000000000000000000000DC000000000000000000282828282828282828
310
28282828282828282828282828282828282828282828282828282828282828282828282828282828282828282828282828282828282828282828282828282828282828282828282828282828282828282828282828282828282828282828282828F52828282828282828282828282828282828282828282828282828282828
310
2828282828282828282828282828282828282828282828282828282828282828282828282828282828282828282828282828282828282828282828282828280000DC0000000000000000000000000000000000000000000000000000000000000000000000000000000000000000DC00000000000000000000000000000000
310
000000000000000000000000000000000000000000000000000000000000000000000000000000000000000000000000000000000000000000000000000000000000000000000000000000000000000000000000000000000000000000000000000000F5000000000000000000000000000000000000000000000000000000
310
00000000000000000000000000000000000000000000000000000000000000000000000000000000000000000000000000000000000000000000000000000000000000DC0000000000000000000000000000000000000000000000000000000000000000000000000000000000000000DCDCDCDCDCDCDCDCDCDCDCDCDCDCDC
310
DCDCDCDCDCDCDCDCDCDCDCDCDCDCDCDCDCDCDCDCDCDCDCDCDCDCDCDCDCDCDCDCDCDCDCDCDCDCDCDCDCDCDCDCDCDCDCDCDCDCDCDCDCDCDCDCDCDCDCDCDCDCDCDCDCDCDCDCDCDCDCDCDCDCDCDCDCDCDCDCDCDCDCDCDCDCDCDCDCDCDCDCDCDCDCDCDCDCDCDCDCF5DCDCDCDCDCDCDCDCDCDCDCDCDCDCDCDCDCDCDCDCDCDCDCDCDC
310
DCDCDCDCDCDCDCDCDCDCDCDCDCDCDCDCDCDCDCDCDCDCDCDCDCDCDCDCDCDCDCDCDCDCDCDCDCDCDCDCDCDCDCDCDCDCDCDCDCDCDCDCDCDCDCDCDCDCDCDCDCDCDCDCDCDCDCDCDCDC000000000000000000000000000000000000000000000000000000000000000000000000000000000000000000000000000000000000000000
310
00000000000000000000000000000000000000000000000000000000000000000000000000000000000000000000000000000000000000000000000000000000000000000000000000000000000000000000000000000000000000000000000000000000000000000000000000000000000000000000000000000000000000
310
00000000000000000000000000000000000000000000000000000000000000000000000000000000000000000000000000000000000000000000000000000000000000000000000000000000000000000000000000000000000000000000
  0
XRECORD
  5
171D
102
{ACAD_REACTORS
330
11F3
102
}
330
11F3
100
AcDbXrecord
280
     1
102
MATERIAL
148
0.0
149
0.0
149
0.0
 93
        0
 94
      127
282
     0
 72
     0
 77
     0
171
     0
175
     0
179
     0
273
     0
  0
XRECORD
  5
11F5
102
{ACAD_REACTORS
330
11F3
102
}
330
11F3
100
AcDbXrecord
280
     1
270
     1
271
     1
  0
XRECORD
  5
11F4
102
{ACAD_REACTORS
330
11F3
102
}
330
11F3
100
AcDbXrecord
280
     1
270
     1
271
     1
  0
XRECORD
  5
11F8
102
{ACAD_REACTORS
330
11F3
102
}
330
11F3
100
AcDbXrecord
280
     1
270
     1
271
     1
  0
XRECORD
  5
11F7
102
{ACAD_REACTORS
330
11F3
102
}
330
11F3
100
AcDbXrecord
280
     1
270
     1
271
     1
  0
XRECORD
  5
11F9
102
{ACAD_REACTORS
330
11F3
102
}
330
11F3
100
AcDbXrecord
280
     1
270
     1
271
     1
  0
XRECORD
  5
11F6
102
{ACAD_REACTORS
330
11F3
102
}
330
11F3
100
AcDbXrecord
280
     1
270
     1
271
     1
  0
XRECORD
  5
171C
102
{ACAD_REACTORS
330
11EB
102
}
330
11EB
100
AcDbXrecord
280
     1
102
MATERIAL
148
0.0
149
0.0
149
0.0
 93
        0
 94
      127
282
     0
 72
     0
 77
     0
171
     0
175
     0
179
     0
273
     0
  0
XRECORD
  5
11ED
102
{ACAD_REACTORS
330
11EB
102
}
330
11EB
100
AcDbXrecord
280
     1
270
     1
271
     1
  0
XRECORD
  5
11EC
102
{ACAD_REACTORS
330
11EB
102
}
330
11EB
100
AcDbXrecord
280
     1
270
     1
271
     1
  0
XRECORD
  5
11F0
102
{ACAD_REACTORS
330
11EB
102
}
330
11EB
100
AcDbXrecord
280
     1
270
     1
271
     1
  0
XRECORD
  5
11EF
102
{ACAD_REACTORS
330
11EB
102
}
330
11EB
100
AcDbXrecord
280
     1
270
     1
271
     1
  0
XRECORD
  5
11F1
102
{ACAD_REACTORS
330
11EB
102
}
330
11EB
100
AcDbXrecord
280
     1
270
     1
271
     1
  0
XRECORD
  5
11EE
102
{ACAD_REACTORS
330
11EB
102
}
330
11EB
100
AcDbXrecord
280
     1
270
     1
271
     1
  0
XRECORD
  5
171E
102
{ACAD_REACTORS
330
11FB
102
}
330
11FB
100
AcDbXrecord
280
     1
102
MATERIAL
148
0.0
149
0.0
149
0.0
 93
        0
 94
      127
282
     0
 72
     0
 77
     0
171
     0
175
     0
179
     0
273
     0
  0
XRECORD
  5
11FD
102
{ACAD_REACTORS
330
11FB
102
}
330
11FB
100
AcDbXrecord
280
     1
270
     1
271
     1
  0
XRECORD
  5
11FC
102
{ACAD_REACTORS
330
11FB
102
}
330
11FB
100
AcDbXrecord
280
     1
270
     1
271
     1
  0
XRECORD
  5
1200
102
{ACAD_REACTORS
330
11FB
102
}
330
11FB
100
AcDbXrecord
280
     1
270
     1
271
     1
  0
XRECORD
  5
11FF
102
{ACAD_REACTORS
330
11FB
102
}
330
11FB
100
AcDbXrecord
280
     1
270
     1
271
     1
  0
XRECORD
  5
1201
102
{ACAD_REACTORS
330
11FB
102
}
330
11FB
100
AcDbXrecord
280
     1
270
     1
271
     1
  0
XRECORD
  5
11FE
102
{ACAD_REACTORS
330
11FB
102
}
330
11FB
100
AcDbXrecord
280
     1
270
     1
271
     1
  0
XRECORD
  5
1751
102
{ACAD_REACTORS
330
1750
102
}
330
1750
100
AcDbXrecord
280
     1
102
ACAD_ROUNDTRIP_2012_MLEADER_STYLE
298
     1
  0
CELLSTYLEMAP
  5
171A
102
{ACAD_REACTORS
330
14EA
102
}
330
14EA
100
AcDbCellStyleMap
 90
        3
300
CELLSTYLE
  1
TABLEFORMAT_BEGIN
 90
        5
170
     1
 91
        0
 92
    32768
 62
   257
 93
        1
300
CONTENTFORMAT
  1
CONTENTFORMAT_BEGIN
 90
        0
 91
        0
 92
      512
 93
        0
300

 40
0.0
140
1.0
 94
        5
 62
     0
340
F
144
0.25
309
CONTENTFORMAT_END
171
     0
 94
        0
309
TABLEFORMAT_END
  1
CELLSTYLE_BEGIN
 90
        1
 91
        1
300
_TITLE
309
CELLSTYLE_END
300
CELLSTYLE
  1
TABLEFORMAT_BEGIN
 90
        5
170
     1
 91
        0
 92
        0
 62
   257
 93
        1
300
CONTENTFORMAT
  1
CONTENTFORMAT_BEGIN
 90
        0
 91
        0
 92
      512
 93
        0
300

 40
0.0
140
1.0
 94
        5
 62
     0
340
F
144
0.18
309
CONTENTFORMAT_END
171
     0
 94
        0
309
TABLEFORMAT_END
  1
CELLSTYLE_BEGIN
 90
        2
 91
        1
300
_HEADER
309
CELLSTYLE_END
300
CELLSTYLE
  1
TABLEFORMAT_BEGIN
 90
        5
170
     1
 91
        0
 92
        0
 62
   257
 93
        1
300
CONTENTFORMAT
  1
CONTENTFORMAT_BEGIN
 90
        0
 91
        0
 92
      512
 93
        0
300

 40
0.0
140
1.0
 94
        2
 62
     0
340
F
144
0.18
309
CONTENTFORMAT_END
171
     0
 94
        0
309
TABLEFORMAT_END
  1
CELLSTYLE_BEGIN
 90
        3
 91
        2
300
_DATA
309
CELLSTYLE_END
  0
XRECORD
  5
174F
102
{ACAD_REACTORS
330
14EA
102
}
330
14EA
100
AcDbXrecord
280
     1
102
ACAD_ROUNDTRIP_PRE2007_TABLESTYLE
 90
      512
 91
        0
  1

 92
      512
 93
        0
  2

 94
      512
 95
        0
  3

  0
XRECORD
  5
172A
102
{ACAD_REACTORS
330
1729
102
}
330
1729
100
AcDbXrecord
280
     1
102
RTVSPost2010Prop28
280
     1
102
RTVSPost2010PropOp28
 70
     1
102
RTVSPost2010Prop29
280
     1
102
RTVSPost2010PropOp29
 70
     1
102
RTVSPost2010Prop30
280
     0
102
RTVSPost2010PropOp30
 70
     1
102
RTVSPost2010Prop31
280
     0
102
RTVSPost2010PropOp31
 70
     1
102
RTVSPost2010Prop32
280
     0
102
RTVSPost2010PropOp32
 70
     1
102
RTVSPost2010Prop33
280
     0
102
RTVSPost2010PropOp33
 70
     1
102
RTVSPost2010Prop34
280
     0
102
RTVSPost2010PropOp34
 70
     1
102
RTVSPost2010Prop35
280
     0
102
RTVSPost2010PropOp35
 70
     1
102
RTVSPost2010Prop36
280
     0
102
RTVSPost2010PropOp36
 70
     1
102
RTVSPost2010Prop37
 90
       50
102
RTVSPost2010PropOp37
 70
     1
102
RTVSPost2010Prop38
140
0.0
102
RTVSPost2010PropOp38
 70
     1
102
RTVSPost2010Prop39
140
1.0
102
RTVSPost2010PropOp39
 70
     1
102
RTVSPost2010Prop40
 90
        0
102
RTVSPost2010PropOp40
 70
     1
102
RTVSPost2010Prop41ColorIndex
 90
       18
102
RTVSPost2010Prop41ColorRGB
 90
        0
102
RTVSPost2010PropOp41
 70
     1
102
RTVSPost2010Prop42
 90
       50
102
RTVSPost2010PropOp42
 70
     1
102
RTVSPost2010Prop43
 90
        3
102
RTVSPost2010PropOp43
 70
     1
102
RTVSPost2010Prop44ColorIndex
 90
        5
102
RTVSPost2010Prop44ColorRGB
 90
      255
102
RTVSPost2010PropOp44
 70
     1
102
RTVSPost2010Prop45
280
     0
102
RTVSPost2010PropOp45
 70
     1
102
RTVSPost2010Prop46
 90
       50
102
RTVSPost2010PropOp46
 70
     1
102
RTVSPost2010Prop47
 90
       50
102
RTVSPost2010PropOp47
 70
     1
102
RTVSPost2010Prop48
 90
       50
102
RTVSPost2010PropOp48
 70
     1
102
RTVSPost2010Prop49
280
     0
102
RTVSPost2010PropOp49
 70
     1
102
RTVSPost2010Prop50
 90
       50
102
RTVSPost2010PropOp50
 70
     1
102
RTVSPost2010Prop51ColorIndex
 90
      256
102
RTVSPost2010Prop51ColorRGB
 90
-16777216
102
RTVSPost2010PropOp51
 70
     0
102
RTVSPost2010Prop52
140
1.0
102
RTVSPost2010PropOp52
 70
     0
102
RTVSPost2010Prop53
 90
        2
102
RTVSPost2010PropOp53
 70
     1
102
RTVSPost2010Prop54
  1
strokes_ogs.tif
102
RTVSPost2010PropOp54
 70
     1
102
RTVSPost2010Prop55
280
     0
102
RTVSPost2010PropOp55
 70
     1
102
RTVSPost2010Prop56
140
1.0
102
RTVSPost2010PropOp56
 70
     1
102
RTVSPost2010Prop57
140
1.0
102
RTVSPost2010PropOp57
 70
     1
102
RTVSPropertyOp0
 70
     1
102
RTVSPropertyOp1
 70
     1
102
RTVSPropertyOp2
 70
     1
102
RTVSPropertyOp3
 70
     1
102
RTVSPropertyOp4
 70
     1
102
RTVSPropertyOp5
 70
     1
102
RTVSPropertyOp6
 70
     1
102
RTVSPropertyOp7
 70
     1
102
RTVSPropertyOp8
 70
     1
102
RTVSPropertyOp9
 70
     1
102
RTVSPropertyOp10
 70
     1
102
RTVSPropertyOp11
 70
     1
102
RTVSPropertyOp12
 70
     1
102
RTVSPropertyOp13
 70
     1
102
RTVSPropertyOp14
 70
     1
102
RTVSPropertyOp15
 70
     1
102
RTVSPropertyOp16
 70
     1
102
RTVSPropertyOp17
 70
     1
102
RTVSPropertyOp18
 70
     1
102
RTVSPropertyOp19
 70
     1
102
RTVSPropertyOp20
 70
     1
102
RTVSPropertyOp21
 70
     1
102
RTVSPropertyOp22
 70
     1
102
RTVSPropertyOp23
 70
     1
102
RTVSPropertyOp24
 70
     1
102
RTVSPropertyOp25
 70
     1
102
RTVSPropertyOp26
 70
     1
102
RTVSPropertyOp27
 70
     1
102
RTVSPropertyOp28
 70
     1
102
RTVSPropertyOp29
 70
     1
102
RTVSPropertyOp30
 70
     1
102
RTVSPropertyOp31
 70
     1
102
RTVSPropertyOp32
 70
     1
102
RTVSPropertyOp33
 70
     1
102
RTVSPropertyOp34
 70
     1
102
RTVSPropertyOp35
 70
     1
102
RTVSPropertyOp36
 70
     1
102
RTVSPropertyOp37
 70
     1
102
RTVSPropertyOp38
 70
     1
102
RTVSPropertyOp39
 70
     1
102
RTVSPropertyOp40
 70
     1
102
RTVSPropertyOp41
 70
     1
102
RTVSPropertyOp42
 70
     1
102
RTVSPropertyOp43
 70
     1
102
RTVSPropertyOp44
 70
     1
102
RTVSPropertyOp45
 70
     1
102
RTVSPropertyOp46
 70
     1
102
RTVSPropertyOp47
 70
     1
102
RTVSPropertyOp48
 70
     1
102
RTVSPropertyOp49
 70
     1
102
RTVSPropertyOp50
 70
     1
102
RTVSPropertyOp51
 70
     0
102
RTVSPropertyOp52
 70
     0
102
RTVSPropertyOp53
 70
     1
102
RTVSPropertyOp54
 70
     1
102
RTVSPropertyOp55
 70
     1
102
RTVSPropertyOp56
 70
     1
102
RTVSPropertyOp57
 70
     1
102
RTVSPropertyOp58
 70
     1
102
RTVSPropertyOp59
 70
     1
102
RTVSPropertyOp60
 70
     1
102
RTVSPropertyOp61
 70
     1
102
RTVSPropertyOp62
 70
     1
  0
XRECORD
  5
1728
102
{ACAD_REACTORS
330
1727
102
}
330
1727
100
AcDbXrecord
280
     1
102
RTVSPost2010Prop28
280
     0
102
RTVSPost2010PropOp28
 70
     1
102
RTVSPost2010Prop29
280
     1
102
RTVSPost2010PropOp29
 70
     1
102
RTVSPost2010Prop30
280
     1
102
RTVSPost2010PropOp30
 70
     1
102
RTVSPost2010Prop31
280
     0
102
RTVSPost2010PropOp31
 70
     1
102
RTVSPost2010Prop32
280
     0
102
RTVSPost2010PropOp32
 70
     1
102
RTVSPost2010Prop33
280
     0
102
RTVSPost2010PropOp33
 70
     1
102
RTVSPost2010Prop34
280
     0
102
RTVSPost2010PropOp34
 70
     1
102
RTVSPost2010Prop35
280
     0
102
RTVSPost2010PropOp35
 70
     1
102
RTVSPost2010Prop36
280
     0
102
RTVSPost2010PropOp36
 70
     1
102
RTVSPost2010Prop37
 90
       50
102
RTVSPost2010PropOp37
 70
     1
102
RTVSPost2010Prop38
140
0.0
102
RTVSPost2010PropOp38
 70
     1
102
RTVSPost2010Prop39
140
1.0
102
RTVSPost2010PropOp39
 70
     1
102
RTVSPost2010Prop40
 90
        0
102
RTVSPost2010PropOp40
 70
     1
102
RTVSPost2010Prop41ColorIndex
 90
       18
102
RTVSPost2010Prop41ColorRGB
 90
        0
102
RTVSPost2010PropOp41
 70
     1
102
RTVSPost2010Prop42
 90
       50
102
RTVSPost2010PropOp42
 70
     1
102
RTVSPost2010Prop43
 90
        3
102
RTVSPost2010PropOp43
 70
     1
102
RTVSPost2010Prop44ColorIndex
 90
        5
102
RTVSPost2010Prop44ColorRGB
 90
      255
102
RTVSPost2010PropOp44
 70
     1
102
RTVSPost2010Prop45
280
     0
102
RTVSPost2010PropOp45
 70
     1
102
RTVSPost2010Prop46
 90
       50
102
RTVSPost2010PropOp46
 70
     1
102
RTVSPost2010Prop47
 90
       50
102
RTVSPost2010PropOp47
 70
     1
102
RTVSPost2010Prop48
 90
       50
102
RTVSPost2010PropOp48
 70
     1
102
RTVSPost2010Prop49
280
     0
102
RTVSPost2010PropOp49
 70
     1
102
RTVSPost2010Prop50
 90
       50
102
RTVSPost2010PropOp50
 70
     1
102
RTVSPost2010Prop51ColorIndex
 90
      256
102
RTVSPost2010Prop51ColorRGB
 90
-16777216
102
RTVSPost2010PropOp51
 70
     0
102
RTVSPost2010Prop52
140
1.0
102
RTVSPost2010PropOp52
 70
     0
102
RTVSPost2010Prop53
 90
        2
102
RTVSPost2010PropOp53
 70
     1
102
RTVSPost2010Prop54
  1
strokes_ogs.tif
102
RTVSPost2010PropOp54
 70
     1
102
RTVSPost2010Prop55
280
     0
102
RTVSPost2010PropOp55
 70
     1
102
RTVSPost2010Prop56
140
1.0
102
RTVSPost2010PropOp56
 70
     1
102
RTVSPost2010Prop57
140
1.0
102
RTVSPost2010PropOp57
 70
     1
102
RTVSPropertyOp0
 70
     1
102
RTVSPropertyOp1
 70
     1
102
RTVSPropertyOp2
 70
     1
102
RTVSPropertyOp3
 70
     1
102
RTVSPropertyOp4
 70
     1
102
RTVSPropertyOp5
 70
     1
102
RTVSPropertyOp6
 70
     1
102
RTVSPropertyOp7
 70
     1
102
RTVSPropertyOp8
 70
     1
102
RTVSPropertyOp9
 70
     1
102
RTVSPropertyOp10
 70
     1
102
RTVSPropertyOp11
 70
     1
102
RTVSPropertyOp12
 70
     1
102
RTVSPropertyOp13
 70
     1
102
RTVSPropertyOp14
 70
     1
102
RTVSPropertyOp15
 70
     1
102
RTVSPropertyOp16
 70
     1
102
RTVSPropertyOp17
 70
     1
102
RTVSPropertyOp18
 70
     1
102
RTVSPropertyOp19
 70
     1
102
RTVSPropertyOp20
 70
     1
102
RTVSPropertyOp21
 70
     1
102
RTVSPropertyOp22
 70
     1
102
RTVSPropertyOp23
 70
     1
102
RTVSPropertyOp24
 70
     1
102
RTVSPropertyOp25
 70
     1
102
RTVSPropertyOp26
 70
     1
102
RTVSPropertyOp27
 70
     1
102
RTVSPropertyOp28
 70
     1
102
RTVSPropertyOp29
 70
     1
102
RTVSPropertyOp30
 70
     1
102
RTVSPropertyOp31
 70
     1
102
RTVSPropertyOp32
 70
     1
102
RTVSPropertyOp33
 70
     1
102
RTVSPropertyOp34
 70
     1
102
RTVSPropertyOp35
 70
     1
102
RTVSPropertyOp36
 70
     1
102
RTVSPropertyOp37
 70
     1
102
RTVSPropertyOp38
 70
     1
102
RTVSPropertyOp39
 70
     1
102
RTVSPropertyOp40
 70
     1
102
RTVSPropertyOp41
 70
     1
102
RTVSPropertyOp42
 70
     1
102
RTVSPropertyOp43
 70
     1
102
RTVSPropertyOp44
 70
     1
102
RTVSPropertyOp45
 70
     1
102
RTVSPropertyOp46
 70
     1
102
RTVSPropertyOp47
 70
     1
102
RTVSPropertyOp48
 70
     1
102
RTVSPropertyOp49
 70
     1
102
RTVSPropertyOp50
 70
     1
102
RTVSPropertyOp51
 70
     0
102
RTVSPropertyOp52
 70
     0
102
RTVSPropertyOp53
 70
     1
102
RTVSPropertyOp54
 70
     1
102
RTVSPropertyOp55
 70
     1
102
RTVSPropertyOp56
 70
     1
102
RTVSPropertyOp57
 70
     1
102
RTVSPropertyOp58
 70
     1
102
RTVSPropertyOp59
 70
     1
102
RTVSPropertyOp60
 70
     1
102
RTVSPropertyOp61
 70
     1
102
RTVSPropertyOp62
 70
     1
  0
XRECORD
  5
1736
102
{ACAD_REACTORS
330
1735
102
}
330
1735
100
AcDbXrecord
280
     1
102
RTVSPost2010Prop28
280
     0
102
RTVSPost2010PropOp28
 70
     1
102
RTVSPost2010Prop29
280
     1
102
RTVSPost2010PropOp29
 70
     1
102
RTVSPost2010Prop30
280
     1
102
RTVSPost2010PropOp30
 70
     1
102
RTVSPost2010Prop31
280
     0
102
RTVSPost2010PropOp31
 70
     1
102
RTVSPost2010Prop32
280
     0
102
RTVSPost2010PropOp32
 70
     1
102
RTVSPost2010Prop33
280
     0
102
RTVSPost2010PropOp33
 70
     1
102
RTVSPost2010Prop34
280
     0
102
RTVSPost2010PropOp34
 70
     1
102
RTVSPost2010Prop35
280
     0
102
RTVSPost2010PropOp35
 70
     1
102
RTVSPost2010Prop36
280
     0
102
RTVSPost2010PropOp36
 70
     1
102
RTVSPost2010Prop37
 90
       50
102
RTVSPost2010PropOp37
 70
     1
102
RTVSPost2010Prop38
140
0.0
102
RTVSPost2010PropOp38
 70
     1
102
RTVSPost2010Prop39
140
1.0
102
RTVSPost2010PropOp39
 70
     1
102
RTVSPost2010Prop40
 90
        0
102
RTVSPost2010PropOp40
 70
     1
102
RTVSPost2010Prop41ColorIndex
 90
       18
102
RTVSPost2010Prop41ColorRGB
 90
        0
102
RTVSPost2010PropOp41
 70
     1
102
RTVSPost2010Prop42
 90
       50
102
RTVSPost2010PropOp42
 70
     1
102
RTVSPost2010Prop43
 90
        3
102
RTVSPost2010PropOp43
 70
     1
102
RTVSPost2010Prop44ColorIndex
 90
        5
102
RTVSPost2010Prop44ColorRGB
 90
      255
102
RTVSPost2010PropOp44
 70
     1
102
RTVSPost2010Prop45
280
     0
102
RTVSPost2010PropOp45
 70
     1
102
RTVSPost2010Prop46
 90
       50
102
RTVSPost2010PropOp46
 70
     1
102
RTVSPost2010Prop47
 90
       50
102
RTVSPost2010PropOp47
 70
     1
102
RTVSPost2010Prop48
 90
       50
102
RTVSPost2010PropOp48
 70
     1
102
RTVSPost2010Prop49
280
     0
102
RTVSPost2010PropOp49
 70
     1
102
RTVSPost2010Prop50
 90
       50
102
RTVSPost2010PropOp50
 70
     1
102
RTVSPost2010Prop51ColorIndex
 90
      256
102
RTVSPost2010Prop51ColorRGB
 90
-16777216
102
RTVSPost2010PropOp51
 70
     0
102
RTVSPost2010Prop52
140
1.0
102
RTVSPost2010PropOp52
 70
     0
102
RTVSPost2010Prop53
 90
        2
102
RTVSPost2010PropOp53
 70
     1
102
RTVSPost2010Prop54
  1
strokes_ogs.tif
102
RTVSPost2010PropOp54
 70
     1
102
RTVSPost2010Prop55
280
     0
102
RTVSPost2010PropOp55
 70
     1
102
RTVSPost2010Prop56
140
1.0
102
RTVSPost2010PropOp56
 70
     1
102
RTVSPost2010Prop57
140
1.0
102
RTVSPost2010PropOp57
 70
     1
102
RTVSPropertyOp0
 70
     1
102
RTVSPropertyOp1
 70
     1
102
RTVSPropertyOp2
 70
     1
102
RTVSPropertyOp3
 70
     1
102
RTVSPropertyOp4
 70
     1
102
RTVSPropertyOp5
 70
     1
102
RTVSPropertyOp6
 70
     1
102
RTVSPropertyOp7
 70
     1
102
RTVSPropertyOp8
 70
     1
102
RTVSPropertyOp9
 70
     1
102
RTVSPropertyOp10
 70
     1
102
RTVSPropertyOp11
 70
     1
102
RTVSPropertyOp12
 70
     1
102
RTVSPropertyOp13
 70
     1
102
RTVSPropertyOp14
 70
     1
102
RTVSPropertyOp15
 70
     1
102
RTVSPropertyOp16
 70
     1
102
RTVSPropertyOp17
 70
     1
102
RTVSPropertyOp18
 70
     1
102
RTVSPropertyOp19
 70
     1
102
RTVSPropertyOp20
 70
     1
102
RTVSPropertyOp21
 70
     1
102
RTVSPropertyOp22
 70
     1
102
RTVSPropertyOp23
 70
     1
102
RTVSPropertyOp24
 70
     1
102
RTVSPropertyOp25
 70
     1
102
RTVSPropertyOp26
 70
     1
102
RTVSPropertyOp27
 70
     1
102
RTVSPropertyOp28
 70
     1
102
RTVSPropertyOp29
 70
     1
102
RTVSPropertyOp30
 70
     1
102
RTVSPropertyOp31
 70
     1
102
RTVSPropertyOp32
 70
     1
102
RTVSPropertyOp33
 70
     1
102
RTVSPropertyOp34
 70
     1
102
RTVSPropertyOp35
 70
     1
102
RTVSPropertyOp36
 70
     1
102
RTVSPropertyOp37
 70
     1
102
RTVSPropertyOp38
 70
     1
102
RTVSPropertyOp39
 70
     1
102
RTVSPropertyOp40
 70
     1
102
RTVSPropertyOp41
 70
     1
102
RTVSPropertyOp42
 70
     1
102
RTVSPropertyOp43
 70
     1
102
RTVSPropertyOp44
 70
     1
102
RTVSPropertyOp45
 70
     1
102
RTVSPropertyOp46
 70
     1
102
RTVSPropertyOp47
 70
     1
102
RTVSPropertyOp48
 70
     1
102
RTVSPropertyOp49
 70
     1
102
RTVSPropertyOp50
 70
     1
102
RTVSPropertyOp51
 70
     0
102
RTVSPropertyOp52
 70
     0
102
RTVSPropertyOp53
 70
     1
102
RTVSPropertyOp54
 70
     1
102
RTVSPropertyOp55
 70
     1
102
RTVSPropertyOp56
 70
     1
102
RTVSPropertyOp57
 70
     1
102
RTVSPropertyOp58
 70
     1
102
RTVSPropertyOp59
 70
     1
102
RTVSPropertyOp60
 70
     1
102
RTVSPropertyOp61
 70
     1
102
RTVSPropertyOp62
 70
     1
  0
XRECORD
  5
173E
102
{ACAD_REACTORS
330
173D
102
}
330
173D
100
AcDbXrecord
280
     1
102
RTVSPost2010Prop28
280
     0
102
RTVSPost2010PropOp28
 70
     1
102
RTVSPost2010Prop29
280
     1
102
RTVSPost2010PropOp29
 70
     1
102
RTVSPost2010Prop30
280
     1
102
RTVSPost2010PropOp30
 70
     1
102
RTVSPost2010Prop31
280
     0
102
RTVSPost2010PropOp31
 70
     1
102
RTVSPost2010Prop32
280
     0
102
RTVSPost2010PropOp32
 70
     1
102
RTVSPost2010Prop33
280
     0
102
RTVSPost2010PropOp33
 70
     1
102
RTVSPost2010Prop34
280
     0
102
RTVSPost2010PropOp34
 70
     1
102
RTVSPost2010Prop35
280
     0
102
RTVSPost2010PropOp35
 70
     1
102
RTVSPost2010Prop36
280
     0
102
RTVSPost2010PropOp36
 70
     1
102
RTVSPost2010Prop37
 90
       50
102
RTVSPost2010PropOp37
 70
     1
102
RTVSPost2010Prop38
140
0.0
102
RTVSPost2010PropOp38
 70
     1
102
RTVSPost2010Prop39
140
1.0
102
RTVSPost2010PropOp39
 70
     1
102
RTVSPost2010Prop40
 90
        0
102
RTVSPost2010PropOp40
 70
     1
102
RTVSPost2010Prop41ColorIndex
 90
       18
102
RTVSPost2010Prop41ColorRGB
 90
        0
102
RTVSPost2010PropOp41
 70
     1
102
RTVSPost2010Prop42
 90
       50
102
RTVSPost2010PropOp42
 70
     1
102
RTVSPost2010Prop43
 90
        3
102
RTVSPost2010PropOp43
 70
     1
102
RTVSPost2010Prop44ColorIndex
 90
        5
102
RTVSPost2010Prop44ColorRGB
 90
      255
102
RTVSPost2010PropOp44
 70
     1
102
RTVSPost2010Prop45
280
     0
102
RTVSPost2010PropOp45
 70
     1
102
RTVSPost2010Prop46
 90
       50
102
RTVSPost2010PropOp46
 70
     1
102
RTVSPost2010Prop47
 90
       50
102
RTVSPost2010PropOp47
 70
     1
102
RTVSPost2010Prop48
 90
       50
102
RTVSPost2010PropOp48
 70
     1
102
RTVSPost2010Prop49
280
     0
102
RTVSPost2010PropOp49
 70
     1
102
RTVSPost2010Prop50
 90
       50
102
RTVSPost2010PropOp50
 70
     1
102
RTVSPost2010Prop51ColorIndex
 90
      256
102
RTVSPost2010Prop51ColorRGB
 90
-16777216
102
RTVSPost2010PropOp51
 70
     0
102
RTVSPost2010Prop52
140
1.0
102
RTVSPost2010PropOp52
 70
     0
102
RTVSPost2010Prop53
 90
        2
102
RTVSPost2010PropOp53
 70
     1
102
RTVSPost2010Prop54
  1
strokes_ogs.tif
102
RTVSPost2010PropOp54
 70
     1
102
RTVSPost2010Prop55
280
     0
102
RTVSPost2010PropOp55
 70
     1
102
RTVSPost2010Prop56
140
1.0
102
RTVSPost2010PropOp56
 70
     1
102
RTVSPost2010Prop57
140
1.0
102
RTVSPost2010PropOp57
 70
     1
102
RTVSPropertyOp0
 70
     1
102
RTVSPropertyOp1
 70
     1
102
RTVSPropertyOp2
 70
     1
102
RTVSPropertyOp3
 70
     1
102
RTVSPropertyOp4
 70
     1
102
RTVSPropertyOp5
 70
     1
102
RTVSPropertyOp6
 70
     1
102
RTVSPropertyOp7
 70
     1
102
RTVSPropertyOp8
 70
     1
102
RTVSPropertyOp9
 70
     1
102
RTVSPropertyOp10
 70
     1
102
RTVSPropertyOp11
 70
     1
102
RTVSPropertyOp12
 70
     1
102
RTVSPropertyOp13
 70
     1
102
RTVSPropertyOp14
 70
     1
102
RTVSPropertyOp15
 70
     1
102
RTVSPropertyOp16
 70
     1
102
RTVSPropertyOp17
 70
     1
102
RTVSPropertyOp18
 70
     1
102
RTVSPropertyOp19
 70
     1
102
RTVSPropertyOp20
 70
     1
102
RTVSPropertyOp21
 70
     1
102
RTVSPropertyOp22
 70
     1
102
RTVSPropertyOp23
 70
     1
102
RTVSPropertyOp24
 70
     1
102
RTVSPropertyOp25
 70
     1
102
RTVSPropertyOp26
 70
     1
102
RTVSPropertyOp27
 70
     1
102
RTVSPropertyOp28
 70
     1
102
RTVSPropertyOp29
 70
     1
102
RTVSPropertyOp30
 70
     1
102
RTVSPropertyOp31
 70
     1
102
RTVSPropertyOp32
 70
     1
102
RTVSPropertyOp33
 70
     1
102
RTVSPropertyOp34
 70
     1
102
RTVSPropertyOp35
 70
     1
102
RTVSPropertyOp36
 70
     1
102
RTVSPropertyOp37
 70
     1
102
RTVSPropertyOp38
 70
     1
102
RTVSPropertyOp39
 70
     1
102
RTVSPropertyOp40
 70
     1
102
RTVSPropertyOp41
 70
     1
102
RTVSPropertyOp42
 70
     1
102
RTVSPropertyOp43
 70
     1
102
RTVSPropertyOp44
 70
     1
102
RTVSPropertyOp45
 70
     1
102
RTVSPropertyOp46
 70
     1
102
RTVSPropertyOp47
 70
     1
102
RTVSPropertyOp48
 70
     1
102
RTVSPropertyOp49
 70
     1
102
RTVSPropertyOp50
 70
     1
102
RTVSPropertyOp51
 70
     0
102
RTVSPropertyOp52
 70
     0
102
RTVSPropertyOp53
 70
     1
102
RTVSPropertyOp54
 70
     1
102
RTVSPropertyOp55
 70
     1
102
RTVSPropertyOp56
 70
     1
102
RTVSPropertyOp57
 70
     1
102
RTVSPropertyOp58
 70
     1
102
RTVSPropertyOp59
 70
     1
102
RTVSPropertyOp60
 70
     1
102
RTVSPropertyOp61
 70
     1
102
RTVSPropertyOp62
 70
     1
  0
XRECORD
  5
1730
102
{ACAD_REACTORS
330
172F
102
}
330
172F
100
AcDbXrecord
280
     1
102
RTVSPost2010Prop28
280
     0
102
RTVSPost2010PropOp28
 70
     1
102
RTVSPost2010Prop29
280
     1
102
RTVSPost2010PropOp29
 70
     1
102
RTVSPost2010Prop30
280
     1
102
RTVSPost2010PropOp30
 70
     1
102
RTVSPost2010Prop31
280
     0
102
RTVSPost2010PropOp31
 70
     1
102
RTVSPost2010Prop32
280
     0
102
RTVSPost2010PropOp32
 70
     1
102
RTVSPost2010Prop33
280
     0
102
RTVSPost2010PropOp33
 70
     1
102
RTVSPost2010Prop34
280
     0
102
RTVSPost2010PropOp34
 70
     1
102
RTVSPost2010Prop35
280
     0
102
RTVSPost2010PropOp35
 70
     1
102
RTVSPost2010Prop36
280
     0
102
RTVSPost2010PropOp36
 70
     1
102
RTVSPost2010Prop37
 90
       50
102
RTVSPost2010PropOp37
 70
     1
102
RTVSPost2010Prop38
140
0.0
102
RTVSPost2010PropOp38
 70
     1
102
RTVSPost2010Prop39
140
1.0
102
RTVSPost2010PropOp39
 70
     1
102
RTVSPost2010Prop40
 90
        0
102
RTVSPost2010PropOp40
 70
     1
102
RTVSPost2010Prop41ColorIndex
 90
       18
102
RTVSPost2010Prop41ColorRGB
 90
        0
102
RTVSPost2010PropOp41
 70
     1
102
RTVSPost2010Prop42
 90
       50
102
RTVSPost2010PropOp42
 70
     1
102
RTVSPost2010Prop43
 90
        3
102
RTVSPost2010PropOp43
 70
     1
102
RTVSPost2010Prop44ColorIndex
 90
        5
102
RTVSPost2010Prop44ColorRGB
 90
      255
102
RTVSPost2010PropOp44
 70
     1
102
RTVSPost2010Prop45
280
     0
102
RTVSPost2010PropOp45
 70
     1
102
RTVSPost2010Prop46
 90
       50
102
RTVSPost2010PropOp46
 70
     1
102
RTVSPost2010Prop47
 90
       50
102
RTVSPost2010PropOp47
 70
     1
102
RTVSPost2010Prop48
 90
       50
102
RTVSPost2010PropOp48
 70
     1
102
RTVSPost2010Prop49
280
     0
102
RTVSPost2010PropOp49
 70
     1
102
RTVSPost2010Prop50
 90
       50
102
RTVSPost2010PropOp50
 70
     1
102
RTVSPost2010Prop51ColorIndex
 90
      256
102
RTVSPost2010Prop51ColorRGB
 90
-16777216
102
RTVSPost2010PropOp51
 70
     0
102
RTVSPost2010Prop52
140
1.0
102
RTVSPost2010PropOp52
 70
     0
102
RTVSPost2010Prop53
 90
        2
102
RTVSPost2010PropOp53
 70
     1
102
RTVSPost2010Prop54
  1
strokes_ogs.tif
102
RTVSPost2010PropOp54
 70
     1
102
RTVSPost2010Prop55
280
     0
102
RTVSPost2010PropOp55
 70
     1
102
RTVSPost2010Prop56
140
1.0
102
RTVSPost2010PropOp56
 70
     1
102
RTVSPost2010Prop57
140
1.0
102
RTVSPost2010PropOp57
 70
     1
102
RTVSPropertyOp0
 70
     1
102
RTVSPropertyOp1
 70
     1
102
RTVSPropertyOp2
 70
     1
102
RTVSPropertyOp3
 70
     1
102
RTVSPropertyOp4
 70
     1
102
RTVSPropertyOp5
 70
     1
102
RTVSPropertyOp6
 70
     1
102
RTVSPropertyOp7
 70
     1
102
RTVSPropertyOp8
 70
     1
102
RTVSPropertyOp9
 70
     1
102
RTVSPropertyOp10
 70
     1
102
RTVSPropertyOp11
 70
     1
102
RTVSPropertyOp12
 70
     1
102
RTVSPropertyOp13
 70
     1
102
RTVSPropertyOp14
 70
     1
102
RTVSPropertyOp15
 70
     1
102
RTVSPropertyOp16
 70
     1
102
RTVSPropertyOp17
 70
     1
102
RTVSPropertyOp18
 70
     1
102
RTVSPropertyOp19
 70
     1
102
RTVSPropertyOp20
 70
     1
102
RTVSPropertyOp21
 70
     1
102
RTVSPropertyOp22
 70
     1
102
RTVSPropertyOp23
 70
     1
102
RTVSPropertyOp24
 70
     1
102
RTVSPropertyOp25
 70
     1
102
RTVSPropertyOp26
 70
     1
102
RTVSPropertyOp27
 70
     1
102
RTVSPropertyOp28
 70
     1
102
RTVSPropertyOp29
 70
     1
102
RTVSPropertyOp30
 70
     1
102
RTVSPropertyOp31
 70
     1
102
RTVSPropertyOp32
 70
     1
102
RTVSPropertyOp33
 70
     1
102
RTVSPropertyOp34
 70
     1
102
RTVSPropertyOp35
 70
     1
102
RTVSPropertyOp36
 70
     1
102
RTVSPropertyOp37
 70
     1
102
RTVSPropertyOp38
 70
     1
102
RTVSPropertyOp39
 70
     1
102
RTVSPropertyOp40
 70
     1
102
RTVSPropertyOp41
 70
     1
102
RTVSPropertyOp42
 70
     1
102
RTVSPropertyOp43
 70
     1
102
RTVSPropertyOp44
 70
     1
102
RTVSPropertyOp45
 70
     1
102
RTVSPropertyOp46
 70
     1
102
RTVSPropertyOp47
 70
     1
102
RTVSPropertyOp48
 70
     1
102
RTVSPropertyOp49
 70
     1
102
RTVSPropertyOp50
 70
     1
102
RTVSPropertyOp51
 70
     0
102
RTVSPropertyOp52
 70
     0
102
RTVSPropertyOp53
 70
     1
102
RTVSPropertyOp54
 70
     1
102
RTVSPropertyOp55
 70
     1
102
RTVSPropertyOp56
 70
     1
102
RTVSPropertyOp57
 70
     1
102
RTVSPropertyOp58
 70
     1
102
RTVSPropertyOp59
 70
     1
102
RTVSPropertyOp60
 70
     1
102
RTVSPropertyOp61
 70
     1
102
RTVSPropertyOp62
 70
     1
  0
XRECORD
  5
1734
102
{ACAD_REACTORS
330
1733
102
}
330
1733
100
AcDbXrecord
280
     1
102
RTVSPost2010Prop28
280
     0
102
RTVSPost2010PropOp28
 70
     1
102
RTVSPost2010Prop29
280
     1
102
RTVSPost2010PropOp29
 70
     1
102
RTVSPost2010Prop30
280
     1
102
RTVSPost2010PropOp30
 70
     1
102
RTVSPost2010Prop31
280
     0
102
RTVSPost2010PropOp31
 70
     1
102
RTVSPost2010Prop32
280
     0
102
RTVSPost2010PropOp32
 70
     1
102
RTVSPost2010Prop33
280
     0
102
RTVSPost2010PropOp33
 70
     1
102
RTVSPost2010Prop34
280
     0
102
RTVSPost2010PropOp34
 70
     1
102
RTVSPost2010Prop35
280
     0
102
RTVSPost2010PropOp35
 70
     1
102
RTVSPost2010Prop36
280
     0
102
RTVSPost2010PropOp36
 70
     1
102
RTVSPost2010Prop37
 90
       50
102
RTVSPost2010PropOp37
 70
     1
102
RTVSPost2010Prop38
140
0.0
102
RTVSPost2010PropOp38
 70
     1
102
RTVSPost2010Prop39
140
1.0
102
RTVSPost2010PropOp39
 70
     1
102
RTVSPost2010Prop40
 90
        0
102
RTVSPost2010PropOp40
 70
     1
102
RTVSPost2010Prop41ColorIndex
 90
       18
102
RTVSPost2010Prop41ColorRGB
 90
        0
102
RTVSPost2010PropOp41
 70
     1
102
RTVSPost2010Prop42
 90
       50
102
RTVSPost2010PropOp42
 70
     1
102
RTVSPost2010Prop43
 90
        3
102
RTVSPost2010PropOp43
 70
     1
102
RTVSPost2010Prop44ColorIndex
 90
        5
102
RTVSPost2010Prop44ColorRGB
 90
      255
102
RTVSPost2010PropOp44
 70
     1
102
RTVSPost2010Prop45
280
     0
102
RTVSPost2010PropOp45
 70
     1
102
RTVSPost2010Prop46
 90
       50
102
RTVSPost2010PropOp46
 70
     1
102
RTVSPost2010Prop47
 90
       50
102
RTVSPost2010PropOp47
 70
     1
102
RTVSPost2010Prop48
 90
       50
102
RTVSPost2010PropOp48
 70
     1
102
RTVSPost2010Prop49
280
     0
102
RTVSPost2010PropOp49
 70
     1
102
RTVSPost2010Prop50
 90
       50
102
RTVSPost2010PropOp50
 70
     1
102
RTVSPost2010Prop51ColorIndex
 90
      256
102
RTVSPost2010Prop51ColorRGB
 90
-16777216
102
RTVSPost2010PropOp51
 70
     0
102
RTVSPost2010Prop52
140
1.0
102
RTVSPost2010PropOp52
 70
     0
102
RTVSPost2010Prop53
 90
        2
102
RTVSPost2010PropOp53
 70
     1
102
RTVSPost2010Prop54
  1
strokes_ogs.tif
102
RTVSPost2010PropOp54
 70
     1
102
RTVSPost2010Prop55
280
     0
102
RTVSPost2010PropOp55
 70
     1
102
RTVSPost2010Prop56
140
1.0
102
RTVSPost2010PropOp56
 70
     1
102
RTVSPost2010Prop57
140
1.0
102
RTVSPost2010PropOp57
 70
     1
102
RTVSPropertyOp0
 70
     1
102
RTVSPropertyOp1
 70
     1
102
RTVSPropertyOp2
 70
     1
102
RTVSPropertyOp3
 70
     1
102
RTVSPropertyOp4
 70
     1
102
RTVSPropertyOp5
 70
     1
102
RTVSPropertyOp6
 70
     1
102
RTVSPropertyOp7
 70
     1
102
RTVSPropertyOp8
 70
     1
102
RTVSPropertyOp9
 70
     1
102
RTVSPropertyOp10
 70
     1
102
RTVSPropertyOp11
 70
     1
102
RTVSPropertyOp12
 70
     1
102
RTVSPropertyOp13
 70
     1
102
RTVSPropertyOp14
 70
     1
102
RTVSPropertyOp15
 70
     1
102
RTVSPropertyOp16
 70
     1
102
RTVSPropertyOp17
 70
     1
102
RTVSPropertyOp18
 70
     1
102
RTVSPropertyOp19
 70
     1
102
RTVSPropertyOp20
 70
     1
102
RTVSPropertyOp21
 70
     1
102
RTVSPropertyOp22
 70
     1
102
RTVSPropertyOp23
 70
     1
102
RTVSPropertyOp24
 70
     1
102
RTVSPropertyOp25
 70
     1
102
RTVSPropertyOp26
 70
     1
102
RTVSPropertyOp27
 70
     1
102
RTVSPropertyOp28
 70
     1
102
RTVSPropertyOp29
 70
     1
102
RTVSPropertyOp30
 70
     1
102
RTVSPropertyOp31
 70
     1
102
RTVSPropertyOp32
 70
     1
102
RTVSPropertyOp33
 70
     1
102
RTVSPropertyOp34
 70
     1
102
RTVSPropertyOp35
 70
     1
102
RTVSPropertyOp36
 70
     1
102
RTVSPropertyOp37
 70
     1
102
RTVSPropertyOp38
 70
     1
102
RTVSPropertyOp39
 70
     1
102
RTVSPropertyOp40
 70
     1
102
RTVSPropertyOp41
 70
     1
102
RTVSPropertyOp42
 70
     1
102
RTVSPropertyOp43
 70
     1
102
RTVSPropertyOp44
 70
     1
102
RTVSPropertyOp45
 70
     1
102
RTVSPropertyOp46
 70
     1
102
RTVSPropertyOp47
 70
     1
102
RTVSPropertyOp48
 70
     1
102
RTVSPropertyOp49
 70
     1
102
RTVSPropertyOp50
 70
     1
102
RTVSPropertyOp51
 70
     0
102
RTVSPropertyOp52
 70
     0
102
RTVSPropertyOp53
 70
     1
102
RTVSPropertyOp54
 70
     1
102
RTVSPropertyOp55
 70
     1
102
RTVSPropertyOp56
 70
     1
102
RTVSPropertyOp57
 70
     1
102
RTVSPropertyOp58
 70
     1
102
RTVSPropertyOp59
 70
     1
102
RTVSPropertyOp60
 70
     1
102
RTVSPropertyOp61
 70
     1
102
RTVSPropertyOp62
 70
     1
  0
XRECORD
  5
174E
102
{ACAD_REACTORS
330
174D
102
}
330
174D
100
AcDbXrecord
280
     1
102
RTVSPost2010Prop28
280
     0
102
RTVSPost2010PropOp28
 70
     0
102
RTVSPost2010Prop29
280
     1
102
RTVSPost2010PropOp29
 70
     0
102
RTVSPost2010Prop30
280
     1
102
RTVSPost2010PropOp30
 70
     0
102
RTVSPost2010Prop31
280
     0
102
RTVSPost2010PropOp31
 70
     0
102
RTVSPost2010Prop32
280
     0
102
RTVSPost2010PropOp32
 70
     0
102
RTVSPost2010Prop33
280
     0
102
RTVSPost2010PropOp33
 70
     0
102
RTVSPost2010Prop34
280
     0
102
RTVSPost2010PropOp34
 70
     0
102
RTVSPost2010Prop35
280
     0
102
RTVSPost2010PropOp35
 70
     0
102
RTVSPost2010Prop36
280
     0
102
RTVSPost2010PropOp36
 70
     0
102
RTVSPost2010Prop37
 90
       50
102
RTVSPost2010PropOp37
 70
     0
102
RTVSPost2010Prop38
140
0.0
102
RTVSPost2010PropOp38
 70
     0
102
RTVSPost2010Prop39
140
1.0
102
RTVSPost2010PropOp39
 70
     0
102
RTVSPost2010Prop40
 90
        0
102
RTVSPost2010PropOp40
 70
     0
102
RTVSPost2010Prop41ColorIndex
 90
       18
102
RTVSPost2010Prop41ColorRGB
 90
        0
102
RTVSPost2010PropOp41
 70
     0
102
RTVSPost2010Prop42
 90
       50
102
RTVSPost2010PropOp42
 70
     0
102
RTVSPost2010Prop43
 90
        3
102
RTVSPost2010PropOp43
 70
     0
102
RTVSPost2010Prop44ColorIndex
 90
        5
102
RTVSPost2010Prop44ColorRGB
 90
      255
102
RTVSPost2010PropOp44
 70
     0
102
RTVSPost2010Prop45
280
     0
102
RTVSPost2010PropOp45
 70
     0
102
RTVSPost2010Prop46
 90
       50
102
RTVSPost2010PropOp46
 70
     0
102
RTVSPost2010Prop47
 90
       50
102
RTVSPost2010PropOp47
 70
     0
102
RTVSPost2010Prop48
 90
       50
102
RTVSPost2010PropOp48
 70
     0
102
RTVSPost2010Prop49
280
     0
102
RTVSPost2010PropOp49
 70
     0
102
RTVSPost2010Prop50
 90
       50
102
RTVSPost2010PropOp50
 70
     0
102
RTVSPost2010Prop51ColorIndex
 90
      256
102
RTVSPost2010Prop51ColorRGB
 90
-16777216
102
RTVSPost2010PropOp51
 70
     0
102
RTVSPost2010Prop52
140
1.0
102
RTVSPost2010PropOp52
 70
     0
102
RTVSPost2010Prop53
 90
        2
102
RTVSPost2010PropOp53
 70
     0
102
RTVSPost2010Prop54
  1
strokes_ogs.tif
102
RTVSPost2010PropOp54
 70
     0
102
RTVSPost2010Prop55
280
     0
102
RTVSPost2010PropOp55
 70
     0
102
RTVSPost2010Prop56
140
1.0
102
RTVSPost2010PropOp56
 70
     0
102
RTVSPost2010Prop57
140
1.0
102
RTVSPost2010PropOp57
 70
     0
102
RTVSPropertyOp0
 70
     0
102
RTVSPropertyOp1
 70
     0
102
RTVSPropertyOp2
 70
     0
102
RTVSPropertyOp3
 70
     0
102
RTVSPropertyOp4
 70
     0
102
RTVSPropertyOp5
 70
     0
102
RTVSPropertyOp6
 70
     0
102
RTVSPropertyOp7
 70
     0
102
RTVSPropertyOp8
 70
     0
102
RTVSPropertyOp9
 70
     0
102
RTVSPropertyOp10
 70
     0
102
RTVSPropertyOp11
 70
     0
102
RTVSPropertyOp12
 70
     0
102
RTVSPropertyOp13
 70
     0
102
RTVSPropertyOp14
 70
     2
102
RTVSPropertyOp15
 70
     0
102
RTVSPropertyOp16
 70
     0
102
RTVSPropertyOp17
 70
     0
102
RTVSPropertyOp18
 70
     0
102
RTVSPropertyOp19
 70
     0
102
RTVSPropertyOp20
 70
     0
102
RTVSPropertyOp21
 70
     0
102
RTVSPropertyOp22
 70
     0
102
RTVSPropertyOp23
 70
     0
102
RTVSPropertyOp24
 70
     0
102
RTVSPropertyOp25
 70
     0
102
RTVSPropertyOp26
 70
     0
102
RTVSPropertyOp27
 70
     0
102
RTVSPropertyOp28
 70
     0
102
RTVSPropertyOp29
 70
     0
102
RTVSPropertyOp30
 70
     0
102
RTVSPropertyOp31
 70
     0
102
RTVSPropertyOp32
 70
     0
102
RTVSPropertyOp33
 70
     0
102
RTVSPropertyOp34
 70
     0
102
RTVSPropertyOp35
 70
     0
102
RTVSPropertyOp36
 70
     0
102
RTVSPropertyOp37
 70
     0
102
RTVSPropertyOp38
 70
     0
102
RTVSPropertyOp39
 70
     0
102
RTVSPropertyOp40
 70
     0
102
RTVSPropertyOp41
 70
     0
102
RTVSPropertyOp42
 70
     0
102
RTVSPropertyOp43
 70
     0
102
RTVSPropertyOp44
 70
     0
102
RTVSPropertyOp45
 70
     0
102
RTVSPropertyOp46
 70
     0
102
RTVSPropertyOp47
 70
     0
102
RTVSPropertyOp48
 70
     0
102
RTVSPropertyOp49
 70
     0
102
RTVSPropertyOp50
 70
     0
102
RTVSPropertyOp51
 70
     0
102
RTVSPropertyOp52
 70
     0
102
RTVSPropertyOp53
 70
     0
102
RTVSPropertyOp54
 70
     0
102
RTVSPropertyOp55
 70
     0
102
RTVSPropertyOp56
 70
     0
102
RTVSPropertyOp57
 70
     0
102
RTVSPropertyOp58
 70
     0
102
RTVSPropertyOp59
 70
     0
102
RTVSPropertyOp60
 70
     0
102
RTVSPropertyOp61
 70
     0
102
RTVSPropertyOp62
 70
     0
  0
XRECORD
  5
173C
102
{ACAD_REACTORS
330
173B
102
}
330
173B
100
AcDbXrecord
280
     1
102
RTVSPost2010Prop28
280
     0
102
RTVSPost2010PropOp28
 70
     1
102
RTVSPost2010Prop29
280
     1
102
RTVSPost2010PropOp29
 70
     1
102
RTVSPost2010Prop30
280
     1
102
RTVSPost2010PropOp30
 70
     1
102
RTVSPost2010Prop31
280
     0
102
RTVSPost2010PropOp31
 70
     1
102
RTVSPost2010Prop32
280
     0
102
RTVSPost2010PropOp32
 70
     1
102
RTVSPost2010Prop33
280
     0
102
RTVSPost2010PropOp33
 70
     1
102
RTVSPost2010Prop34
280
     0
102
RTVSPost2010PropOp34
 70
     1
102
RTVSPost2010Prop35
280
     0
102
RTVSPost2010PropOp35
 70
     1
102
RTVSPost2010Prop36
280
     0
102
RTVSPost2010PropOp36
 70
     1
102
RTVSPost2010Prop37
 90
       50
102
RTVSPost2010PropOp37
 70
     1
102
RTVSPost2010Prop38
140
0.0
102
RTVSPost2010PropOp38
 70
     1
102
RTVSPost2010Prop39
140
1.0
102
RTVSPost2010PropOp39
 70
     1
102
RTVSPost2010Prop40
 90
        0
102
RTVSPost2010PropOp40
 70
     1
102
RTVSPost2010Prop41ColorIndex
 90
       18
102
RTVSPost2010Prop41ColorRGB
 90
        0
102
RTVSPost2010PropOp41
 70
     1
102
RTVSPost2010Prop42
 90
       50
102
RTVSPost2010PropOp42
 70
     1
102
RTVSPost2010Prop43
 90
        3
102
RTVSPost2010PropOp43
 70
     1
102
RTVSPost2010Prop44ColorIndex
 90
        5
102
RTVSPost2010Prop44ColorRGB
 90
      255
102
RTVSPost2010PropOp44
 70
     1
102
RTVSPost2010Prop45
280
     0
102
RTVSPost2010PropOp45
 70
     1
102
RTVSPost2010Prop46
 90
       50
102
RTVSPost2010PropOp46
 70
     1
102
RTVSPost2010Prop47
 90
       50
102
RTVSPost2010PropOp47
 70
     1
102
RTVSPost2010Prop48
 90
       50
102
RTVSPost2010PropOp48
 70
     1
102
RTVSPost2010Prop49
280
     0
102
RTVSPost2010PropOp49
 70
     1
102
RTVSPost2010Prop50
 90
       50
102
RTVSPost2010PropOp50
 70
     1
102
RTVSPost2010Prop51ColorIndex
 90
      256
102
RTVSPost2010Prop51ColorRGB
 90
-16777216
102
RTVSPost2010PropOp51
 70
     0
102
RTVSPost2010Prop52
140
1.0
102
RTVSPost2010PropOp52
 70
     0
102
RTVSPost2010Prop53
 90
        2
102
RTVSPost2010PropOp53
 70
     1
102
RTVSPost2010Prop54
  1
strokes_ogs.tif
102
RTVSPost2010PropOp54
 70
     1
102
RTVSPost2010Prop55
280
     0
102
RTVSPost2010PropOp55
 70
     1
102
RTVSPost2010Prop56
140
1.0
102
RTVSPost2010PropOp56
 70
     1
102
RTVSPost2010Prop57
140
1.0
102
RTVSPost2010PropOp57
 70
     1
102
RTVSPropertyOp0
 70
     1
102
RTVSPropertyOp1
 70
     1
102
RTVSPropertyOp2
 70
     1
102
RTVSPropertyOp3
 70
     1
102
RTVSPropertyOp4
 70
     1
102
RTVSPropertyOp5
 70
     1
102
RTVSPropertyOp6
 70
     1
102
RTVSPropertyOp7
 70
     1
102
RTVSPropertyOp8
 70
     1
102
RTVSPropertyOp9
 70
     1
102
RTVSPropertyOp10
 70
     1
102
RTVSPropertyOp11
 70
     1
102
RTVSPropertyOp12
 70
     1
102
RTVSPropertyOp13
 70
     1
102
RTVSPropertyOp14
 70
     1
102
RTVSPropertyOp15
 70
     1
102
RTVSPropertyOp16
 70
     1
102
RTVSPropertyOp17
 70
     1
102
RTVSPropertyOp18
 70
     1
102
RTVSPropertyOp19
 70
     1
102
RTVSPropertyOp20
 70
     1
102
RTVSPropertyOp21
 70
     1
102
RTVSPropertyOp22
 70
     1
102
RTVSPropertyOp23
 70
     1
102
RTVSPropertyOp24
 70
     1
102
RTVSPropertyOp25
 70
     1
102
RTVSPropertyOp26
 70
     1
102
RTVSPropertyOp27
 70
     1
102
RTVSPropertyOp28
 70
     1
102
RTVSPropertyOp29
 70
     1
102
RTVSPropertyOp30
 70
     1
102
RTVSPropertyOp31
 70
     1
102
RTVSPropertyOp32
 70
     1
102
RTVSPropertyOp33
 70
     1
102
RTVSPropertyOp34
 70
     1
102
RTVSPropertyOp35
 70
     1
102
RTVSPropertyOp36
 70
     1
102
RTVSPropertyOp37
 70
     1
102
RTVSPropertyOp38
 70
     1
102
RTVSPropertyOp39
 70
     1
102
RTVSPropertyOp40
 70
     1
102
RTVSPropertyOp41
 70
     1
102
RTVSPropertyOp42
 70
     1
102
RTVSPropertyOp43
 70
     1
102
RTVSPropertyOp44
 70
     1
102
RTVSPropertyOp45
 70
     1
102
RTVSPropertyOp46
 70
     1
102
RTVSPropertyOp47
 70
     1
102
RTVSPropertyOp48
 70
     1
102
RTVSPropertyOp49
 70
     1
102
RTVSPropertyOp50
 70
     1
102
RTVSPropertyOp51
 70
     0
102
RTVSPropertyOp52
 70
     0
102
RTVSPropertyOp53
 70
     1
102
RTVSPropertyOp54
 70
     1
102
RTVSPropertyOp55
 70
     1
102
RTVSPropertyOp56
 70
     1
102
RTVSPropertyOp57
 70
     1
102
RTVSPropertyOp58
 70
     1
102
RTVSPropertyOp59
 70
     1
102
RTVSPropertyOp60
 70
     1
102
RTVSPropertyOp61
 70
     1
102
RTVSPropertyOp62
 70
     1
  0
XRECORD
  5
1720
102
{ACAD_REACTORS
330
171F
102
}
330
171F
100
AcDbXrecord
280
     1
102
RTVSPost2010Prop28
280
     0
102
RTVSPost2010PropOp28
 70
     1
102
RTVSPost2010Prop29
280
     1
102
RTVSPost2010PropOp29
 70
     1
102
RTVSPost2010Prop30
280
     1
102
RTVSPost2010PropOp30
 70
     1
102
RTVSPost2010Prop31
280
     0
102
RTVSPost2010PropOp31
 70
     1
102
RTVSPost2010Prop32
280
     0
102
RTVSPost2010PropOp32
 70
     1
102
RTVSPost2010Prop33
280
     0
102
RTVSPost2010PropOp33
 70
     1
102
RTVSPost2010Prop34
280
     0
102
RTVSPost2010PropOp34
 70
     1
102
RTVSPost2010Prop35
280
     0
102
RTVSPost2010PropOp35
 70
     1
102
RTVSPost2010Prop36
280
     0
102
RTVSPost2010PropOp36
 70
     1
102
RTVSPost2010Prop37
 90
       50
102
RTVSPost2010PropOp37
 70
     1
102
RTVSPost2010Prop38
140
0.0
102
RTVSPost2010PropOp38
 70
     1
102
RTVSPost2010Prop39
140
1.0
102
RTVSPost2010PropOp39
 70
     1
102
RTVSPost2010Prop40
 90
        0
102
RTVSPost2010PropOp40
 70
     1
102
RTVSPost2010Prop41ColorIndex
 90
       18
102
RTVSPost2010Prop41ColorRGB
 90
        0
102
RTVSPost2010PropOp41
 70
     1
102
RTVSPost2010Prop42
 90
       50
102
RTVSPost2010PropOp42
 70
     1
102
RTVSPost2010Prop43
 90
        3
102
RTVSPost2010PropOp43
 70
     1
102
RTVSPost2010Prop44ColorIndex
 90
        5
102
RTVSPost2010Prop44ColorRGB
 90
      255
102
RTVSPost2010PropOp44
 70
     1
102
RTVSPost2010Prop45
280
     0
102
RTVSPost2010PropOp45
 70
     1
102
RTVSPost2010Prop46
 90
       50
102
RTVSPost2010PropOp46
 70
     1
102
RTVSPost2010Prop47
 90
       50
102
RTVSPost2010PropOp47
 70
     1
102
RTVSPost2010Prop48
 90
       50
102
RTVSPost2010PropOp48
 70
     1
102
RTVSPost2010Prop49
280
     0
102
RTVSPost2010PropOp49
 70
     1
102
RTVSPost2010Prop50
 90
       50
102
RTVSPost2010PropOp50
 70
     1
102
RTVSPost2010Prop51ColorIndex
 90
      256
102
RTVSPost2010Prop51ColorRGB
 90
-16777216
102
RTVSPost2010PropOp51
 70
     0
102
RTVSPost2010Prop52
140
1.0
102
RTVSPost2010PropOp52
 70
     0
102
RTVSPost2010Prop53
 90
        2
102
RTVSPost2010PropOp53
 70
     1
102
RTVSPost2010Prop54
  1
strokes_ogs.tif
102
RTVSPost2010PropOp54
 70
     1
102
RTVSPost2010Prop55
280
     0
102
RTVSPost2010PropOp55
 70
     1
102
RTVSPost2010Prop56
140
1.0
102
RTVSPost2010PropOp56
 70
     1
102
RTVSPost2010Prop57
140
1.0
102
RTVSPost2010PropOp57
 70
     1
102
RTVSPropertyOp0
 70
     1
102
RTVSPropertyOp1
 70
     1
102
RTVSPropertyOp2
 70
     1
102
RTVSPropertyOp3
 70
     1
102
RTVSPropertyOp4
 70
     1
102
RTVSPropertyOp5
 70
     1
102
RTVSPropertyOp6
 70
     1
102
RTVSPropertyOp7
 70
     1
102
RTVSPropertyOp8
 70
     1
102
RTVSPropertyOp9
 70
     1
102
RTVSPropertyOp10
 70
     1
102
RTVSPropertyOp11
 70
     1
102
RTVSPropertyOp12
 70
     1
102
RTVSPropertyOp13
 70
     1
102
RTVSPropertyOp14
 70
     1
102
RTVSPropertyOp15
 70
     1
102
RTVSPropertyOp16
 70
     1
102
RTVSPropertyOp17
 70
     1
102
RTVSPropertyOp18
 70
     1
102
RTVSPropertyOp19
 70
     1
102
RTVSPropertyOp20
 70
     1
102
RTVSPropertyOp21
 70
     1
102
RTVSPropertyOp22
 70
     1
102
RTVSPropertyOp23
 70
     1
102
RTVSPropertyOp24
 70
     1
102
RTVSPropertyOp25
 70
     1
102
RTVSPropertyOp26
 70
     1
102
RTVSPropertyOp27
 70
     1
102
RTVSPropertyOp28
 70
     1
102
RTVSPropertyOp29
 70
     1
102
RTVSPropertyOp30
 70
     1
102
RTVSPropertyOp31
 70
     1
102
RTVSPropertyOp32
 70
     1
102
RTVSPropertyOp33
 70
     1
102
RTVSPropertyOp34
 70
     1
102
RTVSPropertyOp35
 70
     1
102
RTVSPropertyOp36
 70
     1
102
RTVSPropertyOp37
 70
     1
102
RTVSPropertyOp38
 70
     1
102
RTVSPropertyOp39
 70
     1
102
RTVSPropertyOp40
 70
     1
102
RTVSPropertyOp41
 70
     1
102
RTVSPropertyOp42
 70
     1
102
RTVSPropertyOp43
 70
     1
102
RTVSPropertyOp44
 70
     1
102
RTVSPropertyOp45
 70
     1
102
RTVSPropertyOp46
 70
     1
102
RTVSPropertyOp47
 70
     1
102
RTVSPropertyOp48
 70
     1
102
RTVSPropertyOp49
 70
     1
102
RTVSPropertyOp50
 70
     1
102
RTVSPropertyOp51
 70
     0
102
RTVSPropertyOp52
 70
     0
102
RTVSPropertyOp53
 70
     1
102
RTVSPropertyOp54
 70
     1
102
RTVSPropertyOp55
 70
     1
102
RTVSPropertyOp56
 70
     1
102
RTVSPropertyOp57
 70
     1
102
RTVSPropertyOp58
 70
     1
102
RTVSPropertyOp59
 70
     1
102
RTVSPropertyOp60
 70
     1
102
RTVSPropertyOp61
 70
     1
102
RTVSPropertyOp62
 70
     1
  0
XRECORD
  5
1722
102
{ACAD_REACTORS
330
1721
102
}
330
1721
100
AcDbXrecord
280
     1
102
RTVSPost2010Prop28
280
     0
102
RTVSPost2010PropOp28
 70
     1
102
RTVSPost2010Prop29
280
     1
102
RTVSPost2010PropOp29
 70
     1
102
RTVSPost2010Prop30
280
     1
102
RTVSPost2010PropOp30
 70
     1
102
RTVSPost2010Prop31
280
     0
102
RTVSPost2010PropOp31
 70
     1
102
RTVSPost2010Prop32
280
     0
102
RTVSPost2010PropOp32
 70
     1
102
RTVSPost2010Prop33
280
     0
102
RTVSPost2010PropOp33
 70
     1
102
RTVSPost2010Prop34
280
     0
102
RTVSPost2010PropOp34
 70
     1
102
RTVSPost2010Prop35
280
     0
102
RTVSPost2010PropOp35
 70
     1
102
RTVSPost2010Prop36
280
     0
102
RTVSPost2010PropOp36
 70
     1
102
RTVSPost2010Prop37
 90
       50
102
RTVSPost2010PropOp37
 70
     1
102
RTVSPost2010Prop38
140
0.0
102
RTVSPost2010PropOp38
 70
     1
102
RTVSPost2010Prop39
140
1.0
102
RTVSPost2010PropOp39
 70
     1
102
RTVSPost2010Prop40
 90
        0
102
RTVSPost2010PropOp40
 70
     1
102
RTVSPost2010Prop41ColorIndex
 90
       18
102
RTVSPost2010Prop41ColorRGB
 90
        0
102
RTVSPost2010PropOp41
 70
     1
102
RTVSPost2010Prop42
 90
       50
102
RTVSPost2010PropOp42
 70
     1
102
RTVSPost2010Prop43
 90
        3
102
RTVSPost2010PropOp43
 70
     1
102
RTVSPost2010Prop44ColorIndex
 90
        5
102
RTVSPost2010Prop44ColorRGB
 90
      255
102
RTVSPost2010PropOp44
 70
     1
102
RTVSPost2010Prop45
280
     0
102
RTVSPost2010PropOp45
 70
     1
102
RTVSPost2010Prop46
 90
       50
102
RTVSPost2010PropOp46
 70
     1
102
RTVSPost2010Prop47
 90
       50
102
RTVSPost2010PropOp47
 70
     1
102
RTVSPost2010Prop48
 90
       50
102
RTVSPost2010PropOp48
 70
     1
102
RTVSPost2010Prop49
280
     0
102
RTVSPost2010PropOp49
 70
     1
102
RTVSPost2010Prop50
 90
       50
102
RTVSPost2010PropOp50
 70
     1
102
RTVSPost2010Prop51ColorIndex
 90
      256
102
RTVSPost2010Prop51ColorRGB
 90
-16777216
102
RTVSPost2010PropOp51
 70
     0
102
RTVSPost2010Prop52
140
1.0
102
RTVSPost2010PropOp52
 70
     0
102
RTVSPost2010Prop53
 90
        2
102
RTVSPost2010PropOp53
 70
     1
102
RTVSPost2010Prop54
  1
strokes_ogs.tif
102
RTVSPost2010PropOp54
 70
     1
102
RTVSPost2010Prop55
280
     0
102
RTVSPost2010PropOp55
 70
     1
102
RTVSPost2010Prop56
140
1.0
102
RTVSPost2010PropOp56
 70
     1
102
RTVSPost2010Prop57
140
1.0
102
RTVSPost2010PropOp57
 70
     1
102
RTVSPropertyOp0
 70
     1
102
RTVSPropertyOp1
 70
     1
102
RTVSPropertyOp2
 70
     1
102
RTVSPropertyOp3
 70
     1
102
RTVSPropertyOp4
 70
     1
102
RTVSPropertyOp5
 70
     1
102
RTVSPropertyOp6
 70
     1
102
RTVSPropertyOp7
 70
     1
102
RTVSPropertyOp8
 70
     1
102
RTVSPropertyOp9
 70
     1
102
RTVSPropertyOp10
 70
     1
102
RTVSPropertyOp11
 70
     1
102
RTVSPropertyOp12
 70
     1
102
RTVSPropertyOp13
 70
     1
102
RTVSPropertyOp14
 70
     1
102
RTVSPropertyOp15
 70
     1
102
RTVSPropertyOp16
 70
     1
102
RTVSPropertyOp17
 70
     1
102
RTVSPropertyOp18
 70
     1
102
RTVSPropertyOp19
 70
     1
102
RTVSPropertyOp20
 70
     1
102
RTVSPropertyOp21
 70
     1
102
RTVSPropertyOp22
 70
     1
102
RTVSPropertyOp23
 70
     1
102
RTVSPropertyOp24
 70
     1
102
RTVSPropertyOp25
 70
     1
102
RTVSPropertyOp26
 70
     1
102
RTVSPropertyOp27
 70
     1
102
RTVSPropertyOp28
 70
     1
102
RTVSPropertyOp29
 70
     1
102
RTVSPropertyOp30
 70
     1
102
RTVSPropertyOp31
 70
     1
102
RTVSPropertyOp32
 70
     1
102
RTVSPropertyOp33
 70
     1
102
RTVSPropertyOp34
 70
     1
102
RTVSPropertyOp35
 70
     1
102
RTVSPropertyOp36
 70
     1
102
RTVSPropertyOp37
 70
     1
102
RTVSPropertyOp38
 70
     1
102
RTVSPropertyOp39
 70
     1
102
RTVSPropertyOp40
 70
     1
102
RTVSPropertyOp41
 70
     1
102
RTVSPropertyOp42
 70
     1
102
RTVSPropertyOp43
 70
     1
102
RTVSPropertyOp44
 70
     1
102
RTVSPropertyOp45
 70
     1
102
RTVSPropertyOp46
 70
     1
102
RTVSPropertyOp47
 70
     1
102
RTVSPropertyOp48
 70
     1
102
RTVSPropertyOp49
 70
     1
102
RTVSPropertyOp50
 70
     1
102
RTVSPropertyOp51
 70
     0
102
RTVSPropertyOp52
 70
     0
102
RTVSPropertyOp53
 70
     1
102
RTVSPropertyOp54
 70
     1
102
RTVSPropertyOp55
 70
     1
102
RTVSPropertyOp56
 70
     1
102
RTVSPropertyOp57
 70
     1
102
RTVSPropertyOp58
 70
     1
102
RTVSPropertyOp59
 70
     1
102
RTVSPropertyOp60
 70
     1
102
RTVSPropertyOp61
 70
     1
102
RTVSPropertyOp62
 70
     1
  0
XRECORD
  5
1724
102
{ACAD_REACTORS
330
1723
102
}
330
1723
100
AcDbXrecord
280
     1
102
RTVSPost2010Prop28
280
     0
102
RTVSPost2010PropOp28
 70
     1
102
RTVSPost2010Prop29
280
     1
102
RTVSPost2010PropOp29
 70
     1
102
RTVSPost2010Prop30
280
     1
102
RTVSPost2010PropOp30
 70
     1
102
RTVSPost2010Prop31
280
     0
102
RTVSPost2010PropOp31
 70
     1
102
RTVSPost2010Prop32
280
     0
102
RTVSPost2010PropOp32
 70
     1
102
RTVSPost2010Prop33
280
     0
102
RTVSPost2010PropOp33
 70
     1
102
RTVSPost2010Prop34
280
     0
102
RTVSPost2010PropOp34
 70
     1
102
RTVSPost2010Prop35
280
     0
102
RTVSPost2010PropOp35
 70
     1
102
RTVSPost2010Prop36
280
     0
102
RTVSPost2010PropOp36
 70
     1
102
RTVSPost2010Prop37
 90
       50
102
RTVSPost2010PropOp37
 70
     1
102
RTVSPost2010Prop38
140
0.0
102
RTVSPost2010PropOp38
 70
     1
102
RTVSPost2010Prop39
140
1.0
102
RTVSPost2010PropOp39
 70
     1
102
RTVSPost2010Prop40
 90
        0
102
RTVSPost2010PropOp40
 70
     1
102
RTVSPost2010Prop41ColorIndex
 90
       18
102
RTVSPost2010Prop41ColorRGB
 90
        0
102
RTVSPost2010PropOp41
 70
     1
102
RTVSPost2010Prop42
 90
       50
102
RTVSPost2010PropOp42
 70
     1
102
RTVSPost2010Prop43
 90
        3
102
RTVSPost2010PropOp43
 70
     1
102
RTVSPost2010Prop44ColorIndex
 90
        5
102
RTVSPost2010Prop44ColorRGB
 90
      255
102
RTVSPost2010PropOp44
 70
     1
102
RTVSPost2010Prop45
280
     0
102
RTVSPost2010PropOp45
 70
     1
102
RTVSPost2010Prop46
 90
       50
102
RTVSPost2010PropOp46
 70
     1
102
RTVSPost2010Prop47
 90
       50
102
RTVSPost2010PropOp47
 70
     1
102
RTVSPost2010Prop48
 90
       50
102
RTVSPost2010PropOp48
 70
     1
102
RTVSPost2010Prop49
280
     0
102
RTVSPost2010PropOp49
 70
     1
102
RTVSPost2010Prop50
 90
       50
102
RTVSPost2010PropOp50
 70
     1
102
RTVSPost2010Prop51ColorIndex
 90
      256
102
RTVSPost2010Prop51ColorRGB
 90
-16777216
102
RTVSPost2010PropOp51
 70
     0
102
RTVSPost2010Prop52
140
1.0
102
RTVSPost2010PropOp52
 70
     0
102
RTVSPost2010Prop53
 90
        2
102
RTVSPost2010PropOp53
 70
     1
102
RTVSPost2010Prop54
  1
strokes_ogs.tif
102
RTVSPost2010PropOp54
 70
     1
102
RTVSPost2010Prop55
280
     0
102
RTVSPost2010PropOp55
 70
     1
102
RTVSPost2010Prop56
140
1.0
102
RTVSPost2010PropOp56
 70
     1
102
RTVSPost2010Prop57
140
1.0
102
RTVSPost2010PropOp57
 70
     1
102
RTVSPropertyOp0
 70
     1
102
RTVSPropertyOp1
 70
     1
102
RTVSPropertyOp2
 70
     1
102
RTVSPropertyOp3
 70
     1
102
RTVSPropertyOp4
 70
     1
102
RTVSPropertyOp5
 70
     1
102
RTVSPropertyOp6
 70
     1
102
RTVSPropertyOp7
 70
     1
102
RTVSPropertyOp8
 70
     1
102
RTVSPropertyOp9
 70
     1
102
RTVSPropertyOp10
 70
     1
102
RTVSPropertyOp11
 70
     1
102
RTVSPropertyOp12
 70
     1
102
RTVSPropertyOp13
 70
     1
102
RTVSPropertyOp14
 70
     1
102
RTVSPropertyOp15
 70
     1
102
RTVSPropertyOp16
 70
     1
102
RTVSPropertyOp17
 70
     1
102
RTVSPropertyOp18
 70
     1
102
RTVSPropertyOp19
 70
     1
102
RTVSPropertyOp20
 70
     1
102
RTVSPropertyOp21
 70
     1
102
RTVSPropertyOp22
 70
     1
102
RTVSPropertyOp23
 70
     1
102
RTVSPropertyOp24
 70
     1
102
RTVSPropertyOp25
 70
     1
102
RTVSPropertyOp26
 70
     1
102
RTVSPropertyOp27
 70
     1
102
RTVSPropertyOp28
 70
     1
102
RTVSPropertyOp29
 70
     1
102
RTVSPropertyOp30
 70
     1
102
RTVSPropertyOp31
 70
     1
102
RTVSPropertyOp32
 70
     1
102
RTVSPropertyOp33
 70
     1
102
RTVSPropertyOp34
 70
     1
102
RTVSPropertyOp35
 70
     1
102
RTVSPropertyOp36
 70
     1
102
RTVSPropertyOp37
 70
     1
102
RTVSPropertyOp38
 70
     1
102
RTVSPropertyOp39
 70
     1
102
RTVSPropertyOp40
 70
     1
102
RTVSPropertyOp41
 70
     1
102
RTVSPropertyOp42
 70
     1
102
RTVSPropertyOp43
 70
     1
102
RTVSPropertyOp44
 70
     1
102
RTVSPropertyOp45
 70
     1
102
RTVSPropertyOp46
 70
     1
102
RTVSPropertyOp47
 70
     1
102
RTVSPropertyOp48
 70
     1
102
RTVSPropertyOp49
 70
     1
102
RTVSPropertyOp50
 70
     1
102
RTVSPropertyOp51
 70
     0
102
RTVSPropertyOp52
 70
     0
102
RTVSPropertyOp53
 70
     1
102
RTVSPropertyOp54
 70
     1
102
RTVSPropertyOp55
 70
     1
102
RTVSPropertyOp56
 70
     1
102
RTVSPropertyOp57
 70
     1
102
RTVSPropertyOp58
 70
     1
102
RTVSPropertyOp59
 70
     1
102
RTVSPropertyOp60
 70
     1
102
RTVSPropertyOp61
 70
     1
102
RTVSPropertyOp62
 70
     1
  0
XRECORD
  5
1726
102
{ACAD_REACTORS
330
1725
102
}
330
1725
100
AcDbXrecord
280
     1
102
RTVSPost2010Prop28
280
     0
102
RTVSPost2010PropOp28
 70
     1
102
RTVSPost2010Prop29
280
     1
102
RTVSPost2010PropOp29
 70
     1
102
RTVSPost2010Prop30
280
     1
102
RTVSPost2010PropOp30
 70
     1
102
RTVSPost2010Prop31
280
     0
102
RTVSPost2010PropOp31
 70
     1
102
RTVSPost2010Prop32
280
     0
102
RTVSPost2010PropOp32
 70
     1
102
RTVSPost2010Prop33
280
     0
102
RTVSPost2010PropOp33
 70
     1
102
RTVSPost2010Prop34
280
     0
102
RTVSPost2010PropOp34
 70
     1
102
RTVSPost2010Prop35
280
     0
102
RTVSPost2010PropOp35
 70
     1
102
RTVSPost2010Prop36
280
     0
102
RTVSPost2010PropOp36
 70
     1
102
RTVSPost2010Prop37
 90
       50
102
RTVSPost2010PropOp37
 70
     1
102
RTVSPost2010Prop38
140
0.0
102
RTVSPost2010PropOp38
 70
     1
102
RTVSPost2010Prop39
140
1.0
102
RTVSPost2010PropOp39
 70
     1
102
RTVSPost2010Prop40
 90
        0
102
RTVSPost2010PropOp40
 70
     1
102
RTVSPost2010Prop41ColorIndex
 90
       18
102
RTVSPost2010Prop41ColorRGB
 90
        0
102
RTVSPost2010PropOp41
 70
     1
102
RTVSPost2010Prop42
 90
       50
102
RTVSPost2010PropOp42
 70
     1
102
RTVSPost2010Prop43
 90
        3
102
RTVSPost2010PropOp43
 70
     1
102
RTVSPost2010Prop44ColorIndex
 90
        5
102
RTVSPost2010Prop44ColorRGB
 90
      255
102
RTVSPost2010PropOp44
 70
     1
102
RTVSPost2010Prop45
280
     0
102
RTVSPost2010PropOp45
 70
     1
102
RTVSPost2010Prop46
 90
       50
102
RTVSPost2010PropOp46
 70
     1
102
RTVSPost2010Prop47
 90
       50
102
RTVSPost2010PropOp47
 70
     1
102
RTVSPost2010Prop48
 90
       50
102
RTVSPost2010PropOp48
 70
     1
102
RTVSPost2010Prop49
280
     0
102
RTVSPost2010PropOp49
 70
     1
102
RTVSPost2010Prop50
 90
       50
102
RTVSPost2010PropOp50
 70
     1
102
RTVSPost2010Prop51ColorIndex
 90
      256
102
RTVSPost2010Prop51ColorRGB
 90
-16777216
102
RTVSPost2010PropOp51
 70
     0
102
RTVSPost2010Prop52
140
1.0
102
RTVSPost2010PropOp52
 70
     0
102
RTVSPost2010Prop53
 90
        2
102
RTVSPost2010PropOp53
 70
     1
102
RTVSPost2010Prop54
  1
strokes_ogs.tif
102
RTVSPost2010PropOp54
 70
     1
102
RTVSPost2010Prop55
280
     0
102
RTVSPost2010PropOp55
 70
     1
102
RTVSPost2010Prop56
140
1.0
102
RTVSPost2010PropOp56
 70
     1
102
RTVSPost2010Prop57
140
1.0
102
RTVSPost2010PropOp57
 70
     1
102
RTVSPropertyOp0
 70
     1
102
RTVSPropertyOp1
 70
     1
102
RTVSPropertyOp2
 70
     1
102
RTVSPropertyOp3
 70
     1
102
RTVSPropertyOp4
 70
     1
102
RTVSPropertyOp5
 70
     1
102
RTVSPropertyOp6
 70
     1
102
RTVSPropertyOp7
 70
     1
102
RTVSPropertyOp8
 70
     1
102
RTVSPropertyOp9
 70
     1
102
RTVSPropertyOp10
 70
     1
102
RTVSPropertyOp11
 70
     1
102
RTVSPropertyOp12
 70
     1
102
RTVSPropertyOp13
 70
     1
102
RTVSPropertyOp14
 70
     1
102
RTVSPropertyOp15
 70
     1
102
RTVSPropertyOp16
 70
     1
102
RTVSPropertyOp17
 70
     1
102
RTVSPropertyOp18
 70
     1
102
RTVSPropertyOp19
 70
     1
102
RTVSPropertyOp20
 70
     1
102
RTVSPropertyOp21
 70
     1
102
RTVSPropertyOp22
 70
     1
102
RTVSPropertyOp23
 70
     1
102
RTVSPropertyOp24
 70
     1
102
RTVSPropertyOp25
 70
     1
102
RTVSPropertyOp26
 70
     1
102
RTVSPropertyOp27
 70
     1
102
RTVSPropertyOp28
 70
     1
102
RTVSPropertyOp29
 70
     1
102
RTVSPropertyOp30
 70
     1
102
RTVSPropertyOp31
 70
     1
102
RTVSPropertyOp32
 70
     1
102
RTVSPropertyOp33
 70
     1
102
RTVSPropertyOp34
 70
     1
102
RTVSPropertyOp35
 70
     1
102
RTVSPropertyOp36
 70
     1
102
RTVSPropertyOp37
 70
     1
102
RTVSPropertyOp38
 70
     1
102
RTVSPropertyOp39
 70
     1
102
RTVSPropertyOp40
 70
     1
102
RTVSPropertyOp41
 70
     1
102
RTVSPropertyOp42
 70
     1
102
RTVSPropertyOp43
 70
     1
102
RTVSPropertyOp44
 70
     1
102
RTVSPropertyOp45
 70
     1
102
RTVSPropertyOp46
 70
     1
102
RTVSPropertyOp47
 70
     1
102
RTVSPropertyOp48
 70
     1
102
RTVSPropertyOp49
 70
     1
102
RTVSPropertyOp50
 70
     1
102
RTVSPropertyOp51
 70
     0
102
RTVSPropertyOp52
 70
     0
102
RTVSPropertyOp53
 70
     1
102
RTVSPropertyOp54
 70
     1
102
RTVSPropertyOp55
 70
     1
102
RTVSPropertyOp56
 70
     1
102
RTVSPropertyOp57
 70
     1
102
RTVSPropertyOp58
 70
     1
102
RTVSPropertyOp59
 70
     1
102
RTVSPropertyOp60
 70
     1
102
RTVSPropertyOp61
 70
     1
102
RTVSPropertyOp62
 70
     1
  0
XRECORD
  5
172E
102
{ACAD_REACTORS
330
172D
102
}
330
172D
100
AcDbXrecord
280
     1
102
RTVSPost2010Prop28
280
     0
102
RTVSPost2010PropOp28
 70
     1
102
RTVSPost2010Prop29
280
     1
102
RTVSPost2010PropOp29
 70
     1
102
RTVSPost2010Prop30
280
     1
102
RTVSPost2010PropOp30
 70
     1
102
RTVSPost2010Prop31
280
     0
102
RTVSPost2010PropOp31
 70
     1
102
RTVSPost2010Prop32
280
     0
102
RTVSPost2010PropOp32
 70
     1
102
RTVSPost2010Prop33
280
     0
102
RTVSPost2010PropOp33
 70
     1
102
RTVSPost2010Prop34
280
     0
102
RTVSPost2010PropOp34
 70
     1
102
RTVSPost2010Prop35
280
     0
102
RTVSPost2010PropOp35
 70
     1
102
RTVSPost2010Prop36
280
     0
102
RTVSPost2010PropOp36
 70
     1
102
RTVSPost2010Prop37
 90
       50
102
RTVSPost2010PropOp37
 70
     1
102
RTVSPost2010Prop38
140
0.0
102
RTVSPost2010PropOp38
 70
     1
102
RTVSPost2010Prop39
140
1.0
102
RTVSPost2010PropOp39
 70
     1
102
RTVSPost2010Prop40
 90
        0
102
RTVSPost2010PropOp40
 70
     1
102
RTVSPost2010Prop41ColorIndex
 90
       18
102
RTVSPost2010Prop41ColorRGB
 90
        0
102
RTVSPost2010PropOp41
 70
     1
102
RTVSPost2010Prop42
 90
       50
102
RTVSPost2010PropOp42
 70
     1
102
RTVSPost2010Prop43
 90
        3
102
RTVSPost2010PropOp43
 70
     1
102
RTVSPost2010Prop44ColorIndex
 90
        5
102
RTVSPost2010Prop44ColorRGB
 90
      255
102
RTVSPost2010PropOp44
 70
     1
102
RTVSPost2010Prop45
280
     0
102
RTVSPost2010PropOp45
 70
     1
102
RTVSPost2010Prop46
 90
       50
102
RTVSPost2010PropOp46
 70
     1
102
RTVSPost2010Prop47
 90
       50
102
RTVSPost2010PropOp47
 70
     1
102
RTVSPost2010Prop48
 90
       50
102
RTVSPost2010PropOp48
 70
     1
102
RTVSPost2010Prop49
280
     0
102
RTVSPost2010PropOp49
 70
     1
102
RTVSPost2010Prop50
 90
       50
102
RTVSPost2010PropOp50
 70
     1
102
RTVSPost2010Prop51ColorIndex
 90
      256
102
RTVSPost2010Prop51ColorRGB
 90
-16777216
102
RTVSPost2010PropOp51
 70
     0
102
RTVSPost2010Prop52
140
1.0
102
RTVSPost2010PropOp52
 70
     0
102
RTVSPost2010Prop53
 90
        2
102
RTVSPost2010PropOp53
 70
     1
102
RTVSPost2010Prop54
  1
strokes_ogs.tif
102
RTVSPost2010PropOp54
 70
     1
102
RTVSPost2010Prop55
280
     0
102
RTVSPost2010PropOp55
 70
     1
102
RTVSPost2010Prop56
140
1.0
102
RTVSPost2010PropOp56
 70
     1
102
RTVSPost2010Prop57
140
1.0
102
RTVSPost2010PropOp57
 70
     1
102
RTVSPropertyOp0
 70
     1
102
RTVSPropertyOp1
 70
     1
102
RTVSPropertyOp2
 70
     1
102
RTVSPropertyOp3
 70
     1
102
RTVSPropertyOp4
 70
     1
102
RTVSPropertyOp5
 70
     1
102
RTVSPropertyOp6
 70
     1
102
RTVSPropertyOp7
 70
     1
102
RTVSPropertyOp8
 70
     1
102
RTVSPropertyOp9
 70
     1
102
RTVSPropertyOp10
 70
     1
102
RTVSPropertyOp11
 70
     1
102
RTVSPropertyOp12
 70
     1
102
RTVSPropertyOp13
 70
     1
102
RTVSPropertyOp14
 70
     1
102
RTVSPropertyOp15
 70
     1
102
RTVSPropertyOp16
 70
     1
102
RTVSPropertyOp17
 70
     1
102
RTVSPropertyOp18
 70
     1
102
RTVSPropertyOp19
 70
     1
102
RTVSPropertyOp20
 70
     1
102
RTVSPropertyOp21
 70
     1
102
RTVSPropertyOp22
 70
     1
102
RTVSPropertyOp23
 70
     1
102
RTVSPropertyOp24
 70
     1
102
RTVSPropertyOp25
 70
     1
102
RTVSPropertyOp26
 70
     1
102
RTVSPropertyOp27
 70
     1
102
RTVSPropertyOp28
 70
     1
102
RTVSPropertyOp29
 70
     1
102
RTVSPropertyOp30
 70
     1
102
RTVSPropertyOp31
 70
     1
102
RTVSPropertyOp32
 70
     1
102
RTVSPropertyOp33
 70
     1
102
RTVSPropertyOp34
 70
     1
102
RTVSPropertyOp35
 70
     1
102
RTVSPropertyOp36
 70
     1
102
RTVSPropertyOp37
 70
     1
102
RTVSPropertyOp38
 70
     1
102
RTVSPropertyOp39
 70
     1
102
RTVSPropertyOp40
 70
     1
102
RTVSPropertyOp41
 70
     1
102
RTVSPropertyOp42
 70
     1
102
RTVSPropertyOp43
 70
     1
102
RTVSPropertyOp44
 70
     1
102
RTVSPropertyOp45
 70
     1
102
RTVSPropertyOp46
 70
     1
102
RTVSPropertyOp47
 70
     1
102
RTVSPropertyOp48
 70
     1
102
RTVSPropertyOp49
 70
     1
102
RTVSPropertyOp50
 70
     1
102
RTVSPropertyOp51
 70
     0
102
RTVSPropertyOp52
 70
     0
102
RTVSPropertyOp53
 70
     1
102
RTVSPropertyOp54
 70
     1
102
RTVSPropertyOp55
 70
     1
102
RTVSPropertyOp56
 70
     1
102
RTVSPropertyOp57
 70
     1
102
RTVSPropertyOp58
 70
     1
102
RTVSPropertyOp59
 70
     1
102
RTVSPropertyOp60
 70
     1
102
RTVSPropertyOp61
 70
     1
102
RTVSPropertyOp62
 70
     1
  0
XRECORD
  5
174A
102
{ACAD_REACTORS
330
1749
102
}
330
1749
100
AcDbXrecord
280
     1
102
RTVSPost2010Prop28
280
     0
102
RTVSPost2010PropOp28
 70
     0
102
RTVSPost2010Prop29
280
     1
102
RTVSPost2010PropOp29
 70
     0
102
RTVSPost2010Prop30
280
     1
102
RTVSPost2010PropOp30
 70
     0
102
RTVSPost2010Prop31
280
     0
102
RTVSPost2010PropOp31
 70
     0
102
RTVSPost2010Prop32
280
     0
102
RTVSPost2010PropOp32
 70
     0
102
RTVSPost2010Prop33
280
     0
102
RTVSPost2010PropOp33
 70
     0
102
RTVSPost2010Prop34
280
     0
102
RTVSPost2010PropOp34
 70
     0
102
RTVSPost2010Prop35
280
     0
102
RTVSPost2010PropOp35
 70
     0
102
RTVSPost2010Prop36
280
     0
102
RTVSPost2010PropOp36
 70
     0
102
RTVSPost2010Prop37
 90
       50
102
RTVSPost2010PropOp37
 70
     0
102
RTVSPost2010Prop38
140
0.0
102
RTVSPost2010PropOp38
 70
     0
102
RTVSPost2010Prop39
140
1.0
102
RTVSPost2010PropOp39
 70
     0
102
RTVSPost2010Prop40
 90
        0
102
RTVSPost2010PropOp40
 70
     0
102
RTVSPost2010Prop41ColorIndex
 90
       18
102
RTVSPost2010Prop41ColorRGB
 90
        0
102
RTVSPost2010PropOp41
 70
     0
102
RTVSPost2010Prop42
 90
       50
102
RTVSPost2010PropOp42
 70
     0
102
RTVSPost2010Prop43
 90
        3
102
RTVSPost2010PropOp43
 70
     0
102
RTVSPost2010Prop44ColorIndex
 90
        5
102
RTVSPost2010Prop44ColorRGB
 90
      255
102
RTVSPost2010PropOp44
 70
     0
102
RTVSPost2010Prop45
280
     0
102
RTVSPost2010PropOp45
 70
     0
102
RTVSPost2010Prop46
 90
       50
102
RTVSPost2010PropOp46
 70
     0
102
RTVSPost2010Prop47
 90
       50
102
RTVSPost2010PropOp47
 70
     0
102
RTVSPost2010Prop48
 90
       50
102
RTVSPost2010PropOp48
 70
     0
102
RTVSPost2010Prop49
280
     0
102
RTVSPost2010PropOp49
 70
     0
102
RTVSPost2010Prop50
 90
       50
102
RTVSPost2010PropOp50
 70
     0
102
RTVSPost2010Prop51ColorIndex
 90
      256
102
RTVSPost2010Prop51ColorRGB
 90
-16777216
102
RTVSPost2010PropOp51
 70
     0
102
RTVSPost2010Prop52
140
1.0
102
RTVSPost2010PropOp52
 70
     0
102
RTVSPost2010Prop53
 90
        2
102
RTVSPost2010PropOp53
 70
     0
102
RTVSPost2010Prop54
  1
strokes_ogs.tif
102
RTVSPost2010PropOp54
 70
     0
102
RTVSPost2010Prop55
280
     0
102
RTVSPost2010PropOp55
 70
     0
102
RTVSPost2010Prop56
140
1.0
102
RTVSPost2010PropOp56
 70
     0
102
RTVSPost2010Prop57
140
1.0
102
RTVSPost2010PropOp57
 70
     0
102
RTVSPropertyOp0
 70
     0
102
RTVSPropertyOp1
 70
     0
102
RTVSPropertyOp2
 70
     0
102
RTVSPropertyOp3
 70
     0
102
RTVSPropertyOp4
 70
     0
102
RTVSPropertyOp5
 70
     0
102
RTVSPropertyOp6
 70
     0
102
RTVSPropertyOp7
 70
     0
102
RTVSPropertyOp8
 70
     0
102
RTVSPropertyOp9
 70
     0
102
RTVSPropertyOp10
 70
     0
102
RTVSPropertyOp11
 70
     0
102
RTVSPropertyOp12
 70
     0
102
RTVSPropertyOp13
 70
     0
102
RTVSPropertyOp14
 70
     2
102
RTVSPropertyOp15
 70
     0
102
RTVSPropertyOp16
 70
     0
102
RTVSPropertyOp17
 70
     0
102
RTVSPropertyOp18
 70
     0
102
RTVSPropertyOp19
 70
     0
102
RTVSPropertyOp20
 70
     0
102
RTVSPropertyOp21
 70
     0
102
RTVSPropertyOp22
 70
     0
102
RTVSPropertyOp23
 70
     0
102
RTVSPropertyOp24
 70
     0
102
RTVSPropertyOp25
 70
     0
102
RTVSPropertyOp26
 70
     0
102
RTVSPropertyOp27
 70
     0
102
RTVSPropertyOp28
 70
     0
102
RTVSPropertyOp29
 70
     0
102
RTVSPropertyOp30
 70
     0
102
RTVSPropertyOp31
 70
     0
102
RTVSPropertyOp32
 70
     0
102
RTVSPropertyOp33
 70
     0
102
RTVSPropertyOp34
 70
     0
102
RTVSPropertyOp35
 70
     0
102
RTVSPropertyOp36
 70
     0
102
RTVSPropertyOp37
 70
     0
102
RTVSPropertyOp38
 70
     0
102
RTVSPropertyOp39
 70
     0
102
RTVSPropertyOp40
 70
     0
102
RTVSPropertyOp41
 70
     0
102
RTVSPropertyOp42
 70
     0
102
RTVSPropertyOp43
 70
     0
102
RTVSPropertyOp44
 70
     0
102
RTVSPropertyOp45
 70
     0
102
RTVSPropertyOp46
 70
     0
102
RTVSPropertyOp47
 70
     0
102
RTVSPropertyOp48
 70
     0
102
RTVSPropertyOp49
 70
     0
102
RTVSPropertyOp50
 70
     0
102
RTVSPropertyOp51
 70
     0
102
RTVSPropertyOp52
 70
     0
102
RTVSPropertyOp53
 70
     0
102
RTVSPropertyOp54
 70
     0
102
RTVSPropertyOp55
 70
     0
102
RTVSPropertyOp56
 70
     0
102
RTVSPropertyOp57
 70
     0
102
RTVSPropertyOp58
 70
     0
102
RTVSPropertyOp59
 70
     0
102
RTVSPropertyOp60
 70
     0
102
RTVSPropertyOp61
 70
     0
102
RTVSPropertyOp62
 70
     0
  0
XRECORD
  5
173A
102
{ACAD_REACTORS
330
1739
102
}
330
1739
100
AcDbXrecord
280
     1
102
RTVSPost2010Prop28
280
     0
102
RTVSPost2010PropOp28
 70
     1
102
RTVSPost2010Prop29
280
     1
102
RTVSPost2010PropOp29
 70
     1
102
RTVSPost2010Prop30
280
     1
102
RTVSPost2010PropOp30
 70
     1
102
RTVSPost2010Prop31
280
     0
102
RTVSPost2010PropOp31
 70
     1
102
RTVSPost2010Prop32
280
     0
102
RTVSPost2010PropOp32
 70
     1
102
RTVSPost2010Prop33
280
     0
102
RTVSPost2010PropOp33
 70
     1
102
RTVSPost2010Prop34
280
     0
102
RTVSPost2010PropOp34
 70
     1
102
RTVSPost2010Prop35
280
     0
102
RTVSPost2010PropOp35
 70
     1
102
RTVSPost2010Prop36
280
     0
102
RTVSPost2010PropOp36
 70
     1
102
RTVSPost2010Prop37
 90
       50
102
RTVSPost2010PropOp37
 70
     1
102
RTVSPost2010Prop38
140
0.0
102
RTVSPost2010PropOp38
 70
     1
102
RTVSPost2010Prop39
140
1.0
102
RTVSPost2010PropOp39
 70
     1
102
RTVSPost2010Prop40
 90
        0
102
RTVSPost2010PropOp40
 70
     1
102
RTVSPost2010Prop41ColorIndex
 90
       18
102
RTVSPost2010Prop41ColorRGB
 90
        0
102
RTVSPost2010PropOp41
 70
     1
102
RTVSPost2010Prop42
 90
       50
102
RTVSPost2010PropOp42
 70
     1
102
RTVSPost2010Prop43
 90
        3
102
RTVSPost2010PropOp43
 70
     1
102
RTVSPost2010Prop44ColorIndex
 90
        5
102
RTVSPost2010Prop44ColorRGB
 90
      255
102
RTVSPost2010PropOp44
 70
     1
102
RTVSPost2010Prop45
280
     0
102
RTVSPost2010PropOp45
 70
     1
102
RTVSPost2010Prop46
 90
       50
102
RTVSPost2010PropOp46
 70
     1
102
RTVSPost2010Prop47
 90
       50
102
RTVSPost2010PropOp47
 70
     1
102
RTVSPost2010Prop48
 90
       50
102
RTVSPost2010PropOp48
 70
     1
102
RTVSPost2010Prop49
280
     0
102
RTVSPost2010PropOp49
 70
     1
102
RTVSPost2010Prop50
 90
       50
102
RTVSPost2010PropOp50
 70
     1
102
RTVSPost2010Prop51ColorIndex
 90
      256
102
RTVSPost2010Prop51ColorRGB
 90
-16777216
102
RTVSPost2010PropOp51
 70
     0
102
RTVSPost2010Prop52
140
1.0
102
RTVSPost2010PropOp52
 70
     0
102
RTVSPost2010Prop53
 90
        2
102
RTVSPost2010PropOp53
 70
     1
102
RTVSPost2010Prop54
  1
strokes_ogs.tif
102
RTVSPost2010PropOp54
 70
     1
102
RTVSPost2010Prop55
280
     0
102
RTVSPost2010PropOp55
 70
     1
102
RTVSPost2010Prop56
140
1.0
102
RTVSPost2010PropOp56
 70
     1
102
RTVSPost2010Prop57
140
1.0
102
RTVSPost2010PropOp57
 70
     1
102
RTVSPropertyOp0
 70
     1
102
RTVSPropertyOp1
 70
     1
102
RTVSPropertyOp2
 70
     1
102
RTVSPropertyOp3
 70
     1
102
RTVSPropertyOp4
 70
     1
102
RTVSPropertyOp5
 70
     1
102
RTVSPropertyOp6
 70
     1
102
RTVSPropertyOp7
 70
     1
102
RTVSPropertyOp8
 70
     1
102
RTVSPropertyOp9
 70
     1
102
RTVSPropertyOp10
 70
     1
102
RTVSPropertyOp11
 70
     1
102
RTVSPropertyOp12
 70
     1
102
RTVSPropertyOp13
 70
     1
102
RTVSPropertyOp14
 70
     1
102
RTVSPropertyOp15
 70
     1
102
RTVSPropertyOp16
 70
     1
102
RTVSPropertyOp17
 70
     1
102
RTVSPropertyOp18
 70
     1
102
RTVSPropertyOp19
 70
     1
102
RTVSPropertyOp20
 70
     1
102
RTVSPropertyOp21
 70
     1
102
RTVSPropertyOp22
 70
     1
102
RTVSPropertyOp23
 70
     1
102
RTVSPropertyOp24
 70
     1
102
RTVSPropertyOp25
 70
     1
102
RTVSPropertyOp26
 70
     1
102
RTVSPropertyOp27
 70
     1
102
RTVSPropertyOp28
 70
     1
102
RTVSPropertyOp29
 70
     1
102
RTVSPropertyOp30
 70
     1
102
RTVSPropertyOp31
 70
     1
102
RTVSPropertyOp32
 70
     1
102
RTVSPropertyOp33
 70
     1
102
RTVSPropertyOp34
 70
     1
102
RTVSPropertyOp35
 70
     1
102
RTVSPropertyOp36
 70
     1
102
RTVSPropertyOp37
 70
     1
102
RTVSPropertyOp38
 70
     1
102
RTVSPropertyOp39
 70
     1
102
RTVSPropertyOp40
 70
     1
102
RTVSPropertyOp41
 70
     1
102
RTVSPropertyOp42
 70
     1
102
RTVSPropertyOp43
 70
     1
102
RTVSPropertyOp44
 70
     1
102
RTVSPropertyOp45
 70
     1
102
RTVSPropertyOp46
 70
     1
102
RTVSPropertyOp47
 70
     1
102
RTVSPropertyOp48
 70
     1
102
RTVSPropertyOp49
 70
     1
102
RTVSPropertyOp50
 70
     1
102
RTVSPropertyOp51
 70
     0
102
RTVSPropertyOp52
 70
     0
102
RTVSPropertyOp53
 70
     1
102
RTVSPropertyOp54
 70
     1
102
RTVSPropertyOp55
 70
     1
102
RTVSPropertyOp56
 70
     1
102
RTVSPropertyOp57
 70
     1
102
RTVSPropertyOp58
 70
     1
102
RTVSPropertyOp59
 70
     1
102
RTVSPropertyOp60
 70
     1
102
RTVSPropertyOp61
 70
     1
102
RTVSPropertyOp62
 70
     1
  0
XRECORD
  5
174C
102
{ACAD_REACTORS
330
174B
102
}
330
174B
100
AcDbXrecord
280
     1
102
RTVSPost2010Prop28
280
     0
102
RTVSPost2010PropOp28
 70
     0
102
RTVSPost2010Prop29
280
     1
102
RTVSPost2010PropOp29
 70
     0
102
RTVSPost2010Prop30
280
     1
102
RTVSPost2010PropOp30
 70
     0
102
RTVSPost2010Prop31
280
     0
102
RTVSPost2010PropOp31
 70
     0
102
RTVSPost2010Prop32
280
     0
102
RTVSPost2010PropOp32
 70
     0
102
RTVSPost2010Prop33
280
     0
102
RTVSPost2010PropOp33
 70
     0
102
RTVSPost2010Prop34
280
     0
102
RTVSPost2010PropOp34
 70
     0
102
RTVSPost2010Prop35
280
     0
102
RTVSPost2010PropOp35
 70
     0
102
RTVSPost2010Prop36
280
     0
102
RTVSPost2010PropOp36
 70
     0
102
RTVSPost2010Prop37
 90
       50
102
RTVSPost2010PropOp37
 70
     0
102
RTVSPost2010Prop38
140
0.0
102
RTVSPost2010PropOp38
 70
     0
102
RTVSPost2010Prop39
140
1.0
102
RTVSPost2010PropOp39
 70
     0
102
RTVSPost2010Prop40
 90
        0
102
RTVSPost2010PropOp40
 70
     0
102
RTVSPost2010Prop41ColorIndex
 90
       18
102
RTVSPost2010Prop41ColorRGB
 90
        0
102
RTVSPost2010PropOp41
 70
     0
102
RTVSPost2010Prop42
 90
       50
102
RTVSPost2010PropOp42
 70
     0
102
RTVSPost2010Prop43
 90
        3
102
RTVSPost2010PropOp43
 70
     0
102
RTVSPost2010Prop44ColorIndex
 90
        5
102
RTVSPost2010Prop44ColorRGB
 90
      255
102
RTVSPost2010PropOp44
 70
     0
102
RTVSPost2010Prop45
280
     0
102
RTVSPost2010PropOp45
 70
     0
102
RTVSPost2010Prop46
 90
       50
102
RTVSPost2010PropOp46
 70
     0
102
RTVSPost2010Prop47
 90
       50
102
RTVSPost2010PropOp47
 70
     0
102
RTVSPost2010Prop48
 90
       50
102
RTVSPost2010PropOp48
 70
     0
102
RTVSPost2010Prop49
280
     0
102
RTVSPost2010PropOp49
 70
     0
102
RTVSPost2010Prop50
 90
       50
102
RTVSPost2010PropOp50
 70
     0
102
RTVSPost2010Prop51ColorIndex
 90
      256
102
RTVSPost2010Prop51ColorRGB
 90
-16777216
102
RTVSPost2010PropOp51
 70
     0
102
RTVSPost2010Prop52
140
1.0
102
RTVSPost2010PropOp52
 70
     0
102
RTVSPost2010Prop53
 90
        2
102
RTVSPost2010PropOp53
 70
     0
102
RTVSPost2010Prop54
  1
strokes_ogs.tif
102
RTVSPost2010PropOp54
 70
     0
102
RTVSPost2010Prop55
280
     0
102
RTVSPost2010PropOp55
 70
     0
102
RTVSPost2010Prop56
140
1.0
102
RTVSPost2010PropOp56
 70
     0
102
RTVSPost2010Prop57
140
1.0
102
RTVSPost2010PropOp57
 70
     0
102
RTVSPropertyOp0
 70
     0
102
RTVSPropertyOp1
 70
     0
102
RTVSPropertyOp2
 70
     0
102
RTVSPropertyOp3
 70
     0
102
RTVSPropertyOp4
 70
     0
102
RTVSPropertyOp5
 70
     0
102
RTVSPropertyOp6
 70
     0
102
RTVSPropertyOp7
 70
     0
102
RTVSPropertyOp8
 70
     0
102
RTVSPropertyOp9
 70
     0
102
RTVSPropertyOp10
 70
     0
102
RTVSPropertyOp11
 70
     0
102
RTVSPropertyOp12
 70
     0
102
RTVSPropertyOp13
 70
     0
102
RTVSPropertyOp14
 70
     2
102
RTVSPropertyOp15
 70
     0
102
RTVSPropertyOp16
 70
     0
102
RTVSPropertyOp17
 70
     0
102
RTVSPropertyOp18
 70
     0
102
RTVSPropertyOp19
 70
     0
102
RTVSPropertyOp20
 70
     0
102
RTVSPropertyOp21
 70
     0
102
RTVSPropertyOp22
 70
     0
102
RTVSPropertyOp23
 70
     0
102
RTVSPropertyOp24
 70
     0
102
RTVSPropertyOp25
 70
     0
102
RTVSPropertyOp26
 70
     0
102
RTVSPropertyOp27
 70
     0
102
RTVSPropertyOp28
 70
     0
102
RTVSPropertyOp29
 70
     0
102
RTVSPropertyOp30
 70
     0
102
RTVSPropertyOp31
 70
     0
102
RTVSPropertyOp32
 70
     0
102
RTVSPropertyOp33
 70
     0
102
RTVSPropertyOp34
 70
     0
102
RTVSPropertyOp35
 70
     0
102
RTVSPropertyOp36
 70
     0
102
RTVSPropertyOp37
 70
     0
102
RTVSPropertyOp38
 70
     0
102
RTVSPropertyOp39
 70
     0
102
RTVSPropertyOp40
 70
     0
102
RTVSPropertyOp41
 70
     0
102
RTVSPropertyOp42
 70
     0
102
RTVSPropertyOp43
 70
     0
102
RTVSPropertyOp44
 70
     0
102
RTVSPropertyOp45
 70
     0
102
RTVSPropertyOp46
 70
     0
102
RTVSPropertyOp47
 70
     0
102
RTVSPropertyOp48
 70
     0
102
RTVSPropertyOp49
 70
     0
102
RTVSPropertyOp50
 70
     0
102
RTVSPropertyOp51
 70
     0
102
RTVSPropertyOp52
 70
     0
102
RTVSPropertyOp53
 70
     0
102
RTVSPropertyOp54
 70
     0
102
RTVSPropertyOp55
 70
     0
102
RTVSPropertyOp56
 70
     0
102
RTVSPropertyOp57
 70
     0
102
RTVSPropertyOp58
 70
     0
102
RTVSPropertyOp59
 70
     0
102
RTVSPropertyOp60
 70
     0
102
RTVSPropertyOp61
 70
     0
102
RTVSPropertyOp62
 70
     0
  0
XRECORD
  5
1732
102
{ACAD_REACTORS
330
1731
102
}
330
1731
100
AcDbXrecord
280
     1
102
RTVSPost2010Prop28
280
     0
102
RTVSPost2010PropOp28
 70
     1
102
RTVSPost2010Prop29
280
     1
102
RTVSPost2010PropOp29
 70
     1
102
RTVSPost2010Prop30
280
     1
102
RTVSPost2010PropOp30
 70
     1
102
RTVSPost2010Prop31
280
     0
102
RTVSPost2010PropOp31
 70
     1
102
RTVSPost2010Prop32
280
     0
102
RTVSPost2010PropOp32
 70
     1
102
RTVSPost2010Prop33
280
     0
102
RTVSPost2010PropOp33
 70
     1
102
RTVSPost2010Prop34
280
     0
102
RTVSPost2010PropOp34
 70
     1
102
RTVSPost2010Prop35
280
     0
102
RTVSPost2010PropOp35
 70
     1
102
RTVSPost2010Prop36
280
     0
102
RTVSPost2010PropOp36
 70
     1
102
RTVSPost2010Prop37
 90
       50
102
RTVSPost2010PropOp37
 70
     1
102
RTVSPost2010Prop38
140
0.0
102
RTVSPost2010PropOp38
 70
     1
102
RTVSPost2010Prop39
140
1.0
102
RTVSPost2010PropOp39
 70
     1
102
RTVSPost2010Prop40
 90
        0
102
RTVSPost2010PropOp40
 70
     1
102
RTVSPost2010Prop41ColorIndex
 90
       18
102
RTVSPost2010Prop41ColorRGB
 90
        0
102
RTVSPost2010PropOp41
 70
     1
102
RTVSPost2010Prop42
 90
       50
102
RTVSPost2010PropOp42
 70
     1
102
RTVSPost2010Prop43
 90
        3
102
RTVSPost2010PropOp43
 70
     1
102
RTVSPost2010Prop44ColorIndex
 90
        5
102
RTVSPost2010Prop44ColorRGB
 90
      255
102
RTVSPost2010PropOp44
 70
     1
102
RTVSPost2010Prop45
280
     0
102
RTVSPost2010PropOp45
 70
     1
102
RTVSPost2010Prop46
 90
       50
102
RTVSPost2010PropOp46
 70
     1
102
RTVSPost2010Prop47
 90
       50
102
RTVSPost2010PropOp47
 70
     1
102
RTVSPost2010Prop48
 90
       50
102
RTVSPost2010PropOp48
 70
     1
102
RTVSPost2010Prop49
280
     0
102
RTVSPost2010PropOp49
 70
     1
102
RTVSPost2010Prop50
 90
       50
102
RTVSPost2010PropOp50
 70
     1
102
RTVSPost2010Prop51ColorIndex
 90
      256
102
RTVSPost2010Prop51ColorRGB
 90
-16777216
102
RTVSPost2010PropOp51
 70
     0
102
RTVSPost2010Prop52
140
1.0
102
RTVSPost2010PropOp52
 70
     0
102
RTVSPost2010Prop53
 90
        2
102
RTVSPost2010PropOp53
 70
     1
102
RTVSPost2010Prop54
  1
strokes_ogs.tif
102
RTVSPost2010PropOp54
 70
     1
102
RTVSPost2010Prop55
280
     0
102
RTVSPost2010PropOp55
 70
     1
102
RTVSPost2010Prop56
140
1.0
102
RTVSPost2010PropOp56
 70
     1
102
RTVSPost2010Prop57
140
1.0
102
RTVSPost2010PropOp57
 70
     1
102
RTVSPropertyOp0
 70
     1
102
RTVSPropertyOp1
 70
     1
102
RTVSPropertyOp2
 70
     1
102
RTVSPropertyOp3
 70
     1
102
RTVSPropertyOp4
 70
     1
102
RTVSPropertyOp5
 70
     1
102
RTVSPropertyOp6
 70
     1
102
RTVSPropertyOp7
 70
     1
102
RTVSPropertyOp8
 70
     1
102
RTVSPropertyOp9
 70
     1
102
RTVSPropertyOp10
 70
     1
102
RTVSPropertyOp11
 70
     1
102
RTVSPropertyOp12
 70
     1
102
RTVSPropertyOp13
 70
     1
102
RTVSPropertyOp14
 70
     1
102
RTVSPropertyOp15
 70
     1
102
RTVSPropertyOp16
 70
     1
102
RTVSPropertyOp17
 70
     1
102
RTVSPropertyOp18
 70
     1
102
RTVSPropertyOp19
 70
     1
102
RTVSPropertyOp20
 70
     1
102
RTVSPropertyOp21
 70
     1
102
RTVSPropertyOp22
 70
     1
102
RTVSPropertyOp23
 70
     1
102
RTVSPropertyOp24
 70
     1
102
RTVSPropertyOp25
 70
     1
102
RTVSPropertyOp26
 70
     1
102
RTVSPropertyOp27
 70
     1
102
RTVSPropertyOp28
 70
     1
102
RTVSPropertyOp29
 70
     1
102
RTVSPropertyOp30
 70
     1
102
RTVSPropertyOp31
 70
     1
102
RTVSPropertyOp32
 70
     1
102
RTVSPropertyOp33
 70
     1
102
RTVSPropertyOp34
 70
     1
102
RTVSPropertyOp35
 70
     1
102
RTVSPropertyOp36
 70
     1
102
RTVSPropertyOp37
 70
     1
102
RTVSPropertyOp38
 70
     1
102
RTVSPropertyOp39
 70
     1
102
RTVSPropertyOp40
 70
     1
102
RTVSPropertyOp41
 70
     1
102
RTVSPropertyOp42
 70
     1
102
RTVSPropertyOp43
 70
     1
102
RTVSPropertyOp44
 70
     1
102
RTVSPropertyOp45
 70
     1
102
RTVSPropertyOp46
 70
     1
102
RTVSPropertyOp47
 70
     1
102
RTVSPropertyOp48
 70
     1
102
RTVSPropertyOp49
 70
     1
102
RTVSPropertyOp50
 70
     1
102
RTVSPropertyOp51
 70
     0
102
RTVSPropertyOp52
 70
     0
102
RTVSPropertyOp53
 70
     1
102
RTVSPropertyOp54
 70
     1
102
RTVSPropertyOp55
 70
     1
102
RTVSPropertyOp56
 70
     1
102
RTVSPropertyOp57
 70
     1
102
RTVSPropertyOp58
 70
     1
102
RTVSPropertyOp59
 70
     1
102
RTVSPropertyOp60
 70
     1
102
RTVSPropertyOp61
 70
     1
102
RTVSPropertyOp62
 70
     1
  0
XRECORD
  5
1748
102
{ACAD_REACTORS
330
1747
102
}
330
1747
100
AcDbXrecord
280
     1
102
RTVSPost2010Prop28
280
     0
102
RTVSPost2010PropOp28
 70
     1
102
RTVSPost2010Prop29
280
     1
102
RTVSPost2010PropOp29
 70
     1
102
RTVSPost2010Prop30
280
     1
102
RTVSPost2010PropOp30
 70
     1
102
RTVSPost2010Prop31
280
     0
102
RTVSPost2010PropOp31
 70
     1
102
RTVSPost2010Prop32
280
     0
102
RTVSPost2010PropOp32
 70
     1
102
RTVSPost2010Prop33
280
     0
102
RTVSPost2010PropOp33
 70
     1
102
RTVSPost2010Prop34
280
     0
102
RTVSPost2010PropOp34
 70
     1
102
RTVSPost2010Prop35
280
     0
102
RTVSPost2010PropOp35
 70
     1
102
RTVSPost2010Prop36
280
     0
102
RTVSPost2010PropOp36
 70
     1
102
RTVSPost2010Prop37
 90
       50
102
RTVSPost2010PropOp37
 70
     1
102
RTVSPost2010Prop38
140
0.0
102
RTVSPost2010PropOp38
 70
     1
102
RTVSPost2010Prop39
140
1.0
102
RTVSPost2010PropOp39
 70
     1
102
RTVSPost2010Prop40
 90
        0
102
RTVSPost2010PropOp40
 70
     1
102
RTVSPost2010Prop41ColorIndex
 90
       18
102
RTVSPost2010Prop41ColorRGB
 90
        0
102
RTVSPost2010PropOp41
 70
     1
102
RTVSPost2010Prop42
 90
       50
102
RTVSPost2010PropOp42
 70
     1
102
RTVSPost2010Prop43
 90
        3
102
RTVSPost2010PropOp43
 70
     1
102
RTVSPost2010Prop44ColorIndex
 90
        5
102
RTVSPost2010Prop44ColorRGB
 90
      255
102
RTVSPost2010PropOp44
 70
     1
102
RTVSPost2010Prop45
280
     0
102
RTVSPost2010PropOp45
 70
     1
102
RTVSPost2010Prop46
 90
       50
102
RTVSPost2010PropOp46
 70
     1
102
RTVSPost2010Prop47
 90
       50
102
RTVSPost2010PropOp47
 70
     1
102
RTVSPost2010Prop48
 90
       50
102
RTVSPost2010PropOp48
 70
     1
102
RTVSPost2010Prop49
280
     0
102
RTVSPost2010PropOp49
 70
     1
102
RTVSPost2010Prop50
 90
       50
102
RTVSPost2010PropOp50
 70
     1
102
RTVSPost2010Prop51ColorIndex
 90
      256
102
RTVSPost2010Prop51ColorRGB
 90
-16777216
102
RTVSPost2010PropOp51
 70
     0
102
RTVSPost2010Prop52
140
1.0
102
RTVSPost2010PropOp52
 70
     0
102
RTVSPost2010Prop53
 90
        2
102
RTVSPost2010PropOp53
 70
     1
102
RTVSPost2010Prop54
  1
strokes_ogs.tif
102
RTVSPost2010PropOp54
 70
     1
102
RTVSPost2010Prop55
280
     0
102
RTVSPost2010PropOp55
 70
     1
102
RTVSPost2010Prop56
140
1.0
102
RTVSPost2010PropOp56
 70
     1
102
RTVSPost2010Prop57
140
1.0
102
RTVSPost2010PropOp57
 70
     1
102
RTVSPropertyOp0
 70
     1
102
RTVSPropertyOp1
 70
     1
102
RTVSPropertyOp2
 70
     1
102
RTVSPropertyOp3
 70
     1
102
RTVSPropertyOp4
 70
     1
102
RTVSPropertyOp5
 70
     1
102
RTVSPropertyOp6
 70
     1
102
RTVSPropertyOp7
 70
     1
102
RTVSPropertyOp8
 70
     1
102
RTVSPropertyOp9
 70
     1
102
RTVSPropertyOp10
 70
     1
102
RTVSPropertyOp11
 70
     1
102
RTVSPropertyOp12
 70
     1
102
RTVSPropertyOp13
 70
     1
102
RTVSPropertyOp14
 70
     1
102
RTVSPropertyOp15
 70
     1
102
RTVSPropertyOp16
 70
     1
102
RTVSPropertyOp17
 70
     1
102
RTVSPropertyOp18
 70
     1
102
RTVSPropertyOp19
 70
     1
102
RTVSPropertyOp20
 70
     1
102
RTVSPropertyOp21
 70
     1
102
RTVSPropertyOp22
 70
     1
102
RTVSPropertyOp23
 70
     1
102
RTVSPropertyOp24
 70
     1
102
RTVSPropertyOp25
 70
     1
102
RTVSPropertyOp26
 70
     1
102
RTVSPropertyOp27
 70
     1
102
RTVSPropertyOp28
 70
     1
102
RTVSPropertyOp29
 70
     1
102
RTVSPropertyOp30
 70
     1
102
RTVSPropertyOp31
 70
     1
102
RTVSPropertyOp32
 70
     1
102
RTVSPropertyOp33
 70
     1
102
RTVSPropertyOp34
 70
     1
102
RTVSPropertyOp35
 70
     1
102
RTVSPropertyOp36
 70
     1
102
RTVSPropertyOp37
 70
     1
102
RTVSPropertyOp38
 70
     1
102
RTVSPropertyOp39
 70
     1
102
RTVSPropertyOp40
 70
     1
102
RTVSPropertyOp41
 70
     1
102
RTVSPropertyOp42
 70
     1
102
RTVSPropertyOp43
 70
     1
102
RTVSPropertyOp44
 70
     1
102
RTVSPropertyOp45
 70
     1
102
RTVSPropertyOp46
 70
     1
102
RTVSPropertyOp47
 70
     1
102
RTVSPropertyOp48
 70
     1
102
RTVSPropertyOp49
 70
     1
102
RTVSPropertyOp50
 70
     1
102
RTVSPropertyOp51
 70
     0
102
RTVSPropertyOp52
 70
     0
102
RTVSPropertyOp53
 70
     1
102
RTVSPropertyOp54
 70
     1
102
RTVSPropertyOp55
 70
     1
102
RTVSPropertyOp56
 70
     1
102
RTVSPropertyOp57
 70
     1
102
RTVSPropertyOp58
 70
     1
102
RTVSPropertyOp59
 70
     1
102
RTVSPropertyOp60
 70
     1
102
RTVSPropertyOp61
 70
     1
102
RTVSPropertyOp62
 70
     1
  0
XRECORD
  5
1746
102
{ACAD_REACTORS
330
1745
102
}
330
1745
100
AcDbXrecord
280
     1
102
RTVSPost2010Prop28
280
     0
102
RTVSPost2010PropOp28
 70
     1
102
RTVSPost2010Prop29
280
     1
102
RTVSPost2010PropOp29
 70
     1
102
RTVSPost2010Prop30
280
     1
102
RTVSPost2010PropOp30
 70
     1
102
RTVSPost2010Prop31
280
     0
102
RTVSPost2010PropOp31
 70
     1
102
RTVSPost2010Prop32
280
     0
102
RTVSPost2010PropOp32
 70
     1
102
RTVSPost2010Prop33
280
     0
102
RTVSPost2010PropOp33
 70
     1
102
RTVSPost2010Prop34
280
     0
102
RTVSPost2010PropOp34
 70
     1
102
RTVSPost2010Prop35
280
     0
102
RTVSPost2010PropOp35
 70
     1
102
RTVSPost2010Prop36
280
     0
102
RTVSPost2010PropOp36
 70
     1
102
RTVSPost2010Prop37
 90
       50
102
RTVSPost2010PropOp37
 70
     1
102
RTVSPost2010Prop38
140
0.0
102
RTVSPost2010PropOp38
 70
     1
102
RTVSPost2010Prop39
140
1.0
102
RTVSPost2010PropOp39
 70
     1
102
RTVSPost2010Prop40
 90
        0
102
RTVSPost2010PropOp40
 70
     1
102
RTVSPost2010Prop41ColorIndex
 90
       18
102
RTVSPost2010Prop41ColorRGB
 90
        0
102
RTVSPost2010PropOp41
 70
     1
102
RTVSPost2010Prop42
 90
       50
102
RTVSPost2010PropOp42
 70
     1
102
RTVSPost2010Prop43
 90
        3
102
RTVSPost2010PropOp43
 70
     1
102
RTVSPost2010Prop44ColorIndex
 90
        5
102
RTVSPost2010Prop44ColorRGB
 90
      255
102
RTVSPost2010PropOp44
 70
     1
102
RTVSPost2010Prop45
280
     0
102
RTVSPost2010PropOp45
 70
     1
102
RTVSPost2010Prop46
 90
       50
102
RTVSPost2010PropOp46
 70
     1
102
RTVSPost2010Prop47
 90
       50
102
RTVSPost2010PropOp47
 70
     1
102
RTVSPost2010Prop48
 90
       50
102
RTVSPost2010PropOp48
 70
     1
102
RTVSPost2010Prop49
280
     0
102
RTVSPost2010PropOp49
 70
     1
102
RTVSPost2010Prop50
 90
       50
102
RTVSPost2010PropOp50
 70
     1
102
RTVSPost2010Prop51ColorIndex
 90
      256
102
RTVSPost2010Prop51ColorRGB
 90
-16777216
102
RTVSPost2010PropOp51
 70
     0
102
RTVSPost2010Prop52
140
1.0
102
RTVSPost2010PropOp52
 70
     0
102
RTVSPost2010Prop53
 90
        2
102
RTVSPost2010PropOp53
 70
     1
102
RTVSPost2010Prop54
  1
strokes_ogs.tif
102
RTVSPost2010PropOp54
 70
     1
102
RTVSPost2010Prop55
280
     0
102
RTVSPost2010PropOp55
 70
     1
102
RTVSPost2010Prop56
140
1.0
102
RTVSPost2010PropOp56
 70
     1
102
RTVSPost2010Prop57
140
1.0
102
RTVSPost2010PropOp57
 70
     1
102
RTVSPropertyOp0
 70
     1
102
RTVSPropertyOp1
 70
     1
102
RTVSPropertyOp2
 70
     1
102
RTVSPropertyOp3
 70
     1
102
RTVSPropertyOp4
 70
     1
102
RTVSPropertyOp5
 70
     1
102
RTVSPropertyOp6
 70
     1
102
RTVSPropertyOp7
 70
     1
102
RTVSPropertyOp8
 70
     1
102
RTVSPropertyOp9
 70
     1
102
RTVSPropertyOp10
 70
     1
102
RTVSPropertyOp11
 70
     1
102
RTVSPropertyOp12
 70
     1
102
RTVSPropertyOp13
 70
     1
102
RTVSPropertyOp14
 70
     1
102
RTVSPropertyOp15
 70
     1
102
RTVSPropertyOp16
 70
     1
102
RTVSPropertyOp17
 70
     1
102
RTVSPropertyOp18
 70
     1
102
RTVSPropertyOp19
 70
     1
102
RTVSPropertyOp20
 70
     1
102
RTVSPropertyOp21
 70
     1
102
RTVSPropertyOp22
 70
     1
102
RTVSPropertyOp23
 70
     1
102
RTVSPropertyOp24
 70
     1
102
RTVSPropertyOp25
 70
     1
102
RTVSPropertyOp26
 70
     1
102
RTVSPropertyOp27
 70
     1
102
RTVSPropertyOp28
 70
     1
102
RTVSPropertyOp29
 70
     1
102
RTVSPropertyOp30
 70
     1
102
RTVSPropertyOp31
 70
     1
102
RTVSPropertyOp32
 70
     1
102
RTVSPropertyOp33
 70
     1
102
RTVSPropertyOp34
 70
     1
102
RTVSPropertyOp35
 70
     1
102
RTVSPropertyOp36
 70
     1
102
RTVSPropertyOp37
 70
     1
102
RTVSPropertyOp38
 70
     1
102
RTVSPropertyOp39
 70
     1
102
RTVSPropertyOp40
 70
     1
102
RTVSPropertyOp41
 70
     1
102
RTVSPropertyOp42
 70
     1
102
RTVSPropertyOp43
 70
     1
102
RTVSPropertyOp44
 70
     1
102
RTVSPropertyOp45
 70
     1
102
RTVSPropertyOp46
 70
     1
102
RTVSPropertyOp47
 70
     1
102
RTVSPropertyOp48
 70
     1
102
RTVSPropertyOp49
 70
     1
102
RTVSPropertyOp50
 70
     1
102
RTVSPropertyOp51
 70
     0
102
RTVSPropertyOp52
 70
     0
102
RTVSPropertyOp53
 70
     1
102
RTVSPropertyOp54
 70
     1
102
RTVSPropertyOp55
 70
     1
102
RTVSPropertyOp56
 70
     1
102
RTVSPropertyOp57
 70
     1
102
RTVSPropertyOp58
 70
     1
102
RTVSPropertyOp59
 70
     1
102
RTVSPropertyOp60
 70
     1
102
RTVSPropertyOp61
 70
     1
102
RTVSPropertyOp62
 70
     1
  0
XRECORD
  5
1740
102
{ACAD_REACTORS
330
173F
102
}
330
173F
100
AcDbXrecord
280
     1
102
RTVSPost2010Prop28
280
     0
102
RTVSPost2010PropOp28
 70
     1
102
RTVSPost2010Prop29
280
     1
102
RTVSPost2010PropOp29
 70
     1
102
RTVSPost2010Prop30
280
     1
102
RTVSPost2010PropOp30
 70
     1
102
RTVSPost2010Prop31
280
     0
102
RTVSPost2010PropOp31
 70
     1
102
RTVSPost2010Prop32
280
     0
102
RTVSPost2010PropOp32
 70
     1
102
RTVSPost2010Prop33
280
     0
102
RTVSPost2010PropOp33
 70
     1
102
RTVSPost2010Prop34
280
     0
102
RTVSPost2010PropOp34
 70
     1
102
RTVSPost2010Prop35
280
     0
102
RTVSPost2010PropOp35
 70
     1
102
RTVSPost2010Prop36
280
     0
102
RTVSPost2010PropOp36
 70
     1
102
RTVSPost2010Prop37
 90
       50
102
RTVSPost2010PropOp37
 70
     1
102
RTVSPost2010Prop38
140
0.0
102
RTVSPost2010PropOp38
 70
     1
102
RTVSPost2010Prop39
140
1.0
102
RTVSPost2010PropOp39
 70
     1
102
RTVSPost2010Prop40
 90
        0
102
RTVSPost2010PropOp40
 70
     1
102
RTVSPost2010Prop41ColorIndex
 90
       18
102
RTVSPost2010Prop41ColorRGB
 90
        0
102
RTVSPost2010PropOp41
 70
     1
102
RTVSPost2010Prop42
 90
       50
102
RTVSPost2010PropOp42
 70
     1
102
RTVSPost2010Prop43
 90
        3
102
RTVSPost2010PropOp43
 70
     1
102
RTVSPost2010Prop44ColorIndex
 90
        5
102
RTVSPost2010Prop44ColorRGB
 90
      255
102
RTVSPost2010PropOp44
 70
     1
102
RTVSPost2010Prop45
280
     0
102
RTVSPost2010PropOp45
 70
     1
102
RTVSPost2010Prop46
 90
       50
102
RTVSPost2010PropOp46
 70
     1
102
RTVSPost2010Prop47
 90
       50
102
RTVSPost2010PropOp47
 70
     1
102
RTVSPost2010Prop48
 90
       50
102
RTVSPost2010PropOp48
 70
     1
102
RTVSPost2010Prop49
280
     0
102
RTVSPost2010PropOp49
 70
     1
102
RTVSPost2010Prop50
 90
       50
102
RTVSPost2010PropOp50
 70
     1
102
RTVSPost2010Prop51ColorIndex
 90
      256
102
RTVSPost2010Prop51ColorRGB
 90
-16777216
102
RTVSPost2010PropOp51
 70
     0
102
RTVSPost2010Prop52
140
1.0
102
RTVSPost2010PropOp52
 70
     0
102
RTVSPost2010Prop53
 90
        2
102
RTVSPost2010PropOp53
 70
     1
102
RTVSPost2010Prop54
  1
strokes_ogs.tif
102
RTVSPost2010PropOp54
 70
     1
102
RTVSPost2010Prop55
280
     0
102
RTVSPost2010PropOp55
 70
     1
102
RTVSPost2010Prop56
140
1.0
102
RTVSPost2010PropOp56
 70
     1
102
RTVSPost2010Prop57
140
1.0
102
RTVSPost2010PropOp57
 70
     1
102
RTVSPropertyOp0
 70
     1
102
RTVSPropertyOp1
 70
     1
102
RTVSPropertyOp2
 70
     1
102
RTVSPropertyOp3
 70
     1
102
RTVSPropertyOp4
 70
     1
102
RTVSPropertyOp5
 70
     1
102
RTVSPropertyOp6
 70
     1
102
RTVSPropertyOp7
 70
     1
102
RTVSPropertyOp8
 70
     1
102
RTVSPropertyOp9
 70
     1
102
RTVSPropertyOp10
 70
     1
102
RTVSPropertyOp11
 70
     1
102
RTVSPropertyOp12
 70
     1
102
RTVSPropertyOp13
 70
     1
102
RTVSPropertyOp14
 70
     1
102
RTVSPropertyOp15
 70
     1
102
RTVSPropertyOp16
 70
     1
102
RTVSPropertyOp17
 70
     1
102
RTVSPropertyOp18
 70
     1
102
RTVSPropertyOp19
 70
     1
102
RTVSPropertyOp20
 70
     1
102
RTVSPropertyOp21
 70
     1
102
RTVSPropertyOp22
 70
     1
102
RTVSPropertyOp23
 70
     1
102
RTVSPropertyOp24
 70
     1
102
RTVSPropertyOp25
 70
     1
102
RTVSPropertyOp26
 70
     1
102
RTVSPropertyOp27
 70
     1
102
RTVSPropertyOp28
 70
     1
102
RTVSPropertyOp29
 70
     1
102
RTVSPropertyOp30
 70
     1
102
RTVSPropertyOp31
 70
     1
102
RTVSPropertyOp32
 70
     1
102
RTVSPropertyOp33
 70
     1
102
RTVSPropertyOp34
 70
     1
102
RTVSPropertyOp35
 70
     1
102
RTVSPropertyOp36
 70
     1
102
RTVSPropertyOp37
 70
     1
102
RTVSPropertyOp38
 70
     1
102
RTVSPropertyOp39
 70
     1
102
RTVSPropertyOp40
 70
     1
102
RTVSPropertyOp41
 70
     1
102
RTVSPropertyOp42
 70
     1
102
RTVSPropertyOp43
 70
     1
102
RTVSPropertyOp44
 70
     1
102
RTVSPropertyOp45
 70
     1
102
RTVSPropertyOp46
 70
     1
102
RTVSPropertyOp47
 70
     1
102
RTVSPropertyOp48
 70
     1
102
RTVSPropertyOp49
 70
     1
102
RTVSPropertyOp50
 70
     1
102
RTVSPropertyOp51
 70
     0
102
RTVSPropertyOp52
 70
     0
102
RTVSPropertyOp53
 70
     1
102
RTVSPropertyOp54
 70
     1
102
RTVSPropertyOp55
 70
     1
102
RTVSPropertyOp56
 70
     1
102
RTVSPropertyOp57
 70
     1
102
RTVSPropertyOp58
 70
     1
102
RTVSPropertyOp59
 70
     1
102
RTVSPropertyOp60
 70
     1
102
RTVSPropertyOp61
 70
     1
102
RTVSPropertyOp62
 70
     1
  0
XRECORD
  5
1742
102
{ACAD_REACTORS
330
1741
102
}
330
1741
100
AcDbXrecord
280
     1
102
RTVSPost2010Prop28
280
     0
102
RTVSPost2010PropOp28
 70
     1
102
RTVSPost2010Prop29
280
     1
102
RTVSPost2010PropOp29
 70
     1
102
RTVSPost2010Prop30
280
     1
102
RTVSPost2010PropOp30
 70
     1
102
RTVSPost2010Prop31
280
     0
102
RTVSPost2010PropOp31
 70
     1
102
RTVSPost2010Prop32
280
     0
102
RTVSPost2010PropOp32
 70
     1
102
RTVSPost2010Prop33
280
     0
102
RTVSPost2010PropOp33
 70
     1
102
RTVSPost2010Prop34
280
     0
102
RTVSPost2010PropOp34
 70
     1
102
RTVSPost2010Prop35
280
     0
102
RTVSPost2010PropOp35
 70
     1
102
RTVSPost2010Prop36
280
     0
102
RTVSPost2010PropOp36
 70
     1
102
RTVSPost2010Prop37
 90
       50
102
RTVSPost2010PropOp37
 70
     1
102
RTVSPost2010Prop38
140
0.0
102
RTVSPost2010PropOp38
 70
     1
102
RTVSPost2010Prop39
140
1.0
102
RTVSPost2010PropOp39
 70
     1
102
RTVSPost2010Prop40
 90
        0
102
RTVSPost2010PropOp40
 70
     1
102
RTVSPost2010Prop41ColorIndex
 90
       18
102
RTVSPost2010Prop41ColorRGB
 90
        0
102
RTVSPost2010PropOp41
 70
     1
102
RTVSPost2010Prop42
 90
       50
102
RTVSPost2010PropOp42
 70
     1
102
RTVSPost2010Prop43
 90
        3
102
RTVSPost2010PropOp43
 70
     1
102
RTVSPost2010Prop44ColorIndex
 90
        5
102
RTVSPost2010Prop44ColorRGB
 90
      255
102
RTVSPost2010PropOp44
 70
     1
102
RTVSPost2010Prop45
280
     0
102
RTVSPost2010PropOp45
 70
     1
102
RTVSPost2010Prop46
 90
       50
102
RTVSPost2010PropOp46
 70
     1
102
RTVSPost2010Prop47
 90
       50
102
RTVSPost2010PropOp47
 70
     1
102
RTVSPost2010Prop48
 90
       50
102
RTVSPost2010PropOp48
 70
     1
102
RTVSPost2010Prop49
280
     0
102
RTVSPost2010PropOp49
 70
     1
102
RTVSPost2010Prop50
 90
       50
102
RTVSPost2010PropOp50
 70
     1
102
RTVSPost2010Prop51ColorIndex
 90
      256
102
RTVSPost2010Prop51ColorRGB
 90
-16777216
102
RTVSPost2010PropOp51
 70
     0
102
RTVSPost2010Prop52
140
1.0
102
RTVSPost2010PropOp52
 70
     0
102
RTVSPost2010Prop53
 90
        2
102
RTVSPost2010PropOp53
 70
     1
102
RTVSPost2010Prop54
  1
strokes_ogs.tif
102
RTVSPost2010PropOp54
 70
     1
102
RTVSPost2010Prop55
280
     0
102
RTVSPost2010PropOp55
 70
     1
102
RTVSPost2010Prop56
140
1.0
102
RTVSPost2010PropOp56
 70
     1
102
RTVSPost2010Prop57
140
1.0
102
RTVSPost2010PropOp57
 70
     1
102
RTVSPropertyOp0
 70
     1
102
RTVSPropertyOp1
 70
     1
102
RTVSPropertyOp2
 70
     1
102
RTVSPropertyOp3
 70
     1
102
RTVSPropertyOp4
 70
     1
102
RTVSPropertyOp5
 70
     1
102
RTVSPropertyOp6
 70
     1
102
RTVSPropertyOp7
 70
     1
102
RTVSPropertyOp8
 70
     1
102
RTVSPropertyOp9
 70
     1
102
RTVSPropertyOp10
 70
     1
102
RTVSPropertyOp11
 70
     1
102
RTVSPropertyOp12
 70
     1
102
RTVSPropertyOp13
 70
     1
102
RTVSPropertyOp14
 70
     1
102
RTVSPropertyOp15
 70
     1
102
RTVSPropertyOp16
 70
     1
102
RTVSPropertyOp17
 70
     1
102
RTVSPropertyOp18
 70
     1
102
RTVSPropertyOp19
 70
     1
102
RTVSPropertyOp20
 70
     1
102
RTVSPropertyOp21
 70
     1
102
RTVSPropertyOp22
 70
     1
102
RTVSPropertyOp23
 70
     1
102
RTVSPropertyOp24
 70
     1
102
RTVSPropertyOp25
 70
     1
102
RTVSPropertyOp26
 70
     1
102
RTVSPropertyOp27
 70
     1
102
RTVSPropertyOp28
 70
     1
102
RTVSPropertyOp29
 70
     1
102
RTVSPropertyOp30
 70
     1
102
RTVSPropertyOp31
 70
     1
102
RTVSPropertyOp32
 70
     1
102
RTVSPropertyOp33
 70
     1
102
RTVSPropertyOp34
 70
     1
102
RTVSPropertyOp35
 70
     1
102
RTVSPropertyOp36
 70
     1
102
RTVSPropertyOp37
 70
     1
102
RTVSPropertyOp38
 70
     1
102
RTVSPropertyOp39
 70
     1
102
RTVSPropertyOp40
 70
     1
102
RTVSPropertyOp41
 70
     1
102
RTVSPropertyOp42
 70
     1
102
RTVSPropertyOp43
 70
     1
102
RTVSPropertyOp44
 70
     1
102
RTVSPropertyOp45
 70
     1
102
RTVSPropertyOp46
 70
     1
102
RTVSPropertyOp47
 70
     1
102
RTVSPropertyOp48
 70
     1
102
RTVSPropertyOp49
 70
     1
102
RTVSPropertyOp50
 70
     1
102
RTVSPropertyOp51
 70
     0
102
RTVSPropertyOp52
 70
     0
102
RTVSPropertyOp53
 70
     1
102
RTVSPropertyOp54
 70
     1
102
RTVSPropertyOp55
 70
     1
102
RTVSPropertyOp56
 70
     1
102
RTVSPropertyOp57
 70
     1
102
RTVSPropertyOp58
 70
     1
102
RTVSPropertyOp59
 70
     1
102
RTVSPropertyOp60
 70
     1
102
RTVSPropertyOp61
 70
     1
102
RTVSPropertyOp62
 70
     1
  0
XRECORD
  5
1738
102
{ACAD_REACTORS
330
1737
102
}
330
1737
100
AcDbXrecord
280
     1
102
RTVSPost2010Prop28
280
     0
102
RTVSPost2010PropOp28
 70
     1
102
RTVSPost2010Prop29
280
     1
102
RTVSPost2010PropOp29
 70
     1
102
RTVSPost2010Prop30
280
     1
102
RTVSPost2010PropOp30
 70
     1
102
RTVSPost2010Prop31
280
     0
102
RTVSPost2010PropOp31
 70
     1
102
RTVSPost2010Prop32
280
     0
102
RTVSPost2010PropOp32
 70
     1
102
RTVSPost2010Prop33
280
     0
102
RTVSPost2010PropOp33
 70
     1
102
RTVSPost2010Prop34
280
     0
102
RTVSPost2010PropOp34
 70
     1
102
RTVSPost2010Prop35
280
     0
102
RTVSPost2010PropOp35
 70
     1
102
RTVSPost2010Prop36
280
     0
102
RTVSPost2010PropOp36
 70
     1
102
RTVSPost2010Prop37
 90
       50
102
RTVSPost2010PropOp37
 70
     1
102
RTVSPost2010Prop38
140
0.0
102
RTVSPost2010PropOp38
 70
     1
102
RTVSPost2010Prop39
140
1.0
102
RTVSPost2010PropOp39
 70
     1
102
RTVSPost2010Prop40
 90
        0
102
RTVSPost2010PropOp40
 70
     1
102
RTVSPost2010Prop41ColorIndex
 90
       18
102
RTVSPost2010Prop41ColorRGB
 90
        0
102
RTVSPost2010PropOp41
 70
     1
102
RTVSPost2010Prop42
 90
       50
102
RTVSPost2010PropOp42
 70
     1
102
RTVSPost2010Prop43
 90
        3
102
RTVSPost2010PropOp43
 70
     1
102
RTVSPost2010Prop44ColorIndex
 90
        5
102
RTVSPost2010Prop44ColorRGB
 90
      255
102
RTVSPost2010PropOp44
 70
     1
102
RTVSPost2010Prop45
280
     0
102
RTVSPost2010PropOp45
 70
     1
102
RTVSPost2010Prop46
 90
       50
102
RTVSPost2010PropOp46
 70
     1
102
RTVSPost2010Prop47
 90
       50
102
RTVSPost2010PropOp47
 70
     1
102
RTVSPost2010Prop48
 90
       50
102
RTVSPost2010PropOp48
 70
     1
102
RTVSPost2010Prop49
280
     0
102
RTVSPost2010PropOp49
 70
     1
102
RTVSPost2010Prop50
 90
       50
102
RTVSPost2010PropOp50
 70
     1
102
RTVSPost2010Prop51ColorIndex
 90
      256
102
RTVSPost2010Prop51ColorRGB
 90
-16777216
102
RTVSPost2010PropOp51
 70
     0
102
RTVSPost2010Prop52
140
1.0
102
RTVSPost2010PropOp52
 70
     0
102
RTVSPost2010Prop53
 90
        2
102
RTVSPost2010PropOp53
 70
     1
102
RTVSPost2010Prop54
  1
strokes_ogs.tif
102
RTVSPost2010PropOp54
 70
     1
102
RTVSPost2010Prop55
280
     0
102
RTVSPost2010PropOp55
 70
     1
102
RTVSPost2010Prop56
140
1.0
102
RTVSPost2010PropOp56
 70
     1
102
RTVSPost2010Prop57
140
1.0
102
RTVSPost2010PropOp57
 70
     1
102
RTVSPropertyOp0
 70
     1
102
RTVSPropertyOp1
 70
     1
102
RTVSPropertyOp2
 70
     1
102
RTVSPropertyOp3
 70
     1
102
RTVSPropertyOp4
 70
     1
102
RTVSPropertyOp5
 70
     1
102
RTVSPropertyOp6
 70
     1
102
RTVSPropertyOp7
 70
     1
102
RTVSPropertyOp8
 70
     1
102
RTVSPropertyOp9
 70
     1
102
RTVSPropertyOp10
 70
     1
102
RTVSPropertyOp11
 70
     1
102
RTVSPropertyOp12
 70
     1
102
RTVSPropertyOp13
 70
     1
102
RTVSPropertyOp14
 70
     1
102
RTVSPropertyOp15
 70
     1
102
RTVSPropertyOp16
 70
     1
102
RTVSPropertyOp17
 70
     1
102
RTVSPropertyOp18
 70
     1
102
RTVSPropertyOp19
 70
     1
102
RTVSPropertyOp20
 70
     1
102
RTVSPropertyOp21
 70
     1
102
RTVSPropertyOp22
 70
     1
102
RTVSPropertyOp23
 70
     1
102
RTVSPropertyOp24
 70
     1
102
RTVSPropertyOp25
 70
     1
102
RTVSPropertyOp26
 70
     1
102
RTVSPropertyOp27
 70
     1
102
RTVSPropertyOp28
 70
     1
102
RTVSPropertyOp29
 70
     1
102
RTVSPropertyOp30
 70
     1
102
RTVSPropertyOp31
 70
     1
102
RTVSPropertyOp32
 70
     1
102
RTVSPropertyOp33
 70
     1
102
RTVSPropertyOp34
 70
     1
102
RTVSPropertyOp35
 70
     1
102
RTVSPropertyOp36
 70
     1
102
RTVSPropertyOp37
 70
     1
102
RTVSPropertyOp38
 70
     1
102
RTVSPropertyOp39
 70
     1
102
RTVSPropertyOp40
 70
     1
102
RTVSPropertyOp41
 70
     1
102
RTVSPropertyOp42
 70
     1
102
RTVSPropertyOp43
 70
     1
102
RTVSPropertyOp44
 70
     1
102
RTVSPropertyOp45
 70
     1
102
RTVSPropertyOp46
 70
     1
102
RTVSPropertyOp47
 70
     1
102
RTVSPropertyOp48
 70
     1
102
RTVSPropertyOp49
 70
     1
102
RTVSPropertyOp50
 70
     1
102
RTVSPropertyOp51
 70
     0
102
RTVSPropertyOp52
 70
     0
102
RTVSPropertyOp53
 70
     1
102
RTVSPropertyOp54
 70
     1
102
RTVSPropertyOp55
 70
     1
102
RTVSPropertyOp56
 70
     1
102
RTVSPropertyOp57
 70
     1
102
RTVSPropertyOp58
 70
     1
102
RTVSPropertyOp59
 70
     1
102
RTVSPropertyOp60
 70
     1
102
RTVSPropertyOp61
 70
     1
102
RTVSPropertyOp62
 70
     1
  0
XRECORD
  5
172C
102
{ACAD_REACTORS
330
172B
102
}
330
172B
100
AcDbXrecord
280
     1
102
RTVSPost2010Prop28
280
     0
102
RTVSPost2010PropOp28
 70
     1
102
RTVSPost2010Prop29
280
     1
102
RTVSPost2010PropOp29
 70
     1
102
RTVSPost2010Prop30
280
     1
102
RTVSPost2010PropOp30
 70
     1
102
RTVSPost2010Prop31
280
     0
102
RTVSPost2010PropOp31
 70
     1
102
RTVSPost2010Prop32
280
     0
102
RTVSPost2010PropOp32
 70
     1
102
RTVSPost2010Prop33
280
     0
102
RTVSPost2010PropOp33
 70
     1
102
RTVSPost2010Prop34
280
     0
102
RTVSPost2010PropOp34
 70
     1
102
RTVSPost2010Prop35
280
     0
102
RTVSPost2010PropOp35
 70
     1
102
RTVSPost2010Prop36
280
     0
102
RTVSPost2010PropOp36
 70
     1
102
RTVSPost2010Prop37
 90
       50
102
RTVSPost2010PropOp37
 70
     1
102
RTVSPost2010Prop38
140
0.0
102
RTVSPost2010PropOp38
 70
     1
102
RTVSPost2010Prop39
140
1.0
102
RTVSPost2010PropOp39
 70
     1
102
RTVSPost2010Prop40
 90
        0
102
RTVSPost2010PropOp40
 70
     1
102
RTVSPost2010Prop41ColorIndex
 90
       18
102
RTVSPost2010Prop41ColorRGB
 90
        0
102
RTVSPost2010PropOp41
 70
     1
102
RTVSPost2010Prop42
 90
       50
102
RTVSPost2010PropOp42
 70
     1
102
RTVSPost2010Prop43
 90
        3
102
RTVSPost2010PropOp43
 70
     1
102
RTVSPost2010Prop44ColorIndex
 90
        5
102
RTVSPost2010Prop44ColorRGB
 90
      255
102
RTVSPost2010PropOp44
 70
     1
102
RTVSPost2010Prop45
280
     0
102
RTVSPost2010PropOp45
 70
     1
102
RTVSPost2010Prop46
 90
       50
102
RTVSPost2010PropOp46
 70
     1
102
RTVSPost2010Prop47
 90
       50
102
RTVSPost2010PropOp47
 70
     1
102
RTVSPost2010Prop48
 90
       50
102
RTVSPost2010PropOp48
 70
     1
102
RTVSPost2010Prop49
280
     0
102
RTVSPost2010PropOp49
 70
     1
102
RTVSPost2010Prop50
 90
       50
102
RTVSPost2010PropOp50
 70
     1
102
RTVSPost2010Prop51ColorIndex
 90
      256
102
RTVSPost2010Prop51ColorRGB
 90
-16777216
102
RTVSPost2010PropOp51
 70
     0
102
RTVSPost2010Prop52
140
1.0
102
RTVSPost2010PropOp52
 70
     0
102
RTVSPost2010Prop53
 90
        2
102
RTVSPost2010PropOp53
 70
     1
102
RTVSPost2010Prop54
  1
strokes_ogs.tif
102
RTVSPost2010PropOp54
 70
     1
102
RTVSPost2010Prop55
280
     0
102
RTVSPost2010PropOp55
 70
     1
102
RTVSPost2010Prop56
140
1.0
102
RTVSPost2010PropOp56
 70
     1
102
RTVSPost2010Prop57
140
1.0
102
RTVSPost2010PropOp57
 70
     1
102
RTVSPropertyOp0
 70
     1
102
RTVSPropertyOp1
 70
     1
102
RTVSPropertyOp2
 70
     1
102
RTVSPropertyOp3
 70
     1
102
RTVSPropertyOp4
 70
     1
102
RTVSPropertyOp5
 70
     1
102
RTVSPropertyOp6
 70
     1
102
RTVSPropertyOp7
 70
     1
102
RTVSPropertyOp8
 70
     1
102
RTVSPropertyOp9
 70
     1
102
RTVSPropertyOp10
 70
     1
102
RTVSPropertyOp11
 70
     1
102
RTVSPropertyOp12
 70
     1
102
RTVSPropertyOp13
 70
     1
102
RTVSPropertyOp14
 70
     1
102
RTVSPropertyOp15
 70
     1
102
RTVSPropertyOp16
 70
     1
102
RTVSPropertyOp17
 70
     1
102
RTVSPropertyOp18
 70
     1
102
RTVSPropertyOp19
 70
     1
102
RTVSPropertyOp20
 70
     1
102
RTVSPropertyOp21
 70
     1
102
RTVSPropertyOp22
 70
     1
102
RTVSPropertyOp23
 70
     1
102
RTVSPropertyOp24
 70
     1
102
RTVSPropertyOp25
 70
     1
102
RTVSPropertyOp26
 70
     1
102
RTVSPropertyOp27
 70
     1
102
RTVSPropertyOp28
 70
     1
102
RTVSPropertyOp29
 70
     1
102
RTVSPropertyOp30
 70
     1
102
RTVSPropertyOp31
 70
     1
102
RTVSPropertyOp32
 70
     1
102
RTVSPropertyOp33
 70
     1
102
RTVSPropertyOp34
 70
     1
102
RTVSPropertyOp35
 70
     1
102
RTVSPropertyOp36
 70
     1
102
RTVSPropertyOp37
 70
     1
102
RTVSPropertyOp38
 70
     1
102
RTVSPropertyOp39
 70
     1
102
RTVSPropertyOp40
 70
     1
102
RTVSPropertyOp41
 70
     1
102
RTVSPropertyOp42
 70
     1
102
RTVSPropertyOp43
 70
     1
102
RTVSPropertyOp44
 70
     1
102
RTVSPropertyOp45
 70
     1
102
RTVSPropertyOp46
 70
     1
102
RTVSPropertyOp47
 70
     1
102
RTVSPropertyOp48
 70
     1
102
RTVSPropertyOp49
 70
     1
102
RTVSPropertyOp50
 70
     1
102
RTVSPropertyOp51
 70
     0
102
RTVSPropertyOp52
 70
     0
102
RTVSPropertyOp53
 70
     1
102
RTVSPropertyOp54
 70
     1
102
RTVSPropertyOp55
 70
     1
102
RTVSPropertyOp56
 70
     1
102
RTVSPropertyOp57
 70
     1
102
RTVSPropertyOp58
 70
     1
102
RTVSPropertyOp59
 70
     1
102
RTVSPropertyOp60
 70
     1
102
RTVSPropertyOp61
 70
     1
102
RTVSPropertyOp62
 70
     1
  0
XRECORD
  5
1744
102
{ACAD_REACTORS
330
1743
102
}
330
1743
100
AcDbXrecord
280
     1
102
RTVSPost2010Prop28
280
     0
102
RTVSPost2010PropOp28
 70
     1
102
RTVSPost2010Prop29
280
     1
102
RTVSPost2010PropOp29
 70
     1
102
RTVSPost2010Prop30
280
     1
102
RTVSPost2010PropOp30
 70
     1
102
RTVSPost2010Prop31
280
     0
102
RTVSPost2010PropOp31
 70
     1
102
RTVSPost2010Prop32
280
     0
102
RTVSPost2010PropOp32
 70
     1
102
RTVSPost2010Prop33
280
     0
102
RTVSPost2010PropOp33
 70
     1
102
RTVSPost2010Prop34
280
     0
102
RTVSPost2010PropOp34
 70
     1
102
RTVSPost2010Prop35
280
     0
102
RTVSPost2010PropOp35
 70
     1
102
RTVSPost2010Prop36
280
     0
102
RTVSPost2010PropOp36
 70
     1
102
RTVSPost2010Prop37
 90
       50
102
RTVSPost2010PropOp37
 70
     1
102
RTVSPost2010Prop38
140
0.0
102
RTVSPost2010PropOp38
 70
     1
102
RTVSPost2010Prop39
140
1.0
102
RTVSPost2010PropOp39
 70
     1
102
RTVSPost2010Prop40
 90
        0
102
RTVSPost2010PropOp40
 70
     1
102
RTVSPost2010Prop41ColorIndex
 90
       18
102
RTVSPost2010Prop41ColorRGB
 90
        0
102
RTVSPost2010PropOp41
 70
     1
102
RTVSPost2010Prop42
 90
       50
102
RTVSPost2010PropOp42
 70
     1
102
RTVSPost2010Prop43
 90
        3
102
RTVSPost2010PropOp43
 70
     1
102
RTVSPost2010Prop44ColorIndex
 90
        5
102
RTVSPost2010Prop44ColorRGB
 90
      255
102
RTVSPost2010PropOp44
 70
     1
102
RTVSPost2010Prop45
280
     0
102
RTVSPost2010PropOp45
 70
     1
102
RTVSPost2010Prop46
 90
       50
102
RTVSPost2010PropOp46
 70
     1
102
RTVSPost2010Prop47
 90
       50
102
RTVSPost2010PropOp47
 70
     1
102
RTVSPost2010Prop48
 90
       50
102
RTVSPost2010PropOp48
 70
     1
102
RTVSPost2010Prop49
280
     0
102
RTVSPost2010PropOp49
 70
     1
102
RTVSPost2010Prop50
 90
       50
102
RTVSPost2010PropOp50
 70
     1
102
RTVSPost2010Prop51ColorIndex
 90
      256
102
RTVSPost2010Prop51ColorRGB
 90
-16777216
102
RTVSPost2010PropOp51
 70
     0
102
RTVSPost2010Prop52
140
1.0
102
RTVSPost2010PropOp52
 70
     0
102
RTVSPost2010Prop53
 90
        2
102
RTVSPost2010PropOp53
 70
     1
102
RTVSPost2010Prop54
  1
strokes_ogs.tif
102
RTVSPost2010PropOp54
 70
     1
102
RTVSPost2010Prop55
280
     0
102
RTVSPost2010PropOp55
 70
     1
102
RTVSPost2010Prop56
140
1.0
102
RTVSPost2010PropOp56
 70
     1
102
RTVSPost2010Prop57
140
1.0
102
RTVSPost2010PropOp57
 70
     1
102
RTVSPropertyOp0
 70
     1
102
RTVSPropertyOp1
 70
     1
102
RTVSPropertyOp2
 70
     1
102
RTVSPropertyOp3
 70
     1
102
RTVSPropertyOp4
 70
     1
102
RTVSPropertyOp5
 70
     1
102
RTVSPropertyOp6
 70
     1
102
RTVSPropertyOp7
 70
     1
102
RTVSPropertyOp8
 70
     1
102
RTVSPropertyOp9
 70
     1
102
RTVSPropertyOp10
 70
     1
102
RTVSPropertyOp11
 70
     1
102
RTVSPropertyOp12
 70
     1
102
RTVSPropertyOp13
 70
     1
102
RTVSPropertyOp14
 70
     1
102
RTVSPropertyOp15
 70
     1
102
RTVSPropertyOp16
 70
     1
102
RTVSPropertyOp17
 70
     1
102
RTVSPropertyOp18
 70
     1
102
RTVSPropertyOp19
 70
     1
102
RTVSPropertyOp20
 70
     1
102
RTVSPropertyOp21
 70
     1
102
RTVSPropertyOp22
 70
     1
102
RTVSPropertyOp23
 70
     1
102
RTVSPropertyOp24
 70
     1
102
RTVSPropertyOp25
 70
     1
102
RTVSPropertyOp26
 70
     1
102
RTVSPropertyOp27
 70
     1
102
RTVSPropertyOp28
 70
     1
102
RTVSPropertyOp29
 70
     1
102
RTVSPropertyOp30
 70
     1
102
RTVSPropertyOp31
 70
     1
102
RTVSPropertyOp32
 70
     1
102
RTVSPropertyOp33
 70
     1
102
RTVSPropertyOp34
 70
     1
102
RTVSPropertyOp35
 70
     1
102
RTVSPropertyOp36
 70
     1
102
RTVSPropertyOp37
 70
     1
102
RTVSPropertyOp38
 70
     1
102
RTVSPropertyOp39
 70
     1
102
RTVSPropertyOp40
 70
     1
102
RTVSPropertyOp41
 70
     1
102
RTVSPropertyOp42
 70
     1
102
RTVSPropertyOp43
 70
     1
102
RTVSPropertyOp44
 70
     1
102
RTVSPropertyOp45
 70
     1
102
RTVSPropertyOp46
 70
     1
102
RTVSPropertyOp47
 70
     1
102
RTVSPropertyOp48
 70
     1
102
RTVSPropertyOp49
 70
     1
102
RTVSPropertyOp50
 70
     1
102
RTVSPropertyOp51
 70
     0
102
RTVSPropertyOp52
 70
     0
102
RTVSPropertyOp53
 70
     1
102
RTVSPropertyOp54
 70
     1
102
RTVSPropertyOp55
 70
     1
102
RTVSPropertyOp56
 70
     1
102
RTVSPropertyOp57
 70
     1
102
RTVSPropertyOp58
 70
     1
102
RTVSPropertyOp59
 70
     1
102
RTVSPropertyOp60
 70
     1
102
RTVSPropertyOp61
 70
     1
102
RTVSPropertyOp62
 70
     1
  0
ENDSEC
  0
EOF
