  0
SECTION
  2
HEADER
  9
$ACADVER
  1
AC1018
  9
$ACADMAINTVER
 70
     2
  9
$DWGCODEPAGE
  3
ANSI_1252
  9
$INSBASE
 10
0.0
 20
0.0
 30
0.0
  9
$EXTMIN
 10
-0.0000000000001705
 20
-0.0000000000002824
 30
0.0
  9
$EXTMAX
 10
840.0
 20
594.0000000000002
 30
0.0
  9
$LIMMIN
 10
0.0
 20
0.0
  9
$LIMMAX
 10
839.9999999999998
 20
594.0000000000002
  9
$ORTHOMODE
 70
     1
  9
$REGENMODE
 70
     1
  9
$FILLMODE
 70
     1
  9
$QTEXTMODE
 70
     0
  9
$MIRRTEXT
 70
     1
  9
$LTSCALE
 40
20.0
  9
$ATTMODE
 70
     1
  9
$TEXTSIZE
 40
3.5
  9
$TRACEWID
 40
0.5
  9
$TEXTSTYLE
  7
STANDARD
  9
$CLAYER
  8
SCHRAFF
  9
$CELTYPE
  6
BYLAYER
  9
$CECOLOR
 62
   256
  9
$CELTSCALE
 40
1.0
  9
$DISPSILH
 70
     0
  9
$DIMSCALE
 40
2.0
  9
$DIMASZ
 40
3.5
  9
$DIMEXO
 40
1.0
  9
$DIMDLI
 40
7.0
  9
$DIMRND
 40
0.0
  9
$DIMDLE
 40
0.0
  9
$DIMEXE
 40
1.0
  9
$DIMTP
 40
0.0
  9
$DIMTM
 40
0.0
  9
$DIMTXT
 40
3.5
  9
$DIMCEN
 40
1.5
  9
$DIMTSZ
 40
0.0
  9
$DIMTOL
 70
     0
  9
$DIMLIM
 70
     0
  9
$DIMTIH
 70
     0
  9
$DIMTOH
 70
     0
  9
$DIMSE1
 70
     0
  9
$DIMSE2
 70
     0
  9
$DIMTAD
 70
     1
  9
$DIMZIN
 70
     8
  9
$DIMBLK
  1

  9
$DIMASO
 70
     1
  9
$DIMSHO
 70
     0
  9
$DIMPOST
  1

  9
$DIMAPOST
  1

  9
$DIMALT
 70
     0
  9
$DIMALTD
 70
     2
  9
$DIMALTF
 40
25.4
  9
$DIMLFAC
 40
1.0
  9
$DIMTOFL
 70
     1
  9
$DIMTVP
 40
0.0
  9
$DIMTIX
 70
     0
  9
$DIMSOXD
 70
     0
  9
$DIMSAH
 70
     0
  9
$DIMBLK1
  1

  9
$DIMBLK2
  1

  9
$DIMSTYLE
  2
STANDARD
  9
$DIMCLRD
 70
     0
  9
$DIMCLRE
 70
     0
  9
$DIMCLRT
 70
     1
  9
$DIMTFAC
 40
1.0
  9
$DIMGAP
 40
1.5
  9
$DIMJUST
 70
     0
  9
$DIMSD1
 70
     0
  9
$DIMSD2
 70
     0
  9
$DIMTOLJ
 70
     1
  9
$DIMTZIN
 70
     8
  9
$DIMALTZ
 70
     8
  9
$DIMALTTZ
 70
     8
  9
$DIMUPT
 70
     0
  9
$DIMDEC
 70
     2
  9
$DIMTDEC
 70
     2
  9
$DIMALTU
 70
     2
  9
$DIMALTTD
 70
     2
  9
$DIMTXSTY
  7
STANDARD
  9
$DIMAUNIT
 70
     0
  9
$DIMADEC
 70
     2
  9
$DIMALTRND
 40
0.0
  9
$DIMAZIN
 70
     2
  9
$DIMDSEP
 70
    46
  9
$DIMATFIT
 70
     3
  9
$DIMFRAC
 70
     0
  9
$DIMLDRBLK
  1

  9
$DIMLUNIT
 70
     2
  9
$DIMLWD
 70
    -2
  9
$DIMLWE
 70
    -2
  9
$DIMTMOVE
 70
     0
  9
$LUNITS
 70
     2
  9
$LUPREC
 70
     2
  9
$SKETCHINC
 40
1.0
  9
$FILLETRAD
 40
0.0
  9
$AUNITS
 70
     0
  9
$AUPREC
 70
     0
  9
$MENU
  1
ACAD
  9
$ELEVATION
 40
0.0
  9
$PELEVATION
 40
0.0
  9
$THICKNESS
 40
0.0
  9
$LIMCHECK
 70
     0
  9
$CHAMFERA
 40
0.0
  9
$CHAMFERB
 40
0.0
  9
$CHAMFERC
 40
0.0
  9
$CHAMFERD
 40
0.0
  9
$SKPOLY
 70
     0
  9
$TDCREATE
 40
2451449.458159259
  9
$TDUCREATE
 40
2451449.416492593
  9
$TDUPDATE
 40
2455554.515484410
  9
$TDUUPDATE
 40
2455554.473817743
  9
$TDINDWG
 40
0.0636715509
  9
$TDUSRTIMER
 40
0.0636715509
  9
$USRTIMER
 70
     1
  9
$ANGBASE
 50
0.0
  9
$ANGDIR
 70
     0
  9
$PDMODE
 70
     0
  9
$PDSIZE
 40
0.0
  9
$PLINEWID
 40
0.0
  9
$SPLFRAME
 70
     0
  9
$SPLINETYPE
 70
     6
  9
$SPLINESEGS
 70
     8
  9
$HANDSEED
  5
17EC
  9
$SURFTAB1
 70
     6
  9
$SURFTAB2
 70
     6
  9
$SURFTYPE
 70
     6
  9
$SURFU
 70
     6
  9
$SURFV
 70
     6
  9
$UCSBASE
  2

  9
$UCSNAME
  2

  9
$UCSORG
 10
0.0
 20
0.0
 30
0.0
  9
$UCSXDIR
 10
1.0
 20
0.0
 30
0.0
  9
$UCSYDIR
 10
0.0
 20
1.0
 30
0.0
  9
$UCSORTHOREF
  2

  9
$UCSORTHOVIEW
 70
     0
  9
$UCSORGTOP
 10
0.0
 20
0.0
 30
0.0
  9
$UCSORGBOTTOM
 10
0.0
 20
0.0
 30
0.0
  9
$UCSORGLEFT
 10
0.0
 20
0.0
 30
0.0
  9
$UCSORGRIGHT
 10
0.0
 20
0.0
 30
0.0
  9
$UCSORGFRONT
 10
0.0
 20
0.0
 30
0.0
  9
$UCSORGBACK
 10
0.0
 20
0.0
 30
0.0
  9
$PUCSBASE
  2

  9
$PUCSNAME
  2

  9
$PUCSORG
 10
0.0
 20
0.0
 30
0.0
  9
$PUCSXDIR
 10
1.0
 20
0.0
 30
0.0
  9
$PUCSYDIR
 10
0.0
 20
1.0
 30
0.0
  9
$PUCSORTHOREF
  2

  9
$PUCSORTHOVIEW
 70
     0
  9
$PUCSORGTOP
 10
0.0
 20
0.0
 30
0.0
  9
$PUCSORGBOTTOM
 10
0.0
 20
0.0
 30
0.0
  9
$PUCSORGLEFT
 10
0.0
 20
0.0
 30
0.0
  9
$PUCSORGRIGHT
 10
0.0
 20
0.0
 30
0.0
  9
$PUCSORGFRONT
 10
0.0
 20
0.0
 30
0.0
  9
$PUCSORGBACK
 10
0.0
 20
0.0
 30
0.0
  9
$USERI1
 70
     0
  9
$USERI2
 70
     0
  9
$USERI3
 70
     0
  9
$USERI4
 70
     0
  9
$USERI5
 70
     0
  9
$USERR1
 40
0.0
  9
$USERR2
 40
0.0
  9
$USERR3
 40
0.0
  9
$USERR4
 40
0.0
  9
$USERR5
 40
0.0
  9
$WORLDVIEW
 70
     1
  9
$SHADEDGE
 70
     3
  9
$SHADEDIF
 70
    70
  9
$TILEMODE
 70
     1
  9
$MAXACTVP
 70
    16
  9
$PINSBASE
 10
0.0
 20
0.0
 30
0.0
  9
$PLIMCHECK
 70
     0
  9
$PEXTMIN
 10
1.000000000000000E+20
 20
1.000000000000000E+20
 30
1.000000000000000E+20
  9
$PEXTMAX
 10
-1.000000000000000E+20
 20
-1.000000000000000E+20
 30
-1.000000000000000E+20
  9
$PLIMMIN
 10
0.0
 20
0.0
  9
$PLIMMAX
 10
12.0
 20
9.0
  9
$UNITMODE
 70
     0
  9
$VISRETAIN
 70
     0
  9
$PLINEGEN
 70
     0
  9
$PSLTSCALE
 70
     0
  9
$TREEDEPTH
 70
  3020
  9
$CMLSTYLE
  2
STANDARD
  9
$CMLJUST
 70
     0
  9
$CMLSCALE
 40
1.0
  9
$PROXYGRAPHICS
 70
     1
  9
$MEASUREMENT
 70
     0
  9
$CELWEIGHT
370
    -1
  9
$ENDCAPS
280
     0
  9
$JOINSTYLE
280
     0
  9
$LWDISPLAY
290
     0
  9
$INSUNITS
 70
     0
  9
$HYPERLINKBASE
  1

  9
$STYLESHEET
  1
monochrome 1.ctb
  9
$XEDIT
290
     1
  9
$CEPSNTYPE
380
     0
  9
$PSTYLEMODE
290
     1
  9
$FINGERPRINTGUID
  2
{16B676D3-35B7-4285-9738-D80BAB554CD9}
  9
$VERSIONGUID
  2
{A799F56E-9F10-4C44-87EF-E07359CB1081}
  9
$EXTNAMES
290
     1
  9
$PSVPSCALE
 40
0.0
  9
$OLESTARTUP
290
     0
  9
$SORTENTS
280
   127
  9
$INDEXCTL
280
     0
  9
$HIDETEXT
280
     0
  9
$XCLIPFRAME
290
     0
  9
$HALOGAP
280
     0
  9
$OBSCOLOR
 70
   257
  9
$OBSLTYPE
280
     0
  9
$INTERSECTIONDISPLAY
280
     0
  9
$INTERSECTIONCOLOR
 70
   257
  9
$DIMASSOC
280
     1
  9
$PROJECTNAME
  1

  0
ENDSEC
  0
SECTION
  2
CLASSES
  0
CLASS
  1
DICTIONARYVAR
  2
AcDbDictionaryVar
  3
ObjectDBX Classes
 90
        0
 91
        2
280
     0
281
     0
  0
CLASS
  1
ACDBDICTIONARYWDFLT
  2
AcDbDictionaryWithDefault
  3
ObjectDBX Classes
 90
        0
 91
        1
280
     0
281
     0
  0
ENDSEC
  0
SECTION
  2
TABLES
  0
TABLE
  2
VPORT
  5
12
330
0
100
AcDbSymbolTable
 70
     2
  0
VPORT
  5
17EB
330
12
100
AcDbSymbolTableRecord
100
AcDbViewportTableRecord
  2
*Active
 70
     0
 10
0.0
 20
0.0
 11
1.0
 21
1.0
 12
419.9999999999999
 22
297.0000000000001
 13
0.0
 23
0.0
 14
1.0
 24
1.0
 15
20.0
 25
20.0
 16
0.0
 26
0.0
 36
1.0
 17
0.0
 27
0.0
 37
0.0
 40
628.6458591732002
 41
1.336927223719676
 42
50.0
 43
0.0
 44
0.0
 50
0.0
 51
0.0
 71
     0
 72
  1500
 73
     1
 74
     0
 75
     0
 76
     0
 77
     0
 78
     0
281
     0
 65
     1
110
0.0
120
0.0
130
0.0
111
1.0
121
0.0
131
0.0
112
0.0
122
1.0
132
0.0
 79
     0
146
0.0
  0
ENDTAB
  0
TABLE
  2
LTYPE
  5
D
330
0
100
AcDbSymbolTable
 70
     3
  0
LTYPE
  5
E
330
D
100
AcDbSymbolTableRecord
100
AcDbLinetypeTableRecord
  2
BYBLOCK
 70
     0
  3

 72
    65
 73
     0
 40
0.0
  0
LTYPE
  5
F
330
D
100
AcDbSymbolTableRecord
100
AcDbLinetypeTableRecord
  2
BYLAYER
 70
     0
  3

 72
    65
 73
     0
 40
0.0
  0
LTYPE
  5
5
330
D
100
AcDbSymbolTableRecord
100
AcDbLinetypeTableRecord
  2
AUSGEZOGEN
 70
     0
  3
Ausgezogene Linie
 72
    65
 73
     0
 40
0.0
  0
LTYPE
  5
368
330
D
100
AcDbSymbolTableRecord
100
AcDbLinetypeTableRecord
  2
STRICHPUNKT
 70
     0
  3
__ . __ . __ . __ . __ . __ . __ . __ . __ . __
 72
    65
 73
     4
 40
1.0
 49
0.5
 74
     0
 49
-0.25
 74
     0
 49
0.0
 74
     0
 49
-0.25
 74
     0
  0
LTYPE
  5
779
330
D
100
AcDbSymbolTableRecord
100
AcDbLinetypeTableRecord
  2
CONTINUOUS
 70
     0
  3
Solid line
 72
    65
 73
     0
 40
0.0
  0
ENDTAB
  0
TABLE
  2
LAYER
  5
A
330
0
100
AcDbSymbolTable
 70
     9
  0
LAYER
  5
4
330
A
100
AcDbSymbolTableRecord
100
AcDbLayerTableRecord
  2
0
 70
     0
 62
     7
  6
AUSGEZOGEN
370
    -3
390
9BA
  0
LAYER
  5
551
330
A
100
AcDbSymbolTableRecord
100
AcDbLayerTableRecord
  2
VOLL
 70
     0
 62
     1
  6
AUSGEZOGEN
370
    -3
390
9BA
  0
LAYER
  5
22
330
A
100
AcDbSymbolTableRecord
100
AcDbLayerTableRecord
  2
HILF
 70
     0
 62
     2
  6
AUSGEZOGEN
370
    -3
390
9BA
  0
LAYER
  5
367
330
A
100
AcDbSymbolTableRecord
100
AcDbLayerTableRecord
  2
MITTEL
 70
     0
 62
     2
  6
STRICHPUNKT
370
    -3
390
9BA
  0
LAYER
  5
153
330
A
100
AcDbSymbolTableRecord
100
AcDbLayerTableRecord
  2
BEM
 70
     0
 62
     7
  6
AUSGEZOGEN
370
    -3
390
9BA
  0
LAYER
  5
20
330
A
100
AcDbSymbolTableRecord
100
AcDbLayerTableRecord
  2
STEMPEL
 70
     0
 62
     3
  6
AUSGEZOGEN
370
    -3
390
9BA
  0
LAYER
  5
522
330
A
100
AcDbSymbolTableRecord
100
AcDbLayerTableRecord
  2
TEXT
 70
     0
 62
     7
  6
AUSGEZOGEN
370
    -3
390
9BA
  0
LAYER
  5
15D
330
A
100
AcDbSymbolTableRecord
100
AcDbLayerTableRecord
  2
DEFPOINTS
 70
     0
 62
     7
  6
AUSGEZOGEN
290
     0
370
    -3
390
9BA
  0
LAYER
  5
1B
330
A
100
AcDbSymbolTableRecord
100
AcDbLayerTableRecord
  2
SCHRAFF
 70
     0
 62
     7
  6
AUSGEZOGEN
370
    -3
390
9BA
  0
ENDTAB
  0
TABLE
  2
STYLE
  5
B
330
0
100
AcDbSymbolTable
 70
     2
  0
STYLE
  5
C
330
B
100
AcDbSymbolTableRecord
100
AcDbTextStyleTableRecord
  2
STANDARD
 70
     0
 40
0.0
 41
0.8
 50
0.0
 71
     0
 42
3.5
  3
simplex.shx
  4

  0
STYLE
  5
1C
330
B
100
AcDbSymbolTableRecord
100
AcDbTextStyleTableRecord
  2
GREEKS
 70
     0
 40
0.0
 41
0.8
 50
0.0
 71
     0
 42
2.5
  3
SIMPLEX.shx
  4

  0
ENDTAB
  0
TABLE
  2
VIEW
  5
10
330
0
100
AcDbSymbolTable
 70
     0
  0
ENDTAB
  0
TABLE
  2
UCS
  5
11
330
0
100
AcDbSymbolTable
 70
     0
  0
ENDTAB
  0
TABLE
  2
APPID
  5
14
330
0
100
AcDbSymbolTable
 70
     1
  0
APPID
  5
15
330
14
100
AcDbSymbolTableRecord
100
AcDbRegAppTableRecord
  2
ACAD
 70
     0
  0
ENDTAB
  0
TABLE
  2
DIMSTYLE
  5
16
330
0
100
AcDbSymbolTable
 70
     1
100
AcDbDimStyleTable
 71
     1
340
1E
  0
DIMSTYLE
105
1E
102
{ACAD_REACTORS
330
14B7
330
14C3
330
14C4
330
14C5
330
14C6
330
165B
330
166C
102
}
330
16
100
AcDbSymbolTableRecord
100
AcDbDimStyleTableRecord
  2
STANDARD
 70
     0
 40
2.0
 41
3.5
 42
1.0
 43
7.0
 44
1.0
 73
     0
 74
     0
 77
     1
 78
     8
 79
     2
140
3.5
141
1.5
147
1.5
172
     1
178
     1
179
     2
271
     2
272
     2
284
     8
285
     8
286
     8
340
C
  0
ENDTAB
  0
TABLE
  2
BLOCK_RECORD
  5
1
330
0
100
AcDbSymbolTable
 70
     8
  0
BLOCK_RECORD
  5
2
330
1
100
AcDbSymbolTableRecord
100
AcDbBlockTableRecord
  2
*MODEL_SPACE
340
9BF
  0
BLOCK_RECORD
  5
7
330
1
100
AcDbSymbolTableRecord
100
AcDbBlockTableRecord
  2
*PAPER_SPACE
340
9C0
  0
BLOCK_RECORD
  5
556
330
1
100
AcDbSymbolTableRecord
100
AcDbBlockTableRecord
  2
LOGO
340
0
102
{BLKREFS
331
555
102
}
  0
BLOCK_RECORD
  5
14D6
330
1
100
AcDbSymbolTableRecord
100
AcDbBlockTableRecord
  2
*D1
340
0
  0
BLOCK_RECORD
  5
14E2
330
1
100
AcDbSymbolTableRecord
100
AcDbBlockTableRecord
  2
*D2
340
0
  0
BLOCK_RECORD
  5
14EE
330
1
100
AcDbSymbolTableRecord
100
AcDbBlockTableRecord
  2
*D3
340
0
  0
BLOCK_RECORD
  5
14FA
330
1
100
AcDbSymbolTableRecord
100
AcDbBlockTableRecord
  2
*D4
340
0
  0
BLOCK_RECORD
  5
1506
330
1
100
AcDbSymbolTableRecord
100
AcDbBlockTableRecord
  2
*D5
340
0
  0
BLOCK_RECORD
  5
1676
330
1
100
AcDbSymbolTableRecord
100
AcDbBlockTableRecord
  2
*D6
340
0
  0
BLOCK_RECORD
  5
1682
330
1
100
AcDbSymbolTableRecord
100
AcDbBlockTableRecord
  2
*D7
340
0
  0
ENDTAB
  0
ENDSEC
  0
SECTION
  2
BLOCKS
  0
BLOCK
  5
3
330
2
100
AcDbEntity
  8
0
100
AcDbBlockBegin
  2
*MODEL_SPACE
 70
     0
 10
0.0
 20
0.0
 30
0.0
  3
*MODEL_SPACE
  1

  0
ENDBLK
  5
6
330
2
100
AcDbEntity
  8
0
100
AcDbBlockEnd
  0
BLOCK
  5
8
330
7
100
AcDbEntity
 67
     1
  8
0
100
AcDbBlockBegin
  2
*PAPER_SPACE
 70
     0
 10
0.0
 20
0.0
 30
0.0
  3
*PAPER_SPACE
  1

  0
ENDBLK
  5
9
330
7
100
AcDbEntity
 67
     1
  8
0
100
AcDbBlockEnd
  0
BLOCK
  5
571
330
556
100
AcDbEntity
  8
0
100
AcDbBlockBegin
  2
LOGO
 70
     0
 10
0.0
 20
0.0
 30
0.0
  3
LOGO
  1

  0
ARC
  5
557
330
556
100
AcDbEntity
  8
0
100
AcDbCircle
 10
11.59973089678112
 20
-9.271599258481501
 30
0.0
 40
4.5
100
AcDbArc
 50
270.0
 51
231.0575587310159
  0
LINE
  5
558
330
556
100
AcDbEntity
  8
0
100
AcDbLine
 10
3.599730896781125
 20
-4.771599258481529
 30
0.0
 11
3.599730896781153
 21
-11.77159925848133
 31
0.0
  0
LINE
  5
559
330
556
100
AcDbEntity
  8
0
100
AcDbLine
 10
2.599730896781125
 20
-4.771599258481529
 30
0.0
 11
2.599730896781153
 21
-11.77159925848133
 31
0.0
  0
CIRCLE
  5
55A
330
556
100
AcDbEntity
  8
0
100
AcDbCircle
 10
11.59973089678112
 20
-9.271599258481501
 30
0.0
 40
3.5
  0
ARC
  5
55B
330
556
100
AcDbEntity
  8
0
100
AcDbCircle
 10
31.59973089678115
 20
-9.271599258481472
 30
0.0
 40
4.5
100
AcDbArc
 50
270.0
 51
231.0575587310182
  0
LINE
  5
55C
330
556
100
AcDbEntity
  8
0
100
AcDbLine
 10
17.59973089678112
 20
-4.771599258481472
 30
0.0
 11
17.59973089678115
 21
-13.77159925848147
 31
0.0
  0
ARC
  5
55D
330
556
100
AcDbEntity
  8
0
100
AcDbCircle
 10
22.59973089678116
 20
-7.271599258481472
 30
0.0
 40
2.5
100
AcDbArc
 50
293.1161887722295
 51
90.0
  0
CIRCLE
  5
55E
330
556
100
AcDbEntity
  8
0
100
AcDbCircle
 10
31.59973089678115
 20
-9.271599258481472
 30
0.0
 40
3.5
  0
ARC
  5
55F
330
556
100
AcDbEntity
  8
0
100
AcDbCircle
 10
4.599730896781153
 20
-11.77159925848133
 30
0.0
 40
1.0
100
AcDbArc
 50
180.0
 51
270.0
  0
ARC
  5
560
330
556
100
AcDbEntity
  8
0
100
AcDbCircle
 10
4.599730896781153
 20
-11.77159925848133
 30
0.0
 40
2.0
100
AcDbArc
 50
179.9999999999992
 51
270.0
  0
LINE
  5
561
330
556
100
AcDbEntity
  8
0
100
AcDbLine
 10
11.59973089678115
 20
-13.77159925848144
 30
0.0
 11
4.599730896781153
 21
-13.77159925848147
 31
0.0
  0
LINE
  5
562
330
556
100
AcDbEntity
  8
0
100
AcDbLine
 10
8.771303772034769
 20
-12.77159925848136
 30
0.0
 11
4.599730896781153
 21
-12.77159925848133
 31
0.0
  0
LINE
  5
563
330
556
100
AcDbEntity
  8
0
100
AcDbLine
 10
31.59973089678115
 20
-13.77159925848147
 30
0.0
 11
23.6715276665056
 21
-13.77159925848144
 31
0.0
  0
LINE
  5
564
330
556
100
AcDbEntity
  8
0
100
AcDbLine
 10
23.56565672307022
 20
-9.51278021337896
 30
0.0
 11
24.4388546544846
 21
-12.77159925848144
 31
0.0
  0
LINE
  5
565
330
556
100
AcDbEntity
  8
0
100
AcDbLine
 10
22.59973089678116
 20
-9.771599258481472
 30
0.0
 11
18.59973089678112
 21
-9.771599258481472
 31
0.0
  0
LINE
  5
566
330
556
100
AcDbEntity
  8
0
100
AcDbLine
 10
18.59973089678115
 20
-13.77159925848144
 30
0.0
 11
17.59973089678115
 21
-13.77159925848144
 31
0.0
  0
LINE
  5
567
330
556
100
AcDbEntity
  8
0
100
AcDbLine
 10
18.59973089678115
 20
-9.771599258481472
 30
0.0
 11
18.59973089678115
 21
-13.77159925848144
 31
0.0
  0
LINE
  5
568
330
556
100
AcDbEntity
  8
0
100
AcDbLine
 10
22.59973089678116
 20
-9.771599258481472
 30
0.0
 11
23.67152766650562
 21
-13.77159925848147
 31
0.0
  0
ARC
  5
569
330
556
100
AcDbEntity
  8
0
100
AcDbCircle
 10
22.59973089678116
 20
-7.271599258481472
 30
0.0
 40
2.5
100
AcDbArc
 50
270.0
 51
270.0000000000007
  0
LINE
  5
56A
330
556
100
AcDbEntity
  8
0
100
AcDbLine
 10
28.77130377203494
 20
-12.77159925848147
 30
0.0
 11
24.43885465448463
 21
-12.77159925848144
 31
0.0
  0
LINE
  5
56B
330
556
100
AcDbEntity
  8
0
100
AcDbLine
 10
3.599730896781125
 20
-4.771599258481472
 30
0.0
 11
2.599730896781125
 21
-4.771599258481472
 31
0.0
  0
LINE
  5
56C
330
556
100
AcDbEntity
  8
0
100
AcDbLine
 10
22.59973089678116
 20
-8.771599258481472
 30
0.0
 11
18.59973089678115
 21
-8.771599258481472
 31
0.0
  0
LINE
  5
56D
330
556
100
AcDbEntity
  8
0
100
AcDbLine
 10
22.59973089678116
 20
-5.771599258481472
 30
0.0
 11
18.59973089678115
 21
-5.771599258481472
 31
0.0
  0
LINE
  5
56E
330
556
100
AcDbEntity
  8
0
100
AcDbLine
 10
22.59973089678116
 20
-4.771599258481472
 30
0.0
 11
17.59973089678115
 21
-4.771599258481472
 31
0.0
  0
LINE
  5
56F
330
556
100
AcDbEntity
  8
0
100
AcDbLine
 10
18.59973089678115
 20
-5.771599258481472
 30
0.0
 11
18.59973089678115
 21
-8.771599258481472
 31
0.0
  0
ARC
  5
570
330
556
100
AcDbEntity
  8
0
100
AcDbCircle
 10
22.59973089678116
 20
-7.271599258481472
 30
0.0
 40
1.5
100
AcDbArc
 50
270.0
 51
90.0
  0
ENDBLK
  5
572
330
556
100
AcDbEntity
  8
0
100
AcDbBlockEnd
  0
BLOCK
  5
14E0
330
14D6
100
AcDbEntity
  8
0
100
AcDbBlockBegin
  2
*D1
 70
     1
 10
0.0
 20
0.0
 30
0.0
  3
*D1
  1

  0
LINE
  5
16D5
330
14D6
100
AcDbEntity
  8
BEM
 62
     0
370
    -2
100
AcDbLine
 10
370.2466451776529
 20
207.3359829922073
 30
0.0
 11
235.2357719785376
 21
207.3359829922074
 31
0.0
  0
LINE
  5
16D6
330
14D6
100
AcDbEntity
  8
BEM
 62
     0
370
    -2
100
AcDbLine
 10
254.9343152247641
 20
477.3359829922073
 30
0.0
 11
235.2357719785376
 21
477.3359829922073
 31
0.0
  0
LINE
  5
16D7
330
14D6
100
AcDbEntity
  8
BEM
 62
     0
370
    -2
100
AcDbLine
 10
237.2357719785376
 20
214.3359829922073
 30
0.0
 11
237.2357719785376
 21
470.3359829922073
 31
0.0
  0
SOLID
  5
16D8
330
14D6
100
AcDbEntity
  8
BEM
 62
     0
100
AcDbTrace
 10
236.0691053118709
 20
214.3359829922073
 30
0.0
 11
238.4024386452042
 21
214.3359829922073
 31
0.0
 12
237.2357719785376
 22
207.3359829922074
 32
0.0
 13
237.2357719785376
 23
207.3359829922074
 33
0.0
  0
SOLID
  5
16D9
330
14D6
100
AcDbEntity
  8
BEM
 62
     0
100
AcDbTrace
 10
236.069105311871
 20
470.3359829922073
 30
0.0
 11
238.4024386452043
 21
470.3359829922073
 31
0.0
 12
237.2357719785376
 22
477.3359829922073
 32
0.0
 13
237.2357719785376
 23
477.3359829922073
 33
0.0
  0
MTEXT
  5
16DA
330
14D6
100
AcDbEntity
  8
BEM
 62
     1
100
AcDbMText
 10
230.7357719785375
 20
342.3359829922074
 30
0.0
 40
7.0
 41
0.0
 71
     5
 72
     1
  1
\A1;270
 11
0.0000000000000001
 21
1.0
 31
0.0
 73
     1
 44
1.0
  0
POINT
  5
16DB
330
14D6
100
AcDbEntity
  8
DEFPOINTS
 62
     0
100
AcDbPoint
 10
372.2466451776529
 20
207.3359829922073
 30
0.0
  0
POINT
  5
16DC
330
14D6
100
AcDbEntity
  8
DEFPOINTS
 62
     0
100
AcDbPoint
 10
256.9343152247641
 20
477.3359829922073
 30
0.0
  0
POINT
  5
16DD
330
14D6
100
AcDbEntity
  8
DEFPOINTS
 62
     0
100
AcDbPoint
 10
237.2357719785376
 20
477.3359829922073
 30
0.0
  0
ENDBLK
  5
14E1
330
14D6
100
AcDbEntity
  8
0
100
AcDbBlockEnd
  0
BLOCK
  5
14EC
330
14E2
100
AcDbEntity
  8
0
100
AcDbBlockBegin
  2
*D2
 70
     1
 10
0.0
 20
0.0
 30
0.0
  3
*D2
  1

  0
LINE
  5
16CA
330
14E2
100
AcDbEntity
  8
BEM
 62
     0
370
    -2
100
AcDbLine
 10
370.9343152247641
 20
220.3359829922074
 30
0.0
 11
370.9343152247641
 21
184.565961041589
 31
0.0
  0
LINE
  5
16CB
330
14E2
100
AcDbEntity
  8
BEM
 62
     0
370
    -2
100
AcDbLine
 10
472.9343152247641
 20
220.3359829922077
 30
0.0
 11
472.9343152247641
 21
184.565961041589
 31
0.0
  0
LINE
  5
16CC
330
14E2
100
AcDbEntity
  8
BEM
 62
     0
370
    -2
100
AcDbLine
 10
377.9343152247641
 20
186.565961041589
 30
0.0
 11
465.9343152247641
 21
186.565961041589
 31
0.0
  0
SOLID
  5
16CD
330
14E2
100
AcDbEntity
  8
BEM
 62
     0
100
AcDbTrace
 10
377.9343152247641
 20
187.7326277082557
 30
0.0
 11
377.9343152247641
 21
185.3992943749224
 31
0.0
 12
370.9343152247641
 22
186.565961041589
 32
0.0
 13
370.9343152247641
 23
186.565961041589
 33
0.0
  0
SOLID
  5
16CE
330
14E2
100
AcDbEntity
  8
BEM
 62
     0
100
AcDbTrace
 10
465.9343152247641
 20
187.7326277082557
 30
0.0
 11
465.9343152247641
 21
185.3992943749224
 31
0.0
 12
472.9343152247641
 22
186.565961041589
 32
0.0
 13
472.9343152247641
 23
186.565961041589
 33
0.0
  0
MTEXT
  5
16CF
330
14E2
100
AcDbEntity
  8
BEM
 62
     1
100
AcDbMText
 10
421.934315224764
 20
193.065961041589
 30
0.0
 40
7.0
 41
0.0
 71
     5
 72
     1
  1
\A1;%%c102
 73
     1
 44
1.0
  0
POINT
  5
16D0
330
14E2
100
AcDbEntity
  8
DEFPOINTS
 62
     0
100
AcDbPoint
 10
370.9343152247641
 20
222.3359829922074
 30
0.0
  0
POINT
  5
16D1
330
14E2
100
AcDbEntity
  8
DEFPOINTS
 62
     0
100
AcDbPoint
 10
472.9343152247641
 20
222.3359829922077
 30
0.0
  0
POINT
  5
16D2
330
14E2
100
AcDbEntity
  8
DEFPOINTS
 62
     0
100
AcDbPoint
 10
472.9343152247641
 20
186.565961041589
 30
0.0
  0
ENDBLK
  5
14ED
330
14E2
100
AcDbEntity
  8
0
100
AcDbBlockEnd
  0
BLOCK
  5
14F8
330
14EE
100
AcDbEntity
  8
0
100
AcDbBlockBegin
  2
*D3
 70
     1
 10
0.0
 20
0.0
 30
0.0
  3
*D3
  1

  0
LINE
  5
1539
330
14EE
100
AcDbEntity
  8
BEM
 62
     0
370
    -2
100
AcDbLine
 10
256.9343152247641
 20
479.3359829922073
 30
0.0
 11
256.9343152247641
 21
518.3359829922074
 31
0.0
  0
LINE
  5
153A
330
14EE
100
AcDbEntity
  8
BEM
 62
     0
370
    -2
100
AcDbLine
 10
586.934315224764
 20
479.3359829922073
 30
0.0
 11
586.934315224764
 21
518.3359829922074
 31
0.0
  0
LINE
  5
153B
330
14EE
100
AcDbEntity
  8
BEM
 62
     0
370
    -2
100
AcDbLine
 10
263.9343152247641
 20
516.3359829922073
 30
0.0
 11
579.934315224764
 21
516.3359829922073
 31
0.0
  0
SOLID
  5
153C
330
14EE
100
AcDbEntity
  8
BEM
 62
     0
100
AcDbTrace
 10
263.9343152247641
 20
517.502649658874
 30
0.0
 11
263.9343152247641
 21
515.1693163255408
 31
0.0
 12
256.9343152247641
 22
516.3359829922073
 32
0.0
 13
256.9343152247641
 23
516.3359829922073
 33
0.0
  0
SOLID
  5
153D
330
14EE
100
AcDbEntity
  8
BEM
 62
     0
100
AcDbTrace
 10
579.934315224764
 20
517.502649658874
 30
0.0
 11
579.934315224764
 21
515.1693163255408
 31
0.0
 12
586.934315224764
 22
516.3359829922073
 32
0.0
 13
586.934315224764
 23
516.3359829922073
 33
0.0
  0
MTEXT
  5
153E
330
14EE
100
AcDbEntity
  8
BEM
 62
     1
100
AcDbMText
 10
421.934315224764
 20
522.8359829922074
 30
0.0
 40
7.0
 41
0.0
 71
     5
 72
     1
  1
\A1;%%c330
 73
     1
 44
1.0
  0
POINT
  5
153F
330
14EE
100
AcDbEntity
  8
DEFPOINTS
 62
     0
100
AcDbPoint
 10
256.9343152247641
 20
477.3359829922073
 30
0.0
  0
POINT
  5
1540
330
14EE
100
AcDbEntity
  8
DEFPOINTS
 62
     0
100
AcDbPoint
 10
586.934315224764
 20
477.3359829922073
 30
0.0
  0
POINT
  5
1541
330
14EE
100
AcDbEntity
  8
DEFPOINTS
 62
     0
100
AcDbPoint
 10
586.934315224764
 20
516.3359829922073
 30
0.0
  0
ENDBLK
  5
14F9
330
14EE
100
AcDbEntity
  8
0
100
AcDbBlockEnd
  0
BLOCK
  5
1504
330
14FA
100
AcDbEntity
  8
0
100
AcDbBlockBegin
  2
*D4
 70
     1
 10
0.0
 20
0.0
 30
0.0
  3
*D4
  1

  0
LINE
  5
1542
330
14FA
100
AcDbEntity
  8
BEM
 62
     0
370
    -2
100
AcDbLine
 10
516.9343152247639
 20
477.3359829922083
 30
0.0
 11
516.9343152247639
 21
502.3359829922073
 31
0.0
  0
LINE
  5
1543
330
14FA
100
AcDbEntity
  8
BEM
 62
     0
370
    -2
100
AcDbLine
 10
326.934315224764
 20
477.3359829922083
 30
0.0
 11
326.934315224764
 21
502.3359829922073
 31
0.0
  0
LINE
  5
1544
330
14FA
100
AcDbEntity
  8
BEM
 62
     0
370
    -2
100
AcDbLine
 10
509.9343152247639
 20
500.3359829922073
 30
0.0
 11
333.934315224764
 21
500.3359829922073
 31
0.0
  0
SOLID
  5
1545
330
14FA
100
AcDbEntity
  8
BEM
 62
     0
100
AcDbTrace
 10
509.9343152247639
 20
501.502649658874
 30
0.0
 11
509.9343152247639
 21
499.1693163255406
 31
0.0
 12
516.9343152247639
 22
500.3359829922073
 32
0.0
 13
516.9343152247639
 23
500.3359829922073
 33
0.0
  0
SOLID
  5
1546
330
14FA
100
AcDbEntity
  8
BEM
 62
     0
100
AcDbTrace
 10
333.934315224764
 20
501.502649658874
 30
0.0
 11
333.934315224764
 21
499.1693163255406
 31
0.0
 12
326.934315224764
 22
500.3359829922073
 32
0.0
 13
326.934315224764
 23
500.3359829922073
 33
0.0
  0
MTEXT
  5
1547
330
14FA
100
AcDbEntity
  8
BEM
 62
     1
100
AcDbMText
 10
421.9343152247639
 20
506.8359829922073
 30
0.0
 40
7.0
 41
0.0
 71
     5
 72
     1
  1
\A1;%%c190
 73
     1
 44
1.0
  0
POINT
  5
1548
330
14FA
100
AcDbEntity
  8
DEFPOINTS
 62
     0
100
AcDbPoint
 10
516.9343152247639
 20
475.3359829922082
 30
0.0
  0
POINT
  5
1549
330
14FA
100
AcDbEntity
  8
DEFPOINTS
 62
     0
100
AcDbPoint
 10
326.934315224764
 20
475.3359829922082
 30
0.0
  0
POINT
  5
154A
330
14FA
100
AcDbEntity
  8
DEFPOINTS
 62
     0
100
AcDbPoint
 10
326.934315224764
 20
500.3359829922073
 30
0.0
  0
ENDBLK
  5
1505
330
14FA
100
AcDbEntity
  8
0
100
AcDbBlockEnd
  0
BLOCK
  5
1510
330
1506
100
AcDbEntity
  8
0
100
AcDbBlockBegin
  2
*D5
 70
     1
 10
0.0
 20
0.0
 30
0.0
  3
*D5
  1

  0
LINE
  5
154B
330
1506
100
AcDbEntity
  8
BEM
 62
     0
370
    -2
100
AcDbLine
 10
171.9343152247641
 20
482.3359829922073
 30
0.0
 11
171.9343152247641
 21
535.3339873695638
 31
0.0
  0
LINE
  5
154C
330
1506
100
AcDbEntity
  8
BEM
 62
     0
370
    -2
100
AcDbLine
 10
671.934315224764
 20
482.3359829922073
 30
0.0
 11
671.934315224764
 21
535.3339873695638
 31
0.0
  0
LINE
  5
154D
330
1506
100
AcDbEntity
  8
BEM
 62
     0
370
    -2
100
AcDbLine
 10
178.9343152247641
 20
533.3339873695638
 30
0.0
 11
664.9343152247641
 21
533.3339873695638
 31
0.0
  0
SOLID
  5
154E
330
1506
100
AcDbEntity
  8
BEM
 62
     0
100
AcDbTrace
 10
178.9343152247641
 20
534.5006540362304
 30
0.0
 11
178.9343152247641
 21
532.1673207028972
 31
0.0
 12
171.9343152247641
 22
533.3339873695638
 32
0.0
 13
171.9343152247641
 23
533.3339873695638
 33
0.0
  0
SOLID
  5
154F
330
1506
100
AcDbEntity
  8
BEM
 62
     0
100
AcDbTrace
 10
664.9343152247641
 20
534.5006540362304
 30
0.0
 11
664.9343152247641
 21
532.1673207028972
 31
0.0
 12
671.934315224764
 22
533.3339873695638
 32
0.0
 13
671.934315224764
 23
533.3339873695638
 33
0.0
  0
MTEXT
  5
1550
330
1506
100
AcDbEntity
  8
BEM
 62
     1
100
AcDbMText
 10
425.7930179039012
 20
539.8339873695638
 30
0.0
 40
7.0
 41
0.0
 71
     5
 72
     1
  1
\A1;500
 73
     1
 44
1.0
  0
POINT
  5
1551
330
1506
100
AcDbEntity
  8
DEFPOINTS
 62
     0
100
AcDbPoint
 10
171.9343152247641
 20
480.3359829922073
 30
0.0
  0
POINT
  5
1552
330
1506
100
AcDbEntity
  8
DEFPOINTS
 62
     0
100
AcDbPoint
 10
671.934315224764
 20
480.3359829922073
 30
0.0
  0
POINT
  5
1553
330
1506
100
AcDbEntity
  8
DEFPOINTS
 62
     0
100
AcDbPoint
 10
671.934315224764
 20
533.3339873695638
 30
0.0
  0
ENDBLK
  5
1511
330
1506
100
AcDbEntity
  8
0
100
AcDbBlockEnd
  0
BLOCK
  5
1680
330
1676
100
AcDbEntity
  8
0
100
AcDbBlockBegin
  2
*D6
 70
     1
 10
0.0
 20
0.0
 30
0.0
  3
*D6
  1

  0
LINE
  5
168E
330
1676
100
AcDbEntity
  8
BEM
 62
     0
370
    -2
100
AcDbLine
 10
341.9343152247642
 20
313.3359829922081
 30
0.0
 11
341.9343152247642
 21
169.2629436683566
 31
0.0
  0
LINE
  5
168F
330
1676
100
AcDbEntity
  8
BEM
 62
     0
370
    -2
100
AcDbLine
 10
501.934315224764
 20
313.3359829922075
 30
0.0
 11
501.934315224764
 21
169.2629436683566
 31
0.0
  0
LINE
  5
1690
330
1676
100
AcDbEntity
  8
BEM
 62
     0
370
    -2
100
AcDbLine
 10
348.9343152247641
 20
171.2629436683566
 30
0.0
 11
494.934315224764
 21
171.2629436683566
 31
0.0
  0
SOLID
  5
1691
330
1676
100
AcDbEntity
  8
BEM
 62
     0
100
AcDbTrace
 10
348.9343152247641
 20
172.4296103350233
 30
0.0
 11
348.9343152247641
 21
170.0962770016899
 31
0.0
 12
341.9343152247642
 22
171.2629436683566
 32
0.0
 13
341.9343152247642
 23
171.2629436683566
 33
0.0
  0
SOLID
  5
1692
330
1676
100
AcDbEntity
  8
BEM
 62
     0
100
AcDbTrace
 10
494.934315224764
 20
172.4296103350233
 30
0.0
 11
494.934315224764
 21
170.0962770016899
 31
0.0
 12
501.934315224764
 22
171.2629436683566
 32
0.0
 13
501.934315224764
 23
171.2629436683566
 33
0.0
  0
MTEXT
  5
1693
330
1676
100
AcDbEntity
  8
BEM
 62
     1
100
AcDbMText
 10
421.934315224764
 20
177.7629436683566
 30
0.0
 40
7.0
 41
0.0
 71
     5
 72
     1
  1
\A1;%%c160
 73
     1
 44
1.0
  0
POINT
  5
1694
330
1676
100
AcDbEntity
  8
DEFPOINTS
 62
     0
100
AcDbPoint
 10
341.9343152247642
 20
315.3359829922081
 30
0.0
  0
POINT
  5
1695
330
1676
100
AcDbEntity
  8
DEFPOINTS
 62
     0
100
AcDbPoint
 10
501.934315224764
 20
315.3359829922075
 30
0.0
  0
POINT
  5
1696
330
1676
100
AcDbEntity
  8
DEFPOINTS
 62
     0
100
AcDbPoint
 10
501.934315224764
 20
171.2629436683566
 30
0.0
  0
ENDBLK
  5
1681
330
1676
100
AcDbEntity
  8
0
100
AcDbBlockEnd
  0
BLOCK
  5
168C
330
1682
100
AcDbEntity
  8
0
100
AcDbBlockBegin
  2
*D7
 70
     1
 10
0.0
 20
0.0
 30
0.0
  3
*D7
  1

  0
LINE
  5
1697
330
1682
100
AcDbEntity
  8
BEM
 62
     0
370
    -2
100
AcDbLine
 10
254.9343152247639
 20
475.3359829922073
 30
0.0
 11
249.4841275285895
 21
475.3359829922073
 31
0.0
  0
LINE
  5
1698
330
1682
100
AcDbEntity
  8
BEM
 62
     0
370
    -2
100
AcDbLine
 10
339.9343152247642
 20
315.3359829922081
 30
0.0
 11
249.4841275285894
 21
315.3359829922081
 31
0.0
  0
LINE
  5
1699
330
1682
100
AcDbEntity
  8
BEM
 62
     0
370
    -2
100
AcDbLine
 10
251.4841275285895
 20
468.3359829922073
 30
0.0
 11
251.4841275285895
 21
322.3359829922082
 31
0.0
  0
SOLID
  5
169A
330
1682
100
AcDbEntity
  8
BEM
 62
     0
100
AcDbTrace
 10
250.3174608619228
 20
468.3359829922073
 30
0.0
 11
252.6507941952561
 21
468.3359829922073
 31
0.0
 12
251.4841275285895
 22
475.3359829922073
 32
0.0
 13
251.4841275285895
 23
475.3359829922073
 33
0.0
  0
SOLID
  5
169B
330
1682
100
AcDbEntity
  8
BEM
 62
     0
100
AcDbTrace
 10
250.3174608619228
 20
322.3359829922082
 30
0.0
 11
252.6507941952561
 21
322.3359829922082
 31
0.0
 12
251.4841275285894
 22
315.3359829922081
 32
0.0
 13
251.4841275285894
 23
315.3359829922081
 33
0.0
  0
MTEXT
  5
169C
330
1682
100
AcDbEntity
  8
BEM
 62
     1
100
AcDbMText
 10
244.9841275285894
 20
395.3359829922078
 30
0.0
 40
7.0
 41
0.0
 71
     5
 72
     1
  1
\A1;160
 11
0.0000000000000001
 21
1.0
 31
0.0
 73
     1
 44
1.0
  0
POINT
  5
169D
330
1682
100
AcDbEntity
  8
DEFPOINTS
 62
     0
100
AcDbPoint
 10
256.9343152247639
 20
475.3359829922073
 30
0.0
  0
POINT
  5
169E
330
1682
100
AcDbEntity
  8
DEFPOINTS
 62
     0
100
AcDbPoint
 10
341.9343152247642
 20
315.3359829922081
 30
0.0
  0
POINT
  5
169F
330
1682
100
AcDbEntity
  8
DEFPOINTS
 62
     0
100
AcDbPoint
 10
251.4841275285894
 20
315.3359829922081
 30
0.0
  0
ENDBLK
  5
168D
330
1682
100
AcDbEntity
  8
0
100
AcDbBlockEnd
  0
ENDSEC
  0
SECTION
  2
ENTITIES
  0
LINE
  5
10C
330
2
100
AcDbEntity
  8
HILF
100
AcDbLine
 10
839.9999999999998
 20
594.0000000000002
 30
0.0
 11
-0.0000000000001705
 21
593.9999999999997
 31
0.0
  0
LINE
  5
10D
330
2
100
AcDbEntity
  8
STEMPEL
100
AcDbLine
 10
830.0
 20
584.0
 30
0.0
 11
39.99999999999989
 21
584.0
 31
0.0
  0
LINE
  5
18C
330
2
100
AcDbEntity
  8
HILF
100
AcDbLine
 10
840.0
 20
0.0
 30
0.0
 11
0.0
 21
0.0
 31
0.0
  0
LINE
  5
18D
330
2
100
AcDbEntity
  8
STEMPEL
100
AcDbLine
 10
830.0
 20
10.0
 30
0.0
 11
40.0
 21
10.0
 31
0.0
  0
LINE
  5
369
330
2
100
AcDbEntity
  8
STEMPEL
100
AcDbLine
 10
40.0
 20
10.0
 30
0.0
 11
39.99999999999989
 21
584.0
 31
0.0
  0
LINE
  5
36A
330
2
100
AcDbEntity
  8
HILF
100
AcDbLine
 10
0.0
 20
0.0
 30
0.0
 11
-0.0000000000001705
 21
593.9999999999997
 31
0.0
  0
LINE
  5
36E
330
2
100
AcDbEntity
  8
HILF
100
AcDbLine
 10
31.08767135713851
 20
296.9999999999999
 30
0.0
 11
0.0000000000000568
 21
296.9999999999999
 31
0.0
  0
LINE
  5
527
330
2
100
AcDbEntity
  8
HILF
100
AcDbLine
 10
840.0
 20
-0.0000000000001137
 30
0.0
 11
839.9999999999998
 21
594.0
 31
0.0
  0
LINE
  5
528
330
2
100
AcDbEntity
  8
STEMPEL
100
AcDbLine
 10
830.0
 20
110.0
 30
0.0
 11
830.0
 21
584.0
 31
0.0
  0
LINE
  5
531
330
2
100
AcDbEntity
  8
STEMPEL
100
AcDbLine
 10
830.0
 20
110.0
 30
0.0
 11
470.0
 21
110.0
 31
0.0
  0
TEXT
  5
534
330
2
100
AcDbEntity
  8
TEXT
 62
     1
100
AcDbText
 10
655.33119410276
 20
87.41748789253779
 30
0.0
 40
7.0
  1
Flachdachablauf DN100
 41
0.75
  7
GREEKS
100
AcDbText
  0
LINE
  5
535
330
2
100
AcDbEntity
  8
HILF
100
AcDbLine
 10
654.7736801096947
 20
69.99999999999994
 30
0.0
 11
744.8353916556309
 21
69.99999999999994
 31
0.0
  0
LINE
  5
536
330
2
100
AcDbEntity
  8
HILF
100
AcDbLine
 10
654.7736801096947
 20
84.03758247564139
 30
0.0
 11
744.835391655631
 21
84.03758247564139
 31
0.0
  0
TEXT
  5
537
330
2
100
AcDbEntity
  8
TEXT
100
AcDbText
 10
655.1296391125315
 20
71.50334417585288
 30
0.0
 40
5.0
  1
Grundeinheit, senkrecht mit
 41
0.8
  7
GREEKS
100
AcDbText
  0
TEXT
  5
538
330
2
100
AcDbEntity
  8
TEXT
100
AcDbText
 10
654.8779403809009
 20
102.5489328011779
 30
0.0
 40
5.0
  1
Benennung
 41
0.8
  7
GREEKS
100
AcDbText
  0
LINE
  5
539
330
2
100
AcDbEntity
  8
HILF
100
AcDbLine
 10
654.7736801096947
 20
49.99999999999997
 30
0.0
 11
744.8353916556309
 21
49.99999999999997
 31
0.0
  0
LINE
  5
53A
330
2
100
AcDbEntity
  8
HILF
100
AcDbLine
 10
654.7736801096947
 20
59.99999999999997
 30
0.0
 11
744.8353916556309
 21
59.99999999999997
 31
0.0
  0
TEXT
  5
53B
330
2
100
AcDbEntity
  8
TEXT
100
AcDbText
 10
654.7422383911359
 20
30.84560570193057
 30
0.0
 40
5.0
  1
Bauvorhaben
 41
0.8
  7
GREEKS
100
AcDbText
  0
TEXT
  5
53C
330
2
100
AcDbEntity
  8
TEXT
100
AcDbText
 10
655.1296391125315
 20
51.64011943042158
 30
0.0
 40
5.0
  1
EDV-Art.Nr. 17500.100A
 41
0.8
  7
GREEKS
100
AcDbText
  0
TEXT
  5
53D
330
2
100
AcDbEntity
  8
TEXT
100
AcDbText
 10
654.9837501577826
 20
42.62974153022632
 30
0.0
 40
4.0
  1
17500100W.DWG
 41
0.8
  7
GREEKS
100
AcDbText
  0
LINE
  5
53F
330
2
100
AcDbEntity
  8
HILF
100
AcDbLine
 10
653.4909699289885
 20
14.89398258028314
 30
0.0
 11
824.8588839326728
 21
14.89398258028314
 31
0.0
  0
LINE
  5
540
330
2
100
AcDbEntity
  8
STEMPEL
100
AcDbLine
 10
479.9999999999998
 20
10.0
 30
0.0
 11
830.0
 21
10.0
 31
0.0
  0
LINE
  5
541
330
2
100
AcDbEntity
  8
STEMPEL
100
AcDbLine
 10
830.0
 20
80.0
 30
0.0
 11
566.0000000000001
 21
79.99999999999994
 31
0.0
  0
LINE
  5
542
330
2
100
AcDbEntity
  8
STEMPEL
100
AcDbLine
 10
830.0
 20
40.0
 30
0.0
 11
566.0000000000001
 21
39.99999999999997
 31
0.0
  0
TEXT
  5
543
330
2
100
AcDbEntity
  8
TEXT
100
AcDbText
 10
548.7163513630332
 20
18.59324216966408
 30
0.0
 40
4.0
  1
Name
 41
0.8
  7
GREEKS
 72
     1
 11
555.0401608868427
 21
18.59324216966408
 31
0.0
100
AcDbText
  0
LINE
  5
544
330
2
100
AcDbEntity
  8
HILF
100
AcDbLine
 10
470.0000000000001
 20
39.99999999999997
 30
0.0
 11
566.0000000000001
 21
39.99999999999997
 31
0.0
  0
LINE
  5
545
330
2
100
AcDbEntity
  8
HILF
100
AcDbLine
 10
470.0000000000001
 20
49.99999999999997
 30
0.0
 11
566.0000000000001
 21
49.99999999999997
 31
0.0
  0
LINE
  5
546
330
2
100
AcDbEntity
  8
HILF
100
AcDbLine
 10
470.0000000000001
 20
59.99999999999997
 30
0.0
 11
566.0000000000001
 21
59.99999999999997
 31
0.0
  0
LINE
  5
547
330
2
100
AcDbEntity
  8
HILF
100
AcDbLine
 10
470.0000000000001
 20
69.99999999999994
 30
0.0
 11
566.0000000000001
 21
69.99999999999994
 31
0.0
  0
LINE
  5
548
330
2
100
AcDbEntity
  8
HILF
100
AcDbLine
 10
470.0000000000001
 20
79.99999999999994
 30
0.0
 11
566.0000000000001
 21
79.99999999999994
 31
0.0
  0
LINE
  5
549
330
2
100
AcDbEntity
  8
HILF
100
AcDbLine
 10
470.0000000000001
 20
90.00000000000005
 30
0.0
 11
566.0000000000001
 21
90.00000000000005
 31
0.0
  0
LINE
  5
54A
330
2
100
AcDbEntity
  8
HILF
100
AcDbLine
 10
470.0000000000001
 20
100.0
 30
0.0
 11
566.0000000000001
 21
100.0
 31
0.0
  0
LINE
  5
54B
330
2
100
AcDbEntity
  8
STEMPEL
100
AcDbLine
 10
565.9999999999999
 20
29.99999999999997
 30
0.0
 11
470.0
 21
29.99999999999997
 31
0.0
  0
TEXT
  5
54C
330
2
100
AcDbEntity
  8
TEXT
100
AcDbText
 10
529.9471096443442
 20
18.6715626933981
 30
0.0
 40
4.0
  1
Tag
 41
0.8
  7
GREEKS
 72
     1
 11
533.6804429776775
 21
18.6715626933981
 31
0.0
100
AcDbText
  0
TEXT
  5
54D
330
2
100
AcDbEntity
  8
TEXT
100
AcDbText
 10
490.9978317368486
 20
18.67381894984132
 30
0.0
 40
4.0
  1
Änderung
 41
0.8
  7
GREEKS
 72
     1
 11
501.7406888797057
 21
18.67381894984132
 31
0.0
100
AcDbText
  0
TEXT
  5
54E
330
2
100
AcDbEntity
  8
TEXT
100
AcDbText
 10
478.2664110704575
 20
13.65465846027192
 30
0.0
 40
4.0
  1
Index
 50
90.0
 41
0.8
  7
GREEKS
100
AcDbText
  0
LINE
  5
54F
330
2
100
AcDbEntity
  8
STEMPEL
100
AcDbLine
 10
470.0
 20
10.0
 30
0.0
 11
470.0
 21
110.0
 31
0.0
  0
LINE
  5
550
330
2
100
AcDbEntity
  8
VOLL
100
AcDbLine
 10
544.0000000000001
 20
109.9999999999999
 30
0.0
 11
544.0
 21
9.999999999999971
 31
0.0
  0
LINE
  5
552
330
2
100
AcDbEntity
  8
VOLL
100
AcDbLine
 10
524.0000000000001
 20
109.9999999999999
 30
0.0
 11
524.0
 21
9.999999999999971
 31
0.0
  0
LINE
  5
553
330
2
100
AcDbEntity
  8
VOLL
100
AcDbLine
 10
484.0000000000001
 20
110.0
 30
0.0
 11
484.0
 21
9.999999999999971
 31
0.0
  0
LINE
  5
554
330
2
100
AcDbEntity
  8
HILF
 62
     7
100
AcDbLine
 10
460.0
 20
-0.0000000000002824
 30
0.0
 11
460.0
 21
10.0
 31
0.0
  0
INSERT
  5
555
330
2
100
AcDbEntity
  8
STEMPEL
100
AcDbBlockReference
  2
LOGO
 10
570.9955485457794
 20
45.02105276448322
 30
0.0
 41
2.0
 42
2.0
 43
2.0
  0
LINE
  5
573
330
2
100
AcDbEntity
  8
STEMPEL
100
AcDbLine
 10
566.0000000000001
 20
109.9999999999999
 30
0.0
 11
566.0
 21
9.999999999999971
 31
0.0
  0
LINE
  5
574
330
2
100
AcDbEntity
  8
STEMPEL
100
AcDbLine
 10
650.0
 20
110.0
 30
0.0
 11
650.0
 21
9.999999999999971
 31
0.0
  0
TEXT
  5
575
330
2
100
AcDbEntity
  8
TEXT
100
AcDbText
 10
612.8030600190664
 20
87.83492969601054
 30
0.0
 40
4.0
  1
DIN EN1123-2
 41
0.8
  7
GREEKS
100
AcDbText
  0
TEXT
  5
576
330
2
100
AcDbEntity
  8
TEXT
100
AcDbText
 10
614.2858954734052
 20
102.4184168434819
 30
0.0
 40
5.0
  1
Zul. Abw.
 41
0.8
  7
GREEKS
100
AcDbText
  0
LINE
  5
577
330
2
100
AcDbEntity
  8
HILF
100
AcDbLine
 10
566.0000000000001
 20
49.99999999999997
 30
0.0
 11
650.0
 21
49.99999999999997
 31
0.0
  0
LINE
  5
578
330
2
100
AcDbEntity
  8
HILF
100
AcDbLine
 10
566.0000000000001
 20
59.99999999999997
 30
0.0
 11
650.0
 21
59.99999999999997
 31
0.0
  0
LINE
  5
579
330
2
100
AcDbEntity
  8
HILF
100
AcDbLine
 10
566.0000000000001
 20
69.99999999999994
 30
0.0
 11
650.0
 21
69.99999999999994
 31
0.0
  0
TEXT
  5
57A
330
2
100
AcDbEntity
  8
TEXT
100
AcDbText
 10
590.703759012998
 20
63.10765040825732
 30
0.0
 40
4.0
  1
23.12.
 41
0.8
  7
GREEKS
 72
     1
 11
597.4085209177599
 21
63.10765040825732
 31
0.0
100
AcDbText
  0
TEXT
  5
57B
330
2
100
AcDbEntity
  8
TEXT
100
AcDbText
 10
567.5836127167615
 20
63.62990369617964
 30
0.0
 40
4.0
  1
Gez.
 41
0.8
  7
GREEKS
100
AcDbText
  0
LINE
  5
57C
330
2
100
AcDbEntity
  8
VOLL
100
AcDbLine
 10
584.0000000000001
 20
79.99999999999994
 30
0.0
 11
584.0000000000001
 21
39.99999999999997
 31
0.0
  0
LINE
  5
57D
330
2
100
AcDbEntity
  8
VOLL
100
AcDbLine
 10
610.0000000000001
 20
109.9999999999998
 30
0.0
 11
610.0
 21
39.99999999999997
 31
0.0
  0
TEXT
  5
57E
330
2
100
AcDbEntity
  8
TEXT
100
AcDbText
 10
567.5515086571672
 20
53.68926291428377
 30
0.0
 40
4.0
  1
Gepr.
 41
0.8
  7
GREEKS
100
AcDbText
  0
TEXT
  5
57F
330
2
100
AcDbEntity
  8
TEXT
100
AcDbText
 10
567.6006777387303
 20
43.52946389649807
 30
0.0
 40
4.0
  1
Norm.
 41
0.8
  7
GREEKS
100
AcDbText
  0
TEXT
  5
580
330
2
100
AcDbEntity
  8
TEXT
 62
     1
100
AcDbText
 10
580.5006306481886
 20
88.14901428913959
 30
0.0
 40
7.0
  1
1:2
 41
0.8
  7
GREEKS
100
AcDbText
  0
TEXT
  5
581
330
2
100
AcDbEntity
  8
TEXT
100
AcDbText
 10
573.5163572150376
 20
102.4620895087088
 30
0.0
 40
5.0
  1
Maßstab
 41
0.8
  7
GREEKS
100
AcDbText
  0
TEXT
  5
582
330
2
100
AcDbEntity
  8
TEXT
100
AcDbText
 10
568.6221098221039
 20
73.14025471151666
 30
0.0
 40
4.0
  1
2010
 41
0.8
  7
GREEKS
100
AcDbText
  0
TEXT
  5
583
330
2
100
AcDbEntity
  8
TEXT
100
AcDbText
 10
592.3311673153651
 20
73.31880501229926
 30
0.0
 40
4.0
  1
Tag
 41
0.8
  7
GREEKS
100
AcDbText
  0
TEXT
  5
584
330
2
100
AcDbEntity
  8
TEXT
100
AcDbText
 10
624.4216048581257
 20
63.0896391972351
 30
0.0
 40
4.0
  1
Koeh
 41
0.8
  7
GREEKS
 72
     1
 11
629.6787477152686
 21
63.0896391972351
 31
0.0
100
AcDbText
  0
TEXT
  5
585
330
2
100
AcDbEntity
  8
TEXT
100
AcDbText
 10
622.4626584226294
 20
73.30961091915225
 30
0.0
 40
4.0
  1
Name
 41
0.8
  7
GREEKS
100
AcDbText
  0
TEXT
  5
587
330
2
100
AcDbEntity
  8
TEXT
100
AcDbText
 10
471.8550995097768
 20
111.6719999999999
 30
0.0
 40
5.0
  1
Erstellt mit AUTOCAD 2004
 41
0.8
  7
GREEKS
100
AcDbText
  0
LINE
  5
5C4
330
2
100
AcDbEntity
  8
HILF
100
AcDbLine
 10
756.7238616296992
 20
83.77983636955827
 30
0.0
 11
824.8588839326728
 21
83.77983636955827
 31
0.0
  0
LINE
  5
5C5
330
2
100
AcDbEntity
  8
VOLL
100
AcDbLine
 10
752.0
 20
60.0
 30
0.0
 11
830.0
 21
60.0
 31
0.0
  0
LINE
  5
5C6
330
2
100
AcDbEntity
  8
STEMPEL
100
AcDbLine
 10
752.0
 20
109.9999999999997
 30
0.0
 11
752.0
 21
40.0
 31
0.0
  0
TEXT
  5
5C7
330
2
100
AcDbEntity
  8
TEXT
100
AcDbText
 10
757.2400861497006
 20
52.07416177878602
 30
0.0
 40
5.0
  1
ersetzt durch:
 41
0.8
  7
GREEKS
100
AcDbText
  0
TEXT
  5
5C8
330
2
100
AcDbEntity
  8
TEXT
100
AcDbText
 10
756.178754957634
 20
102.3132034537136
 30
0.0
 40
5.0
  1
Zeichnungs Nr.
 41
0.8
  7
GREEKS
100
AcDbText
  0
TEXT
  5
5C9
330
2
100
AcDbEntity
  8
TEXT
 62
     1
100
AcDbText
 10
766.2898961296783
 20
88.64254464319675
 30
0.0
 40
7.0
  1
17500100W
 41
0.8
  7
GREEKS
 72
     1
 11
789.2232294630117
 21
88.64254464319675
 31
0.0
100
AcDbText
  0
TEXT
  5
5CA
330
2
100
AcDbEntity
  8
TEXT
100
AcDbText
 10
756.7238616296992
 20
73.1811823709997
 30
0.0
 40
5.0
  1
Ersatz für:
 41
0.8
  7
GREEKS
100
AcDbText
  0
LINE
  5
5CB
330
2
100
AcDbEntity
  8
STEMPEL
100
AcDbLine
 10
830.0
 20
110.0
 30
0.0
 11
830.0
 21
10.0
 31
0.0
  0
LINE
  5
680
330
2
100
AcDbEntity
  8
HILF
 62
     7
100
AcDbLine
 10
459.9999999999998
 20
584.0
 30
0.0
 11
459.9999999999998
 21
593.9999999999998
 31
0.0
  0
TEXT
  5
684
330
2
100
AcDbEntity
  8
TEXT
100
AcDbText
 10
836.5811541437437
 20
12.14804815338303
 30
0.0
 40
4.0
  1
Diese Zeichnung ist urheberrechtlich geschützt und bleibt unser Eigentum. Sie darf weder ganz noch teilweise vervielfältigt und nicht an Dritte weitergegeben werden.
 50
90.0
 41
0.8
  7
GREEKS
100
AcDbText
  0
TEXT
  5
141E
330
2
100
AcDbEntity
  8
TEXT
 62
     1
100
AcDbText
 10
407.6193596923975
 20
261.9437839156258
 30
0.0
 40
7.0
  1
DN100
 50
90.0
 41
0.8
  7
GREEKS
100
AcDbText
  0
LINE
  5
141F
102
{ACAD_REACTORS
330
16C9
102
}
330
2
100
AcDbEntity
  8
STEMPEL
100
AcDbLine
 10
370.934315224764
 20
334.0457896327245
 30
0.0
 11
370.934315224764
 21
215.3359829922063
 31
0.0
  0
LINE
  5
1420
102
{ACAD_REACTORS
330
16C9
102
}
330
2
100
AcDbEntity
  8
STEMPEL
100
AcDbLine
 10
372.684315224764
 20
334.0457896327245
 30
0.0
 11
372.6843152247641
 21
215.4449340517285
 31
0.0
  0
ARC
  5
1421
102
{ACAD_REACTORS
330
16C9
102
}
330
2
100
AcDbEntity
  8
STEMPEL
100
AcDbCircle
 10
380.4343152247641
 20
350.7939238571688
 30
0.0
 40
15.0
100
AcDbArc
 50
180.0
 51
216.3598213248429
  0
ARC
  5
1422
102
{ACAD_REACTORS
330
16C9
102
}
330
2
100
AcDbEntity
  8
STEMPEL
100
AcDbCircle
 10
380.4343152247641
 20
350.7939238571688
 30
0.0
 40
13.25
100
AcDbArc
 50
180.0
 51
216.3598213248429
  0
ARC
  5
1423
102
{ACAD_REACTORS
330
16C9
102
}
330
2
100
AcDbEntity
  8
STEMPEL
100
AcDbCircle
 10
357.6843152247641
 20
334.0457896327245
 30
0.0
 40
15.0
100
AcDbArc
 50
0.0
 51
36.35982132484291
  0
ARC
  5
1424
102
{ACAD_REACTORS
330
16C9
102
}
330
2
100
AcDbEntity
  8
STEMPEL
100
AcDbCircle
 10
357.6843152247641
 20
334.0457896327245
 30
0.0
 40
13.25
100
AcDbArc
 50
0.0
 51
36.35982132484291
  0
ARC
  5
1425
102
{ACAD_REACTORS
330
16C9
102
}
330
2
100
AcDbEntity
  8
STEMPEL
100
AcDbCircle
 10
357.1843152247641
 20
429.33323715923
 30
0.0
 40
10.0
100
AcDbArc
 50
0.0
 51
29.00000000000074
  0
ARC
  5
1426
102
{ACAD_REACTORS
330
16C9
102
}
330
2
100
AcDbEntity
  8
STEMPEL
100
AcDbCircle
 10
357.1843152247641
 20
429.33323715923
 30
0.0
 40
8.25
100
AcDbArc
 50
0.0
 51
29.00000000000074
  0
LINE
  5
1427
102
{ACAD_REACTORS
330
16C9
102
}
330
2
100
AcDbEntity
  8
STEMPEL
100
AcDbLine
 10
361.934315224764
 20
441.3906637179639
 30
0.0
 11
365.9305122961581
 21
434.1813333616933
 31
0.0
  0
LINE
  5
1428
102
{ACAD_REACTORS
330
16C9
102
}
330
2
100
AcDbEntity
  8
STEMPEL
100
AcDbLine
 10
360.4037307372701
 20
440.5422468825328
 30
0.0
 11
364.399927808664
 21
433.3329165262622
 31
0.0
  0
LINE
  5
1429
102
{ACAD_REACTORS
330
16C9
102
}
330
2
100
AcDbEntity
  8
STEMPEL
100
AcDbLine
 10
365.4343152247641
 20
429.33323715923
 30
0.0
 11
365.4343152247641
 21
350.7939238571688
 31
0.0
  0
LINE
  5
142A
102
{ACAD_REACTORS
330
16C9
102
}
330
2
100
AcDbEntity
  8
STEMPEL
100
AcDbLine
 10
367.1843152247641
 20
429.33323715923
 30
0.0
 11
367.1843152247641
 21
350.7939238571688
 31
0.0
  0
ARC
  5
142B
102
{ACAD_REACTORS
330
16C9
102
}
330
2
100
AcDbEntity
  8
STEMPEL
100
AcDbCircle
 10
486.684315224764
 20
429.33323715923
 30
0.0
 40
8.25
100
AcDbArc
 50
150.9999999999992
 51
180.0
  0
ARC
  5
142C
102
{ACAD_REACTORS
330
16C9
102
}
330
2
100
AcDbEntity
  8
STEMPEL
100
AcDbCircle
 10
486.684315224764
 20
429.33323715923
 30
0.0
 40
10.0
100
AcDbArc
 50
150.9999999999992
 51
180.0
  0
LINE
  5
142D
102
{ACAD_REACTORS
330
16C9
102
}
330
2
100
AcDbEntity
  8
STEMPEL
100
AcDbLine
 10
481.9343152247641
 20
441.3906637179639
 30
0.0
 11
477.9381181533701
 21
434.1813333616933
 31
0.0
  0
LINE
  5
142E
102
{ACAD_REACTORS
330
16C9
102
}
330
2
100
AcDbEntity
  8
STEMPEL
100
AcDbLine
 10
483.4648997122581
 20
440.5422468825328
 30
0.0
 11
479.4687026408641
 21
433.3329165262624
 31
0.0
  0
LINE
  5
142F
330
2
100
AcDbEntity
  8
HILF
100
AcDbLine
 10
370.2263449160018
 20
431.8370371997744
 30
0.0
 11
473.6422855335264
 21
431.8370371997745
 31
0.0
  0
LINE
  5
1430
102
{ACAD_REACTORS
330
16C9
102
}
330
2
100
AcDbEntity
  8
STEMPEL
100
AcDbLine
 10
478.434315224764
 20
429.33323715923
 30
0.0
 11
478.434315224764
 21
350.7939238571688
 31
0.0
  0
LINE
  5
1431
102
{ACAD_REACTORS
330
16C9
102
}
330
2
100
AcDbEntity
  8
STEMPEL
100
AcDbLine
 10
476.6843152247641
 20
429.33323715923
 30
0.0
 11
476.6843152247642
 21
350.7939238571688
 31
0.0
  0
LINE
  5
1432
330
2
100
AcDbEntity
  8
HILF
100
AcDbLine
 10
371.1184150933754
 20
346.6598998045953
 30
0.0
 11
472.7502153561527
 21
346.6598998045953
 31
0.0
  0
LINE
  5
1433
330
2
100
AcDbEntity
  8
HILF
100
AcDbLine
 10
374.0691118395286
 20
338.7258168620531
 30
0.0
 11
469.7995186099993
 21
338.7258168620531
 31
0.0
  0
ARC
  5
1434
102
{ACAD_REACTORS
330
16C9
102
}
330
2
100
AcDbEntity
  8
STEMPEL
100
AcDbCircle
 10
486.184315224764
 20
334.0457896327245
 30
0.0
 40
13.25
100
AcDbArc
 50
143.6401786751571
 51
180.0
  0
ARC
  5
1435
102
{ACAD_REACTORS
330
16C9
102
}
330
2
100
AcDbEntity
  8
STEMPEL
100
AcDbCircle
 10
486.184315224764
 20
334.0457896327245
 30
0.0
 40
15.0
100
AcDbArc
 50
143.6401786751571
 51
180.0
  0
ARC
  5
1436
102
{ACAD_REACTORS
330
16C9
102
}
330
2
100
AcDbEntity
  8
STEMPEL
100
AcDbCircle
 10
463.434315224764
 20
350.7939238571688
 30
0.0
 40
15.0
100
AcDbArc
 50
323.6401786751571
 51
0.0
  0
ARC
  5
1437
102
{ACAD_REACTORS
330
16C9
102
}
330
2
100
AcDbEntity
  8
STEMPEL
100
AcDbCircle
 10
463.434315224764
 20
350.7939238571688
 30
0.0
 40
13.25
100
AcDbArc
 50
323.6401786751571
 51
0.0
  0
LINE
  5
1438
102
{ACAD_REACTORS
330
16C9
102
}
330
2
100
AcDbEntity
  8
STEMPEL
100
AcDbLine
 10
472.9343152247641
 20
334.0457896327245
 30
0.0
 11
472.9343152247642
 21
215.3359829922074
 31
0.0
  0
LINE
  5
1439
102
{ACAD_REACTORS
330
16C9
102
}
330
2
100
AcDbEntity
  8
STEMPEL
100
AcDbLine
 10
471.1843152247641
 20
334.0457896327245
 30
0.0
 11
471.1843152247642
 21
215.4449340517305
 31
0.0
  0
LINE
  5
143B
102
{ACAD_REACTORS
330
16C9
102
}
330
2
100
AcDbEntity
  8
STEMPEL
100
AcDbLine
 10
472.9343152247642
 20
215.3359829922074
 30
0.0
 11
471.934315224764
 21
207.3359829922073
 31
0.0
  0
LINE
  5
143C
102
{ACAD_REACTORS
330
16C9
102
}
330
2
100
AcDbEntity
  8
STEMPEL
100
AcDbLine
 10
471.1843152247642
 20
215.4449340517305
 30
0.0
 11
470.1706963423238
 21
207.3359829922073
 31
0.0
  0
LINE
  5
143D
102
{ACAD_REACTORS
330
16C9
102
}
330
2
100
AcDbEntity
  8
STEMPEL
100
AcDbLine
 10
370.934315224764
 20
215.3359829922063
 30
0.0
 11
371.9343152247641
 21
207.3359829922072
 31
0.0
  0
LINE
  5
143E
102
{ACAD_REACTORS
330
16C9
102
}
330
2
100
AcDbEntity
  8
STEMPEL
100
AcDbLine
 10
372.6843152247641
 20
215.4449340517285
 30
0.0
 11
373.6979341072044
 21
207.3359829922071
 31
0.0
  0
LINE
  5
143F
102
{ACAD_REACTORS
330
16C9
102
}
330
2
100
AcDbEntity
  8
STEMPEL
100
AcDbLine
 10
371.9343152247641
 20
207.3359829922072
 30
0.0
 11
471.934315224764
 21
207.3359829922073
 31
0.0
  0
LINE
  5
1440
330
2
100
AcDbEntity
  8
HILF
100
AcDbLine
 10
374.4479341072045
 20
215.4449340517285
 30
0.0
 11
469.434315224764
 21
215.4449340517285
 31
0.0
  0
LINE
  5
1441
330
2
100
AcDbEntity
  8
STEMPEL
100
AcDbLine
 10
671.934315224764
 20
480.3359829922073
 30
0.0
 11
671.9343152247639
 21
477.3359829922073
 31
0.0
  0
LINE
  5
1443
330
2
100
AcDbEntity
  8
STEMPEL
100
AcDbLine
 10
586.934315224764
 20
477.3359829922073
 30
0.0
 11
586.934315224764
 21
475.3359829922073
 31
0.0
  0
LINE
  5
144A
330
2
100
AcDbEntity
  8
STEMPEL
100
AcDbLine
 10
495.4343152247639
 20
462.3359829922073
 30
0.0
 11
494.2961901298453
 21
468.191129019948
 31
0.0
  0
ARC
  5
144B
330
2
100
AcDbEntity
  8
STEMPEL
100
AcDbCircle
 10
486.3452368267912
 20
465.3894234128356
 30
0.0
 40
1.0
100
AcDbArc
 50
240.9854054549861
 51
295.3979441358715
  0
ARC
  5
144C
330
2
100
AcDbEntity
  8
STEMPEL
100
AcDbCircle
 10
487.8463963468372
 20
462.2276960217763
 30
0.0
 40
2.499999999999928
100
AcDbArc
 50
20.00751066586387
 51
115.3979441358715
  0
LINE
  5
144D
330
2
100
AcDbEntity
  8
STEMPEL
100
AcDbLine
 10
490.6016032345155
 20
460.3729874088234
 30
0.0
 11
490.3751137765599
 21
462.1591027993294
 31
0.0
  0
LINE
  5
144E
330
2
100
AcDbEntity
  8
STEMPEL
100
AcDbLine
 10
490.3751137765599
 20
462.1591027993294
 30
0.0
 11
489.388054212607
 21
467.2370840430653
 31
0.0
  0
ARC
  5
144F
330
2
100
AcDbEntity
  8
STEMPEL
100
AcDbCircle
 10
489.609547389181
 20
460.2471891586847
 30
0.0
 40
1.0
100
AcDbArc
 50
329.9999999999995
 51
7.226856044883641
  0
LINE
  5
1450
330
2
100
AcDbEntity
  8
STEMPEL
100
AcDbLine
 10
493.434315224764
 20
462.1434048958121
 30
0.0
 11
492.3329357629499
 21
467.809511029195
 31
0.0
  0
ARC
  5
1451
330
2
100
AcDbEntity
  8
STEMPEL
100
AcDbCircle
 10
500.1859532305312
 20
469.3359829922074
 30
0.0
 40
8.0
100
AcDbArc
 50
90.0
 51
190.9999999999987
  0
ARC
  5
1452
330
2
100
AcDbEntity
  8
STEMPEL
100
AcDbCircle
 10
500.1859532305312
 20
469.3359829922074
 30
0.0
 40
6.0
100
AcDbArc
 50
90.0
 51
190.9999999999987
  0
LINE
  5
1454
330
2
100
AcDbEntity
  8
STEMPEL
100
AcDbLine
 10
495.4343152247639
 20
458.3359829922073
 30
0.0
 11
487.9287617252988
 21
445.3359829922073
 31
0.0
  0
LINE
  5
1455
330
2
100
AcDbEntity
  8
STEMPEL
100
AcDbLine
 10
493.434315224764
 20
458.8718813770696
 30
0.0
 11
486.19671091773
 21
446.3359829922073
 31
0.0
  0
LINE
  5
1456
330
2
100
AcDbEntity
  8
STEMPEL
100
AcDbLine
 10
493.434315224764
 20
462.1434048958121
 30
0.0
 11
493.434315224764
 21
458.8718813770696
 31
0.0
  0
LINE
  5
1457
330
2
100
AcDbEntity
  8
STEMPEL
100
AcDbLine
 10
495.4343152247639
 20
462.3359829922073
 30
0.0
 11
495.4343152247639
 21
458.3359829922073
 31
0.0
  0
LINE
  5
1459
102
{ACAD_REACTORS
330
1597
102
}
330
2
100
AcDbEntity
  8
STEMPEL
100
AcDbLine
 10
481.9343152247642
 20
476.4173987051653
 30
0.0
 11
479.9343152247643
 21
476.4173987051653
 31
0.0
  0
ARC
  5
145A
330
2
100
AcDbEntity
  8
STEMPEL
100
AcDbCircle
 10
481.9266755496778
 20
476.4173987051653
 30
0.0
 40
2.0
100
AcDbArc
 50
5.000000000000026
 51
90.0
  0
ARC
  5
145B
330
2
100
AcDbEntity
  8
STEMPEL
100
AcDbCircle
 10
479.941954899851
 20
476.4173987051653
 30
0.0
 40
2.0
100
AcDbArc
 50
90.0
 51
175.0
  0
ARC
  5
145C
330
2
100
AcDbEntity
  8
STEMPEL
100
AcDbCircle
 10
477.0296229747514
 20
465.9173987051652
 30
0.0
 40
2.5
100
AcDbArc
 50
90.0
 51
170.0000000000014
  0
LINE
  5
145D
330
2
100
AcDbEntity
  8
STEMPEL
100
AcDbLine
 10
477.9495655036673
 20
476.5917101906606
 30
0.0
 11
477.2344059165568
 21
468.4173987051651
 31
0.0
  0
LINE
  5
145E
330
2
100
AcDbEntity
  8
STEMPEL
100
AcDbLine
 10
483.9190649458612
 20
476.5917101906606
 30
0.0
 11
484.8378798207599
 21
466.0896081140122
 31
0.0
  0
LINE
  5
145F
102
{ACAD_REACTORS
330
1597
102
}
330
2
100
AcDbEntity
  8
STEMPEL
100
AcDbLine
 10
481.9343152247642
 20
453.4173987051653
 30
0.0
 11
479.9343152247643
 21
453.4173987051653
 31
0.0
  0
LINE
  5
1460
330
2
100
AcDbEntity
  8
STEMPEL
100
AcDbLine
 10
469.9343152247642
 20
449.4173987051652
 30
0.0
 11
469.9343152247642
 21
451.4173987051653
 31
0.0
  0
ARC
  5
1461
330
2
100
AcDbEntity
  8
STEMPEL
100
AcDbCircle
 10
470.2561159624097
 20
453.4173987051653
 30
0.0
 40
2.0
100
AcDbArc
 50
270.0
 51
350.0000000000014
  0
LINE
  5
1462
330
2
100
AcDbEntity
  8
STEMPEL
100
AcDbLine
 10
476.4343152247645
 20
449.4173987051652
 30
0.0
 11
478.1663660323334
 21
448.4173987051652
 31
0.0
  0
LINE
  5
1463
330
2
100
AcDbEntity
  8
STEMPEL
100
AcDbLine
 10
479.434315224764
 20
443.3359829922073
 30
0.0
 11
479.434315224764
 21
441.3359829922073
 31
0.0
  0
LINE
  5
1464
102
{ACAD_REACTORS
330
16C9
102
}
330
2
100
AcDbEntity
  8
STEMPEL
100
AcDbLine
 10
481.9343152247641
 20
441.3906637179638
 30
0.0
 11
483.4648997122579
 21
440.5422468825327
 31
0.0
  0
LINE
  5
1465
330
2
100
AcDbEntity
  8
STEMPEL
100
AcDbLine
 10
479.434315224764
 20
448.4173987051652
 30
0.0
 11
479.434315224764
 21
445.4173987051651
 31
0.0
  0
LINE
  5
1466
102
{ACAD_REACTORS
330
1597
102
}
330
2
100
AcDbEntity
  8
STEMPEL
100
AcDbLine
 10
479.9343152247643
 20
453.4173987051653
 30
0.0
 11
479.9343152247643
 21
476.4173987051653
 31
0.0
  0
LINE
  5
1467
102
{ACAD_REACTORS
330
1597
102
}
330
2
100
AcDbEntity
  8
STEMPEL
100
AcDbLine
 10
481.9343152247642
 20
453.4173987051653
 30
0.0
 11
481.9343152247642
 21
476.4173987051653
 31
0.0
  0
LINE
  5
1468
330
2
100
AcDbEntity
  8
STEMPEL
100
AcDbLine
 10
472.225731468434
 20
453.0701023498315
 30
0.0
 11
474.5676035922208
 21
466.3515191493326
 31
0.0
  0
LINE
  5
146A
330
2
100
AcDbEntity
  8
STEMPEL
100
AcDbLine
 10
490.4755727929656
 20
459.7471891586846
 30
0.0
 11
483.934315224764
 21
448.4173987051652
 31
0.0
  0
ARC
  5
146B
330
2
100
AcDbEntity
  8
STEMPEL
100
AcDbCircle
 10
481.0005584950233
 20
449.3359829922073
 30
0.0
 40
8.0
100
AcDbArc
 50
270.0
 51
329.9999999999995
  0
ARC
  5
146C
330
2
100
AcDbEntity
  8
STEMPEL
100
AcDbCircle
 10
481.0005584950233
 20
449.3359829922073
 30
0.0
 40
6.0
100
AcDbArc
 50
270.0
 51
329.9999999999995
  0
LINE
  5
146D
330
2
100
AcDbEntity
  8
STEMPEL
100
AcDbLine
 10
487.8463963468371
 20
464.7276960217762
 30
0.0
 11
485.5496376855405
 21
464.7276960217762
 31
0.0
  0
ARC
  5
146E
330
2
100
AcDbEntity
  8
STEMPEL
100
AcDbCircle
 10
486.8302692169431
 20
466.2639195995075
 30
0.0
 40
2.0
100
AcDbArc
 50
185.0
 51
240.9854054549861
  0
ARC
  5
1470
330
2
100
AcDbEntity
  8
SCHRAFF
100
AcDbCircle
 10
481.9343152247641
 20
441.3906637179638
 30
0.0
 40
3.0
100
AcDbArc
 50
276.6853347126549
 51
17.50974126551266
  0
LINE
  5
1477
330
2
100
AcDbEntity
  8
STEMPEL
100
AcDbLine
 10
500.1859532305312
 20
477.3359829922073
 30
0.0
 11
671.9343152247639
 21
477.3359829922073
 31
0.0
  0
LINE
  5
1479
330
2
100
AcDbEntity
  8
STEMPEL
100
AcDbLine
 10
586.934315224764
 20
475.3359829922073
 30
0.0
 11
500.1859532305312
 21
475.3359829922073
 31
0.0
  0
ARC
  5
147B
330
2
100
AcDbEntity
  8
STEMPEL
100
AcDbCircle
 10
500.1859532305312
 20
469.3359829922074
 30
0.0
 40
11.0
100
AcDbArc
 50
90.0
 51
190.9999999999987
  0
LINE
  5
147F
330
2
100
AcDbEntity
  8
MITTEL
100
AcDbLine
 10
421.934315224764
 20
485.3359829922073
 30
0.0
 11
421.9343152247641
 21
202.3359829922073
 31
0.0
  0
LINE
  5
1480
330
2
100
AcDbEntity
  8
BEM
 62
     1
100
AcDbLine
 10
410.7205026202842
 20
542.2613942324248
 30
0.0
 11
416.3205026202842
 21
542.2613942324248
 31
0.0
  0
LINE
  5
1481
330
2
100
AcDbEntity
  8
BEM
 62
     1
100
AcDbLine
 10
416.3205026202842
 20
536.6613942324249
 30
0.0
 11
410.7205026202842
 21
536.6613942324249
 31
0.0
  0
LINE
  5
1482
330
2
100
AcDbEntity
  8
BEM
 62
     1
100
AcDbLine
 10
410.7205026202842
 20
536.6613942324249
 30
0.0
 11
410.7205026202842
 21
542.2613942324248
 31
0.0
  0
LINE
  5
1483
330
2
100
AcDbEntity
  8
BEM
 62
     1
100
AcDbLine
 10
416.3205026202842
 20
542.2613942324248
 30
0.0
 11
416.3205026202842
 21
536.6613942324249
 31
0.0
  0
ARC
  5
1484
330
2
100
AcDbEntity
  8
STEMPEL
100
AcDbCircle
 10
363.9266755496776
 20
476.4173987051653
 30
0.0
 40
2.0
100
AcDbArc
 50
5.000000000000026
 51
90.0
  0
ARC
  5
1485
330
2
100
AcDbEntity
  8
STEMPEL
100
AcDbCircle
 10
361.9419548998508
 20
476.4173987051653
 30
0.0
 40
2.0
100
AcDbArc
 50
90.0
 51
175.0
  0
LINE
  5
1486
102
{ACAD_REACTORS
330
1597
102
}
330
2
100
AcDbEntity
  8
STEMPEL
100
AcDbLine
 10
361.9343152247641
 20
476.4173987051651
 30
0.0
 11
363.9343152247641
 21
476.4173987051651
 31
0.0
  0
ARC
  5
1487
330
2
100
AcDbEntity
  8
STEMPEL
100
AcDbCircle
 10
366.8390074747772
 20
465.9173987051651
 30
0.0
 40
2.5
100
AcDbArc
 50
9.999999999998609
 51
90.0
  0
ARC
  5
1488
330
2
100
AcDbEntity
  8
STEMPEL
100
AcDbCircle
 10
357.038361232585
 20
466.2639195995075
 30
0.0
 40
2.0
100
AcDbArc
 50
299.0145945450107
 51
354.9999999999999
  0
ARC
  5
1489
330
2
100
AcDbEntity
  8
STEMPEL
100
AcDbCircle
 10
357.5233936227369
 20
465.3894234128356
 30
0.0
 40
1.0
100
AcDbArc
 50
244.6020558641285
 51
299.0145945450107
  0
LINE
  5
148A
330
2
100
AcDbEntity
  8
STEMPEL
100
AcDbLine
 10
356.0222341026909
 20
464.7276960217762
 30
0.0
 11
358.3189927639876
 21
464.7276960217762
 31
0.0
  0
LINE
  5
148B
330
2
100
AcDbEntity
  8
STEMPEL
100
AcDbLine
 10
359.9495655036672
 20
476.5917101906606
 30
0.0
 11
359.0307506287684
 21
466.0896081140122
 31
0.0
  0
LINE
  5
148C
330
2
100
AcDbEntity
  8
STEMPEL
100
AcDbLine
 10
365.919064945861
 20
476.5917101906606
 30
0.0
 11
366.6342245329718
 21
468.4173987051653
 31
0.0
  0
LINE
  5
148D
330
2
100
AcDbEntity
  8
STEMPEL
100
AcDbLine
 10
373.9343152247641
 20
449.4173987051652
 30
0.0
 11
373.9343152247641
 21
451.4173987051653
 31
0.0
  0
ARC
  5
148E
330
2
100
AcDbEntity
  8
STEMPEL
100
AcDbCircle
 10
373.6125144871187
 20
453.4173987051652
 30
0.0
 40
2.0
100
AcDbArc
 50
189.9999999999986
 51
270.0
  0
LINE
  5
148F
330
2
100
AcDbEntity
  8
STEMPEL
100
AcDbLine
 10
367.4343152247641
 20
449.4173987051652
 30
0.0
 11
365.7022644171953
 21
448.4173987051653
 31
0.0
  0
LINE
  5
1490
102
{ACAD_REACTORS
330
1597
102
}
330
2
100
AcDbEntity
  8
STEMPEL
100
AcDbLine
 10
361.9343152247641
 20
453.4173987051652
 30
0.0
 11
363.9343152247641
 21
453.4173987051652
 31
0.0
  0
LINE
  5
1491
330
2
100
AcDbEntity
  8
STEMPEL
100
AcDbLine
 10
364.4343152247641
 20
443.3359829922073
 30
0.0
 11
364.4343152247641
 21
441.3359829922073
 31
0.0
  0
LINE
  5
1492
102
{ACAD_REACTORS
330
16C9
102
}
330
2
100
AcDbEntity
  8
STEMPEL
100
AcDbLine
 10
361.9343152247641
 20
441.3906637179638
 30
0.0
 11
360.4037307372702
 21
440.5422468825329
 31
0.0
  0
ARC
  5
1493
330
2
100
AcDbEntity
  8
SCHRAFF
100
AcDbCircle
 10
361.9343152247641
 20
441.3906637179638
 30
0.0
 40
3.0
100
AcDbArc
 50
162.4902587344873
 51
263.3146652873516
  0
ARC
  5
1494
330
2
100
AcDbEntity
  8
STEMPEL
100
AcDbCircle
 10
362.8680719545047
 20
449.3359829922073
 30
0.0
 40
8.0
100
AcDbArc
 50
210.0000000000005
 51
270.0
  0
ARC
  5
1495
330
2
100
AcDbEntity
  8
STEMPEL
100
AcDbCircle
 10
362.8680719545047
 20
449.3359829922073
 30
0.0
 40
6.0
100
AcDbArc
 50
210.0000000000005
 51
270.0
  0
LINE
  5
1496
330
2
100
AcDbEntity
  8
STEMPEL
100
AcDbLine
 10
364.4343152247641
 20
448.4173987051651
 30
0.0
 11
364.4343152247641
 21
445.4173987051651
 31
0.0
  0
LINE
  5
1497
102
{ACAD_REACTORS
330
1597
102
}
330
2
100
AcDbEntity
  8
STEMPEL
100
AcDbLine
 10
363.9343152247641
 20
453.4173987051652
 30
0.0
 11
363.9343152247641
 21
476.4173987051651
 31
0.0
  0
LINE
  5
1498
102
{ACAD_REACTORS
330
1597
102
}
330
2
100
AcDbEntity
  8
STEMPEL
100
AcDbLine
 10
361.9343152247641
 20
453.4173987051652
 30
0.0
 11
361.9343152247641
 21
476.4173987051651
 31
0.0
  0
LINE
  5
1499
330
2
100
AcDbEntity
  8
STEMPEL
100
AcDbLine
 10
371.6428989810943
 20
453.0701023498314
 30
0.0
 11
369.3010268573078
 21
466.3515191493324
 31
0.0
  0
LINE
  5
149A
330
2
100
AcDbEntity
  8
STEMPEL
100
AcDbLine
 10
350.4343152247641
 20
462.1434048958121
 30
0.0
 11
351.5356946865781
 21
467.809511029195
 31
0.0
  0
LINE
  5
149B
330
2
100
AcDbEntity
  8
STEMPEL
100
AcDbLine
 10
348.4343152247641
 20
462.3359829922073
 30
0.0
 11
349.5724403196828
 21
468.191129019948
 31
0.0
  0
LINE
  5
149C
330
2
100
AcDbEntity
  8
STEMPEL
100
AcDbLine
 10
353.2670272150127
 20
460.3729874088233
 30
0.0
 11
353.4935166729682
 21
462.1591027993293
 31
0.0
  0
ARC
  5
149D
330
2
100
AcDbEntity
  8
STEMPEL
100
AcDbCircle
 10
354.2590830603471
 20
460.2471891586847
 30
0.0
 40
1.0
100
AcDbArc
 50
172.7731439551163
 51
210.0000000000005
  0
ARC
  5
149E
330
2
100
AcDbEntity
  8
STEMPEL
100
AcDbCircle
 10
343.6826772189968
 20
469.3359829922074
 30
0.0
 40
8.0
100
AcDbArc
 50
349.0000000000013
 51
90.0
  0
ARC
  5
149F
330
2
100
AcDbEntity
  8
STEMPEL
100
AcDbCircle
 10
343.6826772189968
 20
469.3359829922074
 30
0.0
 40
6.0
100
AcDbArc
 50
349.0000000000013
 51
90.0
  0
LINE
  5
14A1
330
2
100
AcDbEntity
  8
STEMPEL
100
AcDbLine
 10
350.4343152247641
 20
462.1434048958121
 30
0.0
 11
350.4343152247641
 21
458.8718813770696
 31
0.0
  0
LINE
  5
14A2
330
2
100
AcDbEntity
  8
STEMPEL
100
AcDbLine
 10
348.4343152247641
 20
462.3359829922073
 30
0.0
 11
348.4343152247641
 21
458.3359829922073
 31
0.0
  0
LINE
  5
14A5
330
2
100
AcDbEntity
  8
STEMPEL
100
AcDbLine
 10
353.3930576565626
 20
459.7471891586847
 30
0.0
 11
359.9343152247641
 21
448.4173987051651
 31
0.0
  0
LINE
  5
14A6
330
2
100
AcDbEntity
  8
STEMPEL
100
AcDbLine
 10
350.4343152247641
 20
458.8718813770696
 30
0.0
 11
357.6719195317981
 21
446.3359829922073
 31
0.0
  0
LINE
  5
14A7
330
2
100
AcDbEntity
  8
STEMPEL
100
AcDbLine
 10
348.4343152247641
 20
458.3359829922073
 30
0.0
 11
355.9398687242292
 21
445.3359829922073
 31
0.0
  0
ARC
  5
14A8
330
2
100
AcDbEntity
  8
STEMPEL
100
AcDbCircle
 10
356.0222341026909
 20
462.2276960217763
 30
0.0
 40
2.499999999999928
100
AcDbArc
 50
64.6020558641285
 51
159.9924893337488
  0
LINE
  5
14A9
330
2
100
AcDbEntity
  8
STEMPEL
100
AcDbLine
 10
353.4935166729682
 20
462.1591027993293
 30
0.0
 11
354.4805762369211
 21
467.2370840430653
 31
0.0
  0
LINE
  5
14B0
330
2
100
AcDbEntity
  8
STEMPEL
100
AcDbLine
 10
256.9343152247641
 20
477.3359829922073
 30
0.0
 11
256.9343152247641
 21
475.3359829922073
 31
0.0
  0
LINE
  5
14B1
330
2
100
AcDbEntity
  8
STEMPEL
100
AcDbLine
 10
171.9343152247641
 20
480.3359829922073
 30
0.0
 11
171.9343152247641
 21
477.3359829922073
 31
0.0
  0
LINE
  5
14B2
330
2
100
AcDbEntity
  8
STEMPEL
100
AcDbLine
 10
171.9343152247641
 20
477.3359829922073
 30
0.0
 11
343.6826772189968
 21
477.3359829922073
 31
0.0
  0
LINE
  5
14B3
330
2
100
AcDbEntity
  8
STEMPEL
100
AcDbLine
 10
256.9343152247641
 20
475.3359829922073
 30
0.0
 11
343.6826772189968
 21
475.3359829922073
 31
0.0
  0
ARC
  5
14B6
330
2
100
AcDbEntity
  8
STEMPEL
100
AcDbCircle
 10
343.6826772189968
 20
469.3359829922074
 30
0.0
 40
11.0
100
AcDbArc
 50
349.0000000000013
 51
90.0
  0
DIMENSION
  5
14B7
330
2
100
AcDbEntity
  8
BEM
100
AcDbDimension
  2
*D1
 10
237.2357719785376
 20
477.3359829922073
 30
0.0
 11
230.7357719785375
 21
342.3359829922074
 31
0.0
 70
    32
 71
     5
 42
270.0
  3
STANDARD
100
AcDbAlignedDimension
 13
372.2466451776529
 23
207.3359829922073
 33
0.0
 14
256.9343152247641
 24
477.3359829922073
 34
0.0
 50
90.0
100
AcDbRotatedDimension
  0
LINE
  5
14B9
330
2
100
AcDbEntity
  8
STEMPEL
100
AcDbLine
 10
361.9419548998508
 20
478.4173987051653
 30
0.0
 11
481.9266755496777
 21
478.4173987051687
 31
0.0
  0
LINE
  5
14BA
330
2
100
AcDbEntity
  8
STEMPEL
100
AcDbLine
 10
366.6342245329718
 20
468.4173987051651
 30
0.0
 11
477.2344059165568
 21
468.4173987051651
 31
0.0
  0
LINE
  5
14BB
330
2
100
AcDbEntity
  8
STEMPEL
100
AcDbLine
 10
359.9343152247641
 20
448.4173987051651
 30
0.0
 11
483.934315224764
 21
448.4173987051652
 31
0.0
  0
LINE
  5
14BC
330
2
100
AcDbEntity
  8
STEMPEL
100
AcDbLine
 10
367.4343152247641
 20
449.4173987051652
 30
0.0
 11
476.4343152247645
 21
449.4173987051652
 31
0.0
  0
LINE
  5
14BD
330
2
100
AcDbEntity
  8
STEMPEL
100
AcDbLine
 10
373.6125144871187
 20
451.4173987051653
 30
0.0
 11
470.2561159624097
 21
451.4173987051653
 31
0.0
  0
LINE
  5
14BE
330
2
100
AcDbEntity
  8
STEMPEL
100
AcDbLine
 10
358.324428352136
 20
445.4173987051651
 30
0.0
 11
485.5442020973921
 21
445.4173987051651
 31
0.0
  0
LINE
  5
14BF
330
2
100
AcDbEntity
  8
STEMPEL
100
AcDbLine
 10
171.9343152247641
 20
480.3359829922073
 30
0.0
 11
671.934315224764
 21
480.3359829922073
 31
0.0
  0
LINE
  5
14C1
330
2
100
AcDbEntity
  8
STEMPEL
100
AcDbLine
 10
362.8680719545047
 20
441.3359829922073
 30
0.0
 11
481.0005584950233
 21
441.3359829922073
 31
0.0
  0
LINE
  5
14C2
330
2
100
AcDbEntity
  8
STEMPEL
100
AcDbLine
 10
362.8680719545047
 20
443.3359829922073
 30
0.0
 11
481.0005584950233
 21
443.3359829922074
 31
0.0
  0
DIMENSION
  5
14C3
330
2
100
AcDbEntity
  8
BEM
100
AcDbDimension
  2
*D2
 10
472.9343152247641
 20
186.565961041589
 30
0.0
 11
421.934315224764
 21
193.065961041589
 31
0.0
 70
    32
  1
%%c<>
 71
     5
 42
102.0
  3
STANDARD
100
AcDbAlignedDimension
 13
370.9343152247641
 23
222.3359829922074
 33
0.0
 14
472.9343152247641
 24
222.3359829922077
 34
0.0
100
AcDbRotatedDimension
  0
DIMENSION
  5
14C4
330
2
100
AcDbEntity
  8
BEM
100
AcDbDimension
  2
*D3
 10
586.934315224764
 20
516.3359829922073
 30
0.0
 11
421.934315224764
 21
522.8359829922074
 31
0.0
 70
    32
  1
%%c<>
 71
     5
 42
330.0
  3
STANDARD
100
AcDbAlignedDimension
 13
256.9343152247641
 23
477.3359829922073
 33
0.0
 14
586.934315224764
 24
477.3359829922073
 34
0.0
100
AcDbRotatedDimension
1001
ACAD
1000
DSTYLE
1002
{
1002
}
  0
DIMENSION
  5
14C5
330
2
100
AcDbEntity
  8
BEM
100
AcDbDimension
  2
*D4
 10
326.934315224764
 20
500.3359829922073
 30
0.0
 11
421.9343152247639
 21
506.8359829922073
 31
0.0
 70
    32
  1
%%c<>
 71
     5
 42
189.9999999999999
  3
STANDARD
100
AcDbAlignedDimension
 13
516.9343152247639
 23
475.3359829922082
 33
0.0
 14
326.934315224764
 24
475.3359829922082
 34
0.0
100
AcDbRotatedDimension
1001
ACAD
1000
DSTYLE
1002
{
1002
}
  0
DIMENSION
  5
14C6
330
2
100
AcDbEntity
  8
BEM
100
AcDbDimension
  2
*D5
 10
671.934315224764
 20
533.3339873695638
 30
0.0
 11
425.7930179039012
 21
533.3339873695638
 31
0.0
 70
   160
 71
     5
 42
500.0
  3
STANDARD
100
AcDbAlignedDimension
 13
171.9343152247641
 23
480.3359829922073
 33
0.0
 14
671.934315224764
 24
480.3359829922073
 34
0.0
100
AcDbRotatedDimension
1001
ACAD
1000
DSTYLE
1002
{
1002
}
  0
HATCH
  5
14C7
330
2
100
AcDbEntity
  8
SCHRAFF
100
AcDbHatch
 10
0.0
 20
0.0
 30
0.0
210
0.0
220
0.0
230
1.0
  2
_U
 70
     0
 71
     0
 91
        2
 92
        7
 72
     1
 73
     1
 93
        4
 10
360.40373073727
 20
440.5422468825329
 42
0.0
 10
361.934315224764
 20
441.3906637179638
 42
-0.0945887848327609
 10
359.0733177893055
 20
442.2932675481684
 42
0.4706943623819248
 10
361.5850656535017
 20
438.4110622786815
 42
0.0
 97
        0
 92
        7
 72
     1
 73
     1
 93
        4
 10
481.9343152247641
 20
441.3906637179638
 42
0.0
 10
483.464899712258
 20
440.5422468825327
 42
0.0
 10
482.2835647960266
 20
438.4110622786818
 42
0.4706943623819164
 10
484.7953126602225
 20
442.2932675481686
 42
-0.094588784832762
 97
        0
 75
     0
 76
     0
 52
45.0
 41
0.1
 77
     0
 78
     1
 53
45.0
 43
41.06862334873949
 44
1.006893823892141
 45
-0.0707106781186548
 46
0.0707106781186548
 79
     0
 47
0.1677087970855708
 98
        2
 10
360.3082091600436
 20
440.5026692033577
 10
483.9919050428671
 20
441.1735046617866
  0
TEXT
  5
155D
330
2
100
AcDbEntity
  8
TEXT
100
AcDbText
 10
655.1296391125315
 20
61.50334417585291
 30
0.0
 40
5.0
  1
Wärmedämmung und Heizung
 41
0.8
  7
GREEKS
100
AcDbText
  0
HATCH
  5
1588
330
2
100
AcDbEntity
  8
SCHRAFF
100
AcDbHatch
 10
0.0
 20
0.0
 30
0.0
210
0.0
220
0.0
230
1.0
  2
_USER
 70
     0
 71
     0
 91
        3
 92
        7
 72
     1
 73
     1
 93
       12
 10
500.1859532305312
 20
477.3359829922073
 42
0.4716306187712192
 10
492.3329357629499
 20
467.809511029195
 42
0.0
 10
493.4343152247639
 20
462.1434048958121
 42
0.0
 10
493.4343152247641
 20
458.8718813770697
 42
0.0
 10
490.5787140368778
 20
453.9258350334966
 42
0.0
 10
492.0284476393507
 20
452.4368472904194
 42
0.0
 10
495.4343152247638
 20
458.335982992207
 42
0.0
 10
495.4343152247638
 20
462.3359829922086
 42
0.0
 10
494.2961901298453
 20
468.191129019948
 42
-0.4716306187712217
 10
500.1859532305312
 20
475.3359829922073
 42
0.0
 10
586.934315224764
 20
475.3359829922073
 42
0.0
 10
586.934315224764
 20
477.3359829922072
 42
0.0
 97
        0
 92
        7
 72
     1
 73
     1
 93
       16
 10
256.9343152247641
 20
477.3359829922072
 42
0.0
 10
256.9343152247641
 20
475.3359829922072
 42
0.0
 10
343.6826772189968
 20
475.3359829922073
 42
-0.4716306187712248
 10
349.5724403196828
 20
468.191129019948
 42
0.0
 10
348.4343152247641
 20
462.3359829922077
 42
0.0
 10
348.4343152247641
 20
458.3359829922072
 42
0.0
 10
355.9398687242292
 20
445.3359829922073
 42
0.2679491924311232
 10
362.8680719545047
 20
441.3359829922073
 42
0.0
 10
364.4343152247641
 20
441.3359829922073
 42
0.0
 10
364.4343152247641
 20
443.3359829922073
 42
0.0
 10
362.8680719545047
 20
443.3359829922073
 42
-0.2679491924311216
 10
357.6719195317981
 20
446.3359829922073
 42
0.0
 10
350.4343152247641
 20
458.8718813770696
 42
0.0
 10
350.4343152247641
 20
462.1434048958122
 42
0.0
 10
351.5356946865781
 20
467.809511029195
 42
0.4716306187712195
 10
343.6826772189968
 20
477.3359829922073
 42
0.0
 97
        0
 92
        7
 72
     1
 73
     1
 93
        8
 10
481.0005584950233
 20
443.3359829922074
 42
0.0
 10
479.434315224764
 20
443.3359829922074
 42
0.0
 10
479.4343152247639
 20
441.3359829922073
 42
0.0
 10
481.0005584950233
 20
441.3359829922073
 42
0.2679491924311223
 10
487.9287617252988
 20
445.3359829922073
 42
0.0
 10
492.0284476393507
 20
452.4368472904194
 42
0.0
 10
490.5787140368778
 20
453.9258350334966
 42
0.0
 10
486.19671091773
 20
446.3359829922073
 42
-0.2679491924311202
 97
        0
 75
     0
 76
     0
 52
135.0
 41
2.0
 77
     0
 78
     1
 53
135.0
 43
0.0
 44
0.0
 45
-1.414213562373095
 46
-1.414213562373094
 79
     0
 47
0.5323870499399578
 98
        3
 10
572.8818597354015
 20
476.5009571352286
 10
282.7935270978496
 20
476.5009571352286
 10
483.1349866712953
 20
443.137013673617
  0
HATCH
  5
1597
330
2
100
AcDbEntity
  8
SCHRAFF
100
AcDbHatch
 10
0.0
 20
0.0
 30
0.0
210
0.0
220
0.0
230
1.0
  2
_USER
 70
     0
 71
     1
 91
        2
 92
        7
 72
     0
 73
     1
 93
        4
 10
479.9343152247643
 20
453.4173987051653
 10
481.9343152247643
 20
453.4173987051654
 10
481.9343152247642
 20
476.4173987051653
 10
479.9343152247643
 20
476.4173987051653
 97
        4
330
1459
330
1466
330
145F
330
1467
 92
        7
 72
     0
 73
     1
 93
        4
 10
363.9343152247641
 20
476.4173987051651
 10
361.9343152247641
 20
476.4173987051651
 10
361.934315224764
 20
453.4173987051652
 10
363.9343152247641
 20
453.4173987051653
 97
        4
330
1486
330
1498
330
1490
330
1497
 75
     0
 76
     0
 52
135.0
 41
2.0
 77
     0
 78
     1
 53
135.0
 43
0.0
 44
0.0
 45
-1.414213562373095
 46
-1.414213562373094
 79
     0
 47
0.5323870499399578
 98
        2
 10
480.7396465680194
 20
463.0383630163396
 10
363.5437834315153
 20
464.6355252228956
  0
HATCH
  5
15C2
330
2
100
AcDbEntity
  8
SCHRAFF
100
AcDbHatch
 10
0.0
 20
0.0
 30
0.0
210
0.0
220
0.0
230
1.0
  2
NET
 70
     0
 71
     0
 91
        3
 92
        7
 72
     1
 73
     1
 93
       13
 10
671.9343152247639
 20
477.3359829922073
 42
0.0
 10
671.934315224764
 20
480.3359829922072
 42
0.0
 10
500.1859532305312
 20
480.3359829922072
 42
0.4716306187712164
 10
489.388054212607
 20
467.2370840430653
 42
0.0
 10
490.3751137765598
 20
462.1591027993297
 42
0.0
 10
490.6016032345155
 20
460.3729874088234
 42
-0.1638766063561482
 10
490.4755727929656
 20
459.7471891586847
 42
0.0
 10
488.4041136331685
 20
456.1593166481123
 42
0.0
 10
490.5787140368777
 20
453.9258350334964
 42
0.0
 10
493.434315224764
 20
458.8718813770696
 42
0.0
 10
493.4343152247639
 20
462.1434048958127
 42
0.0
 10
492.3329357629499
 20
467.809511029195
 42
-0.4716306187712171
 10
500.1859532305312
 20
477.3359829922073
 42
0.0
 97
        0
 92
        7
 72
     1
 73
     1
 93
        7
 10
479.434315224764
 20
448.4173987051651
 42
0.0
 10
479.434315224764
 20
445.4173987051651
 42
0.0
 10
485.5442020973921
 20
445.4173987051651
 42
0.0470518403705426
 10
486.19671091773
 20
446.3359829922073
 42
0.0
 10
490.5787140368778
 20
453.9258350334967
 42
0.0
 10
488.4041136331685
 20
456.1593166481123
 42
0.0
 10
483.934315224764
 20
448.4173987051652
 42
0.0
 97
        0
 92
        7
 72
     1
 73
     1
 93
       16
 10
171.9343152247641
 20
480.3359829922073
 42
0.0
 10
171.9343152247641
 20
477.3359829922072
 42
0.0
 10
343.6826772189968
 20
477.3359829922073
 42
-0.4716306187712195
 10
351.5356946865781
 20
467.809511029195
 42
0.0
 10
350.4343152247641
 20
462.1434048958122
 42
0.0
 10
350.434315224764
 20
458.8718813770694
 42
0.0
 10
357.6719195317981
 20
446.3359829922073
 42
0.0470518403705459
 10
358.324428352136
 20
445.4173987051651
 42
0.0
 10
364.434315224764
 20
445.4173987051651
 42
0.0
 10
364.4343152247641
 20
448.4173987051651
 42
0.0
 10
359.934315224764
 20
448.4173987051651
 42
0.0
 10
353.3930576565626
 20
459.7471891586847
 42
-0.1638766063561545
 10
353.2670272150127
 20
460.3729874088233
 42
0.0
 10
353.4935166729681
 20
462.1591027993283
 42
0.0
 10
354.4805762369211
 20
467.2370840430653
 42
0.4716306187712202
 10
343.6826772189968
 20
480.3359829922073
 42
0.0
 97
        0
 75
     0
 76
     1
 52
45.0
 41
10.0
 77
     0
 78
     2
 53
45.0
 43
0.0
 44
0.0
 45
-0.8838834764831842
 46
0.8838834764831844
 79
     0
 53
135.0
 43
0.0
 44
0.0
 45
-0.8838834764831844
 46
-0.8838834764831842
 79
     0
 47
0.5707150680849406
 98
        3
 10
612.2910642369925
 20
478.7993029299719
 10
482.6605267028562
 20
447.409973197444
 10
301.6346202059954
 20
479.3700167966769
  0
HATCH
  5
15F9
330
2
100
AcDbEntity
  8
SCHRAFF
100
AcDbHatch
 10
0.0
 20
0.0
 30
0.0
210
0.0
220
0.0
230
1.0
  2
NET
 70
     0
 71
     0
 91
        4
 92
        7
 72
     1
 73
     1
 93
       20
 10
490.4755727929656
 20
459.7471891586846
 42
0.1638766063561241
 10
490.6016032345156
 20
460.3729874088231
 42
0.0
 10
490.37511377656
 20
462.1591027993278
 42
0.0
 10
490.1955157936106
 20
463.0830543237708
 42
0.4420454759426243
 10
486.7741395468043
 20
464.4860727296758
 42
-0.2419833741269067
 10
485.8602044366395
 20
464.5149272261638
 42
-0.249260364524312
 10
484.8378798207599
 20
466.0896081140122
 42
0.0
 10
483.9190649458612
 20
476.5917101906606
 42
0.3888787318534311
 10
481.9266755496777
 20
478.4173987051687
 42
0.0
 10
479.9419548998509
 20
478.4173987051686
 42
0.3888787318529568
 10
477.9495655036676
 20
476.591710190664
 42
0.0
 10
477.2336761338665
 20
468.4090572508442
 42
0.3872810292961147
 10
474.5676035922208
 20
466.3515191493326
 42
0.0
 10
472.225731468434
 20
453.0701023498315
 42
-0.3639702342662091
 10
470.2561159624097
 20
451.4173987051653
 42
0.0
 10
469.9343152247642
 20
451.4173987051653
 42
0.0
 10
469.9343152247642
 20
449.4173987051652
 42
0.0
 10
476.4343152247644
 20
449.4173987051651
 42
0.0
 10
478.1663660323336
 20
448.4173987051652
 42
0.0
 10
483.934315224764
 20
448.4173987051652
 42
0.0
 97
        0
 92
       22
 72
     0
 73
     1
 93
        4
 10
481.9343152247642
 20
453.4173987051653
 10
479.9343152247643
 20
453.4173987051653
 10
479.9343152247642
 20
476.4173987051653
 10
481.9343152247643
 20
476.4173987051653
 97
        0
 92
        7
 72
     1
 73
     1
 93
       20
 10
369.3010268573078
 20
466.3515191493324
 42
0.3872810292961007
 10
366.6349543156622
 20
468.4090572508441
 42
0.0
 10
365.919064945861
 20
476.5917101906606
 42
0.3888787318530053
 10
363.9266755496775
 20
478.4173987051653
 42
0.0
 10
361.9419548998508
 20
478.4173987051653
 42
0.3888787318530134
 10
359.9495655036672
 20
476.5917101906605
 42
0.0
 10
359.0307506287684
 20
466.0896081140122
 42
-0.2492603645243095
 10
358.0084260128887
 20
464.5149272261639
 42
-0.241983374126944
 10
357.0944909027237
 20
464.4860727296758
 42
0.4420454759427336
 10
353.6731146559172
 20
463.0830543237699
 42
0.0
 10
353.4935166729681
 20
462.1591027993291
 42
0.0
 10
353.2670272150127
 20
460.3729874088233
 42
0.1638766063561213
 10
353.3930576565625
 20
459.7471891586848
 42
0.0
 10
359.9343152247641
 20
448.417398705165
 42
0.0
 10
365.7022644171949
 20
448.4173987051651
 42
0.0
 10
367.434315224764
 20
449.4173987051651
 42
0.0
 10
373.9343152247641
 20
449.4173987051651
 42
0.0
 10
373.9343152247641
 20
451.4173987051653
 42
0.0
 10
373.6125144871187
 20
451.4173987051653
 42
-0.3639702342662091
 10
371.6428989810943
 20
453.0701023498314
 42
0.0
 97
        0
 92
       22
 72
     0
 73
     1
 93
        4
 10
363.9343152247641
 20
453.4173987051653
 10
361.9343152247641
 20
453.4173987051652
 10
361.9343152247641
 20
476.4173987051651
 10
363.9343152247641
 20
476.4173987051651
 97
        0
 75
     0
 76
     1
 52
45.0
 41
15.0
 77
     0
 78
     2
 53
45.0
 43
0.0
 44
0.0
 45
-1.325825214724776
 46
1.325825214724776
 79
     0
 53
135.0
 43
0.0
 44
0.0
 45
-1.325825214724776
 46
-1.325825214724776
 79
     0
 47
0.5707150680849406
 98
        4
 10
483.8026444445294
 20
459.3949895471564
 10
483.8026444445294
 20
459.3949895471564
 10
367.8775381109167
 20
455.3999840972521
 10
367.8775381109167
 20
455.3999840972521
  0
LINE
  5
164B
330
2
100
AcDbEntity
  8
TEXT
 62
     2
100
AcDbLine
 10
471.6797842551262
 20
235.4771245185587
 30
0.0
 11
561.6110223066055
 21
204.1211581411673
 31
0.0
  0
LINE
  5
164C
330
2
100
AcDbEntity
  8
TEXT
 62
     2
100
AcDbLine
 10
497.7643399942184
 20
334.426673041497
 30
0.0
 11
560.5363361518523
 21
316.9829627384234
 31
0.0
  0
TEXT
  5
164D
330
2
100
AcDbEntity
  8
TEXT
 62
     1
100
AcDbText
 10
562.9243954557494
 20
195.1975638428324
 30
0.0
 40
7.0
  1
EDV-Art.Nr. 17115.100A
 41
0.8
  7
GREEKS
100
AcDbText
  0
TEXT
  5
164E
330
2
100
AcDbEntity
  8
TEXT
 62
     1
100
AcDbText
 10
563.6316564106257
 20
207.8441114409737
 30
0.0
 40
7.0
  1
Ablautopf DN100
 41
0.8
  7
GREEKS
100
AcDbText
  0
LINE
  5
164F
330
2
100
AcDbEntity
  8
TEXT
 62
     2
100
AcDbLine
 10
560.5363361518523
 20
316.9829627384234
 30
0.0
 11
668.0410025654765
 21
316.9829627384233
 31
0.0
  0
TEXT
  5
1650
330
2
100
AcDbEntity
  8
TEXT
 62
     1
100
AcDbText
 10
562.5569702558728
 20
320.7059160382299
 30
0.0
 40
7.0
  1
Wärmedämmung DN100
 41
0.8
  7
GREEKS
100
AcDbText
  0
LINE
  5
1651
330
2
100
AcDbEntity
  8
TEXT
 62
     2
100
AcDbLine
 10
561.6110223066055
 20
204.1211581411673
 30
0.0
 11
668.268895727343
 21
204.1211581411673
 31
0.0
  0
TEXT
  5
1652
330
2
100
AcDbEntity
  8
TEXT
 62
     1
100
AcDbText
 10
562.5569702558727
 20
306.4930063072996
 30
0.0
 40
7.0
  1
EDV-Art.Nr. 19842.100X
 41
0.8
  7
GREEKS
100
AcDbText
  0
LINE
  5
1653
330
2
100
AcDbEntity
  8
TEXT
 62
     2
100
AcDbLine
 10
486.1479811522523
 20
459.2880827226757
 30
0.0
 11
574.9134397893892
 21
390.3242036924705
 31
0.0
  0
LINE
  5
1654
330
2
100
AcDbEntity
  8
TEXT
 62
     2
100
AcDbLine
 10
574.9134397893892
 20
390.3242036924705
 30
0.0
 11
682.4181062030135
 21
390.3242036924703
 31
0.0
  0
TEXT
  5
1655
330
2
100
AcDbEntity
  8
TEXT
 62
     1
100
AcDbText
 10
576.9340738934096
 20
394.0471569922769
 30
0.0
 40
7.0
  1
Klemmring DN100
 41
0.8
  7
GREEKS
100
AcDbText
  0
TEXT
  5
1656
330
2
100
AcDbEntity
  8
TEXT
 62
     1
100
AcDbText
 10
576.9340738934096
 20
379.8342472613466
 30
0.0
 40
7.0
  1
EDV-Art.Nr. 17201.100A
 41
0.8
  7
GREEKS
100
AcDbText
  0
TEXT
  5
1657
330
2
100
AcDbEntity
  8
TEXT
 62
     1
100
AcDbText
 10
608.2437540365466
 20
441.2980623395382
 30
0.0
 40
7.0
  1
EDV-Art.Nr. 17100.100X
 41
0.8
  7
GREEKS
100
AcDbText
  0
TEXT
  5
1658
330
2
100
AcDbEntity
  8
TEXT
 62
     1
100
AcDbText
 10
608.2437540365466
 20
455.5109720704685
 30
0.0
 40
7.0
  1
Anschlußmanschette DN100
 41
0.8
  7
GREEKS
100
AcDbText
  0
LINE
  5
1659
330
2
100
AcDbEntity
  8
TEXT
 62
     2
100
AcDbLine
 10
606.2231199325264
 20
451.7880187706619
 30
0.0
 11
729.6609493322799
 21
451.7880187706619
 31
0.0
  0
LINE
  5
165A
330
2
100
AcDbEntity
  8
TEXT
 62
     2
100
AcDbLine
 10
576.1865352429553
 20
478.788385311643
 30
0.0
 11
606.2231199325264
 21
451.7880187706619
 31
0.0
  0
DIMENSION
  5
165B
330
2
100
AcDbEntity
  8
BEM
100
AcDbDimension
  2
*D6
 10
501.934315224764
 20
171.2629436683566
 30
0.0
 11
421.934315224764
 21
177.7629436683566
 31
0.0
 70
    32
  1
%%c<>
 71
     5
 42
159.9999999999999
  3
STANDARD
100
AcDbAlignedDimension
 13
341.9343152247642
 23
315.3359829922081
 33
0.0
 14
501.934315224764
 24
315.3359829922075
 34
0.0
100
AcDbRotatedDimension
1001
ACAD
1000
DSTYLE
1002
{
1070
    40
1040
2.0
1070
    41
1040
3.5
1070
    42
1040
1.0
1070
    43
1040
7.0
1070
    44
1040
1.0
1070
    73
1070
     0
1070
    74
1070
     0
1070
    77
1070
     1
1070
    78
1070
     8
1070
    79
1070
     2
1070
   140
1040
3.5
1070
   141
1040
1.5
1070
   146
1040
0.5142857142857144
1070
   147
1040
1.5
1070
   172
1070
     1
1070
   178
1070
     1
1070
   179
1070
     2
1070
   271
1070
     2
1070
   272
1070
     2
1070
   284
1070
     8
1070
   285
1070
     8
1070
   286
1070
     8
1002
}
  0
LINE
  5
165E
330
2
100
AcDbEntity
  8
STEMPEL
100
AcDbLine
 10
516.934315224764
 20
475.335982992208
 30
0.0
 11
502.189313150444
 21
318.0559608661287
 31
0.0
  0
ARC
  5
165F
330
2
100
AcDbEntity
  8
STEMPEL
100
AcDbCircle
 10
499.2024104722662
 20
318.3359829922079
 30
0.0
 40
3.0
100
AcDbArc
 50
270.0
 51
354.6441749571445
  0
LINE
  5
1661
330
2
100
AcDbEntity
  8
STEMPEL
100
AcDbLine
 10
482.934315224764
 20
315.3359829922075
 30
0.0
 11
499.2024104722662
 21
315.3359829922073
 31
0.0
  0
DIMENSION
  5
166C
330
2
100
AcDbEntity
  8
BEM
100
AcDbDimension
  2
*D7
 10
251.4841275285894
 20
315.3359829922081
 30
0.0
 11
244.9841275285894
 21
395.3359829922078
 31
0.0
 70
    32
 71
     5
 42
159.9999999999992
  3
STANDARD
100
AcDbAlignedDimension
 13
256.9343152247639
 23
475.3359829922073
 33
0.0
 14
341.9343152247642
 24
315.3359829922081
 34
0.0
 50
270.0
100
AcDbRotatedDimension
1001
ACAD
1000
DSTYLE
1002
{
1070
    40
1040
2.0
1070
    41
1040
3.5
1070
    42
1040
1.0
1070
    43
1040
7.0
1070
    44
1040
1.0
1070
    73
1070
     0
1070
    74
1070
     0
1070
    77
1070
     1
1070
    78
1070
     8
1070
    79
1070
     2
1070
   140
1040
3.5
1070
   141
1040
1.5
1070
   146
1040
0.5142857142857144
1070
   147
1040
1.5
1070
   172
1070
     1
1070
   178
1070
     1
1070
   179
1070
     2
1070
   271
1070
     2
1070
   272
1070
     2
1070
   284
1070
     8
1070
   285
1070
     8
1070
   286
1070
     8
1002
}
  0
LINE
  5
166D
330
2
100
AcDbEntity
  8
STEMPEL
100
AcDbLine
 10
344.6662199772619
 20
315.3359829922079
 30
0.0
 11
370.9343152247642
 21
315.3359829922079
 31
0.0
  0
ARC
  5
166E
330
2
100
AcDbEntity
  8
STEMPEL
100
AcDbCircle
 10
344.6662199772619
 20
318.3359829922079
 30
0.0
 40
3.0
100
AcDbArc
 50
185.3558250428554
 51
270.0
  0
LINE
  5
166F
330
2
100
AcDbEntity
  8
STEMPEL
100
AcDbLine
 10
326.9343152247641
 20
475.335982992208
 30
0.0
 11
341.679317299084
 21
318.0559608661287
 31
0.0
  0
HATCH
  5
16C9
330
2
100
AcDbEntity
  8
SCHRAFF
100
AcDbHatch
 10
0.0
 20
0.0
 30
0.0
210
0.0
220
0.0
230
1.0
  2
_USER
 70
     0
 71
     1
 91
        2
 92
        7
 72
     1
 73
     1
 93
       16
 10
476.6843152247642
 20
350.7939238571688
 42
-0.1599942435199906
 10
474.1046692070651
 20
342.938604265173
 42
0.1599942435199981
 10
471.1843152247641
 20
334.0457896327245
 42
0.0
 10
471.1843152247641
 20
215.4449340517302
 42
0.0
 10
470.1706963423238
 20
207.3359829922073
 42
0.0
 10
471.9343152247639
 20
207.3359829922072
 42
0.0
 10
472.9343152247643
 20
215.3359829922075
 42
0.0
 10
472.9343152247641
 20
334.0457896327245
 42
-0.159994243519989
 10
475.513961242463
 20
341.9011092247203
 42
0.1599942435199976
 10
478.434315224764
 20
350.7939238571688
 42
0.0
 10
478.434315224764
 20
429.33323715923
 42
-0.1272160680010462
 10
479.4687026408641
 20
433.3329165262624
 42
0.0
 10
483.464899712258
 20
440.5422468825327
 42
0.0
 10
481.9343152247641
 20
441.3906637179639
 42
0.0
 10
477.9381181533701
 20
434.1813333616933
 42
0.1272160680010499
 10
476.6843152247641
 20
429.3332371592298
 42
0.0
 97
       16
330
142B
330
142E
330
1464
330
142D
330
142C
330
1431
330
1437
330
1435
330
1439
330
143C
330
143F
330
143B
330
1438
330
1434
330
1436
330
1430
 92
        7
 72
     1
 73
     1
 93
       16
 10
367.1843152247641
 20
429.33323715923
 42
0.1272160680010451
 10
365.9305122961581
 20
434.1813333616933
 42
0.0
 10
361.934315224764
 20
441.3906637179638
 42
0.0
 10
360.4037307372701
 20
440.5422468825328
 42
0.0
 10
364.399927808664
 20
433.3329165262622
 42
-0.1272160680010502
 10
365.4343152247641
 20
429.3332371592298
 42
0.0
 10
365.4343152247641
 20
350.7939238571688
 42
0.1599942435199942
 10
368.3546692070649
 20
341.9011092247205
 42
-0.1599942435199934
 10
370.934315224764
 20
334.0457896327245
 42
0.0
 10
370.934315224764
 20
215.3359829922064
 42
0.0
 10
371.9343152247641
 20
207.3359829922072
 42
0.0
 10
373.6979341072045
 20
207.3359829922072
 42
0.0
 10
372.6843152247641
 20
215.4449340517291
 42
0.0
 10
372.684315224764
 20
334.0457896327245
 42
0.1599942435199952
 10
369.7639612424632
 20
342.9386042651729
 42
-0.1599942435199934
 10
367.1843152247641
 20
350.7939238571688
 42
0.0
 97
       16
330
1425
330
1427
330
1492
330
1428
330
1426
330
1429
330
1421
330
1424
330
141F
330
143D
330
143F
330
143E
330
1420
330
1423
330
1422
330
142A
 75
     0
 76
     0
 52
45.0
 41
2.0
 77
     0
 78
     1
 53
45.0
 43
0.0
 44
0.0
 45
-1.414213562373094
 46
1.414213562373095
 79
     0
 47
0.3320382343409478
 98
        2
 10
477.182829437087
 20
380.0595435843952
 10
366.9087307617506
 20
383.3799265126104
  0
TEXT
  5
1787
330
2
100
AcDbEntity
  8
TEXT
 62
     1
100
AcDbText
 10
567.5405023846094
 20
244.3425572302107
 30
0.0
 40
7.0
  1
EDV-Art.Nr. 19853.000X
 41
0.7
  7
GREEKS
100
AcDbText
  0
TEXT
  5
1788
330
2
100
AcDbEntity
  8
TEXT
 62
     1
100
AcDbText
 10
567.5405023846094
 20
259.3052630245771
 30
0.0
 40
7.0
  1
Heizbandkabel
 41
0.8
  7
GREEKS
100
AcDbText
  0
LINE
  5
1789
330
2
100
AcDbEntity
  8
TEXT
 62
     2
100
AcDbLine
 10
565.741410390143
 20
255.1601124148654
 30
0.0
 11
661.1167475577545
 21
255.1601124148654
 31
0.0
  0
LINE
  5
178A
330
2
100
AcDbEntity
  8
MITTEL
100
AcDbLine
 10
491.5020471922203
 20
275.2176073202225
 30
0.0
 11
478.0774511088329
 21
271.2451748163405
 31
0.0
  0
POLYLINE
  5
178B
330
2
100
AcDbEntity
  8
STEMPEL
100
AcDb2dPolyline
 66
     1
 10
0.0
 20
0.0
 30
0.0
  0
VERTEX
  5
178C
330
178B
100
AcDbEntity
  8
STEMPEL
100
AcDbVertex
100
AcDb2dVertex
 10
482.934315224764
 20
313.335982992206
 30
0.0
  0
VERTEX
  5
178D
330
178B
100
AcDbEntity
  8
STEMPEL
100
AcDbVertex
100
AcDb2dVertex
 10
482.928859433403
 20
306.4688919494501
 30
0.0
  0
VERTEX
  5
178E
330
178B
100
AcDbEntity
  8
STEMPEL
100
AcDbVertex
100
AcDb2dVertex
 10
482.9963111079663
 20
301.2151458362284
 30
0.0
  0
VERTEX
  5
178F
330
178B
100
AcDbEntity
  8
STEMPEL
100
AcDbVertex
100
AcDb2dVertex
 10
483.193734794578
 20
297.1363664363407
 30
0.0
  0
VERTEX
  5
1790
330
178B
100
AcDbEntity
  8
STEMPEL
100
AcDbVertex
100
AcDb2dVertex
 10
483.5687179834307
 20
293.7052548529787
 30
0.0
  0
VERTEX
  5
1791
330
178B
100
AcDbEntity
  8
STEMPEL
100
AcDbVertex
100
AcDb2dVertex
 10
484.1938938405946
 20
290.2853987589244
 30
0.0
  0
VERTEX
  5
1792
330
178B
100
AcDbEntity
  8
STEMPEL
100
AcDbVertex
100
AcDb2dVertex
 10
485.1819758549678
 20
286.2508678835153
 30
0.0
  0
VERTEX
  5
1793
330
178B
100
AcDbEntity
  8
STEMPEL
100
AcDbVertex
100
AcDb2dVertex
 10
486.6359607095266
 20
281.0893862652897
 30
0.0
  0
VERTEX
  5
1794
330
178B
100
AcDbEntity
  8
STEMPEL
100
AcDbVertex
100
AcDb2dVertex
 10
488.6253480314944
 20
274.3663717836763
 30
0.0
  0
SEQEND
  5
1795
330
178B
100
AcDbEntity
  8
STEMPEL
  0
LINE
  5
1796
330
2
100
AcDbEntity
  8
TEXT
 62
     2
100
AcDbLine
 10
565.741410390143
 20
255.1601124148654
 30
0.0
 11
482.0120002013207
 21
276.8131003327201
 31
0.0
  0
POLYLINE
  5
1797
330
2
100
AcDbEntity
  8
STEMPEL
100
AcDb2dPolyline
 66
     1
 10
0.0
 20
0.0
 30
0.0
 70
     4
 75
     6
  0
VERTEX
  5
1798
330
1797
100
AcDbEntity
  8
STEMPEL
100
AcDbVertex
100
AcDb2dVertex
 10
472.9343239026058
 20
313.3423388591723
 30
0.0
 70
    16
  0
VERTEX
  5
1799
330
1797
100
AcDbEntity
  8
STEMPEL
100
AcDbVertex
100
AcDb2dVertex
 10
472.9343239026058
 20
313.3423388591723
 30
0.0
 70
     8
  0
VERTEX
  5
179A
330
1797
100
AcDbEntity
  8
STEMPEL
100
AcDbVertex
100
AcDb2dVertex
 10
473.5889790062413
 20
306.4207167688377
 30
0.0
 70
     8
  0
VERTEX
  5
179B
330
1797
100
AcDbEntity
  8
STEMPEL
100
AcDbVertex
100
AcDb2dVertex
 10
474.1550474843252
 20
300.9703335641688
 30
0.0
 70
     8
  0
VERTEX
  5
179C
330
1797
100
AcDbEntity
  8
STEMPEL
100
AcDbVertex
100
AcDb2dVertex
 10
474.7265116770954
 20
296.5078385204827
 30
0.0
 70
     8
  0
VERTEX
  5
179D
330
1797
100
AcDbEntity
  8
STEMPEL
100
AcDbVertex
100
AcDb2dVertex
 10
475.3973539247893
 20
292.5498809130962
 30
0.0
 70
     8
  0
VERTEX
  5
179E
330
1797
100
AcDbEntity
  8
STEMPEL
100
AcDbVertex
100
AcDb2dVertex
 10
476.2615565676449
 20
288.6131100173264
 30
0.0
 70
     8
  0
VERTEX
  5
179F
330
1797
100
AcDbEntity
  8
STEMPEL
100
AcDbVertex
100
AcDb2dVertex
 10
477.4131019458998
 20
284.2141751084902
 30
0.0
 70
     8
  0
VERTEX
  5
17A0
330
1797
100
AcDbEntity
  8
STEMPEL
100
AcDbVertex
100
AcDb2dVertex
 10
478.9459723997917
 20
278.8697254619046
 30
0.0
 70
     8
  0
VERTEX
  5
17A1
330
1797
100
AcDbEntity
  8
STEMPEL
100
AcDbVertex
100
AcDb2dVertex
 10
480.9541502695585
 20
272.0964103528866
 30
0.0
 70
     8
  0
VERTEX
  5
17A2
330
1797
100
AcDbEntity
  8
STEMPEL
100
AcDbVertex
100
AcDb2dVertex
 10
474.8817262043584
 20
292.4933830154517
 30
0.0
 70
    16
  0
VERTEX
  5
17A3
330
1797
100
AcDbEntity
  8
STEMPEL
100
AcDbVertex
100
AcDb2dVertex
 10
480.9541502695586
 20
272.0964103528867
 30
0.0
 70
    16
  0
SEQEND
  5
17A4
330
1797
100
AcDbEntity
  8
STEMPEL
  0
HATCH
  5
17A5
330
2
100
AcDbEntity
  8
SCHRAFF
100
AcDbHatch
 10
0.0
 20
0.0
 30
0.0
210
0.0
220
0.0
230
1.0
  2
HONEY
 70
     0
 71
     0
 91
        2
 92
        7
 72
     1
 73
     1
 93
       11
 10
516.934315224764
 20
475.3359829922073
 42
0.0
 10
501.9343152247633
 20
475.3359829922074
 42
0.0
 10
495.434315224764
 20
470.3359829922081
 42
0.0
 10
495.4343152247638
 20
425.3359829922079
 42
0.0
 10
484.434315224764
 20
405.3359829922069
 42
0.0
 10
484.434315224764
 20
335.3359829922074
 42
0.0
 10
483.0913681575434
 20
333.7244465115428
 42
0.0443949063123995
 10
482.9343152247641
 20
331.9591156553315
 42
0.0
 10
482.9343152247641
 20
315.3359829922074
 42
0.0
 10
499.2024104722662
 20
315.3359829922074
 42
0.3870924378343482
 10
502.1893131504441
 20
318.0559608661288
 42
0.0
 97
        0
 92
        7
 72
     1
 73
     1
 93
       10
 10
341.679317299084
 20
318.0559608661288
 42
0.387092437834293
 10
344.6662199772619
 20
315.3359829922079
 42
0.0
 10
370.9343152247641
 20
315.3359829922078
 42
0.0
 10
370.9343152247641
 20
321.5359829922077
 42
0.0
 10
359.434315224764
 20
335.3359829922074
 42
0.0
 10
359.4343152247641
 20
405.3359829922078
 42
0.0
 10
348.4343152247643
 20
425.3359829922079
 42
0.0
 10
348.4343152247641
 20
470.335982992208
 42
0.0
 10
341.9343152247649
 20
475.3359829922073
 42
0.0
 10
326.9343152247641
 20
475.3359829922073
 42
0.0
 97
        0
 75
     0
 76
     1
 52
0.0
 41
35.0
 77
     0
 78
     3
 53
0.0
 43
182.9725523730827
 44
-17.82071952004878
 45
6.5625
 46
3.788861124999999
 79
     2
 49
4.375
 49
-8.75
 53
120.0
 43
182.9725523730827
 44
-17.82071952004878
 45
-6.562499985661285
 46
3.788861149835379
 79
     2
 49
4.374999999999998
 49
-8.749999999999996
 53
60.0
 43
182.9725523730827
 44
-17.82071952004878
 45
0.000000014338714
 46
7.577722274835378
 79
     2
 49
-8.75
 49
4.375
 47
0.8059790716514736
 98
        2
 10
500.1881235719152
 20
385.5458638532276
 10
346.1938854383884
 20
391.993696197745
  0
ARC
  5
17A6
330
2
100
AcDbEntity
  8
STEMPEL
100
AcDbCircle
 10
478.434315224764
 20
338.7229902845655
 30
0.0
 40
6.0
100
AcDbArc
 50
334.9921667653156
 51
0.0
  0
LINE
  5
17A7
330
2
100
AcDbEntity
  8
STEMPEL
100
AcDbLine
 10
483.5217296613209
 20
335.3359829922074
 30
0.0
 11
484.434315224764
 21
335.3359829922074
 31
0.0
  0
LINE
  5
17A8
330
2
100
AcDbEntity
  8
STEMPEL
100
AcDbLine
 10
484.434315224764
 20
428.3332371592298
 30
0.0
 11
484.434315224764
 21
335.3359829922074
 31
0.0
  0
LINE
  5
17A9
330
2
100
AcDbEntity
  8
STEMPEL
100
AcDbLine
 10
483.0913681575434
 20
333.7244465115428
 30
0.0
 11
484.434315224764
 21
335.3359829922074
 31
0.0
  0
ARC
  5
17AA
330
2
100
AcDbEntity
  8
STEMPEL
100
AcDbCircle
 10
492.9343152247641
 20
331.9591156553314
 30
0.0
 40
10.0
100
AcDbArc
 50
154.9921667653156
 51
180.0
  0
LINE
  5
17AB
330
2
100
AcDbEntity
  8
STEMPEL
100
AcDbLine
 10
482.934315224764
 20
313.335982992206
 30
0.0
 11
482.9343152247641
 21
331.9591156553315
 31
0.0
  0
LINE
  5
17AC
330
2
100
AcDbEntity
  8
STEMPEL
100
AcDbLine
 10
359.4343152247641
 20
405.3359829922077
 30
0.0
 11
359.4343152247641
 21
335.335982992208
 31
0.0
  0
LINE
  5
17AD
330
2
100
AcDbEntity
  8
STEMPEL
100
AcDbLine
 10
359.4343152247641
 20
335.335982992208
 30
0.0
 11
370.8713505661571
 21
335.335982992208
 31
0.0
  0
LINE
  5
17AE
330
2
100
AcDbEntity
  8
STEMPEL
100
AcDbLine
 10
370.9343152247641
 20
321.5359829922077
 30
0.0
 11
359.4343152247641
 21
335.3359829922074
 31
0.0
  0
LINE
  5
17AF
330
2
100
AcDbEntity
  8
STEMPEL
100
AcDbLine
 10
484.434315224764
 20
425.3359829922078
 30
0.0
 11
495.4343152247638
 21
425.3359829922078
 31
0.0
  0
LINE
  5
17B0
330
2
100
AcDbEntity
  8
STEMPEL
100
AcDbLine
 10
495.4343152247638
 20
425.3359829922078
 30
0.0
 11
495.434315224764
 21
470.3359829922081
 31
0.0
  0
LINE
  5
17B1
330
2
100
AcDbEntity
  8
STEMPEL
100
AcDbLine
 10
495.4343152247638
 20
425.3359829922078
 30
0.0
 11
484.434315224764
 21
405.3359829922069
 31
0.0
  0
ARC
  5
17B2
330
2
100
AcDbEntity
  8
STEMPEL
100
AcDbCircle
 10
481.4343152247641
 20
428.3332371592298
 30
0.0
 40
3.0
100
AcDbArc
 50
0.0
 51
89.99999999999349
  0
LINE
  5
17B3
102
{ACAD_REACTORS
330
17C4
102
}
330
2
100
AcDbEntity
  8
STEMPEL
  6
Continuous
100
AcDbLine
 10
483.4343152247641
 20
429.3332371592298
 30
0.0
 11
483.4343152247641
 21
423.3332371592299
 31
0.0
  0
HATCH
  5
17B4
330
2
100
AcDbEntity
  8
SCHRAFF
100
AcDbHatch
 10
0.0
 20
0.0
 30
0.0
210
0.0
220
0.0
230
1.0
  2
_USER
 70
     0
 71
     1
 91
        1
 92
        7
 72
     1
 73
     1
 93
        8
 10
482.4343152247641
 20
429.3332371592298
 42
0.4142135623730951
 10
481.4343152247641
 20
430.3332371592299
 42
0.0
 10
480.4343152247641
 20
430.33323715923
 42
0.4142135623730951
 10
479.4343152247641
 20
429.33323715923
 42
0.0
 10
479.4343152247641
 20
423.3332371592299
 42
0.4142135623730951
 10
480.4343152247641
 20
422.3332371592299
 42
0.0
 10
481.4343152247641
 20
422.3332371592299
 42
0.4142135623730951
 10
482.4343152247641
 20
423.3332371592299
 42
0.0
 97
        8
330
17BC
330
17B7
330
17BF
330
17B5
330
17C0
330
17B8
330
17B9
330
17B6
 75
     0
 76
     0
 52
135.0
 41
1.0
 77
     0
 78
     1
 53
135.0
 43
220.5043964729223
 44
46.92612318889376
 45
-0.7071067811865476
 46
-0.7071067811865475
 79
     0
 47
0.1071053300341939
 98
        1
 10
480.9994652365565
 20
426.1093125928065
  0
LINE
  5
17B5
102
{ACAD_REACTORS
330
17B4
330
17C4
102
}
330
2
100
AcDbEntity
  8
STEMPEL
  6
Continuous
100
AcDbLine
 10
479.4343152247641
 20
429.33323715923
 30
0.0
 11
479.4343152247641
 21
423.3332371592299
 31
0.0
  0
LINE
  5
17B6
102
{ACAD_REACTORS
330
17B4
330
17C4
102
}
330
2
100
AcDbEntity
  8
STEMPEL
  6
Continuous
100
AcDbLine
 10
482.4343152247641
 20
429.3332371592298
 30
0.0
 11
482.4343152247641
 21
423.3332371592299
 31
0.0
  0
LINE
  5
17B7
102
{ACAD_REACTORS
330
17B4
330
17C4
102
}
330
2
100
AcDbEntity
  8
STEMPEL
100
AcDbLine
 10
480.4343152247641
 20
430.33323715923
 30
0.0
 11
481.4343152247641
 21
430.3332371592299
 31
0.0
  0
LINE
  5
17B8
102
{ACAD_REACTORS
330
17B4
330
17C4
102
}
330
2
100
AcDbEntity
  8
STEMPEL
100
AcDbLine
 10
480.4343152247641
 20
422.3332371592299
 30
0.0
 11
481.4343152247641
 21
422.3332371592299
 31
0.0
  0
ARC
  5
17B9
102
{ACAD_REACTORS
330
17B4
330
17C4
102
}
330
2
100
AcDbEntity
  8
STEMPEL
100
AcDbCircle
 10
481.4343152247641
 20
423.3332371592299
 30
0.0
 40
1.0
100
AcDbArc
 50
270.0
 51
0.0
  0
LINE
  5
17BA
102
{ACAD_REACTORS
330
17C4
102
}
330
2
100
AcDbEntity
  8
STEMPEL
100
AcDbLine
 10
480.4343152247641
 20
421.3332371592299
 30
0.0
 11
481.4343152247641
 21
421.3332371592299
 31
0.0
  0
ARC
  5
17BB
102
{ACAD_REACTORS
330
17C4
102
}
330
2
100
AcDbEntity
  8
STEMPEL
100
AcDbCircle
 10
481.4343152247641
 20
423.3332371592299
 30
0.0
 40
2.0
100
AcDbArc
 50
270.0
 51
0.0
  0
ARC
  5
17BC
102
{ACAD_REACTORS
330
17B4
330
17C4
102
}
330
2
100
AcDbEntity
  8
STEMPEL
100
AcDbCircle
 10
481.4343152247641
 20
429.3332371592298
 30
0.0
 40
1.0
100
AcDbArc
 50
0.0
 51
90.0
  0
LINE
  5
17BD
102
{ACAD_REACTORS
330
17C4
102
}
330
2
100
AcDbEntity
  8
STEMPEL
  6
Continuous
100
AcDbLine
 10
478.4343152247641
 20
429.33323715923
 30
0.0
 11
478.4343152247641
 21
423.3332371592299
 31
0.0
  0
ARC
  5
17BE
102
{ACAD_REACTORS
330
17C4
102
}
330
2
100
AcDbEntity
  8
STEMPEL
100
AcDbCircle
 10
480.4343152247641
 20
423.3332371592299
 30
0.0
 40
2.0
100
AcDbArc
 50
180.0
 51
270.0
  0
ARC
  5
17BF
102
{ACAD_REACTORS
330
17B4
330
17C4
102
}
330
2
100
AcDbEntity
  8
STEMPEL
100
AcDbCircle
 10
480.4343152247641
 20
429.33323715923
 30
0.0
 40
1.0
100
AcDbArc
 50
90.0
 51
180.0
  0
ARC
  5
17C0
102
{ACAD_REACTORS
330
17B4
330
17C4
102
}
330
2
100
AcDbEntity
  8
STEMPEL
100
AcDbCircle
 10
480.4343152247641
 20
423.3332371592299
 30
0.0
 40
1.0
100
AcDbArc
 50
180.0
 51
270.0
  0
LINE
  5
17C1
102
{ACAD_REACTORS
330
17C4
102
}
330
2
100
AcDbEntity
  8
STEMPEL
100
AcDbLine
 10
481.4343152247643
 20
431.3332371592299
 30
0.0
 11
480.4343152247641
 21
431.3332371592299
 31
0.0
  0
ARC
  5
17C2
102
{ACAD_REACTORS
330
17C4
102
}
330
2
100
AcDbEntity
  8
STEMPEL
100
AcDbCircle
 10
481.4343152247641
 20
429.3332371592298
 30
0.0
 40
2.0
100
AcDbArc
 50
0.0
 51
90.0
  0
ARC
  5
17C3
102
{ACAD_REACTORS
330
17C4
102
}
330
2
100
AcDbEntity
  8
STEMPEL
100
AcDbCircle
 10
480.4343152247641
 20
429.33323715923
 30
0.0
 40
2.0
100
AcDbArc
 50
90.0
 51
180.0
  0
HATCH
  5
17C4
330
2
100
AcDbEntity
  8
SCHRAFF
100
AcDbHatch
 10
0.0
 20
0.0
 30
0.0
210
0.0
220
0.0
230
1.0
  2
NET
 70
     0
 71
     1
 91
        2
 92
        7
 72
     1
 73
     1
 93
        8
 10
483.4343152247641
 20
429.3332371592298
 42
0.4142135623730618
 10
481.4343152247643
 20
431.3332371592299
 42
0.0
 10
480.4343152247641
 20
431.3332371592299
 42
0.4142135623730951
 10
478.4343152247641
 20
429.33323715923
 42
0.0
 10
478.4343152247641
 20
423.3332371592299
 42
0.4142135623730951
 10
480.4343152247641
 20
421.3332371592299
 42
0.0
 10
481.4343152247641
 20
421.3332371592299
 42
0.4142135623730951
 10
483.4343152247641
 20
423.3332371592299
 42
0.0
 97
        8
330
17C2
330
17C1
330
17C3
330
17BD
330
17BE
330
17BA
330
17BB
330
17B3
 92
       22
 72
     1
 73
     1
 93
        8
 10
482.4343152247641
 20
423.3332371592299
 42
-0.4142135623730951
 10
481.4343152247641
 20
422.3332371592299
 42
0.0
 10
480.4343152247641
 20
422.3332371592299
 42
-0.4142135623730951
 10
479.4343152247641
 20
423.3332371592299
 42
0.0
 10
479.4343152247641
 20
429.33323715923
 42
-0.4142135623731284
 10
480.4343152247642
 20
430.33323715923
 42
0.0
 10
481.4343152247641
 20
430.3332371592299
 42
-0.4142135623730951
 10
482.4343152247641
 20
429.3332371592298
 42
0.0
 97
        8
330
17B9
330
17B8
330
17C0
330
17B5
330
17BF
330
17B7
330
17BC
330
17B6
 75
     0
 76
     1
 52
45.0
 41
10.0
 77
     0
 78
     2
 53
45.0
 43
188.1585430712451
 44
78.22908762367518
 45
-0.8838834764831842
 46
0.8838834764831844
 79
     0
 53
135.0
 43
188.1585430712451
 44
78.22908762367518
 45
-0.8838834764831844
 46
-0.8838834764831842
 79
     0
 47
0.2432155912222071
 98
        2
 10
483.1467456319172
 20
423.6524125518742
 10
483.1467456319172
 20
423.6524125518742
  0
LINE
  5
17C5
330
2
100
AcDbEntity
  8
STEMPEL
100
AcDbLine
 10
494.2698734474317
 20
470.3359829922081
 30
0.0
 11
495.434315224764
 21
470.3359829922081
 31
0.0
  0
LINE
  5
17C6
330
2
100
AcDbEntity
  8
STEMPEL
100
AcDbLine
 10
501.9343152247641
 20
475.335982992208
 30
0.0
 11
495.434315224764
 21
470.3359829922081
 31
0.0
  0
LINE
  5
17C7
330
2
100
AcDbEntity
  8
STEMPEL
100
AcDbLine
 10
359.4343152247641
 20
405.3359829922077
 30
0.0
 11
365.4343152247641
 21
405.3359829922077
 31
0.0
  0
LINE
  5
17C8
330
2
100
AcDbEntity
  8
STEMPEL
100
AcDbLine
 10
348.4343152247643
 20
425.3359829922078
 30
0.0
 11
359.4343152247641
 21
405.3359829922077
 31
0.0
  0
LINE
  5
17C9
330
2
100
AcDbEntity
  8
STEMPEL
100
AcDbLine
 10
348.4343152247643
 20
425.3359829922078
 30
0.0
 11
360.4343152247641
 21
425.3359829922078
 31
0.0
  0
LINE
  5
17CA
330
2
100
AcDbEntity
  8
STEMPEL
100
AcDbLine
 10
348.4343152247643
 20
425.3359829922078
 30
0.0
 11
348.4343152247641
 21
470.3359829922081
 31
0.0
  0
HATCH
  5
17CB
330
2
100
AcDbEntity
  8
SCHRAFF
100
AcDbHatch
 10
0.0
 20
0.0
 30
0.0
210
0.0
220
0.0
230
1.0
  2
NET
 70
     0
 71
     1
 91
        2
 92
        7
 72
     1
 73
     1
 93
        8
 10
360.4343152247641
 20
423.3332371592299
 42
0.4142135623730951
 10
362.4343152247641
 20
421.3332371592299
 42
0.0
 10
363.4343152247641
 20
421.3332371592299
 42
0.4142135623730951
 10
365.4343152247641
 20
423.3332371592299
 42
0.0
 10
365.4343152247641
 20
429.33323715923
 42
0.4142135623730951
 10
363.4343152247641
 20
431.3332371592299
 42
0.0
 10
362.4343152247641
 20
431.3332371592299
 42
0.4142135623730951
 10
360.4343152247641
 20
429.3332371592298
 42
0.0
 97
        8
330
17CD
330
17CE
330
17CC
330
17D2
330
17D1
330
17D5
330
17D4
330
17DC
 92
       22
 72
     1
 73
     1
 93
        8
 10
361.4343152247641
 20
429.3332371592298
 42
-0.4142135623730951
 10
362.4343152247641
 20
430.3332371592299
 42
0.0
 10
363.4343152247641
 20
430.33323715923
 42
-0.4142135623730951
 10
364.4343152247641
 20
429.33323715923
 42
0.0
 10
364.4343152247641
 20
423.3332371592299
 42
-0.4142135623730951
 10
363.4343152247641
 20
422.3332371592299
 42
0.0
 10
362.4343152247641
 20
422.3332371592299
 42
-0.4142135623730951
 10
361.4343152247641
 20
423.3332371592299
 42
0.0
 97
        8
330
17D6
330
17D7
330
17CF
330
17DA
330
17D0
330
17D8
330
17D3
330
17D9
 75
     0
 76
     1
 52
45.0
 41
10.0
 77
     0
 78
     2
 53
135.0
 43
655.7100873782831
 44
78.22908762367518
 45
0.883883476483184
 46
0.8838834764831844
 79
     0
 53
45.0
 43
655.7100873782831
 44
78.22908762367518
 45
0.8838834764831842
 46
-0.8838834764831842
 79
     0
 47
0.2432155912222071
 98
        2
 10
360.7218848176111
 20
423.6524125518742
 10
360.7218848176111
 20
423.6524125518742
  0
ARC
  5
17CC
102
{ACAD_REACTORS
330
17CB
102
}
330
2
100
AcDbEntity
  8
STEMPEL
100
AcDbCircle
 10
363.4343152247641
 20
429.33323715923
 30
0.0
 40
2.0
100
AcDbArc
 50
0.0
 51
90.0
  0
ARC
  5
17CD
102
{ACAD_REACTORS
330
17CB
102
}
330
2
100
AcDbEntity
  8
STEMPEL
100
AcDbCircle
 10
362.4343152247641
 20
429.3332371592298
 30
0.0
 40
2.0
100
AcDbArc
 50
90.0
 51
180.0
  0
LINE
  5
17CE
102
{ACAD_REACTORS
330
17CB
102
}
330
2
100
AcDbEntity
  8
STEMPEL
100
AcDbLine
 10
362.4343152247641
 20
431.3332371592299
 30
0.0
 11
363.4343152247641
 21
431.3332371592299
 31
0.0
  0
ARC
  5
17CF
102
{ACAD_REACTORS
330
17DB
330
17CB
102
}
330
2
100
AcDbEntity
  8
STEMPEL
100
AcDbCircle
 10
363.4343152247641
 20
423.3332371592299
 30
0.0
 40
1.0
100
AcDbArc
 50
270.0
 51
0.0
  0
ARC
  5
17D0
102
{ACAD_REACTORS
330
17DB
330
17CB
102
}
330
2
100
AcDbEntity
  8
STEMPEL
100
AcDbCircle
 10
363.4343152247641
 20
429.33323715923
 30
0.0
 40
1.0
100
AcDbArc
 50
0.0
 51
90.0
  0
ARC
  5
17D1
102
{ACAD_REACTORS
330
17CB
102
}
330
2
100
AcDbEntity
  8
STEMPEL
100
AcDbCircle
 10
363.4343152247641
 20
423.3332371592299
 30
0.0
 40
2.0
100
AcDbArc
 50
270.0
 51
0.0
  0
LINE
  5
17D2
102
{ACAD_REACTORS
330
17CB
102
}
330
2
100
AcDbEntity
  8
STEMPEL
  6
Continuous
100
AcDbLine
 10
365.4343152247641
 20
429.33323715923
 30
0.0
 11
365.4343152247641
 21
423.3332371592299
 31
0.0
  0
ARC
  5
17D3
102
{ACAD_REACTORS
330
17DB
330
17CB
102
}
330
2
100
AcDbEntity
  8
STEMPEL
100
AcDbCircle
 10
362.4343152247641
 20
429.3332371592298
 30
0.0
 40
1.0
100
AcDbArc
 50
90.0
 51
180.0
  0
ARC
  5
17D4
102
{ACAD_REACTORS
330
17CB
102
}
330
2
100
AcDbEntity
  8
STEMPEL
100
AcDbCircle
 10
362.4343152247641
 20
423.3332371592299
 30
0.0
 40
2.0
100
AcDbArc
 50
180.0
 51
270.0
  0
LINE
  5
17D5
102
{ACAD_REACTORS
330
17CB
102
}
330
2
100
AcDbEntity
  8
STEMPEL
100
AcDbLine
 10
363.4343152247641
 20
421.3332371592299
 30
0.0
 11
362.4343152247641
 21
421.3332371592299
 31
0.0
  0
ARC
  5
17D6
102
{ACAD_REACTORS
330
17DB
330
17CB
102
}
330
2
100
AcDbEntity
  8
STEMPEL
100
AcDbCircle
 10
362.4343152247641
 20
423.3332371592299
 30
0.0
 40
1.0
100
AcDbArc
 50
180.0
 51
270.0
  0
LINE
  5
17D7
102
{ACAD_REACTORS
330
17DB
330
17CB
102
}
330
2
100
AcDbEntity
  8
STEMPEL
100
AcDbLine
 10
363.4343152247641
 20
422.3332371592299
 30
0.0
 11
362.4343152247641
 21
422.3332371592299
 31
0.0
  0
LINE
  5
17D8
102
{ACAD_REACTORS
330
17DB
330
17CB
102
}
330
2
100
AcDbEntity
  8
STEMPEL
100
AcDbLine
 10
363.4343152247641
 20
430.33323715923
 30
0.0
 11
362.4343152247641
 21
430.3332371592299
 31
0.0
  0
LINE
  5
17D9
102
{ACAD_REACTORS
330
17DB
330
17CB
102
}
330
2
100
AcDbEntity
  8
STEMPEL
  6
Continuous
100
AcDbLine
 10
361.4343152247641
 20
429.3332371592298
 30
0.0
 11
361.4343152247641
 21
423.3332371592299
 31
0.0
  0
LINE
  5
17DA
102
{ACAD_REACTORS
330
17DB
330
17CB
102
}
330
2
100
AcDbEntity
  8
STEMPEL
  6
Continuous
100
AcDbLine
 10
364.4343152247641
 20
429.33323715923
 30
0.0
 11
364.4343152247641
 21
423.3332371592299
 31
0.0
  0
HATCH
  5
17DB
330
2
100
AcDbEntity
  8
SCHRAFF
100
AcDbHatch
 10
0.0
 20
0.0
 30
0.0
210
0.0
220
0.0
230
1.0
  2
_USER
 70
     0
 71
     1
 91
        1
 92
        7
 72
     1
 73
     1
 93
        8
 10
361.4343152247641
 20
423.3332371592299
 42
0.4142135623730951
 10
362.4343152247641
 20
422.3332371592299
 42
0.0
 10
363.4343152247641
 20
422.3332371592299
 42
0.4142135623730951
 10
364.4343152247641
 20
423.3332371592299
 42
0.0
 10
364.4343152247641
 20
429.33323715923
 42
0.4142135623731283
 10
363.434315224764
 20
430.33323715923
 42
0.0
 10
362.4343152247641
 20
430.3332371592299
 42
0.4142135623730951
 10
361.4343152247641
 20
429.3332371592298
 42
0.0
 97
        8
330
17D3
330
17D8
330
17D0
330
17DA
330
17CF
330
17D7
330
17D6
330
17D9
 75
     0
 76
     0
 52
135.0
 41
1.0
 77
     0
 78
     1
 53
135.0
 43
182.9725523730827
 44
-17.82071952004878
 45
-0.7071067811865476
 46
-0.7071067811865475
 79
     0
 47
0.1071053300341939
 98
        1
 10
362.8691652129717
 20
426.1093125928065
  0
LINE
  5
17DC
102
{ACAD_REACTORS
330
17CB
102
}
330
2
100
AcDbEntity
  8
STEMPEL
  6
Continuous
100
AcDbLine
 10
360.4343152247641
 20
429.3332371592298
 30
0.0
 11
360.4343152247641
 21
423.3332371592299
 31
0.0
  0
LINE
  5
17DD
330
2
100
AcDbEntity
  8
STEMPEL
100
AcDbLine
 10
348.4343152247641
 20
470.3359829922081
 30
0.0
 11
349.5987570020964
 21
470.3359829922081
 31
0.0
  0
LINE
  5
17DE
330
2
100
AcDbEntity
  8
STEMPEL
100
AcDbLine
 10
341.9343152247641
 20
475.335982992208
 30
0.0
 11
348.4343152247641
 21
470.3359829922081
 31
0.0
  0
ENDSEC
  0
SECTION
  2
OBJECTS
  0
DICTIONARY
  5
1A
330
0
100
AcDbDictionary
281
     1
  3
ACAD_COLOR
350
9BC
  3
ACAD_GROUP
350
18
  3
ACAD_LAYOUT
350
9BD
  3
ACAD_MATERIAL
350
9BB
  3
ACAD_MLINESTYLE
350
19
  3
ACAD_PLOTSETTINGS
350
9BE
  3
ACAD_PLOTSTYLENAME
350
9B9
  3
AcDbVariableDictionary
350
A0C
  0
DICTIONARY
  5
9BC
102
{ACAD_REACTORS
330
1A
102
}
330
1A
100
AcDbDictionary
281
     1
  0
DICTIONARY
  5
18
102
{ACAD_REACTORS
330
1A
102
}
330
1A
100
AcDbDictionary
281
     1
  0
DICTIONARY
  5
9BD
102
{ACAD_REACTORS
330
1A
102
}
330
1A
100
AcDbDictionary
281
     1
  3
Layout1
350
9C0
  3
Model
350
9BF
  0
DICTIONARY
  5
9BB
102
{ACAD_REACTORS
330
1A
102
}
330
1A
100
AcDbDictionary
281
     1
  0
DICTIONARY
  5
19
102
{ACAD_REACTORS
330
1A
102
}
330
1A
100
AcDbDictionary
281
     1
  3
STANDARD
350
1D
  0
DICTIONARY
  5
9BE
102
{ACAD_REACTORS
330
1A
102
}
330
1A
100
AcDbDictionary
281
     1
  0
ACDBDICTIONARYWDFLT
  5
9B9
102
{ACAD_REACTORS
330
1A
102
}
330
1A
100
AcDbDictionary
281
     1
  3
Normal
350
9BA
100
AcDbDictionaryWithDefault
340
9BA
  0
DICTIONARY
  5
A0C
102
{ACAD_REACTORS
330
1A
102
}
330
1A
100
AcDbDictionary
281
     1
  3
DIMASSOC
350
A0D
  3
PROJECTNAME
350
A0E
  0
LAYOUT
  5
9C0
102
{ACAD_REACTORS
330
9BD
102
}
330
9BD
100
AcDbPlotSettings
  1

  2
RICOH Aficio 2027 PCL 6
  4

  6

 40
0.0
 41
0.0
 42
0.0
 43
0.0
 44
0.0
 45
0.0
 46
0.0
 47
0.0
 48
0.0
 49
0.0
140
0.0
141
0.0
142
1.0
143
1.0
 70
   688
 72
     0
 73
     0
 74
     5
  7
monochrome1.ctb
 75
    16
147
1.0
 76
     0
 77
     2
 78
   300
148
0.0
149
0.0
100
AcDbLayout
  1
Layout1
 70
     0
 71
     1
 10
0.0
 20
0.0
 11
12.0
 21
9.0
 12
0.0
 22
0.0
 32
0.0
 14
1.000000000000000E+20
 24
1.000000000000000E+20
 34
1.000000000000000E+20
 15
-1.000000000000000E+20
 25
-1.000000000000000E+20
 35
-1.000000000000000E+20
146
0.0
 13
0.0
 23
0.0
 33
0.0
 16
1.0
 26
0.0
 36
0.0
 17
0.0
 27
1.0
 37
0.0
 76
     0
330
7
  0
LAYOUT
  5
9BF
102
{ACAD_REACTORS
330
9BD
102
}
330
9BD
100
AcDbPlotSettings
  1

  2
RICOH Aficio 2027 PCL 6
  4
A4
  6

 40
5.027083396911621
 41
5.027085304260253
 42
5.027084350585937
 43
5.027069091796875
 44
209.9733276367187
 45
296.9259948730469
 46
0.0
 47
0.0
 48
0.0
 49
0.0
140
0.0
141
0.0
142
1.0
143
1.0
 70
 11952
 72
     0
 73
     1
 74
     0
  7
monochrome1.ctb
 75
     0
147
1.0
 76
     0
 77
     2
 78
   300
148
-3033.569169194215
149
90.63084535397159
100
AcDbLayout
  1
Model
 70
     1
 71
     0
 10
0.0
 20
0.0
 11
12.0
 21
9.0
 12
0.0
 22
0.0
 32
0.0
 14
0.0
 24
0.0
 34
0.0
 15
0.0
 25
0.0
 35
0.0
146
0.0
 13
0.0
 23
0.0
 33
0.0
 16
1.0
 26
0.0
 36
0.0
 17
0.0
 27
1.0
 37
0.0
 76
     0
330
2
  0
MLINESTYLE
  5
1D
102
{ACAD_REACTORS
330
19
102
}
330
19
100
AcDbMlineStyle
  2
STANDARD
 70
     0
  3

 62
   256
 51
90.0
 52
90.0
 71
     2
 49
0.5
 62
   256
  6
BYLAYER
 49
-0.5
 62
   256
  6
BYLAYER
  0
ACDBPLACEHOLDER
  5
9BA
102
{ACAD_REACTORS
330
9B9
102
}
330
9B9
  0
DICTIONARYVAR
  5
A0D
102
{ACAD_REACTORS
330
A0C
102
}
330
A0C
100
DictionaryVariables
280
     0
  1
1
  0
DICTIONARYVAR
  5
A0E
102
{ACAD_REACTORS
330
A0C
102
}
330
A0C
100
DictionaryVariables
280
     0
  1

  0
ENDSEC
  0
EOF
