  0
SECTION
  2
HEADER
  9
$ACADVER
  1
AC1018
  9
$ACADMAINTVER
 70
     2
  9
$DWGCODEPAGE
  3
ANSI_1252
  9
$INSBASE
 10
0.0
 20
0.0
 30
0.0
  9
$EXTMIN
 10
-0.0384419776873983
 20
-0.0271839699362317
 30
-0.0000000000000058
  9
$EXTMAX
 10
840.0384576247429
 20
594.0271950346398
 30
0.0000000000000104
  9
$LIMMIN
 10
0.0
 20
0.0
  9
$LIMMAX
 10
839.9999999999998
 20
594.0000000000002
  9
$ORTHOMODE
 70
     1
  9
$REGENMODE
 70
     1
  9
$FILLMODE
 70
     1
  9
$QTEXTMODE
 70
     0
  9
$MIRRTEXT
 70
     1
  9
$LTSCALE
 40
20.0
  9
$ATTMODE
 70
     1
  9
$TEXTSIZE
 40
3.5
  9
$TRACEWID
 40
0.5
  9
$TEXTSTYLE
  7
STANDARD
  9
$CLAYER
  8
SCHRAFF
  9
$CELTYPE
  6
ByLayer
  9
$CECOLOR
 62
   256
  9
$CELTSCALE
 40
1.0
  9
$DISPSILH
 70
     0
  9
$DIMSCALE
 40
2.0
  9
$DIMASZ
 40
3.5
  9
$DIMEXO
 40
1.0
  9
$DIMDLI
 40
7.0
  9
$DIMRND
 40
0.0
  9
$DIMDLE
 40
0.0
  9
$DIMEXE
 40
1.0
  9
$DIMTP
 40
0.0
  9
$DIMTM
 40
0.0
  9
$DIMTXT
 40
3.5
  9
$DIMCEN
 40
1.5
  9
$DIMTSZ
 40
0.0
  9
$DIMTOL
 70
     0
  9
$DIMLIM
 70
     0
  9
$DIMTIH
 70
     0
  9
$DIMTOH
 70
     0
  9
$DIMSE1
 70
     0
  9
$DIMSE2
 70
     0
  9
$DIMTAD
 70
     1
  9
$DIMZIN
 70
     8
  9
$DIMBLK
  1

  9
$DIMASO
 70
     1
  9
$DIMSHO
 70
     0
  9
$DIMPOST
  1

  9
$DIMAPOST
  1

  9
$DIMALT
 70
     0
  9
$DIMALTD
 70
     2
  9
$DIMALTF
 40
25.4
  9
$DIMLFAC
 40
1.0
  9
$DIMTOFL
 70
     1
  9
$DIMTVP
 40
0.0
  9
$DIMTIX
 70
     0
  9
$DIMSOXD
 70
     0
  9
$DIMSAH
 70
     0
  9
$DIMBLK1
  1

  9
$DIMBLK2
  1

  9
$DIMSTYLE
  2
Standard
  9
$DIMCLRD
 70
     0
  9
$DIMCLRE
 70
     0
  9
$DIMCLRT
 70
     1
  9
$DIMTFAC
 40
0.5
  9
$DIMGAP
 40
1.5
  9
$DIMJUST
 70
     0
  9
$DIMSD1
 70
     0
  9
$DIMSD2
 70
     0
  9
$DIMTOLJ
 70
     1
  9
$DIMTZIN
 70
     8
  9
$DIMALTZ
 70
     8
  9
$DIMALTTZ
 70
     8
  9
$DIMUPT
 70
     0
  9
$DIMDEC
 70
     2
  9
$DIMTDEC
 70
     2
  9
$DIMALTU
 70
     2
  9
$DIMALTTD
 70
     2
  9
$DIMTXSTY
  7
STANDARD
  9
$DIMAUNIT
 70
     0
  9
$DIMADEC
 70
     2
  9
$DIMALTRND
 40
0.0
  9
$DIMAZIN
 70
     2
  9
$DIMDSEP
 70
    46
  9
$DIMATFIT
 70
     3
  9
$DIMFRAC
 70
     0
  9
$DIMLDRBLK
  1

  9
$DIMLUNIT
 70
     2
  9
$DIMLWD
 70
    -2
  9
$DIMLWE
 70
    -2
  9
$DIMTMOVE
 70
     0
  9
$LUNITS
 70
     2
  9
$LUPREC
 70
     2
  9
$SKETCHINC
 40
1.0
  9
$FILLETRAD
 40
0.0
  9
$AUNITS
 70
     0
  9
$AUPREC
 70
     0
  9
$MENU
  1
ACAD
  9
$ELEVATION
 40
0.0
  9
$PELEVATION
 40
0.0
  9
$THICKNESS
 40
0.0
  9
$LIMCHECK
 70
     0
  9
$CHAMFERA
 40
0.0
  9
$CHAMFERB
 40
0.0
  9
$CHAMFERC
 40
0.0
  9
$CHAMFERD
 40
0.0
  9
$SKPOLY
 70
     0
  9
$TDCREATE
 40
2451451.373232870
  9
$TDUCREATE
 40
2451451.289899537
  9
$TDUPDATE
 40
2455463.453313762
  9
$TDUUPDATE
 40
2455463.369980428
  9
$TDINDWG
 40
0.0148625579
  9
$TDUSRTIMER
 40
0.0148625579
  9
$USRTIMER
 70
     1
  9
$ANGBASE
 50
0.0
  9
$ANGDIR
 70
     0
  9
$PDMODE
 70
     0
  9
$PDSIZE
 40
0.0
  9
$PLINEWID
 40
0.0
  9
$SPLFRAME
 70
     0
  9
$SPLINETYPE
 70
     6
  9
$SPLINESEGS
 70
     8
  9
$HANDSEED
  5
4F7
  9
$SURFTAB1
 70
     6
  9
$SURFTAB2
 70
     6
  9
$SURFTYPE
 70
     6
  9
$SURFU
 70
     6
  9
$SURFV
 70
     6
  9
$UCSBASE
  2

  9
$UCSNAME
  2

  9
$UCSORG
 10
0.0
 20
0.0
 30
0.0
  9
$UCSXDIR
 10
1.0
 20
0.0
 30
0.0
  9
$UCSYDIR
 10
0.0
 20
1.0
 30
0.0
  9
$UCSORTHOREF
  2

  9
$UCSORTHOVIEW
 70
     0
  9
$UCSORGTOP
 10
0.0
 20
0.0
 30
0.0
  9
$UCSORGBOTTOM
 10
0.0
 20
0.0
 30
0.0
  9
$UCSORGLEFT
 10
0.0
 20
0.0
 30
0.0
  9
$UCSORGRIGHT
 10
0.0
 20
0.0
 30
0.0
  9
$UCSORGFRONT
 10
0.0
 20
0.0
 30
0.0
  9
$UCSORGBACK
 10
0.0
 20
0.0
 30
0.0
  9
$PUCSBASE
  2

  9
$PUCSNAME
  2

  9
$PUCSORG
 10
0.0
 20
0.0
 30
0.0
  9
$PUCSXDIR
 10
1.0
 20
0.0
 30
0.0
  9
$PUCSYDIR
 10
0.0
 20
1.0
 30
0.0
  9
$PUCSORTHOREF
  2

  9
$PUCSORTHOVIEW
 70
     0
  9
$PUCSORGTOP
 10
0.0
 20
0.0
 30
0.0
  9
$PUCSORGBOTTOM
 10
0.0
 20
0.0
 30
0.0
  9
$PUCSORGLEFT
 10
0.0
 20
0.0
 30
0.0
  9
$PUCSORGRIGHT
 10
0.0
 20
0.0
 30
0.0
  9
$PUCSORGFRONT
 10
0.0
 20
0.0
 30
0.0
  9
$PUCSORGBACK
 10
0.0
 20
0.0
 30
0.0
  9
$USERI1
 70
     0
  9
$USERI2
 70
     0
  9
$USERI3
 70
     0
  9
$USERI4
 70
     0
  9
$USERI5
 70
     0
  9
$USERR1
 40
0.0
  9
$USERR2
 40
0.0
  9
$USERR3
 40
0.0
  9
$USERR4
 40
0.0
  9
$USERR5
 40
0.0
  9
$WORLDVIEW
 70
     1
  9
$SHADEDGE
 70
     3
  9
$SHADEDIF
 70
    70
  9
$TILEMODE
 70
     1
  9
$MAXACTVP
 70
    16
  9
$PINSBASE
 10
0.0
 20
0.0
 30
0.0
  9
$PLIMCHECK
 70
     0
  9
$PEXTMIN
 10
1.000000000000000E+20
 20
1.000000000000000E+20
 30
1.000000000000000E+20
  9
$PEXTMAX
 10
-1.000000000000000E+20
 20
-1.000000000000000E+20
 30
-1.000000000000000E+20
  9
$PLIMMIN
 10
0.0
 20
0.0
  9
$PLIMMAX
 10
12.0
 20
9.0
  9
$UNITMODE
 70
     0
  9
$VISRETAIN
 70
     0
  9
$PLINEGEN
 70
     0
  9
$PSLTSCALE
 70
     0
  9
$TREEDEPTH
 70
  3020
  9
$CMLSTYLE
  2
Standard
  9
$CMLJUST
 70
     0
  9
$CMLSCALE
 40
1.0
  9
$PROXYGRAPHICS
 70
     1
  9
$MEASUREMENT
 70
     0
  9
$CELWEIGHT
370
    -1
  9
$ENDCAPS
280
     0
  9
$JOINSTYLE
280
     0
  9
$LWDISPLAY
290
     0
  9
$INSUNITS
 70
     0
  9
$HYPERLINKBASE
  1

  9
$STYLESHEET
  1
monochrome 1.ctb
  9
$XEDIT
290
     1
  9
$CEPSNTYPE
380
     0
  9
$PSTYLEMODE
290
     1
  9
$FINGERPRINTGUID
  2
{290EAF48-9A04-4890-BF66-07A2B97B0FCF}
  9
$VERSIONGUID
  2
{42207069-1595-4912-80EE-07607A29E72E}
  9
$EXTNAMES
290
     1
  9
$PSVPSCALE
 40
0.0
  9
$OLESTARTUP
290
     0
  9
$SORTENTS
280
   127
  9
$INDEXCTL
280
     0
  9
$HIDETEXT
280
     1
  9
$XCLIPFRAME
290
     0
  9
$HALOGAP
280
     0
  9
$OBSCOLOR
 70
   257
  9
$OBSLTYPE
280
     0
  9
$INTERSECTIONDISPLAY
280
     0
  9
$INTERSECTIONCOLOR
 70
   257
  9
$DIMASSOC
280
     2
  9
$PROJECTNAME
  1

  0
ENDSEC
  0
SECTION
  2
CLASSES
  0
CLASS
  1
ACDBDICTIONARYWDFLT
  2
AcDbDictionaryWithDefault
  3
ObjectDBX Classes
 90
        0
 91
        1
280
     0
281
     0
  0
CLASS
  1
DICTIONARYVAR
  2
AcDbDictionaryVar
  3
ObjectDBX Classes
 90
        0
 91
        3
280
     0
281
     0
  0
ENDSEC
  0
SECTION
  2
TABLES
  0
TABLE
  2
VPORT
  5
8
330
0
100
AcDbSymbolTable
 70
     2
  0
VPORT
  5
4F6
330
8
100
AcDbSymbolTableRecord
100
AcDbViewportTableRecord
  2
*Active
 70
     0
 10
0.0
 20
0.0
 11
1.0
 21
1.0
 12
420.0000078235276
 22
297.0000055323517
 13
0.0
 23
0.0
 14
1.0
 24
1.0
 15
10.0
 25
10.0
 16
0.0
 26
0.0
 36
1.0
 17
0.0
 27
0.0
 37
0.0
 40
632.1594446179592
 41
1.336927223719676
 42
50.0
 43
0.0
 44
0.0
 50
0.0
 51
0.0
 71
     0
 72
  1500
 73
     1
 74
     0
 75
     0
 76
     0
 77
     0
 78
     0
281
     0
 65
     1
110
0.0
120
0.0
130
0.0
111
1.0
121
0.0
131
0.0
112
0.0
122
1.0
132
0.0
 79
     0
146
0.0
  0
ENDTAB
  0
TABLE
  2
LTYPE
  5
5
330
0
100
AcDbSymbolTable
 70
     2
  0
LTYPE
  5
13
330
5
100
AcDbSymbolTableRecord
100
AcDbLinetypeTableRecord
  2
ByBlock
 70
     0
  3

 72
    65
 73
     0
 40
0.0
  0
LTYPE
  5
14
330
5
100
AcDbSymbolTableRecord
100
AcDbLinetypeTableRecord
  2
ByLayer
 70
     0
  3

 72
    65
 73
     0
 40
0.0
  0
LTYPE
  5
15
330
5
100
AcDbSymbolTableRecord
100
AcDbLinetypeTableRecord
  2
Continuous
 70
     0
  3
Solid line
 72
    65
 73
     0
 40
0.0
  0
LTYPE
  5
32
330
5
100
AcDbSymbolTableRecord
100
AcDbLinetypeTableRecord
  2
STRICHPUNKT
 70
     0
  3
__ . __ . __ . __ . __ . __ . __ . __ . __ . __
 72
    65
 73
     4
 40
1.0
 49
0.5
 74
     0
 49
-0.25
 74
     0
 49
0.0
 74
     0
 49
-0.25
 74
     0
  0
ENDTAB
  0
TABLE
  2
LAYER
  5
2
330
0
100
AcDbSymbolTable
 70
     9
  0
LAYER
  5
10
330
2
100
AcDbSymbolTableRecord
100
AcDbLayerTableRecord
  2
0
 70
     0
 62
     7
  6
Continuous
370
    -3
390
F
  0
LAYER
  5
35
330
2
100
AcDbSymbolTableRecord
100
AcDbLayerTableRecord
  2
VOLL
 70
     0
 62
     1
  6
Continuous
370
    -3
390
F
  0
LAYER
  5
36
330
2
100
AcDbSymbolTableRecord
100
AcDbLayerTableRecord
  2
HILF
 70
     0
 62
     2
  6
Continuous
370
    -3
390
F
  0
LAYER
  5
37
330
2
100
AcDbSymbolTableRecord
100
AcDbLayerTableRecord
  2
MITTEL
 70
     0
 62
     2
  6
STRICHPUNKT
370
    -3
390
F
  0
LAYER
  5
38
330
2
100
AcDbSymbolTableRecord
100
AcDbLayerTableRecord
  2
BEM
 70
     0
 62
     7
  6
Continuous
370
    -3
390
F
  0
LAYER
  5
39
330
2
100
AcDbSymbolTableRecord
100
AcDbLayerTableRecord
  2
STEMPEL
 70
     0
 62
     3
  6
Continuous
370
    -3
390
F
  0
LAYER
  5
3A
330
2
100
AcDbSymbolTableRecord
100
AcDbLayerTableRecord
  2
TEXT
 70
     0
 62
     7
  6
Continuous
370
    -3
390
F
  0
LAYER
  5
3B
330
2
100
AcDbSymbolTableRecord
100
AcDbLayerTableRecord
  2
DEFPOINTS
 70
     0
 62
     7
  6
Continuous
290
     0
370
    -3
390
F
  0
LAYER
  5
3C
330
2
100
AcDbSymbolTableRecord
100
AcDbLayerTableRecord
  2
SCHRAFF
 70
     0
 62
     7
  6
Continuous
370
    -3
390
F
  0
ENDTAB
  0
TABLE
  2
STYLE
  5
3
330
0
100
AcDbSymbolTable
 70
     2
  0
STYLE
  5
11
330
3
100
AcDbSymbolTableRecord
100
AcDbTextStyleTableRecord
  2
STANDARD
 70
     0
 40
0.0
 41
0.8
 50
0.0
 71
     0
 42
3.5
  3
simplex.shx
  4

  0
STYLE
  5
31
330
3
100
AcDbSymbolTableRecord
100
AcDbTextStyleTableRecord
  2
GREEKS
 70
     0
 40
0.0
 41
0.8
 50
0.0
 71
     0
 42
2.5
  3
SIMPLEX.shx
  4

  0
ENDTAB
  0
TABLE
  2
VIEW
  5
6
330
0
100
AcDbSymbolTable
 70
     0
  0
ENDTAB
  0
TABLE
  2
UCS
  5
7
330
0
100
AcDbSymbolTable
 70
     0
  0
ENDTAB
  0
TABLE
  2
APPID
  5
9
330
0
100
AcDbSymbolTable
 70
     1
  0
APPID
  5
12
330
9
100
AcDbSymbolTableRecord
100
AcDbRegAppTableRecord
  2
ACAD
 70
     0
  0
ENDTAB
  0
TABLE
  2
DIMSTYLE
  5
A
330
0
100
AcDbSymbolTable
 70
     1
100
AcDbDimStyleTable
 71
     1
340
3F3
  0
DIMSTYLE
105
3F3
330
A
100
AcDbSymbolTableRecord
100
AcDbDimStyleTableRecord
  2
Standard
 70
     0
340
11
  0
ENDTAB
  0
TABLE
  2
BLOCK_RECORD
  5
1
330
0
100
AcDbSymbolTable
 70
     6
  0
BLOCK_RECORD
  5
20
330
1
100
AcDbSymbolTableRecord
100
AcDbBlockTableRecord
  2
*Model_Space
340
23
  0
BLOCK_RECORD
  5
1C
330
1
100
AcDbSymbolTableRecord
100
AcDbBlockTableRecord
  2
*Paper_Space
340
1F
  0
BLOCK_RECORD
  5
24
330
1
100
AcDbSymbolTableRecord
100
AcDbBlockTableRecord
  2
LOGO
340
0
102
{BLKREFS
331
340
102
}
  0
BLOCK_RECORD
  5
26
330
1
100
AcDbSymbolTableRecord
100
AcDbBlockTableRecord
  2
*D1
340
0
  0
BLOCK_RECORD
  5
27
330
1
100
AcDbSymbolTableRecord
100
AcDbBlockTableRecord
  2
*D2
340
0
  0
BLOCK_RECORD
  5
28
330
1
100
AcDbSymbolTableRecord
100
AcDbBlockTableRecord
  2
*D3
340
0
  0
BLOCK_RECORD
  5
2F
330
1
100
AcDbSymbolTableRecord
100
AcDbBlockTableRecord
  2
*D4
340
0
  0
BLOCK_RECORD
  5
30
330
1
100
AcDbSymbolTableRecord
100
AcDbBlockTableRecord
  2
*D5
340
0
  0
ENDTAB
  0
ENDSEC
  0
SECTION
  2
BLOCKS
  0
BLOCK
  5
40
330
20
100
AcDbEntity
  8
0
100
AcDbBlockBegin
  2
*Model_Space
 70
     0
 10
0.0
 20
0.0
 30
0.0
  3
*Model_Space
  1

  0
ENDBLK
  5
41
330
20
100
AcDbEntity
  8
0
100
AcDbBlockEnd
  0
BLOCK
  5
3E
330
1C
100
AcDbEntity
 67
     1
  8
0
100
AcDbBlockBegin
  2
*Paper_Space
 70
     0
 10
0.0
 20
0.0
 30
0.0
  3
*Paper_Space
  1

  0
ENDBLK
  5
3F
330
1C
100
AcDbEntity
 67
     1
  8
0
100
AcDbBlockEnd
  0
BLOCK
  5
42
330
24
100
AcDbEntity
  8
0
100
AcDbBlockBegin
  2
LOGO
 70
     0
 10
0.0
 20
0.0
 30
0.0
  3
LOGO
  1

  0
ARC
  5
43
330
24
100
AcDbEntity
  8
0
100
AcDbCircle
 10
11.59973089678112
 20
-9.271599258481501
 30
0.0
 40
4.5
100
AcDbArc
 50
270.0
 51
231.0575587310159
  0
LINE
  5
44
330
24
100
AcDbEntity
  8
0
100
AcDbLine
 10
3.599730896781125
 20
-4.771599258481529
 30
0.0
 11
3.599730896781153
 21
-11.77159925848133
 31
0.0
  0
LINE
  5
45
330
24
100
AcDbEntity
  8
0
100
AcDbLine
 10
2.599730896781125
 20
-4.771599258481529
 30
0.0
 11
2.599730896781153
 21
-11.77159925848133
 31
0.0
  0
CIRCLE
  5
46
330
24
100
AcDbEntity
  8
0
100
AcDbCircle
 10
11.59973089678112
 20
-9.271599258481501
 30
0.0
 40
3.5
  0
ARC
  5
47
330
24
100
AcDbEntity
  8
0
100
AcDbCircle
 10
31.59973089678115
 20
-9.271599258481472
 30
0.0
 40
4.5
100
AcDbArc
 50
270.0
 51
231.0575587310182
  0
LINE
  5
48
330
24
100
AcDbEntity
  8
0
100
AcDbLine
 10
17.59973089678112
 20
-4.771599258481472
 30
0.0
 11
17.59973089678115
 21
-13.77159925848147
 31
0.0
  0
ARC
  5
49
330
24
100
AcDbEntity
  8
0
100
AcDbCircle
 10
22.59973089678116
 20
-7.271599258481472
 30
0.0
 40
2.5
100
AcDbArc
 50
293.1161887722295
 51
90.0
  0
CIRCLE
  5
4A
330
24
100
AcDbEntity
  8
0
100
AcDbCircle
 10
31.59973089678115
 20
-9.271599258481472
 30
0.0
 40
3.5
  0
ARC
  5
4B
330
24
100
AcDbEntity
  8
0
100
AcDbCircle
 10
4.599730896781153
 20
-11.77159925848133
 30
0.0
 40
1.0
100
AcDbArc
 50
180.0
 51
270.0
  0
ARC
  5
4C
330
24
100
AcDbEntity
  8
0
100
AcDbCircle
 10
4.599730896781153
 20
-11.77159925848133
 30
0.0
 40
2.0
100
AcDbArc
 50
179.9999999999992
 51
270.0
  0
LINE
  5
4D
330
24
100
AcDbEntity
  8
0
100
AcDbLine
 10
11.59973089678115
 20
-13.77159925848144
 30
0.0
 11
4.599730896781153
 21
-13.77159925848147
 31
0.0
  0
LINE
  5
4E
330
24
100
AcDbEntity
  8
0
100
AcDbLine
 10
8.771303772034769
 20
-12.77159925848136
 30
0.0
 11
4.599730896781153
 21
-12.77159925848133
 31
0.0
  0
LINE
  5
4F
330
24
100
AcDbEntity
  8
0
100
AcDbLine
 10
31.59973089678115
 20
-13.77159925848147
 30
0.0
 11
23.6715276665056
 21
-13.77159925848144
 31
0.0
  0
LINE
  5
50
330
24
100
AcDbEntity
  8
0
100
AcDbLine
 10
23.56565672307022
 20
-9.51278021337896
 30
0.0
 11
24.4388546544846
 21
-12.77159925848144
 31
0.0
  0
LINE
  5
51
330
24
100
AcDbEntity
  8
0
100
AcDbLine
 10
22.59973089678116
 20
-9.771599258481472
 30
0.0
 11
18.59973089678112
 21
-9.771599258481472
 31
0.0
  0
LINE
  5
52
330
24
100
AcDbEntity
  8
0
100
AcDbLine
 10
18.59973089678115
 20
-13.77159925848144
 30
0.0
 11
17.59973089678115
 21
-13.77159925848144
 31
0.0
  0
LINE
  5
53
330
24
100
AcDbEntity
  8
0
100
AcDbLine
 10
18.59973089678115
 20
-9.771599258481472
 30
0.0
 11
18.59973089678115
 21
-13.77159925848144
 31
0.0
  0
LINE
  5
54
330
24
100
AcDbEntity
  8
0
100
AcDbLine
 10
22.59973089678116
 20
-9.771599258481472
 30
0.0
 11
23.67152766650562
 21
-13.77159925848147
 31
0.0
  0
ARC
  5
55
330
24
100
AcDbEntity
  8
0
100
AcDbCircle
 10
22.59973089678116
 20
-7.271599258481472
 30
0.0
 40
2.5
100
AcDbArc
 50
270.0
 51
270.0000000000007
  0
LINE
  5
56
330
24
100
AcDbEntity
  8
0
100
AcDbLine
 10
28.77130377203494
 20
-12.77159925848147
 30
0.0
 11
24.43885465448463
 21
-12.77159925848144
 31
0.0
  0
LINE
  5
57
330
24
100
AcDbEntity
  8
0
100
AcDbLine
 10
3.599730896781125
 20
-4.771599258481472
 30
0.0
 11
2.599730896781125
 21
-4.771599258481472
 31
0.0
  0
LINE
  5
58
330
24
100
AcDbEntity
  8
0
100
AcDbLine
 10
22.59973089678116
 20
-8.771599258481472
 30
0.0
 11
18.59973089678115
 21
-8.771599258481472
 31
0.0
  0
LINE
  5
59
330
24
100
AcDbEntity
  8
0
100
AcDbLine
 10
22.59973089678116
 20
-5.771599258481472
 30
0.0
 11
18.59973089678115
 21
-5.771599258481472
 31
0.0
  0
LINE
  5
5A
330
24
100
AcDbEntity
  8
0
100
AcDbLine
 10
22.59973089678116
 20
-4.771599258481472
 30
0.0
 11
17.59973089678115
 21
-4.771599258481472
 31
0.0
  0
LINE
  5
5B
330
24
100
AcDbEntity
  8
0
100
AcDbLine
 10
18.59973089678115
 20
-5.771599258481472
 30
0.0
 11
18.59973089678115
 21
-8.771599258481472
 31
0.0
  0
ARC
  5
5C
330
24
100
AcDbEntity
  8
0
100
AcDbCircle
 10
22.59973089678116
 20
-7.271599258481472
 30
0.0
 40
1.5
100
AcDbArc
 50
270.0
 51
90.0
  0
ENDBLK
  5
5D
330
24
100
AcDbEntity
  8
0
100
AcDbBlockEnd
  0
BLOCK
  5
62
330
26
100
AcDbEntity
  8
0
100
AcDbBlockBegin
  2
*D1
 70
     1
 10
0.0
 20
0.0
 30
0.0
  3
*D1
  1

  0
LINE
  5
63
330
26
100
AcDbEntity
  8
0
  6
ByBlock
 62
     0
100
AcDbLine
 10
262.6244083635202
 20
527.0637591112045
 30
0.0
 11
262.6244083635202
 21
545.0580384630427
 31
0.0
  0
LINE
  5
64
330
26
100
AcDbEntity
  8
0
  6
ByBlock
 62
     0
100
AcDbLine
 10
592.6244083635201
 20
527.0637591112045
 30
0.0
 11
592.6244083635201
 21
545.0580384630427
 31
0.0
  0
LINE
  5
65
330
26
100
AcDbEntity
  8
0
  6
ByBlock
 62
     0
100
AcDbLine
 10
269.6244083635201
 20
543.0580384630427
 30
0.0
 11
585.6244083635202
 21
543.0580384630427
 31
0.0
  0
SOLID
  5
66
330
26
100
AcDbEntity
  8
0
  6
ByBlock
 62
     0
100
AcDbTrace
 10
269.6244083635201
 20
544.2247051297093
 30
0.0
 11
269.6244083635201
 21
541.8913717963761
 31
0.0
 12
262.6244083635202
 22
543.0580384630427
 32
0.0
 13
262.6244083635202
 23
543.0580384630427
 33
0.0
  0
SOLID
  5
67
330
26
100
AcDbEntity
  8
0
  6
ByBlock
 62
     0
100
AcDbTrace
 10
585.6244083635202
 20
544.2247051297093
 30
0.0
 11
585.6244083635202
 21
541.8913717963761
 31
0.0
 12
592.6244083635201
 22
543.0580384630427
 32
0.0
 13
592.6244083635201
 23
543.0580384630427
 33
0.0
  0
TEXT
  5
68
330
26
100
AcDbEntity
  8
0
  6
ByBlock
 62
     1
100
AcDbText
 10
417.8910750301867
 20
546.5580384630427
 30
0.0
 40
7.0
  1
%%c
 41
0.8
  7
GREEKS
 72
     1
 11
419.6244083635201
 21
550.0580384630427
 31
0.0
100
AcDbText
 73
     2
  0
TEXT
  5
69
330
26
100
AcDbEntity
  8
0
  6
ByBlock
 62
     1
100
AcDbText
 10
422.9577416968535
 20
546.5580384630427
 30
0.0
 40
7.0
  1
330
 41
0.8
  7
GREEKS
 72
     1
 11
430.1577416968535
 21
550.0580384630427
 31
0.0
100
AcDbText
 73
     2
  0
POINT
  5
6A
330
26
100
AcDbEntity
  8
DEFPOINTS
  6
ByBlock
 62
     0
100
AcDbPoint
 10
262.6244083635202
 20
525.0637591112044
 30
0.0
  0
POINT
  5
6B
330
26
100
AcDbEntity
  8
DEFPOINTS
  6
ByBlock
 62
     0
100
AcDbPoint
 10
592.6244083635201
 20
525.0637591112044
 30
0.0
  0
POINT
  5
6C
330
26
100
AcDbEntity
  8
DEFPOINTS
  6
ByBlock
 62
     0
100
AcDbPoint
 10
592.6244083635201
 20
543.0580384630427
 30
0.0
  0
ENDBLK
  5
6D
330
26
100
AcDbEntity
  8
0
100
AcDbBlockEnd
  0
BLOCK
  5
6E
330
27
100
AcDbEntity
  8
0
100
AcDbBlockBegin
  2
*D2
 70
     1
 10
0.0
 20
0.0
 30
0.0
  3
*D2
  1

  0
LINE
  5
6F
330
27
100
AcDbEntity
  8
0
  6
ByBlock
 62
     0
100
AcDbLine
 10
679.6244083635201
 20
528.0637591112045
 30
0.0
 11
693.3874644990975
 21
528.0637591112045
 31
0.0
  0
LINE
  5
70
330
27
100
AcDbEntity
  8
0
  6
ByBlock
 62
     0
100
AcDbLine
 10
679.6244083635201
 20
525.0637591112044
 30
0.0
 11
693.3874644990975
 21
525.0637591112044
 31
0.0
  0
LINE
  5
71
330
27
100
AcDbEntity
  8
0
  6
ByBlock
 62
     0
100
AcDbLine
 10
691.3874644990975
 20
535.0637591112045
 30
0.0
 11
691.3874644990975
 21
542.0637591112044
 31
0.0
  0
LINE
  5
72
330
27
100
AcDbEntity
  8
0
  6
ByBlock
 62
     0
100
AcDbLine
 10
691.3874644990975
 20
518.0637591112044
 30
0.0
 11
691.3874644990975
 21
511.0637591112045
 31
0.0
  0
LINE
  5
73
330
27
100
AcDbEntity
  8
0
  6
ByBlock
 62
     0
100
AcDbLine
 10
691.3874644990975
 20
511.0637591112045
 30
0.0
 11
691.3874644990975
 21
507.1504257778711
 31
0.0
  0
SOLID
  5
74
330
27
100
AcDbEntity
  8
0
  6
ByBlock
 62
     0
100
AcDbTrace
 10
690.2207978324309
 20
535.0637591112045
 30
0.0
 11
692.5541311657641
 21
535.0637591112045
 31
0.0
 12
691.3874644990975
 22
528.0637591112045
 32
0.0
 13
691.3874644990975
 23
528.0637591112045
 33
0.0
  0
SOLID
  5
75
330
27
100
AcDbEntity
  8
0
  6
ByBlock
 62
     0
100
AcDbTrace
 10
690.2207978324309
 20
518.0637591112044
 30
0.0
 11
692.5541311657641
 21
518.0637591112044
 31
0.0
 12
691.3874644990975
 22
525.0637591112044
 32
0.0
 13
691.3874644990975
 23
525.0637591112044
 33
0.0
  0
LINE
  5
76
330
27
100
AcDbEntity
  8
0
  6
ByBlock
 62
     0
100
AcDbLine
 10
691.3874644990975
 20
528.0637591112045
 30
0.0
 11
691.3874644990975
 21
525.0637591112044
 31
0.0
  0
TEXT
  5
77
330
27
100
AcDbEntity
  8
0
  6
ByBlock
 62
     1
100
AcDbText
 10
687.8874644990975
 20
507.1504257778711
 30
0.0
 40
7.0
  1
3
 50
90.0
 41
0.8
  7
GREEKS
 72
     1
 11
684.3874644990975
 21
509.0170924445378
 31
0.0
100
AcDbText
 73
     2
  0
POINT
  5
78
330
27
100
AcDbEntity
  8
DEFPOINTS
  6
ByBlock
 62
     0
100
AcDbPoint
 10
677.6244083635202
 20
528.0637591112045
 30
0.0
  0
POINT
  5
79
330
27
100
AcDbEntity
  8
DEFPOINTS
  6
ByBlock
 62
     0
100
AcDbPoint
 10
677.6244083635202
 20
525.0637591112044
 30
0.0
  0
POINT
  5
7A
330
27
100
AcDbEntity
  8
DEFPOINTS
  6
ByBlock
 62
     0
100
AcDbPoint
 10
691.3874644990975
 20
525.0637591112044
 30
0.0
  0
ENDBLK
  5
7B
330
27
100
AcDbEntity
  8
0
100
AcDbBlockEnd
  0
BLOCK
  5
7C
330
28
100
AcDbEntity
  8
0
100
AcDbBlockBegin
  2
*D3
 70
     1
 10
0.0
 20
0.0
 30
0.0
  3
*D3
  1

  0
LINE
  5
7D
330
28
100
AcDbEntity
  8
0
  6
ByBlock
 62
     0
100
AcDbLine
 10
189.7158553017206
 20
479.0215536036314
 30
0.0
 11
189.7158553017206
 21
512.2074559945388
 31
0.0
  0
LINE
  5
7E
330
28
100
AcDbEntity
  8
0
  6
ByBlock
 62
     0
100
AcDbLine
 10
689.7158553017206
 20
479.0215536036314
 30
0.0
 11
689.7158553017206
 21
512.2074559945388
 31
0.0
  0
LINE
  5
7F
330
28
100
AcDbEntity
  8
0
  6
ByBlock
 62
     0
100
AcDbLine
 10
196.7158553017205
 20
510.2074559945387
 30
0.0
 11
682.7158553017206
 21
510.2074559945387
 31
0.0
  0
SOLID
  5
80
330
28
100
AcDbEntity
  8
0
  6
ByBlock
 62
     0
100
AcDbTrace
 10
196.7158553017205
 20
511.3741226612054
 30
0.0
 11
196.7158553017205
 21
509.0407893278721
 31
0.0
 12
189.7158553017206
 22
510.2074559945387
 32
0.0
 13
189.7158553017206
 23
510.2074559945387
 33
0.0
  0
SOLID
  5
81
330
28
100
AcDbEntity
  8
0
  6
ByBlock
 62
     0
100
AcDbTrace
 10
682.7158553017206
 20
511.3741226612054
 30
0.0
 11
682.7158553017206
 21
509.0407893278721
 31
0.0
 12
689.7158553017206
 22
510.2074559945387
 32
0.0
 13
689.7158553017206
 23
510.2074559945387
 33
0.0
  0
TEXT
  5
82
330
28
100
AcDbEntity
  8
0
  6
ByBlock
 62
     1
100
AcDbText
 10
433.8986854683255
 20
513.7074559945387
 30
0.0
 40
7.0
  1
500
 41
0.8
  7
GREEKS
 72
     1
 11
441.0986854683256
 21
517.2074559945388
 31
0.0
100
AcDbText
 73
     2
  0
POINT
  5
83
330
28
100
AcDbEntity
  8
DEFPOINTS
  6
ByBlock
 62
     0
100
AcDbPoint
 10
189.7158553017206
 20
477.0215536036314
 30
0.0
  0
POINT
  5
84
330
28
100
AcDbEntity
  8
DEFPOINTS
  6
ByBlock
 62
     0
100
AcDbPoint
 10
689.7158553017206
 20
477.0215536036314
 30
0.0
  0
POINT
  5
85
330
28
100
AcDbEntity
  8
DEFPOINTS
  6
ByBlock
 62
     0
100
AcDbPoint
 10
689.7158553017206
 20
510.2074559945387
 30
0.0
  0
ENDBLK
  5
86
330
28
100
AcDbEntity
  8
0
100
AcDbBlockEnd
  0
BLOCK
  5
301
330
2F
100
AcDbEntity
  8
0
100
AcDbBlockBegin
  2
*D4
 70
     1
 10
0.0
 20
0.0
 30
0.0
  3
*D4
  1

  0
LINE
  5
302
330
2F
100
AcDbEntity
  8
0
  6
ByBlock
 62
     0
100
AcDbLine
 10
1046.563898799696
 20
243.0496105982986
 30
0.0
 11
1046.563898799696
 21
204.4583207997725
 31
0.0
  0
LINE
  5
303
330
2F
100
AcDbEntity
  8
0
  6
ByBlock
 62
     0
100
AcDbLine
 10
1179.563898799696
 20
243.0496105982985
 30
0.0
 11
1179.563898799696
 21
204.4583207997725
 31
0.0
  0
LINE
  5
304
330
2F
100
AcDbEntity
  8
0
  6
ByBlock
 62
     0
100
AcDbLine
 10
1053.563898799696
 20
206.4583207997725
 30
0.0
 11
1172.563898799696
 21
206.4583207997725
 31
0.0
  0
SOLID
  5
305
330
2F
100
AcDbEntity
  8
0
  6
ByBlock
 62
     0
100
AcDbTrace
 10
1053.563898799696
 20
207.6249874664391
 30
0.0
 11
1053.563898799696
 21
205.2916541331058
 31
0.0
 12
1046.563898799696
 22
206.4583207997725
 32
0.0
 13
1046.563898799696
 23
206.4583207997725
 33
0.0
  0
SOLID
  5
306
330
2F
100
AcDbEntity
  8
0
  6
ByBlock
 62
     0
100
AcDbTrace
 10
1172.563898799696
 20
207.6249874664391
 30
0.0
 11
1172.563898799696
 21
205.2916541331058
 31
0.0
 12
1179.563898799696
 22
206.4583207997725
 32
0.0
 13
1179.563898799696
 23
206.4583207997725
 33
0.0
  0
TEXT
  5
307
330
2F
100
AcDbEntity
  8
0
  6
ByBlock
 62
     1
100
AcDbText
 10
1103.863898799696
 20
209.9583207997725
 30
0.0
 40
7.0
  1
%%c
 41
0.8
  7
GREEKS
 72
     1
 11
1105.597232133029
 21
213.4583207997725
 31
0.0
100
AcDbText
 73
     2
  0
TEXT
  5
308
330
2F
100
AcDbEntity
  8
0
  6
ByBlock
 62
     1
100
AcDbText
 10
1108.930565466362
 20
209.9583207997725
 30
0.0
 40
7.0
  1
133
 41
0.8
  7
GREEKS
 72
     1
 11
1115.597232133029
 21
213.4583207997725
 31
0.0
100
AcDbText
 73
     2
  0
POINT
  5
309
330
2F
100
AcDbEntity
  8
DEFPOINTS
  6
ByBlock
 62
     0
100
AcDbPoint
 10
1046.563898799696
 20
245.0496105982986
 30
0.0
  0
POINT
  5
30A
330
2F
100
AcDbEntity
  8
DEFPOINTS
  6
ByBlock
 62
     0
100
AcDbPoint
 10
1179.563898799696
 20
245.0496105982985
 30
0.0
  0
POINT
  5
30B
330
2F
100
AcDbEntity
  8
DEFPOINTS
  6
ByBlock
 62
     0
100
AcDbPoint
 10
1179.563898799696
 20
206.4583207997725
 30
0.0
  0
ENDBLK
  5
30C
330
2F
100
AcDbEntity
  8
0
100
AcDbBlockEnd
  0
BLOCK
  5
30D
330
30
100
AcDbEntity
  8
0
100
AcDbBlockBegin
  2
*D5
 70
     1
 10
0.0
 20
0.0
 30
0.0
  3
*D5
  1

  0
LINE
  5
30E
330
30
100
AcDbEntity
  8
0
  6
ByBlock
 62
     0
100
AcDbLine
 10
336.2538402124392
 20
204.0215536036314
 30
0.0
 11
218.2441845337529
 21
204.0215536036314
 31
0.0
  0
LINE
  5
30F
330
30
100
AcDbEntity
  8
0
  6
ByBlock
 62
     0
100
AcDbLine
 10
218.2441845337529
 20
474.0215536036314
 30
0.0
 11
218.2441845337529
 21
474.0215536036314
 31
0.0
  0
LINE
  5
310
330
30
100
AcDbEntity
  8
0
  6
ByBlock
 62
     0
100
AcDbLine
 10
220.2441845337529
 20
211.0215536036314
 30
0.0
 11
220.2441845337529
 21
467.0215536036314
 31
0.0
  0
SOLID
  5
311
330
30
100
AcDbEntity
  8
0
  6
ByBlock
 62
     0
100
AcDbTrace
 10
219.0775178670862
 20
211.0215536036314
 30
0.0
 11
221.4108512004195
 21
211.0215536036314
 31
0.0
 12
220.2441845337529
 22
204.0215536036314
 32
0.0
 13
220.2441845337529
 23
204.0215536036314
 33
0.0
  0
SOLID
  5
312
330
30
100
AcDbEntity
  8
0
  6
ByBlock
 62
     0
100
AcDbTrace
 10
219.0775178670862
 20
467.0215536036314
 30
0.0
 11
221.4108512004195
 21
467.0215536036314
 31
0.0
 12
220.2441845337529
 22
474.0215536036314
 32
0.0
 13
220.2441845337529
 23
474.0215536036314
 33
0.0
  0
TEXT
  5
313
330
30
100
AcDbEntity
  8
0
  6
ByBlock
 62
     1
100
AcDbText
 10
216.7441845337529
 20
331.8215536036315
 30
0.0
 40
7.0
  1
270
 50
90.0
 41
0.8
  7
GREEKS
 72
     1
 11
213.2441845337529
 21
339.0215536036314
 31
0.0
100
AcDbText
 73
     2
  0
POINT
  5
314
330
30
100
AcDbEntity
  8
DEFPOINTS
  6
ByBlock
 62
     0
100
AcDbPoint
 10
338.2538402124392
 20
204.0215536036314
 30
0.0
  0
POINT
  5
315
330
30
100
AcDbEntity
  8
DEFPOINTS
  6
ByBlock
 62
     0
100
AcDbPoint
 10
220.2441845337529
 20
474.0215536036314
 30
0.0
  0
POINT
  5
316
330
30
100
AcDbEntity
  8
DEFPOINTS
  6
ByBlock
 62
     0
100
AcDbPoint
 10
220.2441845337529
 20
474.0215536036314
 30
0.0
  0
ENDBLK
  5
317
330
30
100
AcDbEntity
  8
0
100
AcDbBlockEnd
  0
ENDSEC
  0
SECTION
  2
ENTITIES
  0
TEXT
  5
318
330
20
100
AcDbEntity
  8
TEXT
100
AcDbText
 10
655.1296391125315
 20
71.50334417585288
 30
0.0
 40
5.0
  1
Etageneinsatzeinheit
 41
0.8
  7
GREEKS
100
AcDbText
  0
TEXT
  5
319
330
20
100
AcDbEntity
  8
TEXT
100
AcDbText
 10
654.9837501577826
 20
42.62974153022632
 30
0.0
 40
4.0
  1
17204125W.DWG
 41
0.8
  7
GREEKS
100
AcDbText
  0
TEXT
  5
31A
330
20
100
AcDbEntity
  8
TEXT
100
AcDbText
 10
655.1296391125315
 20
51.64011943042158
 30
0.0
 40
5.0
  1
EDV-Art.Nr. 17204.125A
 41
0.8
  7
GREEKS
100
AcDbText
  0
TEXT
  5
31B
330
20
100
AcDbEntity
  8
TEXT
 62
     1
100
AcDbText
 10
588.1194507980049
 20
197.402786725415
 30
0.0
 40
7.0
  1
EDV-Art.Nr.17117.125A
 41
0.8
  7
GREEKS
100
AcDbText
  0
TEXT
  5
31C
330
20
100
AcDbEntity
  8
TEXT
 62
     1
100
AcDbText
 10
588.3125349957061
 20
210.0493343235562
 30
0.0
 40
7.0
  1
Etageneinsatz DN125
 41
0.8
  7
GREEKS
100
AcDbText
  0
TEXT
  5
31D
330
20
100
AcDbEntity
  8
TEXT
 62
     1
100
AcDbText
 10
599.4362195257145
 20
355.5911082291861
 30
0.0
 40
7.0
  1
Klemmring DN125
 41
0.8
  7
GREEKS
100
AcDbText
  0
DIMENSION
  5
31E
330
20
100
AcDbEntity
  8
BEM
100
AcDbDimension
  2
*D2
 10
667.2045663951279
 20
474.0215536036314
 30
0.0
 11
660.2045663951279
 21
457.9748869369647
 31
0.0
 12
-24.18289810396959
 22
-51.04220550757304
 32
0.0
 71
     5
 42
-1.0
100
AcDbAlignedDimension
 13
653.4415102595505
 23
477.0215536036314
 33
0.0
 14
653.4415102595505
 24
474.0215536036314
 34
0.0
 50
90.0
100
AcDbRotatedDimension
  0
TEXT
  5
31F
330
20
100
AcDbEntity
  8
TEXT
 62
     1
100
AcDbText
 10
657.6527625476387
 20
423.20950326841
 30
0.0
 40
7.0
  1
EDV-Art.Nr.17000.125A
 41
0.8
  7
GREEKS
100
AcDbText
  0
LINE
  5
320
330
20
100
AcDbEntity
  8
TEXT
 62
     2
100
AcDbLine
 10
657.6294144991456
 20
432.1330975667448
 30
0.0
 11
777.5027755491067
 21
432.1330975667448
 31
0.0
  0
TEXT
  5
321
330
20
100
AcDbEntity
  8
TEXT
 62
     1
100
AcDbText
 10
658.3958075652652
 20
435.8560508665512
 30
0.0
 40
7.0
  1
Anschlußmanschette DN125
 41
0.8
  7
GREEKS
100
AcDbText
  0
TEXT
  5
322
330
20
100
AcDbEntity
  8
TEXT
 62
     1
100
AcDbText
 10
598.751550565361
 20
342.9445606310449
 30
0.0
 40
7.0
  1
EDV-Art.Nr.17201.125A
 41
0.8
  7
GREEKS
100
AcDbText
  0
LINE
  5
323
330
20
100
AcDbEntity
  8
TEXT
 62
     2
100
AcDbLine
 10
598.7282025168682
 20
351.8681549293797
 30
0.0
 11
697.6224168901981
 21
351.8681549293797
 31
0.0
  0
LINE
  5
324
330
20
100
AcDbEntity
  8
TEXT
 62
     2
100
AcDbLine
 10
588.0961027495121
 20
206.3263810237499
 30
0.0
 11
685.1968003819676
 21
206.3263810237499
 31
0.0
  0
TEXT
  5
325
330
20
100
AcDbEntity
  8
TEXT
100
AcDbText
 10
654.8779403809009
 20
102.5489328011779
 30
0.0
 40
5.0
  1
Benennung
 41
0.8
  7
GREEKS
100
AcDbText
  0
LINE
  5
326
330
20
100
AcDbEntity
  8
HILF
100
AcDbLine
 10
654.7736801096947
 20
84.03758247564139
 30
0.0
 11
744.835391655631
 21
84.03758247564139
 31
0.0
  0
LINE
  5
327
330
20
100
AcDbEntity
  8
HILF
100
AcDbLine
 10
654.7736801096947
 20
69.99999999999994
 30
0.0
 11
744.8353916556309
 21
69.99999999999994
 31
0.0
  0
TEXT
  5
328
330
20
100
AcDbEntity
  8
TEXT
 62
     1
100
AcDbText
 10
655.33119410276
 20
87.41748789253779
 30
0.0
 40
7.0
  1
Flachdachablauf DN125
 41
0.75
  7
GREEKS
100
AcDbText
  0
TEXT
  5
329
330
20
100
AcDbEntity
  8
TEXT
100
AcDbText
 10
654.7422383911359
 20
30.84560570193057
 30
0.0
 40
5.0
  1
Bauvorhaben
 41
0.8
  7
GREEKS
100
AcDbText
  0
LINE
  5
32A
330
20
100
AcDbEntity
  8
HILF
100
AcDbLine
 10
654.7736801096947
 20
59.99999999999997
 30
0.0
 11
744.8353916556309
 21
59.99999999999997
 31
0.0
  0
LINE
  5
32B
330
20
100
AcDbEntity
  8
HILF
100
AcDbLine
 10
654.7736801096947
 20
49.99999999999997
 30
0.0
 11
744.8353916556309
 21
49.99999999999997
 31
0.0
  0
LINE
  5
32C
330
20
100
AcDbEntity
  8
HILF
100
AcDbLine
 10
653.4909699289885
 20
14.89398258028314
 30
0.0
 11
824.8588839326728
 21
14.89398258028314
 31
0.0
  0
LINE
  5
32D
330
20
100
AcDbEntity
  8
STEMPEL
100
AcDbLine
 10
830.0
 20
110.0
 30
0.0
 11
470.0
 21
110.0
 31
0.0
  0
LINE
  5
32E
330
20
100
AcDbEntity
  8
STEMPEL
100
AcDbLine
 10
830.0
 20
40.0
 30
0.0
 11
566.0000000000001
 21
39.99999999999997
 31
0.0
  0
LINE
  5
32F
330
20
100
AcDbEntity
  8
STEMPEL
100
AcDbLine
 10
830.0
 20
80.0
 30
0.0
 11
566.0000000000001
 21
79.99999999999994
 31
0.0
  0
LINE
  5
330
330
20
100
AcDbEntity
  8
STEMPEL
100
AcDbLine
 10
479.9999999999998
 20
10.0
 30
0.0
 11
830.0
 21
10.0
 31
0.0
  0
LINE
  5
331
330
20
100
AcDbEntity
  8
STEMPEL
100
AcDbLine
 10
830.0
 20
584.0
 30
0.0
 11
39.99999999999989
 21
584.0
 31
0.0
  0
LINE
  5
332
330
20
100
AcDbEntity
  8
HILF
100
AcDbLine
 10
839.9999999999998
 20
594.0000000000002
 30
0.0
 11
-0.0000000000001705
 21
593.9999999999997
 31
0.0
  0
LINE
  5
333
330
20
100
AcDbEntity
  8
STEMPEL
100
AcDbLine
 10
830.0
 20
10.0
 30
0.0
 11
40.0
 21
10.0
 31
0.0
  0
LINE
  5
334
330
20
100
AcDbEntity
  8
HILF
100
AcDbLine
 10
840.0
 20
0.0
 30
0.0
 11
0.0
 21
0.0
 31
0.0
  0
DIMENSION
  5
335
330
20
100
AcDbEntity
  8
BEM
100
AcDbDimension
  2
*D5
 10
220.2441845337529
 20
474.0215536036314
 30
0.0
 11
213.2441845337529
 21
339.0215536036314
 31
0.0
 71
     5
 42
-1.0
100
AcDbAlignedDimension
 13
338.2538402124392
 23
204.0215536036314
 33
0.0
 14
220.2441845337529
 24
474.0215536036314
 34
0.0
 50
90.0
100
AcDbRotatedDimension
  0
LINE
  5
336
330
20
100
AcDbEntity
  8
MITTEL
100
AcDbLine
 10
403.4415102595505
 20
482.0215536036314
 30
0.0
 11
403.4415102595505
 21
199.0215536036315
 31
0.0
  0
LINE
  5
337
102
{ACAD_REACTORS
330
448
102
}
330
20
100
AcDbEntity
  8
STEMPEL
100
AcDbLine
 10
469.9415102595505
 20
412.3485592873717
 30
0.0
 11
469.9415102595505
 21
219.0215536036318
 31
0.0
  0
LINE
  5
338
102
{ACAD_REACTORS
330
448
102
}
330
20
100
AcDbEntity
  8
STEMPEL
100
AcDbLine
 10
467.9415102595505
 20
412.3485592873717
 30
0.0
 11
467.9415102595505
 21
219.1088754894489
 31
0.0
  0
LINE
  5
339
102
{ACAD_REACTORS
330
448
102
}
330
20
100
AcDbEntity
  8
STEMPEL
100
AcDbLine
 10
336.9415102595506
 20
412.3485592873717
 30
0.0
 11
336.9415102595506
 21
219.0215536036318
 31
0.0
  0
LINE
  5
33A
102
{ACAD_REACTORS
330
448
102
}
330
20
100
AcDbEntity
  8
STEMPEL
100
AcDbLine
 10
338.9415102595506
 20
412.3485592873717
 30
0.0
 11
338.9415102595506
 21
219.1088754894493
 31
0.0
  0
LINE
  5
33B
330
20
100
AcDbEntity
  8
HILF
100
AcDbLine
 10
0.0
 20
0.0
 30
0.0
 11
-0.0000000000001705
 21
593.9999999999997
 31
0.0
  0
LINE
  5
33C
330
20
100
AcDbEntity
  8
STEMPEL
100
AcDbLine
 10
40.0
 20
10.0
 30
0.0
 11
39.99999999999989
 21
584.0
 31
0.0
  0
LINE
  5
33E
330
20
100
AcDbEntity
  8
STEMPEL
100
AcDbLine
 10
650.0
 20
110.0
 30
0.0
 11
650.0
 21
9.999999999999971
 31
0.0
  0
LINE
  5
33F
330
20
100
AcDbEntity
  8
STEMPEL
100
AcDbLine
 10
566.0000000000001
 20
109.9999999999999
 30
0.0
 11
566.0
 21
9.999999999999971
 31
0.0
  0
INSERT
  5
340
330
20
100
AcDbEntity
  8
STEMPEL
100
AcDbBlockReference
  2
LOGO
 10
570.9955485457794
 20
45.02105276448322
 30
0.0
 41
2.0
 42
2.0
 43
2.0
  0
TEXT
  5
341
330
20
100
AcDbEntity
  8
TEXT
100
AcDbText
 10
530.481242004186
 20
18.6715626933981
 30
0.0
 40
4.0
  1
Tag
 41
0.8
  7
GREEKS
 72
     1
 11
534.2145753375193
 21
18.6715626933981
 31
0.0
100
AcDbText
  0
TEXT
  5
342
330
20
100
AcDbEntity
  8
TEXT
100
AcDbText
 10
478.2664110704575
 20
13.65465846027192
 30
0.0
 40
4.0
  1
Index
 50
90.0
 41
0.8
  7
GREEKS
100
AcDbText
  0
TEXT
  5
343
330
20
100
AcDbEntity
  8
TEXT
100
AcDbText
 10
493.3010603253364
 20
18.67381894984132
 30
0.0
 40
4.0
  1
Änderung
 41
0.8
  7
GREEKS
 72
     1
 11
504.0439174681936
 21
18.67381894984132
 31
0.0
100
AcDbText
  0
LINE
  5
344
330
20
100
AcDbEntity
  8
VOLL
100
AcDbLine
 10
484.0000000000001
 20
110.0
 30
0.0
 11
484.0
 21
9.999999999999971
 31
0.0
  0
LINE
  5
345
330
20
100
AcDbEntity
  8
VOLL
100
AcDbLine
 10
524.0000000000001
 20
109.9999999999999
 30
0.0
 11
524.0
 21
9.999999999999971
 31
0.0
  0
LINE
  5
346
330
20
100
AcDbEntity
  8
VOLL
100
AcDbLine
 10
544.0000000000001
 20
109.9999999999999
 30
0.0
 11
544.0
 21
9.999999999999971
 31
0.0
  0
LINE
  5
347
330
20
100
AcDbEntity
  8
STEMPEL
100
AcDbLine
 10
470.0
 20
10.0
 30
0.0
 11
470.0
 21
110.0
 31
0.0
  0
LINE
  5
348
330
20
100
AcDbEntity
  8
HILF
 62
     7
100
AcDbLine
 10
460.0
 20
-0.0000000000002824
 30
0.0
 11
460.0
 21
10.0
 31
0.0
  0
TEXT
  5
349
330
20
100
AcDbEntity
  8
TEXT
100
AcDbText
 10
549.0096761888669
 20
18.59324216966408
 30
0.0
 40
4.0
  1
Name
 41
0.8
  7
GREEKS
 72
     1
 11
555.3334857126763
 21
18.59324216966408
 31
0.0
100
AcDbText
  0
LINE
  5
34A
330
20
100
AcDbEntity
  8
STEMPEL
100
AcDbLine
 10
565.9999999999999
 20
29.99999999999997
 30
0.0
 11
470.0
 21
29.99999999999997
 31
0.0
  0
LINE
  5
34B
330
20
100
AcDbEntity
  8
HILF
100
AcDbLine
 10
470.0000000000001
 20
100.0
 30
0.0
 11
566.0000000000001
 21
100.0
 31
0.0
  0
LINE
  5
34C
330
20
100
AcDbEntity
  8
HILF
100
AcDbLine
 10
470.0000000000001
 20
90.00000000000005
 30
0.0
 11
566.0000000000001
 21
90.00000000000005
 31
0.0
  0
LINE
  5
34D
330
20
100
AcDbEntity
  8
HILF
100
AcDbLine
 10
470.0000000000001
 20
79.99999999999994
 30
0.0
 11
566.0000000000001
 21
79.99999999999994
 31
0.0
  0
LINE
  5
34E
330
20
100
AcDbEntity
  8
HILF
100
AcDbLine
 10
470.0000000000001
 20
69.99999999999994
 30
0.0
 11
566.0000000000001
 21
69.99999999999994
 31
0.0
  0
LINE
  5
34F
330
20
100
AcDbEntity
  8
HILF
100
AcDbLine
 10
470.0000000000001
 20
59.99999999999997
 30
0.0
 11
566.0000000000001
 21
59.99999999999997
 31
0.0
  0
LINE
  5
350
330
20
100
AcDbEntity
  8
HILF
100
AcDbLine
 10
470.0000000000001
 20
49.99999999999997
 30
0.0
 11
566.0000000000001
 21
49.99999999999997
 31
0.0
  0
LINE
  5
351
330
20
100
AcDbEntity
  8
HILF
100
AcDbLine
 10
470.0000000000001
 20
39.99999999999997
 30
0.0
 11
566.0000000000001
 21
39.99999999999997
 31
0.0
  0
TEXT
  5
352
330
20
100
AcDbEntity
  8
TEXT
100
AcDbText
 10
591.0085209177599
 20
63.10765040825732
 30
0.0
 40
4.0
  1
11.06.
 41
0.8
  7
GREEKS
 72
     1
 11
597.4085209177599
 21
63.10765040825732
 31
0.0
100
AcDbText
  0
TEXT
  5
353
330
20
100
AcDbEntity
  8
TEXT
100
AcDbText
 10
624.4216048581257
 20
63.0896391972351
 30
0.0
 40
4.0
  1
Koeh
 41
0.8
  7
GREEKS
 72
     1
 11
629.6787477152686
 21
63.0896391972351
 31
0.0
100
AcDbText
  0
LINE
  5
354
330
20
100
AcDbEntity
  8
VOLL
100
AcDbLine
 10
610.0000000000001
 20
109.9999999999998
 30
0.0
 11
610.0
 21
39.99999999999997
 31
0.0
  0
TEXT
  5
355
330
20
100
AcDbEntity
  8
TEXT
100
AcDbText
 10
567.5836127167615
 20
63.62990369617964
 30
0.0
 40
4.0
  1
Gez.
 41
0.8
  7
GREEKS
100
AcDbText
  0
LINE
  5
356
330
20
100
AcDbEntity
  8
VOLL
100
AcDbLine
 10
584.0000000000001
 20
79.99999999999994
 30
0.0
 11
584.0000000000001
 21
39.99999999999997
 31
0.0
  0
LINE
  5
357
330
20
100
AcDbEntity
  8
HILF
100
AcDbLine
 10
566.0000000000001
 20
59.99999999999997
 30
0.0
 11
650.0
 21
59.99999999999997
 31
0.0
  0
LINE
  5
358
330
20
100
AcDbEntity
  8
HILF
100
AcDbLine
 10
566.0000000000001
 20
49.99999999999997
 30
0.0
 11
650.0
 21
49.99999999999997
 31
0.0
  0
TEXT
  5
359
330
20
100
AcDbEntity
  8
TEXT
100
AcDbText
 10
567.5515086571672
 20
53.68926291428377
 30
0.0
 40
4.0
  1
Gepr.
 41
0.8
  7
GREEKS
100
AcDbText
  0
TEXT
  5
35A
330
20
100
AcDbEntity
  8
TEXT
100
AcDbText
 10
567.6006777387303
 20
43.52946389649807
 30
0.0
 40
4.0
  1
Norm.
 41
0.8
  7
GREEKS
100
AcDbText
  0
LINE
  5
35B
330
20
100
AcDbEntity
  8
HILF
100
AcDbLine
 10
566.0000000000001
 20
69.99999999999994
 30
0.0
 11
650.0
 21
69.99999999999994
 31
0.0
  0
TEXT
  5
35C
330
20
100
AcDbEntity
  8
TEXT
100
AcDbText
 10
568.6221098221039
 20
73.14025471151666
 30
0.0
 40
4.0
  1
2008
 41
0.8
  7
GREEKS
100
AcDbText
  0
TEXT
  5
35D
330
20
100
AcDbEntity
  8
TEXT
100
AcDbText
 10
592.3311673153651
 20
73.31880501229926
 30
0.0
 40
4.0
  1
Tag
 41
0.8
  7
GREEKS
100
AcDbText
  0
TEXT
  5
35E
330
20
100
AcDbEntity
  8
TEXT
100
AcDbText
 10
573.5163572150376
 20
102.4620895087088
 30
0.0
 40
5.0
  1
Maßstab
 41
0.8
  7
GREEKS
100
AcDbText
  0
TEXT
  5
35F
330
20
100
AcDbEntity
  8
TEXT
 62
     1
100
AcDbText
 10
580.5006306481886
 20
88.14901428913959
 30
0.0
 40
7.0
  1
1:2
 41
0.8
  7
GREEKS
100
AcDbText
  0
TEXT
  5
360
330
20
100
AcDbEntity
  8
TEXT
100
AcDbText
 10
622.4626584226294
 20
73.30961091915225
 30
0.0
 40
4.0
  1
Name
 41
0.8
  7
GREEKS
100
AcDbText
  0
TEXT
  5
361
330
20
100
AcDbEntity
  8
TEXT
100
AcDbText
 10
614.2858954734052
 20
102.4184168434819
 30
0.0
 40
5.0
  1
Zul. Abw.
 41
0.8
  7
GREEKS
100
AcDbText
  0
LINE
  5
362
102
{ACAD_REACTORS
330
448
102
}
330
20
100
AcDbEntity
  8
STEMPEL
100
AcDbLine
 10
338.2538402124392
 20
204.0215536036314
 30
0.0
 11
468.6291803066617
 21
204.0215536036316
 31
0.0
  0
LINE
  5
363
330
20
100
AcDbEntity
  8
HILF
100
AcDbLine
 10
340.9415102595506
 20
219.0215536036314
 30
0.0
 11
465.9415102595505
 21
219.0215536036316
 31
0.0
  0
DIMENSION
  5
364
330
20
100
AcDbEntity
  8
BEM
100
AcDbDimension
  2
*D4
 10
469.9415102595505
 20
180.4302638051057
 30
0.0
 11
403.4415102595505
 21
187.4302638051057
 31
0.0
 12
-709.6223885401455
 22
-26.02805699466677
 32
0.0
  1
%%c<>
 71
     5
 42
-1.0
100
AcDbAlignedDimension
 13
336.9415102595506
 23
219.0215536036318
 33
0.0
 14
469.9415102595505
 24
219.0215536036318
 34
0.0
100
AcDbRotatedDimension
  0
LINE
  5
365
102
{ACAD_REACTORS
330
448
102
}
330
20
100
AcDbEntity
  8
STEMPEL
100
AcDbLine
 10
338.9415102595506
 20
219.1088754894493
 30
0.0
 11
340.2614798875261
 21
204.0215536036314
 31
0.0
  0
LINE
  5
366
102
{ACAD_REACTORS
330
448
102
}
330
20
100
AcDbEntity
  8
STEMPEL
100
AcDbLine
 10
336.9415102595506
 20
219.0215536036318
 30
0.0
 11
338.2538402124392
 21
204.0215536036314
 31
0.0
  0
TEXT
  5
367
330
20
100
AcDbEntity
  8
TEXT
100
AcDbText
 10
471.8550995097768
 20
111.6719999999999
 30
0.0
 40
5.0
  1
Erstellt mit AUTOCAD 2004
 41
0.8
  7
GREEKS
100
AcDbText
  0
LINE
  5
368
330
20
100
AcDbEntity
  8
TEXT
 62
     2
100
AcDbLine
 10
469.1228853416937
 20
238.569939845523
 30
0.0
 11
588.0961027495121
 21
206.3263810237499
 31
0.0
  0
LINE
  5
369
102
{ACAD_REACTORS
330
448
102
}
330
20
100
AcDbEntity
  8
STEMPEL
100
AcDbLine
 10
467.9415102595505
 20
219.1088754894489
 30
0.0
 11
466.621540631575
 21
204.0215536036316
 31
0.0
  0
LINE
  5
36A
102
{ACAD_REACTORS
330
448
102
}
330
20
100
AcDbEntity
  8
STEMPEL
100
AcDbLine
 10
469.9415102595505
 20
219.0215536036318
 30
0.0
 11
468.6291803066617
 21
204.0215536036316
 31
0.0
  0
LINE
  5
36B
102
{ACAD_REACTORS
330
470
102
}
330
20
100
AcDbEntity
  8
STEMPEL
100
AcDbLine
 10
238.4415102595506
 20
472.0215536036314
 30
0.0
 11
312.5626234346808
 21
472.0215536036315
 31
0.0
  0
LINE
  5
36C
102
{ACAD_REACTORS
330
470
330
4A6
102
}
330
20
100
AcDbEntity
  8
STEMPEL
100
AcDbLine
 10
153.4415102595505
 20
474.0215536036314
 30
0.0
 11
312.5626234346808
 21
474.0215536036314
 31
0.0
  0
LINE
  5
36E
102
{ACAD_REACTORS
330
4A6
102
}
330
20
100
AcDbEntity
  8
STEMPEL
100
AcDbLine
 10
153.4415102595505
 20
477.0215536036314
 30
0.0
 11
653.4415102595505
 21
477.0215536036314
 31
0.0
  0
DIMENSION
  5
370
330
20
100
AcDbEntity
  8
BEM
100
AcDbDimension
  2
*D3
 10
653.4415102595505
 20
510.2074559945387
 30
0.0
 11
404.8243404261556
 21
517.2074559945388
 31
0.0
 12
-36.27434504217001
 22
0.0
 32
0.0
 70
   128
 71
     5
 42
-1.0
100
AcDbAlignedDimension
 13
153.4415102595505
 23
477.0215536036314
 33
0.0
 14
653.4415102595505
 24
477.0215536036314
 34
0.0
100
AcDbRotatedDimension
  0
DIMENSION
  5
371
330
20
100
AcDbEntity
  8
BEM
100
AcDbDimension
  2
*D1
 10
568.4415102595505
 20
492.0158329554697
 30
0.0
 11
403.4415102595505
 21
499.0158329554697
 31
0.0
 12
-24.18289810396959
 22
-51.04220550757304
 32
0.0
  1
%%c<>
 71
     5
 42
-1.0
100
AcDbAlignedDimension
 13
238.4415102595506
 23
474.0215536036314
 33
0.0
 14
568.4415102595505
 24
474.0215536036314
 34
0.0
100
AcDbRotatedDimension
  0
LINE
  5
372
330
20
100
AcDbEntity
  8
HILF
100
AcDbLine
 10
31.08767135713851
 20
296.9999999999999
 30
0.0
 11
0.0000000000000568
 21
296.9999999999999
 31
0.0
  0
LINE
  5
373
102
{ACAD_REACTORS
330
4A6
102
}
330
20
100
AcDbEntity
  8
STEMPEL
100
AcDbLine
 10
153.4415102595505
 20
477.0215536036314
 30
0.0
 11
153.4415102595505
 21
474.0215536036314
 31
0.0
  0
LINE
  5
374
330
20
100
AcDbEntity
  8
STEMPEL
100
AcDbLine
 10
238.4415102595506
 20
474.0215536036314
 30
0.0
 11
238.4415102595506
 21
472.0215536036314
 31
0.0
  0
LINE
  5
375
102
{ACAD_REACTORS
330
470
102
}
330
20
100
AcDbEntity
  8
STEMPEL
100
AcDbLine
 10
238.4415102595506
 20
474.0215536036314
 30
0.0
 11
238.4415102595506
 21
472.0215536036314
 31
0.0
  0
LINE
  5
377
330
20
100
AcDbEntity
  8
HILF
100
AcDbLine
 10
466.5116111458807
 20
416.5112861791333
 30
0.0
 11
340.3714093732201
 21
416.5112861791333
 31
0.0
  0
LINE
  5
379
330
20
100
AcDbEntity
  8
STEMPEL
100
AcDbLine
 10
333.1415102595506
 20
464.2674646148852
 30
0.0
 11
473.5368180095377
 21
464.2674646148852
 31
0.0
  0
LINE
  5
37A
102
{ACAD_REACTORS
330
4E0
102
}
330
20
100
AcDbEntity
  8
STEMPEL
100
AcDbLine
 10
328.4491499346373
 20
474.2674646148851
 30
0.0
 11
478.4338705844641
 21
474.2674646148851
 31
0.0
  0
LINE
  5
37B
102
{ACAD_REACTORS
330
4A6
330
4E0
102
}
330
20
100
AcDbEntity
  8
STEMPEL
100
AcDbLine
 10
326.4415102595498
 20
444.2674646148851
 30
0.0
 11
480.4415102595493
 21
444.2674646148851
 31
0.0
  0
LINE
  5
37C
102
{ACAD_REACTORS
330
4E0
102
}
330
20
100
AcDbEntity
  8
STEMPEL
100
AcDbLine
 10
333.4415102595506
 20
445.2674646148851
 30
0.0
 11
473.4415102595506
 21
445.2674646148851
 31
0.0
  0
LINE
  5
37D
102
{ACAD_REACTORS
330
4E0
102
}
330
20
100
AcDbEntity
  8
STEMPEL
100
AcDbLine
 10
340.1197095219053
 20
447.2674646148852
 30
0.0
 11
466.763310997196
 21
447.2674646148852
 31
0.0
  0
LINE
  5
37E
102
{ACAD_REACTORS
330
4A6
102
}
330
20
100
AcDbEntity
  8
STEMPEL
100
AcDbLine
 10
325.2148520009213
 20
441.2674646148851
 30
0.0
 11
481.6681685181785
 21
441.2674646148851
 31
0.0
  0
LINE
  5
37F
330
20
100
AcDbEntity
  8
STEMPEL
100
AcDbLine
 10
328.8752669892911
 20
438.0215536036314
 30
0.0
 11
478.0077535298099
 21
438.0215536036316
 31
0.0
  0
LINE
  5
380
102
{ACAD_REACTORS
330
470
102
}
330
20
100
AcDbEntity
  8
STEMPEL
100
AcDbLine
 10
328.8752669892911
 20
440.0215536036314
 30
0.0
 11
478.0077535298099
 21
440.0215536036315
 31
0.0
  0
LINE
  5
381
102
{ACAD_REACTORS
330
470
102
}
330
20
100
AcDbEntity
  8
STEMPEL
100
AcDbLine
 10
328.8752669892913
 20
438.0215536036314
 30
0.0
 11
478.0077535298098
 21
438.0215536036316
 31
0.0
  0
ARC
  5
382
102
{ACAD_REACTORS
330
42C
102
}
330
20
100
AcDbEntity
  8
SCHRAFF
100
AcDbCircle
 10
327.4415102595506
 20
438.1510808325763
 30
0.0
 40
4.0
100
AcDbArc
 50
155.1981813039356
 51
267.5181462698049
  0
LINE
  5
383
102
{ACAD_REACTORS
330
448
102
}
330
20
100
AcDbEntity
  8
STEMPEL
100
AcDbLine
 10
336.7704588528627
 20
420.2441864389731
 30
0.0
 11
327.4415102595506
 21
438.1510808325763
 31
0.0
  0
LINE
  5
384
102
{ACAD_REACTORS
330
42C
330
448
102
}
330
20
100
AcDbEntity
  8
STEMPEL
100
AcDbLine
 10
334.9967297582712
 20
419.3201274046038
 30
0.0
 11
325.667781164959
 21
437.227021798207
 31
0.0
  0
ARC
  5
385
102
{ACAD_REACTORS
330
448
102
}
330
20
100
AcDbEntity
  8
STEMPEL
100
AcDbCircle
 10
321.52305600675
 20
411.8044862006213
 30
0.0
 40
15.42805065682075
100
AcDbArc
 50
2.020965399060865
 51
29.15286240521088
  0
ARC
  5
386
102
{ACAD_REACTORS
330
448
102
}
330
20
100
AcDbEntity
  8
STEMPEL
100
AcDbCircle
 10
321.5240750878431
 20
411.8056067284014
 30
0.0
 40
17.42589582896457
100
AcDbArc
 50
1.785499355245401
 51
28.96368305442304
  0
LINE
  5
387
102
{ACAD_REACTORS
330
480
330
4E0
102
}
330
20
100
AcDbEntity
  8
STEMPEL
100
AcDbLine
 10
330.4415102595508
 20
449.2674646148851
 30
0.0
 11
330.4415102595507
 21
472.2674646148852
 31
0.0
  0
LINE
  5
388
102
{ACAD_REACTORS
330
480
330
4E0
102
}
330
20
100
AcDbEntity
  8
STEMPEL
100
AcDbLine
 10
328.4415102595508
 20
449.2674646148851
 30
0.0
 11
328.4415102595507
 21
472.2674646148852
 31
0.0
  0
LINE
  5
389
102
{ACAD_REACTORS
330
4E0
102
}
330
20
100
AcDbEntity
  8
STEMPEL
100
AcDbLine
 10
338.1500940158809
 20
448.9201682595513
 30
0.0
 11
335.8082218920941
 21
462.2015850590525
 31
0.0
  0
LINE
  5
38A
102
{ACAD_REACTORS
330
4A6
330
4E0
102
}
330
20
100
AcDbEntity
  8
STEMPEL
100
AcDbLine
 10
319.4415102595505
 20
458.5841102860021
 30
0.0
 11
320.9334893352846
 21
467.0455440934627
 31
0.0
  0
LINE
  5
38B
102
{ACAD_REACTORS
330
470
330
4A6
102
}
330
20
100
AcDbEntity
  8
STEMPEL
100
AcDbLine
 10
316.4415102595505
 20
458.8465762765798
 30
0.0
 11
317.979066076248
 21
467.5664886264634
 31
0.0
  0
LINE
  5
38C
102
{ACAD_REACTORS
330
470
102
}
330
20
100
AcDbEntity
  8
STEMPEL
100
AcDbLine
 10
314.4415102595505
 20
459.0215536036315
 30
0.0
 11
316.0094505702235
 21
467.9137849817973
 31
0.0
  0
ARC
  5
38E
102
{ACAD_REACTORS
330
470
330
4A6
102
}
330
20
100
AcDbEntity
  8
STEMPEL
100
AcDbCircle
 10
328.8752669892911
 20
446.0215536036316
 30
0.0
 40
6.0
100
AcDbArc
 50
210.0
 51
270.0
  0
ARC
  5
38F
102
{ACAD_REACTORS
330
42C
330
470
102
}
330
20
100
AcDbEntity
  8
STEMPEL
100
AcDbCircle
 10
328.8752669892911
 20
446.0215536036316
 30
0.0
 40
8.0
100
AcDbArc
 50
210.0
 51
270.0
  0
LINE
  5
390
102
{ACAD_REACTORS
330
4A6
330
4E0
102
}
330
20
100
AcDbEntity
  8
STEMPEL
100
AcDbLine
 10
319.4415102595506
 20
456.3612995657871
 30
0.0
 11
326.2771907779379
 21
444.5215536036315
 31
0.0
  0
LINE
  5
391
102
{ACAD_REACTORS
330
470
330
4A6
102
}
330
20
100
AcDbEntity
  8
STEMPEL
100
AcDbLine
 10
316.4415102595506
 20
455.5574519884938
 30
0.0
 11
323.6791145665845
 21
443.0215536036316
 31
0.0
  0
LINE
  5
392
102
{ACAD_REACTORS
330
470
102
}
330
20
100
AcDbEntity
  8
STEMPEL
100
AcDbLine
 10
314.4415102595506
 20
455.0215536036315
 30
0.0
 11
321.9470637590156
 21
442.0215536036316
 31
0.0
  0
LINE
  5
393
102
{ACAD_REACTORS
330
4A6
330
4E0
102
}
330
20
100
AcDbEntity
  8
STEMPEL
100
AcDbLine
 10
319.4415102595505
 20
458.5841102860021
 30
0.0
 11
319.4415102595506
 21
456.3612995657871
 31
0.0
  0
LINE
  5
394
102
{ACAD_REACTORS
330
470
330
4A6
102
}
330
20
100
AcDbEntity
  8
STEMPEL
100
AcDbLine
 10
316.4415102595505
 20
458.8465762765798
 30
0.0
 11
316.4415102595506
 21
455.5574519884938
 31
0.0
  0
LINE
  5
395
102
{ACAD_REACTORS
330
470
102
}
330
20
100
AcDbEntity
  8
STEMPEL
100
AcDbLine
 10
314.4415102595505
 20
459.0215536036315
 30
0.0
 11
314.4415102595506
 21
455.0215536036315
 31
0.0
  0
ARC
  5
396
102
{ACAD_REACTORS
330
4E0
102
}
330
20
100
AcDbEntity
  8
STEMPEL
100
AcDbCircle
 10
340.1197095219053
 20
449.2674646148851
 30
0.0
 40
2.0
100
AcDbArc
 50
189.9999999999998
 51
270.0
  0
LINE
  5
397
102
{ACAD_REACTORS
330
4E0
102
}
330
20
100
AcDbEntity
  8
STEMPEL
100
AcDbLine
 10
333.4415102595506
 20
445.2674646148851
 30
0.0
 11
331.7094594519817
 21
444.2674646148851
 31
0.0
  0
LINE
  5
398
102
{ACAD_REACTORS
330
4A6
102
}
330
20
100
AcDbEntity
  8
STEMPEL
100
AcDbLine
 10
333.4415102595506
 20
444.2674646148851
 30
0.0
 11
333.4415102595506
 21
441.2674646148851
 31
0.0
  0
LINE
  5
399
102
{ACAD_REACTORS
330
470
102
}
330
20
100
AcDbEntity
  8
STEMPEL
100
AcDbLine
 10
332.9415102595506
 20
440.0215536036314
 30
0.0
 11
332.9415102595506
 21
438.0215536036314
 31
0.0
  0
LINE
  5
39A
102
{ACAD_REACTORS
330
42C
330
448
102
}
330
20
100
AcDbEntity
  8
STEMPEL
100
AcDbLine
 10
327.4415102595506
 20
438.1510808325763
 30
0.0
 11
325.667781164959
 21
437.227021798207
 31
0.0
  0
POINT
  5
39B
330
20
100
AcDbEntity
  8
DEFPOINTS
  6
ByBlock
 62
     0
100
AcDbPoint
 10
328.6275182785753
 20
438.0626789630936
 30
0.0
  0
ARC
  5
39C
102
{ACAD_REACTORS
330
4E0
102
}
330
20
100
AcDbEntity
  8
STEMPEL
100
AcDbCircle
 10
328.8752669892911
 20
446.0215536036316
 30
0.0
 40
3.0
100
AcDbArc
 50
210.0
 51
215.7815399860359
  0
POINT
  5
39D
330
20
100
AcDbEntity
  8
DEFPOINTS
  6
ByBlock
 62
     0
100
AcDbPoint
 10
328.8752669892911
 20
438.0215536036314
 30
0.0
  0
LINE
  5
39E
102
{ACAD_REACTORS
330
4E0
102
}
330
20
100
AcDbEntity
  8
STEMPEL
100
AcDbLine
 10
340.9415102595508
 20
445.2674646148851
 30
0.0
 11
340.9415102595507
 21
447.2674646148852
 31
0.0
  0
LINE
  5
39F
102
{ACAD_REACTORS
330
480
330
4E0
102
}
330
20
100
AcDbEntity
  8
STEMPEL
100
AcDbLine
 10
328.4415102595508
 20
449.2674646148851
 30
0.0
 11
330.4415102595508
 21
449.2674646148851
 31
0.0
  0
LINE
  5
3A0
102
{ACAD_REACTORS
330
4E0
102
}
330
20
100
AcDbEntity
  8
STEMPEL
100
AcDbLine
 10
326.4567605384538
 20
472.4417761003804
 30
0.0
 11
325.536737057407
 21
461.925859592247
 31
0.0
  0
ARC
  5
3A1
102
{ACAD_REACTORS
330
470
330
4A6
102
}
330
20
100
AcDbEntity
  8
STEMPEL
100
AcDbCircle
 10
312.5626234346808
 20
468.5215536036316
 30
0.0
 40
5.5
100
AcDbArc
 50
350.0000000000002
 51
90.00000000000003
  0
ARC
  5
3A2
102
{ACAD_REACTORS
330
470
102
}
330
20
100
AcDbEntity
  8
STEMPEL
100
AcDbCircle
 10
312.5626234346808
 20
468.5215536036316
 30
0.0
 40
3.5
100
AcDbArc
 50
350.0
 51
90.0
  0
ARC
  5
3A3
102
{ACAD_REACTORS
330
4A6
102
}
330
20
100
AcDbEntity
  8
STEMPEL
100
AcDbCircle
 10
312.5626234346808
 20
468.5215536036316
 30
0.0
 40
8.5
100
AcDbArc
 50
349.9999999999999
 51
90.00000000000003
  0
ARC
  5
3A4
102
{ACAD_REACTORS
330
4E0
102
}
330
20
100
AcDbEntity
  8
STEMPEL
100
AcDbCircle
 10
323.5443476612235
 20
462.1001710777424
 30
0.0
 40
2.0
100
AcDbArc
 50
332.6652690310767
 51
354.9999999999999
  0
ARC
  5
3A5
102
{ACAD_REACTORS
330
4E0
102
}
330
20
100
AcDbEntity
  8
STEMPEL
100
AcDbCircle
 10
324.4326867111475
 20
461.6409829546598
 30
0.0
 40
1.0
100
AcDbArc
 50
227.8915544213075
 51
332.6652690310767
  0
LINE
  5
3A6
330
20
100
AcDbEntity
  8
STEMPEL
100
AcDbLine
 10
322.0858107767543
 20
461.5444134199533
 30
0.0
 11
325.4655799287561
 21
461.5444134199533
 31
0.0
  0
LINE
  5
3A7
102
{ACAD_REACTORS
330
4E0
102
}
330
20
100
AcDbEntity
  8
SCHRAFF
100
AcDbLine
 10
319.6382487989581
 20
459.6998699877609
 30
0.0
 11
319.8084193269839
 21
460.0756690548531
 31
0.0
  0
ARC
  5
3A8
102
{ACAD_REACTORS
330
4E0
102
}
330
20
100
AcDbEntity
  8
STEMPEL
100
AcDbCircle
 10
322.0858107767543
 20
459.0444134199533
 30
0.0
 40
2.499999999999997
100
AcDbArc
 50
47.89155442130723
 51
155.6378802944081
  0
LINE
  5
3A9
102
{ACAD_REACTORS
330
4E0
102
}
330
20
100
AcDbEntity
  8
STEMPEL
100
AcDbLine
 10
333.1415102595506
 20
464.2674646148852
 30
0.0
 11
332.42635067244
 21
472.4417761003804
 31
0.0
  0
ARC
  5
3AA
102
{ACAD_REACTORS
330
4E0
102
}
330
20
100
AcDbEntity
  8
STEMPEL
100
AcDbCircle
 10
333.3462025095636
 20
461.7674646148851
 30
0.0
 40
2.5
100
AcDbArc
 50
9.999999999999989
 51
90.0
  0
ARC
  5
3AB
102
{ACAD_REACTORS
330
4E0
102
}
330
20
100
AcDbEntity
  8
STEMPEL
100
AcDbCircle
 10
330.4339612762565
 20
472.2674646148852
 30
0.0
 40
2.0
100
AcDbArc
 50
4.999999999999892
 51
90.0
  0
ARC
  5
3AC
102
{ACAD_REACTORS
330
4E0
102
}
330
20
100
AcDbEntity
  8
STEMPEL
100
AcDbCircle
 10
328.4491499346373
 20
472.2674646148852
 30
0.0
 40
2.0
100
AcDbArc
 50
90.0
 51
175.0
  0
LINE
  5
3AD
102
{ACAD_REACTORS
330
480
330
4E0
102
}
330
20
100
AcDbEntity
  8
STEMPEL
100
AcDbLine
 10
328.4415102595507
 20
472.2674646148852
 30
0.0
 11
330.4415102595507
 21
472.2674646148852
 31
0.0
  0
LINE
  5
3AE
330
20
100
AcDbEntity
  8
TEXT
 62
     2
100
AcDbLine
 10
598.7282025168682
 20
351.8681549293797
 30
0.0
 11
484.2392357471801
 21
453.5458946665435
 31
0.0
  0
LINE
  5
3AF
102
{ACAD_REACTORS
330
470
102
}
330
20
100
AcDbEntity
  8
STEMPEL
100
AcDbLine
 10
568.4415102595505
 20
472.0215536036314
 30
0.0
 11
494.3203970844202
 21
472.0215536036315
 31
0.0
  0
LINE
  5
3B1
102
{ACAD_REACTORS
330
470
330
4A6
102
}
330
20
100
AcDbEntity
  8
STEMPEL
100
AcDbLine
 10
494.3203970844202
 20
474.0215536036314
 30
0.0
 11
653.4415102595505
 21
474.0215536036314
 31
0.0
  0
ARC
  5
3B2
102
{ACAD_REACTORS
330
42C
102
}
330
20
100
AcDbEntity
  8
SCHRAFF
100
AcDbCircle
 10
479.4415102595506
 20
438.1510808325763
 30
0.0
 40
4.0
100
AcDbArc
 50
272.4818537301952
 51
24.80181869606506
  0
LINE
  5
3B3
102
{ACAD_REACTORS
330
42C
330
448
102
}
330
20
100
AcDbEntity
  8
STEMPEL
100
AcDbLine
 10
471.88629076083
 20
419.3201274046038
 30
0.0
 11
481.215239354142
 21
437.227021798207
 31
0.0
  0
LINE
  5
3B4
102
{ACAD_REACTORS
330
448
102
}
330
20
100
AcDbEntity
  8
STEMPEL
100
AcDbLine
 10
470.1125616662384
 20
420.2441864389731
 30
0.0
 11
479.4415102595506
 21
438.1510808325763
 31
0.0
  0
ARC
  5
3B5
102
{ACAD_REACTORS
330
448
102
}
330
20
100
AcDbEntity
  8
STEMPEL
100
AcDbCircle
 10
485.3589454312579
 20
411.8056067284014
 30
0.0
 40
17.42589582896453
100
AcDbArc
 50
151.0363169455769
 51
178.2145006447546
  0
ARC
  5
3B6
102
{ACAD_REACTORS
330
448
102
}
330
20
100
AcDbEntity
  8
STEMPEL
100
AcDbCircle
 10
485.3599645123508
 20
411.8044862006213
 30
0.0
 40
15.42805065682075
100
AcDbArc
 50
150.8471375947889
 51
177.9790346009389
  0
LINE
  5
3B7
102
{ACAD_REACTORS
330
470
330
4A6
102
}
330
20
100
AcDbEntity
  8
STEMPEL
100
AcDbLine
 10
490.4415102595505
 20
458.8465762765798
 30
0.0
 11
488.9039544428531
 21
467.5664886264634
 31
0.0
  0
LINE
  5
3B8
102
{ACAD_REACTORS
330
470
102
}
330
20
100
AcDbEntity
  8
STEMPEL
100
AcDbLine
 10
492.4415102595506
 20
459.0215536036315
 30
0.0
 11
490.8735699488775
 21
467.9137849817973
 31
0.0
  0
LINE
  5
3B9
102
{ACAD_REACTORS
330
4A6
330
4E0
102
}
330
20
100
AcDbEntity
  8
STEMPEL
100
AcDbLine
 10
487.4415102595505
 20
458.584110286002
 30
0.0
 11
485.9495311838164
 21
467.0455440934624
 31
0.0
  0
LINE
  5
3BA
102
{ACAD_REACTORS
330
480
330
4E0
102
}
330
20
100
AcDbEntity
  8
STEMPEL
100
AcDbLine
 10
478.4415102595505
 20
449.2674646148851
 30
0.0
 11
478.4415102595507
 21
472.2674646148852
 31
0.0
  0
LINE
  5
3BB
102
{ACAD_REACTORS
330
480
330
4E0
102
}
330
20
100
AcDbEntity
  8
STEMPEL
100
AcDbLine
 10
476.4415102595505
 20
449.2674646148851
 30
0.0
 11
476.4415102595506
 21
472.2674646148852
 31
0.0
  0
LINE
  5
3BC
102
{ACAD_REACTORS
330
4E0
102
}
330
20
100
AcDbEntity
  8
STEMPEL
100
AcDbLine
 10
468.7329265032205
 20
448.9201682595513
 30
0.0
 11
471.0747986270072
 21
462.2015850590525
 31
0.0
  0
LINE
  5
3BE
102
{ACAD_REACTORS
330
42C
330
448
102
}
330
20
100
AcDbEntity
  8
STEMPEL
100
AcDbLine
 10
479.4415102595506
 20
438.1510808325763
 30
0.0
 11
481.215239354142
 21
437.227021798207
 31
0.0
  0
ARC
  5
3BF
102
{ACAD_REACTORS
330
470
330
4A6
102
}
330
20
100
AcDbEntity
  8
STEMPEL
100
AcDbCircle
 10
478.0077535298099
 20
446.0215536036316
 30
0.0
 40
6.0
100
AcDbArc
 50
270.0
 51
330.0000000000001
  0
ARC
  5
3C0
102
{ACAD_REACTORS
330
42C
330
470
102
}
330
20
100
AcDbEntity
  8
STEMPEL
100
AcDbCircle
 10
478.0077535298099
 20
446.0215536036316
 30
0.0
 40
8.0
100
AcDbArc
 50
270.0000000000001
 51
330.0000000000001
  0
LINE
  5
3C1
102
{ACAD_REACTORS
330
4A6
330
4E0
102
}
330
20
100
AcDbEntity
  8
STEMPEL
100
AcDbLine
 10
487.4415102595504
 20
456.3612995657873
 30
0.0
 11
480.6058297411632
 21
444.5215536036315
 31
0.0
  0
ARC
  5
3C2
102
{ACAD_REACTORS
330
4E0
102
}
330
20
100
AcDbEntity
  8
STEMPEL
100
AcDbCircle
 10
466.763310997196
 20
449.2674646148851
 30
0.0
 40
2.0
100
AcDbArc
 50
270.0
 51
350.0000000000002
  0
LINE
  5
3C3
102
{ACAD_REACTORS
330
4E0
102
}
330
20
100
AcDbEntity
  8
STEMPEL
100
AcDbLine
 10
465.9415102595505
 20
445.2674646148851
 30
0.0
 11
465.9415102595507
 21
447.2674646148852
 31
0.0
  0
ARC
  5
3C4
102
{ACAD_REACTORS
330
4E0
102
}
330
20
100
AcDbEntity
  8
STEMPEL
100
AcDbCircle
 10
478.0077535298099
 20
446.0215536036316
 30
0.0
 40
3.0
100
AcDbArc
 50
324.2184600139409
 51
330.0000000000001
  0
LINE
  5
3C5
102
{ACAD_REACTORS
330
470
102
}
330
20
100
AcDbEntity
  8
STEMPEL
100
AcDbLine
 10
473.9415102595505
 20
440.0215536036315
 30
0.0
 11
473.9415102595505
 21
438.0215536036315
 31
0.0
  0
LINE
  5
3C6
102
{ACAD_REACTORS
330
4E0
102
}
330
20
100
AcDbEntity
  8
STEMPEL
100
AcDbLine
 10
473.4415102595506
 20
445.2674646148851
 30
0.0
 11
475.1735610671196
 21
444.2674646148851
 31
0.0
  0
LINE
  5
3C7
102
{ACAD_REACTORS
330
4A6
102
}
330
20
100
AcDbEntity
  8
STEMPEL
100
AcDbLine
 10
473.4415102595505
 20
444.2674646148851
 30
0.0
 11
473.4415102595505
 21
441.2674646148851
 31
0.0
  0
LINE
  5
3C8
102
{ACAD_REACTORS
330
480
330
4E0
102
}
330
20
100
AcDbEntity
  8
STEMPEL
100
AcDbLine
 10
478.4415102595505
 20
449.2674646148851
 30
0.0
 11
476.4415102595505
 21
449.2674646148851
 31
0.0
  0
LINE
  5
3C9
102
{ACAD_REACTORS
330
470
330
4A6
102
}
330
20
100
AcDbEntity
  8
STEMPEL
100
AcDbLine
 10
490.4415102595505
 20
455.5574519884938
 30
0.0
 11
483.2039059525165
 21
443.0215536036316
 31
0.0
  0
LINE
  5
3CA
102
{ACAD_REACTORS
330
470
102
}
330
20
100
AcDbEntity
  8
STEMPEL
100
AcDbLine
 10
492.4415102595506
 20
455.0215536036315
 30
0.0
 11
484.9359567600854
 21
442.0215536036316
 31
0.0
  0
POINT
  5
3CB
330
20
100
AcDbEntity
  8
DEFPOINTS
  6
ByBlock
 62
     0
100
AcDbPoint
 10
483.5610417031111
 20
440.2629955841034
 30
0.0
  0
POINT
  5
3CC
330
20
100
AcDbEntity
  8
DEFPOINTS
  6
ByBlock
 62
     0
100
AcDbPoint
 10
483.5610417031111
 20
440.2629955841034
 30
0.0
  0
POINT
  5
3CD
330
20
100
AcDbEntity
  8
DEFPOINTS
  6
ByBlock
 62
     0
100
AcDbPoint
 10
483.5610417031111
 20
440.2629955841034
 30
0.0
  0
LINE
  5
3CE
102
{ACAD_REACTORS
330
470
330
4A6
102
}
330
20
100
AcDbEntity
  8
STEMPEL
100
AcDbLine
 10
490.4415102595505
 20
458.8465762765798
 30
0.0
 11
490.4415102595505
 21
455.5574519884938
 31
0.0
  0
LINE
  5
3CF
102
{ACAD_REACTORS
330
470
102
}
330
20
100
AcDbEntity
  8
STEMPEL
100
AcDbLine
 10
492.4415102595506
 20
459.0215536036315
 30
0.0
 11
492.4415102595506
 21
455.0215536036315
 31
0.0
  0
LINE
  5
3D0
102
{ACAD_REACTORS
330
4A6
330
4E0
102
}
330
20
100
AcDbEntity
  8
STEMPEL
100
AcDbLine
 10
487.4415102595505
 20
458.584110286002
 30
0.0
 11
487.4415102595504
 21
456.3612995657873
 31
0.0
  0
ARC
  5
3D1
102
{ACAD_REACTORS
330
4E0
102
}
330
20
100
AcDbEntity
  8
STEMPEL
100
AcDbCircle
 10
478.4338705844641
 20
472.2674646148852
 30
0.0
 40
2.0
100
AcDbArc
 50
4.999999999999969
 51
90.0
  0
LINE
  5
3D2
102
{ACAD_REACTORS
330
4E0
102
}
330
20
100
AcDbEntity
  8
STEMPEL
100
AcDbLine
 10
480.4262599806476
 20
472.4417761003804
 30
0.0
 11
481.3462834616943
 21
461.925859592247
 31
0.0
  0
LINE
  5
3D3
102
{ACAD_REACTORS
330
4E0
102
}
330
20
100
AcDbEntity
  8
STEMPEL
100
AcDbLine
 10
473.7407811218879
 20
464.2591305332636
 30
0.0
 11
474.4566698466614
 21
472.4417761003804
 31
0.0
  0
ARC
  5
3D4
102
{ACAD_REACTORS
330
4E0
102
}
330
20
100
AcDbEntity
  8
STEMPEL
100
AcDbCircle
 10
473.5368180095377
 20
461.7674646148851
 30
0.0
 40
2.5
100
AcDbArc
 50
85.32030851368308
 51
170.0
  0
ARC
  5
3D5
102
{ACAD_REACTORS
330
4E0
102
}
330
20
100
AcDbEntity
  8
STEMPEL
100
AcDbCircle
 10
476.4490592428448
 20
472.2674646148852
 30
0.0
 40
2.0
100
AcDbArc
 50
90.0
 51
175.0000000000001
  0
LINE
  5
3D6
102
{ACAD_REACTORS
330
480
330
4E0
102
}
330
20
100
AcDbEntity
  8
STEMPEL
100
AcDbLine
 10
478.4415102595507
 20
472.2674646148852
 30
0.0
 11
476.4415102595506
 21
472.2674646148852
 31
0.0
  0
ARC
  5
3D7
102
{ACAD_REACTORS
330
470
330
4A6
102
}
330
20
100
AcDbEntity
  8
STEMPEL
100
AcDbCircle
 10
494.3203970844202
 20
468.5215536036316
 30
0.0
 40
5.5
100
AcDbArc
 50
89.99999999999998
 51
189.9999999999998
  0
ARC
  5
3D8
102
{ACAD_REACTORS
330
470
102
}
330
20
100
AcDbEntity
  8
STEMPEL
100
AcDbCircle
 10
494.3203970844202
 20
468.5215536036316
 30
0.0
 40
3.5
100
AcDbArc
 50
89.99999999999998
 51
190.0
  0
ARC
  5
3D9
102
{ACAD_REACTORS
330
4A6
102
}
330
20
100
AcDbEntity
  8
STEMPEL
100
AcDbCircle
 10
494.3203970844202
 20
468.5215536036316
 30
0.0
 40
8.5
100
AcDbArc
 50
89.99999999999998
 51
190.0000000000004
  0
LINE
  5
3DA
102
{ACAD_REACTORS
330
4E0
102
}
330
20
100
AcDbEntity
  8
SCHRAFF
100
AcDbLine
 10
487.2447717201431
 20
459.6998699877608
 30
0.0
 11
487.0746011921173
 21
460.075669054853
 31
0.0
  0
ARC
  5
3DB
102
{ACAD_REACTORS
330
4E0
102
}
330
20
100
AcDbEntity
  8
STEMPEL
100
AcDbCircle
 10
483.3386728578777
 20
462.1001710777423
 30
0.0
 40
2.0
100
AcDbArc
 50
184.9999999999999
 51
207.3347309689232
  0
LINE
  5
3DC
330
20
100
AcDbEntity
  8
STEMPEL
100
AcDbLine
 10
484.7972097423467
 20
461.5444134199533
 30
0.0
 11
481.4174405903449
 21
461.5444134199533
 31
0.0
  0
ARC
  5
3DD
102
{ACAD_REACTORS
330
4E0
102
}
330
20
100
AcDbEntity
  8
STEMPEL
100
AcDbCircle
 10
482.4503338079538
 20
461.6409829546596
 30
0.0
 40
1.0
100
AcDbArc
 50
207.3347309689232
 51
312.1084455786924
  0
ARC
  5
3DE
102
{ACAD_REACTORS
330
4E0
102
}
330
20
100
AcDbEntity
  8
STEMPEL
100
AcDbCircle
 10
484.797209742347
 20
459.0444134199532
 30
0.0
 40
2.499999999999997
100
AcDbArc
 50
24.36211970559212
 51
132.1084455786927
  0
LINE
  5
3DF
330
20
100
AcDbEntity
  8
TEXT
 62
     2
100
AcDbLine
 10
626.4512580809142
 20
475.5936963840942
 30
0.0
 11
657.6294144991456
 21
432.1330975667448
 31
0.0
  0
LINE
  5
3E0
102
{ACAD_REACTORS
330
470
102
}
330
20
100
AcDbEntity
  8
STEMPEL
100
AcDbLine
 10
568.4415102595505
 20
474.0215536036314
 30
0.0
 11
568.4415102595505
 21
472.0215536036314
 31
0.0
  0
LINE
  5
3E1
102
{ACAD_REACTORS
330
4A6
102
}
330
20
100
AcDbEntity
  8
STEMPEL
100
AcDbLine
 10
653.4415102595505
 20
477.0215536036314
 30
0.0
 11
653.4415102595505
 21
474.0215536036314
 31
0.0
  0
LINE
  5
3E2
330
20
100
AcDbEntity
  8
BEM
 62
     1
100
AcDbLine
 10
388.7142637490137
 20
513.7496841092821
 30
0.0
 11
388.7142637490137
 21
520.7496841092821
 31
0.0
  0
LINE
  5
3E3
330
20
100
AcDbEntity
  8
BEM
 62
     1
100
AcDbLine
 10
395.7142637490138
 20
520.7496841092821
 30
0.0
 11
395.7142637490138
 21
513.7496841092821
 31
0.0
  0
LINE
  5
3E4
330
20
100
AcDbEntity
  8
BEM
 62
     1
100
AcDbLine
 10
395.7142637490138
 20
513.7496841092821
 30
0.0
 11
388.7142637490137
 21
513.7496841092821
 31
0.0
  0
LINE
  5
3E5
330
20
100
AcDbEntity
  8
BEM
 62
     1
100
AcDbLine
 10
388.7142637490137
 20
520.7496841092821
 30
0.0
 11
395.7142637490138
 21
520.7496841092821
 31
0.0
  0
LINE
  5
3E6
330
20
100
AcDbEntity
  8
HILF
 62
     7
100
AcDbLine
 10
459.9999999999998
 20
584.0
 30
0.0
 11
459.9999999999998
 21
593.9999999999998
 31
0.0
  0
LINE
  5
3E7
330
20
100
AcDbEntity
  8
STEMPEL
100
AcDbLine
 10
830.0
 20
110.0
 30
0.0
 11
830.0
 21
584.0
 31
0.0
  0
LINE
  5
3E8
330
20
100
AcDbEntity
  8
HILF
100
AcDbLine
 10
840.0
 20
-0.0000000000001137
 30
0.0
 11
839.9999999999998
 21
594.0
 31
0.0
  0
LINE
  5
3EA
330
20
100
AcDbEntity
  8
STEMPEL
100
AcDbLine
 10
830.0
 20
110.0
 30
0.0
 11
830.0
 21
10.0
 31
0.0
  0
TEXT
  5
3EB
330
20
100
AcDbEntity
  8
TEXT
100
AcDbText
 10
756.7238616296992
 20
73.1811823709997
 30
0.0
 40
5.0
  1
Ersatz für:
 41
0.8
  7
GREEKS
100
AcDbText
  0
TEXT
  5
3EC
330
20
100
AcDbEntity
  8
TEXT
100
AcDbText
 10
756.178754957634
 20
102.3132034537136
 30
0.0
 40
5.0
  1
Zeichnungs Nr.
 41
0.8
  7
GREEKS
100
AcDbText
  0
TEXT
  5
3ED
330
20
100
AcDbEntity
  8
TEXT
100
AcDbText
 10
757.2400861497006
 20
52.07416177878602
 30
0.0
 40
5.0
  1
ersetzt durch:
 41
0.8
  7
GREEKS
100
AcDbText
  0
LINE
  5
3EE
330
20
100
AcDbEntity
  8
VOLL
100
AcDbLine
 10
752.0
 20
60.0
 30
0.0
 11
830.0
 21
60.0
 31
0.0
  0
LINE
  5
3EF
330
20
100
AcDbEntity
  8
HILF
100
AcDbLine
 10
756.7238616296992
 20
83.77983636955827
 30
0.0
 11
824.8588839326728
 21
83.77983636955827
 31
0.0
  0
LINE
  5
3F0
330
20
100
AcDbEntity
  8
STEMPEL
100
AcDbLine
 10
752.0
 20
109.9999999999997
 30
0.0
 11
752.0
 21
40.0
 31
0.0
  0
TEXT
  5
3F1
330
20
100
AcDbEntity
  8
TEXT
 62
     1
100
AcDbText
 10
765.5860647469104
 20
88.14901428913959
 30
0.0
 40
7.0
  1
17204125W
 41
0.8
  7
GREEKS
 72
     1
 11
788.5193980802438
 21
88.14901428913959
 31
0.0
100
AcDbText
  0
TEXT
  5
3F2
330
20
100
AcDbEntity
  8
TEXT
100
AcDbText
 10
613.3837698129223
 20
88.49781547544106
 30
0.0
 40
4.0
  1
DIN EN1123-2
 41
0.8
  7
GREEKS
100
AcDbText
  0
TEXT
  5
3F5
330
20
100
AcDbEntity
  8
BEM
100
AcDbText
 10
836.5811541437437
 20
12.14804815338303
 30
0.0
 40
4.0
  1
Diese Zeichnung ist urheberrechtlich geschützt und bleibt unser Eigentum. Sie darf weder ganz noch teilweise vervielfältigt und nicht an Dritte weitergegeben werden.
 50
90.0
 41
0.8
  7
GREEKS
100
AcDbText
  0
TEXT
  5
3F6
330
20
100
AcDbEntity
  8
TEXT
 62
     1
100
AcDbText
 10
385.3771539276003
 20
291.0347452210006
 30
0.0
 40
7.0
  1
DN125
 50
90.0
 41
0.8
  7
GREEKS
100
AcDbText
  0
HATCH
  5
42C
330
20
100
AcDbEntity
  8
SCHRAFF
100
AcDbHatch
 10
0.0
 20
0.0
 30
0.0
210
0.0
220
0.0
230
1.0
  2
_USER
 70
     0
 71
     1
 91
        2
 92
        7
 72
     1
 73
     1
 93
        4
 10
483.0725669144675
 20
439.8290044210579
 42
-0.1270166537925823
 10
479.4415102595506
 20
438.1510808325763
 42
0.0
 10
481.215239354142
 20
437.227021798207
 42
0.0
 10
479.6147221574214
 20
434.1548328875113
 42
0.5335015749934651
 97
        4
330
3C0
330
3BE
330
3B3
330
3B2
 92
        7
 72
     1
 73
     1
 93
        4
 10
327.4415102595506
 20
438.1510808325763
 42
-0.1270166537925806
 10
323.8104536046336
 20
439.8290044210579
 42
0.5335015749934822
 10
327.2682983616797
 20
434.1548328875112
 42
0.0
 10
325.667781164959
 20
437.227021798207
 42
0.0
 97
        4
330
38F
330
382
330
384
330
39A
 75
     0
 76
     0
 52
0.0
 41
0.1
 77
     0
 78
     1
 53
0.0
 43
0.0
 44
0.0
 45
0.0
 46
0.1
 79
     0
 47
0.5884475770909675
 98
        2
 10
482.10653106265
 20
437.456467292884
 10
324.8961681503833
 20
437.456467292884
  0
HATCH
  5
448
330
20
100
AcDbEntity
  8
SCHRAFF
100
AcDbHatch
 10
0.0
 20
0.0
 30
0.0
210
0.0
220
0.0
230
1.0
  2
_USER
 70
     0
 71
     1
 91
        2
 92
        7
 72
     1
 73
     1
 93
       10
 10
469.9415102595505
 20
412.3485592873717
 42
-0.1189414107772456
 10
471.8862907608321
 20
419.320127404608
 42
0.0
 10
481.215239354142
 20
437.2270217982069
 42
0.0
 10
479.4415102595506
 20
438.1510808325762
 42
0.0
 10
470.1125616662384
 20
420.2441864389731
 42
0.1191462366923624
 10
467.9415102595505
 20
412.3485592873715
 42
0.0
 10
467.9415102595505
 20
219.1088754894485
 42
0.0
 10
466.621540631575
 20
204.0215536036316
 42
0.0
 10
468.6291803066618
 20
204.0215536036316
 42
0.0
 10
469.9415102595506
 20
219.0215536036318
 42
0.0
 97
       10
330
3B6
330
3B3
330
3BE
330
3B4
330
3B5
330
338
330
369
330
362
330
36A
330
337
 92
        7
 72
     1
 73
     1
 93
       10
 10
338.9415102595506
 20
412.3485592873717
 42
0.1191462366923786
 10
336.7704588528621
 20
420.2441864389743
 42
0.0
 10
327.4415102595505
 20
438.1510808325762
 42
0.0
 10
325.667781164959
 20
437.2270217982069
 42
0.0
 10
334.9967297582712
 20
419.3201274046038
 42
-0.1189414107771839
 10
336.9415102595506
 20
412.3485592873707
 42
0.0
 10
336.9415102595506
 20
219.0215536036317
 42
0.0
 10
338.2538402124392
 20
204.0215536036314
 42
0.0
 10
340.261479887526
 20
204.0215536036314
 42
0.0
 10
338.9415102595506
 20
219.1088754894491
 42
0.0
 97
       10
330
386
330
383
330
39A
330
384
330
385
330
339
330
366
330
362
330
365
330
33A
 75
     0
 76
     0
 52
45.0
 41
2.0
 77
     0
 78
     1
 53
45.0
 43
0.0
 44
0.0
 45
-1.414213562373094
 46
1.414213562373095
 79
     0
 47
0.5884475770909675
 98
        2
 10
468.5640652336692
 20
370.3734435118888
 10
338.4386339793646
 20
376.8463669483906
  0
HATCH
  5
470
330
20
100
AcDbEntity
  8
SCHRAFF
100
AcDbHatch
 10
0.0
 20
0.0
 30
0.0
210
0.0
220
0.0
230
1.0
  2
_USER
 70
     0
 71
     1
 91
        2
 92
        7
 72
     1
 73
     1
 93
       16
 10
568.4415102595504
 20
472.0215536036314
 42
0.0
 10
568.4415102595506
 20
474.0215536036314
 42
0.0
 10
494.3203970844202
 20
474.0215536036314
 42
0.4663076581549971
 10
488.9039544428531
 20
467.5664886264634
 42
0.0
 10
490.4415102595505
 20
458.8465762765797
 42
0.0
 10
490.4415102595505
 20
455.5574519884938
 42
0.0
 10
483.2039059525165
 20
443.0215536036316
 42
-0.2679491924311195
 10
478.0077535298099
 20
440.0215536036315
 42
0.0
 10
473.9415102595505
 20
440.0215536036315
 42
0.0
 10
473.9415102595505
 20
438.0215536036315
 42
0.0
 10
478.0077535298098
 20
438.0215536036316
 42
0.2679491924311248
 10
484.9359567600854
 20
442.0215536036316
 42
0.0
 10
492.4415102595505
 20
455.0215536036315
 42
0.0
 10
492.4415102595506
 20
459.0215536036322
 42
0.0
 10
490.8735699488775
 20
467.9137849817973
 42
-0.4663076581549979
 10
494.3203970844202
 20
472.0215536036315
 42
0.0
 97
       16
330
3B1
330
3D7
330
3B7
330
3CE
330
3C9
330
3BF
330
380
330
3C5
330
381
330
3C0
330
3CA
330
3CF
330
3B8
330
3D8
330
3AF
330
3E0
 92
        7
 72
     1
 73
     1
 93
       16
 10
312.5626234346808
 20
472.0215536036315
 42
-0.4663076581549925
 10
316.0094505702235
 20
467.9137849817973
 42
0.0
 10
314.4415102595505
 20
459.0215536036313
 42
0.0
 10
314.4415102595506
 20
455.0215536036313
 42
0.0
 10
321.9470637590156
 20
442.0215536036316
 42
0.2679491924311244
 10
328.8752669892911
 20
438.0215536036314
 42
0.0
 10
332.9415102595506
 20
438.0215536036313
 42
0.0
 10
332.9415102595506
 20
440.0215536036314
 42
0.0
 10
328.8752669892911
 20
440.0215536036314
 42
-0.2679491924311273
 10
323.6791145665845
 20
443.0215536036316
 42
0.0
 10
316.4415102595506
 20
455.5574519884936
 42
0.0
 10
316.4415102595506
 20
458.8465762765799
 42
0.0
 10
317.979066076248
 20
467.5664886264634
 42
0.4663076581549969
 10
312.5626234346808
 20
474.0215536036314
 42
0.0
 10
238.4415102595506
 20
474.0215536036314
 42
0.0
 10
238.4415102595506
 20
472.0215536036314
 42
0.0
 97
       16
330
36C
330
375
330
36B
330
3A2
330
38C
330
395
330
392
330
38F
330
381
330
399
330
380
330
38E
330
391
330
394
330
38B
330
3A1
 75
     0
 76
     0
 52
135.0
 41
2.0
 77
     0
 78
     1
 53
135.0
 43
0.0
 44
0.0
 45
-1.414213562373095
 46
-1.414213562373094
 79
     0
 47
0.5884475770909675
 98
        2
 10
553.9404784752227
 20
472.7633216085883
 10
276.6143351248152
 20
472.7633216085883
  0
HATCH
  5
480
330
20
100
AcDbEntity
  8
SCHRAFF
100
AcDbHatch
 10
0.0
 20
0.0
 30
0.0
210
0.0
220
0.0
230
1.0
  2
_USER
 70
     0
 71
     1
 91
        2
 92
        7
 72
     0
 73
     1
 93
        4
 10
478.4415102595507
 20
472.2674646148852
 10
476.4415102595507
 20
472.2674646148852
 10
476.4415102595505
 20
449.2674646148851
 10
478.4415102595505
 20
449.2674646148851
 97
        4
330
3D6
330
3BB
330
3C8
330
3BA
 92
        7
 72
     0
 73
     1
 93
        4
 10
330.4415102595506
 20
472.2674646148852
 10
328.4415102595507
 20
472.2674646148851
 10
328.4415102595508
 20
449.2674646148851
 10
330.4415102595508
 20
449.2674646148851
 97
        4
330
3AD
330
388
330
39F
330
387
 75
     0
 76
     0
 52
45.0
 41
2.0
 77
     0
 78
     1
 53
45.0
 43
0.0
 44
0.0
 45
-1.414213562373094
 46
1.414213562373095
 79
     0
 47
0.5884475770909675
 98
        2
 10
477.9849105368429
 20
455.6983421679538
 10
329.6065919310404
 20
455.6983421679538
  0
HATCH
  5
4A6
330
20
100
AcDbEntity
  8
SCHRAFF
100
AcDbHatch
 10
0.0
 20
0.0
 30
0.0
210
0.0
220
0.0
230
1.0
  2
NET
 70
     0
 71
     1
 91
        2
 92
        7
 72
     1
 73
     1
 93
       15
 10
312.5626234346807
 20
477.0215536036314
 42
0.0
 10
153.4415102595506
 20
477.0215536036314
 42
0.0
 10
153.4415102595505
 20
474.0215536036314
 42
0.0
 10
312.5626234346808
 20
474.0215536036314
 42
-0.4663076581549969
 10
317.979066076248
 20
467.5664886264634
 42
0.0
 10
316.4415102595505
 20
458.84657627658
 42
0.0
 10
316.4415102595506
 20
455.5574519884938
 42
0.0
 10
323.6791145665845
 20
443.0215536036316
 42
0.0980750678644038
 10
325.2148520009217
 20
441.2674646148851
 42
0.0
 10
333.4415102595506
 20
441.2674646148851
 42
0.0
 10
333.4415102595506
 20
444.2674646148851
 42
0.0
 10
326.4238891239886
 20
444.2674646148851
 42
0.0
 10
319.4415102595506
 20
456.3612995657873
 42
0.0
 10
319.4415102595505
 20
458.5841102860018
 42
0.0
 10
320.9334893352846
 20
467.0455440934627
 42
0.4663076581549938
 97
       15
330
36E
330
373
330
36C
330
3A1
330
38B
330
394
330
391
330
38E
330
37E
330
398
330
37B
330
390
330
393
330
38A
330
3A3
 92
        7
 72
     1
 73
     1
 93
       15
 10
653.4415102595505
 20
477.0215536036314
 42
0.0
 10
494.3203970844202
 20
477.0215536036314
 42
0.4663076581550034
 10
485.9495311838164
 20
467.0455440934624
 42
0.0
 10
487.4415102595506
 20
458.5841102860014
 42
0.0
 10
487.4415102595505
 20
456.3612995657873
 42
0.0
 10
480.4591313951124
 20
444.2674646148851
 42
0.0
 10
473.4415102595506
 20
444.2674646148851
 42
0.0
 10
473.4415102595505
 20
441.267464614885
 42
0.0
 10
481.6681685181793
 20
441.2674646148851
 42
0.0980750678644006
 10
483.2039059525165
 20
443.0215536036316
 42
0.0
 10
490.4415102595505
 20
455.5574519884938
 42
0.0
 10
490.4415102595505
 20
458.8465762765797
 42
0.0
 10
488.9039544428531
 20
467.5664886264634
 42
-0.4663076581549939
 10
494.3203970844201
 20
474.0215536036314
 42
0.0
 10
653.4415102595504
 20
474.0215536036314
 42
0.0
 97
       15
330
36E
330
3D9
330
3B9
330
3D0
330
3C1
330
37B
330
3C7
330
37E
330
3BF
330
3C9
330
3CE
330
3B7
330
3D7
330
3B1
330
3E1
 75
     0
 76
     1
 52
45.0
 41
10.0
 77
     0
 78
     2
 53
45.0
 43
0.0
 44
0.0
 45
-0.8838834764831842
 46
0.8838834764831844
 79
     0
 53
135.0
 43
0.0
 44
0.0
 45
-0.8838834764831844
 46
-0.8838834764831842
 79
     0
 47
0.5884475770909675
 98
        2
 10
294.8672224763131
 20
475.7055601946767
 10
518.6123080237861
 20
475.7055601946767
  0
HATCH
  5
4E0
330
20
100
AcDbEntity
  8
SCHRAFF
100
AcDbHatch
 10
0.0
 20
0.0
 30
0.0
210
0.0
220
0.0
230
1.0
  2
NET
 70
     0
 71
     1
 91
        4
 92
        7
 72
     1
 73
     1
 93
       21
 10
487.4415102595504
 20
456.3612995657872
 42
0.0
 10
487.4415102595506
 20
458.5841102860016
 42
0.0
 10
487.2447717201433
 20
459.6998699877604
 42
0.0
 10
487.0746011921173
 20
460.075669054853
 42
0.5081320132659802
 10
483.120869789209
 20
460.8991059447435
 42
-0.4919185491805621
 10
481.5619947580298
 20
461.181794831577
 42
-0.0977633374688829
 10
481.3462834616943
 20
461.925859592247
 42
0.0
 10
480.4262599806476
 20
472.4417761003804
 42
0.3888787318529898
 10
478.4338705844641
 20
474.2674646148851
 42
0.0
 10
476.4490592428448
 20
474.2674646148851
 42
0.3888787318529901
 10
474.4566698466614
 20
472.4417761003804
 42
0.0
 10
473.7407811218879
 20
464.2591305332636
 42
0.3872706394239078
 10
471.0747986270072
 20
462.2015850590525
 42
0.0
 10
468.7329265032205
 20
448.9201682595513
 42
-0.36397023426621
 10
466.763310997196
 20
447.2674646148852
 42
0.0
 10
465.9415102595507
 20
447.2674646148852
 42
0.0
 10
465.9415102595506
 20
445.2674646148851
 42
0.0
 10
473.4415102595508
 20
445.2674646148852
 42
0.0
 10
475.1735610671195
 20
444.2674646148851
 42
0.0
 10
480.4415102595493
 20
444.2674646148851
 42
0.0252320798374752
 10
480.6058297411632
 20
444.5215536036315
 42
0.0
 97
       21
330
3D0
330
3B9
330
3DA
330
3DE
330
3DD
330
3DB
330
3D2
330
3D1
330
37A
330
3D5
330
3D3
330
3D4
330
3BC
330
3C2
330
37D
330
3C3
330
37C
330
3C6
330
37B
330
3C4
330
3C1
 92
       22
 72
     0
 73
     1
 93
        4
 10
476.4415102595506
 20
472.2674646148852
 10
478.4415102595507
 20
472.2674646148852
 10
478.4415102595505
 20
449.2674646148851
 10
476.4415102595505
 20
449.2674646148851
 97
        4
330
3D6
330
3BA
330
3C8
330
3BB
 92
        7
 72
     1
 73
     1
 93
       21
 10
335.8082218920941
 20
462.2015850590525
 42
0.3872706394237238
 10
333.1422393972135
 20
464.2591305332619
 42
0.0
 10
332.42635067244
 20
472.4417761003804
 42
0.3888787318529901
 10
330.4339612762565
 20
474.2674646148851
 42
0.0
 10
328.4491499346373
 20
474.2674646148851
 42
0.3888787318529898
 10
326.4567605384538
 20
472.4417761003804
 42
0.0
 10
325.536737057407
 20
461.925859592247
 42
-0.0977633374688549
 10
325.3210257610716
 20
461.1817948315772
 42
-0.4919185491805904
 10
323.7621507298923
 20
460.8991059447437
 42
0.508132013265999
 10
319.8084193269839
 20
460.0756690548531
 42
0.0
 10
319.6382487989577
 20
459.6998699877602
 42
0.0
 10
319.4415102595505
 20
458.5841102860019
 42
0.0
 10
319.4415102595506
 20
456.3612995657869
 42
0.0
 10
326.2771907779379
 20
444.5215536036315
 42
0.0252320798374106
 10
326.4415102595503
 20
444.2674646148851
 42
0.0
 10
331.7094594519818
 20
444.2674646148851
 42
0.0
 10
333.4415102595506
 20
445.2674646148851
 42
0.0
 10
340.9415102595508
 20
445.2674646148851
 42
0.0
 10
340.9415102595506
 20
447.2674646148852
 42
0.0
 10
340.1197095219053
 20
447.2674646148852
 42
-0.3639702342662032
 10
338.1500940158809
 20
448.9201682595512
 42
0.0
 97
       21
330
3AA
330
3A9
330
3AB
330
37A
330
3AC
330
3A0
330
3A4
330
3A5
330
3A8
330
3A7
330
38A
330
393
330
390
330
39C
330
37B
330
397
330
37C
330
39E
330
37D
330
396
330
389
 92
       22
 72
     0
 73
     1
 93
        4
 10
330.4415102595509
 20
449.2674646148852
 10
328.4415102595508
 20
449.2674646148852
 10
328.4415102595507
 20
472.2674646148852
 10
330.4415102595507
 20
472.2674646148852
 97
        4
330
39F
330
388
330
3AD
330
387
 75
     0
 76
     1
 52
45.0
 41
20.0
 77
     0
 78
     2
 53
45.0
 43
0.0
 44
0.0
 45
-1.767766952966368
 46
1.767766952966368
 79
     0
 53
135.0
 43
0.0
 44
0.0
 45
-1.767766952966368
 46
-1.767766952966368
 79
     0
 47
0.5884475770909675
 98
        4
 10
472.6856857594762
 20
450.9907618831053
 10
472.6856857594762
 20
450.9907618831053
 10
333.7282124568474
 20
450.9907618831053
 10
333.7282124568474
 20
450.9907618831053
  0
ENDSEC
  0
SECTION
  2
OBJECTS
  0
DICTIONARY
  5
C
330
0
100
AcDbDictionary
281
     1
  3
ACAD_COLOR
350
1B
  3
ACAD_GROUP
350
D
  3
ACAD_LAYOUT
350
19
  3
ACAD_MATERIAL
350
1A
  3
ACAD_MLINESTYLE
350
16
  3
ACAD_PLOTSETTINGS
350
18
  3
ACAD_PLOTSTYLENAME
350
E
  3
AcDbVariableDictionary
350
417
  0
DICTIONARY
  5
1B
102
{ACAD_REACTORS
330
C
102
}
330
C
100
AcDbDictionary
281
     1
  0
DICTIONARY
  5
D
102
{ACAD_REACTORS
330
C
102
}
330
C
100
AcDbDictionary
281
     1
  0
DICTIONARY
  5
19
102
{ACAD_REACTORS
330
C
102
}
330
C
100
AcDbDictionary
281
     1
  3
Layout1
350
1F
  3
Model
350
23
  0
DICTIONARY
  5
1A
102
{ACAD_REACTORS
330
C
102
}
330
C
100
AcDbDictionary
281
     1
  0
DICTIONARY
  5
16
102
{ACAD_REACTORS
330
C
102
}
330
C
100
AcDbDictionary
281
     1
  3
Standard
350
17
  0
DICTIONARY
  5
18
102
{ACAD_REACTORS
330
C
102
}
330
C
100
AcDbDictionary
281
     1
  0
ACDBDICTIONARYWDFLT
  5
E
102
{ACAD_REACTORS
330
C
102
}
330
C
100
AcDbDictionary
281
     1
  3
Normal
350
F
100
AcDbDictionaryWithDefault
340
F
  0
DICTIONARY
  5
417
102
{ACAD_REACTORS
330
C
102
}
330
C
100
AcDbDictionary
281
     1
  3
DIMASSOC
350
419
  3
HIDETEXT
350
418
  3
PROJECTNAME
350
41A
  0
LAYOUT
  5
1F
102
{ACAD_REACTORS
330
19
102
}
330
19
100
AcDbPlotSettings
  1

  2
RICOH Aficio 2027 PCL 6
  4

  6

 40
0.0
 41
0.0
 42
0.0
 43
0.0
 44
0.0
 45
0.0
 46
0.0
 47
0.0
 48
0.0
 49
0.0
140
0.0
141
0.0
142
1.0
143
1.0
 70
   688
 72
     0
 73
     0
 74
     5
  7
monochrome1.ctb
 75
    16
147
1.0
 76
     0
 77
     2
 78
   300
148
0.0
149
0.0
100
AcDbLayout
  1
Layout1
 70
     0
 71
     1
 10
0.0
 20
0.0
 11
12.0
 21
9.0
 12
0.0
 22
0.0
 32
0.0
 14
1.000000000000000E+20
 24
1.000000000000000E+20
 34
1.000000000000000E+20
 15
-1.000000000000000E+20
 25
-1.000000000000000E+20
 35
-1.000000000000000E+20
146
0.0
 13
0.0
 23
0.0
 33
0.0
 16
1.0
 26
0.0
 36
0.0
 17
0.0
 27
1.0
 37
0.0
 76
     0
330
1C
  0
LAYOUT
  5
23
102
{ACAD_REACTORS
330
19
102
}
330
19
100
AcDbPlotSettings
  1

  2
RICOH Aficio 2027 PCL 6
  4
A4
  6

 40
5.027083396911621
 41
5.027085304260253
 42
5.027084350585937
 43
5.027069091796875
 44
209.9733276367187
 45
296.9259948730469
 46
0.0
 47
0.0
 48
0.0
 49
0.0
140
0.0
141
0.0
142
1.0
143
1.0
 70
 11952
 72
     0
 73
     1
 74
     0
  7
monochrome1.ctb
 75
     0
147
1.0
 76
     0
 77
     2
 78
   300
148
-3033.569169194215
149
90.63084535397159
100
AcDbLayout
  1
Model
 70
     1
 71
     0
 10
0.0
 20
0.0
 11
12.0
 21
9.0
 12
0.0
 22
0.0
 32
0.0
 14
0.0
 24
0.0
 34
0.0
 15
0.0
 25
0.0
 35
0.0
146
0.0
 13
0.0
 23
0.0
 33
0.0
 16
1.0
 26
0.0
 36
0.0
 17
0.0
 27
1.0
 37
0.0
 76
     0
330
20
  0
MLINESTYLE
  5
17
102
{ACAD_REACTORS
330
16
102
}
330
16
100
AcDbMlineStyle
  2
STANDARD
 70
     0
  3

 62
   256
 51
90.0
 52
90.0
 71
     2
 49
0.5
 62
   256
  6
BYLAYER
 49
-0.5
 62
   256
  6
BYLAYER
  0
ACDBPLACEHOLDER
  5
F
102
{ACAD_REACTORS
330
E
102
}
330
E
  0
DICTIONARYVAR
  5
419
102
{ACAD_REACTORS
330
417
102
}
330
417
100
DictionaryVariables
280
     0
  1
2
  0
DICTIONARYVAR
  5
418
102
{ACAD_REACTORS
330
417
102
}
330
417
100
DictionaryVariables
280
     0
  1
1
  0
DICTIONARYVAR
  5
41A
102
{ACAD_REACTORS
330
417
102
}
330
417
100
DictionaryVariables
280
     0
  1

  0
ENDSEC
  0
EOF
