  0
SECTION
  2
HEADER
  9
$ACADVER
  1
AC1018
  9
$ACADMAINTVER
 70
     2
  9
$DWGCODEPAGE
  3
ANSI_1252
  9
$INSBASE
 10
0.0
 20
0.0
 30
0.0
  9
$EXTMIN
 10
-0.0640771341752498
 20
-0.0453116877386037
 30
-0.000000000000013
  9
$EXTMAX
 10
840.0000039120326
 20
594.0000027663659
 30
0.0000000000000023
  9
$LIMMIN
 10
0.0
 20
0.0
  9
$LIMMAX
 10
839.9999999999998
 20
594.0000000000002
  9
$ORTHOMODE
 70
     1
  9
$REGENMODE
 70
     1
  9
$FILLMODE
 70
     1
  9
$QTEXTMODE
 70
     0
  9
$MIRRTEXT
 70
     1
  9
$LTSCALE
 40
20.0
  9
$ATTMODE
 70
     1
  9
$TEXTSIZE
 40
3.5
  9
$TRACEWID
 40
0.5
  9
$TEXTSTYLE
  7
STANDARD
  9
$CLAYER
  8
SCHRAFF
  9
$CELTYPE
  6
ByLayer
  9
$CECOLOR
 62
   256
  9
$CELTSCALE
 40
1.0
  9
$DISPSILH
 70
     0
  9
$DIMSCALE
 40
2.0
  9
$DIMASZ
 40
3.5
  9
$DIMEXO
 40
1.0
  9
$DIMDLI
 40
7.0
  9
$DIMRND
 40
0.0
  9
$DIMDLE
 40
0.0
  9
$DIMEXE
 40
1.0
  9
$DIMTP
 40
0.0
  9
$DIMTM
 40
0.0
  9
$DIMTXT
 40
3.5
  9
$DIMCEN
 40
1.5
  9
$DIMTSZ
 40
0.0
  9
$DIMTOL
 70
     0
  9
$DIMLIM
 70
     0
  9
$DIMTIH
 70
     0
  9
$DIMTOH
 70
     0
  9
$DIMSE1
 70
     0
  9
$DIMSE2
 70
     0
  9
$DIMTAD
 70
     1
  9
$DIMZIN
 70
     8
  9
$DIMBLK
  1

  9
$DIMASO
 70
     1
  9
$DIMSHO
 70
     0
  9
$DIMPOST
  1

  9
$DIMAPOST
  1

  9
$DIMALT
 70
     0
  9
$DIMALTD
 70
     2
  9
$DIMALTF
 40
25.4
  9
$DIMLFAC
 40
1.0
  9
$DIMTOFL
 70
     1
  9
$DIMTVP
 40
0.0
  9
$DIMTIX
 70
     0
  9
$DIMSOXD
 70
     0
  9
$DIMSAH
 70
     0
  9
$DIMBLK1
  1

  9
$DIMBLK2
  1

  9
$DIMSTYLE
  2
Standard
  9
$DIMCLRD
 70
     0
  9
$DIMCLRE
 70
     0
  9
$DIMCLRT
 70
     1
  9
$DIMTFAC
 40
0.5
  9
$DIMGAP
 40
1.5
  9
$DIMJUST
 70
     0
  9
$DIMSD1
 70
     0
  9
$DIMSD2
 70
     0
  9
$DIMTOLJ
 70
     1
  9
$DIMTZIN
 70
     8
  9
$DIMALTZ
 70
     8
  9
$DIMALTTZ
 70
     8
  9
$DIMUPT
 70
     0
  9
$DIMDEC
 70
     2
  9
$DIMTDEC
 70
     2
  9
$DIMALTU
 70
     2
  9
$DIMALTTD
 70
     2
  9
$DIMTXSTY
  7
STANDARD
  9
$DIMAUNIT
 70
     0
  9
$DIMADEC
 70
     2
  9
$DIMALTRND
 40
0.0
  9
$DIMAZIN
 70
     2
  9
$DIMDSEP
 70
    46
  9
$DIMATFIT
 70
     3
  9
$DIMFRAC
 70
     0
  9
$DIMLDRBLK
  1

  9
$DIMLUNIT
 70
     2
  9
$DIMLWD
 70
    -2
  9
$DIMLWE
 70
    -2
  9
$DIMTMOVE
 70
     0
  9
$LUNITS
 70
     2
  9
$LUPREC
 70
     2
  9
$SKETCHINC
 40
1.0
  9
$FILLETRAD
 40
0.0
  9
$AUNITS
 70
     0
  9
$AUPREC
 70
     0
  9
$MENU
  1
ACAD
  9
$ELEVATION
 40
0.0
  9
$PELEVATION
 40
0.0
  9
$THICKNESS
 40
0.0
  9
$LIMCHECK
 70
     0
  9
$CHAMFERA
 40
0.0
  9
$CHAMFERB
 40
0.0
  9
$CHAMFERC
 40
0.0
  9
$CHAMFERD
 40
0.0
  9
$SKPOLY
 70
     0
  9
$TDCREATE
 40
2451451.364686342
  9
$TDUCREATE
 40
2451451.281353009
  9
$TDUPDATE
 40
2455463.452871852
  9
$TDUUPDATE
 40
2455463.369538519
  9
$TDINDWG
 40
0.0130301620
  9
$TDUSRTIMER
 40
0.0130301620
  9
$USRTIMER
 70
     1
  9
$ANGBASE
 50
0.0
  9
$ANGDIR
 70
     0
  9
$PDMODE
 70
     0
  9
$PDSIZE
 40
0.0
  9
$PLINEWID
 40
0.0
  9
$SPLFRAME
 70
     0
  9
$SPLINETYPE
 70
     6
  9
$SPLINESEGS
 70
     8
  9
$HANDSEED
  5
640
  9
$SURFTAB1
 70
     6
  9
$SURFTAB2
 70
     6
  9
$SURFTYPE
 70
     6
  9
$SURFU
 70
     6
  9
$SURFV
 70
     6
  9
$UCSBASE
  2

  9
$UCSNAME
  2

  9
$UCSORG
 10
0.0
 20
0.0
 30
0.0
  9
$UCSXDIR
 10
1.0
 20
0.0
 30
0.0
  9
$UCSYDIR
 10
0.0
 20
1.0
 30
0.0
  9
$UCSORTHOREF
  2

  9
$UCSORTHOVIEW
 70
     0
  9
$UCSORGTOP
 10
0.0
 20
0.0
 30
0.0
  9
$UCSORGBOTTOM
 10
0.0
 20
0.0
 30
0.0
  9
$UCSORGLEFT
 10
0.0
 20
0.0
 30
0.0
  9
$UCSORGRIGHT
 10
0.0
 20
0.0
 30
0.0
  9
$UCSORGFRONT
 10
0.0
 20
0.0
 30
0.0
  9
$UCSORGBACK
 10
0.0
 20
0.0
 30
0.0
  9
$PUCSBASE
  2

  9
$PUCSNAME
  2

  9
$PUCSORG
 10
0.0
 20
0.0
 30
0.0
  9
$PUCSXDIR
 10
1.0
 20
0.0
 30
0.0
  9
$PUCSYDIR
 10
0.0
 20
1.0
 30
0.0
  9
$PUCSORTHOREF
  2

  9
$PUCSORTHOVIEW
 70
     0
  9
$PUCSORGTOP
 10
0.0
 20
0.0
 30
0.0
  9
$PUCSORGBOTTOM
 10
0.0
 20
0.0
 30
0.0
  9
$PUCSORGLEFT
 10
0.0
 20
0.0
 30
0.0
  9
$PUCSORGRIGHT
 10
0.0
 20
0.0
 30
0.0
  9
$PUCSORGFRONT
 10
0.0
 20
0.0
 30
0.0
  9
$PUCSORGBACK
 10
0.0
 20
0.0
 30
0.0
  9
$USERI1
 70
     0
  9
$USERI2
 70
     0
  9
$USERI3
 70
     0
  9
$USERI4
 70
     0
  9
$USERI5
 70
     0
  9
$USERR1
 40
0.0
  9
$USERR2
 40
0.0
  9
$USERR3
 40
0.0
  9
$USERR4
 40
0.0
  9
$USERR5
 40
0.0
  9
$WORLDVIEW
 70
     1
  9
$SHADEDGE
 70
     3
  9
$SHADEDIF
 70
    70
  9
$TILEMODE
 70
     1
  9
$MAXACTVP
 70
    16
  9
$PINSBASE
 10
0.0
 20
0.0
 30
0.0
  9
$PLIMCHECK
 70
     0
  9
$PEXTMIN
 10
1.000000000000000E+20
 20
1.000000000000000E+20
 30
1.000000000000000E+20
  9
$PEXTMAX
 10
-1.000000000000000E+20
 20
-1.000000000000000E+20
 30
-1.000000000000000E+20
  9
$PLIMMIN
 10
0.0
 20
0.0
  9
$PLIMMAX
 10
12.0
 20
9.0
  9
$UNITMODE
 70
     0
  9
$VISRETAIN
 70
     0
  9
$PLINEGEN
 70
     0
  9
$PSLTSCALE
 70
     0
  9
$TREEDEPTH
 70
  3020
  9
$CMLSTYLE
  2
Standard
  9
$CMLJUST
 70
     0
  9
$CMLSCALE
 40
1.0
  9
$PROXYGRAPHICS
 70
     1
  9
$MEASUREMENT
 70
     0
  9
$CELWEIGHT
370
    -1
  9
$ENDCAPS
280
     0
  9
$JOINSTYLE
280
     0
  9
$LWDISPLAY
290
     0
  9
$INSUNITS
 70
     0
  9
$HYPERLINKBASE
  1

  9
$STYLESHEET
  1
monochrome 1.ctb
  9
$XEDIT
290
     1
  9
$CEPSNTYPE
380
     0
  9
$PSTYLEMODE
290
     1
  9
$FINGERPRINTGUID
  2
{6E040961-5CB7-437E-83F4-00F269416DD1}
  9
$VERSIONGUID
  2
{D18A3553-6E6D-4A22-A52A-56139871B973}
  9
$EXTNAMES
290
     1
  9
$PSVPSCALE
 40
0.0
  9
$OLESTARTUP
290
     0
  9
$SORTENTS
280
   127
  9
$INDEXCTL
280
     0
  9
$HIDETEXT
280
     1
  9
$XCLIPFRAME
290
     0
  9
$HALOGAP
280
     0
  9
$OBSCOLOR
 70
   257
  9
$OBSLTYPE
280
     0
  9
$INTERSECTIONDISPLAY
280
     0
  9
$INTERSECTIONCOLOR
 70
   257
  9
$DIMASSOC
280
     2
  9
$PROJECTNAME
  1

  0
ENDSEC
  0
SECTION
  2
CLASSES
  0
CLASS
  1
ACDBDICTIONARYWDFLT
  2
AcDbDictionaryWithDefault
  3
ObjectDBX Classes
 90
        0
 91
        1
280
     0
281
     0
  0
CLASS
  1
DICTIONARYVAR
  2
AcDbDictionaryVar
  3
ObjectDBX Classes
 90
        0
 91
        3
280
     0
281
     0
  0
ENDSEC
  0
SECTION
  2
TABLES
  0
TABLE
  2
VPORT
  5
8
330
0
100
AcDbSymbolTable
 70
     2
  0
VPORT
  5
63F
330
8
100
AcDbSymbolTableRecord
100
AcDbViewportTableRecord
  2
*Active
 70
     0
 10
0.0
 20
0.0
 11
1.0
 21
1.0
 12
419.9679633889288
 22
296.9773455393137
 13
0.0
 23
0.0
 14
1.0
 24
1.0
 15
10.0
 25
10.0
 16
0.0
 26
0.0
 36
1.0
 17
0.0
 27
0.0
 37
0.0
 40
632.1497986303288
 41
1.336927223719676
 42
50.0
 43
0.0
 44
0.0
 50
0.0
 51
0.0
 71
     0
 72
  1500
 73
     1
 74
     0
 75
     0
 76
     0
 77
     0
 78
     0
281
     0
 65
     1
110
0.0
120
0.0
130
0.0
111
1.0
121
0.0
131
0.0
112
0.0
122
1.0
132
0.0
 79
     0
146
0.0
  0
ENDTAB
  0
TABLE
  2
LTYPE
  5
5
330
0
100
AcDbSymbolTable
 70
     2
  0
LTYPE
  5
13
330
5
100
AcDbSymbolTableRecord
100
AcDbLinetypeTableRecord
  2
ByBlock
 70
     0
  3

 72
    65
 73
     0
 40
0.0
  0
LTYPE
  5
14
330
5
100
AcDbSymbolTableRecord
100
AcDbLinetypeTableRecord
  2
ByLayer
 70
     0
  3

 72
    65
 73
     0
 40
0.0
  0
LTYPE
  5
15
330
5
100
AcDbSymbolTableRecord
100
AcDbLinetypeTableRecord
  2
Continuous
 70
     0
  3
Solid line
 72
    65
 73
     0
 40
0.0
  0
LTYPE
  5
32
330
5
100
AcDbSymbolTableRecord
100
AcDbLinetypeTableRecord
  2
STRICHPUNKT
 70
     0
  3
__ . __ . __ . __ . __ . __ . __ . __ . __ . __
 72
    65
 73
     4
 40
1.0
 49
0.5
 74
     0
 49
-0.25
 74
     0
 49
0.0
 74
     0
 49
-0.25
 74
     0
  0
ENDTAB
  0
TABLE
  2
LAYER
  5
2
330
0
100
AcDbSymbolTable
 70
     9
  0
LAYER
  5
10
330
2
100
AcDbSymbolTableRecord
100
AcDbLayerTableRecord
  2
0
 70
     0
 62
     7
  6
Continuous
370
    -3
390
F
  0
LAYER
  5
35
330
2
100
AcDbSymbolTableRecord
100
AcDbLayerTableRecord
  2
VOLL
 70
     0
 62
     1
  6
Continuous
370
    -3
390
F
  0
LAYER
  5
36
330
2
100
AcDbSymbolTableRecord
100
AcDbLayerTableRecord
  2
HILF
 70
     0
 62
     2
  6
Continuous
370
    -3
390
F
  0
LAYER
  5
37
330
2
100
AcDbSymbolTableRecord
100
AcDbLayerTableRecord
  2
MITTEL
 70
     0
 62
     2
  6
STRICHPUNKT
370
    -3
390
F
  0
LAYER
  5
38
330
2
100
AcDbSymbolTableRecord
100
AcDbLayerTableRecord
  2
BEM
 70
     0
 62
     7
  6
Continuous
370
    -3
390
F
  0
LAYER
  5
39
330
2
100
AcDbSymbolTableRecord
100
AcDbLayerTableRecord
  2
STEMPEL
 70
     0
 62
     3
  6
Continuous
370
    -3
390
F
  0
LAYER
  5
3A
330
2
100
AcDbSymbolTableRecord
100
AcDbLayerTableRecord
  2
TEXT
 70
     0
 62
     7
  6
Continuous
370
    -3
390
F
  0
LAYER
  5
3B
330
2
100
AcDbSymbolTableRecord
100
AcDbLayerTableRecord
  2
DEFPOINTS
 70
     0
 62
     7
  6
Continuous
290
     0
370
    -3
390
F
  0
LAYER
  5
3C
330
2
100
AcDbSymbolTableRecord
100
AcDbLayerTableRecord
  2
SCHRAFF
 70
     0
 62
     7
  6
Continuous
370
    -3
390
F
  0
ENDTAB
  0
TABLE
  2
STYLE
  5
3
330
0
100
AcDbSymbolTable
 70
     2
  0
STYLE
  5
11
330
3
100
AcDbSymbolTableRecord
100
AcDbTextStyleTableRecord
  2
STANDARD
 70
     0
 40
0.0
 41
0.8
 50
0.0
 71
     0
 42
3.5
  3
simplex.shx
  4

  0
STYLE
  5
31
330
3
100
AcDbSymbolTableRecord
100
AcDbTextStyleTableRecord
  2
GREEKS
 70
     0
 40
0.0
 41
0.8
 50
0.0
 71
     0
 42
2.5
  3
SIMPLEX.shx
  4

  0
ENDTAB
  0
TABLE
  2
VIEW
  5
6
330
0
100
AcDbSymbolTable
 70
     0
  0
ENDTAB
  0
TABLE
  2
UCS
  5
7
330
0
100
AcDbSymbolTable
 70
     0
  0
ENDTAB
  0
TABLE
  2
APPID
  5
9
330
0
100
AcDbSymbolTable
 70
     1
  0
APPID
  5
12
330
9
100
AcDbSymbolTableRecord
100
AcDbRegAppTableRecord
  2
ACAD
 70
     0
  0
ENDTAB
  0
TABLE
  2
DIMSTYLE
  5
A
330
0
100
AcDbSymbolTable
 70
     1
100
AcDbDimStyleTable
 71
     1
340
50C
  0
DIMSTYLE
105
50C
102
{ACAD_REACTORS
330
485
330
44D
330
47B
330
453
102
}
330
A
100
AcDbSymbolTableRecord
100
AcDbDimStyleTableRecord
  2
Standard
 70
     0
340
11
  0
ENDTAB
  0
TABLE
  2
BLOCK_RECORD
  5
1
330
0
100
AcDbSymbolTable
 70
     5
  0
BLOCK_RECORD
  5
20
330
1
100
AcDbSymbolTableRecord
100
AcDbBlockTableRecord
  2
*Model_Space
340
23
  0
BLOCK_RECORD
  5
1C
330
1
100
AcDbSymbolTableRecord
100
AcDbBlockTableRecord
  2
*Paper_Space
340
1F
  0
BLOCK_RECORD
  5
24
330
1
100
AcDbSymbolTableRecord
100
AcDbBlockTableRecord
  2
LOGO
340
0
102
{BLKREFS
331
45A
102
}
  0
BLOCK_RECORD
  5
50E
330
1
100
AcDbSymbolTableRecord
100
AcDbBlockTableRecord
  2
*D1
340
0
  0
BLOCK_RECORD
  5
51A
330
1
100
AcDbSymbolTableRecord
100
AcDbBlockTableRecord
  2
*D2
340
0
  0
BLOCK_RECORD
  5
526
330
1
100
AcDbSymbolTableRecord
100
AcDbBlockTableRecord
  2
*D3
340
0
  0
BLOCK_RECORD
  5
532
330
1
100
AcDbSymbolTableRecord
100
AcDbBlockTableRecord
  2
*D4
340
0
  0
ENDTAB
  0
ENDSEC
  0
SECTION
  2
BLOCKS
  0
BLOCK
  5
40
330
20
100
AcDbEntity
  8
0
100
AcDbBlockBegin
  2
*Model_Space
 70
     0
 10
0.0
 20
0.0
 30
0.0
  3
*Model_Space
  1

  0
ENDBLK
  5
41
330
20
100
AcDbEntity
  8
0
100
AcDbBlockEnd
  0
BLOCK
  5
3E
330
1C
100
AcDbEntity
 67
     1
  8
0
100
AcDbBlockBegin
  2
*Paper_Space
 70
     0
 10
0.0
 20
0.0
 30
0.0
  3
*Paper_Space
  1

  0
ENDBLK
  5
3F
330
1C
100
AcDbEntity
 67
     1
  8
0
100
AcDbBlockEnd
  0
BLOCK
  5
42
330
24
100
AcDbEntity
  8
0
100
AcDbBlockBegin
  2
LOGO
 70
     0
 10
0.0
 20
0.0
 30
0.0
  3
LOGO
  1

  0
ARC
  5
43
330
24
100
AcDbEntity
  8
0
100
AcDbCircle
 10
11.59973089678112
 20
-9.271599258481501
 30
0.0
 40
4.5
100
AcDbArc
 50
270.0
 51
231.0575587310159
  0
LINE
  5
44
330
24
100
AcDbEntity
  8
0
100
AcDbLine
 10
3.599730896781125
 20
-4.771599258481529
 30
0.0
 11
3.599730896781153
 21
-11.77159925848133
 31
0.0
  0
LINE
  5
45
330
24
100
AcDbEntity
  8
0
100
AcDbLine
 10
2.599730896781125
 20
-4.771599258481529
 30
0.0
 11
2.599730896781153
 21
-11.77159925848133
 31
0.0
  0
CIRCLE
  5
46
330
24
100
AcDbEntity
  8
0
100
AcDbCircle
 10
11.59973089678112
 20
-9.271599258481501
 30
0.0
 40
3.5
  0
ARC
  5
47
330
24
100
AcDbEntity
  8
0
100
AcDbCircle
 10
31.59973089678115
 20
-9.271599258481472
 30
0.0
 40
4.5
100
AcDbArc
 50
270.0
 51
231.0575587310182
  0
LINE
  5
48
330
24
100
AcDbEntity
  8
0
100
AcDbLine
 10
17.59973089678112
 20
-4.771599258481472
 30
0.0
 11
17.59973089678115
 21
-13.77159925848147
 31
0.0
  0
ARC
  5
49
330
24
100
AcDbEntity
  8
0
100
AcDbCircle
 10
22.59973089678116
 20
-7.271599258481472
 30
0.0
 40
2.5
100
AcDbArc
 50
293.1161887722295
 51
90.0
  0
CIRCLE
  5
4A
330
24
100
AcDbEntity
  8
0
100
AcDbCircle
 10
31.59973089678115
 20
-9.271599258481472
 30
0.0
 40
3.5
  0
ARC
  5
4B
330
24
100
AcDbEntity
  8
0
100
AcDbCircle
 10
4.599730896781153
 20
-11.77159925848133
 30
0.0
 40
1.0
100
AcDbArc
 50
180.0
 51
270.0
  0
ARC
  5
4C
330
24
100
AcDbEntity
  8
0
100
AcDbCircle
 10
4.599730896781153
 20
-11.77159925848133
 30
0.0
 40
2.0
100
AcDbArc
 50
179.9999999999992
 51
270.0
  0
LINE
  5
4D
330
24
100
AcDbEntity
  8
0
100
AcDbLine
 10
11.59973089678115
 20
-13.77159925848144
 30
0.0
 11
4.599730896781153
 21
-13.77159925848147
 31
0.0
  0
LINE
  5
4E
330
24
100
AcDbEntity
  8
0
100
AcDbLine
 10
8.771303772034769
 20
-12.77159925848136
 30
0.0
 11
4.599730896781153
 21
-12.77159925848133
 31
0.0
  0
LINE
  5
4F
330
24
100
AcDbEntity
  8
0
100
AcDbLine
 10
31.59973089678115
 20
-13.77159925848147
 30
0.0
 11
23.6715276665056
 21
-13.77159925848144
 31
0.0
  0
LINE
  5
50
330
24
100
AcDbEntity
  8
0
100
AcDbLine
 10
23.56565672307022
 20
-9.51278021337896
 30
0.0
 11
24.4388546544846
 21
-12.77159925848144
 31
0.0
  0
LINE
  5
51
330
24
100
AcDbEntity
  8
0
100
AcDbLine
 10
22.59973089678116
 20
-9.771599258481472
 30
0.0
 11
18.59973089678112
 21
-9.771599258481472
 31
0.0
  0
LINE
  5
52
330
24
100
AcDbEntity
  8
0
100
AcDbLine
 10
18.59973089678115
 20
-13.77159925848144
 30
0.0
 11
17.59973089678115
 21
-13.77159925848144
 31
0.0
  0
LINE
  5
53
330
24
100
AcDbEntity
  8
0
100
AcDbLine
 10
18.59973089678115
 20
-9.771599258481472
 30
0.0
 11
18.59973089678115
 21
-13.77159925848144
 31
0.0
  0
LINE
  5
54
330
24
100
AcDbEntity
  8
0
100
AcDbLine
 10
22.59973089678116
 20
-9.771599258481472
 30
0.0
 11
23.67152766650562
 21
-13.77159925848147
 31
0.0
  0
ARC
  5
55
330
24
100
AcDbEntity
  8
0
100
AcDbCircle
 10
22.59973089678116
 20
-7.271599258481472
 30
0.0
 40
2.5
100
AcDbArc
 50
270.0
 51
270.0000000000007
  0
LINE
  5
56
330
24
100
AcDbEntity
  8
0
100
AcDbLine
 10
28.77130377203494
 20
-12.77159925848147
 30
0.0
 11
24.43885465448463
 21
-12.77159925848144
 31
0.0
  0
LINE
  5
57
330
24
100
AcDbEntity
  8
0
100
AcDbLine
 10
3.599730896781125
 20
-4.771599258481472
 30
0.0
 11
2.599730896781125
 21
-4.771599258481472
 31
0.0
  0
LINE
  5
58
330
24
100
AcDbEntity
  8
0
100
AcDbLine
 10
22.59973089678116
 20
-8.771599258481472
 30
0.0
 11
18.59973089678115
 21
-8.771599258481472
 31
0.0
  0
LINE
  5
59
330
24
100
AcDbEntity
  8
0
100
AcDbLine
 10
22.59973089678116
 20
-5.771599258481472
 30
0.0
 11
18.59973089678115
 21
-5.771599258481472
 31
0.0
  0
LINE
  5
5A
330
24
100
AcDbEntity
  8
0
100
AcDbLine
 10
22.59973089678116
 20
-4.771599258481472
 30
0.0
 11
17.59973089678115
 21
-4.771599258481472
 31
0.0
  0
LINE
  5
5B
330
24
100
AcDbEntity
  8
0
100
AcDbLine
 10
18.59973089678115
 20
-5.771599258481472
 30
0.0
 11
18.59973089678115
 21
-8.771599258481472
 31
0.0
  0
ARC
  5
5C
330
24
100
AcDbEntity
  8
0
100
AcDbCircle
 10
22.59973089678116
 20
-7.271599258481472
 30
0.0
 40
1.5
100
AcDbArc
 50
270.0
 51
90.0
  0
ENDBLK
  5
5D
330
24
100
AcDbEntity
  8
0
100
AcDbBlockEnd
  0
BLOCK
  5
518
330
50E
100
AcDbEntity
  8
0
100
AcDbBlockBegin
  2
*D1
 70
     1
 10
0.0
 20
0.0
 30
0.0
  3
*D1
  1

  0
LINE
  5
50F
330
50E
100
AcDbEntity
  8
BEM
 62
     0
370
    -2
100
AcDbLine
 10
256.9343152247642
 20
479.3359829922073
 30
0.0
 11
256.9343152247642
 21
494.9799130375417
 31
0.0
  0
LINE
  5
510
330
50E
100
AcDbEntity
  8
BEM
 62
     0
370
    -2
100
AcDbLine
 10
586.9343152247641
 20
479.3359829922073
 30
0.0
 11
586.9343152247641
 21
494.9799130375417
 31
0.0
  0
LINE
  5
511
330
50E
100
AcDbEntity
  8
BEM
 62
     0
370
    -2
100
AcDbLine
 10
263.9343152247642
 20
492.9799130375417
 30
0.0
 11
579.9343152247642
 21
492.9799130375417
 31
0.0
  0
SOLID
  5
512
330
50E
100
AcDbEntity
  8
BEM
 62
     0
100
AcDbTrace
 10
263.9343152247642
 20
494.1465797042083
 30
0.0
 11
263.9343152247642
 21
491.813246370875
 31
0.0
 12
256.9343152247642
 22
492.9799130375417
 32
0.0
 13
256.9343152247642
 23
492.9799130375417
 33
0.0
  0
SOLID
  5
513
330
50E
100
AcDbEntity
  8
BEM
 62
     0
100
AcDbTrace
 10
579.9343152247642
 20
494.1465797042083
 30
0.0
 11
579.9343152247642
 21
491.813246370875
 31
0.0
 12
586.9343152247641
 22
492.9799130375417
 32
0.0
 13
586.9343152247641
 23
492.9799130375417
 33
0.0
  0
MTEXT
  5
514
330
50E
100
AcDbEntity
  8
BEM
 62
     1
100
AcDbMText
 10
421.9343152247642
 20
499.4799130375417
 30
0.0
 40
7.0
 41
0.0
 71
     5
 72
     1
  1
\A1;%%c330
 73
     1
 44
1.0
  0
POINT
  5
515
330
50E
100
AcDbEntity
  8
DEFPOINTS
 62
     0
100
AcDbPoint
 10
256.9343152247642
 20
477.3359829922073
 30
0.0
  0
POINT
  5
516
330
50E
100
AcDbEntity
  8
DEFPOINTS
 62
     0
100
AcDbPoint
 10
586.9343152247641
 20
477.3359829922073
 30
0.0
  0
POINT
  5
517
330
50E
100
AcDbEntity
  8
DEFPOINTS
 62
     0
100
AcDbPoint
 10
586.9343152247641
 20
492.9799130375417
 30
0.0
  0
ENDBLK
  5
519
330
50E
100
AcDbEntity
  8
0
100
AcDbBlockEnd
  0
BLOCK
  5
524
330
51A
100
AcDbEntity
  8
0
100
AcDbBlockBegin
  2
*D2
 70
     1
 10
0.0
 20
0.0
 30
0.0
  3
*D2
  1

  0
LINE
  5
53D
330
51A
100
AcDbEntity
  8
BEM
 62
     0
370
    -2
100
AcDbLine
 10
171.9343152247642
 20
482.3359829922073
 30
0.0
 11
171.9343152247642
 21
512.5362770593928
 31
0.0
  0
LINE
  5
53E
330
51A
100
AcDbEntity
  8
BEM
 62
     0
370
    -2
100
AcDbLine
 10
671.9343152247642
 20
482.3359829922073
 30
0.0
 11
671.9343152247642
 21
512.5362770593928
 31
0.0
  0
LINE
  5
53F
330
51A
100
AcDbEntity
  8
BEM
 62
     0
370
    -2
100
AcDbLine
 10
178.9343152247642
 20
510.5362770593927
 30
0.0
 11
664.9343152247642
 21
510.5362770593927
 31
0.0
  0
SOLID
  5
540
330
51A
100
AcDbEntity
  8
BEM
 62
     0
100
AcDbTrace
 10
178.9343152247642
 20
511.7029437260594
 30
0.0
 11
178.9343152247642
 21
509.3696103927261
 31
0.0
 12
171.9343152247642
 22
510.5362770593927
 32
0.0
 13
171.9343152247642
 23
510.5362770593927
 33
0.0
  0
SOLID
  5
541
330
51A
100
AcDbEntity
  8
BEM
 62
     0
100
AcDbTrace
 10
664.9343152247642
 20
511.7029437260594
 30
0.0
 11
664.9343152247642
 21
509.3696103927261
 31
0.0
 12
671.9343152247642
 22
510.5362770593927
 32
0.0
 13
671.9343152247642
 23
510.5362770593927
 33
0.0
  0
MTEXT
  5
542
330
51A
100
AcDbEntity
  8
BEM
 62
     1
100
AcDbMText
 10
427.0454061176219
 20
517.0362770593928
 30
0.0
 40
7.0
 41
0.0
 71
     5
 72
     1
  1
\A1;500
 73
     1
 44
1.0
  0
POINT
  5
543
330
51A
100
AcDbEntity
  8
DEFPOINTS
 62
     0
100
AcDbPoint
 10
171.9343152247642
 20
480.3359829922073
 30
0.0
  0
POINT
  5
544
330
51A
100
AcDbEntity
  8
DEFPOINTS
 62
     0
100
AcDbPoint
 10
671.9343152247642
 20
480.3359829922073
 30
0.0
  0
POINT
  5
545
330
51A
100
AcDbEntity
  8
DEFPOINTS
 62
     0
100
AcDbPoint
 10
671.9343152247642
 20
510.5362770593927
 30
0.0
  0
ENDBLK
  5
525
330
51A
100
AcDbEntity
  8
0
100
AcDbBlockEnd
  0
BLOCK
  5
530
330
526
100
AcDbEntity
  8
0
100
AcDbBlockBegin
  2
*D3
 70
     1
 10
0.0
 20
0.0
 30
0.0
  3
*D3
  1

  0
LINE
  5
527
330
526
100
AcDbEntity
  8
BEM
 62
     0
370
    -2
100
AcDbLine
 10
370.9343152247644
 20
220.3359829922073
 30
0.0
 11
370.9343152247644
 21
183.7018523775531
 31
0.0
  0
LINE
  5
528
330
526
100
AcDbEntity
  8
BEM
 62
     0
370
    -2
100
AcDbLine
 10
472.9343152247643
 20
220.335982992208
 30
0.0
 11
472.9343152247643
 21
183.7018523775531
 31
0.0
  0
LINE
  5
529
330
526
100
AcDbEntity
  8
BEM
 62
     0
370
    -2
100
AcDbLine
 10
377.9343152247644
 20
185.7018523775531
 30
0.0
 11
465.9343152247644
 21
185.7018523775531
 31
0.0
  0
SOLID
  5
52A
330
526
100
AcDbEntity
  8
BEM
 62
     0
100
AcDbTrace
 10
377.9343152247644
 20
186.8685190442198
 30
0.0
 11
377.9343152247644
 21
184.5351857108865
 31
0.0
 12
370.9343152247644
 22
185.7018523775531
 32
0.0
 13
370.9343152247644
 23
185.7018523775531
 33
0.0
  0
SOLID
  5
52B
330
526
100
AcDbEntity
  8
BEM
 62
     0
100
AcDbTrace
 10
465.9343152247644
 20
186.8685190442198
 30
0.0
 11
465.9343152247644
 21
184.5351857108865
 31
0.0
 12
472.9343152247643
 22
185.7018523775531
 32
0.0
 13
472.9343152247643
 23
185.7018523775531
 33
0.0
  0
MTEXT
  5
52C
330
526
100
AcDbEntity
  8
BEM
 62
     1
100
AcDbMText
 10
421.9343152247644
 20
192.2018523775531
 30
0.0
 40
7.0
 41
0.0
 71
     5
 72
     1
  1
\A1;%%c102
 73
     1
 44
1.0
  0
POINT
  5
52D
330
526
100
AcDbEntity
  8
DEFPOINTS
 62
     0
100
AcDbPoint
 10
370.9343152247644
 20
222.3359829922073
 30
0.0
  0
POINT
  5
52E
330
526
100
AcDbEntity
  8
DEFPOINTS
 62
     0
100
AcDbPoint
 10
472.9343152247643
 20
222.335982992208
 30
0.0
  0
POINT
  5
52F
330
526
100
AcDbEntity
  8
DEFPOINTS
 62
     0
100
AcDbPoint
 10
472.9343152247643
 20
185.7018523775531
 30
0.0
  0
ENDBLK
  5
531
330
526
100
AcDbEntity
  8
0
100
AcDbBlockEnd
  0
BLOCK
  5
53B
330
532
100
AcDbEntity
  8
0
100
AcDbBlockBegin
  2
*D4
 70
     1
 10
0.0
 20
0.0
 30
0.0
  3
*D4
  1

  0
LINE
  5
533
330
532
100
AcDbEntity
  8
BEM
 62
     0
370
    -2
100
AcDbLine
 10
370.2466451776532
 20
207.3359829922074
 30
0.0
 11
234.0210533078067
 21
207.3359829922074
 31
0.0
  0
LINE
  5
534
330
532
100
AcDbEntity
  8
BEM
 62
     0
370
    -2
100
AcDbLine
 10
236.0210533078067
 20
214.3359829922074
 30
0.0
 11
236.0210533078068
 21
470.3359829922073
 31
0.0
  0
SOLID
  5
535
330
532
100
AcDbEntity
  8
BEM
 62
     0
100
AcDbTrace
 10
234.8543866411401
 20
214.3359829922074
 30
0.0
 11
237.1877199744734
 21
214.3359829922074
 31
0.0
 12
236.0210533078067
 22
207.3359829922074
 32
0.0
 13
236.0210533078067
 23
207.3359829922074
 33
0.0
  0
SOLID
  5
536
330
532
100
AcDbEntity
  8
BEM
 62
     0
100
AcDbTrace
 10
234.8543866411402
 20
470.3359829922073
 30
0.0
 11
237.1877199744734
 21
470.3359829922073
 31
0.0
 12
236.0210533078068
 22
477.3359829922073
 32
0.0
 13
236.0210533078068
 23
477.3359829922073
 33
0.0
  0
MTEXT
  5
537
330
532
100
AcDbEntity
  8
BEM
 62
     1
100
AcDbMText
 10
229.5210533078067
 20
342.3359829922074
 30
0.0
 40
7.0
 41
0.0
 71
     5
 72
     1
  1
\A1;270
 11
0.0000000000000001
 21
1.0
 31
0.0
 73
     1
 44
1.0
  0
POINT
  5
538
330
532
100
AcDbEntity
  8
DEFPOINTS
 62
     0
100
AcDbPoint
 10
372.2466451776532
 20
207.3359829922074
 30
0.0
  0
POINT
  5
539
330
532
100
AcDbEntity
  8
DEFPOINTS
 62
     0
100
AcDbPoint
 10
236.0210533078068
 20
477.3359829922073
 30
0.0
  0
POINT
  5
53A
330
532
100
AcDbEntity
  8
DEFPOINTS
 62
     0
100
AcDbPoint
 10
236.0210533078068
 20
477.3359829922073
 30
0.0
  0
ENDBLK
  5
53C
330
532
100
AcDbEntity
  8
0
100
AcDbBlockEnd
  0
ENDSEC
  0
SECTION
  2
ENTITIES
  0
LINE
  5
43A
330
20
100
AcDbEntity
  8
TEXT
 62
     2
100
AcDbLine
 10
622.8949510135517
 20
478.9081200833931
 30
0.0
 11
654.0731074317831
 21
435.4475212660437
 31
0.0
  0
TEXT
  5
43B
330
20
100
AcDbEntity
  8
TEXT
 62
     1
100
AcDbText
 10
599.4362202894647
 20
356.9168767684057
 30
0.0
 40
7.0
  1
Klemmring DN100
 41
0.8
  7
GREEKS
100
AcDbText
  0
LINE
  5
43C
102
{ACAD_REACTORS
330
5B9
330
5EB
102
}
330
20
100
AcDbEntity
  8
STEMPEL
100
AcDbLine
 10
500.1859532305314
 20
477.3359829922073
 30
0.0
 11
671.934315224764
 21
477.3359829922073
 31
0.0
  0
TEXT
  5
43D
330
20
100
AcDbEntity
  8
TEXT
 62
     1
100
AcDbText
 10
598.7515513291112
 20
344.2703291702646
 30
0.0
 40
7.0
  1
EDV-Art.Nr.17201.100A
 41
0.8
  7
GREEKS
100
AcDbText
  0
LINE
  5
43E
330
20
100
AcDbEntity
  8
TEXT
 62
     2
100
AcDbLine
 10
598.7282032806184
 20
353.1939234685994
 30
0.0
 11
697.6224176539483
 21
353.1939234685994
 31
0.0
  0
TEXT
  5
43F
330
20
100
AcDbEntity
  8
TEXT
 62
     1
100
AcDbText
 10
591.3343410507057
 20
201.7733650710364
 30
0.0
 40
7.0
  1
Etageneinsatz DN100
 41
0.8
  7
GREEKS
100
AcDbText
  0
LINE
  5
440
330
20
100
AcDbEntity
  8
HILF
100
AcDbLine
 10
566.0000000000001
 20
49.99999999999997
 30
0.0
 11
650.0
 21
49.99999999999997
 31
0.0
  0
LINE
  5
441
330
20
100
AcDbEntity
  8
HILF
100
AcDbLine
 10
566.0000000000001
 20
59.99999999999997
 30
0.0
 11
650.0
 21
59.99999999999997
 31
0.0
  0
LINE
  5
442
330
20
100
AcDbEntity
  8
HILF
100
AcDbLine
 10
566.0000000000001
 20
69.99999999999994
 30
0.0
 11
650.0
 21
69.99999999999994
 31
0.0
  0
TEXT
  5
443
330
20
100
AcDbEntity
  8
TEXT
 62
     1
100
AcDbText
 10
591.1412568530046
 20
189.1268174728952
 30
0.0
 40
7.0
  1
EDV-Art.Nr.17117.100A
 41
0.8
  7
GREEKS
100
AcDbText
  0
LINE
  5
444
330
20
100
AcDbEntity
  8
TEXT
 62
     2
100
AcDbLine
 10
591.1179088045117
 20
198.05041177123
 30
0.0
 11
688.2186064369672
 21
198.05041177123
 31
0.0
  0
LINE
  5
445
330
20
100
AcDbEntity
  8
STEMPEL
100
AcDbLine
 10
479.9999999999998
 20
10.0
 30
0.0
 11
830.0
 21
10.0
 31
0.0
  0
LINE
  5
446
330
20
100
AcDbEntity
  8
STEMPEL
100
AcDbLine
 10
830.0
 20
80.0
 30
0.0
 11
566.0000000000001
 21
79.99999999999994
 31
0.0
  0
LINE
  5
447
330
20
100
AcDbEntity
  8
STEMPEL
100
AcDbLine
 10
830.0
 20
40.0
 30
0.0
 11
566.0000000000001
 21
39.99999999999997
 31
0.0
  0
LINE
  5
448
330
20
100
AcDbEntity
  8
STEMPEL
100
AcDbLine
 10
830.0
 20
110.0
 30
0.0
 11
470.0
 21
110.0
 31
0.0
  0
LINE
  5
449
330
20
100
AcDbEntity
  8
HILF
100
AcDbLine
 10
840.0
 20
0.0
 30
0.0
 11
0.0
 21
0.0
 31
0.0
  0
LINE
  5
44A
330
20
100
AcDbEntity
  8
HILF
100
AcDbLine
 10
839.9999999999998
 20
594.0000000000002
 30
0.0
 11
-0.0000000000001705
 21
593.9999999999997
 31
0.0
  0
LINE
  5
44B
330
20
100
AcDbEntity
  8
STEMPEL
100
AcDbLine
 10
830.0
 20
584.0
 30
0.0
 11
39.99999999999989
 21
584.0
 31
0.0
  0
LINE
  5
44C
330
20
100
AcDbEntity
  8
STEMPEL
100
AcDbLine
 10
830.0
 20
10.0
 30
0.0
 11
40.0
 21
10.0
 31
0.0
  0
DIMENSION
  5
44D
330
20
100
AcDbEntity
  8
BEM
100
AcDbDimension
  2
*D2
 10
671.9343152247642
 20
510.5362770593927
 30
0.0
 11
427.0454061176219
 21
510.5362770593927
 31
0.0
 70
   160
 71
     5
 42
500.0
  3
Standard
100
AcDbAlignedDimension
 13
171.9343152247642
 23
480.3359829922073
 33
0.0
 14
671.9343152247642
 24
480.3359829922073
 34
0.0
100
AcDbRotatedDimension
1001
ACAD
1000
DSTYLE
1002
{
1070
    40
1040
2.0
1070
    41
1040
3.5
1070
    42
1040
1.0
1070
    43
1040
7.0
1070
    44
1040
1.0
1070
    73
1070
     0
1070
    74
1070
     0
1070
    77
1070
     1
1070
    78
1070
     8
1070
    79
1070
     2
1070
   140
1040
3.5
1070
   141
1040
1.5
1070
   146
1040
0.5
1070
   147
1040
1.5
1070
   172
1070
     1
1070
   178
1070
     1
1070
   179
1070
     2
1070
   271
1070
     2
1070
   272
1070
     2
1070
   284
1070
     8
1070
   285
1070
     8
1070
   286
1070
     8
1002
}
  0
LINE
  5
44F
102
{ACAD_REACTORS
330
5EB
102
}
330
20
100
AcDbEntity
  8
STEMPEL
100
AcDbLine
 10
171.9343152247642
 20
480.3359829922073
 30
0.0
 11
671.9343152247642
 21
480.3359829922073
 31
0.0
  0
LINE
  5
450
102
{ACAD_REACTORS
330
594
102
}
330
20
100
AcDbEntity
  8
STEMPEL
100
AcDbLine
 10
470.9343152247644
 20
419.5422832671344
 30
0.0
 11
470.9343152247644
 21
222.4233048780251
 31
0.0
  0
LINE
  5
451
102
{ACAD_REACTORS
330
594
102
}
330
20
100
AcDbEntity
  8
STEMPEL
100
AcDbLine
 10
472.9343152247643
 20
419.5422832671344
 30
0.0
 11
472.9343152247643
 21
222.335982992208
 31
0.0
  0
LINE
  5
452
330
20
100
AcDbEntity
  8
MITTEL
100
AcDbLine
 10
421.9343152247642
 20
485.3359829922073
 30
0.0
 11
421.9343152247642
 21
202.3359829922074
 31
0.0
  0
DIMENSION
  5
453
330
20
100
AcDbEntity
  8
BEM
100
AcDbDimension
  2
*D4
 10
236.0210533078068
 20
477.3359829922073
 30
0.0
 11
229.5210533078067
 21
342.3359829922074
 31
0.0
 70
    32
 71
     5
 42
269.9999999999999
  3
Standard
100
AcDbAlignedDimension
 13
372.2466451776532
 23
207.3359829922074
 33
0.0
 14
236.0210533078068
 24
477.3359829922073
 34
0.0
 50
90.0
100
AcDbRotatedDimension
1001
ACAD
1000
DSTYLE
1002
{
1070
    40
1040
2.0
1070
    41
1040
3.5
1070
    42
1040
1.0
1070
    43
1040
7.0
1070
    44
1040
1.0
1070
    73
1070
     0
1070
    74
1070
     0
1070
    77
1070
     1
1070
    78
1070
     8
1070
    79
1070
     2
1070
   140
1040
3.5
1070
   141
1040
1.5
1070
   146
1040
0.5
1070
   147
1040
1.5
1070
   172
1070
     1
1070
   178
1070
     1
1070
   179
1070
     2
1070
   271
1070
     2
1070
   272
1070
     2
1070
   284
1070
     8
1070
   285
1070
     8
1070
   286
1070
     8
1002
}
  0
LINE
  5
454
102
{ACAD_REACTORS
330
594
102
}
330
20
100
AcDbEntity
  8
STEMPEL
100
AcDbLine
 10
370.9343152247644
 20
419.5422832671341
 30
0.0
 11
370.9343152247644
 21
222.3359829922073
 31
0.0
  0
LINE
  5
455
102
{ACAD_REACTORS
330
594
102
}
330
20
100
AcDbEntity
  8
STEMPEL
100
AcDbLine
 10
372.9343152247644
 20
419.5422832671341
 30
0.0
 11
372.9343152247642
 21
222.4233048780246
 31
0.0
  0
LINE
  5
456
330
20
100
AcDbEntity
  8
STEMPEL
100
AcDbLine
 10
40.0
 20
10.0
 30
0.0
 11
39.99999999999989
 21
584.0
 31
0.0
  0
LINE
  5
457
330
20
100
AcDbEntity
  8
HILF
100
AcDbLine
 10
0.0
 20
0.0
 30
0.0
 11
-0.0000000000001705
 21
593.9999999999997
 31
0.0
  0
LINE
  5
459
330
20
100
AcDbEntity
  8
HILF
100
AcDbLine
 10
31.08767135713851
 20
296.9999999999999
 30
0.0
 11
0.0000000000000568
 21
296.9999999999999
 31
0.0
  0
INSERT
  5
45A
330
20
100
AcDbEntity
  8
STEMPEL
100
AcDbBlockReference
  2
LOGO
 10
570.9955485457794
 20
45.02105276448322
 30
0.0
 41
2.0
 42
2.0
 43
2.0
  0
LINE
  5
45B
330
20
100
AcDbEntity
  8
STEMPEL
100
AcDbLine
 10
566.0000000000001
 20
109.9999999999999
 30
0.0
 11
566.0
 21
9.999999999999971
 31
0.0
  0
LINE
  5
45C
330
20
100
AcDbEntity
  8
STEMPEL
100
AcDbLine
 10
470.0
 20
10.0
 30
0.0
 11
470.0
 21
110.0
 31
0.0
  0
LINE
  5
45D
330
20
100
AcDbEntity
  8
VOLL
100
AcDbLine
 10
544.0000000000001
 20
109.9999999999999
 30
0.0
 11
544.0
 21
9.999999999999971
 31
0.0
  0
LINE
  5
45E
330
20
100
AcDbEntity
  8
VOLL
100
AcDbLine
 10
524.0000000000001
 20
109.9999999999999
 30
0.0
 11
524.0
 21
9.999999999999971
 31
0.0
  0
LINE
  5
45F
330
20
100
AcDbEntity
  8
VOLL
100
AcDbLine
 10
484.0000000000001
 20
110.0
 30
0.0
 11
484.0
 21
9.999999999999971
 31
0.0
  0
TEXT
  5
460
330
20
100
AcDbEntity
  8
TEXT
100
AcDbText
 10
491.6779214254433
 20
18.67381894984132
 30
0.0
 40
4.0
  1
Änderung
 41
0.8
  7
GREEKS
 72
     1
 11
502.4207785683005
 21
18.67381894984132
 31
0.0
100
AcDbText
  0
TEXT
  5
461
330
20
100
AcDbEntity
  8
TEXT
100
AcDbText
 10
478.2664110704575
 20
13.65465846027192
 30
0.0
 40
4.0
  1
Index
 50
90.0
 41
0.8
  7
GREEKS
100
AcDbText
  0
TEXT
  5
462
330
20
100
AcDbEntity
  8
TEXT
100
AcDbText
 10
529.8030458227755
 20
18.6715626933981
 30
0.0
 40
4.0
  1
Tag
 41
0.8
  7
GREEKS
 72
     1
 11
533.5363791561089
 21
18.6715626933981
 31
0.0
100
AcDbText
  0
LINE
  5
463
330
20
100
AcDbEntity
  8
HILF
 62
     7
100
AcDbLine
 10
460.0
 20
-0.0000000000002824
 30
0.0
 11
460.0
 21
10.0
 31
0.0
  0
LINE
  5
464
330
20
100
AcDbEntity
  8
HILF
100
AcDbLine
 10
470.0000000000001
 20
39.99999999999997
 30
0.0
 11
566.0000000000001
 21
39.99999999999997
 31
0.0
  0
LINE
  5
465
330
20
100
AcDbEntity
  8
HILF
100
AcDbLine
 10
470.0000000000001
 20
49.99999999999997
 30
0.0
 11
566.0000000000001
 21
49.99999999999997
 31
0.0
  0
LINE
  5
466
330
20
100
AcDbEntity
  8
HILF
100
AcDbLine
 10
470.0000000000001
 20
59.99999999999997
 30
0.0
 11
566.0000000000001
 21
59.99999999999997
 31
0.0
  0
LINE
  5
467
330
20
100
AcDbEntity
  8
HILF
100
AcDbLine
 10
470.0000000000001
 20
69.99999999999994
 30
0.0
 11
566.0000000000001
 21
69.99999999999994
 31
0.0
  0
LINE
  5
468
330
20
100
AcDbEntity
  8
HILF
100
AcDbLine
 10
470.0000000000001
 20
79.99999999999994
 30
0.0
 11
566.0000000000001
 21
79.99999999999994
 31
0.0
  0
LINE
  5
469
330
20
100
AcDbEntity
  8
HILF
100
AcDbLine
 10
470.0000000000001
 20
90.00000000000005
 30
0.0
 11
566.0000000000001
 21
90.00000000000005
 31
0.0
  0
LINE
  5
46A
330
20
100
AcDbEntity
  8
HILF
100
AcDbLine
 10
470.0000000000001
 20
100.0
 30
0.0
 11
566.0000000000001
 21
100.0
 31
0.0
  0
LINE
  5
46B
330
20
100
AcDbEntity
  8
STEMPEL
100
AcDbLine
 10
565.9999999999999
 20
29.99999999999997
 30
0.0
 11
470.0
 21
29.99999999999997
 31
0.0
  0
TEXT
  5
46C
330
20
100
AcDbEntity
  8
TEXT
100
AcDbText
 10
591.0085209177599
 20
63.10765040825732
 30
0.0
 40
4.0
  1
11.06.
 41
0.8
  7
GREEKS
 72
     1
 11
597.4085209177599
 21
63.10765040825732
 31
0.0
100
AcDbText
  0
TEXT
  5
46D
330
20
100
AcDbEntity
  8
TEXT
100
AcDbText
 10
624.4216048581257
 20
63.0896391972351
 30
0.0
 40
4.0
  1
Koeh
 41
0.8
  7
GREEKS
 72
     1
 11
629.6787477152686
 21
63.0896391972351
 31
0.0
100
AcDbText
  0
LINE
  5
46E
330
20
100
AcDbEntity
  8
VOLL
100
AcDbLine
 10
584.0000000000001
 20
79.99999999999994
 30
0.0
 11
584.0000000000001
 21
39.99999999999997
 31
0.0
  0
TEXT
  5
46F
330
20
100
AcDbEntity
  8
TEXT
100
AcDbText
 10
567.5836127167615
 20
63.62990369617964
 30
0.0
 40
4.0
  1
Gez.
 41
0.8
  7
GREEKS
100
AcDbText
  0
LINE
  5
470
330
20
100
AcDbEntity
  8
VOLL
100
AcDbLine
 10
610.0000000000001
 20
109.9999999999998
 30
0.0
 11
610.0
 21
39.99999999999997
 31
0.0
  0
TEXT
  5
471
330
20
100
AcDbEntity
  8
TEXT
100
AcDbText
 10
549.4438184419371
 20
18.59324216966408
 30
0.0
 40
4.0
  1
Name
 41
0.8
  7
GREEKS
 72
     1
 11
555.7676279657465
 21
18.59324216966408
 31
0.0
100
AcDbText
  0
TEXT
  5
472
330
20
100
AcDbEntity
  8
TEXT
100
AcDbText
 10
567.5515086571672
 20
53.68926291428377
 30
0.0
 40
4.0
  1
Gepr.
 41
0.8
  7
GREEKS
100
AcDbText
  0
TEXT
  5
473
330
20
100
AcDbEntity
  8
TEXT
100
AcDbText
 10
567.6006777387303
 20
43.52946389649807
 30
0.0
 40
4.0
  1
Norm.
 41
0.8
  7
GREEKS
100
AcDbText
  0
TEXT
  5
474
330
20
100
AcDbEntity
  8
TEXT
100
AcDbText
 10
592.3311673153651
 20
73.31880501229926
 30
0.0
 40
4.0
  1
Tag
 41
0.8
  7
GREEKS
100
AcDbText
  0
TEXT
  5
475
330
20
100
AcDbEntity
  8
TEXT
 62
     1
100
AcDbText
 10
580.5006306481886
 20
88.14901428913959
 30
0.0
 40
7.0
  1
1:2
 41
0.8
  7
GREEKS
100
AcDbText
  0
TEXT
  5
476
330
20
100
AcDbEntity
  8
TEXT
100
AcDbText
 10
568.6221098221039
 20
73.14025471151666
 30
0.0
 40
4.0
  1
2008
 41
0.8
  7
GREEKS
100
AcDbText
  0
TEXT
  5
477
330
20
100
AcDbEntity
  8
TEXT
100
AcDbText
 10
573.5163572150376
 20
102.4620895087088
 30
0.0
 40
5.0
  1
Maßstab
 41
0.8
  7
GREEKS
100
AcDbText
  0
TEXT
  5
478
330
20
100
AcDbEntity
  8
TEXT
100
AcDbText
 10
622.4626584226294
 20
73.30961091915225
 30
0.0
 40
4.0
  1
Name
 41
0.8
  7
GREEKS
100
AcDbText
  0
TEXT
  5
479
330
20
100
AcDbEntity
  8
TEXT
100
AcDbText
 10
614.2858954734052
 20
102.4184168434819
 30
0.0
 40
5.0
  1
Zul. Abw.
 41
0.8
  7
GREEKS
100
AcDbText
  0
LINE
  5
47A
102
{ACAD_REACTORS
330
594
102
}
330
20
100
AcDbEntity
  8
STEMPEL
100
AcDbLine
 10
372.2466451776532
 20
207.3359829922074
 30
0.0
 11
471.6219852718751
 21
207.3359829922074
 31
0.0
  0
DIMENSION
  5
47B
330
20
100
AcDbEntity
  8
BEM
100
AcDbDimension
  2
*D3
 10
472.9343152247643
 20
185.7018523775531
 30
0.0
 11
421.9343152247644
 21
192.2018523775531
 31
0.0
 70
    32
  1
%%c<>
 71
     5
 42
102.0
  3
Standard
100
AcDbAlignedDimension
 13
370.9343152247644
 23
222.3359829922073
 33
0.0
 14
472.9343152247643
 24
222.335982992208
 34
0.0
100
AcDbRotatedDimension
1001
ACAD
1000
DSTYLE
1002
{
1070
    40
1040
2.0
1070
    41
1040
3.5
1070
    42
1040
1.0
1070
    43
1040
7.0
1070
    44
1040
1.0
1070
    73
1070
     0
1070
    74
1070
     0
1070
    77
1070
     1
1070
    78
1070
     8
1070
    79
1070
     2
1070
   140
1040
3.5
1070
   141
1040
1.5
1070
   146
1040
0.5
1070
   147
1040
1.5
1070
   172
1070
     1
1070
   178
1070
     1
1070
   179
1070
     2
1070
   271
1070
     2
1070
   272
1070
     2
1070
   284
1070
     8
1070
   285
1070
     8
1070
   286
1070
     8
1002
}
  0
LINE
  5
47C
330
20
100
AcDbEntity
  8
HILF
100
AcDbLine
 10
374.9343152247642
 20
222.4233048780246
 30
0.0
 11
468.9343152247643
 21
222.4233048780251
 31
0.0
  0
LINE
  5
47D
102
{ACAD_REACTORS
330
594
102
}
330
20
100
AcDbEntity
  8
STEMPEL
100
AcDbLine
 10
370.9343152247644
 20
222.3359829922073
 30
0.0
 11
372.2466451776532
 21
207.3359829922074
 31
0.0
  0
LINE
  5
47E
102
{ACAD_REACTORS
330
594
102
}
330
20
100
AcDbEntity
  8
STEMPEL
100
AcDbLine
 10
372.9343152247642
 20
222.4233048780246
 30
0.0
 11
374.2542848527397
 21
207.3359829922074
 31
0.0
  0
LINE
  5
47F
330
20
100
AcDbEntity
  8
TEXT
 62
     2
100
AcDbLine
 10
472.1446913966934
 20
230.2939705930032
 30
0.0
 11
591.1179088045117
 21
198.05041177123
 31
0.0
  0
TEXT
  5
480
330
20
100
AcDbEntity
  8
TEXT
100
AcDbText
 10
471.8550995097768
 20
111.6719999999999
 30
0.0
 40
5.0
  1
Erstellt mit AUTOCAD 2004
 41
0.8
  7
GREEKS
100
AcDbText
  0
LINE
  5
481
102
{ACAD_REACTORS
330
594
102
}
330
20
100
AcDbEntity
  8
STEMPEL
100
AcDbLine
 10
470.9343152247644
 20
222.4233048780251
 30
0.0
 11
469.6143455967886
 21
207.3359829922074
 31
0.0
  0
LINE
  5
482
102
{ACAD_REACTORS
330
594
102
}
330
20
100
AcDbEntity
  8
STEMPEL
100
AcDbLine
 10
472.9343152247643
 20
222.335982992208
 30
0.0
 11
471.6219852718751
 21
207.3359829922074
 31
0.0
  0
LINE
  5
483
102
{ACAD_REACTORS
330
5B9
330
5EB
102
}
330
20
100
AcDbEntity
  8
STEMPEL
100
AcDbLine
 10
171.9343152247642
 20
477.3359829922073
 30
0.0
 11
343.6826772189969
 21
477.3359829922073
 31
0.0
  0
LINE
  5
484
102
{ACAD_REACTORS
330
5EB
102
}
330
20
100
AcDbEntity
  8
STEMPEL
100
AcDbLine
 10
171.9343152247642
 20
480.3359829922073
 30
0.0
 11
171.9343152247642
 21
477.3359829922073
 31
0.0
  0
DIMENSION
  5
485
330
20
100
AcDbEntity
  8
BEM
100
AcDbDimension
  2
*D1
 10
586.9343152247641
 20
492.9799130375417
 30
0.0
 11
421.9343152247642
 21
499.4799130375417
 31
0.0
 70
    32
  1
%%c<>
 71
     5
 42
330.0
  3
Standard
100
AcDbAlignedDimension
 13
256.9343152247642
 23
477.3359829922073
 33
0.0
 14
586.9343152247641
 24
477.3359829922073
 34
0.0
100
AcDbRotatedDimension
1001
ACAD
1000
DSTYLE
1002
{
1070
    40
1040
2.0
1070
    41
1040
3.5
1070
    42
1040
1.0
1070
    43
1040
7.0
1070
    44
1040
1.0
1070
    73
1070
     0
1070
    74
1070
     0
1070
    77
1070
     1
1070
    78
1070
     8
1070
    79
1070
     2
1070
   140
1040
3.5
1070
   141
1040
1.5
1070
   146
1040
0.5
1070
   147
1040
1.5
1070
   172
1070
     1
1070
   178
1070
     1
1070
   179
1070
     2
1070
   271
1070
     2
1070
   272
1070
     2
1070
   284
1070
     8
1070
   285
1070
     8
1070
   286
1070
     8
1002
}
  0
LINE
  5
487
330
20
100
AcDbEntity
  8
HILF
100
AcDbLine
 10
374.9343152247644
 20
421.3359829922074
 30
0.0
 11
468.9343152247643
 21
421.3359829922073
 31
0.0
  0
LINE
  5
488
102
{ACAD_REACTORS
330
5B9
102
}
330
20
100
AcDbEntity
  8
STEMPEL
100
AcDbLine
 10
362.8680719545048
 20
443.3359829922073
 30
0.0
 11
481.0005584950235
 21
443.3359829922074
 31
0.0
  0
LINE
  5
489
102
{ACAD_REACTORS
330
5B9
102
}
330
20
100
AcDbEntity
  8
STEMPEL
100
AcDbLine
 10
362.8680719545048
 20
441.3359829922073
 30
0.0
 11
481.0005584950235
 21
441.3359829922073
 31
0.0
  0
LINE
  5
48A
102
{ACAD_REACTORS
330
5EB
102
}
330
20
100
AcDbEntity
  8
STEMPEL
100
AcDbLine
 10
358.3244283521361
 20
445.4173987051651
 30
0.0
 11
485.5442020973922
 21
445.4173987051651
 31
0.0
  0
LINE
  5
48B
102
{ACAD_REACTORS
330
620
102
}
330
20
100
AcDbEntity
  8
STEMPEL
100
AcDbLine
 10
373.6125144871188
 20
451.4173987051653
 30
0.0
 11
470.2561159624098
 21
451.4173987051653
 31
0.0
  0
LINE
  5
48C
102
{ACAD_REACTORS
330
620
102
}
330
20
100
AcDbEntity
  8
STEMPEL
100
AcDbLine
 10
367.4343152247642
 20
449.4173987051652
 30
0.0
 11
476.4343152247646
 21
449.4173987051652
 31
0.0
  0
LINE
  5
48D
102
{ACAD_REACTORS
330
5EB
330
620
102
}
330
20
100
AcDbEntity
  8
STEMPEL
100
AcDbLine
 10
359.9343152247642
 20
448.4173987051651
 30
0.0
 11
483.9343152247641
 21
448.4173987051652
 31
0.0
  0
LINE
  5
48E
330
20
100
AcDbEntity
  8
STEMPEL
100
AcDbLine
 10
366.6342245329719
 20
468.4173987051651
 30
0.0
 11
477.234405916557
 21
468.4173987051651
 31
0.0
  0
LINE
  5
48F
102
{ACAD_REACTORS
330
620
102
}
330
20
100
AcDbEntity
  8
STEMPEL
100
AcDbLine
 10
361.9419548998509
 20
478.4173987051653
 30
0.0
 11
481.9266755496778
 21
478.4173987051687
 31
0.0
  0
ARC
  5
491
102
{ACAD_REACTORS
330
5B9
102
}
330
20
100
AcDbEntity
  8
STEMPEL
100
AcDbCircle
 10
343.6826772189969
 20
469.3359829922074
 30
0.0
 40
6.0
100
AcDbArc
 50
348.9999999999999
 51
90.0
  0
ARC
  5
492
102
{ACAD_REACTORS
330
5B9
330
5EB
102
}
330
20
100
AcDbEntity
  8
STEMPEL
100
AcDbCircle
 10
343.6826772189969
 20
469.3359829922074
 30
0.0
 40
8.0
100
AcDbArc
 50
348.9999999999997
 51
90.0
  0
ARC
  5
494
102
{ACAD_REACTORS
330
5EB
102
}
330
20
100
AcDbEntity
  8
STEMPEL
100
AcDbCircle
 10
343.6826772189969
 20
469.3359829922074
 30
0.0
 40
11.0
100
AcDbArc
 50
348.9999999999998
 51
90.0
  0
LINE
  5
495
102
{ACAD_REACTORS
330
5B9
102
}
330
20
100
AcDbEntity
  8
STEMPEL
100
AcDbLine
 10
256.9343152247642
 20
475.3359829922073
 30
0.0
 11
343.6826772189969
 21
475.3359829922073
 31
0.0
  0
LINE
  5
496
102
{ACAD_REACTORS
330
5B9
102
}
330
20
100
AcDbEntity
  8
STEMPEL
100
AcDbLine
 10
256.9343152247642
 20
477.3359829922073
 30
0.0
 11
256.9343152247642
 21
475.3359829922073
 31
0.0
  0
ARC
  5
497
102
{ACAD_REACTORS
330
629
102
}
330
20
100
AcDbEntity
  8
SCHRAFF
100
AcDbCircle
 10
361.9343152247642
 20
441.3906637179639
 30
0.0
 40
4.0
100
AcDbArc
 50
158.8196694234164
 51
268.7447850681548
  0
LINE
  5
498
102
{ACAD_REACTORS
330
594
330
629
102
}
330
20
100
AcDbEntity
  8
STEMPEL
100
AcDbLine
 10
370.3181678776758
 20
421.9468281133701
 30
0.0
 11
360.1807741635995
 21
440.4288457794695
 31
0.0
  0
LINE
  5
499
102
{ACAD_REACTORS
330
594
102
}
330
20
100
AcDbEntity
  8
STEMPEL
100
AcDbLine
 10
372.0717089388405
 20
422.9086460518645
 30
0.0
 11
361.9343152247642
 21
441.3906637179639
 31
0.0
  0
ARC
  5
49A
102
{ACAD_REACTORS
330
594
102
}
330
20
100
AcDbEntity
  8
STEMPEL
100
AcDbCircle
 10
365.9343152247644
 20
419.5422832671341
 30
0.0
 40
7.0
100
AcDbArc
 50
0.0
 51
28.7447850681547
  0
ARC
  5
49B
102
{ACAD_REACTORS
330
594
102
}
330
20
100
AcDbEntity
  8
STEMPEL
100
AcDbCircle
 10
365.9343152247644
 20
419.5422832671341
 30
0.0
 40
5.0
100
AcDbArc
 50
0.0
 51
28.74478506815464
  0
LINE
  5
49C
102
{ACAD_REACTORS
330
620
102
}
330
20
100
AcDbEntity
  8
STEMPEL
100
AcDbLine
 10
371.6428989810944
 20
453.0701023498314
 30
0.0
 11
369.3010268573079
 21
466.3515191493324
 31
0.0
  0
LINE
  5
49D
102
{ACAD_REACTORS
330
5C6
330
620
102
}
330
20
100
AcDbEntity
  8
STEMPEL
100
AcDbLine
 10
361.9343152247642
 20
453.4173987051652
 30
0.0
 11
361.9343152247642
 21
476.4173987051651
 31
0.0
  0
LINE
  5
49E
102
{ACAD_REACTORS
330
5C6
330
620
102
}
330
20
100
AcDbEntity
  8
STEMPEL
100
AcDbLine
 10
363.9343152247642
 20
453.4173987051652
 30
0.0
 11
363.9343152247642
 21
476.4173987051651
 31
0.0
  0
LINE
  5
49F
102
{ACAD_REACTORS
330
5B9
102
}
330
20
100
AcDbEntity
  8
STEMPEL
100
AcDbLine
 10
348.4343152247642
 20
462.3359829922073
 30
0.0
 11
348.4343152247642
 21
458.3359829922073
 31
0.0
  0
LINE
  5
4A0
102
{ACAD_REACTORS
330
5B9
330
5EB
102
}
330
20
100
AcDbEntity
  8
STEMPEL
100
AcDbLine
 10
350.4343152247642
 20
462.1434048958121
 30
0.0
 11
350.4343152247642
 21
458.8718813770696
 31
0.0
  0
LINE
  5
4A1
102
{ACAD_REACTORS
330
5EB
330
620
102
}
330
20
100
AcDbEntity
  8
STEMPEL
100
AcDbLine
 10
353.3930576565627
 20
459.7471891586847
 30
0.0
 11
359.9343152247642
 21
448.4173987051651
 31
0.0
  0
LINE
  5
4A3
102
{ACAD_REACTORS
330
5EB
102
}
330
20
100
AcDbEntity
  8
STEMPEL
100
AcDbLine
 10
364.4343152247642
 20
448.4173987051651
 30
0.0
 11
364.4343152247642
 21
445.4173987051651
 31
0.0
  0
LINE
  5
4A4
102
{ACAD_REACTORS
330
5B9
102
}
330
20
100
AcDbEntity
  8
STEMPEL
100
AcDbLine
 10
348.4343152247642
 20
458.3359829922073
 30
0.0
 11
355.9398687242293
 21
445.3359829922073
 31
0.0
  0
LINE
  5
4A5
102
{ACAD_REACTORS
330
5B9
330
5EB
102
}
330
20
100
AcDbEntity
  8
STEMPEL
100
AcDbLine
 10
350.4343152247642
 20
458.8718813770696
 30
0.0
 11
357.6719195317981
 21
446.3359829922073
 31
0.0
  0
ARC
  5
4A6
102
{ACAD_REACTORS
330
5B9
330
629
102
}
330
20
100
AcDbEntity
  8
STEMPEL
100
AcDbCircle
 10
362.8680719545048
 20
449.3359829922073
 30
0.0
 40
8.0
100
AcDbArc
 50
210.0
 51
270.0
  0
LINE
  5
4A7
102
{ACAD_REACTORS
330
5B9
102
}
330
20
100
AcDbEntity
  8
STEMPEL
100
AcDbLine
 10
364.4343152247642
 20
443.3359829922073
 30
0.0
 11
364.4343152247642
 21
441.3359829922073
 31
0.0
  0
LINE
  5
4A8
102
{ACAD_REACTORS
330
594
330
629
102
}
330
20
100
AcDbEntity
  8
STEMPEL
100
AcDbLine
 10
361.9343152247642
 20
441.3906637179639
 30
0.0
 11
360.1807741635995
 21
440.4288457794695
 31
0.0
  0
ARC
  5
4A9
102
{ACAD_REACTORS
330
5B9
330
5EB
102
}
330
20
100
AcDbEntity
  8
STEMPEL
100
AcDbCircle
 10
362.8680719545048
 20
449.3359829922073
 30
0.0
 40
6.0
100
AcDbArc
 50
210.0
 51
270.0
  0
LINE
  5
4AA
102
{ACAD_REACTORS
330
620
102
}
330
20
100
AcDbEntity
  8
STEMPEL
100
AcDbLine
 10
367.4343152247642
 20
449.4173987051652
 30
0.0
 11
365.7022644171953
 21
448.4173987051653
 31
0.0
  0
LINE
  5
4AB
102
{ACAD_REACTORS
330
5C6
330
620
102
}
330
20
100
AcDbEntity
  8
STEMPEL
100
AcDbLine
 10
361.9343152247642
 20
453.4173987051652
 30
0.0
 11
363.9343152247642
 21
453.4173987051652
 31
0.0
  0
ARC
  5
4AC
102
{ACAD_REACTORS
330
620
102
}
330
20
100
AcDbEntity
  8
STEMPEL
100
AcDbCircle
 10
373.6125144871188
 20
453.4173987051652
 30
0.0
 40
2.0
100
AcDbArc
 50
189.9999999999995
 51
270.0
  0
LINE
  5
4AD
102
{ACAD_REACTORS
330
620
102
}
330
20
100
AcDbEntity
  8
STEMPEL
100
AcDbLine
 10
373.9343152247642
 20
449.4173987051652
 30
0.0
 11
373.9343152247642
 21
451.4173987051653
 31
0.0
  0
ARC
  5
4AE
102
{ACAD_REACTORS
330
620
102
}
330
20
100
AcDbEntity
  8
STEMPEL
100
AcDbCircle
 10
366.8390074747773
 20
465.9173987051651
 30
0.0
 40
2.5
100
AcDbArc
 50
9.999999999999989
 51
90.0
  0
LINE
  5
4AF
102
{ACAD_REACTORS
330
620
102
}
330
20
100
AcDbEntity
  8
STEMPEL
100
AcDbLine
 10
365.9190649458611
 20
476.5917101906606
 30
0.0
 11
366.6342245329719
 21
468.4173987051653
 31
0.0
  0
LINE
  5
4B0
102
{ACAD_REACTORS
330
620
102
}
330
20
100
AcDbEntity
  8
STEMPEL
100
AcDbLine
 10
359.9495655036673
 20
476.5917101906606
 30
0.0
 11
359.0307506287685
 21
466.0896081140122
 31
0.0
  0
LINE
  5
4B1
330
20
100
AcDbEntity
  8
STEMPEL
100
AcDbLine
 10
356.022234102691
 20
464.7276960217762
 30
0.0
 11
358.3189927639878
 21
464.7276960217762
 31
0.0
  0
ARC
  5
4B2
102
{ACAD_REACTORS
330
620
102
}
330
20
100
AcDbEntity
  8
STEMPEL
100
AcDbCircle
 10
356.022234102691
 20
462.2276960217763
 30
0.0
 40
2.499999999999928
100
AcDbArc
 50
64.60205586413088
 51
159.9924893337503
  0
ARC
  5
4B3
102
{ACAD_REACTORS
330
5EB
330
620
102
}
330
20
100
AcDbEntity
  8
STEMPEL
100
AcDbCircle
 10
354.2590830603472
 20
460.2471891586847
 30
0.0
 40
1.0
100
AcDbArc
 50
172.7731439551196
 51
209.9999999999999
  0
LINE
  5
4B4
102
{ACAD_REACTORS
330
5EB
330
620
102
}
330
20
100
AcDbEntity
  8
STEMPEL
100
AcDbLine
 10
353.2670272150128
 20
460.3729874088233
 30
0.0
 11
353.4935166729683
 21
462.1591027993293
 31
0.0
  0
LINE
  5
4B5
102
{ACAD_REACTORS
330
5B9
102
}
330
20
100
AcDbEntity
  8
STEMPEL
100
AcDbLine
 10
348.4343152247642
 20
462.3359829922073
 30
0.0
 11
349.5724403196829
 21
468.191129019948
 31
0.0
  0
LINE
  5
4B6
102
{ACAD_REACTORS
330
5B9
330
5EB
102
}
330
20
100
AcDbEntity
  8
STEMPEL
100
AcDbLine
 10
350.4343152247642
 20
462.1434048958121
 30
0.0
 11
351.5356946865783
 21
467.809511029195
 31
0.0
  0
LINE
  5
4B7
102
{ACAD_REACTORS
330
5EB
330
620
102
}
330
20
100
AcDbEntity
  8
STEMPEL
100
AcDbLine
 10
353.4935166729683
 20
462.1591027993293
 30
0.0
 11
354.4805762369212
 21
467.2370840430653
 31
0.0
  0
ARC
  5
4B8
102
{ACAD_REACTORS
330
620
102
}
330
20
100
AcDbEntity
  8
STEMPEL
100
AcDbCircle
 10
357.523393622737
 20
465.3894234128356
 30
0.0
 40
1.0
100
AcDbArc
 50
244.6020558641299
 51
299.0145945450109
  0
ARC
  5
4B9
102
{ACAD_REACTORS
330
620
102
}
330
20
100
AcDbEntity
  8
STEMPEL
100
AcDbCircle
 10
357.0383612325851
 20
466.2639195995075
 30
0.0
 40
2.0
100
AcDbArc
 50
299.0145945450109
 51
354.9999999999999
  0
ARC
  5
4BA
102
{ACAD_REACTORS
330
620
102
}
330
20
100
AcDbEntity
  8
STEMPEL
100
AcDbCircle
 10
363.9266755496777
 20
476.4173987051653
 30
0.0
 40
2.0
100
AcDbArc
 50
5.000000000000045
 51
90.0
  0
ARC
  5
4BB
102
{ACAD_REACTORS
330
620
102
}
330
20
100
AcDbEntity
  8
STEMPEL
100
AcDbCircle
 10
361.9419548998509
 20
476.4173987051653
 30
0.0
 40
2.0
100
AcDbArc
 50
90.0
 51
174.9999999999993
  0
LINE
  5
4BC
102
{ACAD_REACTORS
330
5C6
330
620
102
}
330
20
100
AcDbEntity
  8
STEMPEL
100
AcDbLine
 10
361.9343152247642
 20
476.4173987051651
 30
0.0
 11
363.9343152247642
 21
476.4173987051651
 31
0.0
  0
LINE
  5
4BD
330
20
100
AcDbEntity
  8
TEXT
 62
     2
100
AcDbLine
 10
598.7282032806184
 20
353.1939234685994
 30
0.0
 11
484.2392365109303
 21
454.8716632057631
 31
0.0
  0
LINE
  5
4BE
102
{ACAD_REACTORS
330
5B9
102
}
330
20
100
AcDbEntity
  8
STEMPEL
100
AcDbLine
 10
586.9343152247641
 20
475.3359829922073
 30
0.0
 11
500.1859532305314
 21
475.3359829922073
 31
0.0
  0
LINE
  5
4C0
102
{ACAD_REACTORS
330
594
330
629
102
}
330
20
100
AcDbEntity
  8
STEMPEL
100
AcDbLine
 10
473.5504625718528
 20
421.9468281133704
 30
0.0
 11
483.6878562859289
 21
440.4288457794695
 31
0.0
  0
LINE
  5
4C1
102
{ACAD_REACTORS
330
594
102
}
330
20
100
AcDbEntity
  8
STEMPEL
100
AcDbLine
 10
471.796921510688
 20
422.9086460518648
 30
0.0
 11
481.9343152247641
 21
441.3906637179639
 31
0.0
  0
ARC
  5
4C2
102
{ACAD_REACTORS
330
629
102
}
330
20
100
AcDbEntity
  8
SCHRAFF
100
AcDbCircle
 10
481.9343152247641
 20
441.3906637179639
 30
0.0
 40
4.0
100
AcDbArc
 50
271.2552149318452
 51
21.18033057658344
  0
ARC
  5
4C3
102
{ACAD_REACTORS
330
594
102
}
330
20
100
AcDbEntity
  8
STEMPEL
100
AcDbCircle
 10
477.9343152247644
 20
419.5422832671344
 30
0.0
 40
7.0
100
AcDbArc
 50
151.2552149318454
 51
180.0
  0
POINT
  5
4C4
330
20
100
AcDbEntity
  8
DEFPOINTS
  6
ByBlock
 62
     0
100
AcDbPoint
 10
468.0964983278978
 20
421.3359829922073
 30
0.0
  0
ARC
  5
4C5
102
{ACAD_REACTORS
330
594
102
}
330
20
100
AcDbEntity
  8
STEMPEL
100
AcDbCircle
 10
477.9343152247644
 20
419.5422832671344
 30
0.0
 40
5.0
100
AcDbArc
 50
151.2552149318453
 51
180.0
  0
ARC
  5
4C6
102
{ACAD_REACTORS
330
5B9
102
}
330
20
100
AcDbEntity
  8
STEMPEL
100
AcDbCircle
 10
500.1859532305314
 20
469.3359829922074
 30
0.0
 40
6.0
100
AcDbArc
 50
90.0
 51
191.0
  0
ARC
  5
4C7
102
{ACAD_REACTORS
330
5B9
330
5EB
102
}
330
20
100
AcDbEntity
  8
STEMPEL
100
AcDbCircle
 10
500.1859532305314
 20
469.3359829922074
 30
0.0
 40
8.0
100
AcDbArc
 50
90.0
 51
191.0000000000002
  0
ARC
  5
4C8
102
{ACAD_REACTORS
330
5EB
102
}
330
20
100
AcDbEntity
  8
STEMPEL
100
AcDbCircle
 10
500.1859532305314
 20
469.3359829922074
 30
0.0
 40
11.0
100
AcDbArc
 50
90.0
 51
191.0000000000005
  0
LINE
  5
4C9
102
{ACAD_REACTORS
330
5B9
102
}
330
20
100
AcDbEntity
  8
STEMPEL
100
AcDbLine
 10
495.4343152247641
 20
462.3359829922073
 30
0.0
 11
495.4343152247641
 21
458.3359829922073
 31
0.0
  0
LINE
  5
4CA
102
{ACAD_REACTORS
330
5B9
330
5EB
102
}
330
20
100
AcDbEntity
  8
STEMPEL
100
AcDbLine
 10
493.4343152247641
 20
462.1434048958121
 30
0.0
 11
493.4343152247641
 21
458.8718813770696
 31
0.0
  0
LINE
  5
4CB
102
{ACAD_REACTORS
330
620
102
}
330
20
100
AcDbEntity
  8
STEMPEL
100
AcDbLine
 10
472.2257314684342
 20
453.0701023498315
 30
0.0
 11
474.5676035922209
 21
466.3515191493326
 31
0.0
  0
LINE
  5
4CC
102
{ACAD_REACTORS
330
5C6
330
620
102
}
330
20
100
AcDbEntity
  8
STEMPEL
100
AcDbLine
 10
481.9343152247644
 20
453.4173987051653
 30
0.0
 11
481.9343152247644
 21
476.4173987051653
 31
0.0
  0
LINE
  5
4CD
102
{ACAD_REACTORS
330
5C6
330
620
102
}
330
20
100
AcDbEntity
  8
STEMPEL
100
AcDbLine
 10
479.9343152247644
 20
453.4173987051653
 30
0.0
 11
479.9343152247644
 21
476.4173987051653
 31
0.0
  0
LINE
  5
4CE
102
{ACAD_REACTORS
330
5EB
330
620
102
}
330
20
100
AcDbEntity
  8
STEMPEL
100
AcDbLine
 10
490.4755727929657
 20
459.7471891586846
 30
0.0
 11
483.9343152247641
 21
448.4173987051652
 31
0.0
  0
ARC
  5
4D0
102
{ACAD_REACTORS
330
620
102
}
330
20
100
AcDbEntity
  8
STEMPEL
100
AcDbCircle
 10
470.2561159624098
 20
453.4173987051653
 30
0.0
 40
2.0
100
AcDbArc
 50
270.0
 51
349.9999999999998
  0
LINE
  5
4D1
102
{ACAD_REACTORS
330
620
102
}
330
20
100
AcDbEntity
  8
STEMPEL
100
AcDbLine
 10
469.9343152247644
 20
449.4173987051652
 30
0.0
 11
469.9343152247644
 21
451.4173987051653
 31
0.0
  0
LINE
  5
4D2
102
{ACAD_REACTORS
330
5B9
330
5EB
102
}
330
20
100
AcDbEntity
  8
STEMPEL
100
AcDbLine
 10
493.4343152247641
 20
458.8718813770696
 30
0.0
 11
486.19671091773
 21
446.3359829922073
 31
0.0
  0
LINE
  5
4D3
102
{ACAD_REACTORS
330
5B9
102
}
330
20
100
AcDbEntity
  8
STEMPEL
100
AcDbLine
 10
495.4343152247641
 20
458.3359829922073
 30
0.0
 11
487.928761725299
 21
445.3359829922073
 31
0.0
  0
LINE
  5
4D4
102
{ACAD_REACTORS
330
5EB
102
}
330
20
100
AcDbEntity
  8
STEMPEL
100
AcDbLine
 10
479.4343152247641
 20
448.4173987051652
 30
0.0
 11
479.4343152247641
 21
445.4173987051651
 31
0.0
  0
LINE
  5
4D5
102
{ACAD_REACTORS
330
594
330
629
102
}
330
20
100
AcDbEntity
  8
STEMPEL
100
AcDbLine
 10
481.9343152247641
 20
441.3906637179639
 30
0.0
 11
483.6878562859289
 21
440.4288457794695
 31
0.0
  0
ARC
  5
4D6
102
{ACAD_REACTORS
330
5B9
330
5EB
102
}
330
20
100
AcDbEntity
  8
STEMPEL
100
AcDbCircle
 10
481.0005584950235
 20
449.3359829922073
 30
0.0
 40
6.0
100
AcDbArc
 50
270.0
 51
330.0000000000001
  0
ARC
  5
4D7
102
{ACAD_REACTORS
330
5B9
330
629
102
}
330
20
100
AcDbEntity
  8
STEMPEL
100
AcDbCircle
 10
481.0005584950235
 20
449.3359829922073
 30
0.0
 40
8.0
100
AcDbArc
 50
270.0
 51
330.0000000000001
  0
LINE
  5
4D8
102
{ACAD_REACTORS
330
5B9
102
}
330
20
100
AcDbEntity
  8
STEMPEL
100
AcDbLine
 10
479.4343152247641
 20
443.3359829922073
 30
0.0
 11
479.4343152247641
 21
441.3359829922073
 31
0.0
  0
LINE
  5
4D9
102
{ACAD_REACTORS
330
5C6
330
620
102
}
330
20
100
AcDbEntity
  8
STEMPEL
100
AcDbLine
 10
481.9343152247644
 20
453.4173987051653
 30
0.0
 11
479.9343152247644
 21
453.4173987051653
 31
0.0
  0
LINE
  5
4DA
102
{ACAD_REACTORS
330
620
102
}
330
20
100
AcDbEntity
  8
STEMPEL
100
AcDbLine
 10
476.4343152247646
 20
449.4173987051652
 30
0.0
 11
478.1663660323336
 21
448.4173987051652
 31
0.0
  0
LINE
  5
4DB
102
{ACAD_REACTORS
330
620
102
}
330
20
100
AcDbEntity
  8
STEMPEL
100
AcDbLine
 10
483.9190649458613
 20
476.5917101906606
 30
0.0
 11
484.8378798207601
 21
466.0896081140122
 31
0.0
  0
LINE
  5
4DC
102
{ACAD_REACTORS
330
620
102
}
330
20
100
AcDbEntity
  8
STEMPEL
100
AcDbLine
 10
477.9495655036675
 20
476.5917101906606
 30
0.0
 11
477.234405916557
 21
468.4173987051651
 31
0.0
  0
ARC
  5
4DD
102
{ACAD_REACTORS
330
620
102
}
330
20
100
AcDbEntity
  8
STEMPEL
100
AcDbCircle
 10
477.0296229747515
 20
465.9173987051652
 30
0.0
 40
2.5
100
AcDbArc
 50
90.0
 51
170.0000000000001
  0
LINE
  5
4DE
102
{ACAD_REACTORS
330
5B9
102
}
330
20
100
AcDbEntity
  8
STEMPEL
100
AcDbLine
 10
495.4343152247641
 20
462.3359829922073
 30
0.0
 11
494.2961901298454
 21
468.191129019948
 31
0.0
  0
LINE
  5
4DF
102
{ACAD_REACTORS
330
5B9
330
5EB
102
}
330
20
100
AcDbEntity
  8
STEMPEL
100
AcDbLine
 10
493.4343152247641
 20
462.1434048958121
 30
0.0
 11
492.33293576295
 21
467.809511029195
 31
0.0
  0
ARC
  5
4E0
102
{ACAD_REACTORS
330
5EB
330
620
102
}
330
20
100
AcDbEntity
  8
STEMPEL
100
AcDbCircle
 10
489.6095473891811
 20
460.2471891586847
 30
0.0
 40
1.0
100
AcDbArc
 50
329.9999999999995
 51
7.226856044883641
  0
LINE
  5
4E1
102
{ACAD_REACTORS
330
5EB
330
620
102
}
330
20
100
AcDbEntity
  8
STEMPEL
100
AcDbLine
 10
490.37511377656
 20
462.1591027993294
 30
0.0
 11
489.3880542126071
 21
467.2370840430653
 31
0.0
  0
LINE
  5
4E2
102
{ACAD_REACTORS
330
5EB
330
620
102
}
330
20
100
AcDbEntity
  8
STEMPEL
100
AcDbLine
 10
490.6016032345156
 20
460.3729874088234
 30
0.0
 11
490.37511377656
 21
462.1591027993294
 31
0.0
  0
ARC
  5
4E3
102
{ACAD_REACTORS
330
620
102
}
330
20
100
AcDbEntity
  8
STEMPEL
100
AcDbCircle
 10
487.8463963468373
 20
462.2276960217763
 30
0.0
 40
2.499999999999928
100
AcDbArc
 50
20.00751066586306
 51
115.3979441358685
  0
ARC
  5
4E4
102
{ACAD_REACTORS
330
620
102
}
330
20
100
AcDbEntity
  8
STEMPEL
100
AcDbCircle
 10
486.3452368267913
 20
465.3894234128356
 30
0.0
 40
1.0
100
AcDbArc
 50
240.9854054549876
 51
295.3979441358715
  0
ARC
  5
4E5
102
{ACAD_REACTORS
330
620
102
}
330
20
100
AcDbEntity
  8
STEMPEL
100
AcDbCircle
 10
486.8302692169432
 20
466.2639195995075
 30
0.0
 40
2.0
100
AcDbArc
 50
184.9999999999997
 51
240.9854054549876
  0
LINE
  5
4E6
330
20
100
AcDbEntity
  8
STEMPEL
100
AcDbLine
 10
487.8463963468373
 20
464.7276960217762
 30
0.0
 11
485.5496376855406
 21
464.7276960217762
 31
0.0
  0
ARC
  5
4E7
102
{ACAD_REACTORS
330
620
102
}
330
20
100
AcDbEntity
  8
STEMPEL
100
AcDbCircle
 10
481.9266755496779
 20
476.4173987051653
 30
0.0
 40
2.0
100
AcDbArc
 50
4.999999999999742
 51
90.00000000000161
  0
ARC
  5
4E8
102
{ACAD_REACTORS
330
620
102
}
330
20
100
AcDbEntity
  8
STEMPEL
100
AcDbCircle
 10
479.941954899851
 20
476.4173987051653
 30
0.0
 40
2.0
100
AcDbArc
 50
90.00000000000161
 51
175.0
  0
LINE
  5
4E9
102
{ACAD_REACTORS
330
5C6
330
620
102
}
330
20
100
AcDbEntity
  8
STEMPEL
100
AcDbLine
 10
481.9343152247644
 20
476.4173987051653
 30
0.0
 11
479.9343152247644
 21
476.4173987051653
 31
0.0
  0
LINE
  5
4EA
102
{ACAD_REACTORS
330
5B9
102
}
330
20
100
AcDbEntity
  8
STEMPEL
100
AcDbLine
 10
586.9343152247641
 20
477.3359829922073
 30
0.0
 11
586.9343152247641
 21
475.3359829922073
 31
0.0
  0
LINE
  5
4EB
330
20
100
AcDbEntity
  8
BEM
 62
     1
100
AcDbLine
 10
418.1458032955442
 20
513.6201840192301
 30
0.0
 11
418.1458032955442
 21
520.6201840192301
 31
0.0
  0
LINE
  5
4EC
330
20
100
AcDbEntity
  8
BEM
 62
     1
100
AcDbLine
 10
411.1458032955442
 20
520.6201840192301
 30
0.0
 11
411.1458032955442
 21
513.6201840192301
 31
0.0
  0
LINE
  5
4ED
330
20
100
AcDbEntity
  8
BEM
 62
     1
100
AcDbLine
 10
411.1458032955442
 20
513.6201840192301
 30
0.0
 11
418.1458032955442
 21
513.6201840192301
 31
0.0
  0
LINE
  5
4EE
330
20
100
AcDbEntity
  8
BEM
 62
     1
100
AcDbLine
 10
418.1458032955442
 20
520.6201840192301
 30
0.0
 11
411.1458032955442
 21
520.6201840192301
 31
0.0
  0
LINE
  5
4EF
330
20
100
AcDbEntity
  8
HILF
 62
     7
100
AcDbLine
 10
459.9999999999998
 20
584.0
 30
0.0
 11
459.9999999999998
 21
593.9999999999998
 31
0.0
  0
LINE
  5
4F1
330
20
100
AcDbEntity
  8
HILF
100
AcDbLine
 10
840.0
 20
-0.0000000000001137
 30
0.0
 11
839.9999999999998
 21
594.0
 31
0.0
  0
LINE
  5
4F2
330
20
100
AcDbEntity
  8
STEMPEL
100
AcDbLine
 10
830.0
 20
110.0
 30
0.0
 11
830.0
 21
584.0
 31
0.0
  0
LINE
  5
4F3
330
20
100
AcDbEntity
  8
STEMPEL
100
AcDbLine
 10
830.0
 20
110.0
 30
0.0
 11
830.0
 21
10.0
 31
0.0
  0
LINE
  5
4F4
330
20
100
AcDbEntity
  8
STEMPEL
100
AcDbLine
 10
650.0
 20
110.0
 30
0.0
 11
650.0
 21
9.999999999999971
 31
0.0
  0
LINE
  5
4F5
330
20
100
AcDbEntity
  8
HILF
100
AcDbLine
 10
653.4909699289885
 20
14.89398258028314
 30
0.0
 11
824.8588839326728
 21
14.89398258028314
 31
0.0
  0
TEXT
  5
4F6
330
20
100
AcDbEntity
  8
TEXT
100
AcDbText
 10
655.1296391125315
 20
51.64011943042158
 30
0.0
 40
5.0
  1
EDV-Art.Nr. 17204.100A
 41
0.8
  7
GREEKS
100
AcDbText
  0
LINE
  5
4F7
330
20
100
AcDbEntity
  8
HILF
100
AcDbLine
 10
654.7736801096947
 20
49.99999999999997
 30
0.0
 11
744.8353916556309
 21
49.99999999999997
 31
0.0
  0
LINE
  5
4F8
330
20
100
AcDbEntity
  8
HILF
100
AcDbLine
 10
654.7736801096947
 20
59.99999999999997
 30
0.0
 11
744.8353916556309
 21
59.99999999999997
 31
0.0
  0
TEXT
  5
4F9
330
20
100
AcDbEntity
  8
TEXT
100
AcDbText
 10
654.7422383911359
 20
30.84560570193057
 30
0.0
 40
5.0
  1
Bauvorhaben
 41
0.8
  7
GREEKS
100
AcDbText
  0
TEXT
  5
4FA
330
20
100
AcDbEntity
  8
TEXT
100
AcDbText
 10
654.9837501577826
 20
42.62974153022632
 30
0.0
 40
4.0
  1
17204100W.DWG
 41
0.8
  7
GREEKS
100
AcDbText
  0
TEXT
  5
4FB
330
20
100
AcDbEntity
  8
TEXT
100
AcDbText
 10
655.1296391125315
 20
71.50334417585288
 30
0.0
 40
5.0
  1
Etageneinsatzeinheit
 41
0.8
  7
GREEKS
100
AcDbText
  0
LINE
  5
4FC
330
20
100
AcDbEntity
  8
HILF
100
AcDbLine
 10
654.7736801096947
 20
69.99999999999994
 30
0.0
 11
744.8353916556309
 21
69.99999999999994
 31
0.0
  0
LINE
  5
4FD
330
20
100
AcDbEntity
  8
HILF
100
AcDbLine
 10
654.7736801096947
 20
84.03758247564139
 30
0.0
 11
744.835391655631
 21
84.03758247564139
 31
0.0
  0
TEXT
  5
4FE
330
20
100
AcDbEntity
  8
TEXT
 62
     1
100
AcDbText
 10
655.33119410276
 20
87.41748789253779
 30
0.0
 40
7.0
  1
Flachdachablauf DN100
 41
0.75
  7
GREEKS
100
AcDbText
  0
TEXT
  5
4FF
330
20
100
AcDbEntity
  8
TEXT
100
AcDbText
 10
654.8779403809009
 20
102.5489328011779
 30
0.0
 40
5.0
  1
Benennung
 41
0.8
  7
GREEKS
100
AcDbText
  0
LINE
  5
500
330
20
100
AcDbEntity
  8
STEMPEL
100
AcDbLine
 10
752.0
 20
109.9999999999997
 30
0.0
 11
752.0
 21
40.0
 31
0.0
  0
LINE
  5
501
330
20
100
AcDbEntity
  8
VOLL
100
AcDbLine
 10
752.0
 20
60.0
 30
0.0
 11
830.0
 21
60.0
 31
0.0
  0
TEXT
  5
502
330
20
100
AcDbEntity
  8
TEXT
100
AcDbText
 10
757.2400861497006
 20
52.07416177878602
 30
0.0
 40
5.0
  1
ersetzt durch:
 41
0.8
  7
GREEKS
100
AcDbText
  0
TEXT
  5
503
330
20
100
AcDbEntity
  8
TEXT
 62
     1
100
AcDbText
 10
767.3278501689793
 20
88.14901428913959
 30
0.0
 40
7.0
  1
17204100W
 41
0.8
  7
GREEKS
 72
     1
 11
790.2611835023127
 21
88.14901428913959
 31
0.0
100
AcDbText
  0
TEXT
  5
504
330
20
100
AcDbEntity
  8
TEXT
100
AcDbText
 10
756.178754957634
 20
102.3132034537136
 30
0.0
 40
5.0
  1
Zeichnungs Nr.
 41
0.8
  7
GREEKS
100
AcDbText
  0
LINE
  5
505
330
20
100
AcDbEntity
  8
HILF
100
AcDbLine
 10
756.7238616296992
 20
83.77983636955827
 30
0.0
 11
824.8588839326728
 21
83.77983636955827
 31
0.0
  0
TEXT
  5
506
330
20
100
AcDbEntity
  8
TEXT
100
AcDbText
 10
756.7238616296992
 20
73.1811823709997
 30
0.0
 40
5.0
  1
Ersatz für:
 41
0.8
  7
GREEKS
100
AcDbText
  0
TEXT
  5
507
330
20
100
AcDbEntity
  8
TEXT
 62
     1
100
AcDbText
 10
654.0964554802761
 20
426.5239269677088
 30
0.0
 40
7.0
  1
EDV-Art.Nr.17000.100A
 41
0.8
  7
GREEKS
100
AcDbText
  0
TEXT
  5
508
330
20
100
AcDbEntity
  8
TEXT
 62
     1
100
AcDbText
 10
654.8395004979026
 20
439.17047456585
 30
0.0
 40
7.0
  1
Anschlußmanschette DN100
 41
0.8
  7
GREEKS
100
AcDbText
  0
LINE
  5
509
330
20
100
AcDbEntity
  8
TEXT
 62
     2
100
AcDbLine
 10
654.0731074317831
 20
435.4475212660437
 30
0.0
 11
772.5239444425841
 21
435.4475212660437
 31
0.0
  0
LINE
  5
50A
102
{ACAD_REACTORS
330
5EB
102
}
330
20
100
AcDbEntity
  8
STEMPEL
100
AcDbLine
 10
671.9343152247642
 20
480.3359829922073
 30
0.0
 11
671.934315224764
 21
477.3359829922073
 31
0.0
  0
TEXT
  5
50B
330
20
100
AcDbEntity
  8
TEXT
100
AcDbText
 10
612.6864498441346
 20
89.32052494680121
 30
0.0
 40
4.0
  1
DIN EN1123-2
 41
0.8
  7
GREEKS
100
AcDbText
  0
TEXT
  5
546
330
20
100
AcDbEntity
  8
BEM
100
AcDbText
 10
836.5811541437437
 20
12.14804815338303
 30
0.0
 40
4.0
  1
Diese Zeichnung ist urheberrechtlich geschützt und bleibt unser Eigentum. Sie darf weder ganz noch teilweise vervielfältigt und nicht an Dritte weitergegeben werden.
 50
90.0
 41
0.8
  7
GREEKS
100
AcDbText
  0
TEXT
  5
547
330
20
100
AcDbEntity
  8
TEXT
 62
     1
100
AcDbText
 10
412.4096351467964
 20
359.7243397086418
 30
0.0
 40
7.0
  1
DN100
 50
90.0
 41
0.8
  7
GREEKS
100
AcDbText
  0
HATCH
  5
594
330
20
100
AcDbEntity
  8
SCHRAFF
100
AcDbHatch
 10
0.0
 20
0.0
 30
0.0
210
0.0
220
0.0
230
1.0
  2
_USER
 70
     0
 71
     1
 91
        2
 92
        7
 72
     1
 73
     1
 93
       10
 10
472.9343152247643
 20
419.5422832671344
 42
-0.1260846204227935
 10
473.5504625718528
 20
421.9468281133704
 42
0.0
 10
483.6878562859289
 20
440.4288457794694
 42
0.0
 10
481.9343152247642
 20
441.390663717964
 42
0.0
 10
471.796921510688
 20
422.9086460518648
 42
0.1260846204227847
 10
470.9343152247644
 20
419.5422832671346
 42
0.0
 10
470.9343152247644
 20
222.4233048780256
 42
0.0
 10
469.6143455967886
 20
207.3359829922074
 42
0.0
 10
471.6219852718752
 20
207.3359829922074
 42
0.0
 10
472.9343152247644
 20
222.3359829922078
 42
0.0
 97
       10
330
4C5
330
4C0
330
4D5
330
4C1
330
4C3
330
450
330
481
330
47A
330
482
330
451
 92
        7
 72
     1
 73
     1
 93
       10
 10
372.9343152247644
 20
419.5422832671341
 42
0.1260846204227955
 10
372.0717089388405
 20
422.9086460518645
 42
0.0
 10
361.9343152247643
 20
441.3906637179639
 42
0.0
 10
360.1807741635995
 20
440.4288457794696
 42
0.0
 10
370.3181678776758
 20
421.9468281133701
 42
-0.1260846204228109
 10
370.9343152247644
 20
419.5422832671338
 42
0.0
 10
370.9343152247644
 20
222.3359829922077
 42
0.0
 10
372.2466451776532
 20
207.3359829922073
 42
0.0
 10
374.2542848527397
 20
207.3359829922073
 42
0.0
 10
372.9343152247642
 20
222.4233048780245
 42
0.0
 97
       10
330
49A
330
499
330
4A8
330
498
330
49B
330
454
330
47D
330
47A
330
47E
330
455
 75
     0
 76
     0
 52
45.0
 41
2.0
 77
     0
 78
     1
 53
45.0
 43
0.0
 44
0.0
 45
-1.414213562373094
 46
1.414213562373095
 79
     0
 47
0.5850756956012006
 98
        2
 10
471.5526108979747
 20
355.6557780707078
 10
371.4442641369342
 20
357.9960804223792
  0
HATCH
  5
5B9
330
20
100
AcDbEntity
  8
SCHRAFF
100
AcDbHatch
 10
0.0
 20
0.0
 30
0.0
210
0.0
220
0.0
230
1.0
  2
_USER
 70
     0
 71
     1
 91
        2
 92
        7
 72
     1
 73
     1
 93
       16
 10
586.934315224764
 20
477.3359829922072
 42
0.0
 10
500.1859532305314
 20
477.3359829922073
 42
0.4716306187712197
 10
492.33293576295
 20
467.809511029195
 42
0.0
 10
493.4343152247641
 20
462.1434048958121
 42
0.0
 10
493.4343152247642
 20
458.8718813770698
 42
0.0
 10
486.19671091773
 20
446.3359829922073
 42
-0.2679491924311214
 10
481.0005584950235
 20
443.3359829922074
 42
0.0
 10
479.4343152247641
 20
443.3359829922074
 42
0.0
 10
479.434315224764
 20
441.3359829922073
 42
0.0
 10
481.0005584950235
 20
441.3359829922073
 42
0.2679491924311218
 10
487.928761725299
 20
445.3359829922073
 42
0.0
 10
495.434315224764
 20
458.3359829922073
 42
0.0
 10
495.4343152247639
 20
462.3359829922072
 42
0.0
 10
494.2961901298454
 20
468.191129019948
 42
-0.4716306187712213
 10
500.1859532305314
 20
475.3359829922073
 42
0.0
 10
586.9343152247641
 20
475.3359829922073
 42
0.0
 97
       16
330
43C
330
4C7
330
4DF
330
4CA
330
4D2
330
4D6
330
488
330
4D8
330
489
330
4D7
330
4D3
330
4C9
330
4DE
330
4C6
330
4BE
330
4EA
 92
        7
 72
     1
 73
     1
 93
       16
 10
343.6826772189969
 20
477.3359829922073
 42
0.0
 10
256.9343152247642
 20
477.3359829922072
 42
0.0
 10
256.9343152247642
 20
475.3359829922072
 42
0.0
 10
343.6826772189969
 20
475.3359829922073
 42
-0.4716306187712241
 10
349.5724403196829
 20
468.191129019948
 42
0.0
 10
348.4343152247642
 20
462.3359829922074
 42
0.0
 10
348.4343152247642
 20
458.3359829922073
 42
0.0
 10
355.9398687242293
 20
445.3359829922073
 42
0.2679491924311229
 10
362.8680719545049
 20
441.3359829922073
 42
0.0
 10
364.4343152247642
 20
441.3359829922073
 42
0.0
 10
364.4343152247643
 20
443.3359829922073
 42
0.0
 10
362.8680719545048
 20
443.3359829922073
 42
-0.2679491924311228
 10
357.6719195317981
 20
446.3359829922073
 42
0.0
 10
350.4343152247642
 20
458.8718813770696
 42
0.0
 10
350.4343152247642
 20
462.1434048958122
 42
0.0
 10
351.5356946865783
 20
467.809511029195
 42
0.4716306187712197
 97
       16
330
483
330
496
330
495
330
491
330
4B5
330
49F
330
4A4
330
4A6
330
489
330
4A7
330
488
330
4A9
330
4A5
330
4A0
330
4B6
330
492
 75
     0
 76
     0
 52
135.0
 41
2.0
 77
     0
 78
     1
 53
135.0
 43
0.0
 44
0.0
 45
-1.414213562373095
 46
-1.414213562373094
 79
     0
 47
0.5850756956012006
 98
        2
 10
530.09550510386
 20
476.181372277083
 10
327.5370941373021
 20
476.766447515072
  0
HATCH
  5
5C6
330
20
100
AcDbEntity
  8
SCHRAFF
100
AcDbHatch
 10
0.0
 20
0.0
 30
0.0
210
0.0
220
0.0
230
1.0
  2
_USER
 70
     0
 71
     1
 91
        2
 92
        7
 72
     0
 73
     1
 93
        4
 10
481.9343152247644
 20
476.4173987051653
 10
479.9343152247644
 20
476.4173987051653
 10
479.9343152247644
 20
453.4173987051654
 10
481.9343152247644
 20
453.4173987051654
 97
        4
330
4E9
330
4CD
330
4D9
330
4CC
 92
        7
 72
     0
 73
     1
 93
        4
 10
363.9343152247642
 20
476.417398705165
 10
361.9343152247642
 20
476.4173987051651
 10
361.9343152247642
 20
453.4173987051652
 10
363.9343152247642
 20
453.4173987051652
 97
        4
330
4BC
330
49D
330
4AB
330
49E
 75
     0
 76
     0
 52
45.0
 41
2.0
 77
     0
 78
     1
 53
45.0
 43
0.0
 44
0.0
 45
-1.414213562373094
 46
1.414213562373095
 79
     0
 47
0.5850756956012006
 98
        2
 10
480.9194754376276
 20
462.7246306056135
 10
363.2482596290834
 20
463.3097072433177
  0
HATCH
  5
5EB
330
20
100
AcDbEntity
  8
SCHRAFF
100
AcDbHatch
 10
0.0
 20
0.0
 30
0.0
210
0.0
220
0.0
230
1.0
  2
NET
 70
     0
 71
     1
 91
        2
 92
        7
 72
     1
 73
     1
 93
       16
 10
671.9343152247642
 20
480.3359829922073
 42
0.0
 10
500.1859532305314
 20
480.3359829922073
 42
0.4716306187712184
 10
489.3880542126071
 20
467.2370840430653
 42
0.0
 10
490.3751137765602
 20
462.1591027993282
 42
0.0
 10
490.6016032345156
 20
460.3729874088234
 42
-0.1638766063561482
 10
490.4755727929658
 20
459.7471891586847
 42
0.0
 10
483.934315224764
 20
448.4173987051652
 42
0.0
 10
479.4343152247641
 20
448.4173987051652
 42
0.0
 10
479.434315224764
 20
445.4173987051651
 42
0.0
 10
485.5442020973922
 20
445.4173987051651
 42
0.0470518403705428
 10
486.19671091773
 20
446.3359829922073
 42
0.0
 10
493.4343152247642
 20
458.8718813770696
 42
0.0
 10
493.4343152247642
 20
462.143404895812
 42
0.0
 10
492.33293576295
 20
467.809511029195
 42
-0.4716306187712175
 10
500.1859532305313
 20
477.3359829922073
 42
0.0
 10
671.9343152247639
 20
477.3359829922072
 42
0.0
 97
       16
330
44F
330
4C8
330
4E1
330
4E2
330
4E0
330
4CE
330
48D
330
4D4
330
48A
330
4D6
330
4D2
330
4CA
330
4DF
330
4C7
330
43C
330
50A
 92
        7
 72
     1
 73
     1
 93
       16
 10
343.6826772189968
 20
480.3359829922073
 42
0.0
 10
171.9343152247642
 20
480.3359829922073
 42
0.0
 10
171.9343152247642
 20
477.3359829922073
 42
0.0
 10
343.6826772189969
 20
477.3359829922073
 42
-0.4716306187712197
 10
351.5356946865783
 20
467.809511029195
 42
0.0
 10
350.4343152247642
 20
462.1434048958118
 42
0.0
 10
350.4343152247642
 20
458.8718813770697
 42
0.0
 10
357.6719195317981
 20
446.3359829922073
 42
0.0470518403705461
 10
358.3244283521361
 20
445.4173987051651
 42
0.0
 10
364.4343152247641
 20
445.4173987051651
 42
0.0
 10
364.4343152247643
 20
448.4173987051651
 42
0.0
 10
359.9343152247642
 20
448.4173987051652
 42
0.0
 10
353.3930576565627
 20
459.7471891586847
 42
-0.1638766063561368
 10
353.2670272150128
 20
460.3729874088233
 42
0.0
 10
353.4935166729682
 20
462.1591027993292
 42
0.0
 10
354.4805762369212
 20
467.2370840430653
 42
0.4716306187712235
 97
       16
330
44F
330
484
330
483
330
492
330
4B6
330
4A0
330
4A5
330
4A9
330
48A
330
4A3
330
48D
330
4A1
330
4B3
330
4B4
330
4B7
330
494
 75
     0
 76
     1
 52
45.0
 41
10.0
 77
     0
 78
     2
 53
45.0
 43
0.0
 44
0.0
 45
-0.8838834764831842
 46
0.8838834764831844
 79
     0
 53
135.0
 43
0.0
 44
0.0
 45
-0.8838834764831844
 46
-0.8838834764831842
 79
     0
 47
0.5850756956012006
 98
        2
 10
567.5629580242175
 20
478.5216746287544
 10
321.6828044548006
 20
479.1067512664583
  0
HATCH
  5
620
330
20
100
AcDbEntity
  8
SCHRAFF
100
AcDbHatch
 10
0.0
 20
0.0
 30
0.0
210
0.0
220
0.0
230
1.0
  2
NET
 70
     0
 71
     1
 91
        4
 92
        7
 72
     1
 73
     1
 93
       20
 10
490.4755727929657
 20
459.7471891586846
 42
0.1638766063561241
 10
490.6016032345156
 20
460.3729874088231
 42
0.0
 10
490.3751137765598
 20
462.1591027993292
 42
0.0
 10
490.1955157936106
 20
463.0830543237708
 42
0.4420454759426242
 10
486.7741395468045
 20
464.4860727296758
 42
-0.2419833741269338
 10
485.8602044366395
 20
464.5149272261638
 42
-0.2492603645242922
 10
484.8378798207601
 20
466.0896081140122
 42
0.0
 10
483.9190649458613
 20
476.5917101906606
 42
0.3888787318534325
 10
481.9266755496778
 20
478.4173987051687
 42
0.0
 10
479.941954899851
 20
478.4173987051686
 42
0.3888787318529492
 10
477.9495655036678
 20
476.591710190664
 42
0.0
 10
477.2336761338666
 20
468.4090572508442
 42
0.3872810292961139
 10
474.5676035922209
 20
466.3515191493326
 42
0.0
 10
472.2257314684342
 20
453.0701023498315
 42
-0.3639702342662082
 10
470.2561159624098
 20
451.4173987051653
 42
0.0
 10
469.9343152247644
 20
451.4173987051653
 42
0.0
 10
469.9343152247643
 20
449.4173987051652
 42
0.0
 10
476.4343152247646
 20
449.4173987051652
 42
0.0
 10
478.1663660323336
 20
448.4173987051651
 42
0.0
 10
483.9343152247642
 20
448.4173987051652
 42
0.0
 97
       20
330
4E0
330
4E2
330
4E1
330
4E3
330
4E4
330
4E5
330
4DB
330
4E7
330
48F
330
4E8
330
4DC
330
4DD
330
4CB
330
4D0
330
48B
330
4D1
330
48C
330
4DA
330
48D
330
4CE
 92
       22
 72
     0
 73
     1
 93
        4
 10
479.9343152247645
 20
476.4173987051653
 10
481.9343152247644
 20
476.4173987051653
 10
481.9343152247644
 20
453.4173987051654
 10
479.9343152247644
 20
453.4173987051653
 97
        4
330
4E9
330
4CC
330
4D9
330
4CD
 92
        7
 72
     1
 73
     1
 93
       20
 10
369.3010268573079
 20
466.3515191493324
 42
0.3872810292960991
 10
366.6349543156623
 20
468.4090572508441
 42
0.0
 10
365.9190649458611
 20
476.5917101906606
 42
0.3888787318530051
 10
363.9266755496775
 20
478.4173987051653
 42
0.0
 10
361.9419548998509
 20
478.4173987051653
 42
0.3888787318530103
 10
359.9495655036673
 20
476.5917101906606
 42
0.0
 10
359.0307506287685
 20
466.0896081140122
 42
-0.2492603645243043
 10
358.0084260128889
 20
464.5149272261639
 42
-0.2419833741269378
 10
357.0944909027239
 20
464.4860727296758
 42
0.4420454759427193
 10
353.6731146559174
 20
463.0830543237701
 42
0.0
 10
353.4935166729683
 20
462.1591027993289
 42
0.0
 10
353.2670272150128
 20
460.3729874088233
 42
0.1638766063561187
 10
353.3930576565627
 20
459.7471891586848
 42
0.0
 10
359.9343152247641
 20
448.417398705165
 42
0.0
 10
365.7022644171949
 20
448.4173987051651
 42
0.0
 10
367.4343152247642
 20
449.4173987051651
 42
0.0
 10
373.9343152247642
 20
449.4173987051652
 42
0.0
 10
373.9343152247641
 20
451.4173987051653
 42
0.0
 10
373.6125144871188
 20
451.4173987051653
 42
-0.3639702342662118
 10
371.6428989810944
 20
453.0701023498314
 42
0.0
 97
       20
330
4AE
330
4AF
330
4BA
330
48F
330
4BB
330
4B0
330
4B9
330
4B8
330
4B2
330
4B7
330
4B4
330
4B3
330
4A1
330
48D
330
4AA
330
48C
330
4AD
330
48B
330
4AC
330
49C
 92
       22
 72
     0
 73
     1
 93
        4
 10
363.9343152247642
 20
453.4173987051651
 10
361.9343152247642
 20
453.4173987051652
 10
361.9343152247642
 20
476.4173987051651
 10
363.9343152247642
 20
476.4173987051651
 97
        4
330
4AB
330
49D
330
4BC
330
49E
 75
     0
 76
     1
 52
45.0
 41
20.0
 77
     0
 78
     2
 53
45.0
 43
0.0
 44
0.0
 45
-1.767766952966368
 46
1.767766952966368
 79
     0
 53
135.0
 43
0.0
 44
0.0
 45
-1.767766952966368
 46
-1.767766952966368
 79
     0
 47
0.5850756956012006
 98
        4
 10
475.6506157710277
 20
456.8738740265776
 10
475.6506157710277
 20
456.8738740265776
 10
366.1754044703339
 20
455.7037221508844
 10
366.1754044703339
 20
455.7037221508844
  0
HATCH
  5
629
330
20
100
AcDbEntity
  8
SCHRAFF
100
AcDbHatch
 10
0.0
 20
0.0
 30
0.0
210
0.0
220
0.0
230
1.0
  2
NET
 70
     0
 71
     1
 91
        2
 92
        7
 72
     1
 73
     1
 93
        4
 10
485.6641067872273
 20
442.8358816602061
 42
-0.1270166537925827
 10
481.9343152247642
 20
441.3906637179638
 42
0.0
 10
483.6878562859289
 20
440.4288457794695
 42
0.0
 10
482.0219387488254
 20
437.3916235683741
 42
0.5201518319756228
 97
        4
330
4D7
330
4D5
330
4C0
330
4C2
 92
        7
 72
     1
 73
     1
 93
        4
 10
358.204523662301
 20
442.8358816602061
 42
0.5201518319756277
 10
361.846691700703
 20
437.3916235683741
 42
0.0
 10
360.1807741635994
 20
440.4288457794696
 42
0.0
 10
361.9343152247641
 20
441.3906637179638
 42
-0.127016653792581
 97
        4
330
497
330
498
330
4A8
330
4A6
 75
     0
 76
     1
 52
0.0
 41
0.1
 77
     0
 78
     2
 53
0.0
 43
0.0
 44
0.0
 45
0.0
 46
0.0125
 79
     0
 53
90.0
 43
0.0
 44
0.0
 45
-0.0125
 46
0.0
 79
     0
 47
0.2021422294445335
 98
        2
 10
484.8877339686023
 20
441.4638525787227
 10
358.8770902259039
 20
442.070279068112
  0
ENDSEC
  0
SECTION
  2
OBJECTS
  0
DICTIONARY
  5
C
330
0
100
AcDbDictionary
281
     1
  3
ACAD_COLOR
350
1B
  3
ACAD_GROUP
350
D
  3
ACAD_LAYOUT
350
19
  3
ACAD_MATERIAL
350
1A
  3
ACAD_MLINESTYLE
350
16
  3
ACAD_PLOTSETTINGS
350
18
  3
ACAD_PLOTSTYLENAME
350
E
  3
AcDbVariableDictionary
350
55C
  0
DICTIONARY
  5
1B
102
{ACAD_REACTORS
330
C
102
}
330
C
100
AcDbDictionary
281
     1
  0
DICTIONARY
  5
D
102
{ACAD_REACTORS
330
C
102
}
330
C
100
AcDbDictionary
281
     1
  0
DICTIONARY
  5
19
102
{ACAD_REACTORS
330
C
102
}
330
C
100
AcDbDictionary
281
     1
  3
Layout1
350
1F
  3
Model
350
23
  0
DICTIONARY
  5
1A
102
{ACAD_REACTORS
330
C
102
}
330
C
100
AcDbDictionary
281
     1
  0
DICTIONARY
  5
16
102
{ACAD_REACTORS
330
C
102
}
330
C
100
AcDbDictionary
281
     1
  3
Standard
350
17
  0
DICTIONARY
  5
18
102
{ACAD_REACTORS
330
C
102
}
330
C
100
AcDbDictionary
281
     1
  0
ACDBDICTIONARYWDFLT
  5
E
102
{ACAD_REACTORS
330
C
102
}
330
C
100
AcDbDictionary
281
     1
  3
Normal
350
F
100
AcDbDictionaryWithDefault
340
F
  0
DICTIONARY
  5
55C
102
{ACAD_REACTORS
330
C
102
}
330
C
100
AcDbDictionary
281
     1
  3
DIMASSOC
350
55E
  3
HIDETEXT
350
55D
  3
PROJECTNAME
350
55F
  0
LAYOUT
  5
1F
102
{ACAD_REACTORS
330
19
102
}
330
19
100
AcDbPlotSettings
  1

  2
RICOH Aficio 2027 PCL 6
  4

  6

 40
0.0
 41
0.0
 42
0.0
 43
0.0
 44
0.0
 45
0.0
 46
0.0
 47
0.0
 48
0.0
 49
0.0
140
0.0
141
0.0
142
1.0
143
1.0
 70
   688
 72
     0
 73
     0
 74
     5
  7
monochrome1.ctb
 75
    16
147
1.0
 76
     0
 77
     2
 78
   300
148
0.0
149
0.0
100
AcDbLayout
  1
Layout1
 70
     0
 71
     1
 10
0.0
 20
0.0
 11
12.0
 21
9.0
 12
0.0
 22
0.0
 32
0.0
 14
1.000000000000000E+20
 24
1.000000000000000E+20
 34
1.000000000000000E+20
 15
-1.000000000000000E+20
 25
-1.000000000000000E+20
 35
-1.000000000000000E+20
146
0.0
 13
0.0
 23
0.0
 33
0.0
 16
1.0
 26
0.0
 36
0.0
 17
0.0
 27
1.0
 37
0.0
 76
     0
330
1C
  0
LAYOUT
  5
23
102
{ACAD_REACTORS
330
19
102
}
330
19
100
AcDbPlotSettings
  1

  2
RICOH Aficio 2027 PCL 6
  4
A4
  6

 40
5.027083396911621
 41
5.027085304260253
 42
5.027084350585937
 43
5.027069091796875
 44
209.9733276367187
 45
296.9259948730469
 46
0.0
 47
0.0
 48
0.0
 49
0.0
140
0.0
141
0.0
142
1.0
143
1.0
 70
 11952
 72
     0
 73
     1
 74
     0
  7
monochrome1.ctb
 75
     0
147
1.0
 76
     0
 77
     2
 78
   300
148
-3033.569169194215
149
90.63084535397159
100
AcDbLayout
  1
Model
 70
     1
 71
     0
 10
0.0
 20
0.0
 11
12.0
 21
9.0
 12
0.0
 22
0.0
 32
0.0
 14
0.0
 24
0.0
 34
0.0
 15
0.0
 25
0.0
 35
0.0
146
0.0
 13
0.0
 23
0.0
 33
0.0
 16
1.0
 26
0.0
 36
0.0
 17
0.0
 27
1.0
 37
0.0
 76
     0
330
20
  0
MLINESTYLE
  5
17
102
{ACAD_REACTORS
330
16
102
}
330
16
100
AcDbMlineStyle
  2
STANDARD
 70
     0
  3

 62
   256
 51
90.0
 52
90.0
 71
     2
 49
0.5
 62
   256
  6
BYLAYER
 49
-0.5
 62
   256
  6
BYLAYER
  0
ACDBPLACEHOLDER
  5
F
102
{ACAD_REACTORS
330
E
102
}
330
E
  0
DICTIONARYVAR
  5
55E
102
{ACAD_REACTORS
330
55C
102
}
330
55C
100
DictionaryVariables
280
     0
  1
2
  0
DICTIONARYVAR
  5
55D
102
{ACAD_REACTORS
330
55C
102
}
330
55C
100
DictionaryVariables
280
     0
  1
1
  0
DICTIONARYVAR
  5
55F
102
{ACAD_REACTORS
330
55C
102
}
330
55C
100
DictionaryVariables
280
     0
  1

  0
ENDSEC
  0
EOF
