  0
SECTION
  2
HEADER
  9
$ACADVER
  1
AC1018
  9
$ACADMAINTVER
 70
     2
  9
$DWGCODEPAGE
  3
ANSI_1252
  9
$INSBASE
 10
0.0
 20
0.0
 30
0.0
  9
$EXTMIN
 10
-0.0000000000001137
 20
-0.0000000000001137
 30
0.0
  9
$EXTMAX
 10
420.0
 20
594.0000000000002
 30
0.0
  9
$LIMMIN
 10
0.0
 20
0.0
  9
$LIMMAX
 10
419.9999999999999
 20
594.0
  9
$ORTHOMODE
 70
     1
  9
$REGENMODE
 70
     1
  9
$FILLMODE
 70
     1
  9
$QTEXTMODE
 70
     0
  9
$MIRRTEXT
 70
     1
  9
$LTSCALE
 40
20.0
  9
$ATTMODE
 70
     1
  9
$TEXTSIZE
 40
3.5
  9
$TRACEWID
 40
0.5
  9
$TEXTSTYLE
  7
STANDARD
  9
$CLAYER
  8
VOLL
  9
$CELTYPE
  6
ByLayer
  9
$CECOLOR
 62
   256
  9
$CELTSCALE
 40
1.0
  9
$DISPSILH
 70
     0
  9
$DIMSCALE
 40
2.0
  9
$DIMASZ
 40
3.5
  9
$DIMEXO
 40
1.0
  9
$DIMDLI
 40
7.0
  9
$DIMRND
 40
0.0
  9
$DIMDLE
 40
0.0
  9
$DIMEXE
 40
1.0
  9
$DIMTP
 40
0.0
  9
$DIMTM
 40
0.0
  9
$DIMTXT
 40
3.5
  9
$DIMCEN
 40
1.5
  9
$DIMTSZ
 40
0.0
  9
$DIMTOL
 70
     0
  9
$DIMLIM
 70
     0
  9
$DIMTIH
 70
     0
  9
$DIMTOH
 70
     0
  9
$DIMSE1
 70
     0
  9
$DIMSE2
 70
     0
  9
$DIMTAD
 70
     1
  9
$DIMZIN
 70
     8
  9
$DIMBLK
  1

  9
$DIMASO
 70
     1
  9
$DIMSHO
 70
     0
  9
$DIMPOST
  1

  9
$DIMAPOST
  1

  9
$DIMALT
 70
     0
  9
$DIMALTD
 70
     2
  9
$DIMALTF
 40
25.4
  9
$DIMLFAC
 40
1.0
  9
$DIMTOFL
 70
     1
  9
$DIMTVP
 40
0.0
  9
$DIMTIX
 70
     0
  9
$DIMSOXD
 70
     0
  9
$DIMSAH
 70
     0
  9
$DIMBLK1
  1

  9
$DIMBLK2
  1

  9
$DIMSTYLE
  2
Standard
  9
$DIMCLRD
 70
     0
  9
$DIMCLRE
 70
     0
  9
$DIMCLRT
 70
     1
  9
$DIMTFAC
 40
0.5
  9
$DIMGAP
 40
1.5
  9
$DIMJUST
 70
     0
  9
$DIMSD1
 70
     0
  9
$DIMSD2
 70
     0
  9
$DIMTOLJ
 70
     1
  9
$DIMTZIN
 70
     8
  9
$DIMALTZ
 70
     8
  9
$DIMALTTZ
 70
     8
  9
$DIMUPT
 70
     0
  9
$DIMDEC
 70
     2
  9
$DIMTDEC
 70
     2
  9
$DIMALTU
 70
     2
  9
$DIMALTTD
 70
     2
  9
$DIMTXSTY
  7
STANDARD
  9
$DIMAUNIT
 70
     0
  9
$DIMADEC
 70
     2
  9
$DIMALTRND
 40
0.0
  9
$DIMAZIN
 70
     2
  9
$DIMDSEP
 70
    46
  9
$DIMATFIT
 70
     3
  9
$DIMFRAC
 70
     0
  9
$DIMLDRBLK
  1

  9
$DIMLUNIT
 70
     2
  9
$DIMLWD
 70
    -2
  9
$DIMLWE
 70
    -2
  9
$DIMTMOVE
 70
     0
  9
$LUNITS
 70
     2
  9
$LUPREC
 70
     2
  9
$SKETCHINC
 40
1.0
  9
$FILLETRAD
 40
3.0
  9
$AUNITS
 70
     0
  9
$AUPREC
 70
     0
  9
$MENU
  1
ACAD
  9
$ELEVATION
 40
0.0
  9
$PELEVATION
 40
0.0
  9
$THICKNESS
 40
0.0
  9
$LIMCHECK
 70
     0
  9
$CHAMFERA
 40
0.0
  9
$CHAMFERB
 40
0.0
  9
$CHAMFERC
 40
0.0
  9
$CHAMFERD
 40
0.0
  9
$SKPOLY
 70
     0
  9
$TDCREATE
 40
2455397.823042361
  9
$TDUCREATE
 40
2455397.781375695
  9
$TDUPDATE
 40
2455554.514091829
  9
$TDUUPDATE
 40
2455554.472425162
  9
$TDINDWG
 40
0.0875858449
  9
$TDUSRTIMER
 40
0.0875858449
  9
$USRTIMER
 70
     1
  9
$ANGBASE
 50
0.0
  9
$ANGDIR
 70
     0
  9
$PDMODE
 70
     0
  9
$PDSIZE
 40
0.0
  9
$PLINEWID
 40
0.0
  9
$SPLFRAME
 70
     0
  9
$SPLINETYPE
 70
     6
  9
$SPLINESEGS
 70
     8
  9
$HANDSEED
  5
F24
  9
$SURFTAB1
 70
     6
  9
$SURFTAB2
 70
     6
  9
$SURFTYPE
 70
     6
  9
$SURFU
 70
     6
  9
$SURFV
 70
     6
  9
$UCSBASE
  2

  9
$UCSNAME
  2

  9
$UCSORG
 10
0.0
 20
0.0
 30
0.0
  9
$UCSXDIR
 10
1.0
 20
0.0
 30
0.0
  9
$UCSYDIR
 10
0.0
 20
1.0
 30
0.0
  9
$UCSORTHOREF
  2

  9
$UCSORTHOVIEW
 70
     0
  9
$UCSORGTOP
 10
0.0
 20
0.0
 30
0.0
  9
$UCSORGBOTTOM
 10
0.0
 20
0.0
 30
0.0
  9
$UCSORGLEFT
 10
0.0
 20
0.0
 30
0.0
  9
$UCSORGRIGHT
 10
0.0
 20
0.0
 30
0.0
  9
$UCSORGFRONT
 10
0.0
 20
0.0
 30
0.0
  9
$UCSORGBACK
 10
0.0
 20
0.0
 30
0.0
  9
$PUCSBASE
  2

  9
$PUCSNAME
  2

  9
$PUCSORG
 10
0.0
 20
0.0
 30
0.0
  9
$PUCSXDIR
 10
1.0
 20
0.0
 30
0.0
  9
$PUCSYDIR
 10
0.0
 20
1.0
 30
0.0
  9
$PUCSORTHOREF
  2

  9
$PUCSORTHOVIEW
 70
     0
  9
$PUCSORGTOP
 10
0.0
 20
0.0
 30
0.0
  9
$PUCSORGBOTTOM
 10
0.0
 20
0.0
 30
0.0
  9
$PUCSORGLEFT
 10
0.0
 20
0.0
 30
0.0
  9
$PUCSORGRIGHT
 10
0.0
 20
0.0
 30
0.0
  9
$PUCSORGFRONT
 10
0.0
 20
0.0
 30
0.0
  9
$PUCSORGBACK
 10
0.0
 20
0.0
 30
0.0
  9
$USERI1
 70
     0
  9
$USERI2
 70
     0
  9
$USERI3
 70
     0
  9
$USERI4
 70
     0
  9
$USERI5
 70
     0
  9
$USERR1
 40
0.0
  9
$USERR2
 40
0.0
  9
$USERR3
 40
0.0
  9
$USERR4
 40
0.0
  9
$USERR5
 40
0.0
  9
$WORLDVIEW
 70
     1
  9
$SHADEDGE
 70
     3
  9
$SHADEDIF
 70
    70
  9
$TILEMODE
 70
     1
  9
$MAXACTVP
 70
    16
  9
$PINSBASE
 10
0.0
 20
0.0
 30
0.0
  9
$PLIMCHECK
 70
     0
  9
$PEXTMIN
 10
1.000000000000000E+20
 20
1.000000000000000E+20
 30
1.000000000000000E+20
  9
$PEXTMAX
 10
-1.000000000000000E+20
 20
-1.000000000000000E+20
 30
-1.000000000000000E+20
  9
$PLIMMIN
 10
0.0
 20
0.0
  9
$PLIMMAX
 10
12.0
 20
9.0
  9
$UNITMODE
 70
     0
  9
$VISRETAIN
 70
     0
  9
$PLINEGEN
 70
     0
  9
$PSLTSCALE
 70
     0
  9
$TREEDEPTH
 70
  3020
  9
$CMLSTYLE
  2
Standard
  9
$CMLJUST
 70
     0
  9
$CMLSCALE
 40
1.0
  9
$PROXYGRAPHICS
 70
     1
  9
$MEASUREMENT
 70
     0
  9
$CELWEIGHT
370
    -1
  9
$ENDCAPS
280
     0
  9
$JOINSTYLE
280
     0
  9
$LWDISPLAY
290
     0
  9
$INSUNITS
 70
     0
  9
$HYPERLINKBASE
  1

  9
$STYLESHEET
  1
monochrome 1.ctb
  9
$XEDIT
290
     1
  9
$CEPSNTYPE
380
     0
  9
$PSTYLEMODE
290
     1
  9
$FINGERPRINTGUID
  2
{D68B0D02-A558-11D7-B632-000102183313}
  9
$VERSIONGUID
  2
{2FE4A3BB-BC3E-40F9-80D8-B9D80EBC2F9C}
  9
$EXTNAMES
290
     1
  9
$PSVPSCALE
 40
0.0
  9
$OLESTARTUP
290
     0
  9
$SORTENTS
280
   127
  9
$INDEXCTL
280
     0
  9
$HIDETEXT
280
     0
  9
$XCLIPFRAME
290
     0
  9
$HALOGAP
280
     0
  9
$OBSCOLOR
 70
   257
  9
$OBSLTYPE
280
     0
  9
$INTERSECTIONDISPLAY
280
     0
  9
$INTERSECTIONCOLOR
 70
   257
  9
$DIMASSOC
280
     1
  9
$PROJECTNAME
  1

  0
ENDSEC
  0
SECTION
  2
CLASSES
  0
CLASS
  1
ACDBDICTIONARYWDFLT
  2
AcDbDictionaryWithDefault
  3
ObjectDBX Classes
 90
        0
 91
        1
280
     0
281
     0
  0
CLASS
  1
DICTIONARYVAR
  2
AcDbDictionaryVar
  3
ObjectDBX Classes
 90
        0
 91
        2
280
     0
281
     0
  0
ENDSEC
  0
SECTION
  2
TABLES
  0
TABLE
  2
VPORT
  5
8
330
0
100
AcDbSymbolTable
 70
     2
  0
VPORT
  5
F23
330
8
100
AcDbSymbolTableRecord
100
AcDbViewportTableRecord
  2
*Active
 70
     0
 10
0.0
 20
0.0
 11
1.0
 21
1.0
 12
210.0
 22
297.0
 13
0.0
 23
0.0
 14
1.0
 24
1.0
 15
10.0
 25
10.0
 16
0.0
 26
0.0
 36
1.0
 17
0.0
 27
0.0
 37
0.0
 40
594.0845053863559
 41
1.336927223719676
 42
50.0
 43
0.0
 44
0.0
 50
0.0
 51
0.0
 71
     0
 72
  1500
 73
     1
 74
     0
 75
     0
 76
     0
 77
     0
 78
     0
281
     0
 65
     1
110
0.0
120
0.0
130
0.0
111
1.0
121
0.0
131
0.0
112
0.0
122
1.0
132
0.0
 79
     0
146
0.0
  0
ENDTAB
  0
TABLE
  2
LTYPE
  5
5
330
0
100
AcDbSymbolTable
 70
     2
  0
LTYPE
  5
13
330
5
100
AcDbSymbolTableRecord
100
AcDbLinetypeTableRecord
  2
ByBlock
 70
     0
  3

 72
    65
 73
     0
 40
0.0
  0
LTYPE
  5
14
330
5
100
AcDbSymbolTableRecord
100
AcDbLinetypeTableRecord
  2
ByLayer
 70
     0
  3

 72
    65
 73
     0
 40
0.0
  0
LTYPE
  5
15
330
5
100
AcDbSymbolTableRecord
100
AcDbLinetypeTableRecord
  2
Continuous
 70
     0
  3
Solid line
 72
    65
 73
     0
 40
0.0
  0
LTYPE
  5
25
330
5
100
AcDbSymbolTableRecord
100
AcDbLinetypeTableRecord
  2
STRICHPUNKT
 70
     0
  3
__ . __ . __ . __ . __ . __ . __ . __ . __ . __
 72
    65
 73
     4
 40
1.0
 49
0.5
 74
     0
 49
-0.25
 74
     0
 49
0.0
 74
     0
 49
-0.25
 74
     0
  0
ENDTAB
  0
TABLE
  2
LAYER
  5
2
330
0
100
AcDbSymbolTable
 70
     9
  0
LAYER
  5
10
330
2
100
AcDbSymbolTableRecord
100
AcDbLayerTableRecord
  2
0
 70
     0
 62
     7
  6
Continuous
370
    -3
390
F
  0
LAYER
  5
2A
330
2
100
AcDbSymbolTableRecord
100
AcDbLayerTableRecord
  2
VOLL
 70
     0
 62
     1
  6
Continuous
370
    -3
390
F
  0
LAYER
  5
2B
330
2
100
AcDbSymbolTableRecord
100
AcDbLayerTableRecord
  2
HILF
 70
     0
 62
     2
  6
Continuous
370
    -3
390
F
  0
LAYER
  5
2C
330
2
100
AcDbSymbolTableRecord
100
AcDbLayerTableRecord
  2
MITTEL
 70
     0
 62
     2
  6
STRICHPUNKT
370
    -3
390
F
  0
LAYER
  5
2F
330
2
100
AcDbSymbolTableRecord
100
AcDbLayerTableRecord
  2
BEM
 70
     0
 62
     7
  6
Continuous
370
    -3
390
F
  0
LAYER
  5
30
330
2
100
AcDbSymbolTableRecord
100
AcDbLayerTableRecord
  2
STEMPEL
 70
     0
 62
     3
  6
Continuous
370
    -3
390
F
  0
LAYER
  5
31
330
2
100
AcDbSymbolTableRecord
100
AcDbLayerTableRecord
  2
TEXT
 70
     0
 62
     7
  6
Continuous
370
    -3
390
F
  0
LAYER
  5
390
330
2
100
AcDbSymbolTableRecord
100
AcDbLayerTableRecord
  2
DEFPOINTS
 70
     0
 62
     7
  6
Continuous
290
     0
370
    -3
390
F
  0
LAYER
  5
391
330
2
100
AcDbSymbolTableRecord
100
AcDbLayerTableRecord
  2
SCHRAFF
 70
     0
 62
     7
  6
Continuous
370
    -3
390
F
  0
ENDTAB
  0
TABLE
  2
STYLE
  5
3
330
0
100
AcDbSymbolTable
 70
     2
  0
STYLE
  5
11
330
3
100
AcDbSymbolTableRecord
100
AcDbTextStyleTableRecord
  2
STANDARD
 70
     0
 40
0.0
 41
0.8
 50
0.0
 71
     0
 42
3.5
  3
simplex.shx
  4

  0
STYLE
  5
24
330
3
100
AcDbSymbolTableRecord
100
AcDbTextStyleTableRecord
  2
GREEKS
 70
     0
 40
0.0
 41
0.8
 50
0.0
 71
     0
 42
2.5
  3
SIMPLEX.shx
  4

  0
ENDTAB
  0
TABLE
  2
VIEW
  5
6
330
0
100
AcDbSymbolTable
 70
     0
  0
ENDTAB
  0
TABLE
  2
UCS
  5
7
330
0
100
AcDbSymbolTable
 70
     0
  0
ENDTAB
  0
TABLE
  2
APPID
  5
9
330
0
100
AcDbSymbolTable
 70
     1
  0
APPID
  5
12
330
9
100
AcDbSymbolTableRecord
100
AcDbRegAppTableRecord
  2
ACAD
 70
     0
  0
ENDTAB
  0
TABLE
  2
DIMSTYLE
  5
A
330
0
100
AcDbSymbolTable
 70
     1
100
AcDbDimStyleTable
 71
     1
340
9D
  0
DIMSTYLE
105
9D
102
{ACAD_REACTORS
330
7D8
330
7B2
330
7AA
330
7A7
330
ABE
330
E7C
330
E7D
330
E7E
102
}
330
A
100
AcDbSymbolTableRecord
100
AcDbDimStyleTableRecord
  2
Standard
 70
     0
340
11
  0
ENDTAB
  0
TABLE
  2
BLOCK_RECORD
  5
1
330
0
100
AcDbSymbolTable
 70
     9
  0
BLOCK_RECORD
  5
1E
102
{ACAD_XDICTIONARY
360
A0
102
}
330
1
100
AcDbSymbolTableRecord
100
AcDbBlockTableRecord
  2
*Model_Space
340
21
  0
BLOCK_RECORD
  5
1A
102
{ACAD_XDICTIONARY
360
A2
102
}
330
1
100
AcDbSymbolTableRecord
100
AcDbBlockTableRecord
  2
*Paper_Space
340
1D
  0
BLOCK_RECORD
  5
22
330
1
100
AcDbSymbolTableRecord
100
AcDbBlockTableRecord
  2
LOGO
340
0
102
{BLKREFS
331
9B
102
}
  0
BLOCK_RECORD
  5
813
330
1
100
AcDbSymbolTableRecord
100
AcDbBlockTableRecord
  2
*D1
340
0
  0
BLOCK_RECORD
  5
820
330
1
100
AcDbSymbolTableRecord
100
AcDbBlockTableRecord
  2
*D2
340
0
  0
BLOCK_RECORD
  5
83A
330
1
100
AcDbSymbolTableRecord
100
AcDbBlockTableRecord
  2
*D3
340
0
  0
BLOCK_RECORD
  5
86F
330
1
100
AcDbSymbolTableRecord
100
AcDbBlockTableRecord
  2
*D4
340
0
  0
BLOCK_RECORD
  5
ABF
330
1
100
AcDbSymbolTableRecord
100
AcDbBlockTableRecord
  2
*D5
340
0
  0
BLOCK_RECORD
  5
E7F
330
1
100
AcDbSymbolTableRecord
100
AcDbBlockTableRecord
  2
*D6
340
0
  0
BLOCK_RECORD
  5
E8B
330
1
100
AcDbSymbolTableRecord
100
AcDbBlockTableRecord
  2
*D7
340
0
  0
BLOCK_RECORD
  5
E97
330
1
100
AcDbSymbolTableRecord
100
AcDbBlockTableRecord
  2
*D8
340
0
  0
ENDTAB
  0
ENDSEC
  0
SECTION
  2
BLOCKS
  0
BLOCK
  5
35
330
1E
100
AcDbEntity
  8
0
100
AcDbBlockBegin
  2
*Model_Space
 70
     0
 10
0.0
 20
0.0
 30
0.0
  3
*Model_Space
  1

  0
ENDBLK
  5
36
330
1E
100
AcDbEntity
  8
0
100
AcDbBlockEnd
  0
BLOCK
  5
33
330
1A
100
AcDbEntity
 67
     1
  8
0
100
AcDbBlockBegin
  2
*Paper_Space
 70
     0
 10
0.0
 20
0.0
 30
0.0
  3
*Paper_Space
  1

  0
ENDBLK
  5
34
330
1A
100
AcDbEntity
 67
     1
  8
0
100
AcDbBlockEnd
  0
BLOCK
  5
37
330
22
100
AcDbEntity
  8
0
100
AcDbBlockBegin
  2
LOGO
 70
     0
 10
0.0
 20
0.0
 30
0.0
  3
LOGO
  1

  0
ARC
  5
38
330
22
100
AcDbEntity
  8
0
100
AcDbCircle
 10
11.59973089678112
 20
-9.271599258481501
 30
0.0
 40
4.5
100
AcDbArc
 50
270.0
 51
231.0575587310159
  0
LINE
  5
39
330
22
100
AcDbEntity
  8
0
100
AcDbLine
 10
3.599730896781125
 20
-4.771599258481529
 30
0.0
 11
3.599730896781153
 21
-11.77159925848133
 31
0.0
  0
LINE
  5
3A
330
22
100
AcDbEntity
  8
0
100
AcDbLine
 10
2.599730896781125
 20
-4.771599258481529
 30
0.0
 11
2.599730896781153
 21
-11.77159925848133
 31
0.0
  0
CIRCLE
  5
3B
330
22
100
AcDbEntity
  8
0
100
AcDbCircle
 10
11.59973089678112
 20
-9.271599258481501
 30
0.0
 40
3.5
  0
ARC
  5
3C
330
22
100
AcDbEntity
  8
0
100
AcDbCircle
 10
31.59973089678115
 20
-9.271599258481472
 30
0.0
 40
4.5
100
AcDbArc
 50
270.0
 51
231.0575587310182
  0
LINE
  5
3D
330
22
100
AcDbEntity
  8
0
100
AcDbLine
 10
17.59973089678112
 20
-4.771599258481472
 30
0.0
 11
17.59973089678115
 21
-13.77159925848147
 31
0.0
  0
ARC
  5
3E
330
22
100
AcDbEntity
  8
0
100
AcDbCircle
 10
22.59973089678116
 20
-7.271599258481472
 30
0.0
 40
2.5
100
AcDbArc
 50
293.1161887722295
 51
90.0
  0
CIRCLE
  5
3F
330
22
100
AcDbEntity
  8
0
100
AcDbCircle
 10
31.59973089678115
 20
-9.271599258481472
 30
0.0
 40
3.5
  0
ARC
  5
40
330
22
100
AcDbEntity
  8
0
100
AcDbCircle
 10
4.599730896781153
 20
-11.77159925848133
 30
0.0
 40
1.0
100
AcDbArc
 50
180.0
 51
270.0
  0
ARC
  5
41
330
22
100
AcDbEntity
  8
0
100
AcDbCircle
 10
4.599730896781153
 20
-11.77159925848133
 30
0.0
 40
2.0
100
AcDbArc
 50
179.9999999999992
 51
270.0
  0
LINE
  5
42
330
22
100
AcDbEntity
  8
0
100
AcDbLine
 10
11.59973089678115
 20
-13.77159925848144
 30
0.0
 11
4.599730896781153
 21
-13.77159925848147
 31
0.0
  0
LINE
  5
43
330
22
100
AcDbEntity
  8
0
100
AcDbLine
 10
8.771303772034769
 20
-12.77159925848136
 30
0.0
 11
4.599730896781153
 21
-12.77159925848133
 31
0.0
  0
LINE
  5
44
330
22
100
AcDbEntity
  8
0
100
AcDbLine
 10
31.59973089678115
 20
-13.77159925848147
 30
0.0
 11
23.6715276665056
 21
-13.77159925848144
 31
0.0
  0
LINE
  5
45
330
22
100
AcDbEntity
  8
0
100
AcDbLine
 10
23.56565672307022
 20
-9.51278021337896
 30
0.0
 11
24.4388546544846
 21
-12.77159925848144
 31
0.0
  0
LINE
  5
46
330
22
100
AcDbEntity
  8
0
100
AcDbLine
 10
22.59973089678116
 20
-9.771599258481472
 30
0.0
 11
18.59973089678112
 21
-9.771599258481472
 31
0.0
  0
LINE
  5
47
330
22
100
AcDbEntity
  8
0
100
AcDbLine
 10
18.59973089678115
 20
-13.77159925848144
 30
0.0
 11
17.59973089678115
 21
-13.77159925848144
 31
0.0
  0
LINE
  5
48
330
22
100
AcDbEntity
  8
0
100
AcDbLine
 10
18.59973089678115
 20
-9.771599258481472
 30
0.0
 11
18.59973089678115
 21
-13.77159925848144
 31
0.0
  0
LINE
  5
49
330
22
100
AcDbEntity
  8
0
100
AcDbLine
 10
22.59973089678116
 20
-9.771599258481472
 30
0.0
 11
23.67152766650562
 21
-13.77159925848147
 31
0.0
  0
ARC
  5
4A
330
22
100
AcDbEntity
  8
0
100
AcDbCircle
 10
22.59973089678116
 20
-7.271599258481472
 30
0.0
 40
2.5
100
AcDbArc
 50
270.0
 51
270.0000000000007
  0
LINE
  5
4B
330
22
100
AcDbEntity
  8
0
100
AcDbLine
 10
28.77130377203494
 20
-12.77159925848147
 30
0.0
 11
24.43885465448463
 21
-12.77159925848144
 31
0.0
  0
LINE
  5
4C
330
22
100
AcDbEntity
  8
0
100
AcDbLine
 10
3.599730896781125
 20
-4.771599258481472
 30
0.0
 11
2.599730896781125
 21
-4.771599258481472
 31
0.0
  0
LINE
  5
4D
330
22
100
AcDbEntity
  8
0
100
AcDbLine
 10
22.59973089678116
 20
-8.771599258481472
 30
0.0
 11
18.59973089678115
 21
-8.771599258481472
 31
0.0
  0
LINE
  5
4E
330
22
100
AcDbEntity
  8
0
100
AcDbLine
 10
22.59973089678116
 20
-5.771599258481472
 30
0.0
 11
18.59973089678115
 21
-5.771599258481472
 31
0.0
  0
LINE
  5
4F
330
22
100
AcDbEntity
  8
0
100
AcDbLine
 10
22.59973089678116
 20
-4.771599258481472
 30
0.0
 11
17.59973089678115
 21
-4.771599258481472
 31
0.0
  0
LINE
  5
50
330
22
100
AcDbEntity
  8
0
100
AcDbLine
 10
18.59973089678115
 20
-5.771599258481472
 30
0.0
 11
18.59973089678115
 21
-8.771599258481472
 31
0.0
  0
ARC
  5
51
330
22
100
AcDbEntity
  8
0
100
AcDbCircle
 10
22.59973089678116
 20
-7.271599258481472
 30
0.0
 40
1.5
100
AcDbArc
 50
270.0
 51
90.0
  0
ENDBLK
  5
52
330
22
100
AcDbEntity
  8
0
100
AcDbBlockEnd
  0
BLOCK
  5
81E
330
813
100
AcDbEntity
  8
0
100
AcDbBlockBegin
  2
*D1
 70
     1
 10
0.0
 20
0.0
 30
0.0
  3
*D1
  1

  0
LINE
  5
9CE
330
813
100
AcDbEntity
  8
BEM
 62
     0
370
    -2
100
AcDbLine
 10
187.9617628516814
 20
231.156702512256
 30
0.0
 11
187.9617628516814
 21
203.0836631884053
 31
0.0
  0
LINE
  5
9CF
330
813
100
AcDbEntity
  8
BEM
 62
     0
370
    -2
100
AcDbLine
 10
289.9617628516816
 20
231.1567025122561
 30
0.0
 11
289.9617628516816
 21
203.0836631884053
 31
0.0
  0
LINE
  5
9D0
330
813
100
AcDbEntity
  8
BEM
 62
     0
370
    -2
100
AcDbLine
 10
194.9617628516814
 20
205.0836631884053
 30
0.0
 11
282.9617628516816
 21
205.0836631884053
 31
0.0
  0
SOLID
  5
9D1
330
813
100
AcDbEntity
  8
BEM
 62
     0
100
AcDbTrace
 10
194.9617628516814
 20
206.250329855072
 30
0.0
 11
194.9617628516814
 21
203.9169965217387
 31
0.0
 12
187.9617628516814
 22
205.0836631884053
 32
0.0
 13
187.9617628516814
 23
205.0836631884053
 33
0.0
  0
SOLID
  5
9D2
330
813
100
AcDbEntity
  8
BEM
 62
     0
100
AcDbTrace
 10
282.9617628516816
 20
206.250329855072
 30
0.0
 11
282.9617628516816
 21
203.9169965217387
 31
0.0
 12
289.9617628516816
 22
205.0836631884053
 32
0.0
 13
289.9617628516816
 23
205.0836631884053
 33
0.0
  0
MTEXT
  5
9D3
330
813
100
AcDbEntity
  8
BEM
 62
     1
100
AcDbMText
 10
238.9617628516815
 20
211.5836631884053
 30
0.0
 40
7.0
 41
0.0
 71
     5
 72
     1
  1
\A1;%%c102
 73
     1
 44
1.0
  0
POINT
  5
9D4
330
813
100
AcDbEntity
  8
DEFPOINTS
 62
     0
100
AcDbPoint
 10
187.9617628516814
 20
233.156702512256
 30
0.0
  0
POINT
  5
9D5
330
813
100
AcDbEntity
  8
DEFPOINTS
 62
     0
100
AcDbPoint
 10
289.9617628516816
 20
233.1567025122561
 30
0.0
  0
POINT
  5
9D6
330
813
100
AcDbEntity
  8
DEFPOINTS
 62
     0
100
AcDbPoint
 10
289.9617628516816
 20
205.0836631884053
 30
0.0
  0
ENDBLK
  5
81F
330
813
100
AcDbEntity
  8
0
100
AcDbBlockEnd
  0
BLOCK
  5
82B
330
820
100
AcDbEntity
  8
0
100
AcDbBlockBegin
  2
*D2
 70
     1
 10
0.0
 20
0.0
 30
0.0
  3
*D2
  1

  0
LINE
  5
9C5
330
820
100
AcDbEntity
  8
BEM
 62
     0
370
    -2
100
AcDbLine
 10
73.96176285168144
 20
497.156702512256
 30
0.0
 11
73.96176285168144
 21
524.8207308179569
 31
0.0
  0
LINE
  5
9C6
330
820
100
AcDbEntity
  8
BEM
 62
     0
370
    -2
100
AcDbLine
 10
403.9617628516815
 20
497.156702512256
 30
0.0
 11
403.9617628516815
 21
524.8207308179569
 31
0.0
  0
LINE
  5
9C7
330
820
100
AcDbEntity
  8
BEM
 62
     0
370
    -2
100
AcDbLine
 10
80.96176285168144
 20
522.8207308179569
 30
0.0
 11
396.9617628516815
 21
522.8207308179569
 31
0.0
  0
SOLID
  5
9C8
330
820
100
AcDbEntity
  8
BEM
 62
     0
100
AcDbTrace
 10
80.96176285168144
 20
523.9873974846235
 30
0.0
 11
80.96176285168144
 21
521.6540641512903
 31
0.0
 12
73.96176285168144
 22
522.8207308179569
 32
0.0
 13
73.96176285168144
 23
522.8207308179569
 33
0.0
  0
SOLID
  5
9C9
330
820
100
AcDbEntity
  8
BEM
 62
     0
100
AcDbTrace
 10
396.9617628516815
 20
523.9873974846235
 30
0.0
 11
396.9617628516815
 21
521.6540641512903
 31
0.0
 12
403.9617628516815
 22
522.8207308179569
 32
0.0
 13
403.9617628516815
 23
522.8207308179569
 33
0.0
  0
MTEXT
  5
9CA
330
820
100
AcDbEntity
  8
BEM
 62
     1
100
AcDbMText
 10
238.9617628516815
 20
529.3207308179569
 30
0.0
 40
7.0
 41
0.0
 71
     5
 72
     1
  1
\A1;%%c330
 73
     1
 44
1.0
  0
POINT
  5
9CB
330
820
100
AcDbEntity
  8
DEFPOINTS
 62
     0
100
AcDbPoint
 10
73.96176285168144
 20
495.156702512256
 30
0.0
  0
POINT
  5
9CC
330
820
100
AcDbEntity
  8
DEFPOINTS
 62
     0
100
AcDbPoint
 10
403.9617628516815
 20
495.156702512256
 30
0.0
  0
POINT
  5
9CD
330
820
100
AcDbEntity
  8
DEFPOINTS
 62
     0
100
AcDbPoint
 10
403.9617628516815
 20
522.8207308179569
 30
0.0
  0
ENDBLK
  5
82C
330
820
100
AcDbEntity
  8
0
100
AcDbBlockEnd
  0
BLOCK
  5
845
330
83A
100
AcDbEntity
  8
0
100
AcDbBlockBegin
  2
*D3
 70
     1
 10
0.0
 20
0.0
 30
0.0
  3
*D3
  1

  0
LINE
  5
A2E
330
83A
100
AcDbEntity
  8
BEM
 62
     0
370
    -2
100
AcDbLine
 10
187.2740928045702
 20
225.1567025122561
 30
0.0
 11
49.95148426926146
 21
225.1567025122561
 31
0.0
  0
LINE
  5
A2F
330
83A
100
AcDbEntity
  8
BEM
 62
     0
370
    -2
100
AcDbLine
 10
71.96176285168133
 20
495.156702512256
 30
0.0
 11
49.95148426926153
 21
495.156702512256
 31
0.0
  0
LINE
  5
A30
330
83A
100
AcDbEntity
  8
BEM
 62
     0
370
    -2
100
AcDbLine
 10
51.95148426926147
 20
232.1567025122561
 30
0.0
 11
51.95148426926152
 21
488.156702512256
 31
0.0
  0
SOLID
  5
A31
330
83A
100
AcDbEntity
  8
BEM
 62
     0
100
AcDbTrace
 10
50.78481760259481
 20
232.1567025122561
 30
0.0
 11
53.11815093592813
 21
232.1567025122561
 31
0.0
 12
51.95148426926147
 22
225.1567025122561
 32
0.0
 13
51.95148426926147
 23
225.1567025122561
 33
0.0
  0
SOLID
  5
A32
330
83A
100
AcDbEntity
  8
BEM
 62
     0
100
AcDbTrace
 10
50.78481760259486
 20
488.156702512256
 30
0.0
 11
53.11815093592819
 21
488.156702512256
 31
0.0
 12
51.95148426926152
 22
495.156702512256
 32
0.0
 13
51.95148426926152
 23
495.156702512256
 33
0.0
  0
MTEXT
  5
A33
330
83A
100
AcDbEntity
  8
BEM
 62
     1
100
AcDbMText
 10
45.45148426926144
 20
360.1567025122561
 30
0.0
 40
7.0
 41
0.0
 71
     5
 72
     1
  1
\A1;270
 11
0.0000000000000001
 21
1.0
 31
0.0
 73
     1
 44
1.0
  0
POINT
  5
A34
330
83A
100
AcDbEntity
  8
DEFPOINTS
 62
     0
100
AcDbPoint
 10
189.2740928045703
 20
225.1567025122561
 30
0.0
  0
POINT
  5
A35
330
83A
100
AcDbEntity
  8
DEFPOINTS
 62
     0
100
AcDbPoint
 10
73.96176285168133
 20
495.156702512256
 30
0.0
  0
POINT
  5
A36
330
83A
100
AcDbEntity
  8
DEFPOINTS
 62
     0
100
AcDbPoint
 10
51.95148426926152
 20
495.156702512256
 30
0.0
  0
ENDBLK
  5
846
330
83A
100
AcDbEntity
  8
0
100
AcDbBlockEnd
  0
BLOCK
  5
87A
330
86F
100
AcDbEntity
  8
0
100
AcDbBlockBegin
  2
*D4
 70
     1
 10
0.0
 20
0.0
 30
0.0
  3
*D4
  1

  0
LINE
  5
D54
330
86F
100
AcDbEntity
  8
BEM
 62
     0
370
    -2
100
AcDbLine
 10
189.7117628516813
 20
261.5322857040075
 30
0.0
 11
189.7117628516813
 21
263.9052431982602
 31
0.0
  0
LINE
  5
D55
330
86F
100
AcDbEntity
  8
BEM
 62
     0
370
    -2
100
AcDbLine
 10
187.9617628516813
 20
261.5322857040076
 30
0.0
 11
187.9617628516813
 21
263.9052431982602
 31
0.0
  0
LINE
  5
D56
330
86F
100
AcDbEntity
  8
BEM
 62
     0
370
    -2
100
AcDbLine
 10
196.7117628516813
 20
261.9052431982602
 30
0.0
 11
203.7117628516813
 21
261.9052431982602
 31
0.0
  0
LINE
  5
D57
330
86F
100
AcDbEntity
  8
BEM
 62
     0
370
    -2
100
AcDbLine
 10
180.9617628516813
 20
261.9052431982602
 30
0.0
 11
146.9857701562925
 21
261.9052431982602
 31
0.0
  0
LINE
  5
D58
330
86F
100
AcDbEntity
  8
BEM
 62
     0
370
    -2
100
AcDbLine
 10
189.7117628516813
 20
261.9052431982602
 30
0.0
 11
187.9617628516813
 21
261.9052431982602
 31
0.0
  0
SOLID
  5
D59
330
86F
100
AcDbEntity
  8
BEM
 62
     0
100
AcDbTrace
 10
196.7117628516813
 20
263.0719098649269
 30
0.0
 11
196.7117628516813
 21
260.7385765315935
 31
0.0
 12
189.7117628516813
 22
261.9052431982602
 32
0.0
 13
189.7117628516813
 23
261.9052431982602
 33
0.0
  0
SOLID
  5
D5A
330
86F
100
AcDbEntity
  8
BEM
 62
     0
100
AcDbTrace
 10
180.9617628516813
 20
263.0719098649269
 30
0.0
 11
180.9617628516813
 21
260.7385765315935
 31
0.0
 12
187.9617628516813
 22
261.9052431982602
 32
0.0
 13
187.9617628516813
 23
261.9052431982602
 33
0.0
  0
MTEXT
  5
D5B
330
86F
100
AcDbEntity
  8
BEM
 62
     1
100
AcDbMText
 10
157.9857701562926
 20
268.4052431982602
 30
0.0
 40
7.0
 41
0.0
 71
     5
 72
     1
  1
\A1;1.75
 73
     1
 44
1.0
  0
POINT
  5
D5C
330
86F
100
AcDbEntity
  8
DEFPOINTS
 62
     0
100
AcDbPoint
 10
189.7117628516813
 20
259.5322857040075
 30
0.0
  0
POINT
  5
D5D
330
86F
100
AcDbEntity
  8
DEFPOINTS
 62
     0
100
AcDbPoint
 10
187.9617628516813
 20
259.5322857040076
 30
0.0
  0
POINT
  5
D5E
330
86F
100
AcDbEntity
  8
DEFPOINTS
 62
     0
100
AcDbPoint
 10
187.9617628516813
 20
261.9052431982602
 30
0.0
  0
ENDBLK
  5
87B
330
86F
100
AcDbEntity
  8
0
100
AcDbBlockEnd
  0
BLOCK
  5
ACB
330
ABF
100
AcDbEntity
  8
0
100
AcDbBlockBegin
  2
*D5
 70
     1
 10
0.0
 20
0.0
 30
0.0
  3
*D5
  1

  0
LINE
  5
ACD
330
ABF
100
AcDbEntity
  8
BEM
 62
     0
370
    -2
100
AcDbLine
 10
71.96176285168144
 20
493.156702512256
 30
0.0
 11
62.09861691639797
 21
493.156702512256
 31
0.0
  0
LINE
  5
ACE
330
ABF
100
AcDbEntity
  8
BEM
 62
     0
370
    -2
100
AcDbLine
 10
71.96176285168144
 20
495.156702512256
 30
0.0
 11
62.09861691639797
 21
495.156702512256
 31
0.0
  0
LINE
  5
ACF
330
ABF
100
AcDbEntity
  8
BEM
 62
     0
370
    -2
100
AcDbLine
 10
64.09861691639799
 20
486.156702512256
 30
0.0
 11
64.09861691639797
 21
479.156702512256
 31
0.0
  0
LINE
  5
AD0
330
ABF
100
AcDbEntity
  8
BEM
 62
     0
370
    -2
100
AcDbLine
 10
64.09861691639799
 20
502.1567025122561
 30
0.0
 11
64.09861691639799
 21
518.8900358455894
 31
0.0
  0
LINE
  5
AD1
330
ABF
100
AcDbEntity
  8
BEM
 62
     0
370
    -2
100
AcDbLine
 10
64.09861691639799
 20
493.156702512256
 30
0.0
 11
64.09861691639799
 21
495.156702512256
 31
0.0
  0
SOLID
  5
AD2
330
ABF
100
AcDbEntity
  8
BEM
 62
     0
100
AcDbTrace
 10
62.93195024973131
 20
486.156702512256
 30
0.0
 11
65.26528358306466
 21
486.156702512256
 31
0.0
 12
64.09861691639799
 22
493.156702512256
 32
0.0
 13
64.09861691639799
 23
493.156702512256
 33
0.0
  0
SOLID
  5
AD3
330
ABF
100
AcDbEntity
  8
BEM
 62
     0
100
AcDbTrace
 10
62.93195024973132
 20
502.1567025122561
 30
0.0
 11
65.26528358306466
 21
502.1567025122561
 31
0.0
 12
64.09861691639799
 22
495.156702512256
 32
0.0
 13
64.09861691639799
 23
495.156702512256
 33
0.0
  0
MTEXT
  5
AD4
330
ABF
100
AcDbEntity
  8
BEM
 62
     1
100
AcDbMText
 10
57.5986169163979
 20
514.0233691789227
 30
0.0
 40
7.0
 41
0.0
 71
     5
 72
     1
  1
\A1;2
 11
0.0000000000000001
 21
1.0
 31
0.0
 73
     1
 44
1.0
  0
POINT
  5
AD5
330
ABF
100
AcDbEntity
  8
DEFPOINTS
 62
     0
100
AcDbPoint
 10
73.96176285168144
 20
493.156702512256
 30
0.0
  0
POINT
  5
AD6
330
ABF
100
AcDbEntity
  8
DEFPOINTS
 62
     0
100
AcDbPoint
 10
73.96176285168144
 20
495.156702512256
 30
0.0
  0
POINT
  5
AD7
330
ABF
100
AcDbEntity
  8
DEFPOINTS
 62
     0
100
AcDbPoint
 10
64.09861691639799
 20
495.156702512256
 30
0.0
  0
ENDBLK
  5
ACC
330
ABF
100
AcDbEntity
  8
0
100
AcDbBlockEnd
  0
BLOCK
  5
E89
330
E7F
100
AcDbEntity
  8
0
100
AcDbBlockBegin
  2
*D6
 70
     1
 10
0.0
 20
0.0
 30
0.0
  3
*D6
  1

  0
LINE
  5
F12
330
E7F
100
AcDbEntity
  8
BEM
 62
     0
370
    -2
100
AcDbLine
 10
141.9617628516813
 20
493.1567025122568
 30
0.0
 11
62.09861691639785
 21
493.1567025122568
 31
0.0
  0
LINE
  5
F13
330
E7F
100
AcDbEntity
  8
BEM
 62
     0
370
    -2
100
AcDbLine
 10
156.9617628516814
 20
333.1567025122567
 30
0.0
 11
62.09861691639781
 21
333.1567025122568
 31
0.0
  0
LINE
  5
F14
330
E7F
100
AcDbEntity
  8
BEM
 62
     0
370
    -2
100
AcDbLine
 10
64.09861691639786
 20
486.1567025122568
 30
0.0
 11
64.09861691639782
 21
340.1567025122568
 31
0.0
  0
SOLID
  5
F15
330
E7F
100
AcDbEntity
  8
BEM
 62
     0
100
AcDbTrace
 10
62.93195024973119
 20
486.1567025122568
 30
0.0
 11
65.26528358306453
 21
486.1567025122568
 31
0.0
 12
64.09861691639786
 22
493.1567025122568
 32
0.0
 13
64.09861691639786
 23
493.1567025122568
 33
0.0
  0
SOLID
  5
F16
330
E7F
100
AcDbEntity
  8
BEM
 62
     0
100
AcDbTrace
 10
62.93195024973115
 20
340.1567025122568
 30
0.0
 11
65.26528358306449
 21
340.1567025122568
 31
0.0
 12
64.09861691639782
 22
333.1567025122568
 32
0.0
 13
64.09861691639782
 23
333.1567025122568
 33
0.0
  0
MTEXT
  5
F17
330
E7F
100
AcDbEntity
  8
BEM
 62
     1
100
AcDbMText
 10
57.59861691639777
 20
413.1567025122568
 30
0.0
 40
7.0
 41
0.0
 71
     5
 72
     1
  1
\A1;160
 11
0.0000000000000001
 21
1.0
 31
0.0
 73
     1
 44
1.0
  0
POINT
  5
F18
330
E7F
100
AcDbEntity
  8
DEFPOINTS
 62
     0
100
AcDbPoint
 10
143.9617628516813
 20
493.1567025122568
 30
0.0
  0
POINT
  5
F19
330
E7F
100
AcDbEntity
  8
DEFPOINTS
 62
     0
100
AcDbPoint
 10
158.9617628516814
 20
333.1567025122567
 30
0.0
  0
POINT
  5
F1A
330
E7F
100
AcDbEntity
  8
DEFPOINTS
 62
     0
100
AcDbPoint
 10
64.09861691639782
 20
333.1567025122568
 30
0.0
  0
ENDBLK
  5
E8A
330
E7F
100
AcDbEntity
  8
0
100
AcDbBlockEnd
  0
BLOCK
  5
E95
330
E8B
100
AcDbEntity
  8
0
100
AcDbBlockBegin
  2
*D7
 70
     1
 10
0.0
 20
0.0
 30
0.0
  3
*D7
  1

  0
LINE
  5
ECF
330
E8B
100
AcDbEntity
  8
BEM
 62
     0
370
    -2
100
AcDbLine
 10
158.9617628516814
 20
331.1567025122567
 30
0.0
 11
158.9617628516814
 21
310.589402976456
 31
0.0
  0
LINE
  5
ED0
330
E8B
100
AcDbEntity
  8
BEM
 62
     0
370
    -2
100
AcDbLine
 10
318.9617628516813
 20
331.1567025122562
 30
0.0
 11
318.9617628516813
 21
310.589402976456
 31
0.0
  0
LINE
  5
ED1
330
E8B
100
AcDbEntity
  8
BEM
 62
     0
370
    -2
100
AcDbLine
 10
165.9617628516814
 20
312.589402976456
 30
0.0
 11
311.9617628516814
 21
312.589402976456
 31
0.0
  0
SOLID
  5
ED2
330
E8B
100
AcDbEntity
  8
BEM
 62
     0
100
AcDbTrace
 10
165.9617628516814
 20
313.7560696431227
 30
0.0
 11
165.9617628516814
 21
311.4227363097893
 31
0.0
 12
158.9617628516814
 22
312.589402976456
 32
0.0
 13
158.9617628516814
 23
312.589402976456
 33
0.0
  0
SOLID
  5
ED3
330
E8B
100
AcDbEntity
  8
BEM
 62
     0
100
AcDbTrace
 10
311.9617628516814
 20
313.7560696431227
 30
0.0
 11
311.9617628516814
 21
311.4227363097893
 31
0.0
 12
318.9617628516813
 22
312.589402976456
 32
0.0
 13
318.9617628516813
 23
312.589402976456
 33
0.0
  0
MTEXT
  5
ED4
330
E8B
100
AcDbEntity
  8
BEM
 62
     1
100
AcDbMText
 10
238.9617628516814
 20
319.089402976456
 30
0.0
 40
7.0
 41
0.0
 71
     5
 72
     1
  1
\A1;%%c160
 73
     1
 44
1.0
  0
POINT
  5
ED5
330
E8B
100
AcDbEntity
  8
DEFPOINTS
 62
     0
100
AcDbPoint
 10
158.9617628516814
 20
333.1567025122567
 30
0.0
  0
POINT
  5
ED6
330
E8B
100
AcDbEntity
  8
DEFPOINTS
 62
     0
100
AcDbPoint
 10
318.9617628516813
 20
333.1567025122562
 30
0.0
  0
POINT
  5
ED7
330
E8B
100
AcDbEntity
  8
DEFPOINTS
 62
     0
100
AcDbPoint
 10
318.9617628516813
 20
312.589402976456
 30
0.0
  0
ENDBLK
  5
E96
330
E8B
100
AcDbEntity
  8
0
100
AcDbBlockEnd
  0
BLOCK
  5
EA1
330
E97
100
AcDbEntity
  8
0
100
AcDbBlockBegin
  2
*D8
 70
     1
 10
0.0
 20
0.0
 30
0.0
  3
*D8
  1

  0
LINE
  5
EC5
330
E97
100
AcDbEntity
  8
BEM
 62
     0
370
    -2
100
AcDbLine
 10
143.9617628516813
 20
495.1567025122567
 30
0.0
 11
143.9617628516813
 21
509.4228335998454
 31
0.0
  0
LINE
  5
EC6
330
E97
100
AcDbEntity
  8
BEM
 62
     0
370
    -2
100
AcDbLine
 10
333.9617628516813
 20
495.1567025122555
 30
0.0
 11
333.9617628516813
 21
509.4228335998454
 31
0.0
  0
LINE
  5
EC7
330
E97
100
AcDbEntity
  8
BEM
 62
     0
370
    -2
100
AcDbLine
 10
150.9617628516813
 20
507.4228335998453
 30
0.0
 11
326.9617628516813
 21
507.4228335998453
 31
0.0
  0
SOLID
  5
EC8
330
E97
100
AcDbEntity
  8
BEM
 62
     0
100
AcDbTrace
 10
150.9617628516813
 20
508.589500266512
 30
0.0
 11
150.9617628516813
 21
506.2561669331786
 31
0.0
 12
143.9617628516813
 22
507.4228335998453
 32
0.0
 13
143.9617628516813
 23
507.4228335998453
 33
0.0
  0
SOLID
  5
EC9
330
E97
100
AcDbEntity
  8
BEM
 62
     0
100
AcDbTrace
 10
326.9617628516813
 20
508.589500266512
 30
0.0
 11
326.9617628516813
 21
506.2561669331786
 31
0.0
 12
333.9617628516813
 22
507.4228335998453
 32
0.0
 13
333.9617628516813
 23
507.4228335998453
 33
0.0
  0
MTEXT
  5
ECA
330
E97
100
AcDbEntity
  8
BEM
 62
     1
100
AcDbMText
 10
238.9617628516813
 20
513.9228335998454
 30
0.0
 40
7.0
 41
0.0
 71
     5
 72
     1
  1
\A1;%%c190
 73
     1
 44
1.0
  0
POINT
  5
ECB
330
E97
100
AcDbEntity
  8
DEFPOINTS
 62
     0
100
AcDbPoint
 10
143.9617628516813
 20
493.1567025122568
 30
0.0
  0
POINT
  5
ECC
330
E97
100
AcDbEntity
  8
DEFPOINTS
 62
     0
100
AcDbPoint
 10
333.9617628516813
 20
493.1567025122554
 30
0.0
  0
POINT
  5
ECD
330
E97
100
AcDbEntity
  8
DEFPOINTS
 62
     0
100
AcDbPoint
 10
333.9617628516813
 20
507.4228335998453
 30
0.0
  0
ENDBLK
  5
EA2
330
E97
100
AcDbEntity
  8
0
100
AcDbBlockEnd
  0
ENDSEC
  0
SECTION
  2
ENTITIES
  0
LINE
  5
57
330
1E
100
AcDbEntity
  8
STEMPEL
100
AcDbLine
 10
410.0
 20
110.0
 30
0.0
 11
39.99999999999997
 21
110.0
 31
0.0
  0
LINE
  5
58
330
1E
100
AcDbEntity
  8
STEMPEL
100
AcDbLine
 10
136.0000000000001
 20
109.9999999999999
 30
0.0
 11
136.0
 21
9.999999999999971
 31
0.0
  0
LINE
  5
59
330
1E
100
AcDbEntity
  8
STEMPEL
100
AcDbLine
 10
220.0
 20
110.0
 30
0.0
 11
220.0
 21
9.999999999999971
 31
0.0
  0
LINE
  5
5A
330
1E
100
AcDbEntity
  8
STEMPEL
100
AcDbLine
 10
332.0
 20
109.9999999999997
 30
0.0
 11
332.0
 21
40.0
 31
0.0
  0
LINE
  5
5B
330
1E
100
AcDbEntity
  8
STEMPEL
100
AcDbLine
 10
135.9999999999999
 20
29.99999999999997
 30
0.0
 11
39.99999999999997
 21
29.99999999999997
 31
0.0
  0
LINE
  5
5C
330
1E
100
AcDbEntity
  8
STEMPEL
100
AcDbLine
 10
410.0
 20
40.0
 30
0.0
 11
136.0000000000001
 21
39.99999999999997
 31
0.0
  0
LINE
  5
5D
330
1E
100
AcDbEntity
  8
STEMPEL
100
AcDbLine
 10
410.0
 20
80.0
 30
0.0
 11
136.0000000000001
 21
79.99999999999994
 31
0.0
  0
LINE
  5
5E
330
1E
100
AcDbEntity
  8
VOLL
100
AcDbLine
 10
54.00000000000009
 20
110.0
 30
0.0
 11
53.99999999999997
 21
9.999999999999971
 31
0.0
  0
LINE
  5
5F
330
1E
100
AcDbEntity
  8
VOLL
100
AcDbLine
 10
94.00000000000011
 20
109.9999999999999
 30
0.0
 11
94.0
 21
9.999999999999971
 31
0.0
  0
LINE
  5
60
330
1E
100
AcDbEntity
  8
VOLL
100
AcDbLine
 10
114.0000000000001
 20
109.9999999999999
 30
0.0
 11
114.0
 21
9.999999999999971
 31
0.0
  0
LINE
  5
61
330
1E
100
AcDbEntity
  8
VOLL
100
AcDbLine
 10
154.0000000000001
 20
79.99999999999994
 30
0.0
 11
154.0000000000001
 21
39.99999999999997
 31
0.0
  0
LINE
  5
62
330
1E
100
AcDbEntity
  8
VOLL
100
AcDbLine
 10
180.0000000000001
 20
109.9999999999998
 30
0.0
 11
180.0
 21
39.99999999999997
 31
0.0
  0
LINE
  5
63
330
1E
100
AcDbEntity
  8
HILF
100
AcDbLine
 10
40.00000000000008
 20
100.0
 30
0.0
 11
136.0000000000001
 21
100.0
 31
0.0
  0
LINE
  5
64
330
1E
100
AcDbEntity
  8
HILF
100
AcDbLine
 10
40.00000000000008
 20
90.00000000000005
 30
0.0
 11
136.0000000000001
 21
90.00000000000005
 31
0.0
  0
LINE
  5
65
330
1E
100
AcDbEntity
  8
HILF
100
AcDbLine
 10
40.00000000000008
 20
79.99999999999994
 30
0.0
 11
136.0000000000001
 21
79.99999999999994
 31
0.0
  0
LINE
  5
66
330
1E
100
AcDbEntity
  8
HILF
100
AcDbLine
 10
40.00000000000008
 20
69.99999999999994
 30
0.0
 11
136.0000000000001
 21
69.99999999999994
 31
0.0
  0
LINE
  5
67
330
1E
100
AcDbEntity
  8
HILF
100
AcDbLine
 10
40.00000000000008
 20
59.99999999999997
 30
0.0
 11
136.0000000000001
 21
59.99999999999997
 31
0.0
  0
LINE
  5
68
330
1E
100
AcDbEntity
  8
HILF
100
AcDbLine
 10
40.00000000000008
 20
49.99999999999997
 30
0.0
 11
136.0000000000001
 21
49.99999999999997
 31
0.0
  0
LINE
  5
69
330
1E
100
AcDbEntity
  8
HILF
100
AcDbLine
 10
40.00000000000008
 20
39.99999999999997
 30
0.0
 11
136.0000000000001
 21
39.99999999999997
 31
0.0
  0
LINE
  5
6A
330
1E
100
AcDbEntity
  8
HILF
100
AcDbLine
 10
136.0000000000001
 20
69.99999999999994
 30
0.0
 11
220.0
 21
69.99999999999994
 31
0.0
  0
LINE
  5
6B
330
1E
100
AcDbEntity
  8
HILF
100
AcDbLine
 10
136.0000000000001
 20
59.99999999999997
 30
0.0
 11
220.0
 21
59.99999999999997
 31
0.0
  0
LINE
  5
6C
330
1E
100
AcDbEntity
  8
HILF
100
AcDbLine
 10
136.0000000000001
 20
49.99999999999997
 30
0.0
 11
220.0
 21
49.99999999999997
 31
0.0
  0
LINE
  5
6D
330
1E
100
AcDbEntity
  8
HILF
100
AcDbLine
 10
224.7736801096948
 20
84.03758247564139
 30
0.0
 11
324.8353916556311
 21
84.03758247564139
 31
0.0
  0
LINE
  5
6E
330
1E
100
AcDbEntity
  8
HILF
100
AcDbLine
 10
224.7736801096948
 20
69.99999999999994
 30
0.0
 11
324.835391655631
 21
69.99999999999994
 31
0.0
  0
LINE
  5
6F
330
1E
100
AcDbEntity
  8
HILF
100
AcDbLine
 10
224.7736801096948
 20
59.99999999999997
 30
0.0
 11
324.835391655631
 21
59.99999999999997
 31
0.0
  0
LINE
  5
70
330
1E
100
AcDbEntity
  8
HILF
100
AcDbLine
 10
224.7736801096948
 20
49.99999999999997
 30
0.0
 11
324.835391655631
 21
49.99999999999997
 31
0.0
  0
LINE
  5
71
330
1E
100
AcDbEntity
  8
VOLL
100
AcDbLine
 10
332.0
 20
60.0
 30
0.0
 11
410.0
 21
60.0
 31
0.0
  0
LINE
  5
72
330
1E
100
AcDbEntity
  8
HILF
100
AcDbLine
 10
336.7238616296993
 20
83.77983636955827
 30
0.0
 11
404.8588839326728
 21
83.77983636955827
 31
0.0
  0
LINE
  5
73
330
1E
100
AcDbEntity
  8
HILF
100
AcDbLine
 10
223.4909699289885
 20
14.89398258028314
 30
0.0
 11
404.8588839326728
 21
14.89398258028314
 31
0.0
  0
TEXT
  5
74
330
1E
100
AcDbEntity
  8
TEXT
100
AcDbText
 10
63.86165979631819
 20
18.67381894984132
 30
0.0
 40
4.0
  1
Änderung
 41
0.8
  7
GREEKS
 72
     1
 11
74.60451693917534
 21
18.67381894984132
 31
0.0
100
AcDbText
  0
TEXT
  5
75
330
1E
100
AcDbEntity
  8
TEXT
100
AcDbText
 10
143.5163572150377
 20
102.4620895087088
 30
0.0
 40
5.0
  1
Maßstab
 41
0.8
  7
GREEKS
100
AcDbText
  0
TEXT
  5
76
330
1E
100
AcDbEntity
  8
TEXT
100
AcDbText
 10
184.2858954734051
 20
102.4184168434819
 30
0.0
 40
5.0
  1
Zul. Abw.
 41
0.8
  7
GREEKS
100
AcDbText
  0
TEXT
  5
77
330
1E
100
AcDbEntity
  8
TEXT
100
AcDbText
 10
224.877940380901
 20
102.5489328011779
 30
0.0
 40
5.0
  1
Benennung
 41
0.8
  7
GREEKS
100
AcDbText
  0
TEXT
  5
78
330
1E
100
AcDbEntity
  8
TEXT
100
AcDbText
 10
336.178754957634
 20
102.3132034537136
 30
0.0
 40
5.0
  1
Zeichnungs Nr.
 41
0.8
  7
GREEKS
100
AcDbText
  0
TEXT
  5
79
330
1E
100
AcDbEntity
  8
TEXT
100
AcDbText
 10
224.742238391136
 20
30.84560570193057
 30
0.0
 40
5.0
  1
Bauvorhaben
 41
0.8
  7
GREEKS
100
AcDbText
  0
TEXT
  5
7A
330
1E
100
AcDbEntity
  8
TEXT
100
AcDbText
 10
336.7238616296993
 20
73.1811823709997
 30
0.0
 40
5.0
  1
Ersatz für:
 41
0.8
  7
GREEKS
100
AcDbText
  0
TEXT
  5
7B
330
1E
100
AcDbEntity
  8
TEXT
100
AcDbText
 10
48.26641107045756
 20
13.65465846027192
 30
0.0
 40
4.0
  1
Index
 50
90.0
 41
0.8
  7
GREEKS
100
AcDbText
  0
TEXT
  5
7C
330
1E
100
AcDbEntity
  8
TEXT
100
AcDbText
 10
100.0934676075481
 20
18.6715626933981
 30
0.0
 40
4.0
  1
Tag
 41
0.8
  7
GREEKS
 72
     1
 11
103.8268009408814
 21
18.6715626933981
 31
0.0
100
AcDbText
  0
TEXT
  5
7D
330
1E
100
AcDbEntity
  8
TEXT
100
AcDbText
 10
119.0122744386592
 20
18.59324216966408
 30
0.0
 40
4.0
  1
Name
 41
0.8
  7
GREEKS
 72
     1
 11
125.3360839624688
 21
18.59324216966408
 31
0.0
100
AcDbText
  0
TEXT
  5
7E
330
1E
100
AcDbEntity
  8
TEXT
100
AcDbText
 10
162.3311673153651
 20
73.31880501229926
 30
0.0
 40
4.0
  1
Tag
 41
0.8
  7
GREEKS
100
AcDbText
  0
TEXT
  5
7F
330
1E
100
AcDbEntity
  8
TEXT
100
AcDbText
 10
192.4626584226295
 20
73.30961091915225
 30
0.0
 40
4.0
  1
Name
 41
0.8
  7
GREEKS
100
AcDbText
  0
TEXT
  5
80
330
1E
100
AcDbEntity
  8
TEXT
100
AcDbText
 10
137.5836127167615
 20
63.62990369617964
 30
0.0
 40
4.0
  1
Gez.
 41
0.8
  7
GREEKS
100
AcDbText
  0
TEXT
  5
81
330
1E
100
AcDbEntity
  8
TEXT
100
AcDbText
 10
137.5515086571672
 20
53.68926291428377
 30
0.0
 40
4.0
  1
Gepr.
 41
0.8
  7
GREEKS
100
AcDbText
  0
TEXT
  5
82
330
1E
100
AcDbEntity
  8
TEXT
100
AcDbText
 10
137.6006777387304
 20
43.52946389649807
 30
0.0
 40
4.0
  1
Norm.
 41
0.8
  7
GREEKS
100
AcDbText
  0
LINE
  5
83
330
1E
100
AcDbEntity
  8
STEMPEL
100
AcDbLine
 10
49.99999999999989
 20
10.0
 30
0.0
 11
410.0
 21
10.0
 31
0.0
  0
TEXT
  5
84
330
1E
100
AcDbEntity
  8
TEXT
100
AcDbText
 10
337.2400861497006
 20
52.07416177878602
 30
0.0
 40
5.0
  1
ersetzt durch:
 41
0.8
  7
GREEKS
100
AcDbText
  0
LINE
  5
85
330
1E
100
AcDbEntity
  8
STEMPEL
100
AcDbLine
 10
410.0
 20
10.0
 30
0.0
 11
39.99999999999989
 21
10.0
 31
0.0
  0
LINE
  5
86
330
1E
100
AcDbEntity
  8
STEMPEL
100
AcDbLine
 10
410.0
 20
10.0
 30
0.0
 11
410.0
 21
584.0
 31
0.0
  0
LINE
  5
87
330
1E
100
AcDbEntity
  8
STEMPEL
100
AcDbLine
 10
40.0
 20
10.0
 30
0.0
 11
39.99999999999989
 21
584.0
 31
0.0
  0
LINE
  5
88
330
1E
100
AcDbEntity
  8
STEMPEL
100
AcDbLine
 10
410.0
 20
584.0
 30
0.0
 11
39.99999999999989
 21
584.0
 31
0.0
  0
LINE
  5
89
330
1E
100
AcDbEntity
  8
HILF
100
AcDbLine
 10
0.0
 20
0.0
 30
0.0
 11
-0.0000000000001137
 21
594.0
 31
0.0
  0
LINE
  5
8A
330
1E
100
AcDbEntity
  8
HILF
100
AcDbLine
 10
419.9999999999999
 20
594.0000000000002
 30
0.0
 11
0.0
 21
594.0
 31
0.0
  0
LINE
  5
8B
330
1E
100
AcDbEntity
  8
HILF
100
AcDbLine
 10
420.0
 20
0.0
 30
0.0
 11
0.0
 21
0.0
 31
0.0
  0
LINE
  5
8C
330
1E
100
AcDbEntity
  8
HILF
100
AcDbLine
 10
31.08767135713856
 20
297.0
 30
0.0
 11
0.0000000000001137
 21
297.0
 31
0.0
  0
TEXT
  5
8D
330
1E
100
AcDbEntity
  8
TEXT
100
AcDbText
 10
138.622109822104
 20
73.14025471151666
 30
0.0
 40
4.0
  1
2010
 41
0.8
  7
GREEKS
100
AcDbText
  0
LINE
  5
8E
330
1E
100
AcDbEntity
  8
HILF
100
AcDbLine
 10
420.0
 20
-0.0000000000001137
 30
0.0
 11
419.9999999999999
 21
594.0
 31
0.0
  0
TEXT
  5
8F
330
1E
100
AcDbEntity
  8
VOLL
100
AcDbText
 10
78.07675471698113
 20
31.02594776470585
 30
0.0
 40
1.8
  1

  7
GREEKS
100
AcDbText
  0
TEXT
  5
90
330
1E
100
AcDbEntity
  8
TEXT
100
AcDbText
 10
41.85509950977674
 20
111.6719999999999
 30
0.0
 40
5.0
  1
Erstellt mit AUTOCAD 2004
 41
0.8
  7
GREEKS
100
AcDbText
  0
TEXT
  5
91
330
1E
100
AcDbEntity
  8
TEXT
100
AcDbText
 10
194.4216048581257
 20
63.0896391972351
 30
0.0
 40
4.0
  1
Koeh
 41
0.8
  7
GREEKS
 72
     1
 11
199.6787477152685
 21
63.0896391972351
 31
0.0
100
AcDbText
  0
TEXT
  5
92
330
1E
100
AcDbEntity
  8
TEXT
 62
     1
100
AcDbText
 10
348.6125905439592
 20
88.14901428913959
 30
0.0
 40
7.0
  1
17170100W
 41
0.8
  7
GREEKS
 72
     1
 11
371.0125905439592
 21
88.14901428913959
 31
0.0
100
AcDbText
  0
TEXT
  5
93
330
1E
100
AcDbEntity
  8
TEXT
 62
     1
100
AcDbText
 10
150.5006306481887
 20
88.14901428913959
 30
0.0
 40
7.0
  1
1:2
 41
0.8
  7
GREEKS
100
AcDbText
  0
TEXT
  5
94
330
1E
100
AcDbEntity
  8
TEXT
100
AcDbText
 10
160.7037590129979
 20
63.10765040825732
 30
0.0
 40
4.0
  1
23.12.
 41
0.8
  7
GREEKS
 72
     1
 11
167.4085209177598
 21
63.10765040825732
 31
0.0
100
AcDbText
  0
TEXT
  5
95
330
1E
100
AcDbEntity
  8
TEXT
 62
     1
100
AcDbText
 10
226.8935731057402
 20
87.41748789253779
 30
0.0
 40
7.0
  1
Ablauftopf DN100
 41
0.8
  7
GREEKS
100
AcDbText
  0
TEXT
  5
96
330
1E
100
AcDbEntity
  8
TEXT
100
AcDbText
 10
225.1296391125315
 20
71.50334417585288
 30
0.0
 40
5.0
  1
für Flachdach senkrecht
 41
0.8
  7
GREEKS
100
AcDbText
  0
TEXT
  5
97
330
1E
100
AcDbEntity
  8
TEXT
100
AcDbText
 10
225.1296391125315
 20
62.11580706774856
 30
0.0
 40
5.0
  1

 41
0.8
  7
GREEKS
100
AcDbText
  0
TEXT
  5
98
330
1E
100
AcDbEntity
  8
TEXT
100
AcDbText
 10
225.1296391125315
 20
51.64011943042158
 30
0.0
 40
5.0
  1
EDV-Art.Nr. 17170.100A
 41
0.8
  7
GREEKS
100
AcDbText
  0
TEXT
  5
99
330
1E
100
AcDbEntity
  8
TEXT
100
AcDbText
 10
224.9837501577827
 20
42.62974153022632
 30
0.0
 40
4.0
  1
17170100W.DWG
 41
0.8
  7
GREEKS
100
AcDbText
  0
TEXT
  5
9A
330
1E
100
AcDbEntity
  8
TEXT
100
AcDbText
 10
182.626132208084
 20
90.76363841023022
 30
0.0
 40
4.0
  1
DIN EN1123-2
 41
0.8
  7
GREEKS
 72
     1
 11
199.6166083985602
 21
90.76363841023022
 31
0.0
100
AcDbText
  0
INSERT
  5
9B
330
1E
100
AcDbEntity
  8
STEMPEL
100
AcDbBlockReference
  2
LOGO
 10
140.9955485457794
 20
45.02105276448322
 30
0.0
 41
2.0
 42
2.0
 43
2.0
  0
TEXT
  5
118
330
1E
100
AcDbEntity
  8
TEXT
100
AcDbText
 10
417.3022923857165
 20
10.16790107998849
 30
0.0
 40
4.0
  1
Diese Zeichnung ist urheberrechtlich geschützt und bleibt unser Eigentum. Sie darf weder ganz noch teilweise verfielfältigt und nicht an Dritte weitergegeben werden.
 50
90.0
 41
0.8
  7
GREEKS
100
AcDbText
  0
LINE
  5
7A0
330
1E
100
AcDbEntity
  8
HILF
100
AcDbLine
 10
191.4753817341218
 20
233.2656535717772
 30
0.0
 11
286.4617628516814
 21
233.2656535717772
 31
0.0
  0
LINE
  5
7A1
330
1E
100
AcDbEntity
  8
HILF
100
AcDbLine
 10
191.096559466446
 20
356.5465363821019
 30
0.0
 11
286.8269662369168
 21
356.5465363821019
 31
0.0
  0
LINE
  5
7A2
330
1E
100
AcDbEntity
  8
HILF
100
AcDbLine
 10
188.1458627202928
 20
364.480619324644
 30
0.0
 11
289.7776629830701
 21
364.4806193246441
 31
0.0
  0
LINE
  5
7A4
330
1E
100
AcDbEntity
  8
HILF
100
AcDbLine
 10
187.2537925429192
 20
449.6577567198231
 30
0.0
 11
290.6697331604437
 21
449.6577567198232
 31
0.0
  0
DIMENSION
  5
7A7
330
1E
100
AcDbEntity
  8
BEM
100
AcDbDimension
  2
*D1
 10
289.9617628516816
 20
205.0836631884053
 30
0.0
 11
238.9617628516815
 21
211.5836631884053
 31
0.0
 70
    32
  1
%%c<>
 71
     5
 42
102.0000000000001
  3
Standard
100
AcDbAlignedDimension
 13
187.9617628516814
 23
233.156702512256
 33
0.0
 14
289.9617628516816
 24
233.1567025122561
 34
0.0
100
AcDbRotatedDimension
1001
ACAD
1000
DSTYLE
1002
{
1070
    40
1040
2.0
1070
    41
1040
3.5
1070
    42
1040
1.0
1070
    43
1040
7.0
1070
    44
1040
1.0
1070
    73
1070
     0
1070
    74
1070
     0
1070
    77
1070
     1
1070
    78
1070
     8
1070
    79
1070
     2
1070
   140
1040
3.5
1070
   141
1040
1.5
1070
   146
1040
0.5
1070
   147
1040
1.5
1070
   172
1070
     1
1070
   178
1070
     1
1070
   179
1070
     2
1070
   271
1070
     2
1070
   272
1070
     2
1070
   284
1070
     8
1070
   285
1070
     8
1070
   286
1070
     8
1002
}
  0
LINE
  5
7A8
330
1E
100
AcDbEntity
  8
HILF
100
AcDbLine
 10
169.77116392844
 20
476.6926008971183
 30
0.0
 11
308.1523617749228
 21
476.6926008971183
 31
0.0
  0
LINE
  5
7A9
330
1E
100
AcDbEntity
  8
HILF
100
AcDbLine
 10
169.4991962415919
 20
479.964124415861
 30
0.0
 11
308.4243294617709
 21
479.964124415861
 31
0.0
  0
DIMENSION
  5
7AA
330
1E
100
AcDbEntity
  8
BEM
100
AcDbDimension
  2
*D2
 10
403.9617628516815
 20
522.8207308179569
 30
0.0
 11
238.9617628516815
 21
529.3207308179569
 31
0.0
 70
    32
  1
%%c<>
 71
     5
 42
330.0000000000001
  3
Standard
100
AcDbAlignedDimension
 13
73.96176285168144
 23
495.156702512256
 33
0.0
 14
403.9617628516815
 24
495.156702512256
 34
0.0
100
AcDbRotatedDimension
1001
ACAD
1000
DSTYLE
1002
{
1070
    40
1040
2.0
1070
    41
1040
3.5
1070
    42
1040
1.0
1070
    43
1040
7.0
1070
    44
1040
1.0
1070
    73
1070
     0
1070
    74
1070
     0
1070
    77
1070
     1
1070
    78
1070
     8
1070
    79
1070
     2
1070
   140
1040
3.5
1070
   141
1040
1.5
1070
   146
1040
0.5
1070
   147
1040
1.5
1070
   172
1070
     1
1070
   178
1070
     1
1070
   179
1070
     2
1070
   271
1070
     2
1070
   272
1070
     2
1070
   284
1070
     8
1070
   285
1070
     8
1070
   286
1070
     8
1002
}
  0
LINE
  5
7AB
102
{ACAD_REACTORS
330
A77
102
}
330
1E
100
AcDbEntity
  8
STEMPEL
100
AcDbLine
 10
188.9617628516814
 20
225.156702512256
 30
0.0
 11
288.9617628516814
 21
225.1567025122561
 31
0.0
  0
LINE
  5
7AC
102
{ACAD_REACTORS
330
AA2
102
}
330
1E
100
AcDbEntity
  8
STEMPEL
100
AcDbLine
 10
179.895519581422
 20
461.156702512256
 30
0.0
 11
298.0280061219407
 21
461.1567025122561
 31
0.0
  0
LINE
  5
7AD
102
{ACAD_REACTORS
330
AA2
102
}
330
1E
100
AcDbEntity
  8
STEMPEL
100
AcDbLine
 10
179.895519581422
 20
459.156702512256
 30
0.0
 11
298.0280061219407
 21
459.1567025122562
 31
0.0
  0
LINE
  5
7AE
102
{ACAD_REACTORS
330
AA2
102
}
330
1E
100
AcDbEntity
  8
STEMPEL
100
AcDbLine
 10
73.96176285168144
 20
495.156702512256
 30
0.0
 11
403.9617628516815
 21
495.156702512256
 31
0.0
  0
LINE
  5
7AF
330
1E
100
AcDbEntity
  8
HILF
100
AcDbLine
 10
170.7101248459141
 20
487.1567025122561
 30
0.0
 11
307.2134008574496
 21
487.1567025122561
 31
0.0
  0
LINE
  5
7B0
102
{ACAD_REACTORS
330
A77
102
}
330
1E
100
AcDbEntity
  8
STEMPEL
100
AcDbLine
 10
189.7117628516814
 20
351.8665091527733
 30
0.0
 11
189.7117628516814
 21
233.2656535717772
 31
0.0
  0
DIMENSION
  5
7B2
330
1E
100
AcDbEntity
  8
BEM
100
AcDbDimension
  2
*D3
 10
51.95148426926152
 20
495.156702512256
 30
0.0
 11
45.45148426926144
 21
360.1567025122561
 31
0.0
 70
    32
 71
     5
 42
270.0
  3
Standard
100
AcDbAlignedDimension
 13
189.2740928045703
 23
225.1567025122561
 33
0.0
 14
73.96176285168133
 24
495.156702512256
 34
0.0
 50
270.0
100
AcDbRotatedDimension
1001
ACAD
1000
DSTYLE
1002
{
1070
    40
1040
2.0
1070
    41
1040
3.5
1070
    42
1040
1.0
1070
    43
1040
7.0
1070
    44
1040
1.0
1070
    73
1070
     0
1070
    74
1070
     0
1070
    77
1070
     1
1070
    78
1070
     8
1070
    79
1070
     2
1070
   140
1040
3.5
1070
   141
1040
1.5
1070
   146
1040
0.5
1070
   147
1040
1.5
1070
   172
1070
     1
1070
   178
1070
     1
1070
   179
1070
     2
1070
   271
1070
     2
1070
   272
1070
     2
1070
   284
1070
     8
1070
   285
1070
     8
1070
   286
1070
     8
1002
}
  0
LINE
  5
7B3
102
{ACAD_REACTORS
330
A77
330
F0F
102
}
330
1E
100
AcDbEntity
  8
STEMPEL
100
AcDbLine
 10
187.9617628516814
 20
351.8665091527733
 30
0.0
 11
187.9617628516814
 21
233.1567025122551
 31
0.0
  0
LINE
  5
7B4
330
1E
100
AcDbEntity
  8
MITTEL
100
AcDbLine
 10
238.9617628516814
 20
500.156702512256
 30
0.0
 11
238.9617628516815
 21
324.6283169632111
 31
0.0
  0
TEXT
  5
7B5
330
1E
100
AcDbEntity
  8
TEXT
 62
     1
100
AcDbText
 10
42.77230848127635
 20
190.5341358942196
 30
0.0
 40
7.0
  1
Rohrende leicht eingezogen
 41
0.8
  7
GREEKS
100
AcDbText
  0
LINE
  5
7B6
102
{ACAD_REACTORS
330
A77
102
}
330
1E
100
AcDbEntity
  8
STEMPEL
100
AcDbLine
 10
189.7117628516814
 20
233.2656535717772
 30
0.0
 11
190.7253817341218
 21
225.1567025122559
 31
0.0
  0
LINE
  5
7B7
102
{ACAD_REACTORS
330
A77
102
}
330
1E
100
AcDbEntity
  8
STEMPEL
100
AcDbLine
 10
187.9617628516814
 20
233.1567025122551
 30
0.0
 11
188.9617628516814
 21
225.156702512256
 31
0.0
  0
LINE
  5
7BC
102
{ACAD_REACTORS
330
AA2
330
F0F
102
}
330
1E
100
AcDbEntity
  8
STEMPEL
100
AcDbLine
 10
73.96176285168144
 20
493.156702512256
 30
0.0
 11
160.7101248459141
 21
493.1567025122562
 31
0.0
  0
LINE
  5
7BD
102
{ACAD_REACTORS
330
AA2
102
}
330
1E
100
AcDbEntity
  8
STEMPEL
100
AcDbLine
 10
73.96176285168144
 20
495.156702512256
 30
0.0
 11
73.96176285168144
 21
493.156702512256
 31
0.0
  0
LINE
  5
7BE
102
{ACAD_REACTORS
330
A77
102
}
330
1E
100
AcDbEntity
  8
STEMPEL
100
AcDbLine
 10
184.2117628516814
 20
447.1539566792787
 30
0.0
 11
184.2117628516814
 21
368.6146433772175
 31
0.0
  0
LINE
  5
7BF
102
{ACAD_REACTORS
330
A77
102
}
330
1E
100
AcDbEntity
  8
STEMPEL
100
AcDbLine
 10
182.4617628516814
 20
447.1539566792787
 30
0.0
 11
182.4617628516814
 21
368.6146433772175
 31
0.0
  0
ARC
  5
7C0
102
{ACAD_REACTORS
330
A77
102
}
330
1E
100
AcDbEntity
  8
STEMPEL
100
AcDbCircle
 10
174.7117628516814
 20
351.8665091527733
 30
0.0
 40
13.25
100
AcDbArc
 50
0.0
 51
36.3598213248436
  0
ARC
  5
7C1
102
{ACAD_REACTORS
330
A77
102
}
330
1E
100
AcDbEntity
  8
STEMPEL
100
AcDbCircle
 10
174.7117628516814
 20
351.8665091527733
 30
0.0
 40
15.0
100
AcDbArc
 50
0.0
 51
36.3598213248436
  0
ARC
  5
7C2
102
{ACAD_REACTORS
330
A77
102
}
330
1E
100
AcDbEntity
  8
STEMPEL
100
AcDbCircle
 10
197.4617628516814
 20
368.6146433772175
 30
0.0
 40
13.25
100
AcDbArc
 50
180.0
 51
216.3598213248436
  0
ARC
  5
7C3
102
{ACAD_REACTORS
330
A77
102
}
330
1E
100
AcDbEntity
  8
STEMPEL
100
AcDbCircle
 10
197.4617628516814
 20
368.6146433772175
 30
0.0
 40
15.0
100
AcDbArc
 50
180.0
 51
216.3598213248436
  0
LINE
  5
7C4
102
{ACAD_REACTORS
330
A4C
330
A77
102
}
330
1E
100
AcDbEntity
  8
STEMPEL
100
AcDbLine
 10
177.4311783641874
 20
458.3629664025815
 30
0.0
 11
181.4273754355813
 21
451.1536360463109
 31
0.0
  0
LINE
  5
7C5
102
{ACAD_REACTORS
330
A77
102
}
330
1E
100
AcDbEntity
  8
STEMPEL
100
AcDbLine
 10
178.9617628516814
 20
459.2113832380126
 30
0.0
 11
182.9579599230754
 21
452.002052881742
 31
0.0
  0
ARC
  5
7C6
102
{ACAD_REACTORS
330
A77
102
}
330
1E
100
AcDbEntity
  8
STEMPEL
100
AcDbCircle
 10
174.2117628516814
 20
447.1539566792787
 30
0.0
 40
8.25
100
AcDbArc
 50
0.0
 51
28.99999999999917
  0
ARC
  5
7C7
102
{ACAD_REACTORS
330
A77
102
}
330
1E
100
AcDbEntity
  8
STEMPEL
100
AcDbCircle
 10
174.2117628516814
 20
447.1539566792787
 30
0.0
 40
10.0
100
AcDbArc
 50
0.0
 51
28.99999999999917
  0
LINE
  5
7C8
102
{ACAD_REACTORS
330
AA2
102
}
330
1E
100
AcDbEntity
  8
STEMPEL
100
AcDbLine
 10
167.4617628516814
 20
479.964124415861
 30
0.0
 11
167.4617628516814
 21
476.6926008971183
 31
0.0
  0
LINE
  5
7C9
102
{ACAD_REACTORS
330
AA2
102
}
330
1E
100
AcDbEntity
  8
STEMPEL
100
AcDbLine
 10
165.4617628516814
 20
480.156702512256
 30
0.0
 11
165.4617628516814
 21
476.156702512256
 31
0.0
  0
LINE
  5
7CA
102
{ACAD_REACTORS
330
AA2
102
}
330
1E
100
AcDbEntity
  8
STEMPEL
100
AcDbLine
 10
167.4617628516814
 20
476.6926008971183
 30
0.0
 11
174.6993671587154
 21
464.1567025122561
 31
0.0
  0
LINE
  5
7CB
102
{ACAD_REACTORS
330
AA2
102
}
330
1E
100
AcDbEntity
  8
STEMPEL
100
AcDbLine
 10
165.4617628516814
 20
476.156702512256
 30
0.0
 11
172.9673163511465
 21
463.156702512256
 31
0.0
  0
ARC
  5
7CC
102
{ACAD_REACTORS
330
AA2
102
}
330
1E
100
AcDbEntity
  8
STEMPEL
100
AcDbCircle
 10
179.895519581422
 20
467.156702512256
 30
0.0
 40
6.0
100
AcDbArc
 50
210.0000000000005
 51
270.0
  0
ARC
  5
7CD
102
{ACAD_REACTORS
330
A4C
330
AA2
102
}
330
1E
100
AcDbEntity
  8
STEMPEL
100
AcDbCircle
 10
179.895519581422
 20
467.156702512256
 30
0.0
 40
8.0
100
AcDbArc
 50
210.0000000000005
 51
270.0
  0
ARC
  5
7CE
102
{ACAD_REACTORS
330
A4C
102
}
330
1E
100
AcDbEntity
  8
SCHRAFF
100
AcDbCircle
 10
178.9617628516814
 20
459.2113832380126
 30
0.0
 40
3.0
100
AcDbArc
 50
162.4902587344857
 51
263.3146652873485
  0
LINE
  5
7CF
102
{ACAD_REACTORS
330
A4C
330
A77
102
}
330
1E
100
AcDbEntity
  8
STEMPEL
100
AcDbLine
 10
178.9617628516814
 20
459.2113832380126
 30
0.0
 11
177.4311783641874
 21
458.3629664025815
 31
0.0
  0
LINE
  5
7D0
102
{ACAD_REACTORS
330
AA2
102
}
330
1E
100
AcDbEntity
  8
STEMPEL
100
AcDbLine
 10
181.4617628516814
 20
461.156702512256
 30
0.0
 11
181.4617628516814
 21
459.156702512256
 31
0.0
  0
ARC
  5
7D1
102
{ACAD_REACTORS
330
AA2
102
}
330
1E
100
AcDbEntity
  8
STEMPEL
100
AcDbCircle
 10
160.7101248459141
 20
487.1567025122561
 30
0.0
 40
8.0
100
AcDbArc
 50
348.9999999999991
 51
90.0
  0
ARC
  5
7D2
102
{ACAD_REACTORS
330
AA2
102
}
330
1E
100
AcDbEntity
  8
STEMPEL
100
AcDbCircle
 10
160.7101248459141
 20
487.1567025122561
 30
0.0
 40
6.0
100
AcDbArc
 50
349.0000000000007
 51
90.0
  0
LINE
  5
7D3
102
{ACAD_REACTORS
330
AA2
102
}
330
1E
100
AcDbEntity
  8
STEMPEL
100
AcDbLine
 10
167.4617628516814
 20
479.964124415861
 30
0.0
 11
168.5631423134955
 21
485.6302305492438
 31
0.0
  0
LINE
  5
7D4
102
{ACAD_REACTORS
330
AA2
102
}
330
1E
100
AcDbEntity
  8
STEMPEL
100
AcDbLine
 10
165.4617628516814
 20
480.156702512256
 30
0.0
 11
166.5998879466002
 21
486.0118485399969
 31
0.0
  0
LINE
  5
7D6
102
{ACAD_REACTORS
330
A77
102
}
330
1E
100
AcDbEntity
  8
STEMPEL
100
AcDbLine
 10
288.2117628516814
 20
351.8665091527733
 30
0.0
 11
288.2117628516816
 21
233.2656535717792
 31
0.0
  0
LINE
  5
7D7
102
{ACAD_REACTORS
330
A77
102
}
330
1E
100
AcDbEntity
  8
STEMPEL
100
AcDbLine
 10
289.9617628516814
 20
351.8665091527733
 30
0.0
 11
289.9617628516816
 21
233.1567025122561
 31
0.0
  0
DIMENSION
  5
7D8
330
1E
100
AcDbEntity
  8
BEM
100
AcDbDimension
  2
*D4
 10
187.9617628516813
 20
261.9052431982602
 30
0.0
 11
157.9857701562926
 21
261.9052431982602
 31
0.0
 70
   160
 71
     5
 42
1.75
  3
Standard
100
AcDbAlignedDimension
 13
189.7117628516813
 23
259.5322857040075
 33
0.0
 14
187.9617628516813
 24
259.5322857040076
 34
0.0
 50
180.0
100
AcDbRotatedDimension
1001
ACAD
1000
DSTYLE
1002
{
1070
    40
1040
2.0
1070
    41
1040
3.5
1070
    42
1040
1.0
1070
    43
1040
7.0
1070
    44
1040
1.0
1070
    73
1070
     0
1070
    74
1070
     0
1070
    77
1070
     1
1070
    78
1070
     8
1070
    79
1070
     2
1070
   140
1040
3.5
1070
   141
1040
1.5
1070
   146
1040
0.5
1070
   147
1040
1.5
1070
   172
1070
     1
1070
   178
1070
     1
1070
   179
1070
     2
1070
   271
1070
     2
1070
   272
1070
     2
1070
   284
1070
     8
1070
   285
1070
     8
1070
   286
1070
     8
1002
}
  0
LINE
  5
7D9
102
{ACAD_REACTORS
330
A77
102
}
330
1E
100
AcDbEntity
  8
STEMPEL
100
AcDbLine
 10
288.2117628516816
 20
233.2656535717792
 30
0.0
 11
287.1981439692412
 21
225.156702512256
 31
0.0
  0
LINE
  5
7DA
102
{ACAD_REACTORS
330
A77
102
}
330
1E
100
AcDbEntity
  8
STEMPEL
100
AcDbLine
 10
289.9617628516816
 20
233.1567025122561
 30
0.0
 11
288.9617628516814
 21
225.1567025122561
 31
0.0
  0
LINE
  5
7DC
102
{ACAD_REACTORS
330
AA2
330
F0F
102
}
330
1E
100
AcDbEntity
  8
STEMPEL
100
AcDbLine
 10
403.9617628516815
 20
493.156702512256
 30
0.0
 11
317.2134008574486
 21
493.1567025122562
 31
0.0
  0
LINE
  5
7DD
102
{ACAD_REACTORS
330
A77
102
}
330
1E
100
AcDbEntity
  8
STEMPEL
100
AcDbLine
 10
293.7117628516814
 20
447.1539566792787
 30
0.0
 11
293.7117628516817
 21
368.6146433772175
 31
0.0
  0
LINE
  5
7DE
102
{ACAD_REACTORS
330
A77
102
}
330
1E
100
AcDbEntity
  8
STEMPEL
100
AcDbLine
 10
295.4617628516814
 20
447.1539566792787
 30
0.0
 11
295.4617628516814
 21
368.6146433772175
 31
0.0
  0
ARC
  5
7DF
102
{ACAD_REACTORS
330
A77
102
}
330
1E
100
AcDbEntity
  8
STEMPEL
100
AcDbCircle
 10
280.4617628516814
 20
368.6146433772175
 30
0.0
 40
13.25
100
AcDbArc
 50
323.6401786751564
 51
0.0
  0
ARC
  5
7E0
102
{ACAD_REACTORS
330
A77
102
}
330
1E
100
AcDbEntity
  8
STEMPEL
100
AcDbCircle
 10
280.4617628516814
 20
368.6146433772175
 30
0.0
 40
15.0
100
AcDbArc
 50
323.6401786751564
 51
0.0
  0
ARC
  5
7E1
102
{ACAD_REACTORS
330
A77
102
}
330
1E
100
AcDbEntity
  8
STEMPEL
100
AcDbCircle
 10
303.2117628516814
 20
351.8665091527733
 30
0.0
 40
15.0
100
AcDbArc
 50
143.6401786751564
 51
180.0
  0
ARC
  5
7E2
102
{ACAD_REACTORS
330
A77
102
}
330
1E
100
AcDbEntity
  8
STEMPEL
100
AcDbCircle
 10
303.2117628516814
 20
351.8665091527733
 30
0.0
 40
13.25
100
AcDbArc
 50
143.6401786751564
 51
180.0
  0
LINE
  5
7E3
330
1E
100
AcDbEntity
  8
TEXT
 62
     2
100
AcDbLine
 10
76.65698384906136
 20
558.5219026357869
 30
0.0
 11
82.35864208147605
 21
525.5758265433095
 31
0.0
  0
LINE
  5
7E4
102
{ACAD_REACTORS
330
A4C
330
A77
102
}
330
1E
100
AcDbEntity
  8
STEMPEL
100
AcDbLine
 10
300.4923473391755
 20
458.3629664025815
 30
0.0
 11
296.4961502677815
 21
451.153636046311
 31
0.0
  0
LINE
  5
7E5
102
{ACAD_REACTORS
330
A77
102
}
330
1E
100
AcDbEntity
  8
STEMPEL
100
AcDbLine
 10
298.9617628516814
 20
459.2113832380126
 30
0.0
 11
294.9655657802875
 21
452.002052881742
 31
0.0
  0
ARC
  5
7E6
102
{ACAD_REACTORS
330
A77
102
}
330
1E
100
AcDbEntity
  8
STEMPEL
100
AcDbCircle
 10
303.7117628516814
 20
447.1539566792787
 30
0.0
 40
10.0
100
AcDbArc
 50
151.0000000000008
 51
180.0
  0
ARC
  5
7E7
102
{ACAD_REACTORS
330
A77
102
}
330
1E
100
AcDbEntity
  8
STEMPEL
100
AcDbCircle
 10
303.7117628516814
 20
447.1539566792787
 30
0.0
 40
8.25
100
AcDbArc
 50
151.0000000000008
 51
180.0
  0
LINE
  5
7E8
102
{ACAD_REACTORS
330
AA2
102
}
330
1E
100
AcDbEntity
  8
STEMPEL
100
AcDbLine
 10
312.4617628516813
 20
480.156702512256
 30
0.0
 11
312.4617628516813
 21
476.156702512256
 31
0.0
  0
LINE
  5
7E9
102
{ACAD_REACTORS
330
AA2
102
}
330
1E
100
AcDbEntity
  8
STEMPEL
100
AcDbLine
 10
310.4617628516813
 20
479.964124415861
 30
0.0
 11
310.4617628516813
 21
476.6926008971183
 31
0.0
  0
ARC
  5
7EA
102
{ACAD_REACTORS
330
A4C
102
}
330
1E
100
AcDbEntity
  8
SCHRAFF
100
AcDbCircle
 10
298.9617628516814
 20
459.2113832380126
 30
0.0
 40
3.0
100
AcDbArc
 50
276.6853347126515
 51
17.50974126551422
  0
ARC
  5
7EB
102
{ACAD_REACTORS
330
A4C
330
AA2
102
}
330
1E
100
AcDbEntity
  8
STEMPEL
100
AcDbCircle
 10
298.0280061219407
 20
467.156702512256
 30
0.0
 40
8.0
100
AcDbArc
 50
270.0
 51
329.9999999999995
  0
ARC
  5
7EC
102
{ACAD_REACTORS
330
AA2
102
}
330
1E
100
AcDbEntity
  8
STEMPEL
100
AcDbCircle
 10
298.0280061219407
 20
467.156702512256
 30
0.0
 40
6.0
100
AcDbArc
 50
270.0
 51
329.9999999999995
  0
LINE
  5
7ED
102
{ACAD_REACTORS
330
AA2
102
}
330
1E
100
AcDbEntity
  8
STEMPEL
100
AcDbLine
 10
296.4617628516813
 20
461.156702512256
 30
0.0
 11
296.4617628516813
 21
459.156702512256
 31
0.0
  0
LINE
  5
7EE
102
{ACAD_REACTORS
330
A4C
330
A77
102
}
330
1E
100
AcDbEntity
  8
STEMPEL
100
AcDbLine
 10
298.9617628516814
 20
459.2113832380126
 30
0.0
 11
300.4923473391755
 21
458.3629664025816
 31
0.0
  0
LINE
  5
7EF
102
{ACAD_REACTORS
330
AA2
102
}
330
1E
100
AcDbEntity
  8
STEMPEL
100
AcDbLine
 10
310.4617628516813
 20
476.6926008971183
 30
0.0
 11
303.2241585446474
 21
464.1567025122561
 31
0.0
  0
LINE
  5
7F0
102
{ACAD_REACTORS
330
AA2
102
}
330
1E
100
AcDbEntity
  8
STEMPEL
100
AcDbLine
 10
312.4617628516813
 20
476.156702512256
 30
0.0
 11
304.9562093522162
 21
463.156702512256
 31
0.0
  0
ARC
  5
7F1
102
{ACAD_REACTORS
330
AA2
102
}
330
1E
100
AcDbEntity
  8
STEMPEL
100
AcDbCircle
 10
317.2134008574486
 20
487.1567025122561
 30
0.0
 40
6.0
100
AcDbArc
 50
90.0
 51
190.9999999999993
  0
ARC
  5
7F2
102
{ACAD_REACTORS
330
AA2
102
}
330
1E
100
AcDbEntity
  8
STEMPEL
100
AcDbCircle
 10
317.2134008574486
 20
487.1567025122561
 30
0.0
 40
8.0
100
AcDbArc
 50
90.0
 51
190.9999999999993
  0
LINE
  5
7F3
102
{ACAD_REACTORS
330
AA2
102
}
330
1E
100
AcDbEntity
  8
STEMPEL
100
AcDbLine
 10
310.4617628516813
 20
479.964124415861
 30
0.0
 11
309.3603833898673
 21
485.6302305492438
 31
0.0
  0
LINE
  5
7F4
102
{ACAD_REACTORS
330
AA2
102
}
330
1E
100
AcDbEntity
  8
STEMPEL
100
AcDbLine
 10
312.4617628516813
 20
480.156702512256
 30
0.0
 11
311.3236377567627
 21
486.0118485399969
 31
0.0
  0
LINE
  5
7F5
102
{ACAD_REACTORS
330
AA2
102
}
330
1E
100
AcDbEntity
  8
STEMPEL
100
AcDbLine
 10
403.9617628516815
 20
495.156702512256
 30
0.0
 11
403.9617628516815
 21
493.156702512256
 31
0.0
  0
TEXT
  5
7F7
330
1E
100
AcDbEntity
  8
TEXT
 62
     1
100
AcDbText
 10
200.6576622790982
 20
130.7721724908582
 30
0.0
 40
7.0
  1
pulverbeschichtet mit Polyesterpulver glatt
 41
0.8
  7
GREEKS
100
AcDbText
  0
TEXT
  5
7F8
330
1E
100
AcDbEntity
  8
TEXT
 62
     1
100
AcDbText
 10
152.7419752698997
 20
142.8380624259882
 30
0.0
 40
7.0
  1
Werkstoff: AlMn1, W 10, DIN 1725+1746/1+1795
 41
0.8
  7
GREEKS
100
AcDbText
  0
TEXT
  5
8E8
330
1E
100
AcDbEntity
  8
TEXT
 62
     1
100
AcDbText
 10
84.89439032387105
 20
549.1360054734236
 30
0.0
 40
7.0
  1
EDV-Art.Nr. 17115.100A
 41
0.8
  7
GREEKS
100
AcDbText
  0
TEXT
  5
8E9
330
1E
100
AcDbEntity
  8
TEXT
 62
     1
100
AcDbText
 10
84.89439032387116
 20
561.7825530715648
 30
0.0
 40
7.0
  1
Ablauftopf DN100 DN100
 41
0.8
  7
GREEKS
100
AcDbText
  0
LINE
  5
8EA
330
1E
100
AcDbEntity
  8
TEXT
 62
     2
100
AcDbLine
 10
191.0897923966011
 20
558.5219026357868
 30
0.0
 11
76.65698384906136
 21
558.5219026357869
 31
0.0
  0
HATCH
  5
A4C
330
1E
100
AcDbEntity
  8
SCHRAFF
100
AcDbHatch
 10
0.0
 20
0.0
 30
0.0
210
0.0
220
0.0
230
1.0
  2
_USER
 70
     0
 71
     1
 91
        2
 92
        7
 72
     1
 73
     1
 93
        4
 10
301.8227602871399
 20
460.1139870682172
 42
-0.0945887848327615
 10
298.9617628516815
 20
459.2113832380126
 42
0.0
 10
300.4923473391755
 20
458.3629664025817
 42
0.0
 10
299.3110124229439
 20
456.2317817987303
 42
0.4706943623819252
 97
        4
330
7EB
330
7EE
330
7E4
330
7EA
 92
        7
 72
     1
 73
     1
 93
        4
 10
178.9617628516814
 20
459.2113832380126
 42
-0.0945887848327624
 10
176.1007654162229
 20
460.1139870682171
 42
0.4706943623819124
 10
178.6125132804189
 20
456.2317817987304
 42
0.0
 10
177.4311783641874
 20
458.3629664025815
 42
0.0
 97
        4
330
7CD
330
7CE
330
7C4
330
7CF
 75
     0
 76
     0
 52
0.0
 41
0.1
 77
     0
 78
     1
 53
0.0
 43
0.0
 44
0.0
 45
0.0
 46
0.1
 79
     0
 47
0.1859516016206393
 98
        2
 10
301.1615341437078
 20
458.6200522603173
 10
176.6926239769495
 20
458.4341005810269
  0
HATCH
  5
A77
330
1E
100
AcDbEntity
  8
SCHRAFF
100
AcDbHatch
 10
0.0
 20
0.0
 30
0.0
210
0.0
220
0.0
230
1.0
  2
_USER
 70
     0
 71
     1
 91
        2
 92
        7
 72
     1
 73
     1
 93
       16
 10
293.7117628516817
 20
368.6146433772175
 42
-0.1599942435199939
 10
291.1321168339824
 20
360.7593237852216
 42
0.1599942435199949
 10
288.2117628516814
 20
351.8665091527733
 42
0.0
 10
288.2117628516816
 20
233.2656535717793
 42
0.0
 10
287.1981439692413
 20
225.1567025122561
 42
0.0
 10
288.9617628516814
 20
225.1567025122561
 42
0.0
 10
289.9617628516816
 20
233.156702512256
 42
0.0
 10
289.9617628516814
 20
351.8665091527733
 42
-0.1599942435199924
 10
292.5414088693805
 20
359.7218287447692
 42
0.1599942435199959
 10
295.4617628516814
 20
368.6146433772175
 42
0.0
 10
295.4617628516814
 20
447.1539566792787
 42
-0.1272160680010472
 10
296.4961502677815
 20
451.153636046311
 42
0.0
 10
300.4923473391755
 20
458.3629664025817
 42
0.0
 10
298.9617628516815
 20
459.2113832380126
 42
0.0
 10
294.9655657802875
 20
452.002052881742
 42
0.1272160680010512
 10
293.7117628516814
 20
447.1539566792785
 42
0.0
 97
       16
330
7E7
330
7E4
330
7EE
330
7E5
330
7E6
330
7DD
330
7DF
330
7E1
330
7D6
330
7D9
330
7AB
330
7DA
330
7D7
330
7E2
330
7E0
330
7DE
 92
        7
 72
     1
 73
     1
 93
       16
 10
182.4617628516814
 20
368.6146433772175
 42
0.1599942435199947
 10
185.3821168339823
 20
359.7218287447693
 42
-0.159994243519995
 10
187.9617628516814
 20
351.8665091527732
 42
0.0
 10
187.9617628516814
 20
233.1567025122552
 42
0.0
 10
188.9617628516814
 20
225.156702512256
 42
0.0
 10
190.7253817341218
 20
225.156702512256
 42
0.0
 10
189.7117628516814
 20
233.2656535717771
 42
0.0
 10
189.7117628516814
 20
351.8665091527733
 42
0.1599942435199937
 10
186.7914088693805
 20
360.7593237852215
 42
-0.1599942435199948
 10
184.2117628516814
 20
368.6146433772175
 42
0.0
 10
184.2117628516814
 20
447.1539566792787
 42
0.1272160680010447
 10
182.9579599230754
 20
452.002052881742
 42
0.0
 10
178.9617628516814
 20
459.2113832380127
 42
0.0
 10
177.4311783641874
 20
458.3629664025816
 42
0.0
 10
181.4273754355813
 20
451.1536360463109
 42
-0.1272160680010553
 10
182.4617628516814
 20
447.1539566792784
 42
0.0
 97
       16
330
7C7
330
7C5
330
7CF
330
7C4
330
7C6
330
7BF
330
7C3
330
7C0
330
7B3
330
7B7
330
7AB
330
7B6
330
7B0
330
7C1
330
7C2
330
7BE
 75
     0
 76
     0
 52
45.0
 41
2.0
 77
     0
 78
     1
 53
45.0
 43
0.0
 44
10.0
 45
-1.414213562373094
 46
1.414213562373095
 79
     0
 47
0.4781148526975332
 98
        2
 10
294.1878154534757
 20
409.6962818778228
 10
183.2051740620313
 20
423.561612516246
  0
HATCH
  5
AA2
330
1E
100
AcDbEntity
  8
SCHRAFF
100
AcDbHatch
 10
0.0
 20
0.0
 30
0.0
210
0.0
220
0.0
230
1.0
  2
_USER
 70
     0
 71
     1
 91
        2
 92
        7
 72
     1
 73
     1
 93
       16
 10
403.9617628516815
 20
493.156702512256
 42
0.0
 10
403.9617628516816
 20
495.1567025122561
 42
0.0
 10
317.2134008574486
 20
495.1567025122561
 42
0.4716306187712197
 10
309.3603833898673
 20
485.6302305492438
 42
0.0
 10
310.4617628516814
 20
479.964124415861
 42
0.0
 10
310.4617628516813
 20
476.6926008971183
 42
0.0
 10
303.2241585446474
 20
464.1567025122561
 42
-0.2679491924311188
 10
298.0280061219407
 20
461.1567025122561
 42
0.0
 10
296.4617628516813
 20
461.1567025122562
 42
0.0
 10
296.4617628516813
 20
459.1567025122562
 42
0.0
 10
298.0280061219407
 20
459.1567025122562
 42
0.2679491924311192
 10
304.9562093522162
 20
463.156702512256
 42
0.0
 10
312.4617628516813
 20
476.156702512256
 42
0.0
 10
312.4617628516813
 20
480.1567025122562
 42
0.0
 10
311.3236377567627
 20
486.0118485399969
 42
-0.4716306187712215
 10
317.2134008574486
 20
493.1567025122562
 42
0.0
 97
       16
330
7AE
330
7F2
330
7F3
330
7E9
330
7EF
330
7EC
330
7AC
330
7ED
330
7AD
330
7EB
330
7F0
330
7E8
330
7F4
330
7F1
330
7DC
330
7F5
 92
        7
 72
     1
 73
     1
 93
       16
 10
160.7101248459141
 20
493.1567025122562
 42
-0.4716306187712253
 10
166.5998879466002
 20
486.0118485399969
 42
0.0
 10
165.4617628516814
 20
480.156702512256
 42
0.0
 10
165.4617628516814
 20
476.1567025122559
 42
0.0
 10
172.9673163511465
 20
463.156702512256
 42
0.2679491924311224
 10
179.895519581422
 20
459.156702512256
 42
0.0
 10
181.4617628516814
 20
459.156702512256
 42
0.0
 10
181.4617628516814
 20
461.156702512256
 42
0.0
 10
179.895519581422
 20
461.156702512256
 42
-0.267949192431123
 10
174.6993671587154
 20
464.1567025122561
 42
0.0
 10
167.4617628516814
 20
476.6926008971184
 42
0.0
 10
167.4617628516814
 20
479.9641244158609
 42
0.0
 10
168.5631423134955
 20
485.6302305492438
 42
0.4716306187712163
 10
160.7101248459142
 20
495.156702512256
 42
0.0
 10
73.96176285168144
 20
495.1567025122559
 42
0.0
 10
73.96176285168142
 20
493.156702512256
 42
0.0
 97
       16
330
7AE
330
7BD
330
7BC
330
7D2
330
7D4
330
7C9
330
7CB
330
7CD
330
7AD
330
7D0
330
7AC
330
7CC
330
7CA
330
7C8
330
7D3
330
7D1
 75
     0
 76
     0
 52
135.0
 41
2.0
 77
     0
 78
     1
 53
135.0
 43
0.0
 44
0.0
 45
-1.414213562373095
 46
-1.414213562373094
 79
     0
 47
0.4781148526975332
 98
        2
 10
359.7249790854848
 20
493.8849074490445
 10
146.37041698556
 20
493.8849074490445
  0
TEXT
  5
AA3
330
1E
100
AcDbEntity
  8
TEXT
 62
     1
100
AcDbText
 10
223.5680784270183
 20
371.165618839734
 30
0.0
 40
7.0
  1
DN100
 50
90.0
 41
0.8
  7
GREEKS
100
AcDbText
  0
DIMENSION
  5
ABE
330
1E
100
AcDbEntity
  8
BEM
100
AcDbDimension
  2
*D5
 10
64.09861691639799
 20
495.156702512256
 30
0.0
 11
57.5986169163979
 21
514.0233691789227
 31
0.0
 70
    32
 71
     5
 42
2.0
  3
Standard
100
AcDbAlignedDimension
 13
73.96176285168144
 23
493.156702512256
 33
0.0
 14
73.96176285168144
 24
495.156702512256
 34
0.0
 50
90.0
100
AcDbRotatedDimension
1001
ACAD
1000
DSTYLE
1002
{
1070
    40
1040
2.0
1070
    41
1040
3.5
1070
    42
1040
1.0
1070
    43
1040
7.0
1070
    44
1040
1.0
1070
    73
1070
     0
1070
    74
1070
     0
1070
    77
1070
     1
1070
    78
1070
     8
1070
    79
1070
     2
1070
   140
1040
3.5
1070
   141
1040
1.5
1070
   146
1040
0.5
1070
   147
1040
1.5
1070
   172
1070
     1
1070
   178
1070
     1
1070
   179
1070
     2
1070
   271
1070
     2
1070
   272
1070
     2
1070
   284
1070
     8
1070
   285
1070
     8
1070
   286
1070
     8
1002
}
  0
LINE
  5
BE6
330
1E
100
AcDbEntity
  8
MITTEL
100
AcDbLine
 10
238.9617628516815
 20
309.8593287108088
 30
0.0
 11
238.9617628516814
 21
220.156702512256
 31
0.0
  0
TEXT
  5
BED
330
1E
100
AcDbEntity
  8
TEXT
 62
     1
100
AcDbText
 10
152.7584947041307
 20
115.5729073667435
 30
0.0
 40
7.0
  1
Werkstoff: Styropor SE WLG 0,35
 41
0.8
  7
GREEKS
100
AcDbText
  0
TEXT
  5
BF8
330
1E
100
AcDbEntity
  8
TEXT
 62
     1
100
AcDbText
 10
388.0537402098934
 20
195.4326947305362
 30
0.0
 40
7.0
  1

 50
90.0
 41
0.8
  7
GREEKS
100
AcDbText
  0
TEXT
  5
BFD
330
1E
100
AcDbEntity
  8
TEXT
100
AcDbText
 10
225.1296391125315
 20
61.50334417585291
 30
0.0
 40
5.0
  1
mit Wärmedämmung und Heizung
 41
0.8
  7
GREEKS
100
AcDbText
  0
LINE
  5
CA7
330
1E
100
AcDbEntity
  8
TEXT
 62
     2
100
AcDbLine
 10
244.4531332085467
 20
558.5219026357868
 30
0.0
 11
356.7319853002525
 21
558.5219026357866
 31
0.0
  0
TEXT
  5
CA8
330
1E
100
AcDbEntity
  8
TEXT
 62
     1
100
AcDbText
 10
246.473767312567
 20
562.2448559355931
 30
0.0
 40
7.0
  1
Wärmedämmung DN100
 41
0.8
  7
GREEKS
100
AcDbText
  0
TEXT
  5
CA9
330
1E
100
AcDbEntity
  8
TEXT
 62
     1
100
AcDbText
 10
246.473767312567
 20
548.0319462046629
 30
0.0
 40
7.0
  1
EDV-Art.Nr. 19842.100X
 41
0.8
  7
GREEKS
100
AcDbText
  0
LINE
  5
D2F
330
1E
100
AcDbEntity
  8
STEMPEL
100
AcDbLine
 10
289.9617628516814
 20
339.1567025122548
 30
0.0
 11
289.9617628516814
 21
349.1567025122548
 31
0.0
  0
POLYLINE
  5
D98
330
1E
100
AcDbEntity
  8
STEMPEL
100
AcDb2dPolyline
 66
     1
 10
0.0
 20
0.0
 30
0.0
 70
     4
 75
     6
  0
VERTEX
  5
D99
330
D98
100
AcDbEntity
  8
STEMPEL
100
AcDbVertex
100
AcDb2dVertex
 10
289.9617715295232
 20
331.1630583792211
 30
0.0
 70
    16
  0
VERTEX
  5
D9A
330
D98
100
AcDbEntity
  8
STEMPEL
100
AcDbVertex
100
AcDb2dVertex
 10
289.9617715295232
 20
331.1630583792211
 30
0.0
 70
     8
  0
VERTEX
  5
D9B
330
D98
100
AcDbEntity
  8
STEMPEL
100
AcDbVertex
100
AcDb2dVertex
 10
290.6164266331586
 20
324.2414362888865
 30
0.0
 70
     8
  0
VERTEX
  5
D9C
330
D98
100
AcDbEntity
  8
STEMPEL
100
AcDbVertex
100
AcDb2dVertex
 10
291.1824951112426
 20
318.7910530842176
 30
0.0
 70
     8
  0
VERTEX
  5
D9D
330
D98
100
AcDbEntity
  8
STEMPEL
100
AcDbVertex
100
AcDb2dVertex
 10
291.7539593040127
 20
314.3285580405315
 30
0.0
 70
     8
  0
VERTEX
  5
D9E
330
D98
100
AcDbEntity
  8
STEMPEL
100
AcDbVertex
100
AcDb2dVertex
 10
292.4248015517067
 20
310.370600433145
 30
0.0
 70
     8
  0
VERTEX
  5
D9F
330
D98
100
AcDbEntity
  8
STEMPEL
100
AcDbVertex
100
AcDb2dVertex
 10
293.2890041945622
 20
306.4338295373752
 30
0.0
 70
     8
  0
VERTEX
  5
DA0
330
D98
100
AcDbEntity
  8
STEMPEL
100
AcDbVertex
100
AcDb2dVertex
 10
294.4405495728172
 20
302.034894628539
 30
0.0
 70
     8
  0
VERTEX
  5
DA1
330
D98
100
AcDbEntity
  8
STEMPEL
100
AcDbVertex
100
AcDb2dVertex
 10
295.973420026709
 20
296.6904449819534
 30
0.0
 70
     8
  0
VERTEX
  5
DA2
330
D98
100
AcDbEntity
  8
STEMPEL
100
AcDbVertex
100
AcDb2dVertex
 10
297.9815978964758
 20
289.9171298729354
 30
0.0
 70
     8
  0
VERTEX
  5
DA3
330
D98
100
AcDbEntity
  8
STEMPEL
100
AcDbVertex
100
AcDb2dVertex
 10
291.9091738312756
 20
310.3141025355005
 30
0.0
 70
    16
  0
VERTEX
  5
DA4
330
D98
100
AcDbEntity
  8
STEMPEL
100
AcDbVertex
100
AcDb2dVertex
 10
297.9815978964759
 20
289.9171298729354
 30
0.0
 70
    16
  0
SEQEND
  5
DA5
330
D98
100
AcDbEntity
  8
STEMPEL
  0
LINE
  5
DA6
330
1E
100
AcDbEntity
  8
TEXT
 62
     2
100
AcDbLine
 10
309.1091591789397
 20
272.9808319349142
 30
0.0
 11
299.0394478282381
 21
294.6338198527688
 31
0.0
  0
POLYLINE
  5
DA7
330
1E
100
AcDbEntity
  8
STEMPEL
100
AcDb2dPolyline
 66
     1
 10
0.0
 20
0.0
 30
0.0
  0
VERTEX
  5
DA8
330
DA7
100
AcDbEntity
  8
STEMPEL
100
AcDbVertex
100
AcDb2dVertex
 10
299.9617628516814
 20
331.1567025122548
 30
0.0
  0
VERTEX
  5
DA9
330
DA7
100
AcDbEntity
  8
STEMPEL
100
AcDbVertex
100
AcDb2dVertex
 10
299.9563070603203
 20
324.2896114694989
 30
0.0
  0
VERTEX
  5
DAA
330
DA7
100
AcDbEntity
  8
STEMPEL
100
AcDbVertex
100
AcDb2dVertex
 10
300.0237587348836
 20
319.0358653562772
 30
0.0
  0
VERTEX
  5
DAB
330
DA7
100
AcDbEntity
  8
STEMPEL
100
AcDbVertex
100
AcDb2dVertex
 10
300.2211824214953
 20
314.9570859563895
 30
0.0
  0
VERTEX
  5
DAC
330
DA7
100
AcDbEntity
  8
STEMPEL
100
AcDbVertex
100
AcDb2dVertex
 10
300.596165610348
 20
311.5259743730275
 30
0.0
  0
VERTEX
  5
DAD
330
DA7
100
AcDbEntity
  8
STEMPEL
100
AcDbVertex
100
AcDb2dVertex
 10
301.221341467512
 20
308.1061182789732
 30
0.0
  0
VERTEX
  5
DAE
330
DA7
100
AcDbEntity
  8
STEMPEL
100
AcDbVertex
100
AcDb2dVertex
 10
302.2094234818851
 20
304.071587403564
 30
0.0
  0
VERTEX
  5
DAF
330
DA7
100
AcDbEntity
  8
STEMPEL
100
AcDbVertex
100
AcDb2dVertex
 10
303.6634083364439
 20
298.9101057853385
 30
0.0
  0
VERTEX
  5
DB0
330
DA7
100
AcDbEntity
  8
STEMPEL
100
AcDbVertex
100
AcDb2dVertex
 10
305.6527956584117
 20
292.1870913037251
 30
0.0
  0
SEQEND
  5
DB1
330
DA7
100
AcDbEntity
  8
STEMPEL
  0
LINE
  5
DB2
330
1E
100
AcDbEntity
  8
MITTEL
100
AcDbLine
 10
308.5294948191377
 20
293.0383268402712
 30
0.0
 11
295.1048987357502
 21
289.0658943363892
 31
0.0
  0
HATCH
  5
DB4
330
1E
100
AcDbEntity
  8
SCHRAFF
100
AcDbHatch
 10
0.0
 20
0.0
 30
0.0
210
0.0
220
0.0
230
1.0
  2
NET
 70
     0
 71
     1
 91
        2
 92
        7
 72
     1
 73
     1
 93
        8
 10
300.4617628516815
 20
447.1539566792786
 42
0.4142135623730618
 10
298.4617628516817
 20
449.1539566792787
 42
0.0
 10
297.4617628516814
 20
449.1539566792788
 42
0.4142135623730951
 10
295.4617628516814
 20
447.1539566792787
 42
0.0
 10
295.4617628516814
 20
441.1539566792787
 42
0.4142135623730951
 10
297.4617628516814
 20
439.1539566792786
 42
0.0
 10
298.4617628516815
 20
439.1539566792786
 42
0.4142135623730951
 10
300.4617628516815
 20
441.1539566792787
 42
0.0
 97
        8
330
DB6
330
DB7
330
DB5
330
DBC
330
DBB
330
DBF
330
DBE
330
DC6
 92
       22
 72
     1
 73
     1
 93
        8
 10
299.4617628516814
 20
441.1539566792787
 42
-0.4142135623730951
 10
298.4617628516815
 20
440.1539566792786
 42
0.0
 10
297.4617628516814
 20
440.1539566792786
 42
-0.4142135623730951
 10
296.4617628516815
 20
441.1539566792787
 42
0.0
 10
296.4617628516815
 20
447.1539566792787
 42
-0.4142135623731284
 10
297.4617628516816
 20
448.1539566792788
 42
0.0
 10
298.4617628516815
 20
448.1539566792786
 42
-0.4142135623730951
 10
299.4617628516814
 20
447.1539566792786
 42
0.0
 97
        8
330
DC0
330
DC1
330
DB9
330
DC4
330
DBA
330
DC2
330
DBD
330
DC3
 75
     0
 76
     1
 52
45.0
 41
10.0
 77
     0
 78
     2
 53
45.0
 43
5.185990698162413
 44
96.04980714372397
 45
-0.8838834764831842
 46
0.8838834764831844
 79
     0
 53
135.0
 43
5.185990698162413
 44
96.04980714372397
 45
-0.8838834764831844
 46
-0.8838834764831842
 79
     0
 47
0.2432155912222071
 98
        2
 10
300.1741932588345
 20
441.4731320719229
 10
300.1741932588345
 20
441.4731320719229
  0
ARC
  5
DB5
102
{ACAD_REACTORS
330
DB4
102
}
330
1E
100
AcDbEntity
  8
STEMPEL
100
AcDbCircle
 10
297.4617628516814
 20
447.1539566792787
 30
0.0
 40
2.0
100
AcDbArc
 50
90.0
 51
180.0
  0
ARC
  5
DB6
102
{ACAD_REACTORS
330
DB4
102
}
330
1E
100
AcDbEntity
  8
STEMPEL
100
AcDbCircle
 10
298.4617628516815
 20
447.1539566792786
 30
0.0
 40
2.0
100
AcDbArc
 50
0.0
 51
90.0
  0
LINE
  5
DB7
102
{ACAD_REACTORS
330
DB4
102
}
330
1E
100
AcDbEntity
  8
STEMPEL
100
AcDbLine
 10
298.4617628516817
 20
449.1539566792787
 30
0.0
 11
297.4617628516814
 21
449.1539566792788
 31
0.0
  0
ARC
  5
DB9
102
{ACAD_REACTORS
330
DC5
330
DB4
102
}
330
1E
100
AcDbEntity
  8
STEMPEL
100
AcDbCircle
 10
297.4617628516814
 20
441.1539566792787
 30
0.0
 40
1.0
100
AcDbArc
 50
180.0
 51
270.0
  0
ARC
  5
DBA
102
{ACAD_REACTORS
330
DC5
330
DB4
102
}
330
1E
100
AcDbEntity
  8
STEMPEL
100
AcDbCircle
 10
297.4617628516814
 20
447.1539566792787
 30
0.0
 40
1.0
100
AcDbArc
 50
90.0
 51
180.0
  0
ARC
  5
DBB
102
{ACAD_REACTORS
330
DB4
102
}
330
1E
100
AcDbEntity
  8
STEMPEL
100
AcDbCircle
 10
297.4617628516814
 20
441.1539566792787
 30
0.0
 40
2.0
100
AcDbArc
 50
180.0
 51
270.0
  0
LINE
  5
DBC
102
{ACAD_REACTORS
330
DB4
102
}
330
1E
100
AcDbEntity
  8
STEMPEL
  6
Continuous
100
AcDbLine
 10
295.4617628516814
 20
447.1539566792787
 30
0.0
 11
295.4617628516814
 21
441.1539566792787
 31
0.0
  0
ARC
  5
DBD
102
{ACAD_REACTORS
330
DC5
330
DB4
102
}
330
1E
100
AcDbEntity
  8
STEMPEL
100
AcDbCircle
 10
298.4617628516815
 20
447.1539566792786
 30
0.0
 40
1.0
100
AcDbArc
 50
0.0
 51
90.0
  0
ARC
  5
DBE
102
{ACAD_REACTORS
330
DB4
102
}
330
1E
100
AcDbEntity
  8
STEMPEL
100
AcDbCircle
 10
298.4617628516815
 20
441.1539566792787
 30
0.0
 40
2.0
100
AcDbArc
 50
270.0
 51
0.0
  0
LINE
  5
DBF
102
{ACAD_REACTORS
330
DB4
102
}
330
1E
100
AcDbEntity
  8
STEMPEL
100
AcDbLine
 10
297.4617628516814
 20
439.1539566792786
 30
0.0
 11
298.4617628516815
 21
439.1539566792786
 31
0.0
  0
ARC
  5
DC0
102
{ACAD_REACTORS
330
DC5
330
DB4
102
}
330
1E
100
AcDbEntity
  8
STEMPEL
100
AcDbCircle
 10
298.4617628516815
 20
441.1539566792787
 30
0.0
 40
1.0
100
AcDbArc
 50
270.0
 51
0.0
  0
LINE
  5
DC1
102
{ACAD_REACTORS
330
DC5
330
DB4
102
}
330
1E
100
AcDbEntity
  8
STEMPEL
100
AcDbLine
 10
297.4617628516814
 20
440.1539566792786
 30
0.0
 11
298.4617628516815
 21
440.1539566792786
 31
0.0
  0
LINE
  5
DC2
102
{ACAD_REACTORS
330
DC5
330
DB4
102
}
330
1E
100
AcDbEntity
  8
STEMPEL
100
AcDbLine
 10
297.4617628516814
 20
448.1539566792788
 30
0.0
 11
298.4617628516815
 21
448.1539566792786
 31
0.0
  0
LINE
  5
DC3
102
{ACAD_REACTORS
330
DC5
330
DB4
102
}
330
1E
100
AcDbEntity
  8
STEMPEL
  6
Continuous
100
AcDbLine
 10
299.4617628516814
 20
447.1539566792786
 30
0.0
 11
299.4617628516814
 21
441.1539566792787
 31
0.0
  0
LINE
  5
DC4
102
{ACAD_REACTORS
330
DC5
330
DB4
102
}
330
1E
100
AcDbEntity
  8
STEMPEL
  6
Continuous
100
AcDbLine
 10
296.4617628516815
 20
447.1539566792787
 30
0.0
 11
296.4617628516815
 21
441.1539566792787
 31
0.0
  0
HATCH
  5
DC5
330
1E
100
AcDbEntity
  8
SCHRAFF
100
AcDbHatch
 10
0.0
 20
0.0
 30
0.0
210
0.0
220
0.0
230
1.0
  2
_USER
 70
     0
 71
     1
 91
        1
 92
        7
 72
     1
 73
     1
 93
        8
 10
299.4617628516814
 20
447.1539566792786
 42
0.4142135623730951
 10
298.4617628516815
 20
448.1539566792786
 42
0.0
 10
297.4617628516814
 20
448.1539566792788
 42
0.4142135623730951
 10
296.4617628516815
 20
447.1539566792787
 42
0.0
 10
296.4617628516815
 20
441.1539566792787
 42
0.4142135623730951
 10
297.4617628516814
 20
440.1539566792786
 42
0.0
 10
298.4617628516815
 20
440.1539566792786
 42
0.4142135623730951
 10
299.4617628516814
 20
441.1539566792787
 42
0.0
 97
        8
330
DBD
330
DC2
330
DBA
330
DC4
330
DB9
330
DC1
330
DC0
330
DC3
 75
     0
 76
     0
 52
135.0
 41
1.0
 77
     0
 78
     1
 53
135.0
 43
37.53184409983965
 44
64.74684270894255
 45
-0.7071067811865476
 46
-0.7071067811865475
 79
     0
 47
0.1071053300341939
 98
        1
 10
298.0269128634739
 20
443.9300321128554
  0
LINE
  5
DC6
102
{ACAD_REACTORS
330
DB4
102
}
330
1E
100
AcDbEntity
  8
STEMPEL
  6
Continuous
100
AcDbLine
 10
300.4617628516815
 20
447.1539566792786
 30
0.0
 11
300.4617628516815
 21
441.1539566792787
 31
0.0
  0
LINE
  5
DC8
102
{ACAD_REACTORS
330
F0F
102
}
330
1E
100
AcDbEntity
  8
STEMPEL
100
AcDbLine
 10
299.9617628516814
 20
331.1567025122548
 30
0.0
 11
299.9617628516814
 21
349.7798351753802
 31
0.0
  0
ARC
  5
DC9
102
{ACAD_REACTORS
330
F0F
102
}
330
1E
100
AcDbEntity
  8
STEMPEL
100
AcDbCircle
 10
309.9617628516814
 20
349.7798351753802
 30
0.0
 40
10.0
100
AcDbArc
 50
154.9921667653157
 51
179.9999999999996
  0
LINE
  5
DCA
102
{ACAD_REACTORS
330
DDB
102
}
330
1E
100
AcDbEntity
  8
STEMPEL
  6
Continuous
100
AcDbLine
 10
177.4617628516814
 20
447.1539566792786
 30
0.0
 11
177.4617628516814
 21
441.1539566792787
 31
0.0
  0
HATCH
  5
DCB
330
1E
100
AcDbEntity
  8
SCHRAFF
100
AcDbHatch
 10
0.0
 20
0.0
 30
0.0
210
0.0
220
0.0
230
1.0
  2
_USER
 70
     0
 71
     1
 91
        1
 92
        7
 72
     1
 73
     1
 93
        8
 10
178.4617628516814
 20
441.1539566792787
 42
0.4142135623730951
 10
179.4617628516814
 20
440.1539566792786
 42
0.0
 10
180.4617628516814
 20
440.1539566792786
 42
0.4142135623730951
 10
181.4617628516814
 20
441.1539566792787
 42
0.0
 10
181.4617628516814
 20
447.1539566792787
 42
0.4142135623731283
 10
180.4617628516813
 20
448.1539566792788
 42
0.0
 10
179.4617628516814
 20
448.1539566792786
 42
0.4142135623730951
 10
178.4617628516814
 20
447.1539566792786
 42
0.0
 97
        8
330
DD3
330
DCE
330
DD6
330
DCC
330
DD7
330
DCF
330
DD0
330
DCD
 75
     0
 76
     0
 52
135.0
 41
1.0
 77
     0
 78
     1
 53
135.0
 43
0.0
 44
0.0
 45
-0.7071067811865476
 46
-0.7071067811865475
 79
     0
 47
0.1071053300341939
 98
        1
 10
179.896612839889
 20
443.9300321128554
  0
LINE
  5
DCC
102
{ACAD_REACTORS
330
DCB
330
DDB
102
}
330
1E
100
AcDbEntity
  8
STEMPEL
  6
Continuous
100
AcDbLine
 10
181.4617628516814
 20
447.1539566792787
 30
0.0
 11
181.4617628516814
 21
441.1539566792787
 31
0.0
  0
LINE
  5
DCD
102
{ACAD_REACTORS
330
DCB
330
DDB
102
}
330
1E
100
AcDbEntity
  8
STEMPEL
  6
Continuous
100
AcDbLine
 10
178.4617628516814
 20
447.1539566792786
 30
0.0
 11
178.4617628516814
 21
441.1539566792787
 31
0.0
  0
LINE
  5
DCE
102
{ACAD_REACTORS
330
DCB
330
DDB
102
}
330
1E
100
AcDbEntity
  8
STEMPEL
100
AcDbLine
 10
180.4617628516814
 20
448.1539566792788
 30
0.0
 11
179.4617628516814
 21
448.1539566792786
 31
0.0
  0
LINE
  5
DCF
102
{ACAD_REACTORS
330
DCB
330
DDB
102
}
330
1E
100
AcDbEntity
  8
STEMPEL
100
AcDbLine
 10
180.4617628516814
 20
440.1539566792786
 30
0.0
 11
179.4617628516814
 21
440.1539566792786
 31
0.0
  0
ARC
  5
DD0
102
{ACAD_REACTORS
330
DCB
330
DDB
102
}
330
1E
100
AcDbEntity
  8
STEMPEL
100
AcDbCircle
 10
179.4617628516814
 20
441.1539566792787
 30
0.0
 40
1.0
100
AcDbArc
 50
180.0
 51
270.0
  0
LINE
  5
DD1
102
{ACAD_REACTORS
330
DDB
102
}
330
1E
100
AcDbEntity
  8
STEMPEL
100
AcDbLine
 10
180.4617628516814
 20
439.1539566792786
 30
0.0
 11
179.4617628516814
 21
439.1539566792786
 31
0.0
  0
ARC
  5
DD2
102
{ACAD_REACTORS
330
DDB
102
}
330
1E
100
AcDbEntity
  8
STEMPEL
100
AcDbCircle
 10
179.4617628516814
 20
441.1539566792787
 30
0.0
 40
2.0
100
AcDbArc
 50
180.0
 51
270.0
  0
ARC
  5
DD3
102
{ACAD_REACTORS
330
DCB
330
DDB
102
}
330
1E
100
AcDbEntity
  8
STEMPEL
100
AcDbCircle
 10
179.4617628516814
 20
447.1539566792786
 30
0.0
 40
1.0
100
AcDbArc
 50
90.0
 51
180.0
  0
LINE
  5
DD4
102
{ACAD_REACTORS
330
DDB
102
}
330
1E
100
AcDbEntity
  8
STEMPEL
  6
Continuous
100
AcDbLine
 10
182.4617628516814
 20
447.1539566792787
 30
0.0
 11
182.4617628516814
 21
441.1539566792787
 31
0.0
  0
ARC
  5
DD5
102
{ACAD_REACTORS
330
DDB
102
}
330
1E
100
AcDbEntity
  8
STEMPEL
100
AcDbCircle
 10
180.4617628516814
 20
441.1539566792787
 30
0.0
 40
2.0
100
AcDbArc
 50
270.0
 51
0.000000000000007
  0
ARC
  5
DD6
102
{ACAD_REACTORS
330
DCB
330
DDB
102
}
330
1E
100
AcDbEntity
  8
STEMPEL
100
AcDbCircle
 10
180.4617628516814
 20
447.1539566792787
 30
0.0
 40
1.0
100
AcDbArc
 50
0.000000000000007
 51
90.0
  0
ARC
  5
DD7
102
{ACAD_REACTORS
330
DCB
330
DDB
102
}
330
1E
100
AcDbEntity
  8
STEMPEL
100
AcDbCircle
 10
180.4617628516814
 20
441.1539566792787
 30
0.0
 40
1.0
100
AcDbArc
 50
270.0
 51
0.000000000000007
  0
LINE
  5
DD8
102
{ACAD_REACTORS
330
DDB
102
}
330
1E
100
AcDbEntity
  8
STEMPEL
100
AcDbLine
 10
179.4617628516814
 20
449.1539566792787
 30
0.0
 11
180.4617628516814
 21
449.1539566792788
 31
0.0
  0
ARC
  5
DD9
102
{ACAD_REACTORS
330
DDB
102
}
330
1E
100
AcDbEntity
  8
STEMPEL
100
AcDbCircle
 10
179.4617628516814
 20
447.1539566792786
 30
0.0
 40
2.0
100
AcDbArc
 50
90.0
 51
180.0
  0
ARC
  5
DDA
102
{ACAD_REACTORS
330
DDB
102
}
330
1E
100
AcDbEntity
  8
STEMPEL
100
AcDbCircle
 10
180.4617628516814
 20
447.1539566792787
 30
0.0
 40
2.0
100
AcDbArc
 50
0.000000000000007
 51
90.0
  0
HATCH
  5
DDB
330
1E
100
AcDbEntity
  8
SCHRAFF
100
AcDbHatch
 10
0.0
 20
0.0
 30
0.0
210
0.0
220
0.0
230
1.0
  2
NET
 70
     0
 71
     1
 91
        2
 92
        7
 72
     1
 73
     1
 93
        8
 10
177.4617628516814
 20
441.1539566792787
 42
0.4142135623730951
 10
179.4617628516814
 20
439.1539566792786
 42
0.0
 10
180.4617628516814
 20
439.1539566792786
 42
0.4142135623730951
 10
182.4617628516814
 20
441.1539566792787
 42
0.0
 10
182.4617628516814
 20
447.1539566792787
 42
0.4142135623730951
 10
180.4617628516814
 20
449.1539566792788
 42
0.0
 10
179.4617628516814
 20
449.1539566792787
 42
0.4142135623730951
 10
177.4617628516814
 20
447.1539566792786
 42
0.0
 97
        8
330
DD9
330
DD8
330
DDA
330
DD4
330
DD5
330
DD1
330
DD2
330
DCA
 92
       22
 72
     1
 73
     1
 93
        8
 10
178.4617628516814
 20
447.1539566792786
 42
-0.4142135623730951
 10
179.4617628516814
 20
448.1539566792786
 42
0.0
 10
180.4617628516814
 20
448.1539566792788
 42
-0.4142135623730951
 10
181.4617628516814
 20
447.1539566792787
 42
0.0
 10
181.4617628516814
 20
441.1539566792787
 42
-0.4142135623730951
 10
180.4617628516814
 20
440.1539566792786
 42
0.0
 10
179.4617628516814
 20
440.1539566792786
 42
-0.4142135623730951
 10
178.4617628516814
 20
441.1539566792787
 42
0.0
 97
        8
330
DD0
330
DCF
330
DD7
330
DCC
330
DD6
330
DCE
330
DD3
330
DCD
 75
     0
 76
     1
 52
45.0
 41
10.0
 77
     0
 78
     2
 53
135.0
 43
472.7375350052004
 44
96.04980714372397
 45
0.883883476483184
 46
0.8838834764831844
 79
     0
 53
45.0
 43
472.7375350052004
 44
96.04980714372397
 45
0.8838834764831842
 46
-0.8838834764831842
 79
     0
 47
0.2432155912222071
 98
        2
 10
177.7493324445283
 20
441.4731320719229
 10
177.7493324445283
 20
441.4731320719229
  0
LINE
  5
E08
330
1E
100
AcDbEntity
  8
TEXT
 62
     2
100
AcDbLine
 10
309.1091591789397
 20
272.9808319349142
 30
0.0
 11
404.4844963465512
 21
272.9808319349142
 31
0.0
  0
TEXT
  5
E09
330
1E
100
AcDbEntity
  8
TEXT
 62
     1
100
AcDbText
 10
310.9082511734062
 20
277.1259825446259
 30
0.0
 40
7.0
  1
Heizbandkabel
 41
0.8
  7
GREEKS
100
AcDbText
  0
TEXT
  5
E0A
330
1E
100
AcDbEntity
  8
TEXT
 62
     1
100
AcDbText
 10
310.9082511734062
 20
262.1632767502595
 30
0.0
 40
7.0
  1
EDV-Art.Nr. 19853.000X
 41
0.7
  7
GREEKS
100
AcDbText
  0
LINE
  5
E10
330
1E
100
AcDbEntity
  8
TEXT
 62
     2
100
AcDbLine
 10
328.276557586934
 20
483.049595550597
 30
0.0
 11
341.7783478528109
 21
518.8603825615103
 31
0.0
  0
LINE
  5
E12
330
1E
100
AcDbEntity
  8
TEXT
 62
     2
100
AcDbLine
 10
83.23510237272712
 20
520.5113477074105
 30
0.0
 11
87.91738922955699
 21
493.4555381895902
 31
0.0
  0
LINE
  5
E66
102
{ACAD_REACTORS
330
F0F
102
}
330
1E
100
AcDbEntity
  8
STEMPEL
100
AcDbLine
 10
165.4617628516816
 20
443.1567025122566
 30
0.0
 11
176.4617628516814
 21
423.1567025122565
 31
0.0
  0
LINE
  5
E67
102
{ACAD_REACTORS
330
F0F
102
}
330
1E
100
AcDbEntity
  8
STEMPEL
100
AcDbLine
 10
312.4617628516812
 20
443.1567025122566
 30
0.0
 11
301.4617628516814
 21
423.1567025122557
 31
0.0
  0
LINE
  5
E68
330
1E
100
AcDbEntity
  8
STEMPEL
100
AcDbLine
 10
176.4617628516814
 20
423.1567025122565
 30
0.0
 11
182.4617628516814
 21
423.1567025122565
 31
0.0
  0
LINE
  5
E69
102
{ACAD_REACTORS
330
F0F
102
}
330
1E
100
AcDbEntity
  8
STEMPEL
100
AcDbLine
 10
187.9617628516814
 20
339.3567025122564
 30
0.0
 11
176.4617628516814
 21
353.1567025122562
 31
0.0
  0
LINE
  5
E6A
102
{ACAD_REACTORS
330
F0F
102
}
330
1E
100
AcDbEntity
  8
STEMPEL
100
AcDbLine
 10
300.1188157844608
 20
351.5451660315916
 30
0.0
 11
301.4617628516813
 21
353.1567025122562
 31
0.0
  0
LINE
  5
E6B
330
1E
100
AcDbEntity
  8
STEMPEL
100
AcDbLine
 10
176.4617628516813
 20
353.1567025122567
 30
0.0
 11
187.8987981930743
 21
353.1567025122567
 31
0.0
  0
LINE
  5
E6C
102
{ACAD_REACTORS
330
F0F
102
}
330
1E
100
AcDbEntity
  8
STEMPEL
100
AcDbLine
 10
301.4617628516814
 20
446.1539566792787
 30
0.0
 11
301.4617628516813
 21
353.1567025122562
 31
0.0
  0
LINE
  5
E6D
102
{ACAD_REACTORS
330
F0F
102
}
330
1E
100
AcDbEntity
  8
STEMPEL
100
AcDbLine
 10
176.4617628516814
 20
423.1567025122565
 30
0.0
 11
176.4617628516813
 21
353.1567025122567
 31
0.0
  0
LINE
  5
E6E
102
{ACAD_REACTORS
330
F0F
102
}
330
1E
100
AcDbEntity
  8
STEMPEL
100
AcDbLine
 10
161.6936676041792
 20
333.1567025122567
 30
0.0
 11
187.9617628516814
 21
333.1567025122566
 31
0.0
  0
ARC
  5
E6F
102
{ACAD_REACTORS
330
F0F
102
}
330
1E
100
AcDbEntity
  8
STEMPEL
100
AcDbCircle
 10
161.6936676041792
 20
336.1567025122567
 30
0.0
 40
3.0
100
AcDbArc
 50
185.3558250428554
 51
270.0
  0
LINE
  5
E72
102
{ACAD_REACTORS
330
F0F
102
}
330
1E
100
AcDbEntity
  8
STEMPEL
100
AcDbLine
 10
143.9617628516814
 20
493.1567025122568
 30
0.0
 11
158.7067649260013
 21
335.8766803861775
 31
0.0
  0
LINE
  5
E73
102
{ACAD_REACTORS
330
F0F
102
}
330
1E
100
AcDbEntity
  8
STEMPEL
100
AcDbLine
 10
158.9617628516814
 20
493.1567025122568
 30
0.0
 11
165.4617628516814
 21
488.1567025122568
 31
0.0
  0
LINE
  5
E74
102
{ACAD_REACTORS
330
F0F
102
}
330
1E
100
AcDbEntity
  8
STEMPEL
100
AcDbLine
 10
165.4617628516816
 20
443.1567025122566
 30
0.0
 11
165.4617628516814
 21
488.1567025122568
 31
0.0
  0
LINE
  5
E75
102
{ACAD_REACTORS
330
F0F
102
}
330
1E
100
AcDbEntity
  8
STEMPEL
100
AcDbLine
 10
333.9617628516814
 20
493.1567025122568
 30
0.0
 11
319.2167607773614
 21
335.8766803861775
 31
0.0
  0
LINE
  5
E76
102
{ACAD_REACTORS
330
F0F
102
}
330
1E
100
AcDbEntity
  8
STEMPEL
100
AcDbLine
 10
312.4617628516812
 20
443.1567025122566
 30
0.0
 11
312.4617628516814
 21
488.1567025122568
 31
0.0
  0
LINE
  5
E77
102
{ACAD_REACTORS
330
F0F
102
}
330
1E
100
AcDbEntity
  8
STEMPEL
100
AcDbLine
 10
318.9617628516814
 20
493.1567025122568
 30
0.0
 11
312.4617628516814
 21
488.1567025122568
 31
0.0
  0
ARC
  5
E79
102
{ACAD_REACTORS
330
F0F
102
}
330
1E
100
AcDbEntity
  8
STEMPEL
100
AcDbCircle
 10
316.2298580991836
 20
336.1567025122567
 30
0.0
 40
3.0
100
AcDbArc
 50
270.0
 51
354.6441749571445
  0
LINE
  5
E7A
330
1E
100
AcDbEntity
  8
STEMPEL
100
AcDbLine
 10
165.4617628516816
 20
443.1567025122566
 30
0.0
 11
177.4617628516814
 21
443.1567025122566
 31
0.0
  0
LINE
  5
E7B
330
1E
100
AcDbEntity
  8
STEMPEL
100
AcDbLine
 10
165.4617628516814
 20
488.1567025122568
 30
0.0
 11
166.6262046290136
 21
488.1567025122568
 31
0.0
  0
DIMENSION
  5
E7C
330
1E
100
AcDbEntity
  8
BEM
100
AcDbDimension
  2
*D6
 10
64.09861691639782
 20
333.1567025122568
 30
0.0
 11
57.59861691639777
 21
413.1567025122568
 31
0.0
 70
    32
 71
     5
 42
160.0
  3
Standard
100
AcDbAlignedDimension
 13
143.9617628516813
 23
493.1567025122568
 33
0.0
 14
158.9617628516814
 24
333.1567025122567
 34
0.0
 50
90.0
100
AcDbRotatedDimension
1001
ACAD
1000
DSTYLE
1002
{
1070
    40
1040
2.0
1070
    41
1040
3.5
1070
    42
1040
1.0
1070
    43
1040
7.0
1070
    44
1040
1.0
1070
    73
1070
     0
1070
    74
1070
     0
1070
    77
1070
     1
1070
    78
1070
     8
1070
    79
1070
     2
1070
   140
1040
3.5
1070
   141
1040
1.5
1070
   146
1040
0.5142857142857144
1070
   147
1040
1.5
1070
   172
1070
     1
1070
   178
1070
     1
1070
   179
1070
     2
1070
   271
1070
     2
1070
   272
1070
     2
1070
   284
1070
     8
1070
   285
1070
     8
1070
   286
1070
     8
1002
}
  0
DIMENSION
  5
E7D
330
1E
100
AcDbEntity
  8
BEM
100
AcDbDimension
  2
*D7
 10
318.9617628516813
 20
312.589402976456
 30
0.0
 11
238.9617628516814
 21
319.089402976456
 31
0.0
 70
    32
  1
%%c<>
 71
     5
 42
159.9999999999999
  3
Standard
100
AcDbAlignedDimension
 13
158.9617628516814
 23
333.1567025122567
 33
0.0
 14
318.9617628516813
 24
333.1567025122562
 34
0.0
100
AcDbRotatedDimension
1001
ACAD
1000
DSTYLE
1002
{
1070
    40
1040
2.0
1070
    41
1040
3.5
1070
    42
1040
1.0
1070
    43
1040
7.0
1070
    44
1040
1.0
1070
    73
1070
     0
1070
    74
1070
     0
1070
    77
1070
     1
1070
    78
1070
     8
1070
    79
1070
     2
1070
   140
1040
3.5
1070
   141
1040
1.5
1070
   146
1040
0.5142857142857144
1070
   147
1040
1.5
1070
   172
1070
     1
1070
   178
1070
     1
1070
   179
1070
     2
1070
   271
1070
     2
1070
   272
1070
     2
1070
   284
1070
     8
1070
   285
1070
     8
1070
   286
1070
     8
1002
}
  0
DIMENSION
  5
E7E
330
1E
100
AcDbEntity
  8
BEM
100
AcDbDimension
  2
*D8
 10
333.9617628516813
 20
507.4228335998453
 30
0.0
 11
238.9617628516813
 21
513.9228335998454
 31
0.0
 70
    32
  1
%%c<>
 71
     5
 42
189.9999999999999
  3
Standard
100
AcDbAlignedDimension
 13
143.9617628516813
 23
493.1567025122568
 33
0.0
 14
333.9617628516813
 24
493.1567025122554
 34
0.0
100
AcDbRotatedDimension
1001
ACAD
1000
DSTYLE
1002
{
1070
    40
1040
2.0
1070
    41
1040
3.5
1070
    42
1040
1.0
1070
    43
1040
7.0
1070
    44
1040
1.0
1070
    73
1070
     0
1070
    74
1070
     0
1070
    77
1070
     1
1070
    78
1070
     8
1070
    79
1070
     2
1070
   140
1040
3.5
1070
   141
1040
1.5
1070
   146
1040
0.5142857142857144
1070
   147
1040
1.5
1070
   172
1070
     1
1070
   178
1070
     1
1070
   179
1070
     2
1070
   271
1070
     2
1070
   272
1070
     2
1070
   284
1070
     8
1070
   285
1070
     8
1070
   286
1070
     8
1002
}
  0
LINE
  5
EBE
330
1E
100
AcDbEntity
  8
STEMPEL
100
AcDbLine
 10
311.2973210743491
 20
488.1567025122568
 30
0.0
 11
312.4617628516814
 21
488.1567025122568
 31
0.0
  0
LINE
  5
EBF
330
1E
100
AcDbEntity
  8
STEMPEL
100
AcDbLine
 10
301.4617628516814
 20
443.1567025122565
 30
0.0
 11
312.4617628516812
 21
443.1567025122566
 31
0.0
  0
LINE
  5
EC1
330
1E
100
AcDbEntity
  8
STEMPEL
100
AcDbLine
 10
300.5491772882383
 20
353.1567025122563
 30
0.0
 11
301.4617628516813
 21
353.1567025122562
 31
0.0
  0
LINE
  5
EC2
102
{ACAD_REACTORS
330
F0F
102
}
330
1E
100
AcDbEntity
  8
STEMPEL
100
AcDbLine
 10
299.9617628516813
 20
333.1567025122562
 30
0.0
 11
316.2298580991836
 21
333.1567025122562
 31
0.0
  0
ARC
  5
EC4
330
1E
100
AcDbEntity
  8
STEMPEL
100
AcDbCircle
 10
295.4617628516814
 20
356.5437098046143
 30
0.0
 40
6.0
100
AcDbArc
 50
334.9921667653158
 51
0.0
  0
LINE
  5
ECE
330
1E
100
AcDbEntity
  8
TEXT
 62
     2
100
AcDbLine
 10
344.4534194905821
 20
525.9554728253005
 30
0.0
 11
356.7319853002525
 21
558.5219026357866
 31
0.0
  0
HATCH
  5
F0F
330
1E
100
AcDbEntity
  8
SCHRAFF
100
AcDbHatch
 10
0.0
 20
0.0
 30
0.0
210
0.0
220
0.0
230
1.0
  2
HONEY
 70
     0
 71
     1
 91
        2
 92
        7
 72
     1
 73
     1
 93
       11
 10
333.9617628516814
 20
493.1567025122562
 42
0.0
 10
318.9617628516806
 20
493.1567025122562
 42
0.0
 10
312.4617628516814
 20
488.1567025122569
 42
0.0
 10
312.4617628516812
 20
443.1567025122567
 42
0.0
 10
301.4617628516813
 20
423.1567025122556
 42
0.0
 10
301.4617628516813
 20
353.1567025122563
 42
0.0
 10
300.1188157844608
 20
351.5451660315916
 42
0.0443949063123995
 10
299.9617628516814
 20
349.7798351753802
 42
0.0
 10
299.9617628516814
 20
333.1567025122562
 42
0.0
 10
316.2298580991836
 20
333.1567025122562
 42
0.3870924378343482
 10
319.2167607773614
 20
335.8766803861775
 42
0.0
 97
       11
330
7DC
330
E77
330
E76
330
E67
330
E6C
330
E6A
330
DC9
330
DC8
330
EC2
330
E79
330
E75
 92
        7
 72
     1
 73
     1
 93
       10
 10
158.7067649260013
 20
335.8766803861775
 42
0.387092437834293
 10
161.6936676041792
 20
333.1567025122567
 42
0.0
 10
187.9617628516814
 20
333.1567025122566
 42
0.0
 10
187.9617628516814
 20
339.3567025122565
 42
0.0
 10
176.4617628516813
 20
353.1567025122563
 42
0.0
 10
176.4617628516814
 20
423.1567025122566
 42
0.0
 10
165.4617628516816
 20
443.1567025122567
 42
0.0
 10
165.4617628516813
 20
488.1567025122568
 42
0.0
 10
158.9617628516822
 20
493.1567025122562
 42
0.0
 10
143.9617628516814
 20
493.1567025122561
 42
0.0
 97
       10
330
E66
330
E74
330
E73
330
7BC
330
E72
330
E6F
330
E6E
330
7B3
330
E69
330
E6D
 75
     0
 76
     1
 52
0.0
 41
35.0
 77
     0
 78
     3
 53
0.0
 43
0.0
 44
0.0
 45
6.5625
 46
3.788861124999999
 79
     2
 49
4.375
 49
-8.75
 53
120.0
 43
0.0
 44
0.0
 45
-6.562499985661285
 46
3.788861149835379
 79
     2
 49
4.375
 49
-8.75
 53
60.0
 43
0.0
 44
0.0
 45
0.000000014338714
 46
7.577722274835378
 79
     2
 49
-8.75
 49
4.375
 47
0.8059790716514736
 98
        2
 10
317.2155711988326
 20
403.3665833732763
 10
163.2213330653057
 20
409.8144157177937
  0
ARC
  5
F11
330
1E
100
AcDbEntity
  8
STEMPEL
100
AcDbCircle
 10
298.4617628516814
 20
446.1539566792787
 30
0.0
 40
3.0
100
AcDbArc
 50
0.0
 51
89.99999999999349
  0
ENDSEC
  0
SECTION
  2
OBJECTS
  0
DICTIONARY
  5
C
330
0
100
AcDbDictionary
281
     1
  3
ACAD_COLOR
350
DF
  3
ACAD_GROUP
350
D
  3
ACAD_LAYOUT
350
19
  3
ACAD_MATERIAL
350
DE
  3
ACAD_MLINESTYLE
350
16
  3
ACAD_PLOTSETTINGS
350
18
  3
ACAD_PLOTSTYLENAME
350
E
  3
AcDbVariableDictionary
350
EA
  0
DICTIONARY
  5
A0
330
1E
100
AcDbDictionary
280
     1
281
     1
  3
ACAD_LAYOUTSELFREF
360
D4
  0
DICTIONARY
  5
A2
330
1A
100
AcDbDictionary
280
     1
281
     1
  3
ACAD_LAYOUTSELFREF
360
D3
  0
DICTIONARY
  5
DF
102
{ACAD_REACTORS
330
C
102
}
330
C
100
AcDbDictionary
281
     1
  0
DICTIONARY
  5
D
102
{ACAD_REACTORS
330
C
102
}
330
C
100
AcDbDictionary
281
     1
  0
DICTIONARY
  5
19
102
{ACAD_REACTORS
330
C
102
}
330
C
100
AcDbDictionary
281
     1
  3
Layout1
350
1D
  3
Model
350
21
  0
DICTIONARY
  5
DE
102
{ACAD_REACTORS
330
C
102
}
330
C
100
AcDbDictionary
281
     1
  0
DICTIONARY
  5
16
102
{ACAD_REACTORS
330
C
102
}
330
C
100
AcDbDictionary
281
     1
  3
Standard
350
17
  0
DICTIONARY
  5
18
102
{ACAD_REACTORS
330
C
102
}
330
C
100
AcDbDictionary
281
     1
  0
ACDBDICTIONARYWDFLT
  5
E
102
{ACAD_REACTORS
330
C
102
}
330
C
100
AcDbDictionary
281
     1
  3
Normal
350
F
100
AcDbDictionaryWithDefault
340
F
  0
DICTIONARY
  5
EA
102
{ACAD_REACTORS
330
C
102
}
330
C
100
AcDbDictionary
281
     1
  3
DIMASSOC
350
EB
  3
PROJECTNAME
350
EC
  0
XRECORD
  5
D4
102
{ACAD_REACTORS
330
A0
102
}
330
A0
100
AcDbXrecord
280
     1
340
1E
  0
XRECORD
  5
D3
102
{ACAD_REACTORS
330
A2
102
}
330
A2
100
AcDbXrecord
280
     1
340
1A
  0
LAYOUT
  5
1D
102
{ACAD_REACTORS
330
19
102
}
330
19
100
AcDbPlotSettings
  1

  2
\\NT_WORK01\HP LaserJet 5000 PCL 6
  4

  6

 40
0.0
 41
0.0
 42
0.0
 43
0.0
 44
0.0
 45
0.0
 46
0.0
 47
0.0
 48
0.0
 49
0.0
140
0.0
141
0.0
142
1.0
143
1.0
 70
   688
 72
     0
 73
     0
 74
     5
  7

 75
    16
147
1.0
 76
     0
 77
     2
 78
   300
148
0.0
149
0.0
100
AcDbLayout
  1
Layout1
 70
     0
 71
     1
 10
0.0
 20
0.0
 11
12.0
 21
9.0
 12
0.0
 22
0.0
 32
0.0
 14
1.000000000000000E+20
 24
1.000000000000000E+20
 34
1.000000000000000E+20
 15
-1.000000000000000E+20
 25
-1.000000000000000E+20
 35
-1.000000000000000E+20
146
0.0
 13
0.0
 23
0.0
 33
0.0
 16
1.0
 26
0.0
 36
0.0
 17
0.0
 27
1.0
 37
0.0
 76
     0
330
1A
  0
LAYOUT
  5
21
102
{ACAD_REACTORS
330
19
102
}
330
19
100
AcDbPlotSettings
  1

  2
none_device
  4
Letter_(8.50_x_11.00_Inches)
  6

 40
6.349999904632568
 41
6.349999904632568
 42
6.350006103515625
 43
6.350006103515625
 44
215.8999938964844
 45
279.3999938964844
 46
0.0
 47
0.0
 48
0.0
 49
0.0
140
0.0
141
0.0
142
1.0
143
1.0
 70
 11952
 72
     0
 73
     1
 74
     0
  7

 75
     0
147
1.0
 76
     0
 77
     2
 78
   300
148
2209.800000000002
149
0.0
100
AcDbLayout
  1
Model
 70
     1
 71
     0
 10
0.0
 20
0.0
 11
12.0
 21
9.0
 12
0.0
 22
0.0
 32
0.0
 14
0.0
 24
0.0
 34
0.0
 15
0.0
 25
0.0
 35
0.0
146
0.0
 13
0.0
 23
0.0
 33
0.0
 16
1.0
 26
0.0
 36
0.0
 17
0.0
 27
1.0
 37
0.0
 76
     0
330
1E
  0
MLINESTYLE
  5
17
102
{ACAD_REACTORS
330
16
102
}
330
16
100
AcDbMlineStyle
  2
STANDARD
 70
     0
  3

 62
   256
 51
90.0
 52
90.0
 71
     2
 49
0.5
 62
   256
  6
BYLAYER
 49
-0.5
 62
   256
  6
BYLAYER
  0
ACDBPLACEHOLDER
  5
F
102
{ACAD_REACTORS
330
E
102
}
330
E
  0
DICTIONARYVAR
  5
EB
102
{ACAD_REACTORS
330
EA
102
}
330
EA
100
DictionaryVariables
280
     0
  1
1
  0
DICTIONARYVAR
  5
EC
102
{ACAD_REACTORS
330
EA
102
}
330
EA
100
DictionaryVariables
280
     0
  1

  0
ENDSEC
  0
EOF
