  0
SECTION
  2
HEADER
  9
$ACADVER
  1
AC1018
  9
$ACADMAINTVER
 70
     2
  9
$DWGCODEPAGE
  3
ANSI_1252
  9
$INSBASE
 10
0.0
 20
0.0
 30
0.0
  9
$EXTMIN
 10
-0.0000000000001137
 20
-0.0000000000001137
 30
0.0
  9
$EXTMAX
 10
420.0
 20
594.0000000000002
 30
0.0
  9
$LIMMIN
 10
0.0
 20
0.0
  9
$LIMMAX
 10
419.9999999999999
 20
594.0
  9
$ORTHOMODE
 70
     1
  9
$REGENMODE
 70
     1
  9
$FILLMODE
 70
     1
  9
$QTEXTMODE
 70
     0
  9
$MIRRTEXT
 70
     1
  9
$LTSCALE
 40
20.0
  9
$ATTMODE
 70
     1
  9
$TEXTSIZE
 40
3.5
  9
$TRACEWID
 40
0.5
  9
$TEXTSTYLE
  7
STANDARD
  9
$CLAYER
  8
VOLL
  9
$CELTYPE
  6
ByLayer
  9
$CECOLOR
 62
   256
  9
$CELTSCALE
 40
1.0
  9
$DISPSILH
 70
     0
  9
$DIMSCALE
 40
2.0
  9
$DIMASZ
 40
3.5
  9
$DIMEXO
 40
1.0
  9
$DIMDLI
 40
7.0
  9
$DIMRND
 40
0.0
  9
$DIMDLE
 40
0.0
  9
$DIMEXE
 40
1.0
  9
$DIMTP
 40
0.0
  9
$DIMTM
 40
0.0
  9
$DIMTXT
 40
3.5
  9
$DIMCEN
 40
1.5
  9
$DIMTSZ
 40
0.0
  9
$DIMTOL
 70
     0
  9
$DIMLIM
 70
     0
  9
$DIMTIH
 70
     0
  9
$DIMTOH
 70
     0
  9
$DIMSE1
 70
     0
  9
$DIMSE2
 70
     0
  9
$DIMTAD
 70
     1
  9
$DIMZIN
 70
     8
  9
$DIMBLK
  1

  9
$DIMASO
 70
     1
  9
$DIMSHO
 70
     0
  9
$DIMPOST
  1

  9
$DIMAPOST
  1

  9
$DIMALT
 70
     0
  9
$DIMALTD
 70
     2
  9
$DIMALTF
 40
25.4
  9
$DIMLFAC
 40
1.0
  9
$DIMTOFL
 70
     1
  9
$DIMTVP
 40
0.0
  9
$DIMTIX
 70
     0
  9
$DIMSOXD
 70
     0
  9
$DIMSAH
 70
     0
  9
$DIMBLK1
  1

  9
$DIMBLK2
  1

  9
$DIMSTYLE
  2
Standard
  9
$DIMCLRD
 70
     0
  9
$DIMCLRE
 70
     0
  9
$DIMCLRT
 70
     1
  9
$DIMTFAC
 40
0.5
  9
$DIMGAP
 40
1.5
  9
$DIMJUST
 70
     0
  9
$DIMSD1
 70
     0
  9
$DIMSD2
 70
     0
  9
$DIMTOLJ
 70
     1
  9
$DIMTZIN
 70
     8
  9
$DIMALTZ
 70
     8
  9
$DIMALTTZ
 70
     8
  9
$DIMUPT
 70
     0
  9
$DIMDEC
 70
     2
  9
$DIMTDEC
 70
     2
  9
$DIMALTU
 70
     2
  9
$DIMALTTD
 70
     2
  9
$DIMTXSTY
  7
STANDARD
  9
$DIMAUNIT
 70
     0
  9
$DIMADEC
 70
     2
  9
$DIMALTRND
 40
0.0
  9
$DIMAZIN
 70
     2
  9
$DIMDSEP
 70
    46
  9
$DIMATFIT
 70
     3
  9
$DIMFRAC
 70
     0
  9
$DIMLDRBLK
  1

  9
$DIMLUNIT
 70
     2
  9
$DIMLWD
 70
    -2
  9
$DIMLWE
 70
    -2
  9
$DIMTMOVE
 70
     0
  9
$LUNITS
 70
     2
  9
$LUPREC
 70
     2
  9
$SKETCHINC
 40
1.0
  9
$FILLETRAD
 40
0.0
  9
$AUNITS
 70
     0
  9
$AUPREC
 70
     0
  9
$MENU
  1
ACAD
  9
$ELEVATION
 40
0.0
  9
$PELEVATION
 40
0.0
  9
$THICKNESS
 40
0.0
  9
$LIMCHECK
 70
     0
  9
$CHAMFERA
 40
0.0
  9
$CHAMFERB
 40
0.0
  9
$CHAMFERC
 40
0.0
  9
$CHAMFERD
 40
0.0
  9
$SKPOLY
 70
     0
  9
$TDCREATE
 40
2455397.823042361
  9
$TDUCREATE
 40
2455397.781375695
  9
$TDUPDATE
 40
2455554.514130718
  9
$TDUUPDATE
 40
2455554.472464051
  9
$TDINDWG
 40
0.0681757292
  9
$TDUSRTIMER
 40
0.0681757292
  9
$USRTIMER
 70
     1
  9
$ANGBASE
 50
0.0
  9
$ANGDIR
 70
     0
  9
$PDMODE
 70
     0
  9
$PDSIZE
 40
0.0
  9
$PLINEWID
 40
0.0
  9
$SPLFRAME
 70
     0
  9
$SPLINETYPE
 70
     6
  9
$SPLINESEGS
 70
     8
  9
$HANDSEED
  5
F37
  9
$SURFTAB1
 70
     6
  9
$SURFTAB2
 70
     6
  9
$SURFTYPE
 70
     6
  9
$SURFU
 70
     6
  9
$SURFV
 70
     6
  9
$UCSBASE
  2

  9
$UCSNAME
  2

  9
$UCSORG
 10
0.0
 20
0.0
 30
0.0
  9
$UCSXDIR
 10
1.0
 20
0.0
 30
0.0
  9
$UCSYDIR
 10
0.0
 20
1.0
 30
0.0
  9
$UCSORTHOREF
  2

  9
$UCSORTHOVIEW
 70
     0
  9
$UCSORGTOP
 10
0.0
 20
0.0
 30
0.0
  9
$UCSORGBOTTOM
 10
0.0
 20
0.0
 30
0.0
  9
$UCSORGLEFT
 10
0.0
 20
0.0
 30
0.0
  9
$UCSORGRIGHT
 10
0.0
 20
0.0
 30
0.0
  9
$UCSORGFRONT
 10
0.0
 20
0.0
 30
0.0
  9
$UCSORGBACK
 10
0.0
 20
0.0
 30
0.0
  9
$PUCSBASE
  2

  9
$PUCSNAME
  2

  9
$PUCSORG
 10
0.0
 20
0.0
 30
0.0
  9
$PUCSXDIR
 10
1.0
 20
0.0
 30
0.0
  9
$PUCSYDIR
 10
0.0
 20
1.0
 30
0.0
  9
$PUCSORTHOREF
  2

  9
$PUCSORTHOVIEW
 70
     0
  9
$PUCSORGTOP
 10
0.0
 20
0.0
 30
0.0
  9
$PUCSORGBOTTOM
 10
0.0
 20
0.0
 30
0.0
  9
$PUCSORGLEFT
 10
0.0
 20
0.0
 30
0.0
  9
$PUCSORGRIGHT
 10
0.0
 20
0.0
 30
0.0
  9
$PUCSORGFRONT
 10
0.0
 20
0.0
 30
0.0
  9
$PUCSORGBACK
 10
0.0
 20
0.0
 30
0.0
  9
$USERI1
 70
     0
  9
$USERI2
 70
     0
  9
$USERI3
 70
     0
  9
$USERI4
 70
     0
  9
$USERI5
 70
     0
  9
$USERR1
 40
0.0
  9
$USERR2
 40
0.0
  9
$USERR3
 40
0.0
  9
$USERR4
 40
0.0
  9
$USERR5
 40
0.0
  9
$WORLDVIEW
 70
     1
  9
$SHADEDGE
 70
     3
  9
$SHADEDIF
 70
    70
  9
$TILEMODE
 70
     1
  9
$MAXACTVP
 70
    16
  9
$PINSBASE
 10
0.0
 20
0.0
 30
0.0
  9
$PLIMCHECK
 70
     0
  9
$PEXTMIN
 10
1.000000000000000E+20
 20
1.000000000000000E+20
 30
1.000000000000000E+20
  9
$PEXTMAX
 10
-1.000000000000000E+20
 20
-1.000000000000000E+20
 30
-1.000000000000000E+20
  9
$PLIMMIN
 10
0.0
 20
0.0
  9
$PLIMMAX
 10
12.0
 20
9.0
  9
$UNITMODE
 70
     0
  9
$VISRETAIN
 70
     0
  9
$PLINEGEN
 70
     0
  9
$PSLTSCALE
 70
     0
  9
$TREEDEPTH
 70
  3020
  9
$CMLSTYLE
  2
Standard
  9
$CMLJUST
 70
     0
  9
$CMLSCALE
 40
1.0
  9
$PROXYGRAPHICS
 70
     1
  9
$MEASUREMENT
 70
     0
  9
$CELWEIGHT
370
    -1
  9
$ENDCAPS
280
     0
  9
$JOINSTYLE
280
     0
  9
$LWDISPLAY
290
     0
  9
$INSUNITS
 70
     0
  9
$HYPERLINKBASE
  1

  9
$STYLESHEET
  1

  9
$XEDIT
290
     1
  9
$CEPSNTYPE
380
     0
  9
$PSTYLEMODE
290
     1
  9
$FINGERPRINTGUID
  2
{D68B0D02-A558-11D7-B632-000102183313}
  9
$VERSIONGUID
  2
{E292468A-F32F-4185-9096-AFD27C9560A0}
  9
$EXTNAMES
290
     1
  9
$PSVPSCALE
 40
0.0
  9
$OLESTARTUP
290
     0
  9
$SORTENTS
280
   127
  9
$INDEXCTL
280
     0
  9
$HIDETEXT
280
     0
  9
$XCLIPFRAME
290
     0
  9
$HALOGAP
280
     0
  9
$OBSCOLOR
 70
   257
  9
$OBSLTYPE
280
     0
  9
$INTERSECTIONDISPLAY
280
     0
  9
$INTERSECTIONCOLOR
 70
   257
  9
$DIMASSOC
280
     1
  9
$PROJECTNAME
  1

  0
ENDSEC
  0
SECTION
  2
CLASSES
  0
CLASS
  1
ACDBDICTIONARYWDFLT
  2
AcDbDictionaryWithDefault
  3
ObjectDBX Classes
 90
        0
 91
        1
280
     0
281
     0
  0
CLASS
  1
DICTIONARYVAR
  2
AcDbDictionaryVar
  3
ObjectDBX Classes
 90
        0
 91
        2
280
     0
281
     0
  0
ENDSEC
  0
SECTION
  2
TABLES
  0
TABLE
  2
VPORT
  5
8
330
0
100
AcDbSymbolTable
 70
     2
  0
VPORT
  5
F36
330
8
100
AcDbSymbolTableRecord
100
AcDbViewportTableRecord
  2
*Active
 70
     0
 10
0.0
 20
0.0
 11
1.0
 21
1.0
 12
210.0000029338453
 22
297.0000041492956
 13
0.0
 23
0.0
 14
1.0
 24
1.0
 15
10.0
 25
10.0
 16
0.0
 26
0.0
 36
1.0
 17
0.0
 27
0.0
 37
0.0
 40
598.8749584959168
 41
1.336927223719676
 42
50.0
 43
0.0
 44
0.0
 50
0.0
 51
0.0
 71
     0
 72
  1500
 73
     1
 74
     0
 75
     0
 76
     0
 77
     0
 78
     0
281
     0
 65
     1
110
0.0
120
0.0
130
0.0
111
1.0
121
0.0
131
0.0
112
0.0
122
1.0
132
0.0
 79
     0
146
0.0
  0
ENDTAB
  0
TABLE
  2
LTYPE
  5
5
330
0
100
AcDbSymbolTable
 70
     2
  0
LTYPE
  5
13
330
5
100
AcDbSymbolTableRecord
100
AcDbLinetypeTableRecord
  2
ByBlock
 70
     0
  3

 72
    65
 73
     0
 40
0.0
  0
LTYPE
  5
14
330
5
100
AcDbSymbolTableRecord
100
AcDbLinetypeTableRecord
  2
ByLayer
 70
     0
  3

 72
    65
 73
     0
 40
0.0
  0
LTYPE
  5
15
330
5
100
AcDbSymbolTableRecord
100
AcDbLinetypeTableRecord
  2
Continuous
 70
     0
  3
Solid line
 72
    65
 73
     0
 40
0.0
  0
LTYPE
  5
25
330
5
100
AcDbSymbolTableRecord
100
AcDbLinetypeTableRecord
  2
STRICHPUNKT
 70
     0
  3
__ . __ . __ . __ . __ . __ . __ . __ . __ . __
 72
    65
 73
     4
 40
1.0
 49
0.5
 74
     0
 49
-0.25
 74
     0
 49
0.0
 74
     0
 49
-0.25
 74
     0
  0
ENDTAB
  0
TABLE
  2
LAYER
  5
2
330
0
100
AcDbSymbolTable
 70
     9
  0
LAYER
  5
10
330
2
100
AcDbSymbolTableRecord
100
AcDbLayerTableRecord
  2
0
 70
     0
 62
     7
  6
Continuous
370
    -3
390
F
  0
LAYER
  5
2A
330
2
100
AcDbSymbolTableRecord
100
AcDbLayerTableRecord
  2
VOLL
 70
     0
 62
     1
  6
Continuous
370
    -3
390
F
  0
LAYER
  5
2B
330
2
100
AcDbSymbolTableRecord
100
AcDbLayerTableRecord
  2
HILF
 70
     0
 62
     2
  6
Continuous
370
    -3
390
F
  0
LAYER
  5
2C
330
2
100
AcDbSymbolTableRecord
100
AcDbLayerTableRecord
  2
MITTEL
 70
     0
 62
     2
  6
STRICHPUNKT
370
    -3
390
F
  0
LAYER
  5
2F
330
2
100
AcDbSymbolTableRecord
100
AcDbLayerTableRecord
  2
BEM
 70
     0
 62
     7
  6
Continuous
370
    -3
390
F
  0
LAYER
  5
30
330
2
100
AcDbSymbolTableRecord
100
AcDbLayerTableRecord
  2
STEMPEL
 70
     0
 62
     3
  6
Continuous
370
    -3
390
F
  0
LAYER
  5
31
330
2
100
AcDbSymbolTableRecord
100
AcDbLayerTableRecord
  2
TEXT
 70
     0
 62
     7
  6
Continuous
370
    -3
390
F
  0
LAYER
  5
390
330
2
100
AcDbSymbolTableRecord
100
AcDbLayerTableRecord
  2
DEFPOINTS
 70
     0
 62
     7
  6
Continuous
290
     0
370
    -3
390
F
  0
LAYER
  5
391
330
2
100
AcDbSymbolTableRecord
100
AcDbLayerTableRecord
  2
SCHRAFF
 70
     0
 62
     7
  6
Continuous
370
    -3
390
F
  0
ENDTAB
  0
TABLE
  2
STYLE
  5
3
330
0
100
AcDbSymbolTable
 70
     2
  0
STYLE
  5
11
330
3
100
AcDbSymbolTableRecord
100
AcDbTextStyleTableRecord
  2
STANDARD
 70
     0
 40
0.0
 41
0.8
 50
0.0
 71
     0
 42
3.5
  3
simplex.shx
  4

  0
STYLE
  5
24
330
3
100
AcDbSymbolTableRecord
100
AcDbTextStyleTableRecord
  2
GREEKS
 70
     0
 40
0.0
 41
0.8
 50
0.0
 71
     0
 42
2.5
  3
SIMPLEX.shx
  4

  0
ENDTAB
  0
TABLE
  2
VIEW
  5
6
330
0
100
AcDbSymbolTable
 70
     0
  0
ENDTAB
  0
TABLE
  2
UCS
  5
7
330
0
100
AcDbSymbolTable
 70
     0
  0
ENDTAB
  0
TABLE
  2
APPID
  5
9
330
0
100
AcDbSymbolTable
 70
     1
  0
APPID
  5
12
330
9
100
AcDbSymbolTableRecord
100
AcDbRegAppTableRecord
  2
ACAD
 70
     0
  0
ENDTAB
  0
TABLE
  2
DIMSTYLE
  5
A
330
0
100
AcDbSymbolTable
 70
     1
100
AcDbDimStyleTable
 71
     1
340
9D
  0
DIMSTYLE
105
9D
102
{ACAD_REACTORS
330
BDA
330
BD3
330
BCD
330
E29
330
E2A
330
E2B
330
E93
102
}
330
A
100
AcDbSymbolTableRecord
100
AcDbDimStyleTableRecord
  2
Standard
 70
     0
340
11
  0
ENDTAB
  0
TABLE
  2
BLOCK_RECORD
  5
1
330
0
100
AcDbSymbolTable
 70
     8
  0
BLOCK_RECORD
  5
1E
102
{ACAD_XDICTIONARY
360
A0
102
}
330
1
100
AcDbSymbolTableRecord
100
AcDbBlockTableRecord
  2
*Model_Space
340
21
  0
BLOCK_RECORD
  5
1A
102
{ACAD_XDICTIONARY
360
A2
102
}
330
1
100
AcDbSymbolTableRecord
100
AcDbBlockTableRecord
  2
*Paper_Space
340
1D
  0
BLOCK_RECORD
  5
22
330
1
100
AcDbSymbolTableRecord
100
AcDbBlockTableRecord
  2
LOGO
340
0
102
{BLKREFS
331
9B
102
}
  0
BLOCK_RECORD
  5
C18
330
1
100
AcDbSymbolTableRecord
100
AcDbBlockTableRecord
  2
*D1
340
0
  0
BLOCK_RECORD
  5
C32
330
1
100
AcDbSymbolTableRecord
100
AcDbBlockTableRecord
  2
*D2
340
0
  0
BLOCK_RECORD
  5
C4C
330
1
100
AcDbSymbolTableRecord
100
AcDbBlockTableRecord
  2
*D3
340
0
  0
BLOCK_RECORD
  5
E39
330
1
100
AcDbSymbolTableRecord
100
AcDbBlockTableRecord
  2
*D4
340
0
  0
BLOCK_RECORD
  5
E45
330
1
100
AcDbSymbolTableRecord
100
AcDbBlockTableRecord
  2
*D5
340
0
  0
BLOCK_RECORD
  5
E51
330
1
100
AcDbSymbolTableRecord
100
AcDbBlockTableRecord
  2
*D6
340
0
  0
BLOCK_RECORD
  5
E94
330
1
100
AcDbSymbolTableRecord
100
AcDbBlockTableRecord
  2
*D7
340
0
  0
ENDTAB
  0
ENDSEC
  0
SECTION
  2
BLOCKS
  0
BLOCK
  5
35
330
1E
100
AcDbEntity
  8
0
100
AcDbBlockBegin
  2
*Model_Space
 70
     0
 10
0.0
 20
0.0
 30
0.0
  3
*Model_Space
  1

  0
ENDBLK
  5
36
330
1E
100
AcDbEntity
  8
0
100
AcDbBlockEnd
  0
BLOCK
  5
33
330
1A
100
AcDbEntity
 67
     1
  8
0
100
AcDbBlockBegin
  2
*Paper_Space
 70
     0
 10
0.0
 20
0.0
 30
0.0
  3
*Paper_Space
  1

  0
ENDBLK
  5
34
330
1A
100
AcDbEntity
 67
     1
  8
0
100
AcDbBlockEnd
  0
BLOCK
  5
37
330
22
100
AcDbEntity
  8
0
100
AcDbBlockBegin
  2
LOGO
 70
     0
 10
0.0
 20
0.0
 30
0.0
  3
LOGO
  1

  0
ARC
  5
38
330
22
100
AcDbEntity
  8
0
100
AcDbCircle
 10
11.59973089678112
 20
-9.271599258481501
 30
0.0
 40
4.5
100
AcDbArc
 50
270.0
 51
231.0575587310159
  0
LINE
  5
39
330
22
100
AcDbEntity
  8
0
100
AcDbLine
 10
3.599730896781125
 20
-4.771599258481529
 30
0.0
 11
3.599730896781153
 21
-11.77159925848133
 31
0.0
  0
LINE
  5
3A
330
22
100
AcDbEntity
  8
0
100
AcDbLine
 10
2.599730896781125
 20
-4.771599258481529
 30
0.0
 11
2.599730896781153
 21
-11.77159925848133
 31
0.0
  0
CIRCLE
  5
3B
330
22
100
AcDbEntity
  8
0
100
AcDbCircle
 10
11.59973089678112
 20
-9.271599258481501
 30
0.0
 40
3.5
  0
ARC
  5
3C
330
22
100
AcDbEntity
  8
0
100
AcDbCircle
 10
31.59973089678115
 20
-9.271599258481472
 30
0.0
 40
4.5
100
AcDbArc
 50
270.0
 51
231.0575587310182
  0
LINE
  5
3D
330
22
100
AcDbEntity
  8
0
100
AcDbLine
 10
17.59973089678112
 20
-4.771599258481472
 30
0.0
 11
17.59973089678115
 21
-13.77159925848147
 31
0.0
  0
ARC
  5
3E
330
22
100
AcDbEntity
  8
0
100
AcDbCircle
 10
22.59973089678116
 20
-7.271599258481472
 30
0.0
 40
2.5
100
AcDbArc
 50
293.1161887722295
 51
90.0
  0
CIRCLE
  5
3F
330
22
100
AcDbEntity
  8
0
100
AcDbCircle
 10
31.59973089678115
 20
-9.271599258481472
 30
0.0
 40
3.5
  0
ARC
  5
40
330
22
100
AcDbEntity
  8
0
100
AcDbCircle
 10
4.599730896781153
 20
-11.77159925848133
 30
0.0
 40
1.0
100
AcDbArc
 50
180.0
 51
270.0
  0
ARC
  5
41
330
22
100
AcDbEntity
  8
0
100
AcDbCircle
 10
4.599730896781153
 20
-11.77159925848133
 30
0.0
 40
2.0
100
AcDbArc
 50
179.9999999999992
 51
270.0
  0
LINE
  5
42
330
22
100
AcDbEntity
  8
0
100
AcDbLine
 10
11.59973089678115
 20
-13.77159925848144
 30
0.0
 11
4.599730896781153
 21
-13.77159925848147
 31
0.0
  0
LINE
  5
43
330
22
100
AcDbEntity
  8
0
100
AcDbLine
 10
8.771303772034769
 20
-12.77159925848136
 30
0.0
 11
4.599730896781153
 21
-12.77159925848133
 31
0.0
  0
LINE
  5
44
330
22
100
AcDbEntity
  8
0
100
AcDbLine
 10
31.59973089678115
 20
-13.77159925848147
 30
0.0
 11
23.6715276665056
 21
-13.77159925848144
 31
0.0
  0
LINE
  5
45
330
22
100
AcDbEntity
  8
0
100
AcDbLine
 10
23.56565672307022
 20
-9.51278021337896
 30
0.0
 11
24.4388546544846
 21
-12.77159925848144
 31
0.0
  0
LINE
  5
46
330
22
100
AcDbEntity
  8
0
100
AcDbLine
 10
22.59973089678116
 20
-9.771599258481472
 30
0.0
 11
18.59973089678112
 21
-9.771599258481472
 31
0.0
  0
LINE
  5
47
330
22
100
AcDbEntity
  8
0
100
AcDbLine
 10
18.59973089678115
 20
-13.77159925848144
 30
0.0
 11
17.59973089678115
 21
-13.77159925848144
 31
0.0
  0
LINE
  5
48
330
22
100
AcDbEntity
  8
0
100
AcDbLine
 10
18.59973089678115
 20
-9.771599258481472
 30
0.0
 11
18.59973089678115
 21
-13.77159925848144
 31
0.0
  0
LINE
  5
49
330
22
100
AcDbEntity
  8
0
100
AcDbLine
 10
22.59973089678116
 20
-9.771599258481472
 30
0.0
 11
23.67152766650562
 21
-13.77159925848147
 31
0.0
  0
ARC
  5
4A
330
22
100
AcDbEntity
  8
0
100
AcDbCircle
 10
22.59973089678116
 20
-7.271599258481472
 30
0.0
 40
2.5
100
AcDbArc
 50
270.0
 51
270.0000000000007
  0
LINE
  5
4B
330
22
100
AcDbEntity
  8
0
100
AcDbLine
 10
28.77130377203494
 20
-12.77159925848147
 30
0.0
 11
24.43885465448463
 21
-12.77159925848144
 31
0.0
  0
LINE
  5
4C
330
22
100
AcDbEntity
  8
0
100
AcDbLine
 10
3.599730896781125
 20
-4.771599258481472
 30
0.0
 11
2.599730896781125
 21
-4.771599258481472
 31
0.0
  0
LINE
  5
4D
330
22
100
AcDbEntity
  8
0
100
AcDbLine
 10
22.59973089678116
 20
-8.771599258481472
 30
0.0
 11
18.59973089678115
 21
-8.771599258481472
 31
0.0
  0
LINE
  5
4E
330
22
100
AcDbEntity
  8
0
100
AcDbLine
 10
22.59973089678116
 20
-5.771599258481472
 30
0.0
 11
18.59973089678115
 21
-5.771599258481472
 31
0.0
  0
LINE
  5
4F
330
22
100
AcDbEntity
  8
0
100
AcDbLine
 10
22.59973089678116
 20
-4.771599258481472
 30
0.0
 11
17.59973089678115
 21
-4.771599258481472
 31
0.0
  0
LINE
  5
50
330
22
100
AcDbEntity
  8
0
100
AcDbLine
 10
18.59973089678115
 20
-5.771599258481472
 30
0.0
 11
18.59973089678115
 21
-8.771599258481472
 31
0.0
  0
ARC
  5
51
330
22
100
AcDbEntity
  8
0
100
AcDbCircle
 10
22.59973089678116
 20
-7.271599258481472
 30
0.0
 40
1.5
100
AcDbArc
 50
270.0
 51
90.0
  0
ENDBLK
  5
52
330
22
100
AcDbEntity
  8
0
100
AcDbBlockEnd
  0
BLOCK
  5
C23
330
C18
100
AcDbEntity
  8
0
100
AcDbBlockBegin
  2
*D1
 70
     1
 10
0.0
 20
0.0
 30
0.0
  3
*D1
  1

  0
LINE
  5
D46
330
C18
100
AcDbEntity
  8
BEM
 62
     0
370
    -2
100
AcDbLine
 10
73.96176285168144
 20
497.156702512256
 30
0.0
 11
73.96176285168144
 21
526.1195889054651
 31
0.0
  0
LINE
  5
D47
330
C18
100
AcDbEntity
  8
BEM
 62
     0
370
    -2
100
AcDbLine
 10
403.9617628516814
 20
497.156702512256
 30
0.0
 11
403.9617628516814
 21
526.1195889054651
 31
0.0
  0
LINE
  5
D48
330
C18
100
AcDbEntity
  8
BEM
 62
     0
370
    -2
100
AcDbLine
 10
80.96176285168144
 20
524.1195889054652
 30
0.0
 11
396.9617628516814
 21
524.1195889054652
 31
0.0
  0
SOLID
  5
D49
330
C18
100
AcDbEntity
  8
BEM
 62
     0
100
AcDbTrace
 10
80.96176285168144
 20
525.2862555721318
 30
0.0
 11
80.96176285168144
 21
522.9529222387985
 31
0.0
 12
73.96176285168144
 22
524.1195889054652
 32
0.0
 13
73.96176285168144
 23
524.1195889054652
 33
0.0
  0
SOLID
  5
D4A
330
C18
100
AcDbEntity
  8
BEM
 62
     0
100
AcDbTrace
 10
396.9617628516814
 20
525.2862555721318
 30
0.0
 11
396.9617628516814
 21
522.9529222387985
 31
0.0
 12
403.9617628516814
 22
524.1195889054652
 32
0.0
 13
403.9617628516814
 23
524.1195889054652
 33
0.0
  0
MTEXT
  5
D4B
330
C18
100
AcDbEntity
  8
BEM
 62
     1
100
AcDbMText
 10
238.9617628516814
 20
530.6195889054651
 30
0.0
 40
7.0
 41
0.0
 71
     5
 72
     1
  1
\A1;%%c330
 73
     1
 44
1.0
  0
POINT
  5
D4C
330
C18
100
AcDbEntity
  8
DEFPOINTS
 62
     0
100
AcDbPoint
 10
73.96176285168144
 20
495.156702512256
 30
0.0
  0
POINT
  5
D4D
330
C18
100
AcDbEntity
  8
DEFPOINTS
 62
     0
100
AcDbPoint
 10
403.9617628516814
 20
495.156702512256
 30
0.0
  0
POINT
  5
D4E
330
C18
100
AcDbEntity
  8
DEFPOINTS
 62
     0
100
AcDbPoint
 10
403.9617628516814
 20
524.1195889054652
 30
0.0
  0
ENDBLK
  5
C24
330
C18
100
AcDbEntity
  8
0
100
AcDbBlockEnd
  0
BLOCK
  5
C3D
330
C32
100
AcDbEntity
  8
0
100
AcDbBlockBegin
  2
*D2
 70
     1
 10
0.0
 20
0.0
 30
0.0
  3
*D2
  1

  0
LINE
  5
D22
330
C32
100
AcDbEntity
  8
BEM
 62
     0
370
    -2
100
AcDbLine
 10
172.4617628516814
 20
228.0693806264389
 30
0.0
 11
172.4617628516814
 21
187.8395804194762
 31
0.0
  0
LINE
  5
D23
330
C32
100
AcDbEntity
  8
BEM
 62
     0
370
    -2
100
AcDbLine
 10
305.461762851681
 20
228.069380626426
 30
0.0
 11
305.461762851681
 21
187.8395804194762
 31
0.0
  0
LINE
  5
D24
330
C32
100
AcDbEntity
  8
BEM
 62
     0
370
    -2
100
AcDbLine
 10
179.4617628516814
 20
189.8395804194762
 30
0.0
 11
298.461762851681
 21
189.8395804194762
 31
0.0
  0
SOLID
  5
D25
330
C32
100
AcDbEntity
  8
BEM
 62
     0
100
AcDbTrace
 10
179.4617628516814
 20
191.0062470861428
 30
0.0
 11
179.4617628516814
 21
188.6729137528095
 31
0.0
 12
172.4617628516814
 22
189.8395804194762
 32
0.0
 13
172.4617628516814
 23
189.8395804194762
 33
0.0
  0
SOLID
  5
D26
330
C32
100
AcDbEntity
  8
BEM
 62
     0
100
AcDbTrace
 10
298.461762851681
 20
191.0062470861428
 30
0.0
 11
298.461762851681
 21
188.6729137528095
 31
0.0
 12
305.461762851681
 22
189.8395804194762
 32
0.0
 13
305.461762851681
 23
189.8395804194762
 33
0.0
  0
MTEXT
  5
D27
330
C32
100
AcDbEntity
  8
BEM
 62
     1
100
AcDbMText
 10
238.9617628516812
 20
196.3395804194762
 30
0.0
 40
7.0
 41
0.0
 71
     5
 72
     1
  1
\A1;%%c133
 73
     1
 44
1.0
  0
POINT
  5
D28
330
C32
100
AcDbEntity
  8
DEFPOINTS
 62
     0
100
AcDbPoint
 10
172.4617628516814
 20
230.0693806264389
 30
0.0
  0
POINT
  5
D29
330
C32
100
AcDbEntity
  8
DEFPOINTS
 62
     0
100
AcDbPoint
 10
305.461762851681
 20
230.069380626426
 30
0.0
  0
POINT
  5
D2A
330
C32
100
AcDbEntity
  8
DEFPOINTS
 62
     0
100
AcDbPoint
 10
305.461762851681
 20
189.8395804194762
 30
0.0
  0
ENDBLK
  5
C3E
330
C32
100
AcDbEntity
  8
0
100
AcDbBlockEnd
  0
BLOCK
  5
C57
330
C4C
100
AcDbEntity
  8
0
100
AcDbBlockBegin
  2
*D3
 70
     1
 10
0.0
 20
0.0
 30
0.0
  3
*D3
  1

  0
LINE
  5
D7B
330
C4C
100
AcDbEntity
  8
BEM
 62
     0
370
    -2
100
AcDbLine
 10
174.4617628516814
 20
215.156702512256
 30
0.0
 11
51.27992164878031
 21
215.156702512256
 31
0.0
  0
LINE
  5
D7C
330
C4C
100
AcDbEntity
  8
BEM
 62
     0
370
    -2
100
AcDbLine
 10
71.96176285168144
 20
495.1567025122559
 30
0.0
 11
51.27992164878037
 21
495.1567025122559
 31
0.0
  0
LINE
  5
D7D
330
C4C
100
AcDbEntity
  8
BEM
 62
     0
370
    -2
100
AcDbLine
 10
53.27992164878032
 20
222.156702512256
 30
0.0
 11
53.27992164878037
 21
488.1567025122559
 31
0.0
  0
SOLID
  5
D7E
330
C4C
100
AcDbEntity
  8
BEM
 62
     0
100
AcDbTrace
 10
52.11325498211365
 20
222.156702512256
 30
0.0
 11
54.44658831544698
 21
222.156702512256
 31
0.0
 12
53.27992164878032
 22
215.156702512256
 32
0.0
 13
53.27992164878032
 23
215.156702512256
 33
0.0
  0
SOLID
  5
D7F
330
C4C
100
AcDbEntity
  8
BEM
 62
     0
100
AcDbTrace
 10
52.11325498211371
 20
488.1567025122559
 30
0.0
 11
54.44658831544703
 21
488.1567025122559
 31
0.0
 12
53.27992164878037
 22
495.1567025122559
 32
0.0
 13
53.27992164878037
 23
495.1567025122559
 33
0.0
  0
MTEXT
  5
D80
330
C4C
100
AcDbEntity
  8
BEM
 62
     1
100
AcDbMText
 10
46.77992164878029
 20
355.1567025122559
 30
0.0
 40
7.0
 41
0.0
 71
     5
 72
     1
  1
\A1;280
 11
0.0000000000000001
 21
1.0
 31
0.0
 73
     1
 44
1.0
  0
POINT
  5
D81
330
C4C
100
AcDbEntity
  8
DEFPOINTS
 62
     0
100
AcDbPoint
 10
176.4617628516814
 20
215.156702512256
 30
0.0
  0
POINT
  5
D82
330
C4C
100
AcDbEntity
  8
DEFPOINTS
 62
     0
100
AcDbPoint
 10
73.96176285168144
 20
495.1567025122559
 30
0.0
  0
POINT
  5
D83
330
C4C
100
AcDbEntity
  8
DEFPOINTS
 62
     0
100
AcDbPoint
 10
53.27992164878037
 20
495.1567025122559
 30
0.0
  0
ENDBLK
  5
C58
330
C4C
100
AcDbEntity
  8
0
100
AcDbBlockEnd
  0
BLOCK
  5
E43
330
E39
100
AcDbEntity
  8
0
100
AcDbBlockBegin
  2
*D4
 70
     1
 10
0.0
 20
0.0
 30
0.0
  3
*D4
  1

  0
LINE
  5
EAD
330
E39
100
AcDbEntity
  8
BEM
 62
     0
370
    -2
100
AcDbLine
 10
143.9617628516814
 20
331.1567025122552
 30
0.0
 11
143.9617628516814
 21
302.5297391048699
 31
0.0
  0
LINE
  5
EAE
330
E39
100
AcDbEntity
  8
BEM
 62
     0
370
    -2
100
AcDbLine
 10
333.9617628516815
 20
331.1567025122552
 30
0.0
 11
333.9617628516815
 21
302.5297391048699
 31
0.0
  0
LINE
  5
EAF
330
E39
100
AcDbEntity
  8
BEM
 62
     0
370
    -2
100
AcDbLine
 10
150.9617628516814
 20
304.5297391048699
 30
0.0
 11
326.9617628516814
 21
304.5297391048699
 31
0.0
  0
SOLID
  5
EB0
330
E39
100
AcDbEntity
  8
BEM
 62
     0
100
AcDbTrace
 10
150.9617628516814
 20
305.6964057715366
 30
0.0
 11
150.9617628516814
 21
303.3630724382032
 31
0.0
 12
143.9617628516814
 22
304.5297391048699
 32
0.0
 13
143.9617628516814
 23
304.5297391048699
 33
0.0
  0
SOLID
  5
EB1
330
E39
100
AcDbEntity
  8
BEM
 62
     0
100
AcDbTrace
 10
326.9617628516814
 20
305.6964057715366
 30
0.0
 11
326.9617628516814
 21
303.3630724382032
 31
0.0
 12
333.9617628516815
 22
304.5297391048699
 32
0.0
 13
333.9617628516815
 23
304.5297391048699
 33
0.0
  0
MTEXT
  5
EB2
330
E39
100
AcDbEntity
  8
BEM
 62
     1
100
AcDbMText
 10
238.9617628516814
 20
311.0297391048699
 30
0.0
 40
7.0
 41
0.0
 71
     5
 72
     1
  1
\A1;%%c190
 73
     1
 44
1.0
  0
POINT
  5
EB3
330
E39
100
AcDbEntity
  8
DEFPOINTS
 62
     0
100
AcDbPoint
 10
143.9617628516814
 20
333.1567025122552
 30
0.0
  0
POINT
  5
EB4
330
E39
100
AcDbEntity
  8
DEFPOINTS
 62
     0
100
AcDbPoint
 10
333.9617628516815
 20
333.1567025122552
 30
0.0
  0
POINT
  5
EB5
330
E39
100
AcDbEntity
  8
DEFPOINTS
 62
     0
100
AcDbPoint
 10
333.9617628516815
 20
304.5297391048699
 30
0.0
  0
ENDBLK
  5
E44
330
E39
100
AcDbEntity
  8
0
100
AcDbBlockEnd
  0
BLOCK
  5
E4F
330
E45
100
AcDbEntity
  8
0
100
AcDbBlockBegin
  2
*D5
 70
     1
 10
0.0
 20
0.0
 30
0.0
  3
*D5
  1

  0
LINE
  5
E78
330
E45
100
AcDbEntity
  8
BEM
 62
     0
370
    -2
100
AcDbLine
 10
128.9617628516814
 20
495.1567025122551
 30
0.0
 11
128.9617628516814
 21
512.7657878817473
 31
0.0
  0
LINE
  5
E79
330
E45
100
AcDbEntity
  8
BEM
 62
     0
370
    -2
100
AcDbLine
 10
348.9617628516813
 20
495.1567025122551
 30
0.0
 11
348.9617628516813
 21
512.7657878817473
 31
0.0
  0
LINE
  5
E7A
330
E45
100
AcDbEntity
  8
BEM
 62
     0
370
    -2
100
AcDbLine
 10
135.9617628516814
 20
510.7657878817473
 30
0.0
 11
341.9617628516813
 21
510.7657878817473
 31
0.0
  0
SOLID
  5
E7B
330
E45
100
AcDbEntity
  8
BEM
 62
     0
100
AcDbTrace
 10
135.9617628516814
 20
511.932454548414
 30
0.0
 11
135.9617628516814
 21
509.5991212150805
 31
0.0
 12
128.9617628516814
 22
510.7657878817473
 32
0.0
 13
128.9617628516814
 23
510.7657878817473
 33
0.0
  0
SOLID
  5
E7C
330
E45
100
AcDbEntity
  8
BEM
 62
     0
100
AcDbTrace
 10
341.9617628516813
 20
511.932454548414
 30
0.0
 11
341.9617628516813
 21
509.5991212150805
 31
0.0
 12
348.9617628516813
 22
510.7657878817473
 32
0.0
 13
348.9617628516813
 23
510.7657878817473
 33
0.0
  0
MTEXT
  5
E7D
330
E45
100
AcDbEntity
  8
BEM
 62
     1
100
AcDbMText
 10
238.9617628516814
 20
517.2657878817473
 30
0.0
 40
7.0
 41
0.0
 71
     5
 72
     1
  1
\A1;%%c220
 73
     1
 44
1.0
  0
POINT
  5
E7E
330
E45
100
AcDbEntity
  8
DEFPOINTS
 62
     0
100
AcDbPoint
 10
128.9617628516814
 20
493.1567025122552
 30
0.0
  0
POINT
  5
E7F
330
E45
100
AcDbEntity
  8
DEFPOINTS
 62
     0
100
AcDbPoint
 10
348.9617628516813
 20
493.1567025122552
 30
0.0
  0
POINT
  5
E80
330
E45
100
AcDbEntity
  8
DEFPOINTS
 62
     0
100
AcDbPoint
 10
348.9617628516813
 20
510.7657878817473
 30
0.0
  0
ENDBLK
  5
E50
330
E45
100
AcDbEntity
  8
0
100
AcDbBlockEnd
  0
BLOCK
  5
E5B
330
E51
100
AcDbEntity
  8
0
100
AcDbBlockBegin
  2
*D6
 70
     1
 10
0.0
 20
0.0
 30
0.0
  3
*D6
  1

  0
LINE
  5
E8A
330
E51
100
AcDbEntity
  8
BEM
 62
     0
370
    -2
100
AcDbLine
 10
144.6936676041791
 20
333.1567025122552
 30
0.0
 11
64.23949884958138
 21
333.1567025122553
 31
0.0
  0
LINE
  5
E8B
330
E51
100
AcDbEntity
  8
BEM
 62
     0
370
    -2
100
AcDbLine
 10
71.96176285168144
 20
493.156702512256
 30
0.0
 11
64.23949884958142
 21
493.156702512256
 31
0.0
  0
LINE
  5
E8C
330
E51
100
AcDbEntity
  8
BEM
 62
     0
370
    -2
100
AcDbLine
 10
66.23949884958138
 20
340.1567025122553
 30
0.0
 11
66.23949884958142
 21
486.156702512256
 31
0.0
  0
SOLID
  5
E8D
330
E51
100
AcDbEntity
  8
BEM
 62
     0
100
AcDbTrace
 10
65.07283218291471
 20
340.1567025122553
 30
0.0
 11
67.40616551624805
 21
340.1567025122553
 31
0.0
 12
66.23949884958138
 22
333.1567025122553
 32
0.0
 13
66.23949884958138
 23
333.1567025122553
 33
0.0
  0
SOLID
  5
E8E
330
E51
100
AcDbEntity
  8
BEM
 62
     0
100
AcDbTrace
 10
65.07283218291475
 20
486.156702512256
 30
0.0
 11
67.40616551624809
 21
486.156702512256
 31
0.0
 12
66.23949884958142
 22
493.156702512256
 32
0.0
 13
66.23949884958142
 23
493.156702512256
 33
0.0
  0
MTEXT
  5
E8F
330
E51
100
AcDbEntity
  8
BEM
 62
     1
100
AcDbMText
 10
59.73949884958134
 20
413.1567025122556
 30
0.0
 40
7.0
 41
0.0
 71
     5
 72
     1
  1
\A1;160
 11
0.0000000000000001
 21
1.0
 31
0.0
 73
     1
 44
1.0
  0
POINT
  5
E90
330
E51
100
AcDbEntity
  8
DEFPOINTS
 62
     0
100
AcDbPoint
 10
146.6936676041791
 20
333.1567025122552
 30
0.0
  0
POINT
  5
E91
330
E51
100
AcDbEntity
  8
DEFPOINTS
 62
     0
100
AcDbPoint
 10
73.96176285168144
 20
493.156702512256
 30
0.0
  0
POINT
  5
E92
330
E51
100
AcDbEntity
  8
DEFPOINTS
 62
     0
100
AcDbPoint
 10
66.23949884958142
 20
493.156702512256
 30
0.0
  0
ENDBLK
  5
E5C
330
E51
100
AcDbEntity
  8
0
100
AcDbBlockEnd
  0
BLOCK
  5
EA0
330
E94
100
AcDbEntity
  8
0
100
AcDbBlockBegin
  2
*D7
 70
     1
 10
0.0
 20
0.0
 30
0.0
  3
*D7
  1

  0
LINE
  5
EA2
330
E94
100
AcDbEntity
  8
BEM
 62
     0
370
    -2
100
AcDbLine
 10
71.96176285168144
 20
493.156702512256
 30
0.0
 11
64.23949884958142
 21
493.156702512256
 31
0.0
  0
LINE
  5
EA3
330
E94
100
AcDbEntity
  8
BEM
 62
     0
370
    -2
100
AcDbLine
 10
71.96176285168144
 20
495.156702512256
 30
0.0
 11
64.23949884958142
 21
495.156702512256
 31
0.0
  0
LINE
  5
EA4
330
E94
100
AcDbEntity
  8
BEM
 62
     0
370
    -2
100
AcDbLine
 10
66.23949884958142
 20
486.156702512256
 30
0.0
 11
66.23949884958141
 21
479.156702512256
 31
0.0
  0
LINE
  5
EA5
330
E94
100
AcDbEntity
  8
BEM
 62
     0
370
    -2
100
AcDbLine
 10
66.23949884958142
 20
502.1567025122561
 30
0.0
 11
66.23949884958142
 21
518.8900358455894
 31
0.0
  0
LINE
  5
EA6
330
E94
100
AcDbEntity
  8
BEM
 62
     0
370
    -2
100
AcDbLine
 10
66.23949884958142
 20
493.156702512256
 30
0.0
 11
66.23949884958142
 21
495.156702512256
 31
0.0
  0
SOLID
  5
EA7
330
E94
100
AcDbEntity
  8
BEM
 62
     0
100
AcDbTrace
 10
65.07283218291475
 20
486.156702512256
 30
0.0
 11
67.40616551624809
 21
486.156702512256
 31
0.0
 12
66.23949884958142
 22
493.156702512256
 32
0.0
 13
66.23949884958142
 23
493.156702512256
 33
0.0
  0
SOLID
  5
EA8
330
E94
100
AcDbEntity
  8
BEM
 62
     0
100
AcDbTrace
 10
65.07283218291475
 20
502.1567025122561
 30
0.0
 11
67.40616551624809
 21
502.1567025122561
 31
0.0
 12
66.23949884958142
 22
495.156702512256
 32
0.0
 13
66.23949884958142
 23
495.156702512256
 33
0.0
  0
MTEXT
  5
EA9
330
E94
100
AcDbEntity
  8
BEM
 62
     1
100
AcDbMText
 10
59.73949884958134
 20
514.0233691789227
 30
0.0
 40
7.0
 41
0.0
 71
     5
 72
     1
  1
\A1;2
 11
0.0000000000000001
 21
1.0
 31
0.0
 73
     1
 44
1.0
  0
POINT
  5
EAA
330
E94
100
AcDbEntity
  8
DEFPOINTS
 62
     0
100
AcDbPoint
 10
73.96176285168144
 20
493.156702512256
 30
0.0
  0
POINT
  5
EAB
330
E94
100
AcDbEntity
  8
DEFPOINTS
 62
     0
100
AcDbPoint
 10
73.96176285168144
 20
495.156702512256
 30
0.0
  0
POINT
  5
EAC
330
E94
100
AcDbEntity
  8
DEFPOINTS
 62
     0
100
AcDbPoint
 10
66.23949884958142
 20
495.156702512256
 30
0.0
  0
ENDBLK
  5
EA1
330
E94
100
AcDbEntity
  8
0
100
AcDbBlockEnd
  0
ENDSEC
  0
SECTION
  2
ENTITIES
  0
LINE
  5
57
330
1E
100
AcDbEntity
  8
STEMPEL
100
AcDbLine
 10
410.0
 20
110.0
 30
0.0
 11
39.99999999999997
 21
110.0
 31
0.0
  0
LINE
  5
58
330
1E
100
AcDbEntity
  8
STEMPEL
100
AcDbLine
 10
136.0000000000001
 20
109.9999999999999
 30
0.0
 11
136.0
 21
9.999999999999971
 31
0.0
  0
LINE
  5
59
330
1E
100
AcDbEntity
  8
STEMPEL
100
AcDbLine
 10
220.0
 20
110.0
 30
0.0
 11
220.0
 21
9.999999999999971
 31
0.0
  0
LINE
  5
5A
330
1E
100
AcDbEntity
  8
STEMPEL
100
AcDbLine
 10
332.0
 20
109.9999999999997
 30
0.0
 11
332.0
 21
40.0
 31
0.0
  0
LINE
  5
5B
330
1E
100
AcDbEntity
  8
STEMPEL
100
AcDbLine
 10
135.9999999999999
 20
29.99999999999997
 30
0.0
 11
39.99999999999997
 21
29.99999999999997
 31
0.0
  0
LINE
  5
5C
330
1E
100
AcDbEntity
  8
STEMPEL
100
AcDbLine
 10
410.0
 20
40.0
 30
0.0
 11
136.0000000000001
 21
39.99999999999997
 31
0.0
  0
LINE
  5
5D
330
1E
100
AcDbEntity
  8
STEMPEL
100
AcDbLine
 10
410.0
 20
80.0
 30
0.0
 11
136.0000000000001
 21
79.99999999999994
 31
0.0
  0
LINE
  5
5E
330
1E
100
AcDbEntity
  8
VOLL
100
AcDbLine
 10
54.00000000000009
 20
110.0
 30
0.0
 11
53.99999999999997
 21
9.999999999999971
 31
0.0
  0
LINE
  5
5F
330
1E
100
AcDbEntity
  8
VOLL
100
AcDbLine
 10
94.00000000000011
 20
109.9999999999999
 30
0.0
 11
94.0
 21
9.999999999999971
 31
0.0
  0
LINE
  5
60
330
1E
100
AcDbEntity
  8
VOLL
100
AcDbLine
 10
114.0000000000001
 20
109.9999999999999
 30
0.0
 11
114.0
 21
9.999999999999971
 31
0.0
  0
LINE
  5
61
330
1E
100
AcDbEntity
  8
VOLL
100
AcDbLine
 10
154.0000000000001
 20
79.99999999999994
 30
0.0
 11
154.0000000000001
 21
39.99999999999997
 31
0.0
  0
LINE
  5
62
330
1E
100
AcDbEntity
  8
VOLL
100
AcDbLine
 10
180.0000000000001
 20
109.9999999999998
 30
0.0
 11
180.0
 21
39.99999999999997
 31
0.0
  0
LINE
  5
63
330
1E
100
AcDbEntity
  8
HILF
100
AcDbLine
 10
40.00000000000008
 20
100.0
 30
0.0
 11
136.0000000000001
 21
100.0
 31
0.0
  0
LINE
  5
64
330
1E
100
AcDbEntity
  8
HILF
100
AcDbLine
 10
40.00000000000008
 20
90.00000000000005
 30
0.0
 11
136.0000000000001
 21
90.00000000000005
 31
0.0
  0
LINE
  5
65
330
1E
100
AcDbEntity
  8
HILF
100
AcDbLine
 10
40.00000000000008
 20
79.99999999999994
 30
0.0
 11
136.0000000000001
 21
79.99999999999994
 31
0.0
  0
LINE
  5
66
330
1E
100
AcDbEntity
  8
HILF
100
AcDbLine
 10
40.00000000000008
 20
69.99999999999994
 30
0.0
 11
136.0000000000001
 21
69.99999999999994
 31
0.0
  0
LINE
  5
67
330
1E
100
AcDbEntity
  8
HILF
100
AcDbLine
 10
40.00000000000008
 20
59.99999999999997
 30
0.0
 11
136.0000000000001
 21
59.99999999999997
 31
0.0
  0
LINE
  5
68
330
1E
100
AcDbEntity
  8
HILF
100
AcDbLine
 10
40.00000000000008
 20
49.99999999999997
 30
0.0
 11
136.0000000000001
 21
49.99999999999997
 31
0.0
  0
LINE
  5
69
330
1E
100
AcDbEntity
  8
HILF
100
AcDbLine
 10
40.00000000000008
 20
39.99999999999997
 30
0.0
 11
136.0000000000001
 21
39.99999999999997
 31
0.0
  0
LINE
  5
6A
330
1E
100
AcDbEntity
  8
HILF
100
AcDbLine
 10
136.0000000000001
 20
69.99999999999994
 30
0.0
 11
220.0
 21
69.99999999999994
 31
0.0
  0
LINE
  5
6B
330
1E
100
AcDbEntity
  8
HILF
100
AcDbLine
 10
136.0000000000001
 20
59.99999999999997
 30
0.0
 11
220.0
 21
59.99999999999997
 31
0.0
  0
LINE
  5
6C
330
1E
100
AcDbEntity
  8
HILF
100
AcDbLine
 10
136.0000000000001
 20
49.99999999999997
 30
0.0
 11
220.0
 21
49.99999999999997
 31
0.0
  0
LINE
  5
6D
330
1E
100
AcDbEntity
  8
HILF
100
AcDbLine
 10
224.7736801096948
 20
84.03758247564139
 30
0.0
 11
324.8353916556311
 21
84.03758247564139
 31
0.0
  0
LINE
  5
6E
330
1E
100
AcDbEntity
  8
HILF
100
AcDbLine
 10
224.7736801096948
 20
69.99999999999994
 30
0.0
 11
324.835391655631
 21
69.99999999999994
 31
0.0
  0
LINE
  5
6F
330
1E
100
AcDbEntity
  8
HILF
100
AcDbLine
 10
224.7736801096948
 20
59.99999999999997
 30
0.0
 11
324.835391655631
 21
59.99999999999997
 31
0.0
  0
LINE
  5
70
330
1E
100
AcDbEntity
  8
HILF
100
AcDbLine
 10
224.7736801096948
 20
49.99999999999997
 30
0.0
 11
324.835391655631
 21
49.99999999999997
 31
0.0
  0
LINE
  5
71
330
1E
100
AcDbEntity
  8
VOLL
100
AcDbLine
 10
332.0
 20
60.0
 30
0.0
 11
410.0
 21
60.0
 31
0.0
  0
LINE
  5
72
330
1E
100
AcDbEntity
  8
HILF
100
AcDbLine
 10
336.7238616296993
 20
83.77983636955827
 30
0.0
 11
404.8588839326728
 21
83.77983636955827
 31
0.0
  0
LINE
  5
73
330
1E
100
AcDbEntity
  8
HILF
100
AcDbLine
 10
223.4909699289885
 20
14.89398258028314
 30
0.0
 11
404.8588839326728
 21
14.89398258028314
 31
0.0
  0
TEXT
  5
74
330
1E
100
AcDbEntity
  8
TEXT
100
AcDbText
 10
63.86165979631819
 20
18.67381894984132
 30
0.0
 40
4.0
  1
Änderung
 41
0.8
  7
GREEKS
 72
     1
 11
74.60451693917534
 21
18.67381894984132
 31
0.0
100
AcDbText
  0
TEXT
  5
75
330
1E
100
AcDbEntity
  8
TEXT
100
AcDbText
 10
143.5163572150377
 20
102.4620895087088
 30
0.0
 40
5.0
  1
Maßstab
 41
0.8
  7
GREEKS
100
AcDbText
  0
TEXT
  5
76
330
1E
100
AcDbEntity
  8
TEXT
100
AcDbText
 10
184.2858954734051
 20
102.4184168434819
 30
0.0
 40
5.0
  1
Zul. Abw.
 41
0.8
  7
GREEKS
100
AcDbText
  0
TEXT
  5
77
330
1E
100
AcDbEntity
  8
TEXT
100
AcDbText
 10
224.877940380901
 20
102.5489328011779
 30
0.0
 40
5.0
  1
Benennung
 41
0.8
  7
GREEKS
100
AcDbText
  0
TEXT
  5
78
330
1E
100
AcDbEntity
  8
TEXT
100
AcDbText
 10
336.178754957634
 20
102.3132034537136
 30
0.0
 40
5.0
  1
Zeichnungs Nr.
 41
0.8
  7
GREEKS
100
AcDbText
  0
TEXT
  5
79
330
1E
100
AcDbEntity
  8
TEXT
100
AcDbText
 10
224.742238391136
 20
30.84560570193057
 30
0.0
 40
5.0
  1
Bauvorhaben
 41
0.8
  7
GREEKS
100
AcDbText
  0
TEXT
  5
7A
330
1E
100
AcDbEntity
  8
TEXT
100
AcDbText
 10
336.7238616296993
 20
73.1811823709997
 30
0.0
 40
5.0
  1
Ersatz für:
 41
0.8
  7
GREEKS
100
AcDbText
  0
TEXT
  5
7B
330
1E
100
AcDbEntity
  8
TEXT
100
AcDbText
 10
48.26641107045756
 20
13.65465846027192
 30
0.0
 40
4.0
  1
Index
 50
90.0
 41
0.8
  7
GREEKS
100
AcDbText
  0
TEXT
  5
7C
330
1E
100
AcDbEntity
  8
TEXT
100
AcDbText
 10
100.0934676075481
 20
18.6715626933981
 30
0.0
 40
4.0
  1
Tag
 41
0.8
  7
GREEKS
 72
     1
 11
103.8268009408814
 21
18.6715626933981
 31
0.0
100
AcDbText
  0
TEXT
  5
7D
330
1E
100
AcDbEntity
  8
TEXT
100
AcDbText
 10
119.0122744386592
 20
18.59324216966408
 30
0.0
 40
4.0
  1
Name
 41
0.8
  7
GREEKS
 72
     1
 11
125.3360839624688
 21
18.59324216966408
 31
0.0
100
AcDbText
  0
TEXT
  5
7E
330
1E
100
AcDbEntity
  8
TEXT
100
AcDbText
 10
162.3311673153651
 20
73.31880501229926
 30
0.0
 40
4.0
  1
Tag
 41
0.8
  7
GREEKS
100
AcDbText
  0
TEXT
  5
7F
330
1E
100
AcDbEntity
  8
TEXT
100
AcDbText
 10
192.4626584226295
 20
73.30961091915225
 30
0.0
 40
4.0
  1
Name
 41
0.8
  7
GREEKS
100
AcDbText
  0
TEXT
  5
80
330
1E
100
AcDbEntity
  8
TEXT
100
AcDbText
 10
137.5836127167615
 20
63.62990369617964
 30
0.0
 40
4.0
  1
Gez.
 41
0.8
  7
GREEKS
100
AcDbText
  0
TEXT
  5
81
330
1E
100
AcDbEntity
  8
TEXT
100
AcDbText
 10
137.5515086571672
 20
53.68926291428377
 30
0.0
 40
4.0
  1
Gepr.
 41
0.8
  7
GREEKS
100
AcDbText
  0
TEXT
  5
82
330
1E
100
AcDbEntity
  8
TEXT
100
AcDbText
 10
137.6006777387304
 20
43.52946389649807
 30
0.0
 40
4.0
  1
Norm.
 41
0.8
  7
GREEKS
100
AcDbText
  0
LINE
  5
83
330
1E
100
AcDbEntity
  8
STEMPEL
100
AcDbLine
 10
49.99999999999989
 20
10.0
 30
0.0
 11
410.0
 21
10.0
 31
0.0
  0
TEXT
  5
84
330
1E
100
AcDbEntity
  8
TEXT
100
AcDbText
 10
337.2400861497006
 20
52.07416177878602
 30
0.0
 40
5.0
  1
ersetzt durch:
 41
0.8
  7
GREEKS
100
AcDbText
  0
LINE
  5
85
330
1E
100
AcDbEntity
  8
STEMPEL
100
AcDbLine
 10
410.0
 20
10.0
 30
0.0
 11
39.99999999999989
 21
10.0
 31
0.0
  0
LINE
  5
86
330
1E
100
AcDbEntity
  8
STEMPEL
100
AcDbLine
 10
410.0
 20
10.0
 30
0.0
 11
410.0
 21
584.0
 31
0.0
  0
LINE
  5
87
330
1E
100
AcDbEntity
  8
STEMPEL
100
AcDbLine
 10
40.0
 20
10.0
 30
0.0
 11
39.99999999999989
 21
584.0
 31
0.0
  0
LINE
  5
88
330
1E
100
AcDbEntity
  8
STEMPEL
100
AcDbLine
 10
410.0
 20
584.0
 30
0.0
 11
39.99999999999989
 21
584.0
 31
0.0
  0
LINE
  5
89
330
1E
100
AcDbEntity
  8
HILF
100
AcDbLine
 10
0.0
 20
0.0
 30
0.0
 11
-0.0000000000001137
 21
594.0
 31
0.0
  0
LINE
  5
8A
330
1E
100
AcDbEntity
  8
HILF
100
AcDbLine
 10
419.9999999999999
 20
594.0000000000002
 30
0.0
 11
0.0
 21
594.0
 31
0.0
  0
LINE
  5
8B
330
1E
100
AcDbEntity
  8
HILF
100
AcDbLine
 10
420.0
 20
0.0
 30
0.0
 11
0.0
 21
0.0
 31
0.0
  0
LINE
  5
8C
330
1E
100
AcDbEntity
  8
HILF
100
AcDbLine
 10
31.08767135713856
 20
297.0
 30
0.0
 11
0.0000000000001137
 21
297.0
 31
0.0
  0
TEXT
  5
8D
330
1E
100
AcDbEntity
  8
TEXT
100
AcDbText
 10
138.622109822104
 20
73.14025471151666
 30
0.0
 40
4.0
  1
2010
 41
0.8
  7
GREEKS
100
AcDbText
  0
LINE
  5
8E
330
1E
100
AcDbEntity
  8
HILF
100
AcDbLine
 10
420.0
 20
-0.0000000000001137
 30
0.0
 11
419.9999999999999
 21
594.0
 31
0.0
  0
TEXT
  5
8F
330
1E
100
AcDbEntity
  8
VOLL
100
AcDbText
 10
78.07675471698113
 20
31.02594776470585
 30
0.0
 40
1.8
  1

  7
GREEKS
100
AcDbText
  0
TEXT
  5
90
330
1E
100
AcDbEntity
  8
TEXT
100
AcDbText
 10
41.85509950977674
 20
111.6719999999999
 30
0.0
 40
5.0
  1
Erstellt mit AUTOCAD 2004
 41
0.8
  7
GREEKS
100
AcDbText
  0
TEXT
  5
91
330
1E
100
AcDbEntity
  8
TEXT
100
AcDbText
 10
194.4216048581257
 20
63.0896391972351
 30
0.0
 40
4.0
  1
Koeh
 41
0.8
  7
GREEKS
 72
     1
 11
199.6787477152685
 21
63.0896391972351
 31
0.0
100
AcDbText
  0
TEXT
  5
92
330
1E
100
AcDbEntity
  8
TEXT
 62
     1
100
AcDbText
 10
348.6125905439591
 20
88.14901428913959
 30
0.0
 40
7.0
  1
17160125W
 41
0.8
  7
GREEKS
 72
     1
 11
371.0125905439592
 21
88.14901428913959
 31
0.0
100
AcDbText
  0
TEXT
  5
93
330
1E
100
AcDbEntity
  8
TEXT
 62
     1
100
AcDbText
 10
150.5006306481887
 20
88.14901428913959
 30
0.0
 40
7.0
  1
1:2
 41
0.8
  7
GREEKS
100
AcDbText
  0
TEXT
  5
94
330
1E
100
AcDbEntity
  8
TEXT
100
AcDbText
 10
160.7037590129979
 20
63.10765040825732
 30
0.0
 40
4.0
  1
23.12.
 41
0.8
  7
GREEKS
 72
     1
 11
167.4085209177598
 21
63.10765040825732
 31
0.0
100
AcDbText
  0
TEXT
  5
95
330
1E
100
AcDbEntity
  8
TEXT
 62
     1
100
AcDbText
 10
226.8935731057402
 20
87.41748789253779
 30
0.0
 40
7.0
  1
Ablauftopf DN125
 41
0.8
  7
GREEKS
100
AcDbText
  0
TEXT
  5
96
330
1E
100
AcDbEntity
  8
TEXT
100
AcDbText
 10
225.1296391125315
 20
71.50334417585288
 30
0.0
 40
5.0
  1
für Flachdach senkrecht
 41
0.8
  7
GREEKS
100
AcDbText
  0
TEXT
  5
97
330
1E
100
AcDbEntity
  8
TEXT
100
AcDbText
 10
225.1296391125315
 20
62.11580706774856
 30
0.0
 40
5.0
  1

 41
0.8
  7
GREEKS
100
AcDbText
  0
TEXT
  5
98
330
1E
100
AcDbEntity
  8
TEXT
100
AcDbText
 10
225.1296391125315
 20
51.64011943042158
 30
0.0
 40
5.0
  1
EDV-Art.Nr. 17160.125A
 41
0.8
  7
GREEKS
100
AcDbText
  0
TEXT
  5
99
330
1E
100
AcDbEntity
  8
TEXT
100
AcDbText
 10
224.9837501577827
 20
42.62974153022632
 30
0.0
 40
4.0
  1
17160125W.DWG
 41
0.8
  7
GREEKS
100
AcDbText
  0
TEXT
  5
9A
330
1E
100
AcDbEntity
  8
TEXT
100
AcDbText
 10
182.626132208084
 20
90.76363841023022
 30
0.0
 40
4.0
  1
DIN EN1123-2
 41
0.8
  7
GREEKS
 72
     1
 11
199.6166083985602
 21
90.76363841023022
 31
0.0
100
AcDbText
  0
INSERT
  5
9B
330
1E
100
AcDbEntity
  8
STEMPEL
100
AcDbBlockReference
  2
LOGO
 10
140.9955485457794
 20
45.02105276448322
 30
0.0
 41
2.0
 42
2.0
 43
2.0
  0
TEXT
  5
118
330
1E
100
AcDbEntity
  8
TEXT
100
AcDbText
 10
417.3022923857165
 20
10.16790107998849
 30
0.0
 40
4.0
  1
Diese Zeichnung ist urheberrechtlich geschützt und bleibt unser Eigentum. Sie darf weder ganz noch teilweise verfielfältigt und nicht an Dritte weitergegeben werden.
 50
90.0
 41
0.8
  7
GREEKS
100
AcDbText
  0
TEXT
  5
7B5
330
1E
100
AcDbEntity
  8
TEXT
 62
     1
100
AcDbText
 10
42.77230848127635
 20
190.5341358942196
 30
0.0
 40
7.0
  1
Rohrende leicht eingezogen
 41
0.8
  7
GREEKS
100
AcDbText
  0
LINE
  5
7E3
330
1E
100
AcDbEntity
  8
TEXT
 62
     2
100
AcDbLine
 10
98.28168387967162
 20
552.4440732619581
 30
0.0
 11
92.61588099241507
 21
526.8080238164727
 31
0.0
  0
TEXT
  5
7F7
330
1E
100
AcDbEntity
  8
TEXT
 62
     1
100
AcDbText
 10
211.7416559370805
 20
132.7860833291053
 30
0.0
 40
7.0
  1
pulverbeschichtet mit Polyesterpulver glatt
 41
0.8
  7
GREEKS
100
AcDbText
  0
TEXT
  5
7F8
330
1E
100
AcDbEntity
  8
TEXT
 62
     1
100
AcDbText
 10
163.825968927882
 20
144.8519732642352
 30
0.0
 40
7.0
  1
Werkstoff: AlMn1, W 10, DIN 1725+1746/1+1795
 41
0.8
  7
GREEKS
100
AcDbText
  0
TEXT
  5
8E8
330
1E
100
AcDbEntity
  8
TEXT
 62
     1
100
AcDbText
 10
100.3578065051021
 20
543.0581760995948
 30
0.0
 40
7.0
  1
n.Zchng. S901653
 41
0.8
  7
GREEKS
100
AcDbText
  0
TEXT
  5
8E9
330
1E
100
AcDbEntity
  8
TEXT
 62
     1
100
AcDbText
 10
100.3578065051021
 20
555.7047236977361
 30
0.0
 40
7.0
  1
Ablauftopf DN125
 41
0.8
  7
GREEKS
100
AcDbText
  0
LINE
  5
8EA
330
1E
100
AcDbEntity
  8
TEXT
 62
     2
100
AcDbLine
 10
181.1698896012575
 20
552.444073261958
 30
0.0
 11
98.28168387967162
 21
552.4440732619581
 31
0.0
  0
TEXT
  5
AA3
330
1E
100
AcDbEntity
  8
TEXT
 62
     1
100
AcDbText
 10
223.5680784270183
 20
371.165618839734
 30
0.0
 40
7.0
  1
DN125
 50
90.0
 41
0.8
  7
GREEKS
100
AcDbText
  0
HATCH
  5
BC5
330
1E
100
AcDbEntity
  8
SCHRAFF
100
AcDbHatch
 10
0.0
 20
0.0
 30
0.0
210
0.0
220
0.0
230
1.0
  2
_U
 70
     0
 71
     1
 91
        2
 92
        7
 72
     1
 73
     1
 93
       16
 10
166.4617628516814
 20
369.1067378168892
 42
0.1682991173557609
 10
170.3189057088241
 20
357.9721254825181
 42
-0.1682991173557633
 10
172.4617628516814
 20
351.7862297412007
 42
0.0
 10
172.4617628516814
 20
230.0693806264389
 42
0.0
 10
173.7664531294836
 20
215.156702512256
 42
0.0
 10
175.7740928045703
 20
215.1567025122559
 42
0.0
 10
174.4617628516814
 20
230.1567025122558
 42
0.0
 10
174.4617628516814
 20
351.7862297412008
 42
0.1682991173557562
 10
171.8903342802529
 20
359.2093046307813
 42
-0.1682991173557651
 10
168.4617628516814
 20
369.1067378168892
 42
0.0
 10
168.4617628516814
 20
446.5445599903985
 42
0.1316524975873967
 10
166.8540676970947
 20
452.5445599903985
 42
0.0
 10
162.9617628516815
 20
459.2862297412007
 42
0.0
 10
161.2297120441126
 20
458.2862297412007
 42
0.0
 10
165.1220168895258
 20
451.5445599903988
 42
-0.1316524975873999
 10
166.4617628516815
 20
446.5445599903987
 42
0.0
 97
       16
330
BEE
330
BEB
330
BF0
330
BEC
330
BED
330
BE2
330
BE5
330
BE6
330
BD7
330
BDC
330
BD5
330
BDD
330
BD8
330
BE4
330
BE7
330
BE3
 92
        7
 72
     1
 73
     1
 93
       16
 10
309.4617628516814
 20
369.1067378168892
 42
-0.1682991173557697
 10
306.0331914231098
 20
359.2093046307811
 42
0.1682991173557578
 10
303.461762851681
 20
351.7862297412006
 42
0.0
 10
303.4617628516821
 20
230.1567025122562
 42
0.0
 10
302.1494328987932
 20
215.1567025122562
 42
0.0
 10
304.1570725738798
 20
215.1567025122562
 42
0.0
 10
305.461762851681
 20
230.0693806264265
 42
0.0
 10
305.4617628516814
 20
351.7862297412007
 42
-0.1682991173557556
 10
307.6046199945385
 20
357.9721254825178
 42
0.168299117355765
 10
311.4617628516815
 20
369.1067378168892
 42
0.0
 10
311.4617628516814
 20
446.5445599903987
 42
-0.1316524975873987
 10
312.8015088138371
 20
451.5445599903988
 42
0.0
 10
316.6938136592503
 20
458.2862297412007
 42
0.0
 10
314.9617628516815
 20
459.2862297412007
 42
0.0
 10
311.0694580062682
 20
452.5445599903983
 42
0.1316524975873983
 10
309.4617628516814
 20
446.5445599903983
 42
0.0
 97
       16
330
C0C
330
C09
330
C0F
330
C0A
330
C0B
330
C02
330
C06
330
C04
330
BF9
330
BFE
330
BD5
330
BFC
330
BFA
330
C03
330
C05
330
C01
 75
     0
 76
     0
 52
45.0
 41
2.0
 77
     0
 78
     1
 53
45.0
 43
0.0
 44
0.0
 45
-1.414213562373094
 46
1.414213562373095
 79
     0
 47
0.484019859282586
 98
        2
 10
167.2092894985198
 20
404.811651179131
 10
310.0902310344145
 20
414.0080296002931
  0
LINE
  5
BC7
102
{ACAD_REACTORS
330
DD2
102
}
330
1E
100
AcDbEntity
  8
STEMPEL
100
AcDbLine
 10
73.96176285168144
 20
495.156702512256
 30
0.0
 11
403.9617628516814
 21
495.156702512256
 31
0.0
  0
LINE
  5
BC8
330
1E
100
AcDbEntity
  8
STEMPEL
100
AcDbLine
 10
164.3955195814221
 20
461.156702512256
 30
0.0
 11
313.5280061219408
 21
461.156702512256
 31
0.0
  0
LINE
  5
BC9
330
1E
100
AcDbEntity
  8
STEMPEL
100
AcDbLine
 10
164.3955195814221
 20
459.156702512256
 30
0.0
 11
313.5280061219408
 21
459.1567025122562
 31
0.0
  0
LINE
  5
BCA
330
1E
100
AcDbEntity
  8
HILF
100
AcDbLine
 10
154.2711639284398
 20
476.6926008971185
 30
0.0
 11
323.6523617749231
 21
476.6926008971185
 31
0.0
  0
LINE
  5
BCB
330
1E
100
AcDbEntity
  8
HILF
100
AcDbLine
 10
153.992616075453
 20
479.9817251852044
 30
0.0
 11
323.9309096279098
 21
479.9817251852044
 31
0.0
  0
LINE
  5
BCC
330
1E
100
AcDbEntity
  8
HILF
100
AcDbLine
 10
155.5828760268109
 20
489.6567025122561
 30
0.0
 11
322.340649676552
 21
489.6567025122561
 31
0.0
  0
DIMENSION
  5
BCD
330
1E
100
AcDbEntity
  8
BEM
100
AcDbDimension
  2
*D1
 10
403.9617628516814
 20
524.1195889054652
 30
0.0
 11
238.9617628516814
 21
530.6195889054651
 31
0.0
 70
    32
  1
%%c<>
 71
     5
 42
330.0
  3
Standard
100
AcDbAlignedDimension
 13
73.96176285168144
 23
495.156702512256
 33
0.0
 14
403.9617628516814
 24
495.156702512256
 34
0.0
100
AcDbRotatedDimension
1001
ACAD
1000
DSTYLE
1002
{
1070
    40
1040
2.0
1070
    41
1040
3.5
1070
    42
1040
1.0
1070
    43
1040
7.0
1070
    44
1040
1.0
1070
    73
1070
     0
1070
    74
1070
     0
1070
    77
1070
     1
1070
    78
1070
     8
1070
    79
1070
     2
1070
   140
1040
3.5
1070
   141
1040
1.5
1070
   146
1040
0.5
1070
   147
1040
1.5
1070
   172
1070
     1
1070
   178
1070
     1
1070
   179
1070
     2
1070
   271
1070
     2
1070
   272
1070
     2
1070
   284
1070
     8
1070
   285
1070
     8
1070
   286
1070
     8
1002
}
  0
LINE
  5
BCF
330
1E
100
AcDbEntity
  8
HILF
100
AcDbLine
 10
175.9543203239643
 20
355.5213191453707
 30
0.0
 11
301.9692053793988
 21
355.5213191453706
 31
0.0
  0
LINE
  5
BD0
330
1E
100
AcDbEntity
  8
HILF
100
AcDbLine
 10
172.2500594360406
 20
363.8695084512255
 30
0.0
 11
305.6734662673225
 21
363.8695084512254
 31
0.0
  0
LINE
  5
BD1
330
1E
100
AcDbEntity
  8
HILF
100
AcDbLine
 10
171.4617628516819
 20
449.6503885316287
 30
0.0
 11
306.7647408790783
 21
449.6503885316287
 31
0.0
  0
HATCH
  5
BD2
330
1E
100
AcDbEntity
  8
SCHRAFF
100
AcDbHatch
 10
0.0
 20
0.0
 30
0.0
210
0.0
220
0.0
230
1.0
  2
_U
 70
     0
 71
     1
 91
        2
 92
        7
 72
     1
 73
     1
 93
        4
 10
160.1634913177461
 20
460.3677455396832
 42
0.4627052573130771
 10
162.3477460328625
 20
456.349738068097
 42
0.0
 10
161.2297120441126
 20
458.2862297412006
 42
0.0
 10
162.9617628516816
 20
459.2862297412008
 42
-0.0945887848327673
 97
        4
330
BF1
330
BEC
330
BF0
330
BEA
 92
        7
 72
     1
 73
     1
 93
        4
 10
316.69381365925
 20
458.2862297412001
 42
0.0
 10
315.5757796705004
 20
456.349738068097
 42
0.4627052573130787
 10
317.7600343856168
 20
460.3677455396832
 42
-0.094588784832768
 10
314.9617628516813
 20
459.2862297412008
 42
0.0
 97
        4
330
C0D
330
C0F
330
C09
330
C10
 75
     0
 76
     0
 52
0.0
 41
0.1
 77
     0
 78
     1
 53
0.0
 43
0.0
 44
0.0
 45
0.0
 46
0.1
 79
     0
 47
0.2282970371298439
 98
        2
 10
161.249276338729
 20
459.4490015119006
 10
317.0515392325624
 20
458.9924079035502
  0
DIMENSION
  5
BD3
330
1E
100
AcDbEntity
  8
BEM
100
AcDbDimension
  2
*D2
 10
305.461762851681
 20
189.8395804194762
 30
0.0
 11
238.9617628516812
 21
196.3395804194762
 31
0.0
 70
    32
  1
%%c<>
 71
     5
 42
132.9999999999995
  3
Standard
100
AcDbAlignedDimension
 13
172.4617628516814
 23
230.0693806264389
 33
0.0
 14
305.461762851681
 24
230.069380626426
 34
0.0
100
AcDbRotatedDimension
1001
ACAD
1000
DSTYLE
1002
{
1070
    40
1040
2.0
1070
    41
1040
3.5
1070
    42
1040
1.0
1070
    43
1040
7.0
1070
    44
1040
1.0
1070
    73
1070
     0
1070
    74
1070
     0
1070
    77
1070
     1
1070
    78
1070
     8
1070
    79
1070
     2
1070
   140
1040
3.5
1070
   141
1040
1.5
1070
   146
1040
0.5
1070
   147
1040
1.5
1070
   172
1070
     1
1070
   178
1070
     1
1070
   179
1070
     2
1070
   271
1070
     2
1070
   272
1070
     2
1070
   284
1070
     8
1070
   285
1070
     8
1070
   286
1070
     8
1002
}
  0
LINE
  5
BD4
330
1E
100
AcDbEntity
  8
HILF
100
AcDbLine
 10
176.4694025267681
 20
230.1567025122559
 30
0.0
 11
301.4541231765952
 21
230.1567025122561
 31
0.0
  0
LINE
  5
BD5
102
{ACAD_REACTORS
330
BC5
102
}
330
1E
100
AcDbEntity
  8
STEMPEL
100
AcDbLine
 10
173.7664531294836
 20
215.156702512256
 30
0.0
 11
304.1570725738798
 21
215.1567025122562
 31
0.0
  0
LINE
  5
BD7
102
{ACAD_REACTORS
330
BC5
330
F2D
102
}
330
1E
100
AcDbEntity
  8
STEMPEL
100
AcDbLine
 10
172.4617628516814
 20
351.7862297412008
 30
0.0
 11
172.4617628516814
 21
230.0693806264389
 31
0.0
  0
LINE
  5
BD8
102
{ACAD_REACTORS
330
BC5
102
}
330
1E
100
AcDbEntity
  8
STEMPEL
100
AcDbLine
 10
174.4617628516814
 20
351.7862297412008
 30
0.0
 11
174.4617628516814
 21
230.1567025122557
 31
0.0
  0
LINE
  5
BD9
330
1E
100
AcDbEntity
  8
MITTEL
100
AcDbLine
 10
238.9617628516814
 20
500.156702512256
 30
0.0
 11
238.9617628516814
 21
316.9994331947523
 31
0.0
  0
DIMENSION
  5
BDA
330
1E
100
AcDbEntity
  8
BEM
100
AcDbDimension
  2
*D3
 10
53.27992164878037
 20
495.1567025122559
 30
0.0
 11
46.77992164878029
 21
355.1567025122559
 31
0.0
 70
    32
 71
     5
 42
280.0
  3
Standard
100
AcDbAlignedDimension
 13
176.4617628516814
 23
215.156702512256
 33
0.0
 14
73.96176285168144
 24
495.1567025122559
 34
0.0
 50
90.0
100
AcDbRotatedDimension
1001
ACAD
1000
DSTYLE
1002
{
1070
    40
1040
2.0
1070
    41
1040
3.5
1070
    42
1040
1.0
1070
    43
1040
7.0
1070
    44
1040
1.0
1070
    73
1070
     0
1070
    74
1070
     0
1070
    77
1070
     1
1070
    78
1070
     8
1070
    79
1070
     2
1070
   140
1040
3.5
1070
   141
1040
1.5
1070
   146
1040
0.5
1070
   147
1040
1.5
1070
   172
1070
     1
1070
   178
1070
     1
1070
   179
1070
     2
1070
   271
1070
     2
1070
   272
1070
     2
1070
   284
1070
     8
1070
   285
1070
     8
1070
   286
1070
     8
1002
}
  0
LINE
  5
BDC
102
{ACAD_REACTORS
330
BC5
102
}
330
1E
100
AcDbEntity
  8
STEMPEL
100
AcDbLine
 10
172.4617628516814
 20
230.0693806264389
 30
0.0
 11
173.7664531294836
 21
215.156702512256
 31
0.0
  0
LINE
  5
BDD
102
{ACAD_REACTORS
330
BC5
102
}
330
1E
100
AcDbEntity
  8
STEMPEL
100
AcDbLine
 10
174.4617628516814
 20
230.1567025122557
 30
0.0
 11
175.7740928045703
 21
215.156702512256
 31
0.0
  0
LINE
  5
BDE
102
{ACAD_REACTORS
330
DD2
102
}
330
1E
100
AcDbEntity
  8
STEMPEL
100
AcDbLine
 10
149.9617628516814
 20
480.156702512256
 30
0.0
 11
151.5297031623543
 21
489.0489338904218
 31
0.0
  0
LINE
  5
BDF
102
{ACAD_REACTORS
330
DD2
102
}
330
1E
100
AcDbEntity
  8
STEMPEL
100
AcDbLine
 10
151.9617628516814
 20
479.9817251852044
 30
0.0
 11
153.4993186683789
 21
488.7016375350879
 31
0.0
  0
LINE
  5
BE2
102
{ACAD_REACTORS
330
BC5
102
}
330
1E
100
AcDbEntity
  8
STEMPEL
100
AcDbLine
 10
166.4617628516815
 20
446.5445599903987
 30
0.0
 11
166.4617628516814
 21
369.1067378168892
 31
0.0
  0
LINE
  5
BE3
102
{ACAD_REACTORS
330
BC5
102
}
330
1E
100
AcDbEntity
  8
STEMPEL
100
AcDbLine
 10
168.4617628516814
 20
446.5445599903985
 30
0.0
 11
168.4617628516814
 21
369.1067378168892
 31
0.0
  0
ARC
  5
BE4
102
{ACAD_REACTORS
330
BC5
102
}
330
1E
100
AcDbEntity
  8
STEMPEL
100
AcDbCircle
 10
162.4617628516812
 20
351.7862297412007
 30
0.0
 40
12.0
100
AcDbArc
 50
0.0
 51
38.21321070173933
  0
ARC
  5
BE5
102
{ACAD_REACTORS
330
BC5
102
}
330
1E
100
AcDbEntity
  8
STEMPEL
100
AcDbCircle
 10
184.4617628516814
 20
369.1067378168892
 30
0.0
 40
18.0
100
AcDbArc
 50
180.0
 51
218.2132107017358
  0
ARC
  5
BE6
102
{ACAD_REACTORS
330
BC5
102
}
330
1E
100
AcDbEntity
  8
STEMPEL
100
AcDbCircle
 10
162.4617628516812
 20
351.7862297412007
 30
0.0
 40
10.0
100
AcDbArc
 50
0.0
 51
38.21321070173576
  0
ARC
  5
BE7
102
{ACAD_REACTORS
330
BC5
102
}
330
1E
100
AcDbEntity
  8
STEMPEL
100
AcDbCircle
 10
184.4617628516814
 20
369.1067378168892
 30
0.0
 40
16.0
100
AcDbArc
 50
180.0
 51
218.2132107017358
  0
LINE
  5
BE8
102
{ACAD_REACTORS
330
DD2
102
}
330
1E
100
AcDbEntity
  8
STEMPEL
100
AcDbLine
 10
149.9617628516814
 20
476.156702512256
 30
0.0
 11
157.4673163511465
 21
463.1567025122562
 31
0.0
  0
LINE
  5
BE9
102
{ACAD_REACTORS
330
DD2
102
}
330
1E
100
AcDbEntity
  8
STEMPEL
100
AcDbLine
 10
151.9617628516814
 20
476.6926008971183
 30
0.0
 11
159.1993671587154
 21
464.1567025122562
 31
0.0
  0
ARC
  5
BEA
102
{ACAD_REACTORS
330
BD2
330
DD2
102
}
330
1E
100
AcDbEntity
  8
STEMPEL
100
AcDbCircle
 10
164.3955195814221
 20
467.1567025122562
 30
0.0
 40
8.0
100
AcDbArc
 50
210.0000000000005
 51
270.0
  0
LINE
  5
BEB
102
{ACAD_REACTORS
330
BC5
102
}
330
1E
100
AcDbEntity
  8
STEMPEL
100
AcDbLine
 10
162.9617628516814
 20
459.2862297412007
 30
0.0
 11
166.8540676970947
 21
452.5445599903985
 31
0.0
  0
LINE
  5
BEC
102
{ACAD_REACTORS
330
BD2
330
BC5
102
}
330
1E
100
AcDbEntity
  8
STEMPEL
100
AcDbLine
 10
161.2297120441126
 20
458.2862297412007
 30
0.0
 11
165.1220168895258
 21
451.5445599903988
 31
0.0
  0
ARC
  5
BED
102
{ACAD_REACTORS
330
BC5
102
}
330
1E
100
AcDbEntity
  8
STEMPEL
100
AcDbCircle
 10
156.4617628516815
 20
446.5445599903987
 30
0.0
 40
10.0
100
AcDbArc
 50
0.0
 51
30.00000000000055
  0
ARC
  5
BEE
102
{ACAD_REACTORS
330
BC5
102
}
330
1E
100
AcDbEntity
  8
STEMPEL
100
AcDbCircle
 10
156.4617628516814
 20
446.5445599903985
 30
0.0
 40
12.0
100
AcDbArc
 50
0.0
 51
30.00000000000055
  0
LINE
  5
BEF
102
{ACAD_REACTORS
330
DD2
102
}
330
1E
100
AcDbEntity
  8
STEMPEL
100
AcDbLine
 10
162.9617628516814
 20
461.3305252372392
 30
0.0
 11
162.9617628516814
 21
459.2862297412009
 31
0.0
  0
LINE
  5
BF0
102
{ACAD_REACTORS
330
BD2
330
BC5
102
}
330
1E
100
AcDbEntity
  8
STEMPEL
100
AcDbLine
 10
162.9617628516814
 20
459.2862297412007
 30
0.0
 11
161.2297120441126
 21
458.2862297412007
 31
0.0
  0
ARC
  5
BF1
102
{ACAD_REACTORS
330
BD2
102
}
330
1E
100
AcDbEntity
  8
SCHRAFF
100
AcDbCircle
 10
162.9617628516814
 20
459.2862297412007
 30
0.0
 40
3.0
100
AcDbArc
 50
158.8687706149993
 51
258.1896851042217
  0
ARC
  5
BF2
102
{ACAD_REACTORS
330
DD2
102
}
330
1E
100
AcDbEntity
  8
STEMPEL
100
AcDbCircle
 10
164.3955195814221
 20
467.1567025122562
 30
0.0
 40
6.0
100
AcDbArc
 50
210.0000000000005
 51
270.0
  0
LINE
  5
BF3
102
{ACAD_REACTORS
330
DD2
102
}
330
1E
100
AcDbEntity
  8
STEMPEL
100
AcDbLine
 10
149.9617628516814
 20
480.156702512256
 30
0.0
 11
149.9617628516814
 21
476.156702512256
 31
0.0
  0
LINE
  5
BF4
102
{ACAD_REACTORS
330
DD2
102
}
330
1E
100
AcDbEntity
  8
STEMPEL
100
AcDbLine
 10
151.9617628516814
 20
479.9817251852044
 30
0.0
 11
151.9617628516814
 21
476.6926008971183
 31
0.0
  0
LINE
  5
BF5
102
{ACAD_REACTORS
330
DD2
330
F2D
102
}
330
1E
100
AcDbEntity
  8
STEMPEL
100
AcDbLine
 10
73.96176285168144
 20
493.156702512256
 30
0.0
 11
148.0828760268116
 21
493.156702512256
 31
0.0
  0
LINE
  5
BF6
102
{ACAD_REACTORS
330
DD2
102
}
330
1E
100
AcDbEntity
  8
STEMPEL
100
AcDbLine
 10
73.96176285168144
 20
495.156702512256
 30
0.0
 11
73.96176285168144
 21
493.156702512256
 31
0.0
  0
ARC
  5
BF7
102
{ACAD_REACTORS
330
DD2
102
}
330
1E
100
AcDbEntity
  8
STEMPEL
100
AcDbCircle
 10
148.0828760268116
 20
489.6567025122561
 30
0.0
 40
5.5
100
AcDbArc
 50
350.0000000000014
 51
90.0
  0
ARC
  5
BF8
102
{ACAD_REACTORS
330
DD2
102
}
330
1E
100
AcDbEntity
  8
STEMPEL
100
AcDbCircle
 10
148.0828760268116
 20
489.6567025122561
 30
0.0
 40
3.5
100
AcDbArc
 50
350.0000000000014
 51
90.0
  0
LINE
  5
BF9
102
{ACAD_REACTORS
330
BC5
102
}
330
1E
100
AcDbEntity
  8
STEMPEL
100
AcDbLine
 10
303.461762851681
 20
351.7862297412006
 30
0.0
 11
303.4617628516821
 21
230.1567025122562
 31
0.0
  0
LINE
  5
BFA
102
{ACAD_REACTORS
330
BC5
330
F2D
102
}
330
1E
100
AcDbEntity
  8
STEMPEL
100
AcDbLine
 10
305.4617628516814
 20
351.7862297412007
 30
0.0
 11
305.461762851681
 21
230.069380626426
 31
0.0
  0
LINE
  5
BFC
102
{ACAD_REACTORS
330
BC5
102
}
330
1E
100
AcDbEntity
  8
STEMPEL
100
AcDbLine
 10
305.461762851681
 20
230.069380626426
 30
0.0
 11
304.1570725738798
 21
215.1567025122562
 31
0.0
  0
LINE
  5
BFE
102
{ACAD_REACTORS
330
BC5
102
}
330
1E
100
AcDbEntity
  8
STEMPEL
100
AcDbLine
 10
303.4617628516821
 20
230.1567025122562
 30
0.0
 11
302.1494328987931
 21
215.156702512256
 31
0.0
  0
LINE
  5
BFF
102
{ACAD_REACTORS
330
DD2
102
}
330
1E
100
AcDbEntity
  8
STEMPEL
100
AcDbLine
 10
325.9617628516815
 20
479.9817251852044
 30
0.0
 11
324.424207034984
 21
488.7016375350879
 31
0.0
  0
LINE
  5
C00
102
{ACAD_REACTORS
330
DD2
102
}
330
1E
100
AcDbEntity
  8
STEMPEL
100
AcDbLine
 10
327.9617628516815
 20
480.156702512256
 30
0.0
 11
326.3938225410084
 21
489.0489338904218
 31
0.0
  0
LINE
  5
C01
102
{ACAD_REACTORS
330
BC5
102
}
330
1E
100
AcDbEntity
  8
STEMPEL
100
AcDbLine
 10
311.4617628516814
 20
446.5445599903987
 30
0.0
 11
311.4617628516815
 21
369.1067378168892
 31
0.0
  0
LINE
  5
C02
102
{ACAD_REACTORS
330
BC5
102
}
330
1E
100
AcDbEntity
  8
STEMPEL
100
AcDbLine
 10
309.4617628516814
 20
446.5445599903985
 30
0.0
 11
309.4617628516814
 21
369.1067378168892
 31
0.0
  0
ARC
  5
C03
102
{ACAD_REACTORS
330
BC5
102
}
330
1E
100
AcDbEntity
  8
STEMPEL
100
AcDbCircle
 10
315.4617628516817
 20
351.7862297412007
 30
0.0
 40
10.0
100
AcDbArc
 50
141.7867892982642
 51
180.0
  0
ARC
  5
C04
102
{ACAD_REACTORS
330
BC5
102
}
330
1E
100
AcDbEntity
  8
STEMPEL
100
AcDbCircle
 10
315.4617628516817
 20
351.7862297412007
 30
0.0
 40
12.0
100
AcDbArc
 50
141.7867892982642
 51
180.0
  0
ARC
  5
C05
102
{ACAD_REACTORS
330
BC5
102
}
330
1E
100
AcDbEntity
  8
STEMPEL
100
AcDbCircle
 10
293.4617628516814
 20
369.1067378168892
 30
0.0
 40
18.0
100
AcDbArc
 50
321.7867892982642
 51
0.0
  0
ARC
  5
C06
102
{ACAD_REACTORS
330
BC5
102
}
330
1E
100
AcDbEntity
  8
STEMPEL
100
AcDbCircle
 10
293.4617628516814
 20
369.1067378168892
 30
0.0
 40
16.0
100
AcDbArc
 50
321.7867892982607
 51
0.0
  0
LINE
  5
C07
102
{ACAD_REACTORS
330
DD2
102
}
330
1E
100
AcDbEntity
  8
STEMPEL
100
AcDbLine
 10
325.9617628516815
 20
476.6926008971183
 30
0.0
 11
318.7241585446475
 21
464.1567025122562
 31
0.0
  0
LINE
  5
C08
102
{ACAD_REACTORS
330
DD2
102
}
330
1E
100
AcDbEntity
  8
STEMPEL
100
AcDbLine
 10
327.9617628516815
 20
476.156702512256
 30
0.0
 11
320.4562093522163
 21
463.1567025122562
 31
0.0
  0
LINE
  5
C09
102
{ACAD_REACTORS
330
BD2
330
BC5
102
}
330
1E
100
AcDbEntity
  8
STEMPEL
100
AcDbLine
 10
316.6938136592503
 20
458.2862297412007
 30
0.0
 11
312.8015088138371
 21
451.5445599903988
 31
0.0
  0
LINE
  5
C0A
102
{ACAD_REACTORS
330
BC5
102
}
330
1E
100
AcDbEntity
  8
STEMPEL
100
AcDbLine
 10
314.9617628516815
 20
459.2862297412007
 30
0.0
 11
311.0694580062682
 21
452.5445599903983
 31
0.0
  0
ARC
  5
C0B
102
{ACAD_REACTORS
330
BC5
102
}
330
1E
100
AcDbEntity
  8
STEMPEL
100
AcDbCircle
 10
321.4617628516815
 20
446.5445599903985
 30
0.0
 40
12.0
100
AcDbArc
 50
149.9999999999994
 51
180.0
  0
ARC
  5
C0C
102
{ACAD_REACTORS
330
BC5
102
}
330
1E
100
AcDbEntity
  8
STEMPEL
100
AcDbCircle
 10
321.4617628516814
 20
446.5445599903987
 30
0.0
 40
10.0
100
AcDbArc
 50
149.9999999999994
 51
180.0
  0
ARC
  5
C0D
102
{ACAD_REACTORS
330
BD2
330
DD2
102
}
330
1E
100
AcDbEntity
  8
STEMPEL
100
AcDbCircle
 10
313.5280061219408
 20
467.1567025122562
 30
0.0
 40
8.0
100
AcDbArc
 50
270.0
 51
329.9999999999995
  0
LINE
  5
C0E
102
{ACAD_REACTORS
330
DD2
102
}
330
1E
100
AcDbEntity
  8
STEMPEL
100
AcDbLine
 10
314.9617628516815
 20
461.3305252372392
 30
0.0
 11
314.9617628516815
 21
459.2862297412008
 31
0.0
  0
LINE
  5
C0F
102
{ACAD_REACTORS
330
BD2
330
BC5
102
}
330
1E
100
AcDbEntity
  8
STEMPEL
100
AcDbLine
 10
314.9617628516815
 20
459.2862297412007
 30
0.0
 11
316.6938136592503
 21
458.2862297412007
 31
0.0
  0
ARC
  5
C10
102
{ACAD_REACTORS
330
BD2
102
}
330
1E
100
AcDbEntity
  8
SCHRAFF
100
AcDbCircle
 10
314.9617628516815
 20
459.2862297412007
 30
0.0
 40
3.0
100
AcDbArc
 50
281.8103148957783
 51
21.13122938500069
  0
ARC
  5
C11
102
{ACAD_REACTORS
330
DD2
102
}
330
1E
100
AcDbEntity
  8
STEMPEL
100
AcDbCircle
 10
313.5280061219408
 20
467.1567025122562
 30
0.0
 40
6.0
100
AcDbArc
 50
270.0
 51
329.9999999999995
  0
LINE
  5
C12
102
{ACAD_REACTORS
330
DD2
102
}
330
1E
100
AcDbEntity
  8
STEMPEL
100
AcDbLine
 10
327.9617628516815
 20
480.156702512256
 30
0.0
 11
327.9617628516815
 21
476.156702512256
 31
0.0
  0
LINE
  5
C13
102
{ACAD_REACTORS
330
DD2
102
}
330
1E
100
AcDbEntity
  8
STEMPEL
100
AcDbLine
 10
325.9617628516815
 20
479.9817251852044
 30
0.0
 11
325.9617628516815
 21
476.6926008971183
 31
0.0
  0
LINE
  5
C14
102
{ACAD_REACTORS
330
DD2
330
F2D
102
}
330
1E
100
AcDbEntity
  8
STEMPEL
100
AcDbLine
 10
403.9617628516814
 20
493.156702512256
 30
0.0
 11
329.8406496765513
 21
493.156702512256
 31
0.0
  0
ARC
  5
C15
102
{ACAD_REACTORS
330
DD2
102
}
330
1E
100
AcDbEntity
  8
STEMPEL
100
AcDbCircle
 10
329.8406496765513
 20
489.6567025122561
 30
0.0
 40
3.5
100
AcDbArc
 50
90.0
 51
189.9999999999986
  0
ARC
  5
C16
102
{ACAD_REACTORS
330
DD2
102
}
330
1E
100
AcDbEntity
  8
STEMPEL
100
AcDbCircle
 10
329.8406496765513
 20
489.6567025122561
 30
0.0
 40
5.5
100
AcDbArc
 50
90.0
 51
189.9999999999986
  0
LINE
  5
C17
102
{ACAD_REACTORS
330
DD2
102
}
330
1E
100
AcDbEntity
  8
STEMPEL
100
AcDbLine
 10
403.9617628516814
 20
495.156702512256
 30
0.0
 11
403.9617628516814
 21
493.156702512256
 31
0.0
  0
HATCH
  5
DD2
330
1E
100
AcDbEntity
  8
SCHRAFF
100
AcDbHatch
 10
0.0
 20
0.0
 30
0.0
210
0.0
220
0.0
230
1.0
  2
_USER
 70
     0
 71
     1
 91
        2
 92
        7
 72
     1
 73
     1
 93
       14
 10
329.8406496765513
 20
495.156702512256
 42
0.4663076581550087
 10
324.424207034984
 20
488.7016375350879
 42
0.0
 10
325.9617628516815
 20
479.9817251852044
 42
0.0
 10
325.9617628516814
 20
476.6926008971183
 42
0.0
 10
318.7241585446475
 20
464.1567025122562
 42
-0.2042469992338666
 10
314.9617628516815
 20
461.3305252372391
 42
0.0
 10
314.9617628516815
 20
459.2862297412008
 42
0.2202105253246257
 10
320.4562093522163
 20
463.1567025122562
 42
0.0
 10
327.9617628516815
 20
476.156702512256
 42
0.0
 10
327.9617628516815
 20
480.1567025122563
 42
0.0
 10
326.3938225410084
 20
489.0489338904218
 42
-0.466307658155012
 10
329.8406496765513
 20
493.156702512256
 42
0.0
 10
403.9617628516814
 20
493.1567025122561
 42
0.0
 10
403.9617628516815
 20
495.156702512256
 42
0.0
 97
       14
330
BC7
330
C16
330
BFF
330
C13
330
C07
330
C11
330
C0E
330
C0D
330
C08
330
C12
330
C00
330
C15
330
C14
330
C17
 92
        7
 72
     1
 73
     1
 93
       14
 10
73.96176285168144
 20
495.1567025122561
 42
0.0
 10
73.96176285168145
 20
493.1567025122561
 42
0.0
 10
148.0828760268116
 20
493.156702512256
 42
-0.4663076581549896
 10
151.5297031623543
 20
489.0489338904218
 42
0.0
 10
149.9617628516814
 20
480.156702512256
 42
0.0
 10
149.9617628516814
 20
476.1567025122561
 42
0.0
 10
157.4673163511465
 20
463.1567025122562
 42
0.2202105253246255
 10
162.9617628516814
 20
459.2862297412008
 42
0.0
 10
162.9617628516814
 20
461.3305252372392
 42
-0.2042469992338658
 10
159.1993671587154
 20
464.1567025122562
 42
0.0
 10
151.9617628516814
 20
476.6926008971183
 42
0.0
 10
151.9617628516814
 20
479.9817251852043
 42
0.0
 10
153.4993186683789
 20
488.7016375350879
 42
0.4663076581550008
 10
148.0828760268118
 20
495.156702512256
 42
0.0
 97
       14
330
BC7
330
BF6
330
BF5
330
BF8
330
BDE
330
BF3
330
BE8
330
BEA
330
BEF
330
BF2
330
BE9
330
BF4
330
BDF
330
BF7
 75
     0
 76
     0
 52
135.0
 41
2.0
 77
     0
 78
     1
 53
135.0
 43
0.0
 44
0.0
 45
-1.414213562373095
 46
-1.414213562373094
 79
     0
 47
0.394775377278623
 98
        2
 10
383.7728510824536
 20
494.2923702692671
 10
129.7949855587344
 20
494.6871458337511
  0
LINE
  5
E26
102
{ACAD_REACTORS
330
F2D
102
}
330
1E
100
AcDbEntity
  8
STEMPEL
  6
Continuous
100
AcDbLine
 10
128.9617628516814
 20
493.1567025122552
 30
0.0
 11
143.7067649260013
 21
335.876680386176
 31
0.0
  0
ARC
  5
E27
102
{ACAD_REACTORS
330
F2D
102
}
330
1E
100
AcDbEntity
  8
STEMPEL
  6
Continuous
100
AcDbCircle
 10
146.6936676041791
 20
336.1567025122552
 30
0.0
 40
3.0
100
AcDbArc
 50
185.3558250428554
 51
270.0
  0
LINE
  5
E28
102
{ACAD_REACTORS
330
F2D
102
}
330
1E
100
AcDbEntity
  8
STEMPEL
  6
Continuous
100
AcDbLine
 10
146.6936676041791
 20
333.1567025122553
 30
0.0
 11
172.4617628516814
 21
333.1567025122552
 31
0.0
  0
DIMENSION
  5
E29
330
1E
100
AcDbEntity
  8
BEM
100
AcDbDimension
  2
*D4
 10
333.9617628516815
 20
304.5297391048699
 30
0.0
 11
238.9617628516814
 21
311.0297391048699
 31
0.0
 70
    32
  1
%%c<>
 71
     5
 42
190.0
  3
Standard
100
AcDbAlignedDimension
 13
143.9617628516814
 23
333.1567025122552
 33
0.0
 14
333.9617628516815
 24
333.1567025122552
 34
0.0
100
AcDbRotatedDimension
1001
ACAD
1000
DSTYLE
1002
{
1070
    40
1040
2.0
1070
    41
1040
3.5
1070
    42
1040
1.0
1070
    43
1040
7.0
1070
    44
1040
1.0
1070
    73
1070
     0
1070
    74
1070
     0
1070
    77
1070
     1
1070
    78
1070
     8
1070
    79
1070
     2
1070
   140
1040
3.5
1070
   141
1040
1.5
1070
   146
1040
0.5142857142857144
1070
   147
1040
1.5
1070
   172
1070
     1
1070
   178
1070
     1
1070
   179
1070
     2
1070
   271
1070
     2
1070
   272
1070
     2
1070
   284
1070
     8
1070
   285
1070
     8
1070
   286
1070
     8
1002
}
  0
DIMENSION
  5
E2A
330
1E
100
AcDbEntity
  8
BEM
100
AcDbDimension
  2
*D5
 10
348.9617628516813
 20
510.7657878817473
 30
0.0
 11
238.9617628516814
 21
517.2657878817473
 31
0.0
 70
    32
  1
%%c<>
 71
     5
 42
219.9999999999999
  3
Standard
100
AcDbAlignedDimension
 13
128.9617628516814
 23
493.1567025122552
 33
0.0
 14
348.9617628516813
 24
493.1567025122552
 34
0.0
100
AcDbRotatedDimension
1001
ACAD
1000
DSTYLE
1002
{
1070
    40
1040
2.0
1070
    41
1040
3.5
1070
    42
1040
1.0
1070
    43
1040
7.0
1070
    44
1040
1.0
1070
    73
1070
     0
1070
    74
1070
     0
1070
    77
1070
     1
1070
    78
1070
     8
1070
    79
1070
     2
1070
   140
1040
3.5
1070
   141
1040
1.5
1070
   146
1040
0.5142857142857144
1070
   147
1040
1.5
1070
   172
1070
     1
1070
   178
1070
     1
1070
   179
1070
     2
1070
   271
1070
     2
1070
   272
1070
     2
1070
   284
1070
     8
1070
   285
1070
     8
1070
   286
1070
     8
1002
}
  0
DIMENSION
  5
E2B
330
1E
100
AcDbEntity
  8
BEM
100
AcDbDimension
  2
*D6
 10
66.23949884958142
 20
493.156702512256
 30
0.0
 11
59.73949884958134
 21
413.1567025122556
 31
0.0
 70
    32
 71
     5
 42
160.0000000000008
  3
Standard
100
AcDbAlignedDimension
 13
146.6936676041791
 23
333.1567025122552
 33
0.0
 14
73.96176285168144
 24
493.156702512256
 34
0.0
 50
90.0
100
AcDbRotatedDimension
1001
ACAD
1000
DSTYLE
1002
{
1070
    40
1040
2.0
1070
    41
1040
3.5
1070
    42
1040
1.0
1070
    43
1040
7.0
1070
    44
1040
1.0
1070
    73
1070
     0
1070
    74
1070
     0
1070
    77
1070
     1
1070
    78
1070
     8
1070
    79
1070
     2
1070
   140
1040
3.5
1070
   141
1040
1.5
1070
   146
1040
0.5142857142857144
1070
   147
1040
1.5
1070
   172
1070
     1
1070
   178
1070
     1
1070
   179
1070
     2
1070
   271
1070
     2
1070
   272
1070
     2
1070
   284
1070
     8
1070
   285
1070
     8
1070
   286
1070
     8
1002
}
  0
ARC
  5
E35
102
{ACAD_REACTORS
330
F2D
102
}
330
1E
100
AcDbEntity
  8
STEMPEL
  6
Continuous
100
AcDbCircle
 10
331.2298580991837
 20
336.1567025122552
 30
0.0
 40
3.0
100
AcDbArc
 50
270.0
 51
354.6441749571445
  0
LINE
  5
E36
102
{ACAD_REACTORS
330
F2D
102
}
330
1E
100
AcDbEntity
  8
STEMPEL
  6
Continuous
100
AcDbLine
 10
348.9617628516815
 20
493.1567025122552
 30
0.0
 11
334.2167607773615
 21
335.876680386176
 31
0.0
  0
DIMENSION
  5
E93
330
1E
100
AcDbEntity
  8
BEM
100
AcDbDimension
  2
*D7
 10
66.23949884958142
 20
495.156702512256
 30
0.0
 11
59.73949884958134
 21
514.0233691789227
 31
0.0
 70
    32
 71
     5
 42
2.0
  3
Standard
100
AcDbAlignedDimension
 13
73.96176285168144
 23
493.156702512256
 33
0.0
 14
73.96176285168144
 24
495.156702512256
 34
0.0
 50
90.0
100
AcDbRotatedDimension
1001
ACAD
1000
DSTYLE
1002
{
1070
    40
1040
2.0
1070
    41
1040
3.5
1070
    42
1040
1.0
1070
    43
1040
7.0
1070
    44
1040
1.0
1070
    73
1070
     0
1070
    74
1070
     0
1070
    77
1070
     1
1070
    78
1070
     8
1070
    79
1070
     2
1070
   140
1040
3.5
1070
   141
1040
1.5
1070
   146
1040
0.5
1070
   147
1040
1.5
1070
   172
1070
     1
1070
   178
1070
     1
1070
   179
1070
     2
1070
   271
1070
     2
1070
   272
1070
     2
1070
   284
1070
     8
1070
   285
1070
     8
1070
   286
1070
     8
1002
}
  0
LINE
  5
EBA
102
{ACAD_REACTORS
330
F2D
102
}
330
1E
100
AcDbEntity
  8
STEMPEL
  6
Continuous
100
AcDbLine
 10
305.4617628516815
 20
333.1567025122545
 30
0.0
 11
331.2298580991836
 21
333.1567025122544
 31
0.0
  0
LINE
  5
EBB
330
1E
100
AcDbEntity
  8
MITTEL
100
AcDbLine
 10
238.9617628516814
 20
299.9914918360221
 30
0.0
 11
238.9617628516814
 21
210.1567025122561
 31
0.0
  0
LINE
  5
EBD
330
1E
100
AcDbEntity
  8
TEXT
 62
     2
100
AcDbLine
 10
329.9656801366062
 20
552.444073261958
 30
0.0
 11
222.7212947993116
 21
552.4440732619581
 31
0.0
  0
TEXT
  5
EBE
330
1E
100
AcDbEntity
  8
TEXT
 62
     1
100
AcDbText
 10
224.7974174247421
 20
555.7047236977361
 30
0.0
 40
7.0
  1
Wärmedämmung
 41
0.8
  7
GREEKS
100
AcDbText
  0
TEXT
  5
EBF
330
1E
100
AcDbEntity
  8
TEXT
 62
     1
100
AcDbText
 10
224.7974174247421
 20
543.0581760995948
 30
0.0
 40
7.0
  1
EDV-Art.Nr. 19842.125X
 41
0.8
  7
GREEKS
100
AcDbText
  0
LINE
  5
EC0
330
1E
100
AcDbEntity
  8
TEXT
 62
     2
100
AcDbLine
 10
329.9656801366062
 20
552.444073261958
 30
0.0
 11
333.6408134945012
 21
526.847137145059
 31
0.0
  0
LINE
  5
EC1
330
1E
100
AcDbEntity
  8
TEXT
 62
     2
100
AcDbLine
 10
91.36820779138844
 20
521.1626788389293
 30
0.0
 11
85.26716948690035
 21
493.5573203831231
 31
0.0
  0
LINE
  5
EC2
330
1E
100
AcDbEntity
  8
TEXT
 62
     2
100
AcDbLine
 10
336.2935210781541
 20
508.3712942454513
 30
0.0
 11
339.5698309174638
 21
485.5521240306287
 31
0.0
  0
LINE
  5
EC3
330
1E
100
AcDbEntity
  8
TEXT
 62
     2
100
AcDbLine
 10
334.4123629843877
 20
521.4733721465115
 30
0.0
 11
335.5473719017664
 21
513.568148601945
 31
0.0
  0
TEXT
  5
ECA
330
1E
100
AcDbEntity
  8
TEXT
 62
     1
100
AcDbText
 10
159.9459400005228
 20
119.8632606613831
 30
0.0
 40
7.0
  1
Dämmung: Styropor SE WLG 0,35
 41
0.8
  7
GREEKS
100
AcDbText
  0
TEXT
  5
ECC
330
1E
100
AcDbEntity
  8
TEXT
100
AcDbText
 10
225.1296391125315
 20
61.50334417585291
 30
0.0
 40
5.0
  1
mit Wärmedämmung
 41
0.8
  7
GREEKS
100
AcDbText
  0
LINE
  5
EE6
102
{ACAD_REACTORS
330
F2D
102
}
330
1E
100
AcDbEntity
  8
STEMPEL
100
AcDbLine
 10
305.4617628516814
 20
339.956702512255
 30
0.0
 11
316.4617628516812
 21
353.1567025122546
 31
0.0
  0
LINE
  5
EE7
102
{ACAD_REACTORS
330
F2D
102
}
330
1E
100
AcDbEntity
  8
STEMPEL
100
AcDbLine
 10
316.4617628516813
 20
423.1567025122548
 30
0.0
 11
316.4617628516812
 21
353.1567025122546
 31
0.0
  0
LINE
  5
EE8
102
{ACAD_REACTORS
330
F2D
102
}
330
1E
100
AcDbEntity
  8
STEMPEL
100
AcDbLine
 10
327.9617628516815
 20
468.1567025122553
 30
0.0
 11
316.4617628516814
 21
423.1567025122547
 31
0.0
  0
LINE
  5
EE9
102
{ACAD_REACTORS
330
F2D
102
}
330
1E
100
AcDbEntity
  8
STEMPEL
100
AcDbLine
 10
327.9617628516815
 20
488.156702512255
 30
0.0
 11
327.9617628516815
 21
468.1567025122553
 31
0.0
  0
LINE
  5
EEA
102
{ACAD_REACTORS
330
F2D
102
}
330
1E
100
AcDbEntity
  8
STEMPEL
100
AcDbLine
 10
333.9617628516815
 20
493.1567025122553
 30
0.0
 11
327.9617628516815
 21
488.1567025122553
 31
0.0
  0
LINE
  5
EEB
102
{ACAD_REACTORS
330
F2D
102
}
330
1E
100
AcDbEntity
  8
STEMPEL
100
AcDbLine
 10
172.4617628516814
 20
339.956702512255
 30
0.0
 11
161.4617628516812
 21
353.1567025122554
 31
0.0
  0
LINE
  5
EEC
102
{ACAD_REACTORS
330
F2D
102
}
330
1E
100
AcDbEntity
  8
STEMPEL
100
AcDbLine
 10
161.4617628516813
 20
423.1567025122552
 30
0.0
 11
161.4617628516812
 21
353.1567025122554
 31
0.0
  0
LINE
  5
EED
102
{ACAD_REACTORS
330
F2D
102
}
330
1E
100
AcDbEntity
  8
STEMPEL
100
AcDbLine
 10
143.9617628516814
 20
493.1567025122553
 30
0.0
 11
149.9617628516814
 21
488.1567025122553
 31
0.0
  0
LINE
  5
EEE
102
{ACAD_REACTORS
330
F2D
102
}
330
1E
100
AcDbEntity
  8
STEMPEL
100
AcDbLine
 10
149.9617628516814
 20
488.156702512255
 30
0.0
 11
149.9617628516814
 21
468.1567025122553
 31
0.0
  0
LINE
  5
EEF
102
{ACAD_REACTORS
330
F2D
102
}
330
1E
100
AcDbEntity
  8
STEMPEL
100
AcDbLine
 10
149.9617628516814
 20
468.1567025122553
 30
0.0
 11
161.4617628516813
 21
423.1567025122552
 31
0.0
  0
LINE
  5
EF0
330
1E
100
AcDbEntity
  8
STEMPEL
100
AcDbLine
 10
316.4617628516813
 20
423.1567025122548
 30
0.0
 11
311.4617628516815
 21
423.1567025122548
 31
0.0
  0
LINE
  5
EF1
330
1E
100
AcDbEntity
  8
STEMPEL
  6
Continuous
100
AcDbLine
 10
161.4617628516812
 20
353.1567025122554
 30
0.0
 11
172.3674079282927
 21
353.1567025122553
 31
0.0
  0
LINE
  5
EF2
330
1E
100
AcDbEntity
  8
STEMPEL
100
AcDbLine
 10
149.9617628516814
 20
468.1567025122553
 30
0.0
 11
154.5805650051989
 21
468.1567025122554
 31
0.0
  0
LINE
  5
EF3
330
1E
100
AcDbEntity
  8
STEMPEL
100
AcDbLine
 10
149.9617628516814
 20
488.156702512255
 30
0.0
 11
151.3723786973488
 21
488.1567025122551
 31
0.0
  0
LINE
  5
EF4
330
1E
100
AcDbEntity
  8
STEMPEL
100
AcDbLine
 10
326.5511470060139
 20
488.1567025122551
 30
0.0
 11
327.9617628516815
 21
488.156702512255
 31
0.0
  0
LINE
  5
EF5
330
1E
100
AcDbEntity
  8
STEMPEL
100
AcDbLine
 10
323.342960698164
 20
468.1567025122554
 30
0.0
 11
327.9617628516813
 21
468.1567025122553
 31
0.0
  0
LINE
  5
EF6
330
1E
100
AcDbEntity
  8
STEMPEL
100
AcDbLine
 10
166.4617628516815
 20
423.1567025122551
 30
0.0
 11
161.4617628516813
 21
423.1567025122551
 31
0.0
  0
LINE
  5
EF7
330
1E
100
AcDbEntity
  8
STEMPEL
  6
Continuous
100
AcDbLine
 10
305.55611777507
 20
353.1567025122547
 30
0.0
 11
316.4617628516812
 21
353.1567025122546
 31
0.0
  0
HATCH
  5
F2D
330
1E
100
AcDbEntity
  8
SCHRAFF
100
AcDbHatch
 10
0.0
 20
0.0
 30
0.0
210
0.0
220
0.0
230
1.0
  2
HONEY
 70
     0
 71
     1
 91
        2
 92
        7
 72
     1
 73
     1
 93
       10
 10
348.9617628516815
 20
493.156702512256
 42
0.0
 10
333.9617628516823
 20
493.1567025122561
 42
0.0
 10
327.9617628516815
 20
488.1567025122554
 42
0.0
 10
327.9617628516813
 20
468.1567025122552
 42
0.0
 10
316.4617628516813
 20
423.1567025122545
 42
0.0
 10
316.4617628516812
 20
353.1567025122547
 42
0.0
 10
305.4617628516814
 20
339.956702512255
 42
0.0
 10
305.4617628516813
 20
333.1567025122545
 42
0.0
 10
331.2298580991836
 20
333.1567025122544
 42
0.3870924378343681
 10
334.2167607773615
 20
335.876680386176
 42
0.0
 97
       10
330
C14
330
EEA
330
EE9
330
EE8
330
EE7
330
EE6
330
BFA
330
EBA
330
E35
330
E36
 92
        7
 72
     1
 73
     1
 93
       10
 10
149.9617628516815
 20
468.1567025122554
 42
0.0
 10
149.9617628516814
 20
488.1567025122552
 42
0.0
 10
143.9617628516805
 20
493.156702512256
 42
0.0
 10
128.9617628516814
 20
493.156702512256
 42
0.0
 10
143.7067649260013
 20
335.876680386176
 42
0.3870924378342832
 10
146.6936676041792
 20
333.1567025122553
 42
0.0
 10
172.4617628516814
 20
333.1567025122552
 42
0.0
 10
172.4617628516814
 20
339.9567025122551
 42
0.0
 10
161.4617628516812
 20
353.1567025122553
 42
0.0
 10
161.4617628516813
 20
423.1567025122551
 42
0.0
 97
       10
330
EEF
330
EEE
330
EED
330
BF5
330
E26
330
E27
330
E28
330
BD7
330
EEB
330
EEC
 75
     0
 76
     1
 52
0.0
 41
35.0
 77
     0
 78
     3
 53
0.0
 43
0.0
 44
0.0
 45
6.5625
 46
3.788861124999999
 79
     2
 49
4.375
 49
-8.75
 53
120.0
 43
0.0
 44
0.0
 45
-6.562499985661285
 46
3.788861149835379
 79
     2
 49
4.375
 49
-8.75
 53
60.0
 43
0.0
 44
0.0
 45
0.000000014338714
 46
7.577722274835378
 79
     2
 49
-8.75
 49
4.375
 47
0.806015972263188
 98
        2
 10
333.3622885271782
 20
413.0663026341192
 10
150.3345820649717
 20
421.9324786619527
  0
ENDSEC
  0
SECTION
  2
OBJECTS
  0
DICTIONARY
  5
C
330
0
100
AcDbDictionary
281
     1
  3
ACAD_COLOR
350
DF
  3
ACAD_GROUP
350
D
  3
ACAD_LAYOUT
350
19
  3
ACAD_MATERIAL
350
DE
  3
ACAD_MLINESTYLE
350
16
  3
ACAD_PLOTSETTINGS
350
18
  3
ACAD_PLOTSTYLENAME
350
E
  3
AcDbVariableDictionary
350
EA
  0
DICTIONARY
  5
A0
330
1E
100
AcDbDictionary
280
     1
281
     1
  3
ACAD_LAYOUTSELFREF
360
D4
  0
DICTIONARY
  5
A2
330
1A
100
AcDbDictionary
280
     1
281
     1
  3
ACAD_LAYOUTSELFREF
360
D3
  0
DICTIONARY
  5
DF
102
{ACAD_REACTORS
330
C
102
}
330
C
100
AcDbDictionary
281
     1
  0
DICTIONARY
  5
D
102
{ACAD_REACTORS
330
C
102
}
330
C
100
AcDbDictionary
281
     1
  0
DICTIONARY
  5
19
102
{ACAD_REACTORS
330
C
102
}
330
C
100
AcDbDictionary
281
     1
  3
Layout1
350
1D
  3
Model
350
21
  0
DICTIONARY
  5
DE
102
{ACAD_REACTORS
330
C
102
}
330
C
100
AcDbDictionary
281
     1
  0
DICTIONARY
  5
16
102
{ACAD_REACTORS
330
C
102
}
330
C
100
AcDbDictionary
281
     1
  3
Standard
350
17
  0
DICTIONARY
  5
18
102
{ACAD_REACTORS
330
C
102
}
330
C
100
AcDbDictionary
281
     1
  0
ACDBDICTIONARYWDFLT
  5
E
102
{ACAD_REACTORS
330
C
102
}
330
C
100
AcDbDictionary
281
     1
  3
Normal
350
F
100
AcDbDictionaryWithDefault
340
F
  0
DICTIONARY
  5
EA
102
{ACAD_REACTORS
330
C
102
}
330
C
100
AcDbDictionary
281
     1
  3
DIMASSOC
350
EB
  3
PROJECTNAME
350
EC
  0
XRECORD
  5
D4
102
{ACAD_REACTORS
330
A0
102
}
330
A0
100
AcDbXrecord
280
     1
340
1E
  0
XRECORD
  5
D3
102
{ACAD_REACTORS
330
A2
102
}
330
A2
100
AcDbXrecord
280
     1
340
1A
  0
LAYOUT
  5
1D
102
{ACAD_REACTORS
330
19
102
}
330
19
100
AcDbPlotSettings
  1

  2
\\NT_WORK01\HP LaserJet 5000 PCL 6
  4

  6

 40
0.0
 41
0.0
 42
0.0
 43
0.0
 44
0.0
 45
0.0
 46
0.0
 47
0.0
 48
0.0
 49
0.0
140
0.0
141
0.0
142
1.0
143
1.0
 70
   688
 72
     0
 73
     0
 74
     5
  7

 75
    16
147
1.0
 76
     0
 77
     2
 78
   300
148
0.0
149
0.0
100
AcDbLayout
  1
Layout1
 70
     0
 71
     1
 10
0.0
 20
0.0
 11
12.0
 21
9.0
 12
0.0
 22
0.0
 32
0.0
 14
1.000000000000000E+20
 24
1.000000000000000E+20
 34
1.000000000000000E+20
 15
-1.000000000000000E+20
 25
-1.000000000000000E+20
 35
-1.000000000000000E+20
146
0.0
 13
0.0
 23
0.0
 33
0.0
 16
1.0
 26
0.0
 36
0.0
 17
0.0
 27
1.0
 37
0.0
 76
     0
330
1A
  0
LAYOUT
  5
21
102
{ACAD_REACTORS
330
19
102
}
330
19
100
AcDbPlotSettings
  1

  2
\\NT_WORK01\HP LaserJet 5000 PCL 6
  4

  6

 40
0.0
 41
0.0
 42
0.0
 43
0.0
 44
0.0
 45
0.0
 46
0.0
 47
0.0
 48
0.0
 49
0.0
140
0.0
141
0.0
142
1.0
143
1.0
 70
  1712
 72
     0
 73
     0
 74
     0
  7

 75
     0
147
1.0
 76
     0
 77
     2
 78
   300
148
0.0
149
0.0
100
AcDbLayout
  1
Model
 70
     1
 71
     0
 10
0.0
 20
0.0
 11
12.0
 21
9.0
 12
0.0
 22
0.0
 32
0.0
 14
0.0
 24
0.0
 34
0.0
 15
0.0
 25
0.0
 35
0.0
146
0.0
 13
0.0
 23
0.0
 33
0.0
 16
1.0
 26
0.0
 36
0.0
 17
0.0
 27
1.0
 37
0.0
 76
     0
330
1E
  0
MLINESTYLE
  5
17
102
{ACAD_REACTORS
330
16
102
}
330
16
100
AcDbMlineStyle
  2
STANDARD
 70
     0
  3

 62
   256
 51
90.0
 52
90.0
 71
     2
 49
0.5
 62
   256
  6
BYLAYER
 49
-0.5
 62
   256
  6
BYLAYER
  0
ACDBPLACEHOLDER
  5
F
102
{ACAD_REACTORS
330
E
102
}
330
E
  0
DICTIONARYVAR
  5
EB
102
{ACAD_REACTORS
330
EA
102
}
330
EA
100
DictionaryVariables
280
     0
  1
1
  0
DICTIONARYVAR
  5
EC
102
{ACAD_REACTORS
330
EA
102
}
330
EA
100
DictionaryVariables
280
     0
  1

  0
ENDSEC
  0
EOF
