  0
SECTION
  2
HEADER
  9
$ACADVER
  1
AC1018
  9
$ACADMAINTVER
 70
     2
  9
$DWGCODEPAGE
  3
ANSI_1252
  9
$INSBASE
 10
0.0
 20
0.0
 30
0.0
  9
$EXTMIN
 10
-0.0128164049388033
 20
-0.0181260584133725
 30
-0.0015258207003583
  9
$EXTMAX
 10
420.012818360716
 20
594.0181288244416
 30
0.0000000349246037
  9
$LIMMIN
 10
0.0
 20
0.0
  9
$LIMMAX
 10
419.9999999999999
 20
594.0
  9
$ORTHOMODE
 70
     1
  9
$REGENMODE
 70
     1
  9
$FILLMODE
 70
     1
  9
$QTEXTMODE
 70
     0
  9
$MIRRTEXT
 70
     1
  9
$LTSCALE
 40
20.0
  9
$ATTMODE
 70
     1
  9
$TEXTSIZE
 40
3.5
  9
$TRACEWID
 40
0.5
  9
$TEXTSTYLE
  7
STANDARD
  9
$CLAYER
  8
VOLL
  9
$CELTYPE
  6
ByLayer
  9
$CECOLOR
 62
   256
  9
$CELTSCALE
 40
1.0
  9
$DISPSILH
 70
     0
  9
$DIMSCALE
 40
2.0
  9
$DIMASZ
 40
3.5
  9
$DIMEXO
 40
1.0
  9
$DIMDLI
 40
7.0
  9
$DIMRND
 40
0.0
  9
$DIMDLE
 40
0.0
  9
$DIMEXE
 40
1.0
  9
$DIMTP
 40
0.0
  9
$DIMTM
 40
0.0
  9
$DIMTXT
 40
3.5
  9
$DIMCEN
 40
1.5
  9
$DIMTSZ
 40
0.0
  9
$DIMTOL
 70
     0
  9
$DIMLIM
 70
     0
  9
$DIMTIH
 70
     0
  9
$DIMTOH
 70
     0
  9
$DIMSE1
 70
     0
  9
$DIMSE2
 70
     0
  9
$DIMTAD
 70
     1
  9
$DIMZIN
 70
     8
  9
$DIMBLK
  1

  9
$DIMASO
 70
     1
  9
$DIMSHO
 70
     0
  9
$DIMPOST
  1

  9
$DIMAPOST
  1

  9
$DIMALT
 70
     0
  9
$DIMALTD
 70
     2
  9
$DIMALTF
 40
25.4
  9
$DIMLFAC
 40
1.0
  9
$DIMTOFL
 70
     1
  9
$DIMTVP
 40
0.0
  9
$DIMTIX
 70
     0
  9
$DIMSOXD
 70
     0
  9
$DIMSAH
 70
     0
  9
$DIMBLK1
  1

  9
$DIMBLK2
  1

  9
$DIMSTYLE
  2
Standard
  9
$DIMCLRD
 70
     0
  9
$DIMCLRE
 70
     0
  9
$DIMCLRT
 70
     1
  9
$DIMTFAC
 40
0.5142857142857144
  9
$DIMGAP
 40
1.5
  9
$DIMJUST
 70
     0
  9
$DIMSD1
 70
     0
  9
$DIMSD2
 70
     0
  9
$DIMTOLJ
 70
     1
  9
$DIMTZIN
 70
     8
  9
$DIMALTZ
 70
     8
  9
$DIMALTTZ
 70
     8
  9
$DIMUPT
 70
     0
  9
$DIMDEC
 70
     2
  9
$DIMTDEC
 70
     2
  9
$DIMALTU
 70
     2
  9
$DIMALTTD
 70
     2
  9
$DIMTXSTY
  7
STANDARD
  9
$DIMAUNIT
 70
     0
  9
$DIMADEC
 70
     2
  9
$DIMALTRND
 40
0.0
  9
$DIMAZIN
 70
     2
  9
$DIMDSEP
 70
    46
  9
$DIMATFIT
 70
     3
  9
$DIMFRAC
 70
     0
  9
$DIMLDRBLK
  1

  9
$DIMLUNIT
 70
     2
  9
$DIMLWD
 70
    -2
  9
$DIMLWE
 70
    -2
  9
$DIMTMOVE
 70
     0
  9
$LUNITS
 70
     2
  9
$LUPREC
 70
     2
  9
$SKETCHINC
 40
1.0
  9
$FILLETRAD
 40
0.0
  9
$AUNITS
 70
     0
  9
$AUPREC
 70
     0
  9
$MENU
  1
ACAD
  9
$ELEVATION
 40
0.0
  9
$PELEVATION
 40
0.0
  9
$THICKNESS
 40
0.0
  9
$LIMCHECK
 70
     0
  9
$CHAMFERA
 40
0.0
  9
$CHAMFERB
 40
0.0
  9
$CHAMFERC
 40
0.0
  9
$CHAMFERD
 40
0.0
  9
$SKPOLY
 70
     0
  9
$TDCREATE
 40
2455397.823042361
  9
$TDUCREATE
 40
2455397.781375695
  9
$TDUPDATE
 40
2455554.514192396
  9
$TDUUPDATE
 40
2455554.472525729
  9
$TDINDWG
 40
0.0413837963
  9
$TDUSRTIMER
 40
0.0413837963
  9
$USRTIMER
 70
     1
  9
$ANGBASE
 50
0.0
  9
$ANGDIR
 70
     0
  9
$PDMODE
 70
     0
  9
$PDSIZE
 40
0.0
  9
$PLINEWID
 40
0.0
  9
$SPLFRAME
 70
     0
  9
$SPLINETYPE
 70
     6
  9
$SPLINESEGS
 70
     8
  9
$HANDSEED
  5
613
  9
$SURFTAB1
 70
     6
  9
$SURFTAB2
 70
     6
  9
$SURFTYPE
 70
     6
  9
$SURFU
 70
     6
  9
$SURFV
 70
     6
  9
$UCSBASE
  2

  9
$UCSNAME
  2

  9
$UCSORG
 10
0.0
 20
0.0
 30
0.0
  9
$UCSXDIR
 10
1.0
 20
0.0
 30
0.0
  9
$UCSYDIR
 10
0.0
 20
1.0
 30
0.0
  9
$UCSORTHOREF
  2

  9
$UCSORTHOVIEW
 70
     0
  9
$UCSORGTOP
 10
0.0
 20
0.0
 30
0.0
  9
$UCSORGBOTTOM
 10
0.0
 20
0.0
 30
0.0
  9
$UCSORGLEFT
 10
0.0
 20
0.0
 30
0.0
  9
$UCSORGRIGHT
 10
0.0
 20
0.0
 30
0.0
  9
$UCSORGFRONT
 10
0.0
 20
0.0
 30
0.0
  9
$UCSORGBACK
 10
0.0
 20
0.0
 30
0.0
  9
$PUCSBASE
  2

  9
$PUCSNAME
  2

  9
$PUCSORG
 10
0.0
 20
0.0
 30
0.0
  9
$PUCSXDIR
 10
1.0
 20
0.0
 30
0.0
  9
$PUCSYDIR
 10
0.0
 20
1.0
 30
0.0
  9
$PUCSORTHOREF
  2

  9
$PUCSORTHOVIEW
 70
     0
  9
$PUCSORGTOP
 10
0.0
 20
0.0
 30
0.0
  9
$PUCSORGBOTTOM
 10
0.0
 20
0.0
 30
0.0
  9
$PUCSORGLEFT
 10
0.0
 20
0.0
 30
0.0
  9
$PUCSORGRIGHT
 10
0.0
 20
0.0
 30
0.0
  9
$PUCSORGFRONT
 10
0.0
 20
0.0
 30
0.0
  9
$PUCSORGBACK
 10
0.0
 20
0.0
 30
0.0
  9
$USERI1
 70
     0
  9
$USERI2
 70
     0
  9
$USERI3
 70
     0
  9
$USERI4
 70
     0
  9
$USERI5
 70
     0
  9
$USERR1
 40
0.0
  9
$USERR2
 40
0.0
  9
$USERR3
 40
0.0
  9
$USERR4
 40
0.0
  9
$USERR5
 40
0.0
  9
$WORLDVIEW
 70
     1
  9
$SHADEDGE
 70
     3
  9
$SHADEDIF
 70
    70
  9
$TILEMODE
 70
     1
  9
$MAXACTVP
 70
    16
  9
$PINSBASE
 10
0.0
 20
0.0
 30
0.0
  9
$PLIMCHECK
 70
     0
  9
$PEXTMIN
 10
1.000000000000000E+20
 20
1.000000000000000E+20
 30
1.000000000000000E+20
  9
$PEXTMAX
 10
-1.000000000000000E+20
 20
-1.000000000000000E+20
 30
-1.000000000000000E+20
  9
$PLIMMIN
 10
0.0
 20
0.0
  9
$PLIMMAX
 10
12.0
 20
9.0
  9
$UNITMODE
 70
     0
  9
$VISRETAIN
 70
     0
  9
$PLINEGEN
 70
     0
  9
$PSLTSCALE
 70
     0
  9
$TREEDEPTH
 70
  3020
  9
$CMLSTYLE
  2
Standard
  9
$CMLJUST
 70
     0
  9
$CMLSCALE
 40
1.0
  9
$PROXYGRAPHICS
 70
     1
  9
$MEASUREMENT
 70
     0
  9
$CELWEIGHT
370
    -1
  9
$ENDCAPS
280
     0
  9
$JOINSTYLE
280
     0
  9
$LWDISPLAY
290
     0
  9
$INSUNITS
 70
     0
  9
$HYPERLINKBASE
  1

  9
$STYLESHEET
  1

  9
$XEDIT
290
     1
  9
$CEPSNTYPE
380
     0
  9
$PSTYLEMODE
290
     1
  9
$FINGERPRINTGUID
  2
{D68B0D02-A558-11D7-B632-000102183313}
  9
$VERSIONGUID
  2
{F33737A5-6BDE-4A0D-BBFA-7BE847187F2D}
  9
$EXTNAMES
290
     1
  9
$PSVPSCALE
 40
0.0
  9
$OLESTARTUP
290
     0
  9
$SORTENTS
280
   127
  9
$INDEXCTL
280
     0
  9
$HIDETEXT
280
     0
  9
$XCLIPFRAME
290
     0
  9
$HALOGAP
280
     0
  9
$OBSCOLOR
 70
   257
  9
$OBSLTYPE
280
     0
  9
$INTERSECTIONDISPLAY
280
     0
  9
$INTERSECTIONCOLOR
 70
   257
  9
$DIMASSOC
280
     1
  9
$PROJECTNAME
  1

  0
ENDSEC
  0
SECTION
  2
CLASSES
  0
CLASS
  1
ACDBDICTIONARYWDFLT
  2
AcDbDictionaryWithDefault
  3
ObjectDBX Classes
 90
        0
 91
        1
280
     0
281
     0
  0
CLASS
  1
DICTIONARYVAR
  2
AcDbDictionaryVar
  3
ObjectDBX Classes
 90
        0
 91
        2
280
     0
281
     0
  0
ENDSEC
  0
SECTION
  2
TABLES
  0
TABLE
  2
VPORT
  5
8
330
0
100
AcDbSymbolTable
 70
     2
  0
VPORT
  5
612
330
8
100
AcDbSymbolTableRecord
100
AcDbViewportTableRecord
  2
*Active
 70
     0
 10
0.0
 20
0.0
 11
1.0
 21
1.0
 12
210.0000009778887
 22
297.0000013830141
 13
0.0
 23
0.0
 14
1.0
 24
1.0
 15
10.0
 25
10.0
 16
0.0
 26
0.0
 36
1.0
 17
0.0
 27
0.0
 37
0.0
 40
598.8333175064042
 41
1.336927223719676
 42
50.0
 43
0.0
 44
0.0
 50
0.0
 51
0.0
 71
     0
 72
  1500
 73
     1
 74
     0
 75
     0
 76
     0
 77
     0
 78
     0
281
     0
 65
     1
110
0.0
120
0.0
130
0.0
111
1.0
121
0.0
131
0.0
112
0.0
122
1.0
132
0.0
 79
     0
146
0.0
  0
ENDTAB
  0
TABLE
  2
LTYPE
  5
5
330
0
100
AcDbSymbolTable
 70
     3
  0
LTYPE
  5
13
330
5
100
AcDbSymbolTableRecord
100
AcDbLinetypeTableRecord
  2
ByBlock
 70
     0
  3

 72
    65
 73
     0
 40
0.0
  0
LTYPE
  5
14
330
5
100
AcDbSymbolTableRecord
100
AcDbLinetypeTableRecord
  2
ByLayer
 70
     0
  3

 72
    65
 73
     0
 40
0.0
  0
LTYPE
  5
15
330
5
100
AcDbSymbolTableRecord
100
AcDbLinetypeTableRecord
  2
Continuous
 70
     0
  3
Solid line
 72
    65
 73
     0
 40
0.0
  0
LTYPE
  5
25
330
5
100
AcDbSymbolTableRecord
100
AcDbLinetypeTableRecord
  2
STRICHPUNKT
 70
     0
  3
__ . __ . __ . __ . __ . __ . __ . __ . __ . __
 72
    65
 73
     4
 40
1.0
 49
0.5
 74
     0
 49
-0.25
 74
     0
 49
0.0
 74
     0
 49
-0.25
 74
     0
  0
LTYPE
  5
32
330
5
100
AcDbSymbolTableRecord
100
AcDbLinetypeTableRecord
  2
AUSGEZOGEN
 70
     0
  3
Ausgezogene Linie
 72
    65
 73
     0
 40
0.0
  0
ENDTAB
  0
TABLE
  2
LAYER
  5
2
330
0
100
AcDbSymbolTable
 70
     9
  0
LAYER
  5
10
330
2
100
AcDbSymbolTableRecord
100
AcDbLayerTableRecord
  2
0
 70
     0
 62
     7
  6
Continuous
370
    -3
390
F
  0
LAYER
  5
2A
330
2
100
AcDbSymbolTableRecord
100
AcDbLayerTableRecord
  2
VOLL
 70
     0
 62
     1
  6
Continuous
370
    -3
390
F
  0
LAYER
  5
2B
330
2
100
AcDbSymbolTableRecord
100
AcDbLayerTableRecord
  2
HILF
 70
     0
 62
     2
  6
Continuous
370
    -3
390
F
  0
LAYER
  5
2C
330
2
100
AcDbSymbolTableRecord
100
AcDbLayerTableRecord
  2
MITTEL
 70
     0
 62
     2
  6
STRICHPUNKT
370
    -3
390
F
  0
LAYER
  5
2F
330
2
100
AcDbSymbolTableRecord
100
AcDbLayerTableRecord
  2
BEM
 70
     0
 62
     7
  6
Continuous
370
    -3
390
F
  0
LAYER
  5
30
330
2
100
AcDbSymbolTableRecord
100
AcDbLayerTableRecord
  2
STEMPEL
 70
     0
 62
     3
  6
Continuous
370
    -3
390
F
  0
LAYER
  5
31
330
2
100
AcDbSymbolTableRecord
100
AcDbLayerTableRecord
  2
TEXT
 70
     0
 62
     7
  6
Continuous
370
    -3
390
F
  0
LAYER
  5
1F9
330
2
100
AcDbSymbolTableRecord
100
AcDbLayerTableRecord
  2
DEFPOINTS
 70
     0
 62
     7
  6
AUSGEZOGEN
290
     0
370
    -3
390
F
  0
LAYER
  5
1FA
330
2
100
AcDbSymbolTableRecord
100
AcDbLayerTableRecord
  2
SCHRAFF
 70
     0
 62
     7
  6
AUSGEZOGEN
370
    -3
390
F
  0
ENDTAB
  0
TABLE
  2
STYLE
  5
3
330
0
100
AcDbSymbolTable
 70
     2
  0
STYLE
  5
11
330
3
100
AcDbSymbolTableRecord
100
AcDbTextStyleTableRecord
  2
STANDARD
 70
     0
 40
0.0
 41
0.8
 50
0.0
 71
     0
 42
3.5
  3
simplex.shx
  4

  0
STYLE
  5
24
330
3
100
AcDbSymbolTableRecord
100
AcDbTextStyleTableRecord
  2
GREEKS
 70
     0
 40
0.0
 41
0.8
 50
0.0
 71
     0
 42
2.5
  3
SIMPLEX.shx
  4

  0
ENDTAB
  0
TABLE
  2
VIEW
  5
6
330
0
100
AcDbSymbolTable
 70
     0
  0
ENDTAB
  0
TABLE
  2
UCS
  5
7
330
0
100
AcDbSymbolTable
 70
     0
  0
ENDTAB
  0
TABLE
  2
APPID
  5
9
330
0
100
AcDbSymbolTable
 70
     1
  0
APPID
  5
12
330
9
100
AcDbSymbolTableRecord
100
AcDbRegAppTableRecord
  2
ACAD
 70
     0
  0
ENDTAB
  0
TABLE
  2
DIMSTYLE
  5
A
330
0
100
AcDbSymbolTable
 70
     1
100
AcDbDimStyleTable
 71
     1
340
9D
  0
DIMSTYLE
105
9D
102
{ACAD_REACTORS
330
2CC
330
2C9
330
2C6
330
2BF
330
2B9
330
2B8
330
3B8
102
}
330
A
100
AcDbSymbolTableRecord
100
AcDbDimStyleTableRecord
  2
Standard
 70
     0
340
11
  0
ENDTAB
  0
TABLE
  2
BLOCK_RECORD
  5
1
330
0
100
AcDbSymbolTable
 70
     8
  0
BLOCK_RECORD
  5
1E
102
{ACAD_XDICTIONARY
360
A0
102
}
330
1
100
AcDbSymbolTableRecord
100
AcDbBlockTableRecord
  2
*Model_Space
340
21
  0
BLOCK_RECORD
  5
1A
102
{ACAD_XDICTIONARY
360
A2
102
}
330
1
100
AcDbSymbolTableRecord
100
AcDbBlockTableRecord
  2
*Paper_Space
340
1D
  0
BLOCK_RECORD
  5
22
330
1
100
AcDbSymbolTableRecord
100
AcDbBlockTableRecord
  2
LOGO
340
0
102
{BLKREFS
331
9B
102
}
  0
BLOCK_RECORD
  5
2D4
330
1
100
AcDbSymbolTableRecord
100
AcDbBlockTableRecord
  2
*D1
340
0
  0
BLOCK_RECORD
  5
2E1
330
1
100
AcDbSymbolTableRecord
100
AcDbBlockTableRecord
  2
*D2
340
0
  0
BLOCK_RECORD
  5
2EF
330
1
100
AcDbSymbolTableRecord
100
AcDbBlockTableRecord
  2
*D3
340
0
  0
BLOCK_RECORD
  5
2FC
330
1
100
AcDbSymbolTableRecord
100
AcDbBlockTableRecord
  2
*D4
340
0
  0
BLOCK_RECORD
  5
309
330
1
100
AcDbSymbolTableRecord
100
AcDbBlockTableRecord
  2
*D5
340
0
  0
BLOCK_RECORD
  5
323
330
1
100
AcDbSymbolTableRecord
100
AcDbBlockTableRecord
  2
*D6
340
0
  0
BLOCK_RECORD
  5
3B9
330
1
100
AcDbSymbolTableRecord
100
AcDbBlockTableRecord
  2
*D7
340
0
  0
ENDTAB
  0
ENDSEC
  0
SECTION
  2
BLOCKS
  0
BLOCK
  5
35
330
1E
100
AcDbEntity
  8
0
100
AcDbBlockBegin
  2
*Model_Space
 70
     0
 10
0.0
 20
0.0
 30
0.0
  3
*Model_Space
  1

  0
ENDBLK
  5
36
330
1E
100
AcDbEntity
  8
0
100
AcDbBlockEnd
  0
BLOCK
  5
33
330
1A
100
AcDbEntity
 67
     1
  8
0
100
AcDbBlockBegin
  2
*Paper_Space
 70
     0
 10
0.0
 20
0.0
 30
0.0
  3
*Paper_Space
  1

  0
ENDBLK
  5
34
330
1A
100
AcDbEntity
 67
     1
  8
0
100
AcDbBlockEnd
  0
BLOCK
  5
37
330
22
100
AcDbEntity
  8
0
100
AcDbBlockBegin
  2
LOGO
 70
     0
 10
0.0
 20
0.0
 30
0.0
  3
LOGO
  1

  0
ARC
  5
38
330
22
100
AcDbEntity
  8
0
100
AcDbCircle
 10
11.59973089678112
 20
-9.271599258481501
 30
0.0
 40
4.5
100
AcDbArc
 50
270.0
 51
231.0575587310159
  0
LINE
  5
39
330
22
100
AcDbEntity
  8
0
100
AcDbLine
 10
3.599730896781125
 20
-4.771599258481529
 30
0.0
 11
3.599730896781153
 21
-11.77159925848133
 31
0.0
  0
LINE
  5
3A
330
22
100
AcDbEntity
  8
0
100
AcDbLine
 10
2.599730896781125
 20
-4.771599258481529
 30
0.0
 11
2.599730896781153
 21
-11.77159925848133
 31
0.0
  0
CIRCLE
  5
3B
330
22
100
AcDbEntity
  8
0
100
AcDbCircle
 10
11.59973089678112
 20
-9.271599258481501
 30
0.0
 40
3.5
  0
ARC
  5
3C
330
22
100
AcDbEntity
  8
0
100
AcDbCircle
 10
31.59973089678115
 20
-9.271599258481472
 30
0.0
 40
4.5
100
AcDbArc
 50
270.0
 51
231.0575587310182
  0
LINE
  5
3D
330
22
100
AcDbEntity
  8
0
100
AcDbLine
 10
17.59973089678112
 20
-4.771599258481472
 30
0.0
 11
17.59973089678115
 21
-13.77159925848147
 31
0.0
  0
ARC
  5
3E
330
22
100
AcDbEntity
  8
0
100
AcDbCircle
 10
22.59973089678116
 20
-7.271599258481472
 30
0.0
 40
2.5
100
AcDbArc
 50
293.1161887722295
 51
90.0
  0
CIRCLE
  5
3F
330
22
100
AcDbEntity
  8
0
100
AcDbCircle
 10
31.59973089678115
 20
-9.271599258481472
 30
0.0
 40
3.5
  0
ARC
  5
40
330
22
100
AcDbEntity
  8
0
100
AcDbCircle
 10
4.599730896781153
 20
-11.77159925848133
 30
0.0
 40
1.0
100
AcDbArc
 50
180.0
 51
270.0
  0
ARC
  5
41
330
22
100
AcDbEntity
  8
0
100
AcDbCircle
 10
4.599730896781153
 20
-11.77159925848133
 30
0.0
 40
2.0
100
AcDbArc
 50
179.9999999999992
 51
270.0
  0
LINE
  5
42
330
22
100
AcDbEntity
  8
0
100
AcDbLine
 10
11.59973089678115
 20
-13.77159925848144
 30
0.0
 11
4.599730896781153
 21
-13.77159925848147
 31
0.0
  0
LINE
  5
43
330
22
100
AcDbEntity
  8
0
100
AcDbLine
 10
8.771303772034769
 20
-12.77159925848136
 30
0.0
 11
4.599730896781153
 21
-12.77159925848133
 31
0.0
  0
LINE
  5
44
330
22
100
AcDbEntity
  8
0
100
AcDbLine
 10
31.59973089678115
 20
-13.77159925848147
 30
0.0
 11
23.6715276665056
 21
-13.77159925848144
 31
0.0
  0
LINE
  5
45
330
22
100
AcDbEntity
  8
0
100
AcDbLine
 10
23.56565672307022
 20
-9.51278021337896
 30
0.0
 11
24.4388546544846
 21
-12.77159925848144
 31
0.0
  0
LINE
  5
46
330
22
100
AcDbEntity
  8
0
100
AcDbLine
 10
22.59973089678116
 20
-9.771599258481472
 30
0.0
 11
18.59973089678112
 21
-9.771599258481472
 31
0.0
  0
LINE
  5
47
330
22
100
AcDbEntity
  8
0
100
AcDbLine
 10
18.59973089678115
 20
-13.77159925848144
 30
0.0
 11
17.59973089678115
 21
-13.77159925848144
 31
0.0
  0
LINE
  5
48
330
22
100
AcDbEntity
  8
0
100
AcDbLine
 10
18.59973089678115
 20
-9.771599258481472
 30
0.0
 11
18.59973089678115
 21
-13.77159925848144
 31
0.0
  0
LINE
  5
49
330
22
100
AcDbEntity
  8
0
100
AcDbLine
 10
22.59973089678116
 20
-9.771599258481472
 30
0.0
 11
23.67152766650562
 21
-13.77159925848147
 31
0.0
  0
ARC
  5
4A
330
22
100
AcDbEntity
  8
0
100
AcDbCircle
 10
22.59973089678116
 20
-7.271599258481472
 30
0.0
 40
2.5
100
AcDbArc
 50
270.0
 51
270.0000000000007
  0
LINE
  5
4B
330
22
100
AcDbEntity
  8
0
100
AcDbLine
 10
28.77130377203494
 20
-12.77159925848147
 30
0.0
 11
24.43885465448463
 21
-12.77159925848144
 31
0.0
  0
LINE
  5
4C
330
22
100
AcDbEntity
  8
0
100
AcDbLine
 10
3.599730896781125
 20
-4.771599258481472
 30
0.0
 11
2.599730896781125
 21
-4.771599258481472
 31
0.0
  0
LINE
  5
4D
330
22
100
AcDbEntity
  8
0
100
AcDbLine
 10
22.59973089678116
 20
-8.771599258481472
 30
0.0
 11
18.59973089678115
 21
-8.771599258481472
 31
0.0
  0
LINE
  5
4E
330
22
100
AcDbEntity
  8
0
100
AcDbLine
 10
22.59973089678116
 20
-5.771599258481472
 30
0.0
 11
18.59973089678115
 21
-5.771599258481472
 31
0.0
  0
LINE
  5
4F
330
22
100
AcDbEntity
  8
0
100
AcDbLine
 10
22.59973089678116
 20
-4.771599258481472
 30
0.0
 11
17.59973089678115
 21
-4.771599258481472
 31
0.0
  0
LINE
  5
50
330
22
100
AcDbEntity
  8
0
100
AcDbLine
 10
18.59973089678115
 20
-5.771599258481472
 30
0.0
 11
18.59973089678115
 21
-8.771599258481472
 31
0.0
  0
ARC
  5
51
330
22
100
AcDbEntity
  8
0
100
AcDbCircle
 10
22.59973089678116
 20
-7.271599258481472
 30
0.0
 40
1.5
100
AcDbArc
 50
270.0
 51
90.0
  0
ENDBLK
  5
52
330
22
100
AcDbEntity
  8
0
100
AcDbBlockEnd
  0
BLOCK
  5
2DF
330
2D4
100
AcDbEntity
  8
0
100
AcDbBlockBegin
  2
*D1
 70
     1
 10
0.0
 20
0.0
 30
0.0
  3
*D1
  1

  0
LINE
  5
54F
330
2D4
100
AcDbEntity
  8
BEM
 62
     0
370
    -2
100
AcDbLine
 10
71.94379835404015
 20
523.6269821215805
 30
0.0
 11
66.49361065786573
 21
523.6269821215805
 31
0.0
  0
LINE
  5
550
330
2D4
100
AcDbEntity
  8
BEM
 62
     0
370
    -2
100
AcDbLine
 10
156.9437983540403
 20
363.6269821215813
 30
0.0
 11
66.4936106578657
 21
363.6269821215814
 31
0.0
  0
LINE
  5
551
330
2D4
100
AcDbEntity
  8
BEM
 62
     0
370
    -2
100
AcDbLine
 10
68.49361065786573
 20
516.6269821215805
 30
0.0
 11
68.4936106578657
 21
370.6269821215814
 31
0.0
  0
SOLID
  5
552
330
2D4
100
AcDbEntity
  8
BEM
 62
     0
100
AcDbTrace
 10
67.32694399119906
 20
516.6269821215805
 30
0.0
 11
69.6602773245324
 21
516.6269821215805
 31
0.0
 12
68.49361065786573
 22
523.6269821215805
 32
0.0
 13
68.49361065786573
 23
523.6269821215805
 33
0.0
  0
SOLID
  5
553
330
2D4
100
AcDbEntity
  8
BEM
 62
     0
100
AcDbTrace
 10
67.32694399119903
 20
370.6269821215814
 30
0.0
 11
69.66027732453238
 21
370.6269821215814
 31
0.0
 12
68.4936106578657
 22
363.6269821215814
 32
0.0
 13
68.4936106578657
 23
363.6269821215814
 33
0.0
  0
MTEXT
  5
554
330
2D4
100
AcDbEntity
  8
BEM
 62
     1
100
AcDbMText
 10
61.99361065786565
 20
443.626982121581
 30
0.0
 40
7.0
 41
0.0
 71
     5
 72
     1
  1
\A1;160
 11
0.0000000000000001
 21
1.0
 31
0.0
 73
     1
 44
1.0
  0
POINT
  5
555
330
2D4
100
AcDbEntity
  8
DEFPOINTS
 62
     0
100
AcDbPoint
 10
73.94379835404015
 20
523.6269821215805
 30
0.0
  0
POINT
  5
556
330
2D4
100
AcDbEntity
  8
DEFPOINTS
 62
     0
100
AcDbPoint
 10
158.9437983540403
 20
363.6269821215813
 30
0.0
  0
POINT
  5
557
330
2D4
100
AcDbEntity
  8
DEFPOINTS
 62
     0
100
AcDbPoint
 10
68.4936106578657
 20
363.6269821215814
 30
0.0
  0
ENDBLK
  5
2E0
330
2D4
100
AcDbEntity
  8
0
100
AcDbBlockEnd
  0
BLOCK
  5
2ED
330
2E1
100
AcDbEntity
  8
0
100
AcDbBlockBegin
  2
*D2
 70
     1
 10
0.0
 20
0.0
 30
0.0
  3
*D2
  1

  0
LINE
  5
4B9
330
2E1
100
AcDbEntity
  8
BEM
 62
     0
370
    -2
100
AcDbLine
 10
71.94379835404015
 20
525.6269821215806
 30
0.0
 11
66.49361065786573
 21
525.6269821215806
 31
0.0
  0
LINE
  5
4BA
330
2E1
100
AcDbEntity
  8
BEM
 62
     0
370
    -2
100
AcDbLine
 10
71.94379835404015
 20
523.6269821215805
 30
0.0
 11
66.49361065786573
 21
523.6269821215805
 31
0.0
  0
LINE
  5
4BB
330
2E1
100
AcDbEntity
  8
BEM
 62
     0
370
    -2
100
AcDbLine
 10
68.49361065786573
 20
516.6269821215805
 30
0.0
 11
68.49361065786573
 21
509.6269821215805
 31
0.0
  0
LINE
  5
4BC
330
2E1
100
AcDbEntity
  8
BEM
 62
     0
370
    -2
100
AcDbLine
 10
68.49361065786573
 20
532.6269821215805
 30
0.0
 11
68.49361065786574
 21
549.360315454914
 31
0.0
  0
LINE
  5
4BD
330
2E1
100
AcDbEntity
  8
BEM
 62
     0
370
    -2
100
AcDbLine
 10
68.49361065786573
 20
523.6269821215805
 30
0.0
 11
68.49361065786573
 21
525.6269821215806
 31
0.0
  0
SOLID
  5
4BE
330
2E1
100
AcDbEntity
  8
BEM
 62
     0
100
AcDbTrace
 10
67.32694399119906
 20
516.6269821215805
 30
0.0
 11
69.6602773245324
 21
516.6269821215805
 31
0.0
 12
68.49361065786573
 22
523.6269821215805
 32
0.0
 13
68.49361065786573
 23
523.6269821215805
 33
0.0
  0
SOLID
  5
4BF
330
2E1
100
AcDbEntity
  8
BEM
 62
     0
100
AcDbTrace
 10
67.32694399119906
 20
532.6269821215805
 30
0.0
 11
69.6602773245324
 21
532.6269821215805
 31
0.0
 12
68.49361065786573
 22
525.6269821215806
 32
0.0
 13
68.49361065786573
 23
525.6269821215806
 33
0.0
  0
MTEXT
  5
4C0
330
2E1
100
AcDbEntity
  8
BEM
 62
     1
100
AcDbMText
 10
61.99361065786565
 20
544.4936487882473
 30
0.0
 40
7.0
 41
0.0
 71
     5
 72
     1
  1
\A1;2
 11
0.0000000000000001
 21
1.0
 31
0.0
 73
     1
 44
1.0
  0
POINT
  5
4C1
330
2E1
100
AcDbEntity
  8
DEFPOINTS
 62
     0
100
AcDbPoint
 10
73.94379835404015
 20
525.6269821215806
 30
0.0
  0
POINT
  5
4C2
330
2E1
100
AcDbEntity
  8
DEFPOINTS
 62
     0
100
AcDbPoint
 10
73.94379835404015
 20
523.6269821215805
 30
0.0
  0
POINT
  5
4C3
330
2E1
100
AcDbEntity
  8
DEFPOINTS
 62
     0
100
AcDbPoint
 10
68.49361065786573
 20
523.6269821215805
 30
0.0
  0
ENDBLK
  5
2EE
330
2E1
100
AcDbEntity
  8
0
100
AcDbBlockEnd
  0
BLOCK
  5
2FA
330
2EF
100
AcDbEntity
  8
0
100
AcDbBlockBegin
  2
*D3
 70
     1
 10
0.0
 20
0.0
 30
0.0
  3
*D3
  1

  0
LINE
  5
4A7
330
2EF
100
AcDbEntity
  8
BEM
 62
     0
370
    -2
100
AcDbLine
 10
187.2561283069292
 20
255.6269821215806
 30
0.0
 11
52.42975649335761
 21
255.6269821215806
 31
0.0
  0
LINE
  5
4A8
330
2EF
100
AcDbEntity
  8
BEM
 62
     0
370
    -2
100
AcDbLine
 10
71.94379835404015
 20
525.6269821215806
 30
0.0
 11
52.42975649335767
 21
525.6269821215806
 31
0.0
  0
LINE
  5
4A9
330
2EF
100
AcDbEntity
  8
BEM
 62
     0
370
    -2
100
AcDbLine
 10
54.42975649335761
 20
262.6269821215806
 30
0.0
 11
54.42975649335767
 21
518.6269821215805
 31
0.0
  0
SOLID
  5
4AA
330
2EF
100
AcDbEntity
  8
BEM
 62
     0
100
AcDbTrace
 10
53.26308982669095
 20
262.6269821215806
 30
0.0
 11
55.59642316002427
 21
262.6269821215806
 31
0.0
 12
54.42975649335761
 22
255.6269821215806
 32
0.0
 13
54.42975649335761
 23
255.6269821215806
 33
0.0
  0
SOLID
  5
4AB
330
2EF
100
AcDbEntity
  8
BEM
 62
     0
100
AcDbTrace
 10
53.263089826691
 20
518.6269821215805
 30
0.0
 11
55.59642316002434
 21
518.6269821215805
 31
0.0
 12
54.42975649335767
 22
525.6269821215806
 32
0.0
 13
54.42975649335767
 23
525.6269821215806
 33
0.0
  0
MTEXT
  5
4AC
330
2EF
100
AcDbEntity
  8
BEM
 62
     1
100
AcDbMText
 10
47.92975649335757
 20
390.6269821215806
 30
0.0
 40
7.0
 41
0.0
 71
     5
 72
     1
  1
\A1;270
 11
0.0000000000000001
 21
1.0
 31
0.0
 73
     1
 44
1.0
  0
POINT
  5
4AD
330
2EF
100
AcDbEntity
  8
DEFPOINTS
 62
     0
100
AcDbPoint
 10
189.2561283069292
 20
255.6269821215806
 30
0.0
  0
POINT
  5
4AE
330
2EF
100
AcDbEntity
  8
DEFPOINTS
 62
     0
100
AcDbPoint
 10
73.94379835404015
 20
525.6269821215806
 30
0.0
  0
POINT
  5
4AF
330
2EF
100
AcDbEntity
  8
DEFPOINTS
 62
     0
100
AcDbPoint
 10
54.42975649335767
 20
525.6269821215806
 30
0.0
  0
ENDBLK
  5
2FB
330
2EF
100
AcDbEntity
  8
0
100
AcDbBlockEnd
  0
BLOCK
  5
307
330
2FC
100
AcDbEntity
  8
0
100
AcDbBlockBegin
  2
*D4
 70
     1
 10
0.0
 20
0.0
 30
0.0
  3
*D4
  1

  0
LINE
  5
464
330
2FC
100
AcDbEntity
  8
BEM
 62
     0
370
    -2
100
AcDbLine
 10
73.94379835404038
 20
527.6269821215805
 30
0.0
 11
73.94379835404038
 21
556.5420468141087
 31
0.0
  0
LINE
  5
465
330
2FC
100
AcDbEntity
  8
BEM
 62
     0
370
    -2
100
AcDbLine
 10
403.9437983540405
 20
527.6269821215805
 30
0.0
 11
403.9437983540405
 21
556.5420468141087
 31
0.0
  0
LINE
  5
466
330
2FC
100
AcDbEntity
  8
BEM
 62
     0
370
    -2
100
AcDbLine
 10
80.94379835404039
 20
554.5420468141087
 30
0.0
 11
396.9437983540406
 21
554.5420468141087
 31
0.0
  0
SOLID
  5
467
330
2FC
100
AcDbEntity
  8
BEM
 62
     0
100
AcDbTrace
 10
80.94379835404039
 20
555.7087134807753
 30
0.0
 11
80.94379835404039
 21
553.375380147442
 31
0.0
 12
73.94379835404038
 22
554.5420468141087
 32
0.0
 13
73.94379835404038
 23
554.5420468141087
 33
0.0
  0
SOLID
  5
468
330
2FC
100
AcDbEntity
  8
BEM
 62
     0
100
AcDbTrace
 10
396.9437983540406
 20
555.7087134807753
 30
0.0
 11
396.9437983540406
 21
553.375380147442
 31
0.0
 12
403.9437983540405
 22
554.5420468141087
 32
0.0
 13
403.9437983540405
 23
554.5420468141087
 33
0.0
  0
MTEXT
  5
469
330
2FC
100
AcDbEntity
  8
BEM
 62
     1
100
AcDbMText
 10
238.9437983540405
 20
561.0420468141087
 30
0.0
 40
7.0
 41
0.0
 71
     5
 72
     1
  1
\A1;%%c330
 73
     1
 44
1.0
  0
POINT
  5
46A
330
2FC
100
AcDbEntity
  8
DEFPOINTS
 62
     0
100
AcDbPoint
 10
73.94379835404038
 20
525.6269821215806
 30
0.0
  0
POINT
  5
46B
330
2FC
100
AcDbEntity
  8
DEFPOINTS
 62
     0
100
AcDbPoint
 10
403.9437983540405
 20
525.6269821215806
 30
0.0
  0
POINT
  5
46C
330
2FC
100
AcDbEntity
  8
DEFPOINTS
 62
     0
100
AcDbPoint
 10
403.9437983540405
 20
554.5420468141087
 30
0.0
  0
ENDBLK
  5
308
330
2FC
100
AcDbEntity
  8
0
100
AcDbBlockEnd
  0
BLOCK
  5
314
330
309
100
AcDbEntity
  8
0
100
AcDbBlockBegin
  2
*D5
 70
     1
 10
0.0
 20
0.0
 30
0.0
  3
*D5
  1

  0
LINE
  5
45B
330
309
100
AcDbEntity
  8
BEM
 62
     0
370
    -2
100
AcDbLine
 10
187.9437983540404
 20
261.6269821215805
 30
0.0
 11
187.9437983540404
 21
233.5539427977299
 31
0.0
  0
LINE
  5
45C
330
309
100
AcDbEntity
  8
BEM
 62
     0
370
    -2
100
AcDbLine
 10
289.9437983540406
 20
261.6269821215805
 30
0.0
 11
289.9437983540406
 21
233.5539427977299
 31
0.0
  0
LINE
  5
45D
330
309
100
AcDbEntity
  8
BEM
 62
     0
370
    -2
100
AcDbLine
 10
194.9437983540404
 20
235.5539427977299
 30
0.0
 11
282.9437983540406
 21
235.5539427977299
 31
0.0
  0
SOLID
  5
45E
330
309
100
AcDbEntity
  8
BEM
 62
     0
100
AcDbTrace
 10
194.9437983540404
 20
236.7206094643965
 30
0.0
 11
194.9437983540404
 21
234.3872761310632
 31
0.0
 12
187.9437983540404
 22
235.5539427977299
 32
0.0
 13
187.9437983540404
 23
235.5539427977299
 33
0.0
  0
SOLID
  5
45F
330
309
100
AcDbEntity
  8
BEM
 62
     0
100
AcDbTrace
 10
282.9437983540406
 20
236.7206094643965
 30
0.0
 11
282.9437983540406
 21
234.3872761310632
 31
0.0
 12
289.9437983540406
 22
235.5539427977299
 32
0.0
 13
289.9437983540406
 23
235.5539427977299
 33
0.0
  0
MTEXT
  5
460
330
309
100
AcDbEntity
  8
BEM
 62
     1
100
AcDbMText
 10
238.9437983540405
 20
242.0539427977299
 30
0.0
 40
7.0
 41
0.0
 71
     5
 72
     1
  1
\A1;%%c102
 73
     1
 44
1.0
  0
POINT
  5
461
330
309
100
AcDbEntity
  8
DEFPOINTS
 62
     0
100
AcDbPoint
 10
187.9437983540404
 20
263.6269821215805
 30
0.0
  0
POINT
  5
462
330
309
100
AcDbEntity
  8
DEFPOINTS
 62
     0
100
AcDbPoint
 10
289.9437983540406
 20
263.6269821215805
 30
0.0
  0
POINT
  5
463
330
309
100
AcDbEntity
  8
DEFPOINTS
 62
     0
100
AcDbPoint
 10
289.9437983540406
 20
235.5539427977299
 30
0.0
  0
ENDBLK
  5
315
330
309
100
AcDbEntity
  8
0
100
AcDbBlockEnd
  0
BLOCK
  5
32E
330
323
100
AcDbEntity
  8
0
100
AcDbBlockBegin
  2
*D6
 70
     1
 10
0.0
 20
0.0
 30
0.0
  3
*D6
  1

  0
LINE
  5
452
330
323
100
AcDbEntity
  8
BEM
 62
     0
370
    -2
100
AcDbLine
 10
158.9437983540403
 20
361.6269821215813
 30
0.0
 11
158.9437983540403
 21
217.5539427977299
 31
0.0
  0
LINE
  5
453
330
323
100
AcDbEntity
  8
BEM
 62
     0
370
    -2
100
AcDbLine
 10
318.9437983540403
 20
361.6269821215808
 30
0.0
 11
318.9437983540403
 21
217.5539427977299
 31
0.0
  0
LINE
  5
454
330
323
100
AcDbEntity
  8
BEM
 62
     0
370
    -2
100
AcDbLine
 10
165.9437983540404
 20
219.5539427977299
 30
0.0
 11
311.9437983540403
 21
219.5539427977299
 31
0.0
  0
SOLID
  5
455
330
323
100
AcDbEntity
  8
BEM
 62
     0
100
AcDbTrace
 10
165.9437983540404
 20
220.7206094643965
 30
0.0
 11
165.9437983540404
 21
218.3872761310632
 31
0.0
 12
158.9437983540403
 22
219.5539427977299
 32
0.0
 13
158.9437983540403
 23
219.5539427977299
 33
0.0
  0
SOLID
  5
456
330
323
100
AcDbEntity
  8
BEM
 62
     0
100
AcDbTrace
 10
311.9437983540403
 20
220.7206094643965
 30
0.0
 11
311.9437983540403
 21
218.3872761310632
 31
0.0
 12
318.9437983540403
 22
219.5539427977299
 32
0.0
 13
318.9437983540403
 23
219.5539427977299
 33
0.0
  0
MTEXT
  5
457
330
323
100
AcDbEntity
  8
BEM
 62
     1
100
AcDbMText
 10
238.9437983540403
 20
226.0539427977299
 30
0.0
 40
7.0
 41
0.0
 71
     5
 72
     1
  1
\A1;%%c160
 73
     1
 44
1.0
  0
POINT
  5
458
330
323
100
AcDbEntity
  8
DEFPOINTS
 62
     0
100
AcDbPoint
 10
158.9437983540403
 20
363.6269821215813
 30
0.0
  0
POINT
  5
459
330
323
100
AcDbEntity
  8
DEFPOINTS
 62
     0
100
AcDbPoint
 10
318.9437983540403
 20
363.6269821215808
 30
0.0
  0
POINT
  5
45A
330
323
100
AcDbEntity
  8
DEFPOINTS
 62
     0
100
AcDbPoint
 10
318.9437983540403
 20
219.5539427977299
 30
0.0
  0
ENDBLK
  5
32F
330
323
100
AcDbEntity
  8
0
100
AcDbBlockEnd
  0
BLOCK
  5
3C3
330
3B9
100
AcDbEntity
  8
0
100
AcDbBlockBegin
  2
*D7
 70
     1
 10
0.0
 20
0.0
 30
0.0
  3
*D7
  1

  0
LINE
  5
449
330
3B9
100
AcDbEntity
  8
BEM
 62
     0
370
    -2
100
AcDbLine
 10
143.9437983540404
 20
525.6269821215814
 30
0.0
 11
143.9437983540404
 21
540.8449704177524
 31
0.0
  0
LINE
  5
44A
330
3B9
100
AcDbEntity
  8
BEM
 62
     0
370
    -2
100
AcDbLine
 10
333.9437983540404
 20
525.6269821215814
 30
0.0
 11
333.9437983540404
 21
540.8449704177524
 31
0.0
  0
LINE
  5
44B
330
3B9
100
AcDbEntity
  8
BEM
 62
     0
370
    -2
100
AcDbLine
 10
150.9437983540404
 20
538.8449704177523
 30
0.0
 11
326.9437983540404
 21
538.8449704177523
 31
0.0
  0
SOLID
  5
44C
330
3B9
100
AcDbEntity
  8
BEM
 62
     0
100
AcDbTrace
 10
150.9437983540404
 20
540.011637084419
 30
0.0
 11
150.9437983540404
 21
537.6783037510858
 31
0.0
 12
143.9437983540404
 22
538.8449704177523
 32
0.0
 13
143.9437983540404
 23
538.8449704177523
 33
0.0
  0
SOLID
  5
44D
330
3B9
100
AcDbEntity
  8
BEM
 62
     0
100
AcDbTrace
 10
326.9437983540404
 20
540.011637084419
 30
0.0
 11
326.9437983540404
 21
537.6783037510858
 31
0.0
 12
333.9437983540404
 22
538.8449704177523
 32
0.0
 13
333.9437983540404
 23
538.8449704177523
 33
0.0
  0
MTEXT
  5
44E
330
3B9
100
AcDbEntity
  8
BEM
 62
     1
100
AcDbMText
 10
238.9437983540404
 20
545.3449704177524
 30
0.0
 40
7.0
 41
0.0
 71
     5
 72
     1
  1
\A1;%%c190
 73
     1
 44
1.0
  0
POINT
  5
44F
330
3B9
100
AcDbEntity
  8
DEFPOINTS
 62
     0
100
AcDbPoint
 10
143.9437983540404
 20
523.6269821215813
 30
0.0
  0
POINT
  5
450
330
3B9
100
AcDbEntity
  8
DEFPOINTS
 62
     0
100
AcDbPoint
 10
333.9437983540404
 20
523.6269821215813
 30
0.0
  0
POINT
  5
451
330
3B9
100
AcDbEntity
  8
DEFPOINTS
 62
     0
100
AcDbPoint
 10
333.9437983540404
 20
538.8449704177523
 30
0.0
  0
ENDBLK
  5
3C4
330
3B9
100
AcDbEntity
  8
0
100
AcDbBlockEnd
  0
ENDSEC
  0
SECTION
  2
ENTITIES
  0
LINE
  5
57
330
1E
100
AcDbEntity
  8
STEMPEL
100
AcDbLine
 10
410.0
 20
110.0
 30
0.0
 11
39.99999999999997
 21
110.0
 31
0.0
  0
LINE
  5
58
330
1E
100
AcDbEntity
  8
STEMPEL
100
AcDbLine
 10
136.0000000000001
 20
109.9999999999999
 30
0.0
 11
136.0
 21
9.999999999999971
 31
0.0
  0
LINE
  5
59
330
1E
100
AcDbEntity
  8
STEMPEL
100
AcDbLine
 10
220.0
 20
110.0
 30
0.0
 11
220.0
 21
9.999999999999971
 31
0.0
  0
LINE
  5
5A
330
1E
100
AcDbEntity
  8
STEMPEL
100
AcDbLine
 10
332.0
 20
109.9999999999997
 30
0.0
 11
332.0
 21
40.0
 31
0.0
  0
LINE
  5
5B
330
1E
100
AcDbEntity
  8
STEMPEL
100
AcDbLine
 10
135.9999999999999
 20
29.99999999999997
 30
0.0
 11
39.99999999999997
 21
29.99999999999997
 31
0.0
  0
LINE
  5
5C
330
1E
100
AcDbEntity
  8
STEMPEL
100
AcDbLine
 10
410.0
 20
40.0
 30
0.0
 11
136.0000000000001
 21
39.99999999999997
 31
0.0
  0
LINE
  5
5D
330
1E
100
AcDbEntity
  8
STEMPEL
100
AcDbLine
 10
410.0
 20
80.0
 30
0.0
 11
136.0000000000001
 21
79.99999999999994
 31
0.0
  0
LINE
  5
5E
330
1E
100
AcDbEntity
  8
VOLL
100
AcDbLine
 10
54.00000000000009
 20
110.0
 30
0.0
 11
53.99999999999997
 21
9.999999999999971
 31
0.0
  0
LINE
  5
5F
330
1E
100
AcDbEntity
  8
VOLL
100
AcDbLine
 10
94.00000000000011
 20
109.9999999999999
 30
0.0
 11
94.0
 21
9.999999999999971
 31
0.0
  0
LINE
  5
60
330
1E
100
AcDbEntity
  8
VOLL
100
AcDbLine
 10
114.0000000000001
 20
109.9999999999999
 30
0.0
 11
114.0
 21
9.999999999999971
 31
0.0
  0
LINE
  5
61
330
1E
100
AcDbEntity
  8
VOLL
100
AcDbLine
 10
154.0000000000001
 20
79.99999999999994
 30
0.0
 11
154.0000000000001
 21
39.99999999999997
 31
0.0
  0
LINE
  5
62
330
1E
100
AcDbEntity
  8
VOLL
100
AcDbLine
 10
180.0000000000001
 20
109.9999999999998
 30
0.0
 11
180.0
 21
39.99999999999997
 31
0.0
  0
LINE
  5
63
330
1E
100
AcDbEntity
  8
HILF
100
AcDbLine
 10
40.00000000000008
 20
100.0
 30
0.0
 11
136.0000000000001
 21
100.0
 31
0.0
  0
LINE
  5
64
330
1E
100
AcDbEntity
  8
HILF
100
AcDbLine
 10
40.00000000000008
 20
90.00000000000005
 30
0.0
 11
136.0000000000001
 21
90.00000000000005
 31
0.0
  0
LINE
  5
65
330
1E
100
AcDbEntity
  8
HILF
100
AcDbLine
 10
40.00000000000008
 20
79.99999999999994
 30
0.0
 11
136.0000000000001
 21
79.99999999999994
 31
0.0
  0
LINE
  5
66
330
1E
100
AcDbEntity
  8
HILF
100
AcDbLine
 10
40.00000000000008
 20
69.99999999999994
 30
0.0
 11
136.0000000000001
 21
69.99999999999994
 31
0.0
  0
LINE
  5
67
330
1E
100
AcDbEntity
  8
HILF
100
AcDbLine
 10
40.00000000000008
 20
59.99999999999997
 30
0.0
 11
136.0000000000001
 21
59.99999999999997
 31
0.0
  0
LINE
  5
68
330
1E
100
AcDbEntity
  8
HILF
100
AcDbLine
 10
40.00000000000008
 20
49.99999999999997
 30
0.0
 11
136.0000000000001
 21
49.99999999999997
 31
0.0
  0
LINE
  5
69
330
1E
100
AcDbEntity
  8
HILF
100
AcDbLine
 10
40.00000000000008
 20
39.99999999999997
 30
0.0
 11
136.0000000000001
 21
39.99999999999997
 31
0.0
  0
LINE
  5
6A
330
1E
100
AcDbEntity
  8
HILF
100
AcDbLine
 10
136.0000000000001
 20
69.99999999999994
 30
0.0
 11
220.0
 21
69.99999999999994
 31
0.0
  0
LINE
  5
6B
330
1E
100
AcDbEntity
  8
HILF
100
AcDbLine
 10
136.0000000000001
 20
59.99999999999997
 30
0.0
 11
220.0
 21
59.99999999999997
 31
0.0
  0
LINE
  5
6C
330
1E
100
AcDbEntity
  8
HILF
100
AcDbLine
 10
136.0000000000001
 20
49.99999999999997
 30
0.0
 11
220.0
 21
49.99999999999997
 31
0.0
  0
LINE
  5
6D
330
1E
100
AcDbEntity
  8
HILF
100
AcDbLine
 10
224.7736801096948
 20
84.03758247564139
 30
0.0
 11
324.8353916556311
 21
84.03758247564139
 31
0.0
  0
LINE
  5
6E
330
1E
100
AcDbEntity
  8
HILF
100
AcDbLine
 10
224.7736801096948
 20
69.99999999999994
 30
0.0
 11
324.835391655631
 21
69.99999999999994
 31
0.0
  0
LINE
  5
6F
330
1E
100
AcDbEntity
  8
HILF
100
AcDbLine
 10
224.7736801096948
 20
59.99999999999997
 30
0.0
 11
324.835391655631
 21
59.99999999999997
 31
0.0
  0
LINE
  5
70
330
1E
100
AcDbEntity
  8
HILF
100
AcDbLine
 10
224.7736801096948
 20
49.99999999999997
 30
0.0
 11
324.835391655631
 21
49.99999999999997
 31
0.0
  0
LINE
  5
71
330
1E
100
AcDbEntity
  8
VOLL
100
AcDbLine
 10
332.0
 20
60.0
 30
0.0
 11
410.0
 21
60.0
 31
0.0
  0
LINE
  5
72
330
1E
100
AcDbEntity
  8
HILF
100
AcDbLine
 10
336.7238616296993
 20
83.77983636955827
 30
0.0
 11
404.8588839326728
 21
83.77983636955827
 31
0.0
  0
LINE
  5
73
330
1E
100
AcDbEntity
  8
HILF
100
AcDbLine
 10
223.4909699289885
 20
14.89398258028314
 30
0.0
 11
404.8588839326728
 21
14.89398258028314
 31
0.0
  0
TEXT
  5
74
330
1E
100
AcDbEntity
  8
TEXT
100
AcDbText
 10
63.86165979631819
 20
18.67381894984132
 30
0.0
 40
4.0
  1
Änderung
 41
0.8
  7
GREEKS
 72
     1
 11
74.60451693917534
 21
18.67381894984132
 31
0.0
100
AcDbText
  0
TEXT
  5
75
330
1E
100
AcDbEntity
  8
TEXT
100
AcDbText
 10
143.5163572150377
 20
102.4620895087088
 30
0.0
 40
5.0
  1
Maßstab
 41
0.8
  7
GREEKS
100
AcDbText
  0
TEXT
  5
76
330
1E
100
AcDbEntity
  8
TEXT
100
AcDbText
 10
184.2858954734051
 20
102.4184168434819
 30
0.0
 40
5.0
  1
Zul. Abw.
 41
0.8
  7
GREEKS
100
AcDbText
  0
TEXT
  5
77
330
1E
100
AcDbEntity
  8
TEXT
100
AcDbText
 10
224.877940380901
 20
102.5489328011779
 30
0.0
 40
5.0
  1
Benennung
 41
0.8
  7
GREEKS
100
AcDbText
  0
TEXT
  5
78
330
1E
100
AcDbEntity
  8
TEXT
100
AcDbText
 10
336.178754957634
 20
102.3132034537136
 30
0.0
 40
5.0
  1
Zeichnungs Nr.
 41
0.8
  7
GREEKS
100
AcDbText
  0
TEXT
  5
79
330
1E
100
AcDbEntity
  8
TEXT
100
AcDbText
 10
224.742238391136
 20
30.84560570193057
 30
0.0
 40
5.0
  1
Bauvorhaben
 41
0.8
  7
GREEKS
100
AcDbText
  0
TEXT
  5
7A
330
1E
100
AcDbEntity
  8
TEXT
100
AcDbText
 10
336.7238616296993
 20
73.1811823709997
 30
0.0
 40
5.0
  1
Ersatz für:
 41
0.8
  7
GREEKS
100
AcDbText
  0
TEXT
  5
7B
330
1E
100
AcDbEntity
  8
TEXT
100
AcDbText
 10
48.26641107045756
 20
13.65465846027192
 30
0.0
 40
4.0
  1
Index
 50
90.0
 41
0.8
  7
GREEKS
100
AcDbText
  0
TEXT
  5
7C
330
1E
100
AcDbEntity
  8
TEXT
100
AcDbText
 10
100.0934676075481
 20
18.6715626933981
 30
0.0
 40
4.0
  1
Tag
 41
0.8
  7
GREEKS
 72
     1
 11
103.8268009408814
 21
18.6715626933981
 31
0.0
100
AcDbText
  0
TEXT
  5
7D
330
1E
100
AcDbEntity
  8
TEXT
100
AcDbText
 10
119.0122744386592
 20
18.59324216966408
 30
0.0
 40
4.0
  1
Name
 41
0.8
  7
GREEKS
 72
     1
 11
125.3360839624688
 21
18.59324216966408
 31
0.0
100
AcDbText
  0
TEXT
  5
7E
330
1E
100
AcDbEntity
  8
TEXT
100
AcDbText
 10
162.3311673153651
 20
73.31880501229926
 30
0.0
 40
4.0
  1
Tag
 41
0.8
  7
GREEKS
100
AcDbText
  0
TEXT
  5
7F
330
1E
100
AcDbEntity
  8
TEXT
100
AcDbText
 10
192.4626584226295
 20
73.30961091915225
 30
0.0
 40
4.0
  1
Name
 41
0.8
  7
GREEKS
100
AcDbText
  0
TEXT
  5
80
330
1E
100
AcDbEntity
  8
TEXT
100
AcDbText
 10
137.5836127167615
 20
63.62990369617964
 30
0.0
 40
4.0
  1
Gez.
 41
0.8
  7
GREEKS
100
AcDbText
  0
TEXT
  5
81
330
1E
100
AcDbEntity
  8
TEXT
100
AcDbText
 10
137.5515086571672
 20
53.68926291428377
 30
0.0
 40
4.0
  1
Gepr.
 41
0.8
  7
GREEKS
100
AcDbText
  0
TEXT
  5
82
330
1E
100
AcDbEntity
  8
TEXT
100
AcDbText
 10
137.6006777387304
 20
43.52946389649807
 30
0.0
 40
4.0
  1
Norm.
 41
0.8
  7
GREEKS
100
AcDbText
  0
LINE
  5
83
330
1E
100
AcDbEntity
  8
STEMPEL
100
AcDbLine
 10
49.99999999999989
 20
10.0
 30
0.0
 11
410.0
 21
10.0
 31
0.0
  0
TEXT
  5
84
330
1E
100
AcDbEntity
  8
TEXT
100
AcDbText
 10
337.2400861497006
 20
52.07416177878602
 30
0.0
 40
5.0
  1
ersetzt durch:
 41
0.8
  7
GREEKS
100
AcDbText
  0
LINE
  5
85
330
1E
100
AcDbEntity
  8
STEMPEL
100
AcDbLine
 10
410.0
 20
10.0
 30
0.0
 11
39.99999999999989
 21
10.0
 31
0.0
  0
LINE
  5
86
330
1E
100
AcDbEntity
  8
STEMPEL
100
AcDbLine
 10
410.0
 20
10.0
 30
0.0
 11
410.0
 21
584.0
 31
0.0
  0
LINE
  5
87
330
1E
100
AcDbEntity
  8
STEMPEL
100
AcDbLine
 10
40.0
 20
10.0
 30
0.0
 11
39.99999999999989
 21
584.0
 31
0.0
  0
LINE
  5
88
330
1E
100
AcDbEntity
  8
STEMPEL
100
AcDbLine
 10
410.0
 20
584.0
 30
0.0
 11
39.99999999999989
 21
584.0
 31
0.0
  0
LINE
  5
89
330
1E
100
AcDbEntity
  8
HILF
100
AcDbLine
 10
0.0
 20
0.0
 30
0.0
 11
-0.0000000000001137
 21
594.0
 31
0.0
  0
LINE
  5
8A
330
1E
100
AcDbEntity
  8
HILF
100
AcDbLine
 10
419.9999999999999
 20
594.0000000000002
 30
0.0
 11
0.0
 21
594.0
 31
0.0
  0
LINE
  5
8B
330
1E
100
AcDbEntity
  8
HILF
100
AcDbLine
 10
420.0
 20
0.0
 30
0.0
 11
0.0
 21
0.0
 31
0.0
  0
LINE
  5
8C
330
1E
100
AcDbEntity
  8
HILF
100
AcDbLine
 10
31.08767135713856
 20
297.0
 30
0.0
 11
0.0000000000001137
 21
297.0
 31
0.0
  0
TEXT
  5
8D
330
1E
100
AcDbEntity
  8
TEXT
100
AcDbText
 10
138.622109822104
 20
73.14025471151666
 30
0.0
 40
4.0
  1
2006
 41
0.8
  7
GREEKS
100
AcDbText
  0
LINE
  5
8E
330
1E
100
AcDbEntity
  8
HILF
100
AcDbLine
 10
420.0
 20
-0.0000000000001137
 30
0.0
 11
419.9999999999999
 21
594.0
 31
0.0
  0
TEXT
  5
8F
330
1E
100
AcDbEntity
  8
VOLL
100
AcDbText
 10
78.07675471698113
 20
31.02594776470585
 30
0.0
 40
1.8
  1

  7
GREEKS
100
AcDbText
  0
TEXT
  5
90
330
1E
100
AcDbEntity
  8
TEXT
100
AcDbText
 10
41.85509950977674
 20
111.6719999999999
 30
0.0
 40
5.0
  1
Erstellt mit AUTOCAD 2004
 41
0.8
  7
GREEKS
100
AcDbText
  0
TEXT
  5
91
330
1E
100
AcDbEntity
  8
TEXT
100
AcDbText
 10
194.4216048581257
 20
63.0896391972351
 30
0.0
 40
4.0
  1
Koeh
 41
0.8
  7
GREEKS
 72
     1
 11
199.6787477152685
 21
63.0896391972351
 31
0.0
100
AcDbText
  0
TEXT
  5
92
330
1E
100
AcDbEntity
  8
TEXT
 62
     1
100
AcDbText
 10
348.7604618075577
 20
88.14901428913959
 30
0.0
 40
7.0
  1
17160100W
 41
0.8
  7
GREEKS
 72
     1
 11
371.1604618075577
 21
88.14901428913959
 31
0.0
100
AcDbText
  0
TEXT
  5
93
330
1E
100
AcDbEntity
  8
TEXT
 62
     1
100
AcDbText
 10
150.5006306481887
 20
88.14901428913959
 30
0.0
 40
7.0
  1
1:2
 41
0.8
  7
GREEKS
100
AcDbText
  0
TEXT
  5
94
330
1E
100
AcDbEntity
  8
TEXT
100
AcDbText
 10
160.7037590129979
 20
63.10765040825732
 30
0.0
 40
4.0
  1
05.10.
 41
0.8
  7
GREEKS
 72
     1
 11
167.4085209177598
 21
63.10765040825732
 31
0.0
100
AcDbText
  0
TEXT
  5
95
330
1E
100
AcDbEntity
  8
TEXT
 62
     1
100
AcDbText
 10
226.8935731057402
 20
87.41748789253779
 30
0.0
 40
7.0
  1
Ablauftopf DN100
 41
0.8
  7
GREEKS
100
AcDbText
  0
TEXT
  5
96
330
1E
100
AcDbEntity
  8
TEXT
100
AcDbText
 10
225.1296391125315
 20
71.50334417585288
 30
0.0
 40
5.0
  1
für Flachdach senkrecht
 41
0.8
  7
GREEKS
100
AcDbText
  0
TEXT
  5
97
330
1E
100
AcDbEntity
  8
TEXT
100
AcDbText
 10
225.1296391125315
 20
62.11580706774856
 30
0.0
 40
5.0
  1
mit Wärmedämmung
 41
0.8
  7
GREEKS
100
AcDbText
  0
TEXT
  5
98
330
1E
100
AcDbEntity
  8
TEXT
100
AcDbText
 10
225.1296391125315
 20
51.64011943042158
 30
0.0
 40
5.0
  1
EDV-art.Nr. 17160.100A
 41
0.8
  7
GREEKS
100
AcDbText
  0
TEXT
  5
99
330
1E
100
AcDbEntity
  8
TEXT
100
AcDbText
 10
224.9837501577827
 20
42.62974153022632
 30
0.0
 40
4.0
  1
17160100W.DWG
 41
0.8
  7
GREEKS
100
AcDbText
  0
TEXT
  5
9A
330
1E
100
AcDbEntity
  8
TEXT
100
AcDbText
 10
182.7023226842745
 20
90.76363841023022
 30
0.0
 40
4.0
  1
DIN eN1123-2
 41
0.8
  7
GREEKS
 72
     1
 11
199.6166083985602
 21
90.76363841023022
 31
0.0
100
AcDbText
  0
INSERT
  5
9B
330
1E
100
AcDbEntity
  8
STEMPEL
100
AcDbBlockReference
  2
LOGO
 10
140.9955485457794
 20
45.02105276448322
 30
0.0
 41
2.0
 42
2.0
 43
2.0
  0
TEXT
  5
118
330
1E
100
AcDbEntity
  8
BEM
100
AcDbText
 10
417.3022923857165
 20
10.16790107998849
 30
0.0
 40
4.0
  1
Diese Zeichnung ist urheberrechtlich geschützt und bleibt unser Eigentum. Sie darf weder ganz noch teilweise verfielfältigt und nicht an Dritte weitergegeben werden.
 50
90.0
 41
0.8
  7
GREEKS
100
AcDbText
  0
LINE
  5
26A
330
1E
100
AcDbEntity
  8
STEMPEL
100
AcDbLine
 10
403.9437983540405
 20
525.6269821215806
 30
0.0
 11
403.9437983540405
 21
523.6269821215805
 31
0.0
  0
ARC
  5
26C
330
1E
100
AcDbEntity
  8
STEMPEL
100
AcDbCircle
 10
317.1954363598075
 20
517.6269821215806
 30
0.0
 40
8.0
100
AcDbArc
 50
90.0
 51
191.0000000000009
  0
ARC
  5
26D
330
1E
100
AcDbEntity
  8
STEMPEL
100
AcDbCircle
 10
317.1954363598075
 20
517.6269821215806
 30
0.0
 40
6.0
100
AcDbArc
 50
90.0
 51
191.0000000000009
  0
LINE
  5
26E
102
{ACAD_REACTORS
330
605
102
}
330
1E
100
AcDbEntity
  8
STEMPEL
100
AcDbLine
 10
403.9437983540405
 20
523.6269821215805
 30
0.0
 11
317.1954363598075
 21
523.6269821215806
 31
0.0
  0
LINE
  5
26F
330
1E
100
AcDbEntity
  8
STEMPEL
100
AcDbLine
 10
312.4437983540401
 20
510.6269821215805
 30
0.0
 11
312.4437983540401
 21
506.6269821215805
 31
0.0
  0
LINE
  5
270
330
1E
100
AcDbEntity
  8
STEMPEL
100
AcDbLine
 10
310.4437983540401
 20
510.4344040251854
 30
0.0
 11
310.4437983540401
 21
507.1628805064428
 31
0.0
  0
LINE
  5
271
330
1E
100
AcDbEntity
  8
STEMPEL
100
AcDbLine
 10
310.4437983540401
 20
507.1628805064428
 30
0.0
 11
303.2061940470062
 21
494.6269821215805
 31
0.0
  0
LINE
  5
272
102
{ACAD_REACTORS
330
5A2
102
}
330
1E
100
AcDbEntity
  8
STEMPEL
100
AcDbLine
 10
298.9437983540404
 20
489.6816628473372
 30
0.0
 11
300.4743828415343
 21
488.833246011906
 31
0.0
  0
LINE
  5
273
330
1E
100
AcDbEntity
  8
STEMPEL
100
AcDbLine
 10
296.4437983540402
 20
491.6269821215805
 30
0.0
 11
296.4437983540402
 21
489.6269821215805
 31
0.0
  0
LINE
  5
274
102
{ACAD_REACTORS
330
5A2
102
}
330
1E
100
AcDbEntity
  8
STEMPEL
100
AcDbLine
 10
300.4743828415344
 20
488.833246011906
 30
0.0
 11
296.4781857701404
 21
481.6239156556355
 31
0.0
  0
LINE
  5
275
102
{ACAD_REACTORS
330
5A2
102
}
330
1E
100
AcDbEntity
  8
STEMPEL
100
AcDbLine
 10
298.9437983540404
 20
489.6816628473371
 30
0.0
 11
294.9476012826465
 21
482.4723324910665
 31
0.0
  0
ARC
  5
276
330
1E
100
AcDbEntity
  8
SCHRAFF
100
AcDbCircle
 10
298.9437983540404
 20
489.6816628473372
 30
0.0
 40
3.0
100
AcDbArc
 50
276.6853347126548
 51
17.50974126551422
  0
ARC
  5
277
102
{ACAD_REACTORS
330
5A2
102
}
330
1E
100
AcDbEntity
  8
STEMPEL
100
AcDbCircle
 10
303.6937983540404
 20
477.6242362886032
 30
0.0
 40
8.25
100
AcDbArc
 50
151.0000000000008
 51
180.0
  0
ARC
  5
278
102
{ACAD_REACTORS
330
5A2
102
}
330
1E
100
AcDbEntity
  8
STEMPEL
100
AcDbCircle
 10
303.6937983540404
 20
477.6242362886032
 30
0.0
 40
10.0
100
AcDbArc
 50
151.0000000000008
 51
180.0
  0
ARC
  5
279
330
1E
100
AcDbEntity
  8
STEMPEL
100
AcDbCircle
 10
298.0100416242997
 20
497.6269821215805
 30
0.0
 40
6.0
100
AcDbArc
 50
270.0
 51
329.9999999999995
  0
ARC
  5
27A
330
1E
100
AcDbEntity
  8
STEMPEL
100
AcDbCircle
 10
298.0100416242997
 20
497.6269821215805
 30
0.0
 40
8.0
100
AcDbArc
 50
270.0
 51
329.9999999999995
  0
LINE
  5
27B
330
1E
100
AcDbEntity
  8
STEMPEL
100
AcDbLine
 10
312.4437983540401
 20
506.6269821215805
 30
0.0
 11
304.9382448545753
 21
493.6269821215805
 31
0.0
  0
ARC
  5
27D
102
{ACAD_REACTORS
330
5A2
102
}
330
1E
100
AcDbEntity
  8
STEMPEL
100
AcDbCircle
 10
280.4437983540404
 20
399.084922986542
 30
0.0
 40
13.25
100
AcDbArc
 50
323.6401786751564
 51
0.0
  0
ARC
  5
27E
102
{ACAD_REACTORS
330
5A2
102
}
330
1E
100
AcDbEntity
  8
STEMPEL
100
AcDbCircle
 10
280.4437983540404
 20
399.084922986542
 30
0.0
 40
15.0
100
AcDbArc
 50
323.6401786751564
 51
0.0
  0
ARC
  5
282
102
{ACAD_REACTORS
330
5A2
102
}
330
1E
100
AcDbEntity
  8
STEMPEL
100
AcDbCircle
 10
303.1937983540404
 20
382.3367887620977
 30
0.0
 40
15.0
100
AcDbArc
 50
143.6401786751564
 51
180.0
  0
ARC
  5
283
102
{ACAD_REACTORS
330
5A2
102
}
330
1E
100
AcDbEntity
  8
STEMPEL
100
AcDbCircle
 10
303.1937983540404
 20
382.3367887620977
 30
0.0
 40
13.25
100
AcDbArc
 50
143.6401786751564
 51
180.0
  0
LINE
  5
284
330
1E
100
AcDbEntity
  8
TEXT
 62
     2
100
AcDbLine
 10
314.7738231234947
 20
382.7176721708703
 30
0.0
 11
377.5458192811286
 21
331.3870066494645
 31
0.0
  0
LINE
  5
286
102
{ACAD_REACTORS
330
5A2
102
}
330
1E
100
AcDbEntity
  8
STEMPEL
100
AcDbLine
 10
293.6937983540404
 20
477.6242362886032
 30
0.0
 11
293.6937983540406
 21
399.084922986542
 31
0.0
  0
LINE
  5
287
102
{ACAD_REACTORS
330
5A2
102
}
330
1E
100
AcDbEntity
  8
STEMPEL
100
AcDbLine
 10
295.4437983540404
 20
477.6242362886032
 30
0.0
 11
295.4437983540404
 21
399.084922986542
 31
0.0
  0
TEXT
  5
288
330
1E
100
AcDbEntity
  8
TEXT
 62
     1
100
AcDbText
 10
386.4694135794634
 20
387.7849117214515
 30
0.0
 40
7.0
  1
n.Zchng. S901652
 50
90.0
 41
0.8
  7
GREEKS
100
AcDbText
  0
TEXT
  5
289
330
1E
100
AcDbEntity
  8
TEXT
 62
     1
100
AcDbText
 10
373.8228659813221
 20
388.4921726763279
 30
0.0
 40
7.0
  1
Ablautopf DN100
 50
90.0
 41
0.8
  7
GREEKS
100
AcDbText
  0
LINE
  5
28A
330
1E
100
AcDbEntity
  8
TEXT
 62
     2
100
AcDbLine
 10
377.5458192811286
 20
223.8823402358404
 30
0.0
 11
377.5458192811286
 21
331.3870066494645
 31
0.0
  0
TEXT
  5
28B
330
1E
100
AcDbEntity
  8
TEXT
 62
     1
100
AcDbText
 10
373.8228659813221
 20
225.9029743398607
 30
0.0
 40
7.0
  1
Wärmedämmung
 50
90.0
 41
0.8
  7
GREEKS
100
AcDbText
  0
LINE
  5
28C
330
1E
100
AcDbEntity
  8
TEXT
 62
     2
100
AcDbLine
 10
377.5458192811286
 20
386.4715385723076
 30
0.0
 11
377.5458192811286
 21
493.1294119930452
 31
0.0
  0
LINE
  5
28D
330
1E
100
AcDbEntity
  8
TEXT
 62
     2
100
AcDbLine
 10
353.9227263128316
 20
524.4853783704366
 30
0.0
 11
377.5458192811286
 21
493.1294119930452
 31
0.0
  0
LINE
  5
28F
330
1E
100
AcDbEntity
  8
STEMPEL
100
AcDbLine
 10
310.4437983540401
 20
510.4344040251854
 30
0.0
 11
309.3424188922263
 21
516.1005101585683
 31
0.0
  0
LINE
  5
290
330
1E
100
AcDbEntity
  8
STEMPEL
100
AcDbLine
 10
312.4437983540401
 20
510.6269821215805
 30
0.0
 11
311.3056732591217
 21
516.4821281493214
 31
0.0
  0
LINE
  5
293
102
{ACAD_REACTORS
330
5A2
102
}
330
1E
100
AcDbEntity
  8
STEMPEL
100
AcDbLine
 10
288.1937983540405
 20
263.7359331811036
 30
0.0
 11
287.1801794716001
 21
255.6269821215805
 31
0.0
  0
LINE
  5
294
102
{ACAD_REACTORS
330
5A2
102
}
330
1E
100
AcDbEntity
  8
STEMPEL
100
AcDbLine
 10
289.9437983540405
 20
263.6269821215805
 30
0.0
 11
288.9437983540404
 21
255.6269821215805
 31
0.0
  0
TEXT
  5
295
330
1E
100
AcDbEntity
  8
TEXT
 62
     1
100
AcDbText
 10
388.0357757122524
 20
225.9029743398607
 30
0.0
 40
7.0
  1
EDV-Art.Nr. 19842.100X
 50
90.0
 41
0.8
  7
GREEKS
100
AcDbText
  0
LINE
  5
296
102
{ACAD_REACTORS
330
5A2
102
}
330
1E
100
AcDbEntity
  8
STEMPEL
100
AcDbLine
 10
288.1937983540404
 20
382.3367887620977
 30
0.0
 11
288.1937983540405
 21
263.7359331811036
 31
0.0
  0
LINE
  5
297
102
{ACAD_REACTORS
330
5A2
330
605
102
}
330
1E
100
AcDbEntity
  8
STEMPEL
100
AcDbLine
 10
289.9437983540404
 20
382.3367887620977
 30
0.0
 11
289.9437983540405
 21
263.6269821215805
 31
0.0
  0
ARC
  5
298
330
1E
100
AcDbEntity
  8
STEMPEL
100
AcDbCircle
 10
160.6921603482731
 20
517.6269821215806
 30
0.0
 40
6.0
100
AcDbArc
 50
348.9999999999991
 51
90.0
  0
ARC
  5
299
330
1E
100
AcDbEntity
  8
STEMPEL
100
AcDbCircle
 10
160.6921603482731
 20
517.6269821215806
 30
0.0
 40
8.0
100
AcDbArc
 50
348.9999999999991
 51
90.0
  0
LINE
  5
29B
330
1E
100
AcDbEntity
  8
STEMPEL
100
AcDbLine
 10
73.94379835404038
 20
525.6269821215806
 30
0.0
 11
73.94379835404038
 21
523.6269821215805
 31
0.0
  0
LINE
  5
29C
102
{ACAD_REACTORS
330
605
102
}
330
1E
100
AcDbEntity
  8
STEMPEL
100
AcDbLine
 10
73.94379835404038
 20
523.6269821215805
 30
0.0
 11
160.6921603482731
 21
523.6269821215806
 31
0.0
  0
LINE
  5
29D
330
1E
100
AcDbEntity
  8
STEMPEL
100
AcDbLine
 10
181.4437983540404
 20
491.6269821215805
 30
0.0
 11
181.4437983540404
 21
489.6269821215805
 31
0.0
  0
ARC
  5
29E
102
{ACAD_REACTORS
330
5A2
102
}
330
1E
100
AcDbEntity
  8
STEMPEL
100
AcDbCircle
 10
174.1937983540404
 20
477.6242362886032
 30
0.0
 40
8.25
100
AcDbArc
 50
0.0
 51
28.99999999999917
  0
ARC
  5
29F
102
{ACAD_REACTORS
330
5A2
102
}
330
1E
100
AcDbEntity
  8
STEMPEL
100
AcDbCircle
 10
174.1937983540404
 20
477.6242362886032
 30
0.0
 40
10.0
100
AcDbArc
 50
0.0
 51
28.99999999999917
  0
LINE
  5
2A0
330
1E
100
AcDbEntity
  8
STEMPEL
100
AcDbLine
 10
165.4437983540404
 20
510.6269821215805
 30
0.0
 11
165.4437983540404
 21
506.6269821215805
 31
0.0
  0
LINE
  5
2A1
330
1E
100
AcDbEntity
  8
STEMPEL
100
AcDbLine
 10
167.4437983540404
 20
510.4344040251854
 30
0.0
 11
167.4437983540404
 21
507.1628805064428
 31
0.0
  0
LINE
  5
2A2
330
1E
100
AcDbEntity
  8
STEMPEL
100
AcDbLine
 10
165.4437983540404
 20
506.6269821215805
 30
0.0
 11
172.9493518535055
 21
493.6269821215805
 31
0.0
  0
LINE
  5
2A3
330
1E
100
AcDbEntity
  8
STEMPEL
100
AcDbLine
 10
167.4437983540404
 20
507.1628805064428
 30
0.0
 11
174.6814026610743
 21
494.6269821215805
 31
0.0
  0
LINE
  5
2A4
102
{ACAD_REACTORS
330
5A2
102
}
330
1E
100
AcDbEntity
  8
STEMPEL
100
AcDbLine
 10
178.9437983540404
 20
489.6816628473372
 30
0.0
 11
177.4132138665466
 21
488.833246011906
 31
0.0
  0
ARC
  5
2A5
330
1E
100
AcDbEntity
  8
SCHRAFF
100
AcDbCircle
 10
178.9437983540404
 20
489.6816628473372
 30
0.0
 40
3.0
100
AcDbArc
 50
162.4902587344857
 51
263.3146652873485
  0
ARC
  5
2A6
330
1E
100
AcDbEntity
  8
STEMPEL
100
AcDbCircle
 10
179.8775550837808
 20
497.6269821215805
 30
0.0
 40
8.0
100
AcDbArc
 50
210.0000000000005
 51
270.0
  0
ARC
  5
2A7
330
1E
100
AcDbEntity
  8
STEMPEL
100
AcDbCircle
 10
179.8775550837808
 20
497.6269821215805
 30
0.0
 40
6.0
100
AcDbArc
 50
210.0000000000005
 51
270.0
  0
LINE
  5
2A8
102
{ACAD_REACTORS
330
5A2
102
}
330
1E
100
AcDbEntity
  8
STEMPEL
100
AcDbLine
 10
177.4132138665463
 20
488.833246011906
 30
0.0
 11
181.4094109379403
 21
481.6239156556354
 31
0.0
  0
LINE
  5
2A9
102
{ACAD_REACTORS
330
5A2
102
}
330
1E
100
AcDbEntity
  8
STEMPEL
100
AcDbLine
 10
178.9437983540404
 20
489.6816628473371
 30
0.0
 11
182.9399954254344
 21
482.4723324910665
 31
0.0
  0
ARC
  5
2AB
102
{ACAD_REACTORS
330
5A2
102
}
330
1E
100
AcDbEntity
  8
STEMPEL
100
AcDbCircle
 10
197.4437983540403
 20
399.084922986542
 30
0.0
 40
13.25
100
AcDbArc
 50
180.0
 51
216.3598213248436
  0
ARC
  5
2AC
102
{ACAD_REACTORS
330
5A2
102
}
330
1E
100
AcDbEntity
  8
STEMPEL
100
AcDbCircle
 10
197.4437983540403
 20
399.084922986542
 30
0.0
 40
15.0
100
AcDbArc
 50
180.0
 51
216.3598213248436
  0
ARC
  5
2B0
102
{ACAD_REACTORS
330
5A2
102
}
330
1E
100
AcDbEntity
  8
STEMPEL
100
AcDbCircle
 10
174.6937983540403
 20
382.3367887620977
 30
0.0
 40
13.25
100
AcDbArc
 50
0.0
 51
36.3598213248436
  0
ARC
  5
2B1
102
{ACAD_REACTORS
330
5A2
102
}
330
1E
100
AcDbEntity
  8
STEMPEL
100
AcDbCircle
 10
174.6937983540403
 20
382.3367887620977
 30
0.0
 40
15.0
100
AcDbArc
 50
0.0
 51
36.3598213248436
  0
LINE
  5
2B3
102
{ACAD_REACTORS
330
5A2
102
}
330
1E
100
AcDbEntity
  8
STEMPEL
100
AcDbLine
 10
184.1937983540404
 20
477.6242362886032
 30
0.0
 11
184.1937983540404
 21
399.084922986542
 31
0.0
  0
LINE
  5
2B4
102
{ACAD_REACTORS
330
5A2
102
}
330
1E
100
AcDbEntity
  8
STEMPEL
100
AcDbLine
 10
182.4437983540404
 20
477.6242362886032
 30
0.0
 11
182.4437983540404
 21
399.084922986542
 31
0.0
  0
LINE
  5
2B6
330
1E
100
AcDbEntity
  8
STEMPEL
100
AcDbLine
 10
165.4437983540404
 20
510.6269821215805
 30
0.0
 11
166.581923448959
 21
516.4821281493214
 31
0.0
  0
LINE
  5
2B7
330
1E
100
AcDbEntity
  8
STEMPEL
100
AcDbLine
 10
167.4437983540404
 20
510.4344040251854
 30
0.0
 11
168.5451778158544
 21
516.1005101585683
 31
0.0
  0
DIMENSION
  5
2B8
330
1E
100
AcDbEntity
  8
BEM
100
AcDbDimension
  2
*D1
 10
68.4936106578657
 20
363.6269821215814
 30
0.0
 11
61.99361065786565
 21
443.626982121581
 31
0.0
 70
    32
 71
     5
 42
159.9999999999991
  3
Standard
100
AcDbAlignedDimension
 13
73.94379835404015
 23
523.6269821215805
 33
0.0
 14
158.9437983540403
 24
363.6269821215813
 34
0.0
 50
270.0
100
AcDbRotatedDimension
1001
ACAD
1000
DSTYLE
1002
{
1070
    40
1040
2.0
1070
    41
1040
3.5
1070
    42
1040
1.0
1070
    43
1040
7.0
1070
    44
1040
1.0
1070
    73
1070
     0
1070
    74
1070
     0
1070
    77
1070
     1
1070
    78
1070
     8
1070
    79
1070
     2
1070
   140
1040
3.5
1070
   141
1040
1.5
1070
   146
1040
0.5142857142857144
1070
   147
1040
1.5
1070
   172
1070
     1
1070
   178
1070
     1
1070
   179
1070
     2
1070
   271
1070
     2
1070
   272
1070
     2
1070
   284
1070
     8
1070
   285
1070
     8
1070
   286
1070
     8
1002
}
  0
DIMENSION
  5
2B9
330
1E
100
AcDbEntity
  8
BEM
100
AcDbDimension
  2
*D2
 10
68.49361065786573
 20
523.6269821215805
 30
0.0
 11
68.49361065786564
 21
544.4936487882473
 31
0.0
 70
   160
 71
     5
 42
2.0
  3
Standard
100
AcDbAlignedDimension
 13
73.94379835404015
 23
525.6269821215806
 33
0.0
 14
73.94379835404015
 24
523.6269821215805
 34
0.0
 50
270.0
100
AcDbRotatedDimension
1001
ACAD
1000
DSTYLE
1002
{
1070
    40
1040
2.0
1070
    41
1040
3.5
1070
    42
1040
1.0
1070
    43
1040
7.0
1070
    44
1040
1.0
1070
    73
1070
     0
1070
    74
1070
     0
1070
    77
1070
     1
1070
    78
1070
     8
1070
    79
1070
     2
1070
   140
1040
3.5
1070
   141
1040
1.5
1070
   146
1040
0.5142857142857144
1070
   147
1040
1.5
1070
   172
1070
     1
1070
   178
1070
     1
1070
   179
1070
     2
1070
   271
1070
     2
1070
   272
1070
     2
1070
   284
1070
     8
1070
   285
1070
     8
1070
   286
1070
     8
1002
}
  0
LINE
  5
2BC
102
{ACAD_REACTORS
330
5A2
102
}
330
1E
100
AcDbEntity
  8
STEMPEL
100
AcDbLine
 10
189.6937983540404
 20
263.7359331811016
 30
0.0
 11
190.7074172364807
 21
255.6269821215804
 31
0.0
  0
LINE
  5
2BD
102
{ACAD_REACTORS
330
5A2
102
}
330
1E
100
AcDbEntity
  8
STEMPEL
100
AcDbLine
 10
187.9437983540404
 20
263.6269821215795
 30
0.0
 11
188.9437983540403
 21
255.6269821215804
 31
0.0
  0
LINE
  5
2BE
330
1E
100
AcDbEntity
  8
MITTEL
100
AcDbLine
 10
238.9437983540404
 20
530.6269821215805
 30
0.0
 11
238.9437983540404
 21
250.6269821215805
 31
0.0
  0
DIMENSION
  5
2BF
330
1E
100
AcDbEntity
  8
BEM
100
AcDbDimension
  2
*D3
 10
54.42975649335767
 20
525.6269821215806
 30
0.0
 11
47.92975649335757
 21
390.6269821215806
 31
0.0
 70
    32
 71
     5
 42
270.0
  3
Standard
100
AcDbAlignedDimension
 13
189.2561283069292
 23
255.6269821215806
 33
0.0
 14
73.94379835404015
 24
525.6269821215806
 34
0.0
 50
270.0
100
AcDbRotatedDimension
1001
ACAD
1000
DSTYLE
1002
{
1070
    40
1040
2.0
1070
    41
1040
3.5
1070
    42
1040
1.0
1070
    43
1040
7.0
1070
    44
1040
1.0
1070
    73
1070
     0
1070
    74
1070
     0
1070
    77
1070
     1
1070
    78
1070
     8
1070
    79
1070
     2
1070
   140
1040
3.5
1070
   141
1040
1.5
1070
   146
1040
0.5142857142857144
1070
   147
1040
1.5
1070
   172
1070
     1
1070
   178
1070
     1
1070
   179
1070
     2
1070
   271
1070
     2
1070
   272
1070
     2
1070
   284
1070
     8
1070
   285
1070
     8
1070
   286
1070
     8
1002
}
  0
LINE
  5
2C0
102
{ACAD_REACTORS
330
5A2
102
}
330
1E
100
AcDbEntity
  8
STEMPEL
100
AcDbLine
 10
189.6937983540404
 20
382.3367887620977
 30
0.0
 11
189.6937983540404
 21
263.7359331811016
 31
0.0
  0
LINE
  5
2C1
102
{ACAD_REACTORS
330
5A2
330
605
102
}
330
1E
100
AcDbEntity
  8
STEMPEL
100
AcDbLine
 10
187.9437983540404
 20
382.3367887620977
 30
0.0
 11
187.9437983540404
 21
263.6269821215795
 31
0.0
  0
LINE
  5
2C2
330
1E
100
AcDbEntity
  8
HILF
100
AcDbLine
 10
170.6921603482731
 20
517.6269821215806
 30
0.0
 11
307.1954363598086
 21
517.6269821215806
 31
0.0
  0
LINE
  5
2C3
330
1E
100
AcDbEntity
  8
STEMPEL
100
AcDbLine
 10
73.94379835404038
 20
525.6269821215806
 30
0.0
 11
403.9437983540405
 21
525.6269821215806
 31
0.0
  0
LINE
  5
2C4
330
1E
100
AcDbEntity
  8
STEMPEL
100
AcDbLine
 10
179.8775550837808
 20
489.6269821215805
 30
0.0
 11
298.0100416242997
 21
489.6269821215806
 31
0.0
  0
LINE
  5
2C5
330
1E
100
AcDbEntity
  8
STEMPEL
100
AcDbLine
 10
179.8775550837808
 20
491.6269821215805
 30
0.0
 11
298.0100416242997
 21
491.6269821215807
 31
0.0
  0
DIMENSION
  5
2C6
330
1E
100
AcDbEntity
  8
BEM
100
AcDbDimension
  2
*D4
 10
403.9437983540405
 20
554.5420468141087
 30
0.0
 11
238.9437983540405
 21
561.0420468141087
 31
0.0
 70
    32
  1
%%c<>
 71
     5
 42
330.0000000000002
  3
Standard
100
AcDbAlignedDimension
 13
73.94379835404038
 23
525.6269821215806
 33
0.0
 14
403.9437983540405
 24
525.6269821215806
 34
0.0
100
AcDbRotatedDimension
1001
ACAD
1000
DSTYLE
1002
{
1070
    40
1040
2.0
1070
    41
1040
3.5
1070
    42
1040
1.0
1070
    43
1040
7.0
1070
    44
1040
1.0
1070
    73
1070
     0
1070
    74
1070
     0
1070
    77
1070
     1
1070
    78
1070
     8
1070
    79
1070
     2
1070
   140
1040
3.5
1070
   141
1040
1.5
1070
   146
1040
0.5142857142857144
1070
   147
1040
1.5
1070
   172
1070
     1
1070
   178
1070
     1
1070
   179
1070
     2
1070
   271
1070
     2
1070
   272
1070
     2
1070
   284
1070
     8
1070
   285
1070
     8
1070
   286
1070
     8
1002
}
  0
LINE
  5
2C7
330
1E
100
AcDbEntity
  8
HILF
100
AcDbLine
 10
169.4812317439509
 20
510.4344040251854
 30
0.0
 11
308.4063649641298
 21
510.4344040251854
 31
0.0
  0
LINE
  5
2C8
330
1E
100
AcDbEntity
  8
HILF
100
AcDbLine
 10
169.753199430799
 20
507.1628805064428
 30
0.0
 11
308.1343972772818
 21
507.1628805064428
 31
0.0
  0
DIMENSION
  5
2C9
330
1E
100
AcDbEntity
  8
BEM
100
AcDbDimension
  2
*D5
 10
289.9437983540406
 20
235.5539427977299
 30
0.0
 11
238.9437983540405
 21
242.0539427977299
 31
0.0
 70
    32
  1
%%c<>
 71
     5
 42
102.0000000000002
  3
Standard
100
AcDbAlignedDimension
 13
187.9437983540404
 23
263.6269821215805
 33
0.0
 14
289.9437983540406
 24
263.6269821215805
 34
0.0
100
AcDbRotatedDimension
1001
ACAD
1000
DSTYLE
1002
{
1070
    40
1040
2.0
1070
    41
1040
3.5
1070
    42
1040
1.0
1070
    43
1040
7.0
1070
    44
1040
1.0
1070
    73
1070
     0
1070
    74
1070
     0
1070
    77
1070
     1
1070
    78
1070
     8
1070
    79
1070
     2
1070
   140
1040
3.5
1070
   141
1040
1.5
1070
   146
1040
0.5142857142857144
1070
   147
1040
1.5
1070
   172
1070
     1
1070
   178
1070
     1
1070
   179
1070
     2
1070
   271
1070
     2
1070
   272
1070
     2
1070
   284
1070
     8
1070
   285
1070
     8
1070
   286
1070
     8
1002
}
  0
HATCH
  5
2CB
330
1E
100
AcDbEntity
  8
SCHRAFF
100
AcDbHatch
 10
0.0
 20
0.0
 30
0.0
210
0.0
220
0.0
230
1.0
  2
_U
 70
     0
 71
     0
 91
        2
 92
        7
 72
     1
 73
     1
 93
        4
 10
177.4132138665463
 20
488.833246011906
 42
0.0
 10
178.9437983540402
 20
489.6816628473371
 42
-0.0945887848327609
 10
176.0828009185818
 20
490.5842666775416
 42
0.4706943623819248
 10
178.594548782778
 20
486.7020614080549
 42
0.0
 97
        0
 92
        7
 72
     1
 73
     1
 93
        4
 10
298.9437983540404
 20
489.6816628473371
 42
0.0
 10
300.4743828415344
 20
488.833246011906
 42
0.0
 10
299.2930479253029
 20
486.7020614080549
 42
0.4706943623819164
 10
301.8047957894989
 20
490.5842666775417
 42
-0.094588784832762
 97
        0
 75
     0
 76
     0
 52
45.0
 41
0.1
 77
     0
 78
     1
 53
45.0
 43
-141.9218935219842
 44
49.29789295326532
 45
-0.0707106781186548
 46
0.0707106781186548
 79
     0
 47
0.1677087970855708
 98
        2
 10
177.3176922893199
 20
488.7936683327309
 10
301.0013881721434
 20
489.4645037911597
  0
DIMENSION
  5
2CC
330
1E
100
AcDbEntity
  8
BEM
100
AcDbDimension
  2
*D6
 10
318.9437983540403
 20
219.5539427977299
 30
0.0
 11
238.9437983540403
 21
226.0539427977299
 31
0.0
 70
    32
  1
%%c<>
 71
     5
 42
159.9999999999999
  3
Standard
100
AcDbAlignedDimension
 13
158.9437983540403
 23
363.6269821215813
 33
0.0
 14
318.9437983540403
 24
363.6269821215808
 34
0.0
100
AcDbRotatedDimension
1001
ACAD
1000
DSTYLE
1002
{
1070
    40
1040
2.0
1070
    41
1040
3.5
1070
    42
1040
1.0
1070
    43
1040
7.0
1070
    44
1040
1.0
1070
    73
1070
     0
1070
    74
1070
     0
1070
    77
1070
     1
1070
    78
1070
     8
1070
    79
1070
     2
1070
   140
1040
3.5
1070
   141
1040
1.5
1070
   146
1040
0.5142857142857144
1070
   147
1040
1.5
1070
   172
1070
     1
1070
   178
1070
     1
1070
   179
1070
     2
1070
   271
1070
     2
1070
   272
1070
     2
1070
   284
1070
     8
1070
   285
1070
     8
1070
   286
1070
     8
1002
}
  0
LINE
  5
2CE
330
1E
100
AcDbEntity
  8
HILF
100
AcDbLine
 10
191.4574172364807
 20
263.7359331811017
 30
0.0
 11
286.4437983540404
 21
263.7359331811017
 31
0.0
  0
LINE
  5
2CF
102
{ACAD_REACTORS
330
5A2
102
}
330
1E
100
AcDbEntity
  8
STEMPEL
100
AcDbLine
 10
188.9437983540403
 20
255.6269821215804
 30
0.0
 11
288.9437983540404
 21
255.6269821215805
 31
0.0
  0
LINE
  5
2D1
330
1E
100
AcDbEntity
  8
HILF
100
AcDbLine
 10
191.0785949688049
 20
387.0168159914263
 30
0.0
 11
286.8090017392757
 21
387.0168159914263
 31
0.0
  0
LINE
  5
2D2
330
1E
100
AcDbEntity
  8
HILF
100
AcDbLine
 10
188.1278982226517
 20
394.9508989339685
 30
0.0
 11
289.759698485429
 21
394.9508989339685
 31
0.0
  0
LINE
  5
2D3
330
1E
100
AcDbEntity
  8
HILF
100
AcDbLine
 10
187.2358280452781
 20
480.1280363291476
 30
0.0
 11
290.6517686628026
 21
480.1280363291477
 31
0.0
  0
DIMENSION
  5
3B8
330
1E
100
AcDbEntity
  8
BEM
100
AcDbDimension
  2
*D7
 10
333.9437983540404
 20
538.8449704177523
 30
0.0
 11
238.9437983540404
 21
545.3449704177524
 31
0.0
 70
    32
  1
%%c<>
 71
     5
 42
190.0
  3
Standard
100
AcDbAlignedDimension
 13
143.9437983540404
 23
523.6269821215813
 33
0.0
 14
333.9437983540404
 24
523.6269821215813
 34
0.0
100
AcDbRotatedDimension
1001
ACAD
1000
DSTYLE
1002
{
1070
    40
1040
2.0
1070
    41
1040
3.5
1070
    42
1040
1.0
1070
    43
1040
7.0
1070
    44
1040
1.0
1070
    73
1070
     0
1070
    74
1070
     0
1070
    77
1070
     1
1070
    78
1070
     8
1070
    79
1070
     2
1070
   140
1040
3.5
1070
   141
1040
1.5
1070
   146
1040
0.5142857142857144
1070
   147
1040
1.5
1070
   172
1070
     1
1070
   178
1070
     1
1070
   179
1070
     2
1070
   271
1070
     2
1070
   272
1070
     2
1070
   284
1070
     8
1070
   285
1070
     8
1070
   286
1070
     8
1002
}
  0
TEXT
  5
4C5
330
1E
100
AcDbEntity
  8
TEXT
 62
     1
100
AcDbText
 10
228.1163164199674
 20
321.0170859789017
 30
0.0
 40
7.0
  1
DN100
 50
90.0
 41
0.8
  7
GREEKS
100
AcDbText
  0
TEXT
  5
4CD
330
1E
100
AcDbEntity
  8
TEXT
 62
     1
100
AcDbText
 10
179.2949556055059
 20
156.7091225476518
 30
0.0
 40
7.0
  1
Werkstoff: AlMn1, W 10, DIN 1725+1746/1+1795
 41
0.8
  7
GREEKS
100
AcDbText
  0
TEXT
  5
4CE
330
1E
100
AcDbEntity
  8
TEXT
 62
     1
100
AcDbText
 10
227.2106426147046
 20
145.6793881422095
 30
0.0
 40
7.0
  1
pulverbeschichtet
 41
0.8
  7
GREEKS
100
AcDbText
  0
TEXT
  5
4CF
330
1E
100
AcDbEntity
  8
TEXT
 62
     1
100
AcDbText
 10
176.16406223909
 20
128.7298751110055
 30
0.0
 40
7.0
  1
Dämmung: Styropor SE WLG 0,35
 41
0.8
  7
GREEKS
100
AcDbText
  0
HATCH
  5
4F5
330
1E
100
AcDbEntity
  8
SCHRAFF
100
AcDbHatch
 10
0.0
 20
0.0
 30
0.0
210
0.0
220
0.0
230
1.0
  2
_USER
 70
     0
 71
     0
 91
        2
 92
        7
 72
     1
 73
     1
 93
       16
 10
403.9437983540405
 20
523.6269821215805
 42
0.0
 10
403.9437983540405
 20
525.6269821215806
 42
0.0
 10
317.1954363598074
 20
525.6269821215806
 42
0.4716306187712067
 10
309.3424188922263
 20
516.1005101585683
 42
0.0
 10
310.4437983540401
 20
510.4344040251852
 42
0.0
 10
310.4437983540401
 20
507.1628805064428
 42
0.0
 10
303.2061940470062
 20
494.6269821215805
 42
-0.2679491924311137
 10
298.0100416242997
 20
491.6269821215807
 42
0.0
 10
296.4437983540402
 20
491.6269821215807
 42
0.0
 10
296.4437983540401
 20
489.6269821215806
 42
0.0
 10
298.0100416242997
 20
489.6269821215806
 42
0.267949192431123
 10
304.9382448545753
 20
493.6269821215805
 42
0.0
 10
312.4437983540403
 20
506.6269821215806
 42
0.0
 10
312.4437983540403
 20
510.6269821215796
 42
0.0
 10
311.3056732591217
 20
516.4821281493214
 42
-0.4716306187712073
 10
317.1954363598075
 20
523.6269821215806
 42
0.0
 97
        0
 92
        7
 72
     1
 73
     1
 93
       16
 10
160.6921603482731
 20
523.6269821215806
 42
-0.4716306187712189
 10
166.581923448959
 20
516.4821281493214
 42
0.0
 10
165.4437983540404
 20
510.6269821215809
 42
0.0
 10
165.4437983540405
 20
506.6269821215802
 42
0.0
 10
172.9493518535055
 20
493.6269821215805
 42
0.2679491924311224
 10
179.877555083781
 20
489.6269821215805
 42
0.0
 10
181.4437983540404
 20
489.6269821215806
 42
0.0
 10
181.4437983540404
 20
491.6269821215804
 42
0.0
 10
179.8775550837808
 20
491.6269821215805
 42
-0.2679491924311179
 10
174.6814026610743
 20
494.6269821215805
 42
0.0
 10
167.4437983540403
 20
507.1628805064428
 42
0.0
 10
167.4437983540403
 20
510.4344040251852
 42
0.0
 10
168.5451778158544
 20
516.1005101585683
 42
0.4716306187712163
 10
160.6921603482731
 20
525.6269821215806
 42
0.0
 10
73.94379835404038
 20
525.6269821215806
 42
0.0
 10
73.94379835404038
 20
523.6269821215805
 42
0.0
 97
        0
 75
     0
 76
     0
 52
135.0
 41
2.0
 77
     0
 78
     1
 53
135.0
 43
0.0
 44
0.0
 45
-1.414213562373095
 46
-1.414213562373094
 79
     0
 47
0.4383356222792637
 98
        2
 10
354.4973723623084
 20
524.4693524851903
 10
127.2798089711659
 20
524.4693524851903
  0
LINE
  5
541
102
{ACAD_REACTORS
330
605
102
}
330
1E
100
AcDbEntity
  8
STEMPEL
100
AcDbLine
 10
161.6757031065381
 20
363.6269821215811
 30
0.0
 11
187.9437983540404
 21
363.6269821215811
 31
0.0
  0
ARC
  5
542
102
{ACAD_REACTORS
330
605
102
}
330
1E
100
AcDbEntity
  8
STEMPEL
100
AcDbCircle
 10
161.6757031065381
 20
366.6269821215812
 30
0.0
 40
3.0
100
AcDbArc
 50
185.3558250428554
 51
270.0
  0
LINE
  5
545
102
{ACAD_REACTORS
330
605
102
}
330
1E
100
AcDbEntity
  8
STEMPEL
100
AcDbLine
 10
143.9437983540403
 20
523.6269821215812
 30
0.0
 11
158.6888004283602
 21
366.3469599955019
 31
0.0
  0
LINE
  5
548
102
{ACAD_REACTORS
330
605
102
}
330
1E
100
AcDbEntity
  8
STEMPEL
100
AcDbLine
 10
333.9437983540403
 20
523.6269821215812
 30
0.0
 11
319.1987962797203
 21
366.3469599955019
 31
0.0
  0
ARC
  5
54C
102
{ACAD_REACTORS
330
605
102
}
330
1E
100
AcDbEntity
  8
STEMPEL
100
AcDbCircle
 10
316.2118936015425
 20
366.6269821215812
 30
0.0
 40
3.0
100
AcDbArc
 50
270.0
 51
354.6441749571445
  0
LINE
  5
55C
102
{ACAD_REACTORS
330
605
102
}
330
1E
100
AcDbEntity
  8
STEMPEL
100
AcDbLine
 10
289.9437983540404
 20
363.6269821215807
 30
0.0
 11
316.2118936015425
 21
363.6269821215805
 31
0.0
  0
HATCH
  5
5A2
330
1E
100
AcDbEntity
  8
SCHRAFF
100
AcDbHatch
 10
0.0
 20
0.0
 30
0.0
210
0.0
220
0.0
230
1.0
  2
_USER
 70
     0
 71
     1
 91
        2
 92
        7
 72
     1
 73
     1
 93
       16
 10
295.4437983540404
 20
477.6242362886032
 42
-0.1272160680010472
 10
296.4781857701404
 20
481.6239156556355
 42
0.0
 10
300.4743828415343
 20
488.833246011906
 42
0.0
 10
298.9437983540404
 20
489.6816628473372
 42
0.0
 10
294.9476012826465
 20
482.4723324910665
 42
0.1272160680010512
 10
293.6937983540404
 20
477.6242362886029
 42
0.0
 10
293.6937983540406
 20
399.084922986542
 42
-0.1599942435199939
 10
291.1141523363413
 20
391.2296033945461
 42
0.1599942435199959
 10
288.1937983540404
 20
382.3367887620977
 42
0.0
 10
288.1937983540404
 20
263.7359331811039
 42
0.0
 10
287.1801794716002
 20
255.6269821215805
 42
0.0
 10
288.9437983540404
 20
255.6269821215805
 42
0.0
 10
289.9437983540405
 20
263.6269821215804
 42
0.0
 10
289.9437983540404
 20
382.3367887620977
 42
-0.1599942435199924
 10
292.5234443717394
 20
390.1921083540937
 42
0.1599942435199959
 10
295.4437983540404
 20
399.084922986542
 42
0.0
 97
       16
330
277
330
274
330
272
330
275
330
278
330
286
330
27D
330
282
330
296
330
293
330
2CF
330
294
330
297
330
283
330
27E
330
287
 92
        7
 72
     1
 73
     1
 93
       16
 10
184.1937983540404
 20
477.6242362886032
 42
0.1272160680010447
 10
182.9399954254344
 20
482.4723324910665
 42
0.0
 10
178.9437983540404
 20
489.6816628473372
 42
0.0
 10
177.4132138665463
 20
488.833246011906
 42
0.0
 10
181.4094109379403
 20
481.6239156556354
 42
-0.1272160680010553
 10
182.4437983540404
 20
477.6242362886029
 42
0.0
 10
182.4437983540404
 20
399.084922986542
 42
0.1599942435199947
 10
185.3641523363412
 20
390.1921083540937
 42
-0.1599942435199939
 10
187.9437983540404
 20
382.3367887620977
 42
0.0
 10
187.9437983540404
 20
263.6269821215794
 42
0.0
 10
188.9437983540403
 20
255.6269821215804
 42
0.0
 10
190.7074172364807
 20
255.6269821215804
 42
0.0
 10
189.6937983540404
 20
263.7359331811014
 42
0.0
 10
189.6937983540404
 20
382.3367887620977
 42
0.1599942435199947
 10
186.7734443717395
 20
391.229603394546
 42
-0.1599942435199937
 10
184.1937983540404
 20
399.084922986542
 42
0.0
 97
       16
330
29F
330
2A9
330
2A4
330
2A8
330
29E
330
2B4
330
2AC
330
2B0
330
2C1
330
2BD
330
2CF
330
2BC
330
2C0
330
2B1
330
2AB
330
2B3
 75
     0
 76
     0
 52
45.0
 41
2.0
 77
     0
 78
     1
 53
45.0
 43
0.0
 44
0.0
 45
-1.414213562373094
 46
1.414213562373095
 79
     0
 47
0.3421652793267447
 98
        2
 10
294.9304801332673
 20
444.4581711452199
 10
183.3452974998668
 20
445.8268327673463
  0
LINE
  5
5BE
102
{ACAD_REACTORS
330
605
102
}
330
1E
100
AcDbEntity
  8
STEMPEL
100
AcDbLine
 10
289.9437983540403
 20
369.826982121581
 30
0.0
 11
301.4437983540403
 21
383.6269821215806
 31
0.0
  0
LINE
  5
5BF
330
1E
100
AcDbEntity
  8
STEMPEL
100
AcDbLine
 10
176.4437983540402
 20
383.6269821215812
 30
0.0
 11
187.8808336954332
 21
383.6269821215812
 31
0.0
  0
LINE
  5
5C0
102
{ACAD_REACTORS
330
605
102
}
330
1E
100
AcDbEntity
  8
STEMPEL
100
AcDbLine
 10
301.4437983540403
 20
453.6269821215801
 30
0.0
 11
301.4437983540403
 21
383.6269821215806
 31
0.0
  0
LINE
  5
5C1
102
{ACAD_REACTORS
330
605
102
}
330
1E
100
AcDbEntity
  8
STEMPEL
100
AcDbLine
 10
312.4437983540401
 20
473.626982121581
 30
0.0
 11
301.4437983540403
 21
453.6269821215801
 31
0.0
  0
LINE
  5
5C2
330
1E
100
AcDbEntity
  8
STEMPEL
100
AcDbLine
 10
176.4437983540403
 20
453.6269821215809
 30
0.0
 11
182.4437983540404
 21
453.6269821215809
 31
0.0
  0
LINE
  5
5C3
102
{ACAD_REACTORS
330
605
102
}
330
1E
100
AcDbEntity
  8
STEMPEL
100
AcDbLine
 10
312.4437983540401
 20
473.626982121581
 30
0.0
 11
312.4437983540403
 21
518.6269821215812
 31
0.0
  0
LINE
  5
5C4
102
{ACAD_REACTORS
330
605
102
}
330
1E
100
AcDbEntity
  8
STEMPEL
100
AcDbLine
 10
318.9437983540403
 20
523.6269821215812
 30
0.0
 11
312.4437983540403
 21
518.6269821215812
 31
0.0
  0
LINE
  5
5C5
330
1E
100
AcDbEntity
  8
STEMPEL
100
AcDbLine
 10
165.4437983540405
 20
473.626982121581
 30
0.0
 11
182.4437983540404
 21
473.626982121581
 31
0.0
  0
LINE
  5
5C6
330
1E
100
AcDbEntity
  8
STEMPEL
100
AcDbLine
 10
165.4437983540403
 20
518.6269821215812
 30
0.0
 11
166.6082401313726
 21
518.6269821215812
 31
0.0
  0
LINE
  5
5C7
102
{ACAD_REACTORS
330
605
102
}
330
1E
100
AcDbEntity
  8
STEMPEL
100
AcDbLine
 10
165.4437983540405
 20
473.626982121581
 30
0.0
 11
176.4437983540403
 21
453.6269821215809
 31
0.0
  0
LINE
  5
5C8
102
{ACAD_REACTORS
330
605
102
}
330
1E
100
AcDbEntity
  8
STEMPEL
100
AcDbLine
 10
187.9437983540403
 20
369.8269821215809
 30
0.0
 11
176.4437983540403
 21
383.6269821215806
 31
0.0
  0
LINE
  5
5C9
102
{ACAD_REACTORS
330
605
102
}
330
1E
100
AcDbEntity
  8
STEMPEL
100
AcDbLine
 10
176.4437983540403
 20
453.6269821215809
 30
0.0
 11
176.4437983540402
 21
383.6269821215812
 31
0.0
  0
LINE
  5
5CA
102
{ACAD_REACTORS
330
605
102
}
330
1E
100
AcDbEntity
  8
STEMPEL
100
AcDbLine
 10
165.4437983540405
 20
473.626982121581
 30
0.0
 11
165.4437983540403
 21
518.6269821215812
 31
0.0
  0
LINE
  5
5CB
102
{ACAD_REACTORS
330
605
102
}
330
1E
100
AcDbEntity
  8
STEMPEL
100
AcDbLine
 10
158.9437983540403
 20
523.6269821215812
 30
0.0
 11
165.4437983540403
 21
518.6269821215812
 31
0.0
  0
LINE
  5
5CC
330
1E
100
AcDbEntity
  8
STEMPEL
100
AcDbLine
 10
311.2793565767079
 20
518.6269821215812
 30
0.0
 11
312.4437983540403
 21
518.6269821215812
 31
0.0
  0
LINE
  5
5CD
330
1E
100
AcDbEntity
  8
STEMPEL
100
AcDbLine
 10
295.4437983540404
 20
473.626982121581
 30
0.0
 11
312.4437983540401
 21
473.626982121581
 31
0.0
  0
LINE
  5
5CE
330
1E
100
AcDbEntity
  8
STEMPEL
100
AcDbLine
 10
295.4437983540404
 20
453.6269821215801
 30
0.0
 11
301.4437983540403
 21
453.6269821215801
 31
0.0
  0
LINE
  5
5CF
330
1E
100
AcDbEntity
  8
STEMPEL
100
AcDbLine
 10
290.0067630126475
 20
383.6269821215807
 30
0.0
 11
301.4437983540403
 21
383.6269821215806
 31
0.0
  0
HATCH
  5
605
330
1E
100
AcDbEntity
  8
SCHRAFF
100
AcDbHatch
 10
0.0
 20
0.0
 30
0.0
210
0.0
220
0.0
230
1.0
  2
HONEY
 70
     0
 71
     1
 91
        2
 92
        7
 72
     1
 73
     1
 93
       10
 10
301.4437983540402
 20
383.6269821215806
 42
0.0
 10
289.9437983540405
 20
369.8269821215811
 42
0.0
 10
289.9437983540405
 20
363.6269821215806
 42
0.0
 10
316.2118936015425
 20
363.6269821215805
 42
0.3870924378343482
 10
319.1987962797203
 20
366.3469599955019
 42
0.0
 10
333.9437983540402
 20
523.6269821215806
 42
0.0
 10
318.9437983540395
 20
523.6269821215806
 42
0.0
 10
312.4437983540403
 20
518.6269821215812
 42
0.0
 10
312.44379835404
 20
473.626982121581
 42
0.0
 10
301.4437983540403
 20
453.6269821215801
 42
0.0
 97
       10
330
26E
330
5C4
330
5C3
330
5C1
330
5C0
330
5BE
330
297
330
55C
330
54C
330
548
 92
        7
 72
     1
 73
     1
 93
       10
 10
158.6888004283602
 20
366.3469599955019
 42
0.387092437834293
 10
161.6757031065381
 20
363.6269821215811
 42
0.0
 10
187.9437983540404
 20
363.6269821215811
 42
0.0
 10
187.9437983540403
 20
369.8269821215809
 42
0.0
 10
176.4437983540403
 20
383.6269821215808
 42
0.0
 10
176.4437983540403
 20
453.6269821215809
 42
0.0
 10
165.4437983540405
 20
473.6269821215811
 42
0.0
 10
165.4437983540403
 20
518.6269821215811
 42
0.0
 10
158.9437983540409
 20
523.6269821215806
 42
0.0
 10
143.9437983540403
 20
523.6269821215808
 42
0.0
 97
       10
330
5C7
330
5CA
330
5CB
330
29C
330
545
330
542
330
541
330
2C1
330
5C8
330
5C9
 75
     0
 76
     1
 52
0.0
 41
35.0
 77
     0
 78
     3
 53
0.0
 43
0.0
 44
0.0
 45
6.5625
 46
3.788861124999999
 79
     2
 49
4.375
 49
-8.75
 53
120.0
 43
0.0
 44
0.0
 45
-6.562499985661285
 46
3.788861149835379
 79
     2
 49
4.375
 49
-8.75
 53
60.0
 43
0.0
 44
0.0
 45
0.000000014338714
 46
7.577722274835378
 79
     2
 49
-8.75
 49
4.375
 47
0.8059667799547835
 98
        2
 10
311.5862731835891
 20
442.0740230609864
 10
164.0443069730975
 20
440.4620892229838
  0
ENDSEC
  0
SECTION
  2
OBJECTS
  0
DICTIONARY
  5
C
330
0
100
AcDbDictionary
281
     1
  3
ACAD_COLOR
350
DF
  3
ACAD_GROUP
350
D
  3
ACAD_LAYOUT
350
19
  3
ACAD_MATERIAL
350
DE
  3
ACAD_MLINESTYLE
350
16
  3
ACAD_PLOTSETTINGS
350
18
  3
ACAD_PLOTSTYLENAME
350
E
  3
AcDbVariableDictionary
350
EA
  0
DICTIONARY
  5
A0
330
1E
100
AcDbDictionary
280
     1
281
     1
  3
ACAD_LAYOUTSELFREF
360
D4
  0
DICTIONARY
  5
A2
330
1A
100
AcDbDictionary
280
     1
281
     1
  3
ACAD_LAYOUTSELFREF
360
D3
  0
DICTIONARY
  5
DF
102
{ACAD_REACTORS
330
C
102
}
330
C
100
AcDbDictionary
281
     1
  0
DICTIONARY
  5
D
102
{ACAD_REACTORS
330
C
102
}
330
C
100
AcDbDictionary
281
     1
  0
DICTIONARY
  5
19
102
{ACAD_REACTORS
330
C
102
}
330
C
100
AcDbDictionary
281
     1
  3
Layout1
350
1D
  3
Model
350
21
  0
DICTIONARY
  5
DE
102
{ACAD_REACTORS
330
C
102
}
330
C
100
AcDbDictionary
281
     1
  0
DICTIONARY
  5
16
102
{ACAD_REACTORS
330
C
102
}
330
C
100
AcDbDictionary
281
     1
  3
Standard
350
17
  0
DICTIONARY
  5
18
102
{ACAD_REACTORS
330
C
102
}
330
C
100
AcDbDictionary
281
     1
  0
ACDBDICTIONARYWDFLT
  5
E
102
{ACAD_REACTORS
330
C
102
}
330
C
100
AcDbDictionary
281
     1
  3
Normal
350
F
100
AcDbDictionaryWithDefault
340
F
  0
DICTIONARY
  5
EA
102
{ACAD_REACTORS
330
C
102
}
330
C
100
AcDbDictionary
281
     1
  3
DIMASSOC
350
EB
  3
PROJECTNAME
350
EC
  0
XRECORD
  5
D4
102
{ACAD_REACTORS
330
A0
102
}
330
A0
100
AcDbXrecord
280
     1
340
1E
  0
XRECORD
  5
D3
102
{ACAD_REACTORS
330
A2
102
}
330
A2
100
AcDbXrecord
280
     1
340
1A
  0
LAYOUT
  5
1D
102
{ACAD_REACTORS
330
19
102
}
330
19
100
AcDbPlotSettings
  1

  2
\\NT_WORK01\HP LaserJet 5000 PCL 6
  4

  6

 40
0.0
 41
0.0
 42
0.0
 43
0.0
 44
0.0
 45
0.0
 46
0.0
 47
0.0
 48
0.0
 49
0.0
140
0.0
141
0.0
142
1.0
143
1.0
 70
   688
 72
     0
 73
     0
 74
     5
  7

 75
    16
147
1.0
 76
     0
 77
     2
 78
   300
148
0.0
149
0.0
100
AcDbLayout
  1
Layout1
 70
     0
 71
     1
 10
0.0
 20
0.0
 11
12.0
 21
9.0
 12
0.0
 22
0.0
 32
0.0
 14
1.000000000000000E+20
 24
1.000000000000000E+20
 34
1.000000000000000E+20
 15
-1.000000000000000E+20
 25
-1.000000000000000E+20
 35
-1.000000000000000E+20
146
0.0
 13
0.0
 23
0.0
 33
0.0
 16
1.0
 26
0.0
 36
0.0
 17
0.0
 27
1.0
 37
0.0
 76
     0
330
1A
  0
LAYOUT
  5
21
102
{ACAD_REACTORS
330
19
102
}
330
19
100
AcDbPlotSettings
  1

  2
\\NT_WORK01\HP LaserJet 5000 PCL 6
  4

  6

 40
0.0
 41
0.0
 42
0.0
 43
0.0
 44
0.0
 45
0.0
 46
0.0
 47
0.0
 48
0.0
 49
0.0
140
0.0
141
0.0
142
1.0
143
1.0
 70
  1712
 72
     0
 73
     0
 74
     0
  7

 75
     0
147
1.0
 76
     0
 77
     2
 78
   300
148
0.0
149
0.0
100
AcDbLayout
  1
Model
 70
     1
 71
     0
 10
0.0
 20
0.0
 11
12.0
 21
9.0
 12
0.0
 22
0.0
 32
0.0
 14
0.0
 24
0.0
 34
0.0
 15
0.0
 25
0.0
 35
0.0
146
0.0
 13
0.0
 23
0.0
 33
0.0
 16
1.0
 26
0.0
 36
0.0
 17
0.0
 27
1.0
 37
0.0
 76
     0
330
1E
  0
MLINESTYLE
  5
17
102
{ACAD_REACTORS
330
16
102
}
330
16
100
AcDbMlineStyle
  2
STANDARD
 70
     0
  3

 62
   256
 51
90.0
 52
90.0
 71
     2
 49
0.5
 62
   256
  6
BYLAYER
 49
-0.5
 62
   256
  6
BYLAYER
  0
ACDBPLACEHOLDER
  5
F
102
{ACAD_REACTORS
330
E
102
}
330
E
  0
DICTIONARYVAR
  5
EB
102
{ACAD_REACTORS
330
EA
102
}
330
EA
100
DictionaryVariables
280
     0
  1
1
  0
DICTIONARYVAR
  5
EC
102
{ACAD_REACTORS
330
EA
102
}
330
EA
100
DictionaryVariables
280
     0
  1

  0
ENDSEC
  0
EOF
