  0
SECTION
  2
HEADER
  9
$ACADVER
  1
AC1018
  9
$ACADMAINTVER
 70
     2
  9
$DWGCODEPAGE
  3
ANSI_1252
  9
$INSBASE
 10
0.0
 20
0.0
 30
0.0
  9
$EXTMIN
 10
-0.0800964177196875
 20
-0.0566396096735389
 30
-0.000000000000013
  9
$EXTMAX
 10
1050.00000489004
 20
742.5000034579571
 30
0.0000000000000023
  9
$LIMMIN
 10
0.0
 20
0.0
  9
$LIMMAX
 10
1050.0
 20
742.4999999999999
  9
$ORTHOMODE
 70
     0
  9
$REGENMODE
 70
     1
  9
$FILLMODE
 70
     1
  9
$QTEXTMODE
 70
     0
  9
$MIRRTEXT
 70
     1
  9
$LTSCALE
 40
25.0
  9
$ATTMODE
 70
     1
  9
$TEXTSIZE
 40
3.5
  9
$TRACEWID
 40
1.0
  9
$TEXTSTYLE
  7
STANDARD
  9
$CLAYER
  8
SCHRAFF
  9
$CELTYPE
  6
ByLayer
  9
$CECOLOR
 62
   256
  9
$CELTSCALE
 40
1.0
  9
$DISPSILH
 70
     0
  9
$DIMSCALE
 40
2.5
  9
$DIMASZ
 40
3.5
  9
$DIMEXO
 40
1.0
  9
$DIMDLI
 40
7.0
  9
$DIMRND
 40
0.0
  9
$DIMDLE
 40
0.0
  9
$DIMEXE
 40
1.0
  9
$DIMTP
 40
0.0
  9
$DIMTM
 40
0.0
  9
$DIMTXT
 40
3.5
  9
$DIMCEN
 40
1.5
  9
$DIMTSZ
 40
0.0
  9
$DIMTOL
 70
     0
  9
$DIMLIM
 70
     0
  9
$DIMTIH
 70
     0
  9
$DIMTOH
 70
     0
  9
$DIMSE1
 70
     0
  9
$DIMSE2
 70
     0
  9
$DIMTAD
 70
     1
  9
$DIMZIN
 70
     8
  9
$DIMBLK
  1

  9
$DIMASO
 70
     1
  9
$DIMSHO
 70
     0
  9
$DIMPOST
  1

  9
$DIMAPOST
  1

  9
$DIMALT
 70
     0
  9
$DIMALTD
 70
     2
  9
$DIMALTF
 40
25.4
  9
$DIMLFAC
 40
1.0
  9
$DIMTOFL
 70
     1
  9
$DIMTVP
 40
0.0
  9
$DIMTIX
 70
     0
  9
$DIMSOXD
 70
     0
  9
$DIMSAH
 70
     0
  9
$DIMBLK1
  1

  9
$DIMBLK2
  1

  9
$DIMSTYLE
  2
Standard
  9
$DIMCLRD
 70
     0
  9
$DIMCLRE
 70
     0
  9
$DIMCLRT
 70
     1
  9
$DIMTFAC
 40
0.5142857142857144
  9
$DIMGAP
 40
1.5
  9
$DIMJUST
 70
     0
  9
$DIMSD1
 70
     0
  9
$DIMSD2
 70
     0
  9
$DIMTOLJ
 70
     1
  9
$DIMTZIN
 70
     8
  9
$DIMALTZ
 70
     8
  9
$DIMALTTZ
 70
     8
  9
$DIMUPT
 70
     0
  9
$DIMDEC
 70
     2
  9
$DIMTDEC
 70
     2
  9
$DIMALTU
 70
     2
  9
$DIMALTTD
 70
     2
  9
$DIMTXSTY
  7
STANDARD
  9
$DIMAUNIT
 70
     0
  9
$DIMADEC
 70
     2
  9
$DIMALTRND
 40
0.0
  9
$DIMAZIN
 70
     2
  9
$DIMDSEP
 70
    46
  9
$DIMATFIT
 70
     3
  9
$DIMFRAC
 70
     0
  9
$DIMLDRBLK
  1

  9
$DIMLUNIT
 70
     2
  9
$DIMLWD
 70
    -2
  9
$DIMLWE
 70
    -2
  9
$DIMTMOVE
 70
     0
  9
$LUNITS
 70
     2
  9
$LUPREC
 70
     2
  9
$SKETCHINC
 40
1.0
  9
$FILLETRAD
 40
0.0
  9
$AUNITS
 70
     0
  9
$AUPREC
 70
     0
  9
$MENU
  1
ACAD
  9
$ELEVATION
 40
0.0
  9
$PELEVATION
 40
0.0
  9
$THICKNESS
 40
0.0
  9
$LIMCHECK
 70
     0
  9
$CHAMFERA
 40
0.0
  9
$CHAMFERB
 40
0.0
  9
$CHAMFERC
 40
0.0
  9
$CHAMFERD
 40
0.0
  9
$SKPOLY
 70
     0
  9
$TDCREATE
 40
2455397.867059838
  9
$TDUCREATE
 40
2455397.783726505
  9
$TDUPDATE
 40
2455463.432891100
  9
$TDUUPDATE
 40
2455463.349557767
  9
$TDINDWG
 40
0.0709202083
  9
$TDUSRTIMER
 40
0.0709202083
  9
$USRTIMER
 70
     1
  9
$ANGBASE
 50
0.0
  9
$ANGDIR
 70
     0
  9
$PDMODE
 70
     0
  9
$PDSIZE
 40
0.0
  9
$PLINEWID
 40
0.0
  9
$SPLFRAME
 70
     0
  9
$SPLINETYPE
 70
     6
  9
$SPLINESEGS
 70
     8
  9
$HANDSEED
  5
1DE5
  9
$SURFTAB1
 70
     6
  9
$SURFTAB2
 70
     6
  9
$SURFTYPE
 70
     6
  9
$SURFU
 70
     6
  9
$SURFV
 70
     6
  9
$UCSBASE
  2

  9
$UCSNAME
  2

  9
$UCSORG
 10
0.0
 20
0.0
 30
0.0
  9
$UCSXDIR
 10
1.0
 20
0.0
 30
0.0
  9
$UCSYDIR
 10
0.0
 20
1.0
 30
0.0
  9
$UCSORTHOREF
  2

  9
$UCSORTHOVIEW
 70
     0
  9
$UCSORGTOP
 10
0.0
 20
0.0
 30
0.0
  9
$UCSORGBOTTOM
 10
0.0
 20
0.0
 30
0.0
  9
$UCSORGLEFT
 10
0.0
 20
0.0
 30
0.0
  9
$UCSORGRIGHT
 10
0.0
 20
0.0
 30
0.0
  9
$UCSORGFRONT
 10
0.0
 20
0.0
 30
0.0
  9
$UCSORGBACK
 10
0.0
 20
0.0
 30
0.0
  9
$PUCSBASE
  2

  9
$PUCSNAME
  2

  9
$PUCSORG
 10
0.0
 20
0.0
 30
0.0
  9
$PUCSXDIR
 10
1.0
 20
0.0
 30
0.0
  9
$PUCSYDIR
 10
0.0
 20
1.0
 30
0.0
  9
$PUCSORTHOREF
  2

  9
$PUCSORTHOVIEW
 70
     0
  9
$PUCSORGTOP
 10
0.0
 20
0.0
 30
0.0
  9
$PUCSORGBOTTOM
 10
0.0
 20
0.0
 30
0.0
  9
$PUCSORGLEFT
 10
0.0
 20
0.0
 30
0.0
  9
$PUCSORGRIGHT
 10
0.0
 20
0.0
 30
0.0
  9
$PUCSORGFRONT
 10
0.0
 20
0.0
 30
0.0
  9
$PUCSORGBACK
 10
0.0
 20
0.0
 30
0.0
  9
$USERI1
 70
     0
  9
$USERI2
 70
     0
  9
$USERI3
 70
     0
  9
$USERI4
 70
     0
  9
$USERI5
 70
     0
  9
$USERR1
 40
0.0
  9
$USERR2
 40
0.0
  9
$USERR3
 40
0.0
  9
$USERR4
 40
0.0
  9
$USERR5
 40
0.0
  9
$WORLDVIEW
 70
     1
  9
$SHADEDGE
 70
     3
  9
$SHADEDIF
 70
    70
  9
$TILEMODE
 70
     1
  9
$MAXACTVP
 70
    16
  9
$PINSBASE
 10
0.0
 20
0.0
 30
0.0
  9
$PLIMCHECK
 70
     0
  9
$PEXTMIN
 10
1.000000000000000E+20
 20
1.000000000000000E+20
 30
1.000000000000000E+20
  9
$PEXTMAX
 10
-1.000000000000000E+20
 20
-1.000000000000000E+20
 30
-1.000000000000000E+20
  9
$PLIMMIN
 10
0.0
 20
0.0
  9
$PLIMMAX
 10
12.0
 20
9.0
  9
$UNITMODE
 70
     0
  9
$VISRETAIN
 70
     0
  9
$PLINEGEN
 70
     0
  9
$PSLTSCALE
 70
     0
  9
$TREEDEPTH
 70
  3020
  9
$CMLSTYLE
  2
Standard
  9
$CMLJUST
 70
     0
  9
$CMLSCALE
 40
1.0
  9
$PROXYGRAPHICS
 70
     1
  9
$MEASUREMENT
 70
     0
  9
$CELWEIGHT
370
    -1
  9
$ENDCAPS
280
     0
  9
$JOINSTYLE
280
     0
  9
$LWDISPLAY
290
     0
  9
$INSUNITS
 70
     0
  9
$HYPERLINKBASE
  1

  9
$STYLESHEET
  1
monochrome 1.ctb
  9
$XEDIT
290
     1
  9
$CEPSNTYPE
380
     0
  9
$PSTYLEMODE
290
     1
  9
$FINGERPRINTGUID
  2
{D68B0D0D-A558-11D7-B632-000102183313}
  9
$VERSIONGUID
  2
{5354C8A0-B879-4048-8F25-37C4C86B3B56}
  9
$EXTNAMES
290
     1
  9
$PSVPSCALE
 40
0.0
  9
$OLESTARTUP
290
     0
  9
$SORTENTS
280
   127
  9
$INDEXCTL
280
     0
  9
$HIDETEXT
280
     0
  9
$XCLIPFRAME
290
     0
  9
$HALOGAP
280
     0
  9
$OBSCOLOR
 70
   257
  9
$OBSLTYPE
280
     0
  9
$INTERSECTIONDISPLAY
280
     0
  9
$INTERSECTIONCOLOR
 70
   257
  9
$DIMASSOC
280
     1
  9
$PROJECTNAME
  1

  0
ENDSEC
  0
SECTION
  2
CLASSES
  0
CLASS
  1
ACDBDICTIONARYWDFLT
  2
AcDbDictionaryWithDefault
  3
ObjectDBX Classes
 90
        0
 91
        1
280
     0
281
     0
  0
CLASS
  1
DICTIONARYVAR
  2
AcDbDictionaryVar
  3
ObjectDBX Classes
 90
        0
 91
        2
280
     0
281
     0
  0
ENDSEC
  0
SECTION
  2
TABLES
  0
TABLE
  2
VPORT
  5
8
330
0
100
AcDbSymbolTable
 70
     2
  0
VPORT
  5
1DE4
330
8
100
AcDbSymbolTableRecord
100
AcDbViewportTableRecord
  2
*Active
 70
     0
 10
0.0
 20
0.0
 11
1.0
 21
1.0
 12
524.95995423616
 22
371.2216819241418
 13
0.0
 23
0.0
 14
1.0
 24
1.0
 15
10.0
 25
10.0
 16
0.0
 26
0.0
 36
1.0
 17
0.0
 27
0.0
 37
0.0
 40
790.1872482879107
 41
1.336927223719676
 42
50.0
 43
0.0
 44
0.0
 50
0.0
 51
0.0
 71
     0
 72
  1500
 73
     1
 74
     0
 75
     0
 76
     0
 77
     0
 78
     0
281
     0
 65
     1
110
0.0
120
0.0
130
0.0
111
1.0
121
0.0
131
0.0
112
0.0
122
1.0
132
0.0
 79
     0
146
0.0
  0
ENDTAB
  0
TABLE
  2
LTYPE
  5
5
330
0
100
AcDbSymbolTable
 70
     2
  0
LTYPE
  5
13
330
5
100
AcDbSymbolTableRecord
100
AcDbLinetypeTableRecord
  2
ByBlock
 70
     0
  3

 72
    65
 73
     0
 40
0.0
  0
LTYPE
  5
14
330
5
100
AcDbSymbolTableRecord
100
AcDbLinetypeTableRecord
  2
ByLayer
 70
     0
  3

 72
    65
 73
     0
 40
0.0
  0
LTYPE
  5
15
330
5
100
AcDbSymbolTableRecord
100
AcDbLinetypeTableRecord
  2
Continuous
 70
     0
  3
Solid line
 72
    65
 73
     0
 40
0.0
  0
LTYPE
  5
25
330
5
100
AcDbSymbolTableRecord
100
AcDbLinetypeTableRecord
  2
STRICHPUNKT
 70
     0
  3
__ . __ . __ . __ . __ . __ . __ . __ . __ . __
 72
    65
 73
     4
 40
1.0
 49
0.5
 74
     0
 49
-0.25
 74
     0
 49
0.0
 74
     0
 49
-0.25
 74
     0
  0
ENDTAB
  0
TABLE
  2
LAYER
  5
2
330
0
100
AcDbSymbolTable
 70
     9
  0
LAYER
  5
10
330
2
100
AcDbSymbolTableRecord
100
AcDbLayerTableRecord
  2
0
 70
     0
 62
     7
  6
Continuous
370
    -3
390
F
  0
LAYER
  5
2B
330
2
100
AcDbSymbolTableRecord
100
AcDbLayerTableRecord
  2
VOLL
 70
     0
 62
     1
  6
Continuous
370
    -3
390
F
  0
LAYER
  5
2C
330
2
100
AcDbSymbolTableRecord
100
AcDbLayerTableRecord
  2
HILF
 70
     0
 62
     2
  6
Continuous
370
    -3
390
F
  0
LAYER
  5
2D
330
2
100
AcDbSymbolTableRecord
100
AcDbLayerTableRecord
  2
MITTEL
 70
     0
 62
     2
  6
STRICHPUNKT
370
    -3
390
F
  0
LAYER
  5
2F
330
2
100
AcDbSymbolTableRecord
100
AcDbLayerTableRecord
  2
BEM
 70
     0
 62
     7
  6
Continuous
370
    -3
390
F
  0
LAYER
  5
30
330
2
100
AcDbSymbolTableRecord
100
AcDbLayerTableRecord
  2
STEMPEL
 70
     0
 62
     3
  6
Continuous
370
    -3
390
F
  0
LAYER
  5
33
330
2
100
AcDbSymbolTableRecord
100
AcDbLayerTableRecord
  2
TEXT
 70
     0
 62
     7
  6
Continuous
370
    -3
390
F
  0
LAYER
  5
998
330
2
100
AcDbSymbolTableRecord
100
AcDbLayerTableRecord
  2
DEFPOINTS
 70
     0
 62
     7
  6
Continuous
290
     0
370
    -3
390
F
  0
LAYER
  5
999
330
2
100
AcDbSymbolTableRecord
100
AcDbLayerTableRecord
  2
SCHRAFF
 70
     0
 62
     7
  6
Continuous
370
    -3
390
F
  0
ENDTAB
  0
TABLE
  2
STYLE
  5
3
330
0
100
AcDbSymbolTable
 70
     2
  0
STYLE
  5
11
330
3
100
AcDbSymbolTableRecord
100
AcDbTextStyleTableRecord
  2
STANDARD
 70
     0
 40
0.0
 41
0.8
 50
0.0
 71
     0
 42
3.5
  3
simplex.shx
  4

  0
STYLE
  5
24
330
3
100
AcDbSymbolTableRecord
100
AcDbTextStyleTableRecord
  2
GREEKS
 70
     0
 40
0.0
 41
0.8
 50
0.0
 71
     0
 42
2.5
  3
SIMPLEX.shx
  4

  0
ENDTAB
  0
TABLE
  2
VIEW
  5
6
330
0
100
AcDbSymbolTable
 70
     0
  0
ENDTAB
  0
TABLE
  2
UCS
  5
7
330
0
100
AcDbSymbolTable
 70
     0
  0
ENDTAB
  0
TABLE
  2
APPID
  5
9
330
0
100
AcDbSymbolTable
 70
     1
  0
APPID
  5
12
330
9
100
AcDbSymbolTableRecord
100
AcDbRegAppTableRecord
  2
ACAD
 70
     0
  0
ENDTAB
  0
TABLE
  2
DIMSTYLE
  5
A
330
0
100
AcDbSymbolTable
 70
     1
100
AcDbDimStyleTable
 71
     1
340
A2
  0
DIMSTYLE
105
A2
102
{ACAD_REACTORS
330
1A1B
330
1A19
330
19F0
330
19EB
330
19E9
330
19E4
330
1997
330
1B6A
102
}
330
A
100
AcDbSymbolTableRecord
100
AcDbDimStyleTableRecord
  2
Standard
 70
     0
340
11
  0
ENDTAB
  0
TABLE
  2
BLOCK_RECORD
  5
1
330
0
100
AcDbSymbolTable
 70
    10
  0
BLOCK_RECORD
  5
1E
102
{ACAD_XDICTIONARY
360
DB
102
}
330
1
100
AcDbSymbolTableRecord
100
AcDbBlockTableRecord
  2
*Model_Space
340
21
  0
BLOCK_RECORD
  5
1A
102
{ACAD_XDICTIONARY
360
DD
102
}
330
1
100
AcDbSymbolTableRecord
100
AcDbBlockTableRecord
  2
*Paper_Space
340
1D
  0
BLOCK_RECORD
  5
22
330
1
100
AcDbSymbolTableRecord
100
AcDbBlockTableRecord
  2
LOGO
340
0
102
{BLKREFS
331
56
102
}
  0
BLOCK_RECORD
  5
23
330
1
100
AcDbSymbolTableRecord
100
AcDbBlockTableRecord
  2
LORO
340
0
102
{BLKREFS
331
9B
102
}
  0
BLOCK_RECORD
  5
1A23
330
1
100
AcDbSymbolTableRecord
100
AcDbBlockTableRecord
  2
*D2
340
0
  0
BLOCK_RECORD
  5
1A30
330
1
100
AcDbSymbolTableRecord
100
AcDbBlockTableRecord
  2
*D3
340
0
  0
BLOCK_RECORD
  5
1A3D
330
1
100
AcDbSymbolTableRecord
100
AcDbBlockTableRecord
  2
*D4
340
0
  0
BLOCK_RECORD
  5
1A4A
330
1
100
AcDbSymbolTableRecord
100
AcDbBlockTableRecord
  2
*D5
340
0
  0
BLOCK_RECORD
  5
1A57
330
1
100
AcDbSymbolTableRecord
100
AcDbBlockTableRecord
  2
*D6
340
0
  0
BLOCK_RECORD
  5
1A64
330
1
100
AcDbSymbolTableRecord
100
AcDbBlockTableRecord
  2
*D7
340
0
  0
BLOCK_RECORD
  5
1A71
330
1
100
AcDbSymbolTableRecord
100
AcDbBlockTableRecord
  2
*D8
340
0
  0
BLOCK_RECORD
  5
1B6B
330
1
100
AcDbSymbolTableRecord
100
AcDbBlockTableRecord
  2
*D9
340
0
  0
ENDTAB
  0
ENDSEC
  0
SECTION
  2
BLOCKS
  0
BLOCK
  5
37
330
1E
100
AcDbEntity
  8
0
100
AcDbBlockBegin
  2
*Model_Space
 70
     0
 10
0.0
 20
0.0
 30
0.0
  3
*Model_Space
  1

  0
ENDBLK
  5
38
330
1E
100
AcDbEntity
  8
0
100
AcDbBlockEnd
  0
BLOCK
  5
35
330
1A
100
AcDbEntity
 67
     1
  8
0
100
AcDbBlockBegin
  2
*Paper_Space
 70
     0
 10
0.0
 20
0.0
 30
0.0
  3
*Paper_Space
  1

  0
ENDBLK
  5
36
330
1A
100
AcDbEntity
 67
     1
  8
0
100
AcDbBlockEnd
  0
BLOCK
  5
39
330
22
100
AcDbEntity
  8
0
100
AcDbBlockBegin
  2
LOGO
 70
     0
 10
0.0
 20
0.0
 30
0.0
  3
LOGO
  1

  0
ARC
  5
3A
330
22
100
AcDbEntity
  8
0
100
AcDbCircle
 10
11.59973089678112
 20
-9.271599258481501
 30
0.0
 40
4.5
100
AcDbArc
 50
270.0
 51
231.0575587310159
  0
LINE
  5
3B
330
22
100
AcDbEntity
  8
0
100
AcDbLine
 10
3.599730896781125
 20
-4.771599258481529
 30
0.0
 11
3.599730896781153
 21
-11.77159925848133
 31
0.0
  0
LINE
  5
3C
330
22
100
AcDbEntity
  8
0
100
AcDbLine
 10
2.599730896781125
 20
-4.771599258481529
 30
0.0
 11
2.599730896781153
 21
-11.77159925848133
 31
0.0
  0
CIRCLE
  5
3D
330
22
100
AcDbEntity
  8
0
100
AcDbCircle
 10
11.59973089678112
 20
-9.271599258481501
 30
0.0
 40
3.5
  0
ARC
  5
3E
330
22
100
AcDbEntity
  8
0
100
AcDbCircle
 10
31.59973089678115
 20
-9.271599258481472
 30
0.0
 40
4.5
100
AcDbArc
 50
270.0
 51
231.0575587310182
  0
LINE
  5
3F
330
22
100
AcDbEntity
  8
0
100
AcDbLine
 10
17.59973089678112
 20
-4.771599258481472
 30
0.0
 11
17.59973089678115
 21
-13.77159925848147
 31
0.0
  0
ARC
  5
40
330
22
100
AcDbEntity
  8
0
100
AcDbCircle
 10
22.59973089678116
 20
-7.271599258481472
 30
0.0
 40
2.5
100
AcDbArc
 50
293.1161887722295
 51
90.0
  0
CIRCLE
  5
41
330
22
100
AcDbEntity
  8
0
100
AcDbCircle
 10
31.59973089678115
 20
-9.271599258481472
 30
0.0
 40
3.5
  0
ARC
  5
42
330
22
100
AcDbEntity
  8
0
100
AcDbCircle
 10
4.599730896781153
 20
-11.77159925848133
 30
0.0
 40
1.0
100
AcDbArc
 50
180.0
 51
270.0
  0
ARC
  5
43
330
22
100
AcDbEntity
  8
0
100
AcDbCircle
 10
4.599730896781153
 20
-11.77159925848133
 30
0.0
 40
2.0
100
AcDbArc
 50
179.9999999999992
 51
270.0
  0
LINE
  5
44
330
22
100
AcDbEntity
  8
0
100
AcDbLine
 10
11.59973089678115
 20
-13.77159925848144
 30
0.0
 11
4.599730896781153
 21
-13.77159925848147
 31
0.0
  0
LINE
  5
45
330
22
100
AcDbEntity
  8
0
100
AcDbLine
 10
8.771303772034769
 20
-12.77159925848136
 30
0.0
 11
4.599730896781153
 21
-12.77159925848133
 31
0.0
  0
LINE
  5
46
330
22
100
AcDbEntity
  8
0
100
AcDbLine
 10
31.59973089678115
 20
-13.77159925848147
 30
0.0
 11
23.6715276665056
 21
-13.77159925848144
 31
0.0
  0
LINE
  5
47
330
22
100
AcDbEntity
  8
0
100
AcDbLine
 10
23.56565672307022
 20
-9.51278021337896
 30
0.0
 11
24.4388546544846
 21
-12.77159925848144
 31
0.0
  0
LINE
  5
48
330
22
100
AcDbEntity
  8
0
100
AcDbLine
 10
22.59973089678116
 20
-9.771599258481472
 30
0.0
 11
18.59973089678112
 21
-9.771599258481472
 31
0.0
  0
LINE
  5
49
330
22
100
AcDbEntity
  8
0
100
AcDbLine
 10
18.59973089678115
 20
-13.77159925848144
 30
0.0
 11
17.59973089678115
 21
-13.77159925848144
 31
0.0
  0
LINE
  5
4A
330
22
100
AcDbEntity
  8
0
100
AcDbLine
 10
18.59973089678115
 20
-9.771599258481472
 30
0.0
 11
18.59973089678115
 21
-13.77159925848144
 31
0.0
  0
LINE
  5
4B
330
22
100
AcDbEntity
  8
0
100
AcDbLine
 10
22.59973089678116
 20
-9.771599258481472
 30
0.0
 11
23.67152766650562
 21
-13.77159925848147
 31
0.0
  0
ARC
  5
4C
330
22
100
AcDbEntity
  8
0
100
AcDbCircle
 10
22.59973089678116
 20
-7.271599258481472
 30
0.0
 40
2.5
100
AcDbArc
 50
270.0
 51
270.0000000000007
  0
LINE
  5
4D
330
22
100
AcDbEntity
  8
0
100
AcDbLine
 10
28.77130377203494
 20
-12.77159925848147
 30
0.0
 11
24.43885465448463
 21
-12.77159925848144
 31
0.0
  0
LINE
  5
4E
330
22
100
AcDbEntity
  8
0
100
AcDbLine
 10
3.599730896781125
 20
-4.771599258481472
 30
0.0
 11
2.599730896781125
 21
-4.771599258481472
 31
0.0
  0
LINE
  5
4F
330
22
100
AcDbEntity
  8
0
100
AcDbLine
 10
22.59973089678116
 20
-8.771599258481472
 30
0.0
 11
18.59973089678115
 21
-8.771599258481472
 31
0.0
  0
LINE
  5
50
330
22
100
AcDbEntity
  8
0
100
AcDbLine
 10
22.59973089678116
 20
-5.771599258481472
 30
0.0
 11
18.59973089678115
 21
-5.771599258481472
 31
0.0
  0
LINE
  5
51
330
22
100
AcDbEntity
  8
0
100
AcDbLine
 10
22.59973089678116
 20
-4.771599258481472
 30
0.0
 11
17.59973089678115
 21
-4.771599258481472
 31
0.0
  0
LINE
  5
52
330
22
100
AcDbEntity
  8
0
100
AcDbLine
 10
18.59973089678115
 20
-5.771599258481472
 30
0.0
 11
18.59973089678115
 21
-8.771599258481472
 31
0.0
  0
ARC
  5
53
330
22
100
AcDbEntity
  8
0
100
AcDbCircle
 10
22.59973089678116
 20
-7.271599258481472
 30
0.0
 40
1.5
100
AcDbArc
 50
270.0
 51
90.0
  0
ENDBLK
  5
54
330
22
100
AcDbEntity
  8
0
100
AcDbBlockEnd
  0
BLOCK
  5
55
330
23
100
AcDbEntity
  8
0
100
AcDbBlockBegin
  2
LORO
 70
     0
 10
0.0
 20
0.0
 30
0.0
  3
LORO
  1

  0
INSERT
  5
56
330
23
100
AcDbEntity
  8
STEMPEL
100
AcDbBlockReference
  2
LOGO
 10
-1.748032802467321
 20
3.771489518552062
 30
0.0
  0
ENDBLK
  5
57
330
23
100
AcDbEntity
  8
0
100
AcDbBlockEnd
  0
BLOCK
  5
1A2E
330
1A23
100
AcDbEntity
  8
0
100
AcDbBlockBegin
  2
*D2
 70
     1
 10
0.0
 20
0.0
 30
0.0
  3
*D2
  1

  0
LINE
  5
1B42
330
1A23
100
AcDbEntity
  8
BEM
 62
     0
370
    -2
100
AcDbLine
 10
324.1117740015317
 20
638.3189408089228
 30
0.0
 11
204.9319092680022
 21
638.3189408089229
 31
0.0
  0
LINE
  5
1B43
330
1A23
100
AcDbEntity
  8
BEM
 62
     0
370
    -2
100
AcDbLine
 10
316.1117740015317
 20
565.4420464345402
 30
0.0
 11
204.9319092680021
 21
565.4420464345403
 31
0.0
  0
LINE
  5
1B44
330
1A23
100
AcDbEntity
  8
BEM
 62
     0
370
    -2
100
AcDbLine
 10
207.4319092680022
 20
629.568940808923
 30
0.0
 11
207.4319092680021
 21
574.1920464345403
 31
0.0
  0
SOLID
  5
1B45
330
1A23
100
AcDbEntity
  8
BEM
 62
     0
100
AcDbTrace
 10
205.9735759346688
 20
629.568940808923
 30
0.0
 11
208.8902426013355
 21
629.568940808923
 31
0.0
 12
207.4319092680022
 22
638.3189408089229
 32
0.0
 13
207.4319092680022
 23
638.3189408089229
 33
0.0
  0
SOLID
  5
1B46
330
1A23
100
AcDbEntity
  8
BEM
 62
     0
100
AcDbTrace
 10
205.9735759346688
 20
574.1920464345403
 30
0.0
 11
208.8902426013355
 21
574.1920464345403
 31
0.0
 12
207.4319092680021
 22
565.4420464345403
 32
0.0
 13
207.4319092680021
 23
565.4420464345403
 33
0.0
  0
MTEXT
  5
1B47
330
1A23
100
AcDbEntity
  8
BEM
 62
     1
100
AcDbMText
 10
199.3069092680021
 20
601.8804936217316
 30
0.0
 40
8.75
 41
0.0
 71
     5
 72
     1
  1
\A1;70
 11
0.0000000000000001
 21
1.0
 31
0.0
 73
     1
 44
1.0
  0
POINT
  5
1B48
330
1A23
100
AcDbEntity
  8
DEFPOINTS
 62
     0
100
AcDbPoint
 10
326.6117740015317
 20
638.3189408089228
 30
0.0
  0
POINT
  5
1B49
330
1A23
100
AcDbEntity
  8
DEFPOINTS
 62
     0
100
AcDbPoint
 10
318.6117740015317
 20
565.4420464345402
 30
0.0
  0
POINT
  5
1B4A
330
1A23
100
AcDbEntity
  8
DEFPOINTS
 62
     0
100
AcDbPoint
 10
207.4319092680021
 20
565.4420464345403
 30
0.0
  0
ENDBLK
  5
1A2F
330
1A23
100
AcDbEntity
  8
0
100
AcDbBlockEnd
  0
BLOCK
  5
1A3B
330
1A30
100
AcDbEntity
  8
0
100
AcDbBlockBegin
  2
*D3
 70
     1
 10
0.0
 20
0.0
 30
0.0
  3
*D3
  1

  0
LINE
  5
1B39
330
1A30
100
AcDbEntity
  8
BEM
 62
     0
370
    -2
100
AcDbLine
 10
209.0010313322447
 20
382.4420464345401
 30
0.0
 11
205.0452272682854
 21
382.4420464345401
 31
0.0
  0
LINE
  5
1B3A
330
1A30
100
AcDbEntity
  8
BEM
 62
     0
370
    -2
100
AcDbLine
 10
207.2107132449004
 20
562.4420464345401
 30
0.0
 11
205.0452272682854
 21
562.4420464345401
 31
0.0
  0
LINE
  5
1B3B
330
1A30
100
AcDbEntity
  8
BEM
 62
     0
370
    -2
100
AcDbLine
 10
207.5452272682854
 20
391.1920464345401
 30
0.0
 11
207.5452272682854
 21
553.6920464345402
 31
0.0
  0
SOLID
  5
1B3C
330
1A30
100
AcDbEntity
  8
BEM
 62
     0
100
AcDbTrace
 10
206.086893934952
 20
391.1920464345401
 30
0.0
 11
209.0035606016187
 21
391.1920464345401
 31
0.0
 12
207.5452272682854
 22
382.4420464345401
 32
0.0
 13
207.5452272682854
 23
382.4420464345401
 33
0.0
  0
SOLID
  5
1B3D
330
1A30
100
AcDbEntity
  8
BEM
 62
     0
100
AcDbTrace
 10
206.086893934952
 20
553.6920464345402
 30
0.0
 11
209.0035606016187
 21
553.6920464345402
 31
0.0
 12
207.5452272682854
 22
562.4420464345401
 32
0.0
 13
207.5452272682854
 23
562.4420464345401
 33
0.0
  0
MTEXT
  5
1B3E
330
1A30
100
AcDbEntity
  8
BEM
 62
     1
100
AcDbMText
 10
199.4202272682853
 20
472.4420464345402
 30
0.0
 40
8.75
 41
0.0
 71
     5
 72
     1
  1
\A1;max.180
 11
0.0000000000000001
 21
1.0
 31
0.0
 73
     1
 44
1.0
  0
POINT
  5
1B3F
330
1A30
100
AcDbEntity
  8
DEFPOINTS
 62
     0
100
AcDbPoint
 10
211.5010313322446
 20
382.4420464345401
 30
0.0
  0
POINT
  5
1B40
330
1A30
100
AcDbEntity
  8
DEFPOINTS
 62
     0
100
AcDbPoint
 10
209.7107132449004
 20
562.4420464345401
 30
0.0
  0
POINT
  5
1B41
330
1A30
100
AcDbEntity
  8
DEFPOINTS
 62
     0
100
AcDbPoint
 10
207.5452272682854
 20
562.4420464345401
 30
0.0
  0
ENDBLK
  5
1A3C
330
1A30
100
AcDbEntity
  8
0
100
AcDbBlockEnd
  0
BLOCK
  5
1A48
330
1A3D
100
AcDbEntity
  8
0
100
AcDbBlockBegin
  2
*D4
 70
     1
 10
0.0
 20
0.0
 30
0.0
  3
*D4
  1

  0
LINE
  5
1B54
330
1A3D
100
AcDbEntity
  8
BEM
 62
     0
370
    -2
100
AcDbLine
 10
166.1117740015314
 20
567.9420464345402
 30
0.0
 11
166.1117740015314
 21
697.277998821799
 31
0.0
  0
LINE
  5
1B55
330
1A3D
100
AcDbEntity
  8
BEM
 62
     0
370
    -2
100
AcDbLine
 10
666.1117740015314
 20
567.9420464345402
 30
0.0
 11
666.1117740015314
 21
697.277998821799
 31
0.0
  0
LINE
  5
1B56
330
1A3D
100
AcDbEntity
  8
BEM
 62
     0
370
    -2
100
AcDbLine
 10
174.8617740015314
 20
694.7779988217989
 30
0.0
 11
657.3617740015314
 21
694.7779988217989
 31
0.0
  0
SOLID
  5
1B57
330
1A3D
100
AcDbEntity
  8
BEM
 62
     0
100
AcDbTrace
 10
174.8617740015314
 20
696.2363321551323
 30
0.0
 11
174.8617740015314
 21
693.3196654884656
 31
0.0
 12
166.1117740015314
 22
694.7779988217989
 32
0.0
 13
166.1117740015314
 23
694.7779988217989
 33
0.0
  0
SOLID
  5
1B58
330
1A3D
100
AcDbEntity
  8
BEM
 62
     0
100
AcDbTrace
 10
657.3617740015314
 20
696.2363321551323
 30
0.0
 11
657.3617740015314
 21
693.3196654884656
 31
0.0
 12
666.1117740015314
 22
694.7779988217989
 32
0.0
 13
666.1117740015314
 23
694.7779988217989
 33
0.0
  0
MTEXT
  5
1B59
330
1A3D
100
AcDbEntity
  8
BEM
 62
     1
100
AcDbMText
 10
424.2724534914374
 20
702.9029988217989
 30
0.0
 40
8.75
 41
0.0
 71
     5
 72
     1
  1
\A1;500
 73
     1
 44
1.0
  0
POINT
  5
1B5A
330
1A3D
100
AcDbEntity
  8
DEFPOINTS
 62
     0
100
AcDbPoint
 10
166.1117740015314
 20
565.4420464345402
 30
0.0
  0
POINT
  5
1B5B
330
1A3D
100
AcDbEntity
  8
DEFPOINTS
 62
     0
100
AcDbPoint
 10
666.1117740015314
 20
565.4420464345402
 30
0.0
  0
POINT
  5
1B5C
330
1A3D
100
AcDbEntity
  8
DEFPOINTS
 62
     0
100
AcDbPoint
 10
666.1117740015314
 20
694.7779988217989
 30
0.0
  0
ENDBLK
  5
1A49
330
1A3D
100
AcDbEntity
  8
0
100
AcDbBlockEnd
  0
BLOCK
  5
1A55
330
1A4A
100
AcDbEntity
  8
0
100
AcDbBlockBegin
  2
*D5
 70
     1
 10
0.0
 20
0.0
 30
0.0
  3
*D5
  1

  0
LINE
  5
1B4B
330
1A4A
100
AcDbEntity
  8
BEM
 62
     0
370
    -2
100
AcDbLine
 10
251.1117740015314
 20
564.9420464345402
 30
0.0
 11
251.1117740015314
 21
680.6715465337815
 31
0.0
  0
LINE
  5
1B4C
330
1A4A
100
AcDbEntity
  8
BEM
 62
     0
370
    -2
100
AcDbLine
 10
581.1117740015314
 20
564.9420464345402
 30
0.0
 11
581.1117740015314
 21
680.6715465337815
 31
0.0
  0
LINE
  5
1B4D
330
1A4A
100
AcDbEntity
  8
BEM
 62
     0
370
    -2
100
AcDbLine
 10
259.8617740015314
 20
678.1715465337815
 30
0.0
 11
572.3617740015314
 21
678.1715465337815
 31
0.0
  0
SOLID
  5
1B4E
330
1A4A
100
AcDbEntity
  8
BEM
 62
     0
100
AcDbTrace
 10
259.8617740015314
 20
679.6298798671149
 30
0.0
 11
259.8617740015314
 21
676.7132132004482
 31
0.0
 12
251.1117740015314
 22
678.1715465337815
 32
0.0
 13
251.1117740015314
 23
678.1715465337815
 33
0.0
  0
SOLID
  5
1B4F
330
1A4A
100
AcDbEntity
  8
BEM
 62
     0
100
AcDbTrace
 10
572.3617740015314
 20
679.6298798671149
 30
0.0
 11
572.3617740015314
 21
676.7132132004482
 31
0.0
 12
581.1117740015314
 22
678.1715465337815
 32
0.0
 13
581.1117740015314
 23
678.1715465337815
 33
0.0
  0
MTEXT
  5
1B50
330
1A4A
100
AcDbEntity
  8
BEM
 62
     1
100
AcDbMText
 10
416.1117740015314
 20
686.2965465337815
 30
0.0
 40
8.75
 41
0.0
 71
     5
 72
     1
  1
\A1;%%c330
 73
     1
 44
1.0
  0
POINT
  5
1B51
330
1A4A
100
AcDbEntity
  8
DEFPOINTS
 62
     0
100
AcDbPoint
 10
251.1117740015314
 20
562.4420464345401
 30
0.0
  0
POINT
  5
1B52
330
1A4A
100
AcDbEntity
  8
DEFPOINTS
 62
     0
100
AcDbPoint
 10
581.1117740015314
 20
562.4420464345401
 30
0.0
  0
POINT
  5
1B53
330
1A4A
100
AcDbEntity
  8
DEFPOINTS
 62
     0
100
AcDbPoint
 10
581.1117740015314
 20
678.1715465337815
 30
0.0
  0
ENDBLK
  5
1A56
330
1A4A
100
AcDbEntity
  8
0
100
AcDbBlockEnd
  0
BLOCK
  5
1A62
330
1A57
100
AcDbEntity
  8
0
100
AcDbBlockBegin
  2
*D6
 70
     1
 10
0.0
 20
0.0
 30
0.0
  3
*D6
  1

  0
LINE
  5
1B1E
330
1A57
100
AcDbEntity
  8
BEM
 62
     0
370
    -2
100
AcDbLine
 10
314.6117740015317
 20
628.8189408089229
 30
0.0
 11
314.6117740015317
 21
662.0383743599859
 31
0.0
  0
LINE
  5
1B1F
330
1A57
100
AcDbEntity
  8
BEM
 62
     0
370
    -2
100
AcDbLine
 10
517.6117740015314
 20
628.8189408089229
 30
0.0
 11
517.6117740015314
 21
662.0383743599859
 31
0.0
  0
LINE
  5
1B20
330
1A57
100
AcDbEntity
  8
BEM
 62
     0
370
    -2
100
AcDbLine
 10
323.3617740015317
 20
659.5383743599859
 30
0.0
 11
508.8617740015314
 21
659.5383743599859
 31
0.0
  0
SOLID
  5
1B21
330
1A57
100
AcDbEntity
  8
BEM
 62
     0
100
AcDbTrace
 10
323.3617740015317
 20
660.9967076933193
 30
0.0
 11
323.3617740015317
 21
658.0800410266525
 31
0.0
 12
314.6117740015317
 22
659.5383743599859
 32
0.0
 13
314.6117740015317
 23
659.5383743599859
 33
0.0
  0
SOLID
  5
1B22
330
1A57
100
AcDbEntity
  8
BEM
 62
     0
100
AcDbTrace
 10
508.8617740015314
 20
660.9967076933193
 30
0.0
 11
508.8617740015314
 21
658.0800410266525
 31
0.0
 12
517.6117740015314
 22
659.5383743599859
 32
0.0
 13
517.6117740015314
 23
659.5383743599859
 33
0.0
  0
MTEXT
  5
1B23
330
1A57
100
AcDbEntity
  8
BEM
 62
     1
100
AcDbMText
 10
416.1117740015315
 20
667.6633743599859
 30
0.0
 40
8.75
 41
0.0
 71
     5
 72
     1
  1
\A1;%%c203
 73
     1
 44
1.0
  0
POINT
  5
1B24
330
1A57
100
AcDbEntity
  8
DEFPOINTS
 62
     0
100
AcDbPoint
 10
314.6117740015317
 20
626.3189408089228
 30
0.0
  0
POINT
  5
1B25
330
1A57
100
AcDbEntity
  8
DEFPOINTS
 62
     0
100
AcDbPoint
 10
517.6117740015314
 20
626.3189408089228
 30
0.0
  0
POINT
  5
1B26
330
1A57
100
AcDbEntity
  8
DEFPOINTS
 62
     0
100
AcDbPoint
 10
517.6117740015314
 20
659.5383743599859
 30
0.0
  0
ENDBLK
  5
1A63
330
1A57
100
AcDbEntity
  8
0
100
AcDbBlockEnd
  0
BLOCK
  5
1A6F
330
1A64
100
AcDbEntity
  8
0
100
AcDbBlockBegin
  2
*D7
 70
     1
 10
0.0
 20
0.0
 30
0.0
  3
*D7
  1

  0
LINE
  5
1B60
330
1A64
100
AcDbEntity
  8
BEM
 62
     0
370
    -2
100
AcDbLine
 10
673.3558389046323
 20
328.0051580415346
 30
0.0
 11
713.0429583333209
 21
326.9919884616263
 31
0.0
  0
LINE
  5
1B61
330
1A64
100
AcDbEntity
  8
BEM
 62
     0
370
    -2
100
AcDbLine
 10
669.9615967424732
 20
195.0484479992941
 30
0.0
 11
709.6487161711618
 21
194.0352784193857
 31
0.0
  0
LINE
  5
1B62
330
1A64
100
AcDbEntity
  8
BEM
 62
     0
370
    -2
100
AcDbLine
 10
710.3204672357117
 20
318.3086399011088
 30
0.0
 11
707.3728357881037
 21
202.8462300412034
 31
0.0
  0
SOLID
  5
1B63
330
1A64
100
AcDbEntity
  8
BEM
 62
     0
100
AcDbTrace
 10
708.8626088871836
 20
318.3458574606548
 30
0.0
 11
711.7783255842396
 21
318.2714223415629
 31
0.0
 12
710.5437725929873
 22
327.0557899922764
 32
0.0
 13
710.5437725929873
 23
327.0557899922764
 33
0.0
  0
SOLID
  5
1B64
330
1A64
100
AcDbEntity
  8
BEM
 62
     0
100
AcDbTrace
 10
705.9149774395757
 20
202.8834476007494
 30
0.0
 11
708.8306941366316
 21
202.8090124816575
 31
0.0
 12
707.1495304308282
 22
194.0990799500359
 32
0.0
 13
707.1495304308282
 23
194.0990799500359
 33
0.0
  0
MTEXT
  5
1B65
330
1A64
100
AcDbEntity
  8
BEM
 62
     1
100
AcDbMText
 10
700.7242978558235
 20
260.7847899457692
 30
0.0
 40
8.75
 41
0.0
 71
     5
 72
     1
  1
\A1;%%c133
 11
0.0255206122600718
 21
0.9996742961334311
 31
0.0
 73
     1
 44
1.0
  0
POINT
  5
1B66
330
1A64
100
AcDbEntity
  8
DEFPOINTS
 62
     0
100
AcDbPoint
 10
670.8566531642987
 20
328.0689595721848
 30
0.0
  0
POINT
  5
1B67
330
1A64
100
AcDbEntity
  8
DEFPOINTS
 62
     0
100
AcDbPoint
 10
667.4624110021396
 20
195.1122495299443
 30
0.0
  0
POINT
  5
1B68
330
1A64
100
AcDbEntity
  8
DEFPOINTS
 62
     0
100
AcDbPoint
 10
707.1495304308282
 20
194.0990799500359
 30
0.0
  0
ENDBLK
  5
1A70
330
1A64
100
AcDbEntity
  8
0
100
AcDbBlockEnd
  0
BLOCK
  5
1A7C
330
1A71
100
AcDbEntity
  8
0
100
AcDbBlockBegin
  2
*D8
 70
     1
 10
0.0
 20
0.0
 30
0.0
  3
*D8
  1

  0
LINE
  5
1B0C
330
1A71
100
AcDbEntity
  8
BEM
 62
     0
370
    -2
100
AcDbLine
 10
416.1117740015316
 20
303.9468445367294
 30
0.0
 11
416.1117740015316
 21
170.9494950076232
 31
0.0
  0
LINE
  5
1B0D
330
1A71
100
AcDbEntity
  8
BEM
 62
     0
370
    -2
100
AcDbLine
 10
681.1117740015319
 20
258.7776240816156
 30
0.0
 11
681.1117740015319
 21
170.9494950076232
 31
0.0
  0
LINE
  5
1B0E
330
1A71
100
AcDbEntity
  8
BEM
 62
     0
370
    -2
100
AcDbLine
 10
424.8617740015316
 20
173.4494950076232
 30
0.0
 11
672.3617740015319
 21
173.4494950076232
 31
0.0
  0
SOLID
  5
1B0F
330
1A71
100
AcDbEntity
  8
BEM
 62
     0
100
AcDbTrace
 10
424.8617740015316
 20
174.9078283409565
 30
0.0
 11
424.8617740015316
 21
171.9911616742899
 31
0.0
 12
416.1117740015316
 22
173.4494950076232
 32
0.0
 13
416.1117740015316
 23
173.4494950076232
 33
0.0
  0
SOLID
  5
1B10
330
1A71
100
AcDbEntity
  8
BEM
 62
     0
100
AcDbTrace
 10
672.3617740015319
 20
174.9078283409565
 30
0.0
 11
672.3617740015319
 21
171.9911616742899
 31
0.0
 12
681.1117740015319
 22
173.4494950076232
 32
0.0
 13
681.1117740015319
 23
173.4494950076232
 33
0.0
  0
MTEXT
  5
1B11
330
1A71
100
AcDbEntity
  8
BEM
 62
     1
100
AcDbMText
 10
548.6117740015317
 20
181.5744950076232
 30
0.0
 40
8.75
 41
0.0
 71
     5
 72
     1
  1
\A1;265
 73
     1
 44
1.0
  0
POINT
  5
1B12
330
1A71
100
AcDbEntity
  8
DEFPOINTS
 62
     0
100
AcDbPoint
 10
416.1117740015316
 20
306.4468445367294
 30
0.0
  0
POINT
  5
1B13
330
1A71
100
AcDbEntity
  8
DEFPOINTS
 62
     0
100
AcDbPoint
 10
681.1117740015319
 20
261.2776240816156
 30
0.0
  0
POINT
  5
1B14
330
1A71
100
AcDbEntity
  8
DEFPOINTS
 62
     0
100
AcDbPoint
 10
681.1117740015319
 20
173.4494950076232
 30
0.0
  0
ENDBLK
  5
1A7D
330
1A71
100
AcDbEntity
  8
0
100
AcDbBlockEnd
  0
BLOCK
  5
1B75
330
1B6B
100
AcDbEntity
  8
0
100
AcDbBlockBegin
  2
*D9
 70
     1
 10
0.0
 20
0.0
 30
0.0
  3
*D9
  1

  0
LINE
  5
1B77
330
1B6B
100
AcDbEntity
  8
SCHRAFF
 62
     0
370
    -2
100
AcDbLine
 10
668.6117740015316
 20
382.4420464345401
 30
0.0
 11
737.183891060928
 21
382.4420464345401
 31
0.0
  0
LINE
  5
1B78
330
1B6B
100
AcDbEntity
  8
SCHRAFF
 62
     0
370
    -2
100
AcDbLine
 10
711.364526588686
 20
261.2776240816156
 30
0.0
 11
737.183891060928
 21
261.2776240816156
 31
0.0
  0
LINE
  5
1B79
330
1B6B
100
AcDbEntity
  8
SCHRAFF
 62
     0
370
    -2
100
AcDbLine
 10
734.6838910609281
 20
373.6920464345401
 30
0.0
 11
734.6838910609281
 21
270.0276240816156
 31
0.0
  0
SOLID
  5
1B7A
330
1B6B
100
AcDbEntity
  8
SCHRAFF
 62
     0
100
AcDbTrace
 10
733.2255577275947
 20
373.6920464345401
 30
0.0
 11
736.1422243942614
 21
373.6920464345401
 31
0.0
 12
734.6838910609281
 22
382.4420464345401
 32
0.0
 13
734.6838910609281
 23
382.4420464345401
 33
0.0
  0
SOLID
  5
1B7B
330
1B6B
100
AcDbEntity
  8
SCHRAFF
 62
     0
100
AcDbTrace
 10
733.2255577275947
 20
270.0276240816156
 30
0.0
 11
736.1422243942614
 21
270.0276240816156
 31
0.0
 12
734.6838910609281
 22
261.2776240816156
 32
0.0
 13
734.6838910609281
 23
261.2776240816156
 33
0.0
  0
MTEXT
  5
1B7C
330
1B6B
100
AcDbEntity
  8
SCHRAFF
 62
     1
100
AcDbMText
 10
726.5588910609279
 20
321.859835258078
 30
0.0
 40
8.75
 41
0.0
 71
     5
 72
     1
  1
\A1;121
 11
0.0000000000000001
 21
1.0
 31
0.0
 73
     1
 44
1.0
  0
POINT
  5
1B7D
330
1B6B
100
AcDbEntity
  8
DEFPOINTS
 62
     0
100
AcDbPoint
 10
666.1117740015316
 20
382.4420464345401
 30
0.0
  0
POINT
  5
1B7E
330
1B6B
100
AcDbEntity
  8
DEFPOINTS
 62
     0
100
AcDbPoint
 10
708.864526588686
 20
261.2776240816156
 30
0.0
  0
POINT
  5
1B7F
330
1B6B
100
AcDbEntity
  8
DEFPOINTS
 62
     0
100
AcDbPoint
 10
734.6838910609281
 20
261.2776240816156
 30
0.0
  0
ENDBLK
  5
1B76
330
1B6B
100
AcDbEntity
  8
0
100
AcDbBlockEnd
  0
ENDSEC
  0
SECTION
  2
ENTITIES
  0
LINE
  5
58
330
1E
100
AcDbEntity
  8
STEMPEL
100
AcDbLine
 10
1037.5
 20
137.5
 30
0.0
 11
587.5000000000002
 21
137.5
 31
0.0
  0
LINE
  5
59
330
1E
100
AcDbEntity
  8
STEMPEL
100
AcDbLine
 10
587.5000000000002
 20
137.5
 30
0.0
 11
587.5
 21
12.5
 31
0.0
  0
LINE
  5
5A
330
1E
100
AcDbEntity
  8
STEMPEL
100
AcDbLine
 10
707.5000000000002
 20
137.4999999999998
 30
0.0
 11
707.5000000000001
 21
12.49999999999986
 31
0.0
  0
LINE
  5
5B
330
1E
100
AcDbEntity
  8
STEMPEL
100
AcDbLine
 10
812.5000000000001
 20
137.5
 30
0.0
 11
812.5000000000001
 21
12.5
 31
0.0
  0
LINE
  5
5C
330
1E
100
AcDbEntity
  8
STEMPEL
100
AcDbLine
 10
940.0000000000002
 20
137.4999999999996
 30
0.0
 11
940.0000000000002
 21
50.0
 31
0.0
  0
LINE
  5
5D
330
1E
100
AcDbEntity
  8
STEMPEL
100
AcDbLine
 10
707.5
 20
37.5
 30
0.0
 11
587.5
 21
37.5
 31
0.0
  0
LINE
  5
5E
330
1E
100
AcDbEntity
  8
STEMPEL
100
AcDbLine
 10
1037.5
 20
50.0
 30
0.0
 11
707.5000000000001
 21
50.0
 31
0.0
  0
LINE
  5
5F
330
1E
100
AcDbEntity
  8
STEMPEL
100
AcDbLine
 10
1037.5
 20
100.0
 30
0.0
 11
707.5000000000002
 21
100.0
 31
0.0
  0
LINE
  5
60
330
1E
100
AcDbEntity
  8
VOLL
100
AcDbLine
 10
605.0000000000002
 20
137.5
 30
0.0
 11
605.0000000000001
 21
12.49999999999998
 31
0.0
  0
LINE
  5
61
330
1E
100
AcDbEntity
  8
VOLL
100
AcDbLine
 10
655.0000000000002
 20
137.4999999999999
 30
0.0
 11
655.0000000000001
 21
12.49999999999993
 31
0.0
  0
LINE
  5
62
330
1E
100
AcDbEntity
  8
VOLL
100
AcDbLine
 10
680.0000000000002
 20
137.4999999999999
 30
0.0
 11
680.0000000000001
 21
12.49999999999989
 31
0.0
  0
LINE
  5
63
330
1E
100
AcDbEntity
  8
VOLL
100
AcDbLine
 10
730.0000000000002
 20
100.0
 30
0.0
 11
730.0000000000002
 21
50.0
 31
0.0
  0
LINE
  5
64
330
1E
100
AcDbEntity
  8
VOLL
100
AcDbLine
 10
762.5000000000002
 20
137.4999999999998
 30
0.0
 11
762.5
 21
50.0
 31
0.0
  0
LINE
  5
65
330
1E
100
AcDbEntity
  8
HILF
100
AcDbLine
 10
587.5000000000002
 20
125.0
 30
0.0
 11
707.5000000000002
 21
125.0
 31
0.0
  0
LINE
  5
66
330
1E
100
AcDbEntity
  8
HILF
100
AcDbLine
 10
587.5000000000002
 20
112.5
 30
0.0
 11
707.5000000000002
 21
112.5
 31
0.0
  0
LINE
  5
67
330
1E
100
AcDbEntity
  8
HILF
100
AcDbLine
 10
587.5000000000002
 20
100.0
 30
0.0
 11
707.5000000000002
 21
100.0
 31
0.0
  0
LINE
  5
68
330
1E
100
AcDbEntity
  8
HILF
100
AcDbLine
 10
587.5000000000002
 20
87.5
 30
0.0
 11
707.5000000000002
 21
87.5
 31
0.0
  0
LINE
  5
69
330
1E
100
AcDbEntity
  8
HILF
100
AcDbLine
 10
587.5000000000002
 20
75.0
 30
0.0
 11
707.5000000000002
 21
75.0
 31
0.0
  0
LINE
  5
6A
330
1E
100
AcDbEntity
  8
HILF
100
AcDbLine
 10
587.5000000000002
 20
62.5
 30
0.0
 11
707.5000000000002
 21
62.5
 31
0.0
  0
LINE
  5
6B
330
1E
100
AcDbEntity
  8
HILF
100
AcDbLine
 10
587.5000000000002
 20
50.0
 30
0.0
 11
707.5000000000002
 21
50.0
 31
0.0
  0
LINE
  5
6C
330
1E
100
AcDbEntity
  8
HILF
100
AcDbLine
 10
707.5000000000002
 20
87.5
 30
0.0
 11
812.5000000000001
 21
87.5
 31
0.0
  0
LINE
  5
6D
330
1E
100
AcDbEntity
  8
HILF
100
AcDbLine
 10
707.5000000000002
 20
75.0
 30
0.0
 11
812.5000000000001
 21
75.0
 31
0.0
  0
LINE
  5
6E
330
1E
100
AcDbEntity
  8
HILF
100
AcDbLine
 10
707.5000000000002
 20
62.5
 30
0.0
 11
812.5000000000001
 21
62.5
 31
0.0
  0
LINE
  5
6F
330
1E
100
AcDbEntity
  8
HILF
100
AcDbLine
 10
818.4671001371185
 20
105.0469780945517
 30
0.0
 11
933.2872303143515
 21
105.0469780945517
 31
0.0
  0
LINE
  5
70
330
1E
100
AcDbEntity
  8
HILF
100
AcDbLine
 10
818.4671001371185
 20
87.5
 30
0.0
 11
933.2872303143515
 21
87.5
 31
0.0
  0
LINE
  5
71
330
1E
100
AcDbEntity
  8
HILF
100
AcDbLine
 10
818.4671001371185
 20
75.0
 30
0.0
 11
933.2872303143515
 21
75.0
 31
0.0
  0
LINE
  5
72
330
1E
100
AcDbEntity
  8
HILF
100
AcDbLine
 10
818.4671001371185
 20
62.5
 30
0.0
 11
933.2872303143515
 21
62.5
 31
0.0
  0
LINE
  5
73
330
1E
100
AcDbEntity
  8
VOLL
100
AcDbLine
 10
940.0000000000002
 20
75.0
 30
0.0
 11
1037.5
 21
75.0
 31
0.0
  0
LINE
  5
74
330
1E
100
AcDbEntity
  8
HILF
100
AcDbLine
 10
945.9048270371244
 20
104.7247954619477
 30
0.0
 11
1031.073604915841
 21
104.7247954619477
 31
0.0
  0
LINE
  5
75
330
1E
100
AcDbEntity
  8
HILF
100
AcDbLine
 10
818.4671001371185
 20
18.61747822535381
 30
0.0
 11
1031.073604915841
 21
18.61747822535381
 31
0.0
  0
TEXT
  5
76
330
1E
100
AcDbEntity
  8
TEXT
100
AcDbText
 10
615.4997799079121
 20
23.34227368730161
 30
0.0
 40
5.0
  1
Änderung
 41
0.8
  7
GREEKS
 72
     1
 11
628.9283513364836
 21
23.34227368730161
 31
0.0
100
AcDbText
  0
TEXT
  5
78
330
1E
100
AcDbEntity
  8
TEXT
100
AcDbText
 10
716.8954465187972
 20
128.077611885886
 30
0.0
 40
6.25
  1
Maßstab
 41
0.8
  7
GREEKS
100
AcDbText
  0
TEXT
  5
79
330
1E
100
AcDbEntity
  8
TEXT
100
AcDbText
 10
818.5974254761264
 20
128.1861660014724
 30
0.0
 40
6.25
  1
Benennung
 41
0.8
  7
GREEKS
100
AcDbText
  0
TEXT
  5
7A
330
1E
100
AcDbEntity
  8
TEXT
100
AcDbText
 10
945.2234436970428
 20
127.891504317142
 30
0.0
 40
6.25
  1
Zeichnungs Nr.
 41
0.8
  7
GREEKS
100
AcDbText
  0
TEXT
  5
7B
330
1E
100
AcDbEntity
  8
TEXT
100
AcDbText
 10
818.42779798892
 20
38.55700712741319
 30
0.0
 40
6.25
  1
Bauvorhaben
 41
0.8
  7
GREEKS
100
AcDbText
  0
TEXT
  5
7C
330
1E
100
AcDbEntity
  8
TEXT
100
AcDbText
 10
945.9048270371244
 20
91.47647796374956
 30
0.0
 40
6.25
  1
Ersatz für:
 41
0.8
  7
GREEKS
100
AcDbText
  0
TEXT
  5
7D
330
1E
100
AcDbEntity
  8
TEXT
100
AcDbText
 10
597.8330138380721
 20
17.06832307533984
 30
0.0
 40
5.0
  1
Index
 50
90.0
 41
0.8
  7
GREEKS
100
AcDbText
  0
TEXT
  5
7E
330
1E
100
AcDbEntity
  8
TEXT
100
AcDbText
 10
662.3737641483725
 20
23.3394533667476
 30
0.0
 40
5.0
  1
Tag
 41
0.8
  7
GREEKS
 72
     1
 11
667.0404308150391
 21
23.3394533667476
 31
0.0
100
AcDbText
  0
TEXT
  5
7F
330
1E
100
AcDbEntity
  8
TEXT
100
AcDbText
 10
686.2244597672866
 20
23.24155271208006
 30
0.0
 40
5.0
  1
Name
 41
0.8
  7
GREEKS
 72
     1
 11
694.1292216720484
 21
23.24155271208006
 31
0.0
100
AcDbText
  0
TEXT
  5
80
330
1E
100
AcDbEntity
  8
TEXT
100
AcDbText
 10
740.4139591442064
 20
91.64850626537399
 30
0.0
 40
5.0
  1
Tag
 41
0.8
  7
GREEKS
100
AcDbText
  0
TEXT
  5
81
330
1E
100
AcDbEntity
  8
TEXT
100
AcDbText
 10
778.078323028287
 20
91.63701364894025
 30
0.0
 40
5.0
  1
Name
 41
0.8
  7
GREEKS
100
AcDbText
  0
TEXT
  5
82
330
1E
100
AcDbEntity
  8
TEXT
100
AcDbText
 10
709.479515895952
 20
79.53737962022451
 30
0.0
 40
5.0
  1
Gez.
 41
0.8
  7
GREEKS
100
AcDbText
  0
TEXT
  5
83
330
1E
100
AcDbEntity
  8
TEXT
100
AcDbText
 10
709.4393858214592
 20
67.11157864285467
 30
0.0
 40
5.0
  1
Gepr.
 41
0.8
  7
GREEKS
100
AcDbText
  0
TEXT
  5
84
330
1E
100
AcDbEntity
  8
TEXT
100
AcDbText
 10
709.5008471734131
 20
54.41182987062255
 30
0.0
 40
5.0
  1
Norm.
 41
0.8
  7
GREEKS
100
AcDbText
  0
TEXT
  5
85
330
1E
100
AcDbEntity
  8
TEXT
100
AcDbText
 10
946.5501076871261
 20
65.09270222348246
 30
0.0
 40
6.25
  1
ersetzt durch:
 41
0.8
  7
GREEKS
100
AcDbText
  0
TEXT
  5
86
330
1E
100
AcDbEntity
  8
TEXT
100
AcDbText
 10
711.0866284759154
 20
91.20853245654656
 30
0.0
 40
5.0
  1
2008
 41
0.8
  7
GREEKS
100
AcDbText
  0
LINE
  5
87
330
1E
100
AcDbEntity
  8
HILF
100
AcDbLine
 10
0.0
 20
0.0
 30
0.0
 11
1050.0
 21
0.0
 31
0.0
  0
LINE
  5
88
330
1E
100
AcDbEntity
  8
HILF
100
AcDbLine
 10
1050.0
 20
0.0
 30
0.0
 11
1050.0
 21
742.4999999999999
 31
0.0
  0
LINE
  5
89
330
1E
100
AcDbEntity
  8
HILF
100
AcDbLine
 10
1050.0
 20
742.4999999999999
 30
0.0
 11
0.0
 21
742.4999999999999
 31
0.0
  0
LINE
  5
8B
330
1E
100
AcDbEntity
  8
STEMPEL
100
AcDbLine
 10
1037.5
 20
730.0
 30
0.0
 11
50.0
 21
730.0
 31
0.0
  0
LINE
  5
8D
330
1E
100
AcDbEntity
  8
STEMPEL
100
AcDbLine
 10
50.0
 20
12.5
 30
0.0
 11
1037.5
 21
12.5
 31
0.0
  0
LINE
  5
8E
330
1E
100
AcDbEntity
  8
STEMPEL
100
AcDbLine
 10
1037.5
 20
12.5
 30
0.0
 11
1037.5
 21
730.0
 31
0.0
  0
TEXT
  5
8F
330
1E
100
AcDbEntity
  8
TEXT
 62
     1
100
AcDbText
 10
818.7988215591486
 20
109.2167884456568
 30
0.0
 40
8.75
  1
Flachdachablauf DN125
 41
0.75
  7
GREEKS
100
AcDbText
  0
TEXT
  5
90
330
1E
100
AcDbEntity
  8
TEXT
 62
     1
100
AcDbText
 10
959.6618444396836
 20
109.2167884456568
 30
0.0
 40
8.75
  1
17132125W
 41
0.8
  7
GREEKS
 72
     1
 11
987.6618444396838
 21
109.2167884456568
 31
0.0
100
AcDbText
  0
TEXT
  5
91
330
1E
100
AcDbEntity
  8
TEXT
100
AcDbText
 10
773.1362783019789
 20
128.5498701422375
 30
0.0
 40
6.25
  1
Zul.Abw.
 41
0.8
  7
GREEKS
100
AcDbText
  0
TEXT
  5
93
330
1E
100
AcDbEntity
  8
TEXT
100
AcDbText
 10
738.4575594508882
 20
78.93857345150275
 30
0.0
 40
5.0
  1
11.06.
 41
0.8
  7
GREEKS
 72
     1
 11
746.4575594508882
 21
78.93857345150275
 31
0.0
100
AcDbText
  0
TEXT
  5
94
330
1E
100
AcDbEntity
  8
TEXT
100
AcDbText
 10
780.0289691533263
 20
78.67872068956835
 30
0.0
 40
5.0
  1
Koeh
 41
0.8
  7
GREEKS
 72
     1
 11
786.6003977247548
 21
78.67872068956835
 31
0.0
100
AcDbText
  0
TEXT
  5
95
330
1E
100
AcDbEntity
  8
TEXT
100
AcDbText
 10
817.9263676106241
 20
90.12526728884408
 30
0.0
 40
6.25
  1
Kompletteinheit, zweiteilig
 41
0.8
  7
GREEKS
100
AcDbText
  0
TEXT
  5
96
330
1E
100
AcDbEntity
  8
TEXT
100
AcDbText
 10
817.9263676106241
 20
77.93198856511295
 30
0.0
 40
6.25
  1

 41
0.8
  7
GREEKS
100
AcDbText
  0
TEXT
  5
97
330
1E
100
AcDbEntity
  8
TEXT
100
AcDbText
 10
817.9263676106241
 20
65.73871672307572
 30
0.0
 40
6.25
  1
EDV-Art.Nr. 17132.125A
 41
0.8
  7
GREEKS
100
AcDbText
  0
TEXT
  5
98
330
1E
100
AcDbEntity
  8
TEXT
100
AcDbText
 10
817.7095062636686
 20
54.13909530989386
 30
0.0
 40
5.0
  1
17132125W.DWG
 41
0.8
  7
GREEKS
100
AcDbText
  0
TEXT
  5
99
330
1E
100
AcDbEntity
  8
TEXT
 62
     1
100
AcDbText
 10
728.3793640042778
 20
109.3384636051872
 30
0.0
 40
8.75
  1
1:2
 41
0.8
  7
GREEKS
100
AcDbText
  0
TEXT
  5
9A
330
1E
100
AcDbEntity
  8
TEXT
100
AcDbText
 10
589.4049645678361
 20
146.3271809697693
 30
0.0
 40
6.25
  1
Erstellt mit AUTOCAD 2004
 41
0.8
  7
GREEKS
100
AcDbText
  0
INSERT
  5
9B
330
1E
100
AcDbEntity
  8
HILF
100
AcDbBlockReference
  2
LORO
 10
716.3281232452942
 20
46.22574125373699
 30
0.0
 41
2.5
 42
2.5
 43
2.5
  0
LINE
  5
9C
330
1E
100
AcDbEntity
  8
BEM
100
AcDbLine
 10
570.0
 20
0.0
 30
0.0
 11
570.0
 21
12.5
 31
0.0
  0
LINE
  5
13E
330
1E
100
AcDbEntity
  8
HILF
100
AcDbLine
 10
0.0
 20
0.0
 30
0.0
 11
0.0
 21
742.4999999999999
 31
0.0
  0
LINE
  5
13F
330
1E
100
AcDbEntity
  8
STEMPEL
100
AcDbLine
 10
50.0
 20
12.5
 30
0.0
 11
50.0
 21
730.0
 31
0.0
  0
LINE
  5
14A
330
1E
100
AcDbEntity
  8
HILF
100
AcDbLine
 10
0.0
 20
371.25
 30
0.0
 11
50.0
 21
371.25
 31
0.0
  0
TEXT
  5
15B
330
1E
100
AcDbEntity
  8
BEM
100
AcDbText
 10
1046.627865482146
 20
12.70987634998576
 30
0.0
 40
5.0
  1
Diese Zeichnung ist urheberrechtlich geschützt und bleibt unser Eigentum. Sie darf weder ganz noch teilweise verfielfältigt und nicht an Dritte weitergegeben werden.
 50
90.0
 41
0.8
  7
GREEKS
100
AcDbText
  0
TEXT
  5
E85
330
1E
100
AcDbEntity
  8
TEXT
100
AcDbText
 10
765.3623024866597
 20
111.403304270978
 30
0.0
 40
5.0
  1
DIN EN1123-2
 41
0.8
  7
GREEKS
 72
     1
 11
786.6003977247548
 21
111.403304270978
 31
0.0
100
AcDbText
  0
HATCH
  5
1864
330
1E
100
AcDbEntity
  8
SCHRAFF
100
AcDbHatch
 10
0.0
 20
0.0
 30
0.0
210
0.0
220
0.0
230
1.0
  2
_USER
 70
     0
 71
     1
 91
        8
 92
        7
 72
     0
 73
     1
 93
        4
 10
510.6117740015317
 20
625.4420464345404
 10
513.6117740015317
 20
625.4420464345403
 10
513.6117740015317
 20
630.4420464345403
 10
510.6117740015316
 20
630.4420464345403
 97
        4
330
19EF
330
186A
330
188B
330
186E
 92
        7
 72
     0
 73
     1
 93
        4
 10
513.6117740015317
 20
615.4420464345402
 10
510.6117740015315
 20
615.4420464345401
 10
510.6117740015315
 20
610.4420464345402
 10
513.6117740015317
 20
610.4420464345404
 97
        4
330
188A
330
1872
330
1888
330
1874
 92
        7
 72
     0
 73
     1
 93
        4
 10
513.6117740015317
 20
600.4420464345403
 10
510.6117740015315
 20
600.4420464345401
 10
510.6117740015316
 20
595.4420464345404
 10
513.6117740015315
 20
595.4420464345402
 97
        4
330
1889
330
1871
330
1887
330
1873
 92
        7
 72
     0
 73
     1
 93
        4
 10
513.6117740015317
 20
585.4420464345402
 10
510.6117740015315
 20
585.4420464345402
 10
510.6117740015316
 20
580.4420464345403
 10
513.6117740015315
 20
580.4420464345403
 97
        4
330
18C1
330
188C
330
18C0
330
188E
 92
        7
 72
     0
 73
     1
 93
        4
 10
321.6117740015317
 20
585.4420464345403
 10
318.6117740015316
 20
585.4420464345403
 10
318.6117740015316
 20
580.4420464345403
 10
321.6117740015316
 20
580.4420464345402
 97
        4
330
198C
330
198A
330
198B
330
1989
 92
        7
 72
     0
 73
     1
 93
        4
 10
318.6117740015317
 20
595.4420464345402
 10
321.6117740015316
 20
595.4420464345402
 10
321.6117740015316
 20
600.4420464345401
 10
318.6117740015317
 20
600.4420464345403
 97
        4
330
1952
330
194A
330
194F
330
1949
 92
        7
 72
     0
 73
     1
 93
        4
 10
318.6117740015317
 20
610.4420464345403
 10
321.6117740015316
 20
610.4420464345402
 10
321.6117740015317
 20
615.4420464345403
 10
318.6117740015316
 20
615.4420464345403
 97
        4
330
1950
330
194B
330
1951
330
194C
 92
        7
 72
     0
 73
     1
 93
        4
 10
321.6117740015317
 20
630.4420464345403
 10
318.6117740015316
 20
630.4420464345403
 10
318.6117740015316
 20
625.4420464345401
 10
321.6117740015316
 20
625.4420464345401
 97
        4
330
19EF
330
1947
330
1953
330
1946
 75
     0
 76
     0
 52
45.0
 41
2.0
 77
     0
 78
     1
 53
45.0
 43
41.58079099283168
 44
-445.6575491492676
 45
-1.414213562373094
 46
1.414213562373095
 79
     0
 47
0.3700502662269504
 98
        8
 10
511.8570525880358
 20
627.6359375139145
 10
512.2273863665568
 20
613.5740283202181
 10
511.4867243857397
 20
596.9217649762763
 10
511.4867243857397
 20
583.9700045976551
 10
320.3961508077582
 20
582.1197531149951
 10
320.0258226054621
 20
598.0319172488866
 10
320.0258226054621
 20
612.0938264425831
 10
320.7664790100543
 20
627.2658879088894
  0
HATCH
  5
1865
330
1E
100
AcDbEntity
  8
SCHRAFF
100
AcDbHatch
 10
0.0
 20
0.0
 30
0.0
210
0.0
220
0.0
230
1.0
  2
_USER
 70
     0
 71
     1
 91
       10
 92
        7
 72
     1
 73
     1
 93
        8
 10
505.6117740015313
 20
638.3189408089228
 42
0.0
 10
502.1117740015317
 20
638.3189408089228
 42
0.0
 10
502.1117740015316
 20
635.3189408089228
 42
0.0
 10
505.6117740015314
 20
635.3189408089228
 42
-0.4142135623730951
 10
514.6117740015314
 20
626.3189408089228
 42
0.0
 10
514.6117740015314
 20
615.3189408089229
 42
0.0
 10
517.6117740015314
 20
615.3189408089229
 42
0.0
 10
517.6117740015314
 20
626.3189408089228
 42
0.4142135623730979
 97
        8
330
19EE
330
186D
330
19ED
330
1869
330
1876
330
1875
330
1877
330
1870
 92
        7
 72
     0
 73
     1
 93
        4
 10
485.1117740015317
 20
638.3189408089228
 10
485.1117740015314
 20
635.3189408089228
 10
490.1117740015315
 20
635.318940808923
 10
490.1117740015315
 20
638.3189408089228
 97
        4
330
19EE
330
187A
330
19ED
330
187C
 92
        7
 72
     0
 73
     1
 93
        4
 10
473.1117740015316
 20
638.3189408089228
 10
466.1117740015316
 20
638.3189408089228
 10
466.1117740015317
 20
635.3189408089228
 10
473.1117740015316
 20
635.3189408089227
 97
        4
330
19EE
330
187D
330
19ED
330
1880
 92
        7
 72
     0
 73
     1
 93
        4
 10
446.1117740015317
 20
638.3189408089228
 10
446.1117740015317
 20
635.3189408089228
 10
454.1117740015315
 20
635.318940808923
 10
454.1117740015316
 20
638.3189408089228
 97
        4
330
19EE
330
1929
330
19ED
330
187E
 92
        7
 72
     0
 73
     1
 93
        4
 10
427.6117740015317
 20
638.3189408089228
 10
427.6117740015315
 20
635.3189408089228
 10
434.1117740015317
 20
635.3189408089227
 10
434.1117740015317
 20
638.3189408089228
 97
        4
330
19EE
330
192B
330
19ED
330
192A
 92
        7
 72
     0
 73
     1
 93
        4
 10
404.6117740015317
 20
635.3189408089228
 10
404.6117740015317
 20
638.3189408089228
 10
398.1117740015317
 20
638.3189408089228
 10
398.1117740015317
 20
635.3189408089228
 97
        4
330
19EE
330
192C
330
19ED
330
192E
 92
        7
 72
     0
 73
     1
 93
        4
 10
386.1117740015317
 20
638.3189408089228
 10
378.1117740015317
 20
638.3189408089228
 10
378.1117740015316
 20
635.3189408089228
 10
386.1117740015317
 20
635.3189408089227
 97
        4
330
19EE
330
192F
330
19ED
330
1931
 92
        7
 72
     0
 73
     1
 93
        4
 10
366.1117740015317
 20
638.3189408089228
 10
359.1117740015317
 20
638.3189408089227
 10
359.1117740015317
 20
635.3189408089228
 10
366.1117740015317
 20
635.3189408089227
 97
        4
330
19EE
330
1938
330
19ED
330
193B
 92
        7
 72
     0
 73
     1
 93
        4
 10
347.1117740015317
 20
638.3189408089228
 10
342.1117740015317
 20
638.3189408089229
 10
342.1117740015316
 20
635.3189408089228
 10
347.1117740015318
 20
635.318940808923
 97
        4
330
19EE
330
193E
330
19ED
330
1939
 92
        7
 72
     1
 73
     1
 93
        8
 10
330.1117740015317
 20
638.3189408089228
 42
0.0
 10
326.6117740015317
 20
638.3189408089228
 42
0.4142135623730951
 10
314.6117740015317
 20
626.3189408089228
 42
0.0
 10
314.6117740015317
 20
615.3189408089229
 42
0.0
 10
317.6117740015317
 20
615.3189408089229
 42
0.0
 10
317.6117740015317
 20
626.3189408089228
 42
-0.4142135623730951
 10
326.6117740015317
 20
635.3189408089228
 42
0.0
 10
330.1117740015317
 20
635.3189408089228
 42
0.0
 97
        8
330
19EE
330
1954
330
194E
330
1948
330
194D
330
1956
330
19ED
330
193D
 75
     0
 76
     0
 52
135.0
 41
2.0
 77
     0
 78
     1
 53
135.0
 43
41.58079099283168
 44
-445.6575491492676
 45
-1.414213562373095
 46
-1.414213562373094
 79
     0
 47
0.3700502662269504
 98
       10
 10
507.7834144816561
 20
635.7770426546053
 10
486.6745731213868
 20
636.8871949272156
 10
470.0096980697944
 20
637.2572445322407
 10
450.7525088734555
 20
636.8871949272156
 10
431.4953196771166
 20
636.8871949272156
 10
399.6468935355651
 20
636.5171453221905
 10
382.6116847054518
 20
637.2572445322407
 10
364.4654856922262
 20
637.2572445322407
 10
344.097306312774
 20
637.2572445322407
 10
326.6917692803645
 20
637.2572445322407
  0
HATCH
  5
1866
330
1E
100
AcDbEntity
  8
SCHRAFF
100
AcDbHatch
 10
0.0
 20
0.0
 30
0.0
210
0.0
220
0.0
230
1.0
  2
_USER
 70
     0
 71
     1
 91
        2
 92
        7
 72
     1
 73
     1
 93
        5
 10
485.1117740015314
 20
567.4420464345403
 42
0.0
 10
485.1117740015314
 20
565.4420464345401
 42
0.0
 10
513.6117740015317
 20
565.4420464345401
 42
0.0
 10
513.6117740015318
 20
570.4420464345401
 42
0.0
 10
488.1117740015314
 20
570.4420464345401
 42
0.4142135623730841
 97
        5
330
19F7
330
189F
330
18A1
330
19EA
330
188D
 92
        7
 72
     1
 73
     1
 93
        5
 10
318.6117740015317
 20
570.4420464345402
 42
0.0
 10
318.6117740015317
 20
565.4420464345402
 42
0.0
 10
347.1117740015314
 20
565.4420464345402
 42
0.0
 10
347.1117740015314
 20
567.4420464345401
 42
0.4142135623730951
 10
344.1117740015315
 20
570.4420464345401
 42
0.0
 97
        5
330
19F7
330
1988
330
19EA
330
1958
330
1963
 75
     0
 76
     0
 52
135.0
 41
5.0
 77
     0
 78
     1
 53
135.0
 43
41.58079099283168
 44
-445.6575491492676
 45
-3.535533905932737
 46
-3.535533905932737
 79
     0
 47
0.3700502662269504
 98
        2
 10
488.8965590638372
 20
569.1679961939085
 10
337.8016878401677
 20
569.1679961939085
  0
LINE
  5
1867
102
{ACAD_REACTORS
330
1CCB
102
}
330
1E
100
AcDbEntity
  8
STEMPEL
100
AcDbLine
 10
666.1117740015314
 20
565.4420464345402
 30
0.0
 11
666.1117740015314
 21
562.4420464345401
 31
0.0
  0
LINE
  5
1868
102
{ACAD_REACTORS
330
1C90
102
}
330
1E
100
AcDbEntity
  8
STEMPEL
100
AcDbLine
 10
581.1117740015314
 20
562.4420464345401
 30
0.0
 11
581.1117740015314
 21
560.4420464345402
 31
0.0
  0
ARC
  5
1869
102
{ACAD_REACTORS
330
1865
102
}
330
1E
100
AcDbEntity
  8
STEMPEL
100
AcDbCircle
 10
505.6117740015314
 20
626.3189408089228
 30
0.0
 40
9.000000000000003
100
AcDbArc
 50
0.0
 51
90.0
  0
LINE
  5
186A
102
{ACAD_REACTORS
330
1864
102
}
330
1E
100
AcDbEntity
  8
STEMPEL
100
AcDbLine
 10
510.6117740015316
 20
630.4420464345403
 30
0.0
 11
510.6117740015316
 21
625.4420464345403
 31
0.0
  0
LINE
  5
186B
330
1E
100
AcDbEntity
  8
MITTEL
100
AcDbLine
 10
496.1117740015317
 20
641.3189408089229
 30
0.0
 11
496.1117740015314
 21
632.3189408089229
 31
0.0
  0
LINE
  5
186C
330
1E
100
AcDbEntity
  8
MITTEL
100
AcDbLine
 10
496.1117740015317
 20
641.3189408089229
 30
0.0
 11
496.1117740015314
 21
632.3189408089229
 31
0.0
  0
LINE
  5
186D
102
{ACAD_REACTORS
330
1865
102
}
330
1E
100
AcDbEntity
  8
STEMPEL
100
AcDbLine
 10
502.1117740015316
 20
638.3189408089228
 30
0.0
 11
502.1117740015316
 21
635.3189408089228
 31
0.0
  0
LINE
  5
186E
102
{ACAD_REACTORS
330
1864
102
}
330
1E
100
AcDbEntity
  8
STEMPEL
100
AcDbLine
 10
513.6117740015317
 20
630.4420464345403
 30
0.0
 11
513.6117740015317
 21
625.4420464345403
 31
0.0
  0
ARC
  5
186F
330
1E
100
AcDbEntity
  8
STEMPEL
100
AcDbCircle
 10
505.6117740015314
 20
626.3189408089228
 30
0.0
 40
12.0
100
AcDbArc
 50
0.0
 51
90.0
  0
ARC
  5
1870
102
{ACAD_REACTORS
330
1865
102
}
330
1E
100
AcDbEntity
  8
STEMPEL
100
AcDbCircle
 10
505.6117740015314
 20
626.3189408089228
 30
0.0
 40
12.0
100
AcDbArc
 50
0.0
 51
90.0
  0
LINE
  5
1871
102
{ACAD_REACTORS
330
1864
102
}
330
1E
100
AcDbEntity
  8
STEMPEL
100
AcDbLine
 10
510.6117740015316
 20
600.4420464345403
 30
0.0
 11
510.6117740015316
 21
595.4420464345402
 31
0.0
  0
LINE
  5
1872
102
{ACAD_REACTORS
330
1864
102
}
330
1E
100
AcDbEntity
  8
STEMPEL
100
AcDbLine
 10
510.6117740015316
 20
615.4420464345403
 30
0.0
 11
510.6117740015316
 21
610.4420464345403
 31
0.0
  0
LINE
  5
1873
102
{ACAD_REACTORS
330
1864
102
}
330
1E
100
AcDbEntity
  8
STEMPEL
100
AcDbLine
 10
513.6117740015317
 20
600.4420464345403
 30
0.0
 11
513.6117740015317
 21
595.4420464345402
 31
0.0
  0
LINE
  5
1874
102
{ACAD_REACTORS
330
1864
102
}
330
1E
100
AcDbEntity
  8
STEMPEL
100
AcDbLine
 10
513.6117740015317
 20
615.4420464345403
 30
0.0
 11
513.6117740015317
 21
610.4420464345403
 31
0.0
  0
LINE
  5
1875
102
{ACAD_REACTORS
330
1865
102
}
330
1E
100
AcDbEntity
  8
STEMPEL
100
AcDbLine
 10
517.6117740015314
 20
615.3189408089229
 30
0.0
 11
513.6117740015317
 21
615.3189408089229
 31
0.0
  0
LINE
  5
1876
102
{ACAD_REACTORS
330
1865
102
}
330
1E
100
AcDbEntity
  8
STEMPEL
100
AcDbLine
 10
514.6117740015314
 20
615.3189408089229
 30
0.0
 11
514.6117740015314
 21
626.3189408089228
 31
0.0
  0
LINE
  5
1877
102
{ACAD_REACTORS
330
1865
102
}
330
1E
100
AcDbEntity
  8
STEMPEL
100
AcDbLine
 10
517.6117740015314
 20
615.3189408089229
 30
0.0
 11
517.6117740015314
 21
626.3189408089228
 31
0.0
  0
LINE
  5
1878
330
1E
100
AcDbEntity
  8
BEM
100
AcDbLine
 10
517.6117740015314
 20
615.3189408089229
 30
0.0
 11
517.6117740015314
 21
626.3189408089228
 31
0.0
  0
LINE
  5
1879
330
1E
100
AcDbEntity
  8
STEMPEL
100
AcDbLine
 10
517.6117740015314
 20
615.3189408089229
 30
0.0
 11
517.6117740015314
 21
626.3189408089228
 31
0.0
  0
LINE
  5
187A
102
{ACAD_REACTORS
330
1865
102
}
330
1E
100
AcDbEntity
  8
STEMPEL
100
AcDbLine
 10
485.1117740015316
 20
638.3189408089228
 30
0.0
 11
485.1117740015314
 21
635.3189408089228
 31
0.0
  0
LINE
  5
187B
330
1E
100
AcDbEntity
  8
MITTEL
100
AcDbLine
 10
479.1117740015316
 20
641.3189408089229
 30
0.0
 11
479.1117740015314
 21
632.3189408089229
 31
0.0
  0
LINE
  5
187C
102
{ACAD_REACTORS
330
1865
102
}
330
1E
100
AcDbEntity
  8
STEMPEL
100
AcDbLine
 10
490.1117740015316
 20
638.3189408089228
 30
0.0
 11
490.1117740015314
 21
635.3189408089228
 31
0.0
  0
LINE
  5
187D
102
{ACAD_REACTORS
330
1865
102
}
330
1E
100
AcDbEntity
  8
STEMPEL
100
AcDbLine
 10
466.1117740015316
 20
638.3189408089228
 30
0.0
 11
466.1117740015316
 21
635.3189408089228
 31
0.0
  0
LINE
  5
187E
102
{ACAD_REACTORS
330
1865
102
}
330
1E
100
AcDbEntity
  8
STEMPEL
100
AcDbLine
 10
454.1117740015316
 20
638.3189408089228
 30
0.0
 11
454.1117740015314
 21
635.3189408089228
 31
0.0
  0
LINE
  5
187F
330
1E
100
AcDbEntity
  8
MITTEL
100
AcDbLine
 10
460.1117740015316
 20
641.3189408089229
 30
0.0
 11
460.1117740015316
 21
632.3189408089229
 31
0.0
  0
LINE
  5
1880
102
{ACAD_REACTORS
330
1865
102
}
330
1E
100
AcDbEntity
  8
STEMPEL
100
AcDbLine
 10
473.1117740015316
 20
638.3189408089228
 30
0.0
 11
473.1117740015316
 21
635.3189408089228
 31
0.0
  0
LINE
  5
1881
330
1E
100
AcDbEntity
  8
STEMPEL
100
AcDbLine
 10
488.0258847939543
 20
610.4420464345403
 30
0.0
 11
488.0258847939543
 21
600.4420464345403
 31
0.0
  0
LINE
  5
1882
330
1E
100
AcDbEntity
  8
STEMPEL
100
AcDbLine
 10
477.4192830761561
 20
610.4420464345403
 30
0.0
 11
477.4192830761561
 21
600.4420464345403
 31
0.0
  0
LINE
  5
1883
330
1E
100
AcDbEntity
  8
STEMPEL
100
AcDbLine
 10
490.1537102847684
 20
610.4420464345403
 30
0.0
 11
490.1537102847684
 21
600.4420464345403
 31
0.0
  0
LINE
  5
1884
330
1E
100
AcDbEntity
  8
STEMPEL
100
AcDbLine
 10
477.4192830761561
 20
625.4420464345403
 30
0.0
 11
477.4192830761561
 21
615.4420464345403
 31
0.0
  0
LINE
  5
1885
330
1E
100
AcDbEntity
  8
STEMPEL
100
AcDbLine
 10
488.0258847939543
 20
625.4420464345403
 30
0.0
 11
488.0258847939543
 21
615.4420464345403
 31
0.0
  0
LINE
  5
1886
330
1E
100
AcDbEntity
  8
STEMPEL
100
AcDbLine
 10
490.1537102847684
 20
625.4420464345403
 30
0.0
 11
490.1537102847684
 21
615.4420464345403
 31
0.0
  0
LINE
  5
1887
102
{ACAD_REACTORS
330
1864
102
}
330
1E
100
AcDbEntity
  8
STEMPEL
100
AcDbLine
 10
488.0258847939543
 20
595.4420464345402
 30
0.0
 11
513.6117740015317
 21
595.4420464345402
 31
0.0
  0
LINE
  5
1888
102
{ACAD_REACTORS
330
1864
102
}
330
1E
100
AcDbEntity
  8
STEMPEL
100
AcDbLine
 10
488.0258847939543
 20
610.4420464345403
 30
0.0
 11
513.6117740015317
 21
610.4420464345403
 31
0.0
  0
LINE
  5
1889
102
{ACAD_REACTORS
330
1864
102
}
330
1E
100
AcDbEntity
  8
STEMPEL
100
AcDbLine
 10
488.0258847939543
 20
600.4420464345403
 30
0.0
 11
513.6117740015317
 21
600.4420464345403
 31
0.0
  0
LINE
  5
188A
102
{ACAD_REACTORS
330
1864
102
}
330
1E
100
AcDbEntity
  8
STEMPEL
100
AcDbLine
 10
488.0258847939543
 20
615.4420464345403
 30
0.0
 11
513.6117740015317
 21
615.4420464345403
 31
0.0
  0
LINE
  5
188B
102
{ACAD_REACTORS
330
1864
102
}
330
1E
100
AcDbEntity
  8
STEMPEL
100
AcDbLine
 10
488.0258847939543
 20
625.4420464345403
 30
0.0
 11
513.6117740015317
 21
625.4420464345403
 31
0.0
  0
LINE
  5
188C
102
{ACAD_REACTORS
330
1864
102
}
330
1E
100
AcDbEntity
  8
STEMPEL
100
AcDbLine
 10
510.6117740015316
 20
585.4420464345403
 30
0.0
 11
510.6117740015316
 21
580.4420464345403
 31
0.0
  0
LINE
  5
188D
102
{ACAD_REACTORS
330
1866
102
}
330
1E
100
AcDbEntity
  8
STEMPEL
100
AcDbLine
 10
513.6117740015318
 20
570.4420464345401
 30
0.0
 11
513.6117740015317
 21
565.4420464345402
 31
0.0
  0
LINE
  5
188E
102
{ACAD_REACTORS
330
1864
102
}
330
1E
100
AcDbEntity
  8
STEMPEL
100
AcDbLine
 10
513.6117740015317
 20
585.4420464345403
 30
0.0
 11
513.6117740015317
 21
580.4420464345403
 31
0.0
  0
LINE
  5
188F
102
{ACAD_REACTORS
330
1C90
102
}
330
1E
100
AcDbEntity
  8
STEMPEL
100
AcDbLine
 10
505.1117740015314
 20
543.44204643454
 30
0.0
 11
497.6062205020663
 21
530.44204643454
 31
0.0
  0
LINE
  5
1890
102
{ACAD_REACTORS
330
1C90
102
}
330
1E
100
AcDbEntity
  8
STEMPEL
100
AcDbLine
 10
505.1117740015314
 20
547.44204643454
 30
0.0
 11
503.5438336908583
 21
556.3342778127061
 31
0.0
  0
LINE
  5
1891
102
{ACAD_REACTORS
330
1C90
102
}
330
1E
100
AcDbEntity
  8
STEMPEL
100
AcDbLine
 10
505.1117740015314
 20
547.44204643454
 30
0.0
 11
505.1117740015314
 21
543.44204643454
 31
0.0
  0
LINE
  5
1892
102
{ACAD_REACTORS
330
1CCB
330
1D69
102
}
330
1E
100
AcDbEntity
  8
STEMPEL
100
AcDbLine
 10
500.1117740015314
 20
547.0046031169106
 30
0.0
 11
498.6197949257972
 21
555.466036924371
 31
0.0
  0
LINE
  5
1893
102
{ACAD_REACTORS
330
1CCB
330
1D69
102
}
330
1E
100
AcDbEntity
  8
STEMPEL
100
AcDbLine
 10
500.1117740015314
 20
547.0046031169106
 30
0.0
 11
500.1117740015311
 21
544.7817923966958
 31
0.0
  0
LINE
  5
1894
102
{ACAD_REACTORS
330
1D69
102
}
330
1E
100
AcDbEntity
  8
SCHRAFF
100
AcDbLine
 10
499.9150354621239
 20
548.1203628186692
 30
0.0
 11
499.7448649340982
 21
548.4961618857616
 31
0.0
  0
LINE
  5
1895
102
{ACAD_REACTORS
330
1C90
330
1CCB
102
}
330
1E
100
AcDbEntity
  8
STEMPEL
100
AcDbLine
 10
503.1117740015314
 20
547.2670691074884
 30
0.0
 11
501.5742181848339
 21
555.986981457372
 31
0.0
  0
LINE
  5
1896
102
{ACAD_REACTORS
330
1C90
330
1CCB
102
}
330
1E
100
AcDbEntity
  8
STEMPEL
100
AcDbLine
 10
503.1117740015314
 20
547.2670691074884
 30
0.0
 11
503.1117740015314
 21
543.9779448194023
 31
0.0
  0
ARC
  5
1897
102
{ACAD_REACTORS
330
1CCB
102
}
330
1E
100
AcDbEntity
  8
STEMPEL
100
AcDbCircle
 10
506.990660826401
 20
556.9420464345402
 30
0.0
 40
8.5
100
AcDbArc
 50
90.0
 51
189.9999999999986
  0
ARC
  5
1898
102
{ACAD_REACTORS
330
1C90
330
1CCB
102
}
330
1E
100
AcDbEntity
  8
STEMPEL
100
AcDbCircle
 10
506.990660826401
 20
556.9420464345402
 30
0.0
 40
5.5
100
AcDbArc
 50
90.0
 51
189.9999999999986
  0
ARC
  5
1899
102
{ACAD_REACTORS
330
1C90
102
}
330
1E
100
AcDbEntity
  8
STEMPEL
100
AcDbCircle
 10
506.990660826401
 20
556.9420464345402
 30
0.0
 40
3.5
100
AcDbArc
 50
90.0
 51
189.9999999999986
  0
ARC
  5
189A
102
{ACAD_REACTORS
330
1D69
102
}
330
1E
100
AcDbEntity
  8
STEMPEL
100
AcDbCircle
 10
491.1041343264449
 20
560.6879574457938
 30
0.0
 40
2.0
100
AcDbArc
 50
4.999999999999743
 51
90.0
  0
ARC
  5
189B
102
{ACAD_REACTORS
330
1D69
102
}
330
1E
100
AcDbEntity
  8
STEMPEL
100
AcDbCircle
 10
489.1193229848258
 20
560.6879574457938
 30
0.0
 40
2.0
100
AcDbArc
 50
90.0
 51
160.2502000024522
  0
LINE
  5
189C
102
{ACAD_REACTORS
330
1CA0
330
1D69
102
}
330
1E
100
AcDbEntity
  8
STEMPEL
100
AcDbLine
 10
491.1117740015316
 20
560.6879574457938
 30
0.0
 11
489.1117740015316
 21
560.6879574457938
 31
0.0
  0
LINE
  5
189D
102
{ACAD_REACTORS
330
1D69
102
}
330
1E
100
AcDbEntity
  8
STEMPEL
100
AcDbLine
 10
487.4603424870327
 20
562.6879574457937
 30
0.0
 11
491.1041343264449
 21
562.6879574457937
 31
0.0
  0
ARC
  5
189E
102
{ACAD_REACTORS
330
1D69
102
}
330
1E
100
AcDbEntity
  8
STEMPEL
100
AcDbCircle
 10
489.1193229848258
 20
560.6879574457938
 30
0.0
 40
2.0
100
AcDbArc
 50
174.7205927399823
 51
175.0000000000002
  0
ARC
  5
189F
102
{ACAD_REACTORS
330
1866
102
}
330
1E
100
AcDbEntity
  8
STEMPEL
100
AcDbCircle
 10
488.1117740015314
 20
567.4420464345401
 30
0.0
 40
3.0
100
AcDbArc
 50
90.0
 51
180.0
  0
LINE
  5
18A0
102
{ACAD_REACTORS
330
1D85
330
1DAD
102
}
330
1E
100
AcDbEntity
  8
STEMPEL
  6
Continuous
100
AcDbLine
 10
487.6117740015314
 20
565.4420464345402
 30
0.0
 11
487.6117740015314
 21
565.0178937149584
 31
0.0
  0
LINE
  5
18A1
102
{ACAD_REACTORS
330
1866
330
1D85
102
}
330
1E
100
AcDbEntity
  8
STEMPEL
  6
Continuous
100
AcDbLine
 10
485.1117740015314
 20
567.4420464345401
 30
0.0
 11
485.1117740015314
 21
565.0178937149584
 31
0.0
  0
ARC
  5
18A2
102
{ACAD_REACTORS
330
1DAD
102
}
330
1E
100
AcDbEntity
  8
SCHRAFF
100
AcDbCircle
 10
487.0212044903122
 20
566.2378831857857
 30
0.0
 40
2.698710869971264
100
AcDbArc
 50
281.4135709826254
 51
342.8487496861435
  0
LINE
  5
18A4
330
1E
100
AcDbEntity
  8
STEMPEL
100
AcDbLine
 10
488.0258847939543
 20
580.4420464345403
 30
0.0
 11
488.0258847939543
 21
570.4420464345401
 31
0.0
  0
LINE
  5
18A5
330
1E
100
AcDbEntity
  8
STEMPEL
100
AcDbLine
 10
477.4192830761561
 20
580.4420464345403
 30
0.0
 11
477.4192830761561
 21
570.4420464345401
 31
0.0
  0
LINE
  5
18A6
330
1E
100
AcDbEntity
  8
STEMPEL
100
AcDbLine
 10
490.1537102847684
 20
580.4420464345403
 30
0.0
 11
490.1537102847684
 21
570.4420464345401
 31
0.0
  0
LINE
  5
18A7
102
{ACAD_REACTORS
330
1CCB
102
}
330
1E
100
AcDbEntity
  8
STEMPEL
100
AcDbLine
 10
482.6117740015316
 20
529.6879574457938
 30
0.0
 11
494.3384322601592
 21
529.6879574457936
 31
0.0
  0
LINE
  5
18A8
102
{ACAD_REACTORS
330
1CCB
330
1D69
102
}
330
1E
100
AcDbEntity
  8
STEMPEL
100
AcDbLine
 10
482.6117740015316
 20
532.6879574457938
 30
0.0
 11
493.1117740015302
 21
532.6879574457937
 31
0.0
  0
LINE
  5
18A9
102
{ACAD_REACTORS
330
1CCB
102
}
330
1E
100
AcDbEntity
  8
STEMPEL
100
AcDbLine
 10
486.1117740015314
 20
532.6879574457937
 30
0.0
 11
486.1117740015314
 21
529.6879574457936
 31
0.0
  0
LINE
  5
18AA
102
{ACAD_REACTORS
330
1D69
102
}
330
1E
100
AcDbEntity
  8
STEMPEL
100
AcDbLine
 10
486.1117740015316
 20
533.6879574457936
 30
0.0
 11
487.8438248091005
 21
532.6879574457937
 31
0.0
  0
LINE
  5
18AB
102
{ACAD_REACTORS
330
1D69
102
}
330
1E
100
AcDbEntity
  8
STEMPEL
100
AcDbLine
 10
482.6117740015316
 20
533.6879574457936
 30
0.0
 11
486.1117740015316
 21
533.6879574457936
 31
0.0
  0
ARC
  5
18AC
102
{ACAD_REACTORS
330
1D69
102
}
330
1E
100
AcDbEntity
  8
STEMPEL
100
AcDbCircle
 10
490.6780172717909
 20
534.44204643454
 30
0.0
 40
3.0
100
AcDbArc
 50
324.2184600139424
 51
330.0000000000003
  0
LINE
  5
18AD
102
{ACAD_REACTORS
330
1CA0
330
1D69
102
}
330
1E
100
AcDbEntity
  8
STEMPEL
100
AcDbLine
 10
491.1117740015314
 20
537.6879574457936
 30
0.0
 11
489.1117740015314
 21
537.6879574457936
 31
0.0
  0
ARC
  5
18AE
102
{ACAD_REACTORS
330
1D69
102
}
330
1E
100
AcDbEntity
  8
STEMPEL
100
AcDbCircle
 10
486.2070817515188
 20
550.1879574457936
 30
0.0
 40
2.5
100
AcDbArc
 50
85.3203085136834
 51
170.0000000000014
  0
ARC
  5
18AF
102
{ACAD_REACTORS
330
1D85
102
}
330
1E
100
AcDbEntity
  8
STEMPEL
  6
Continuous
100
AcDbCircle
 10
492.6117740015317
 20
549.0491742922873
 30
0.0
 40
10.0
100
AcDbArc
 50
145.2280559680519
 51
180.0
  0
LINE
  5
18B0
102
{ACAD_REACTORS
330
1D69
102
}
330
1E
100
AcDbEntity
  8
STEMPEL
100
AcDbLine
 10
482.6117740015319
 20
544.1948801752223
 30
0.0
 11
483.7450623689879
 21
550.622077889961
 31
0.0
  0
LINE
  5
18B1
330
1E
100
AcDbEntity
  8
STEMPEL
100
AcDbLine
 10
483.2973090592089
 20
552.6879574457937
 30
0.0
 11
486.2070817515188
 21
552.6879574457937
 31
0.0
  0
ARC
  5
18B2
102
{ACAD_REACTORS
330
1D85
102
}
330
1E
100
AcDbEntity
  8
STEMPEL
  6
Continuous
100
AcDbCircle
 10
492.6117740015317
 20
549.0491742922873
 30
0.0
 40
12.5
100
AcDbArc
 50
145.2280559680519
 51
180.0
  0
ARC
  5
18B3
102
{ACAD_REACTORS
330
1D69
102
}
330
1E
100
AcDbEntity
  8
STEMPEL
100
AcDbCircle
 10
495.1205975499347
 20
550.061475785568
 30
0.0
 40
1.0
100
AcDbArc
 50
207.3347309689197
 51
312.1084455786925
  0
ARC
  5
18B4
102
{ACAD_REACTORS
330
1D69
102
}
330
1E
100
AcDbEntity
  8
STEMPEL
100
AcDbCircle
 10
496.0089365998586
 20
550.5206639086507
 30
0.0
 40
2.0
100
AcDbArc
 50
184.9999999999997
 51
207.3347309689197
  0
ARC
  5
18B5
102
{ACAD_REACTORS
330
1D85
102
}
330
1E
100
AcDbEntity
  8
STEMPEL
  6
Continuous
100
AcDbCircle
 10
469.6117740015314
 20
565.0178937149584
 30
0.0
 40
15.5
100
AcDbArc
 50
325.2280559680519
 51
0.0
  0
ARC
  5
18B6
102
{ACAD_REACTORS
330
1D69
330
1D85
330
1DAD
102
}
330
1E
100
AcDbEntity
  8
STEMPEL
  6
Continuous
100
AcDbCircle
 10
469.6117740015314
 20
565.0178937149584
 30
0.0
 40
18.0
100
AcDbArc
 50
325.2280559680519
 51
0.0
  0
LINE
  5
18B7
102
{ACAD_REACTORS
330
1CA0
330
1D69
102
}
330
1E
100
AcDbEntity
  8
STEMPEL
100
AcDbLine
 10
489.1117740015314
 20
537.6879574457936
 30
0.0
 11
489.1117740015316
 21
560.6879574457938
 31
0.0
  0
LINE
  5
18B8
102
{ACAD_REACTORS
330
1D69
102
}
330
1E
100
AcDbEntity
  8
STEMPEL
100
AcDbLine
 10
486.4110448638688
 20
552.6796233641723
 30
0.0
 11
487.1269335886423
 21
560.8622689312891
 31
0.0
  0
LINE
  5
18B9
102
{ACAD_REACTORS
330
1D69
102
}
330
1E
100
AcDbEntity
  8
STEMPEL
100
AcDbLine
 10
493.0965237226283
 20
560.8622689312891
 30
0.0
 11
494.0165472036752
 21
550.3463524231555
 31
0.0
  0
LINE
  5
18BA
102
{ACAD_REACTORS
330
1CA0
330
1D69
102
}
330
1E
100
AcDbEntity
  8
STEMPEL
100
AcDbLine
 10
491.1117740015314
 20
537.6879574457936
 30
0.0
 11
491.1117740015316
 21
560.6879574457938
 31
0.0
  0
LINE
  5
18BB
102
{ACAD_REACTORS
330
1CCB
330
1D69
102
}
330
1E
100
AcDbEntity
  8
STEMPEL
100
AcDbLine
 10
500.1117740015311
 20
544.7817923966958
 30
0.0
 11
493.2760934831441
 21
532.9420464345401
 31
0.0
  0
LINE
  5
18BC
102
{ACAD_REACTORS
330
1C90
330
1CCB
102
}
330
1E
100
AcDbEntity
  8
STEMPEL
100
AcDbLine
 10
503.1117740015314
 20
543.9779448194023
 30
0.0
 11
495.8741696944972
 21
531.4420464345401
 31
0.0
  0
ARC
  5
18BE
102
{ACAD_REACTORS
330
1D69
102
}
330
1E
100
AcDbEntity
  8
STEMPEL
100
AcDbCircle
 10
497.467473484328
 20
547.4649062508617
 30
0.0
 40
2.499999999999997
100
AcDbArc
 50
24.36211970559355
 51
132.1084455786925
  0
LINE
  5
18BF
330
1E
100
AcDbEntity
  8
STEMPEL
100
AcDbLine
 10
497.4674734843275
 20
549.9649062508617
 30
0.0
 11
494.0877043323259
 21
549.9649062508617
 31
0.0
  0
LINE
  5
18C0
102
{ACAD_REACTORS
330
1864
102
}
330
1E
100
AcDbEntity
  8
STEMPEL
100
AcDbLine
 10
488.0258847939543
 20
580.4420464345403
 30
0.0
 11
513.6117740015317
 21
580.4420464345403
 31
0.0
  0
LINE
  5
18C1
102
{ACAD_REACTORS
330
1864
102
}
330
1E
100
AcDbEntity
  8
STEMPEL
100
AcDbLine
 10
488.0258847939543
 20
585.4420464345403
 30
0.0
 11
513.6117740015317
 21
585.4420464345403
 31
0.0
  0
LINE
  5
18C2
330
1E
100
AcDbEntity
  8
STEMPEL
100
AcDbLine
 10
477.4192830761561
 20
595.4420464345402
 30
0.0
 11
477.4192830761561
 21
585.4420464345403
 31
0.0
  0
LINE
  5
18C3
330
1E
100
AcDbEntity
  8
STEMPEL
100
AcDbLine
 10
490.1537102847684
 20
595.4420464345402
 30
0.0
 11
490.1537102847684
 21
585.4420464345403
 31
0.0
  0
LINE
  5
18C4
330
1E
100
AcDbEntity
  8
STEMPEL
100
AcDbLine
 10
488.0258847939543
 20
595.4420464345402
 30
0.0
 11
488.0258847939543
 21
585.4420464345403
 31
0.0
  0
LINE
  5
18C5
102
{ACAD_REACTORS
330
1C90
102
}
330
1E
100
AcDbEntity
  8
STEMPEL
100
AcDbLine
 10
581.1117740015314
 20
560.4420464345402
 30
0.0
 11
506.990660826401
 21
560.4420464345402
 31
0.0
  0
LINE
  5
18C7
102
{ACAD_REACTORS
330
1C90
330
1CCB
102
}
330
1E
100
AcDbEntity
  8
STEMPEL
100
AcDbLine
 10
506.990660826401
 20
562.4420464345401
 30
0.0
 11
666.1117740015314
 21
562.4420464345401
 31
0.0
  0
POINT
  5
18CA
330
1E
100
AcDbEntity
  8
DEFPOINTS
  6
ByBlock
 62
     0
100
AcDbPoint
 10
666.1117740015316
 20
382.4420464345401
 30
0.0
  0
LINE
  5
18CB
102
{ACAD_REACTORS
330
1CF9
102
}
330
1E
100
AcDbEntity
  8
STEMPEL
100
AcDbLine
 10
666.1117740015316
 20
385.4420464345401
 30
0.0
 11
666.1117740015316
 21
382.4420464345401
 31
0.0
  0
LINE
  5
18CC
102
{ACAD_REACTORS
330
1BF1
102
}
330
1E
100
AcDbEntity
  8
STEMPEL
100
AcDbLine
 10
670.9439451270867
 20
328.0666737516934
 30
0.0
 11
682.8252588127135
 21
326.712969049499
 31
0.0
  0
LINE
  5
18CD
102
{ACAD_REACTORS
330
1BF1
102
}
330
1E
100
AcDbEntity
  8
STEMPEL
100
AcDbLine
 10
670.804299267682
 20
326.0696449222336
 30
0.0
 11
682.7727049327178
 21
324.706017342387
 31
0.0
  0
POINT
  5
18CF
330
1E
100
AcDbEntity
  8
DEFPOINTS
  6
ByBlock
 62
     0
100
AcDbPoint
 10
496.2313054450921
 20
528.6834884150119
 30
0.0
  0
POINT
  5
18D0
330
1E
100
AcDbEntity
  8
DEFPOINTS
  6
ByBlock
 62
     0
100
AcDbPoint
 10
496.2313054450921
 20
528.6834884150119
 30
0.0
  0
POINT
  5
18D1
330
1E
100
AcDbEntity
  8
DEFPOINTS
  6
ByBlock
 62
     0
100
AcDbPoint
 10
496.2313054450921
 20
528.683488415012
 30
0.0
  0
ARC
  5
18D2
102
{ACAD_REACTORS
330
1C64
102
}
330
1E
100
AcDbEntity
  8
STEMPEL
100
AcDbCircle
 10
498.0302282543317
 20
500.2249790315297
 30
0.0
 40
15.42805065682075
100
AcDbArc
 50
150.8471375947866
 51
177.9790346009421
  0
ARC
  5
18D3
102
{ACAD_REACTORS
330
1C64
102
}
330
1E
100
AcDbEntity
  8
STEMPEL
100
AcDbCircle
 10
498.0292091732389
 20
500.2260995593101
 30
0.0
 40
17.42589582896453
100
AcDbArc
 50
151.0363169455742
 51
178.2145006447565
  0
LINE
  5
18D4
102
{ACAD_REACTORS
330
1C64
330
1DB7
102
}
330
1E
100
AcDbEntity
  8
STEMPEL
100
AcDbLine
 10
484.5565545028108
 20
507.7406202355123
 30
0.0
 11
493.885503096123
 21
525.6475146291154
 31
0.0
  0
LINE
  5
18D5
102
{ACAD_REACTORS
330
1C64
102
}
330
1E
100
AcDbEntity
  8
STEMPEL
100
AcDbLine
 10
482.7828254082192
 20
508.6646792698815
 30
0.0
 11
492.1117740015314
 21
526.5715736634847
 31
0.0
  0
LINE
  5
18D6
330
1E
100
AcDbEntity
  8
STEMPEL
100
AcDbLine
 10
482.6117740015316
 20
526.44204643454
 30
0.0
 11
490.6780172717909
 21
526.44204643454
 31
0.0
  0
LINE
  5
18D7
102
{ACAD_REACTORS
330
1C90
102
}
330
1E
100
AcDbEntity
  8
STEMPEL
100
AcDbLine
 10
482.6117740015316
 20
526.44204643454
 30
0.0
 11
490.6780172717907
 21
526.44204643454
 31
0.0
  0
LINE
  5
18D8
102
{ACAD_REACTORS
330
1C90
102
}
330
1E
100
AcDbEntity
  8
STEMPEL
100
AcDbLine
 10
482.6117740015316
 20
528.4420464345401
 30
0.0
 11
490.6780172717909
 21
528.4420464345401
 31
0.0
  0
LINE
  5
18D9
102
{ACAD_REACTORS
330
1C90
102
}
330
1E
100
AcDbEntity
  8
STEMPEL
100
AcDbLine
 10
486.6117740015314
 20
528.4420464345401
 30
0.0
 11
486.6117740015314
 21
526.44204643454
 31
0.0
  0
LINE
  5
18DA
102
{ACAD_REACTORS
330
1C64
330
1DB7
102
}
330
1E
100
AcDbEntity
  8
STEMPEL
100
AcDbLine
 10
492.1117740015314
 20
526.5715736634847
 30
0.0
 11
493.885503096123
 21
525.6475146291154
 31
0.0
  0
ARC
  5
18DB
102
{ACAD_REACTORS
330
1DB7
102
}
330
1E
100
AcDbEntity
  8
SCHRAFF
100
AcDbCircle
 10
492.1117740015314
 20
526.5715736634847
 30
0.0
 40
4.0
100
AcDbArc
 50
272.4818537301948
 51
24.80181869606339
  0
POINT
  5
18DC
330
1E
100
AcDbEntity
  8
DEFPOINTS
  6
ByBlock
 62
     0
100
AcDbPoint
 10
581.1117740015316
 20
382.4420464345401
 30
0.0
  0
LINE
  5
18DD
102
{ACAD_REACTORS
330
1C3F
102
}
330
1E
100
AcDbEntity
  8
STEMPEL
100
AcDbLine
 10
581.1117740015316
 20
382.4420464345401
 30
0.0
 11
581.1117740015316
 21
380.4420464345401
 31
0.0
  0
POINT
  5
18DE
330
1E
100
AcDbEntity
  8
DEFPOINTS
  6
ByBlock
 62
     0
100
AcDbPoint
 10
581.1117740015316
 20
382.4420464345401
 30
0.0
  0
LINE
  5
18DF
102
{ACAD_REACTORS
330
1C3F
102
}
330
1E
100
AcDbEntity
  8
STEMPEL
100
AcDbLine
 10
505.1117740015317
 20
367.4420464345402
 30
0.0
 11
505.1117740015317
 21
363.4420464345402
 31
0.0
  0
LINE
  5
18E0
102
{ACAD_REACTORS
330
1C3F
102
}
330
1E
100
AcDbEntity
  8
STEMPEL
100
AcDbLine
 10
505.1117740015317
 20
367.4420464345402
 30
0.0
 11
503.5438336908588
 21
376.334277812706
 31
0.0
  0
LINE
  5
18E1
102
{ACAD_REACTORS
330
1CF9
330
1D2F
102
}
330
1E
100
AcDbEntity
  8
STEMPEL
100
AcDbLine
 10
500.1117740015316
 20
367.0046031169106
 30
0.0
 11
500.1117740015314
 21
364.7817923966959
 31
0.0
  0
LINE
  5
18E2
102
{ACAD_REACTORS
330
1D2F
102
}
330
1E
100
AcDbEntity
  8
SCHRAFF
100
AcDbLine
 10
499.9150354621241
 20
368.1203628186693
 30
0.0
 11
499.7448649340982
 21
368.4961618857617
 31
0.0
  0
LINE
  5
18E3
102
{ACAD_REACTORS
330
1CF9
330
1D2F
102
}
330
1E
100
AcDbEntity
  8
STEMPEL
100
AcDbLine
 10
500.1117740015316
 20
367.0046031169106
 30
0.0
 11
498.6197949257975
 21
375.4660369243709
 31
0.0
  0
LINE
  5
18E4
102
{ACAD_REACTORS
330
1C3F
330
1CF9
102
}
330
1E
100
AcDbEntity
  8
STEMPEL
100
AcDbLine
 10
503.1117740015316
 20
367.2670691074884
 30
0.0
 11
503.1117740015316
 21
363.9779448194024
 31
0.0
  0
LINE
  5
18E5
102
{ACAD_REACTORS
330
1C3F
330
1CF9
102
}
330
1E
100
AcDbEntity
  8
STEMPEL
100
AcDbLine
 10
503.1117740015316
 20
367.2670691074884
 30
0.0
 11
501.5742181848342
 21
375.9869814573719
 31
0.0
  0
ARC
  5
18E6
102
{ACAD_REACTORS
330
1C3F
330
1CF9
102
}
330
1E
100
AcDbEntity
  8
STEMPEL
100
AcDbCircle
 10
506.9906608264012
 20
376.9420464345401
 30
0.0
 40
5.5
100
AcDbArc
 50
90.0
 51
189.9999999999986
  0
ARC
  5
18E7
102
{ACAD_REACTORS
330
1C3F
102
}
330
1E
100
AcDbEntity
  8
STEMPEL
100
AcDbCircle
 10
506.9906608264014
 20
376.9420464345402
 30
0.0
 40
3.5
100
AcDbArc
 50
90.0
 51
189.9999999999986
  0
ARC
  5
18E8
102
{ACAD_REACTORS
330
1CF9
102
}
330
1E
100
AcDbEntity
  8
STEMPEL
100
AcDbCircle
 10
506.9906608264012
 20
376.9420464345401
 30
0.0
 40
8.5
100
AcDbArc
 50
90.0
 51
189.9999999999986
  0
LINE
  5
18E9
102
{ACAD_REACTORS
330
1C4C
330
1D2F
102
}
330
1E
100
AcDbEntity
  8
STEMPEL
100
AcDbLine
 10
489.1117740015316
 20
357.6879574457937
 30
0.0
 11
489.1117740015316
 21
380.6879574457937
 31
0.0
  0
LINE
  5
18EA
102
{ACAD_REACTORS
330
1C4C
330
1D2F
102
}
330
1E
100
AcDbEntity
  8
STEMPEL
100
AcDbLine
 10
491.1117740015316
 20
357.6879574457937
 30
0.0
 11
491.1117740015316
 21
380.6879574457937
 31
0.0
  0
LINE
  5
18EB
102
{ACAD_REACTORS
330
1C4C
330
1D2F
102
}
330
1E
100
AcDbEntity
  8
STEMPEL
100
AcDbLine
 10
491.1117740015316
 20
357.6879574457937
 30
0.0
 11
489.1117740015316
 21
357.6879574457937
 31
0.0
  0
LINE
  5
18EC
102
{ACAD_REACTORS
330
1D2F
102
}
330
1E
100
AcDbEntity
  8
STEMPEL
100
AcDbLine
 10
482.6117740015314
 20
382.6879574457937
 30
0.0
 11
491.1041343264452
 21
382.6879574457937
 31
0.0
  0
LINE
  5
18ED
102
{ACAD_REACTORS
330
1C4C
330
1D2F
102
}
330
1E
100
AcDbEntity
  8
STEMPEL
100
AcDbLine
 10
491.1117740015316
 20
380.6879574457937
 30
0.0
 11
489.1117740015316
 21
380.6879574457937
 31
0.0
  0
LINE
  5
18EE
102
{ACAD_REACTORS
330
1D2F
102
}
330
1E
100
AcDbEntity
  8
STEMPEL
100
AcDbLine
 10
486.411044863869
 20
372.6796233641723
 30
0.0
 11
487.1269335886423
 21
380.862268931289
 31
0.0
  0
LINE
  5
18EF
102
{ACAD_REACTORS
330
1D2F
102
}
330
1E
100
AcDbEntity
  8
STEMPEL
100
AcDbLine
 10
482.6117740015316
 20
364.1948801752209
 30
0.0
 11
483.7450623689882
 21
370.622077889961
 31
0.0
  0
LINE
  5
18F0
330
1E
100
AcDbEntity
  8
STEMPEL
100
AcDbLine
 10
482.6117740015316
 20
372.6879574457937
 30
0.0
 11
486.2070817515188
 21
372.6879574457937
 31
0.0
  0
ARC
  5
18F1
102
{ACAD_REACTORS
330
1D2F
102
}
330
1E
100
AcDbEntity
  8
STEMPEL
100
AcDbCircle
 10
486.2070817515188
 20
370.1879574457937
 30
0.0
 40
2.5
100
AcDbArc
 50
85.3203085136834
 51
170.0000000000014
  0
ARC
  5
18F2
102
{ACAD_REACTORS
330
1D2F
102
}
330
1E
100
AcDbEntity
  8
STEMPEL
100
AcDbCircle
 10
489.1193229848259
 20
380.6879574457937
 30
0.0
 40
2.0
100
AcDbArc
 50
90.0
 51
175.0000000000002
  0
LINE
  5
18F3
102
{ACAD_REACTORS
330
1D2F
102
}
330
1E
100
AcDbEntity
  8
STEMPEL
100
AcDbLine
 10
493.0965237226286
 20
380.862268931289
 30
0.0
 11
494.0165472036752
 21
370.3463524231556
 31
0.0
  0
ARC
  5
18F4
102
{ACAD_REACTORS
330
1D2F
102
}
330
1E
100
AcDbEntity
  8
STEMPEL
100
AcDbCircle
 10
496.0089365998588
 20
370.5206639086507
 30
0.0
 40
2.0
100
AcDbArc
 50
184.9999999999997
 51
207.3347309689197
  0
ARC
  5
18F5
102
{ACAD_REACTORS
330
1D2F
102
}
330
1E
100
AcDbEntity
  8
STEMPEL
100
AcDbCircle
 10
495.1205975499347
 20
370.0614757855681
 30
0.0
 40
1.0
100
AcDbArc
 50
207.3347309689197
 51
312.1084455786925
  0
ARC
  5
18F6
102
{ACAD_REACTORS
330
1D2F
102
}
330
1E
100
AcDbEntity
  8
STEMPEL
100
AcDbCircle
 10
491.1041343264452
 20
380.6879574457937
 30
0.0
 40
2.0
100
AcDbArc
 50
4.999999999999743
 51
90.0
  0
ARC
  5
18F7
102
{ACAD_REACTORS
330
1D2F
102
}
330
1E
100
AcDbEntity
  8
STEMPEL
100
AcDbCircle
 10
497.467473484328
 20
367.4649062508617
 30
0.0
 40
2.499999999999997
100
AcDbArc
 50
24.36211970559355
 51
132.1084455786925
  0
LINE
  5
18F8
330
1E
100
AcDbEntity
  8
STEMPEL
100
AcDbLine
 10
497.4674734843278
 20
369.9649062508618
 30
0.0
 11
494.0877043323259
 21
369.9649062508618
 31
0.0
  0
POINT
  5
18F9
330
1E
100
AcDbEntity
  8
DEFPOINTS
  6
ByBlock
 62
     0
100
AcDbPoint
 10
496.2313054450925
 20
348.6834884150121
 30
0.0
  0
POINT
  5
18FA
330
1E
100
AcDbEntity
  8
DEFPOINTS
  6
ByBlock
 62
     0
100
AcDbPoint
 10
496.2313054450925
 20
348.6834884150121
 30
0.0
  0
LINE
  5
18FB
330
1E
100
AcDbEntity
  8
STEMPEL
100
AcDbLine
 10
482.6117740015316
 20
346.4420464345402
 30
0.0
 11
490.6780172717912
 21
346.4420464345403
 31
0.0
  0
LINE
  5
18FC
102
{ACAD_REACTORS
330
1C06
330
1DC1
330
1DCF
102
}
330
1E
100
AcDbEntity
  8
STEMPEL
100
AcDbLine
 10
493.4337303650091
 20
345.0707634246269
 30
0.0
 11
482.9507958197929
 21
335.8370963885387
 31
0.0
  0
LINE
  5
18FD
330
1E
100
AcDbEntity
  8
STEMPEL
100
AcDbLine
 10
482.6117740015316
 20
348.4420464345401
 30
0.0
 11
490.6780172717909
 21
348.4420464345401
 31
0.0
  0
LINE
  5
18FE
102
{ACAD_REACTORS
330
1CF9
102
}
330
1E
100
AcDbEntity
  8
STEMPEL
100
AcDbLine
 10
482.6117740015316
 20
349.6879574457938
 30
0.0
 11
494.3384322601595
 21
349.6879574457937
 31
0.0
  0
LINE
  5
18FF
102
{ACAD_REACTORS
330
1CF9
330
1D2F
102
}
330
1E
100
AcDbEntity
  8
STEMPEL
100
AcDbLine
 10
482.6117740015316
 20
352.6879574457936
 30
0.0
 11
493.1117740015302
 21
352.6879574457937
 31
0.0
  0
LINE
  5
1900
102
{ACAD_REACTORS
330
1C06
102
}
330
1E
100
AcDbEntity
  8
STEMPEL
100
AcDbLine
 10
492.1117740015317
 20
346.571573663485
 30
0.0
 11
481.6288394563153
 21
337.3379066273968
 31
0.0
  0
LINE
  5
1901
102
{ACAD_REACTORS
330
1BE0
330
1DCF
102
}
330
1E
100
AcDbEntity
  8
STEMPEL
100
AcDbLine
 10
482.6117740015319
 20
333.9920464345401
 30
0.0
 11
483.6322164482045
 21
332.9716039878674
 31
0.0
  0
ARC
  5
1902
102
{ACAD_REACTORS
330
1C06
330
1DCF
102
}
330
1E
100
AcDbEntity
  8
STEMPEL
100
AcDbCircle
 10
483.6117740015317
 20
335.0866912691097
 30
0.0
 40
1.0
100
AcDbArc
 50
131.3745172215649
 51
180.0
  0
LINE
  5
1903
102
{ACAD_REACTORS
330
1C06
330
1DCF
102
}
330
1E
100
AcDbEntity
  8
STEMPEL
100
AcDbLine
 10
482.6117740015316
 20
335.0866912691097
 30
0.0
 11
482.6117740015316
 21
333.9920464345401
 31
0.0
  0
ARC
  5
1905
102
{ACAD_REACTORS
330
1DCF
102
}
330
1E
100
AcDbEntity
  8
SCHRAFF
100
AcDbCircle
 10
483.1219952248683
 20
333.4818252112039
 30
0.0
 40
3.0
100
AcDbArc
 50
348.970032045867
 51
80.19302635884573
  0
LINE
  5
1906
102
{ACAD_REACTORS
330
1D2F
102
}
330
1E
100
AcDbEntity
  8
STEMPEL
100
AcDbLine
 10
482.6117740015316
 20
353.6879574457937
 30
0.0
 11
486.1117740015316
 21
353.6879574457937
 31
0.0
  0
LINE
  5
1907
102
{ACAD_REACTORS
330
1CF9
102
}
330
1E
100
AcDbEntity
  8
STEMPEL
100
AcDbLine
 10
486.1117740015316
 20
352.6879574457937
 30
0.0
 11
486.1117740015316
 21
349.6879574457937
 31
0.0
  0
LINE
  5
1908
102
{ACAD_REACTORS
330
1D2F
102
}
330
1E
100
AcDbEntity
  8
STEMPEL
100
AcDbLine
 10
486.1117740015316
 20
353.6879574457937
 30
0.0
 11
487.8438248091007
 21
352.6879574457937
 31
0.0
  0
ARC
  5
1909
102
{ACAD_REACTORS
330
1C06
102
}
330
1E
100
AcDbEntity
  8
STEMPEL
100
AcDbCircle
 10
483.6117740015317
 20
335.0866912691097
 30
0.0
 40
3.0
100
AcDbArc
 50
131.3745172215649
 51
180.0
  0
LINE
  5
190A
102
{ACAD_REACTORS
330
1C06
102
}
330
1E
100
AcDbEntity
  8
STEMPEL
100
AcDbLine
 10
480.6117740015316
 20
335.0866912691097
 30
0.0
 11
480.6117740015316
 21
333.1636193097939
 31
0.0
  0
LINE
  5
190B
102
{ACAD_REACTORS
330
1BE0
102
}
330
1E
100
AcDbEntity
  8
STEMPEL
100
AcDbLine
 10
480.6117740015316
 20
333.1636193097939
 30
0.0
 11
482.7822168865856
 21
330.9931764247402
 31
0.0
  0
LINE
  5
190C
102
{ACAD_REACTORS
330
1C3F
102
}
330
1E
100
AcDbEntity
  8
STEMPEL
100
AcDbLine
 10
492.1117740015317
 20
348.6158691595246
 30
0.0
 11
492.1117740015317
 21
346.571573663485
 31
0.0
  0
LINE
  5
190E
102
{ACAD_REACTORS
330
1C06
330
1DC1
102
}
330
1E
100
AcDbEntity
  8
STEMPEL
100
AcDbLine
 10
492.1117740015317
 20
346.571573663485
 30
0.0
 11
493.4337303650091
 21
345.0707634246269
 31
0.0
  0
ARC
  5
190F
102
{ACAD_REACTORS
330
1D2F
102
}
330
1E
100
AcDbEntity
  8
STEMPEL
100
AcDbCircle
 10
490.6780172717909
 20
354.4420464345401
 30
0.0
 40
3.0
100
AcDbArc
 50
324.2184600139424
 51
330.0000000000003
  0
ARC
  5
1910
102
{ACAD_REACTORS
330
1C3F
330
1DC1
102
}
330
1E
100
AcDbEntity
  8
STEMPEL
100
AcDbCircle
 10
490.6780172717912
 20
354.4420464345403
 30
0.0
 40
8.0
100
AcDbArc
 50
270.0
 51
330.0000000000003
  0
ARC
  5
1911
102
{ACAD_REACTORS
330
1C3F
330
1CF9
102
}
330
1E
100
AcDbEntity
  8
STEMPEL
100
AcDbCircle
 10
490.6780172717909
 20
354.4420464345401
 30
0.0
 40
6.0
100
AcDbArc
 50
270.0
 51
330.0000000000003
  0
ARC
  5
1912
102
{ACAD_REACTORS
330
1DC1
102
}
330
1E
100
AcDbEntity
  8
SCHRAFF
100
AcDbCircle
 10
490.5909903249758
 20
348.0720820186082
 30
0.0
 40
5.337471079855698
100
AcDbArc
 50
272.0888277223492
 51
3.495018022431691
  0
LINE
  5
1913
102
{ACAD_REACTORS
330
1C3F
330
1CF9
102
}
330
1E
100
AcDbEntity
  8
STEMPEL
100
AcDbLine
 10
503.1117740015316
 20
363.9779448194024
 30
0.0
 11
495.8741696944975
 21
351.4420464345401
 31
0.0
  0
LINE
  5
1914
102
{ACAD_REACTORS
330
1C3F
102
}
330
1E
100
AcDbEntity
  8
STEMPEL
100
AcDbLine
 10
505.1117740015317
 20
363.4420464345402
 30
0.0
 11
497.6062205020667
 21
350.4420464345403
 31
0.0
  0
LINE
  5
1916
102
{ACAD_REACTORS
330
1CF9
330
1D2F
102
}
330
1E
100
AcDbEntity
  8
STEMPEL
100
AcDbLine
 10
500.1117740015314
 20
364.7817923966959
 30
0.0
 11
493.2760934831441
 21
352.9420464345401
 31
0.0
  0
LINE
  5
1917
102
{ACAD_REACTORS
330
1C3F
102
}
330
1E
100
AcDbEntity
  8
STEMPEL
100
AcDbLine
 10
581.1117740015316
 20
380.4420464345401
 30
0.0
 11
506.9906608264014
 21
380.4420464345402
 31
0.0
  0
LINE
  5
1918
102
{ACAD_REACTORS
330
1C64
102
}
330
1E
100
AcDbEntity
  8
STEMPEL
100
AcDbLine
 10
480.6117740015314
 20
500.7690521182803
 30
0.0
 11
480.6117740015314
 21
340.7321648435844
 31
0.0
  0
LINE
  5
1919
102
{ACAD_REACTORS
330
1C64
330
1D2F
102
}
330
1E
100
AcDbEntity
  8
STEMPEL
100
AcDbLine
 10
482.6117740015314
 20
500.7690521182803
 30
0.0
 11
482.6117740015316
 21
340.7321648435844
 31
0.0
  0
LINE
  5
191A
102
{ACAD_REACTORS
330
1CF9
102
}
330
1E
100
AcDbEntity
  8
STEMPEL
100
AcDbLine
 10
482.6117740015314
 20
385.4420464345401
 30
0.0
 11
666.1117740015316
 21
385.4420464345401
 31
0.0
  0
LINE
  5
191C
102
{ACAD_REACTORS
330
1BF1
330
1DCF
102
}
330
1E
100
AcDbEntity
  8
STEMPEL
100
AcDbLine
 10
483.6322164482045
 20
332.9716039878674
 30
0.0
 11
670.8566531642985
 21
328.0689595721847
 31
0.0
  0
LINE
  5
191D
102
{ACAD_REACTORS
330
1BF1
102
}
330
1E
100
AcDbEntity
  8
STEMPEL
100
AcDbLine
 10
482.7822168865856
 20
330.9931764247402
 30
0.0
 11
670.804299267682
 21
326.0696449222336
 31
0.0
  0
LINE
  5
191E
102
{ACAD_REACTORS
330
1C3F
330
1CF9
102
}
330
1E
100
AcDbEntity
  8
STEMPEL
100
AcDbLine
 10
506.9906608264012
 20
382.4420464345401
 30
0.0
 11
666.1117740015316
 21
382.4420464345401
 31
0.0
  0
LINE
  5
1920
102
{ACAD_REACTORS
330
1D69
330
1D85
102
}
330
1E
100
AcDbEntity
  8
STEMPEL
  6
Continuous
100
AcDbLine
 10
482.6117740015316
 20
549.0491742922873
 30
0.0
 11
482.6117740015316
 21
520.4420464345401
 31
0.0
  0
LINE
  5
1921
102
{ACAD_REACTORS
330
1D85
102
}
330
1E
100
AcDbEntity
  8
STEMPEL
  6
Continuous
100
AcDbLine
 10
480.1117740015314
 20
549.0491742922873
 30
0.0
 11
480.1117740015314
 21
520.4420464345401
 31
0.0
  0
ARC
  5
1922
102
{ACAD_REACTORS
330
1C90
330
1DB7
102
}
330
1E
100
AcDbEntity
  8
STEMPEL
100
AcDbCircle
 10
490.6780172717909
 20
534.44204643454
 30
0.0
 40
8.0
100
AcDbArc
 50
270.0
 51
330.0000000000003
  0
ARC
  5
1923
102
{ACAD_REACTORS
330
1C90
330
1CCB
102
}
330
1E
100
AcDbEntity
  8
STEMPEL
100
AcDbCircle
 10
490.6780172717909
 20
534.44204643454
 30
0.0
 40
6.0
100
AcDbArc
 50
270.0
 51
330.0000000000003
  0
LINE
  5
1924
330
1E
100
AcDbEntity
  8
BEM
 62
     1
100
AcDbLine
 10
412.9815406310767
 20
707.0376800970884
 30
0.0
 11
412.9815406310767
 21
698.2876800970885
 31
0.0
  0
LINE
  5
1926
330
1E
100
AcDbEntity
  8
BEM
 62
     1
100
AcDbLine
 10
412.9815406310767
 20
698.2876800970885
 30
0.0
 11
404.2315406310766
 21
698.2876800970885
 31
0.0
  0
LINE
  5
1928
330
1E
100
AcDbEntity
  8
MITTEL
100
AcDbLine
 10
440.1117740015316
 20
641.3189408089229
 30
0.0
 11
440.1117740015316
 21
632.3189408089229
 31
0.0
  0
LINE
  5
1929
102
{ACAD_REACTORS
330
1865
102
}
330
1E
100
AcDbEntity
  8
STEMPEL
100
AcDbLine
 10
446.1117740015317
 20
638.3189408089228
 30
0.0
 11
446.1117740015317
 21
635.3189408089228
 31
0.0
  0
LINE
  5
192A
102
{ACAD_REACTORS
330
1865
102
}
330
1E
100
AcDbEntity
  8
STEMPEL
100
AcDbLine
 10
434.1117740015317
 20
638.3189408089228
 30
0.0
 11
434.1117740015317
 21
635.3189408089228
 31
0.0
  0
LINE
  5
192B
102
{ACAD_REACTORS
330
1865
102
}
330
1E
100
AcDbEntity
  8
STEMPEL
100
AcDbLine
 10
427.6117740015316
 20
638.3189408089228
 30
0.0
 11
427.6117740015316
 21
635.3189408089228
 31
0.0
  0
LINE
  5
192C
102
{ACAD_REACTORS
330
1865
102
}
330
1E
100
AcDbEntity
  8
STEMPEL
100
AcDbLine
 10
398.1117740015317
 20
638.3189408089228
 30
0.0
 11
398.1117740015317
 21
635.3189408089228
 31
0.0
  0
LINE
  5
192D
330
1E
100
AcDbEntity
  8
MITTEL
100
AcDbLine
 10
392.1117740015317
 20
641.3189408089229
 30
0.0
 11
392.1117740015317
 21
632.3189408089229
 31
0.0
  0
LINE
  5
192E
102
{ACAD_REACTORS
330
1865
102
}
330
1E
100
AcDbEntity
  8
STEMPEL
100
AcDbLine
 10
404.6117740015317
 20
638.3189408089228
 30
0.0
 11
404.6117740015317
 21
635.3189408089228
 31
0.0
  0
LINE
  5
192F
102
{ACAD_REACTORS
330
1865
102
}
330
1E
100
AcDbEntity
  8
STEMPEL
100
AcDbLine
 10
378.1117740015317
 20
638.3189408089228
 30
0.0
 11
378.1117740015317
 21
635.3189408089228
 31
0.0
  0
LINE
  5
1930
330
1E
100
AcDbEntity
  8
MITTEL
100
AcDbLine
 10
372.1117740015317
 20
641.3189408089229
 30
0.0
 11
372.1117740015317
 21
632.3189408089229
 31
0.0
  0
LINE
  5
1931
102
{ACAD_REACTORS
330
1865
102
}
330
1E
100
AcDbEntity
  8
STEMPEL
100
AcDbLine
 10
386.1117740015317
 20
638.3189408089228
 30
0.0
 11
386.1117740015317
 21
635.3189408089228
 31
0.0
  0
LINE
  5
1932
330
1E
100
AcDbEntity
  8
STEMPEL
100
AcDbLine
 10
420.1117740015314
 20
556.4420464345402
 30
0.0
 11
420.1117740015314
 21
539.44204643454
 31
0.0
  0
LINE
  5
1933
330
1E
100
AcDbEntity
  8
STEMPEL
100
AcDbLine
 10
414.7308989657032
 20
535.6879574457937
 30
0.0
 11
417.4926490373594
 21
535.6879574457937
 31
0.0
  0
LINE
  5
1934
330
1E
100
AcDbEntity
  8
STEMPEL
100
AcDbLine
 10
412.1117740015314
 20
556.4420464345402
 30
0.0
 11
412.1117740015314
 21
539.44204643454
 31
0.0
  0
ARC
  5
1935
330
1E
100
AcDbEntity
  8
STEMPEL
100
AcDbCircle
 10
416.1117740015314
 20
539.44204643454
 30
0.0
 40
4.0
100
AcDbArc
 50
180.0
 51
0.0
  0
LINE
  5
1936
330
1E
100
AcDbEntity
  8
STEMPEL
100
AcDbLine
 10
412.1117740015314
 20
552.6879574457937
 30
0.0
 11
420.1117740015314
 21
552.6879574457937
 31
0.0
  0
ARC
  5
1937
330
1E
100
AcDbEntity
  8
STEMPEL
100
AcDbCircle
 10
416.1117740015314
 20
556.4420464345402
 30
0.0
 40
4.0
100
AcDbArc
 50
0.0
 51
180.0
  0
LINE
  5
1938
102
{ACAD_REACTORS
330
1865
102
}
330
1E
100
AcDbEntity
  8
STEMPEL
100
AcDbLine
 10
359.1117740015317
 20
638.3189408089228
 30
0.0
 11
359.1117740015317
 21
635.3189408089228
 31
0.0
  0
LINE
  5
1939
102
{ACAD_REACTORS
330
1865
102
}
330
1E
100
AcDbEntity
  8
STEMPEL
100
AcDbLine
 10
347.1117740015317
 20
638.3189408089228
 30
0.0
 11
347.1117740015317
 21
635.3189408089228
 31
0.0
  0
LINE
  5
193A
330
1E
100
AcDbEntity
  8
MITTEL
100
AcDbLine
 10
353.1117740015317
 20
641.3189408089229
 30
0.0
 11
353.1117740015317
 21
632.3189408089229
 31
0.0
  0
LINE
  5
193B
102
{ACAD_REACTORS
330
1865
102
}
330
1E
100
AcDbEntity
  8
STEMPEL
100
AcDbLine
 10
366.1117740015317
 20
638.3189408089228
 30
0.0
 11
366.1117740015317
 21
635.3189408089228
 31
0.0
  0
LINE
  5
193C
330
1E
100
AcDbEntity
  8
MITTEL
100
AcDbLine
 10
336.1117740015317
 20
641.3189408089229
 30
0.0
 11
336.1117740015317
 21
632.3189408089229
 31
0.0
  0
LINE
  5
193D
102
{ACAD_REACTORS
330
1865
102
}
330
1E
100
AcDbEntity
  8
STEMPEL
100
AcDbLine
 10
330.1117740015317
 20
638.3189408089228
 30
0.0
 11
330.1117740015317
 21
635.3189408089228
 31
0.0
  0
LINE
  5
193E
102
{ACAD_REACTORS
330
1865
102
}
330
1E
100
AcDbEntity
  8
STEMPEL
100
AcDbLine
 10
342.1117740015317
 20
638.3189408089228
 30
0.0
 11
342.1117740015317
 21
635.3189408089228
 31
0.0
  0
LINE
  5
193F
330
1E
100
AcDbEntity
  8
STEMPEL
100
AcDbLine
 10
354.8042649269072
 20
610.4420464345403
 30
0.0
 11
354.8042649269072
 21
600.4420464345403
 31
0.0
  0
LINE
  5
1940
330
1E
100
AcDbEntity
  8
STEMPEL
100
AcDbLine
 10
344.197663209109
 20
610.4420464345403
 30
0.0
 11
344.197663209109
 21
600.4420464345403
 31
0.0
  0
LINE
  5
1941
330
1E
100
AcDbEntity
  8
STEMPEL
100
AcDbLine
 10
342.069837718295
 20
610.4420464345403
 30
0.0
 11
342.069837718295
 21
600.4420464345403
 31
0.0
  0
LINE
  5
1942
330
1E
100
AcDbEntity
  8
STEMPEL
100
AcDbLine
 10
344.197663209109
 20
625.4420464345403
 30
0.0
 11
344.197663209109
 21
615.4420464345403
 31
0.0
  0
LINE
  5
1943
330
1E
100
AcDbEntity
  8
STEMPEL
100
AcDbLine
 10
342.069837718295
 20
625.4420464345403
 30
0.0
 11
342.069837718295
 21
615.4420464345403
 31
0.0
  0
LINE
  5
1944
330
1E
100
AcDbEntity
  8
STEMPEL
100
AcDbLine
 10
354.8042649269072
 20
625.4420464345403
 30
0.0
 11
354.8042649269072
 21
615.4420464345403
 31
0.0
  0
POINT
  5
1945
330
1E
100
AcDbEntity
  8
DEFPOINTS
  6
ByBlock
 62
     0
100
AcDbPoint
 10
317.2752874992621
 20
633.857509624881
 30
0.0
  0
LINE
  5
1946
102
{ACAD_REACTORS
330
1864
102
}
330
1E
100
AcDbEntity
  8
STEMPEL
100
AcDbLine
 10
321.6117740015317
 20
630.4420464345403
 30
0.0
 11
321.6117740015317
 21
625.4420464345403
 31
0.0
  0
LINE
  5
1947
102
{ACAD_REACTORS
330
1864
102
}
330
1E
100
AcDbEntity
  8
STEMPEL
100
AcDbLine
 10
318.6117740015317
 20
630.4420464345403
 30
0.0
 11
318.6117740015317
 21
625.4420464345403
 31
0.0
  0
LINE
  5
1948
102
{ACAD_REACTORS
330
1865
102
}
330
1E
100
AcDbEntity
  8
STEMPEL
100
AcDbLine
 10
318.6117740015317
 20
615.3189408089229
 30
0.0
 11
314.6117740015317
 21
615.3189408089229
 31
0.0
  0
LINE
  5
1949
102
{ACAD_REACTORS
330
1864
102
}
330
1E
100
AcDbEntity
  8
STEMPEL
100
AcDbLine
 10
321.6117740015317
 20
600.4420464345403
 30
0.0
 11
321.6117740015317
 21
595.4420464345402
 31
0.0
  0
LINE
  5
194A
102
{ACAD_REACTORS
330
1864
102
}
330
1E
100
AcDbEntity
  8
STEMPEL
100
AcDbLine
 10
318.6117740015317
 20
600.4420464345403
 30
0.0
 11
318.6117740015317
 21
595.4420464345402
 31
0.0
  0
LINE
  5
194B
102
{ACAD_REACTORS
330
1864
102
}
330
1E
100
AcDbEntity
  8
STEMPEL
100
AcDbLine
 10
318.6117740015317
 20
615.4420464345403
 30
0.0
 11
318.6117740015317
 21
610.4420464345403
 31
0.0
  0
LINE
  5
194C
102
{ACAD_REACTORS
330
1864
102
}
330
1E
100
AcDbEntity
  8
STEMPEL
100
AcDbLine
 10
321.6117740015317
 20
615.4420464345403
 30
0.0
 11
321.6117740015317
 21
610.4420464345403
 31
0.0
  0
LINE
  5
194D
102
{ACAD_REACTORS
330
1865
102
}
330
1E
100
AcDbEntity
  8
STEMPEL
100
AcDbLine
 10
317.6117740015317
 20
615.3189408089229
 30
0.0
 11
317.6117740015317
 21
626.3189408089228
 31
0.0
  0
LINE
  5
194E
102
{ACAD_REACTORS
330
1865
102
}
330
1E
100
AcDbEntity
  8
STEMPEL
100
AcDbLine
 10
314.6117740015317
 20
615.3189408089229
 30
0.0
 11
314.6117740015317
 21
626.3189408089228
 31
0.0
  0
LINE
  5
194F
102
{ACAD_REACTORS
330
1864
102
}
330
1E
100
AcDbEntity
  8
STEMPEL
100
AcDbLine
 10
318.6117740015317
 20
595.4420464345402
 30
0.0
 11
344.197663209109
 21
595.4420464345402
 31
0.0
  0
LINE
  5
1950
102
{ACAD_REACTORS
330
1864
102
}
330
1E
100
AcDbEntity
  8
STEMPEL
100
AcDbLine
 10
318.6117740015317
 20
615.4420464345403
 30
0.0
 11
344.197663209109
 21
615.4420464345403
 31
0.0
  0
LINE
  5
1951
102
{ACAD_REACTORS
330
1864
102
}
330
1E
100
AcDbEntity
  8
STEMPEL
100
AcDbLine
 10
318.6117740015317
 20
610.4420464345403
 30
0.0
 11
344.197663209109
 21
610.4420464345403
 31
0.0
  0
LINE
  5
1952
102
{ACAD_REACTORS
330
1864
102
}
330
1E
100
AcDbEntity
  8
STEMPEL
100
AcDbLine
 10
318.6117740015317
 20
600.4420464345403
 30
0.0
 11
344.197663209109
 21
600.4420464345403
 31
0.0
  0
LINE
  5
1953
102
{ACAD_REACTORS
330
1864
102
}
330
1E
100
AcDbEntity
  8
STEMPEL
100
AcDbLine
 10
318.6117740015317
 20
625.4420464345403
 30
0.0
 11
344.197663209109
 21
625.4420464345403
 31
0.0
  0
ARC
  5
1954
102
{ACAD_REACTORS
330
1865
102
}
330
1E
100
AcDbEntity
  8
STEMPEL
100
AcDbCircle
 10
326.6117740015317
 20
626.3189408089228
 30
0.0
 40
12.0
100
AcDbArc
 50
90.0
 51
180.0
  0
ARC
  5
1955
330
1E
100
AcDbEntity
  8
STEMPEL
100
AcDbCircle
 10
326.6117740015317
 20
626.3189408089228
 30
0.0
 40
12.0
100
AcDbArc
 50
90.0
 51
180.0
  0
ARC
  5
1956
102
{ACAD_REACTORS
330
1865
102
}
330
1E
100
AcDbEntity
  8
STEMPEL
100
AcDbCircle
 10
326.6117740015317
 20
626.3189408089228
 30
0.0
 40
8.999999999999998
100
AcDbArc
 50
90.0
 51
180.0
  0
LINE
  5
1957
330
1E
100
AcDbEntity
  8
STEMPEL
100
AcDbLine
 10
354.8042649269072
 20
580.4420464345403
 30
0.0
 11
354.8042649269072
 21
570.4420464345401
 31
0.0
  0
LINE
  5
1958
102
{ACAD_REACTORS
330
1866
330
1D85
102
}
330
1E
100
AcDbEntity
  8
STEMPEL
  6
Continuous
100
AcDbLine
 10
347.1117740015314
 20
567.4420464345401
 30
0.0
 11
347.1117740015314
 21
565.0178937149584
 31
0.0
  0
ARC
  5
1959
102
{ACAD_REACTORS
330
1D69
102
}
330
1E
100
AcDbEntity
  8
STEMPEL
100
AcDbCircle
 10
343.1042250182374
 20
560.6879574457938
 30
0.0
 40
2.0
100
AcDbArc
 50
19.74979999759624
 51
90.0
  0
ARC
  5
195A
102
{ACAD_REACTORS
330
1D69
102
}
330
1E
100
AcDbEntity
  8
STEMPEL
100
AcDbCircle
 10
341.1194136766181
 20
560.6879574457938
 30
0.0
 40
2.0
100
AcDbArc
 50
90.0
 51
175.0000000000002
  0
LINE
  5
195B
102
{ACAD_REACTORS
330
1D69
102
}
330
1E
100
AcDbEntity
  8
STEMPEL
100
AcDbLine
 10
341.1194136766181
 20
562.6879574457937
 30
0.0
 11
344.7632055160301
 21
562.6879574457937
 31
0.0
  0
LINE
  5
195C
102
{ACAD_REACTORS
330
1CA0
330
1D69
102
}
330
1E
100
AcDbEntity
  8
STEMPEL
100
AcDbLine
 10
341.1117740015317
 20
560.6879574457938
 30
0.0
 11
343.1117740015317
 21
560.6879574457938
 31
0.0
  0
ARC
  5
195D
102
{ACAD_REACTORS
330
1D69
102
}
330
1E
100
AcDbEntity
  8
STEMPEL
100
AcDbCircle
 10
343.1042250182374
 20
560.6879574457938
 30
0.0
 40
2.0
100
AcDbArc
 50
4.999999999999743
 51
5.279407259978448
  0
ARC
  5
195F
102
{ACAD_REACTORS
330
1DAD
102
}
330
1E
100
AcDbEntity
  8
SCHRAFF
100
AcDbCircle
 10
345.2023435127509
 20
566.2378831857857
 30
0.0
 40
2.698710869971264
100
AcDbArc
 50
197.1512503138565
 51
258.5864290173746
  0
LINE
  5
1960
102
{ACAD_REACTORS
330
1D85
330
1DAD
102
}
330
1E
100
AcDbEntity
  8
STEMPEL
  6
Continuous
100
AcDbLine
 10
344.6117740015314
 20
565.4420464345402
 30
0.0
 11
344.6117740015314
 21
565.0178937149584
 31
0.0
  0
LINE
  5
1961
330
1E
100
AcDbEntity
  8
STEMPEL
100
AcDbLine
 10
344.197663209109
 20
580.4420464345403
 30
0.0
 11
344.197663209109
 21
570.4420464345401
 31
0.0
  0
LINE
  5
1962
330
1E
100
AcDbEntity
  8
STEMPEL
100
AcDbLine
 10
342.069837718295
 20
580.4420464345403
 30
0.0
 11
342.069837718295
 21
570.4420464345401
 31
0.0
  0
ARC
  5
1963
102
{ACAD_REACTORS
330
1866
102
}
330
1E
100
AcDbEntity
  8
STEMPEL
100
AcDbCircle
 10
344.1117740015315
 20
567.4420464345401
 30
0.0
 40
3.0
100
AcDbArc
 50
0.0
 51
90.0
  0
LINE
  5
1964
102
{ACAD_REACTORS
330
1D69
102
}
330
1E
100
AcDbEntity
  8
STEMPEL
100
AcDbLine
 10
346.1117740015315
 20
533.6879574457936
 30
0.0
 11
349.6117740015315
 21
533.6879574457936
 31
0.0
  0
LINE
  5
1965
102
{ACAD_REACTORS
330
1CCB
102
}
330
1E
100
AcDbEntity
  8
STEMPEL
100
AcDbLine
 10
346.1117740015315
 20
532.6879574457937
 30
0.0
 11
346.1117740015315
 21
529.6879574457936
 31
0.0
  0
ARC
  5
1966
102
{ACAD_REACTORS
330
1D85
102
}
330
1E
100
AcDbEntity
  8
STEMPEL
  6
Continuous
100
AcDbCircle
 10
339.6117740015315
 20
549.0491742922873
 30
0.0
 40
10.0
100
AcDbArc
 50
0.0
 51
34.7719440319481
  0
ARC
  5
1967
102
{ACAD_REACTORS
330
1D69
102
}
330
1E
100
AcDbEntity
  8
STEMPEL
100
AcDbCircle
 10
346.0164662515446
 20
550.1879574457936
 30
0.0
 40
2.5
100
AcDbArc
 50
9.999999999998609
 51
90.0
  0
ARC
  5
1968
102
{ACAD_REACTORS
330
1D85
102
}
330
1E
100
AcDbEntity
  8
STEMPEL
  6
Continuous
100
AcDbCircle
 10
339.6117740015315
 20
549.0491742922873
 30
0.0
 40
12.5
100
AcDbArc
 50
0.0
 51
34.7719440319481
  0
LINE
  5
1969
102
{ACAD_REACTORS
330
1D69
102
}
330
1E
100
AcDbEntity
  8
STEMPEL
100
AcDbLine
 10
349.6117740015317
 20
544.1948801752197
 30
0.0
 11
348.4784856340749
 21
550.622077889961
 31
0.0
  0
LINE
  5
196A
102
{ACAD_REACTORS
330
1CCB
330
1D69
102
}
330
1E
100
AcDbEntity
  8
STEMPEL
100
AcDbLine
 10
332.1117740015314
 20
544.7817923966956
 30
0.0
 11
338.9474545199188
 21
532.9420464345401
 31
0.0
  0
LINE
  5
196B
102
{ACAD_REACTORS
330
1C90
102
}
330
1E
100
AcDbEntity
  8
STEMPEL
100
AcDbLine
 10
327.1117740015315
 20
543.44204643454
 30
0.0
 11
334.6173275009966
 21
530.44204643454
 31
0.0
  0
LINE
  5
196C
102
{ACAD_REACTORS
330
1C90
330
1CCB
102
}
330
1E
100
AcDbEntity
  8
STEMPEL
100
AcDbLine
 10
329.1117740015315
 20
543.9779448194023
 30
0.0
 11
336.3493783085654
 21
531.4420464345401
 31
0.0
  0
ARC
  5
196D
102
{ACAD_REACTORS
330
1D69
102
}
330
1E
100
AcDbEntity
  8
STEMPEL
100
AcDbCircle
 10
341.5455307312719
 20
534.44204643454
 30
0.0
 40
3.0
100
AcDbArc
 50
209.9999999999997
 51
215.7815399860341
  0
LINE
  5
196E
102
{ACAD_REACTORS
330
1CCB
330
1D69
102
}
330
1E
100
AcDbEntity
  8
STEMPEL
100
AcDbLine
 10
332.1117740015314
 20
547.0046031169106
 30
0.0
 11
333.6037530772654
 21
555.4660369243714
 31
0.0
  0
LINE
  5
196F
330
1E
100
AcDbEntity
  8
STEMPEL
100
AcDbLine
 10
334.7560745187351
 20
549.9649062508617
 30
0.0
 11
338.135843670737
 21
549.9649062508617
 31
0.0
  0
LINE
  5
1970
102
{ACAD_REACTORS
330
1CCB
330
1D69
102
}
330
1E
100
AcDbEntity
  8
STEMPEL
100
AcDbLine
 10
332.1117740015314
 20
547.0046031169106
 30
0.0
 11
332.1117740015314
 21
544.7817923966956
 31
0.0
  0
LINE
  5
1971
102
{ACAD_REACTORS
330
1D69
102
}
330
1E
100
AcDbEntity
  8
STEMPEL
100
AcDbLine
 10
332.308512540939
 20
548.1203628186695
 30
0.0
 11
332.4786830689646
 21
548.4961618857616
 31
0.0
  0
ARC
  5
1972
102
{ACAD_REACTORS
330
1D69
102
}
330
1E
100
AcDbEntity
  8
STEMPEL
100
AcDbCircle
 10
334.7560745187351
 20
547.4649062508617
 30
0.0
 40
2.499999999999997
100
AcDbArc
 50
47.89155442130747
 51
155.6378802944064
  0
ARC
  5
1973
102
{ACAD_REACTORS
330
1D69
102
}
330
1E
100
AcDbEntity
  8
STEMPEL
100
AcDbCircle
 10
337.1029504531283
 20
550.0614757855685
 30
0.0
 40
1.0
100
AcDbArc
 50
227.8915544213075
 51
332.6652690310804
  0
ARC
  5
1974
102
{ACAD_REACTORS
330
1D69
102
}
330
1E
100
AcDbEntity
  8
STEMPEL
100
AcDbCircle
 10
336.2146114032045
 20
550.5206639086509
 30
0.0
 40
2.0
100
AcDbArc
 50
332.6652690310804
 51
355.0000000000003
  0
LINE
  5
1975
102
{ACAD_REACTORS
330
1C90
102
}
330
1E
100
AcDbEntity
  8
STEMPEL
100
AcDbLine
 10
327.1117740015315
 20
547.44204643454
 30
0.0
 11
328.6797143122045
 21
556.3342778127061
 31
0.0
  0
LINE
  5
1976
102
{ACAD_REACTORS
330
1C90
102
}
330
1E
100
AcDbEntity
  8
STEMPEL
100
AcDbLine
 10
327.1117740015315
 20
547.44204643454
 30
0.0
 11
327.1117740015315
 21
543.44204643454
 31
0.0
  0
LINE
  5
1977
102
{ACAD_REACTORS
330
1C90
330
1CCB
102
}
330
1E
100
AcDbEntity
  8
STEMPEL
100
AcDbLine
 10
329.1117740015315
 20
547.2670691074884
 30
0.0
 11
330.6493298182289
 21
555.986981457372
 31
0.0
  0
LINE
  5
1978
102
{ACAD_REACTORS
330
1C90
330
1CCB
102
}
330
1E
100
AcDbEntity
  8
STEMPEL
100
AcDbLine
 10
329.1117740015315
 20
547.2670691074884
 30
0.0
 11
329.1117740015315
 21
543.9779448194023
 31
0.0
  0
LINE
  5
1979
102
{ACAD_REACTORS
330
1CA0
330
1D69
102
}
330
1E
100
AcDbEntity
  8
STEMPEL
100
AcDbLine
 10
341.1117740015317
 20
537.6879574457936
 30
0.0
 11
343.1117740015317
 21
537.6879574457936
 31
0.0
  0
LINE
  5
197A
102
{ACAD_REACTORS
330
1CCB
102
}
330
1E
100
AcDbEntity
  8
STEMPEL
100
AcDbLine
 10
337.8851157429023
 20
529.6879574457936
 30
0.0
 11
349.6117740015315
 21
529.6879574457938
 31
0.0
  0
LINE
  5
197B
102
{ACAD_REACTORS
330
1CCB
330
1D69
102
}
330
1E
100
AcDbEntity
  8
STEMPEL
100
AcDbLine
 10
339.1117740015308
 20
532.6879574457937
 30
0.0
 11
349.6117740015315
 21
532.6879574457938
 31
0.0
  0
LINE
  5
197C
102
{ACAD_REACTORS
330
1D69
102
}
330
1E
100
AcDbEntity
  8
STEMPEL
100
AcDbLine
 10
346.1117740015315
 20
533.6879574457936
 30
0.0
 11
344.3797231939626
 21
532.6879574457937
 31
0.0
  0
LINE
  5
197D
330
1E
100
AcDbEntity
  8
STEMPEL
100
AcDbLine
 10
345.8117740015315
 20
552.6879574457937
 30
0.0
 11
348.9262389438542
 21
552.6879574457937
 31
0.0
  0
ARC
  5
197E
102
{ACAD_REACTORS
330
1D85
102
}
330
1E
100
AcDbEntity
  8
STEMPEL
  6
Continuous
100
AcDbCircle
 10
362.6117740015315
 20
565.0178937149584
 30
0.0
 40
15.5
100
AcDbArc
 50
180.0
 51
214.7719440319481
  0
ARC
  5
197F
102
{ACAD_REACTORS
330
1D69
330
1D85
330
1DAD
102
}
330
1E
100
AcDbEntity
  8
STEMPEL
  6
Continuous
100
AcDbCircle
 10
362.6117740015315
 20
565.0178937149584
 30
0.0
 40
18.0
100
AcDbArc
 50
180.0
 51
214.7719440319481
  0
ARC
  5
1980
102
{ACAD_REACTORS
330
1C90
330
1CCB
102
}
330
1E
100
AcDbEntity
  8
STEMPEL
100
AcDbCircle
 10
325.2328871766616
 20
556.9420464345402
 30
0.0
 40
5.5
100
AcDbArc
 50
350.0000000000014
 51
90.0
  0
ARC
  5
1981
102
{ACAD_REACTORS
330
1CCB
102
}
330
1E
100
AcDbEntity
  8
STEMPEL
100
AcDbCircle
 10
325.2328871766616
 20
556.9420464345402
 30
0.0
 40
8.5
100
AcDbArc
 50
350.0000000000014
 51
90.0
  0
LINE
  5
1983
102
{ACAD_REACTORS
330
1D69
102
}
330
1E
100
AcDbEntity
  8
STEMPEL
100
AcDbLine
 10
339.1270242804345
 20
560.8622689312891
 30
0.0
 11
338.2070007993879
 21
550.3463524231555
 31
0.0
  0
ARC
  5
1984
102
{ACAD_REACTORS
330
1C90
102
}
330
1E
100
AcDbEntity
  8
STEMPEL
100
AcDbCircle
 10
325.2328871766616
 20
556.9420464345402
 30
0.0
 40
3.5
100
AcDbArc
 50
350.0000000000014
 51
90.0
  0
LINE
  5
1985
102
{ACAD_REACTORS
330
1CA0
330
1D69
102
}
330
1E
100
AcDbEntity
  8
STEMPEL
100
AcDbLine
 10
341.1117740015317
 20
537.6879574457936
 30
0.0
 11
341.1117740015317
 21
560.6879574457938
 31
0.0
  0
LINE
  5
1986
102
{ACAD_REACTORS
330
1CA0
330
1D69
102
}
330
1E
100
AcDbEntity
  8
STEMPEL
100
AcDbLine
 10
343.1117740015317
 20
537.6879574457936
 30
0.0
 11
343.1117740015317
 21
560.6879574457938
 31
0.0
  0
LINE
  5
1987
102
{ACAD_REACTORS
330
1D69
102
}
330
1E
100
AcDbEntity
  8
STEMPEL
100
AcDbLine
 10
345.8117740015315
 20
552.6879574457937
 30
0.0
 11
345.096614414421
 21
560.8622689312891
 31
0.0
  0
LINE
  5
1988
102
{ACAD_REACTORS
330
1866
102
}
330
1E
100
AcDbEntity
  8
STEMPEL
100
AcDbLine
 10
318.6117740015317
 20
570.4420464345401
 30
0.0
 11
318.6117740015317
 21
565.4420464345402
 31
0.0
  0
LINE
  5
1989
102
{ACAD_REACTORS
330
1864
102
}
330
1E
100
AcDbEntity
  8
STEMPEL
100
AcDbLine
 10
321.6117740015317
 20
585.4420464345403
 30
0.0
 11
321.6117740015317
 21
580.4420464345403
 31
0.0
  0
LINE
  5
198A
102
{ACAD_REACTORS
330
1864
102
}
330
1E
100
AcDbEntity
  8
STEMPEL
100
AcDbLine
 10
318.6117740015317
 20
585.4420464345403
 30
0.0
 11
318.6117740015317
 21
580.4420464345403
 31
0.0
  0
LINE
  5
198B
102
{ACAD_REACTORS
330
1864
102
}
330
1E
100
AcDbEntity
  8
STEMPEL
100
AcDbLine
 10
318.6117740015317
 20
580.4420464345403
 30
0.0
 11
344.197663209109
 21
580.4420464345403
 31
0.0
  0
LINE
  5
198C
102
{ACAD_REACTORS
330
1864
102
}
330
1E
100
AcDbEntity
  8
STEMPEL
100
AcDbLine
 10
318.6117740015317
 20
585.4420464345403
 30
0.0
 11
344.197663209109
 21
585.4420464345403
 31
0.0
  0
LINE
  5
198D
330
1E
100
AcDbEntity
  8
STEMPEL
100
AcDbLine
 10
344.197663209109
 20
595.4420464345402
 30
0.0
 11
344.197663209109
 21
585.4420464345403
 31
0.0
  0
LINE
  5
198E
330
1E
100
AcDbEntity
  8
STEMPEL
100
AcDbLine
 10
342.069837718295
 20
595.4420464345402
 30
0.0
 11
342.069837718295
 21
585.4420464345403
 31
0.0
  0
LINE
  5
198F
330
1E
100
AcDbEntity
  8
STEMPEL
100
AcDbLine
 10
354.8042649269072
 20
595.4420464345402
 30
0.0
 11
354.8042649269072
 21
585.4420464345403
 31
0.0
  0
LINE
  5
1990
330
1E
100
AcDbEntity
  8
HILF
100
AcDbLine
 10
350.4647946592071
 20
560.3863828537877
 30
0.0
 11
415.446785120574
 21
560.3863828537877
 31
0.0
  0
LINE
  5
1991
330
1E
100
AcDbEntity
  8
HILF
100
AcDbLine
 10
354.1393032870932
 20
552.7842636964571
 30
0.0
 11
412.1117740015314
 21
552.7842636964571
 31
0.0
  0
LINE
  5
1992
330
1E
100
AcDbEntity
  8
STEMPEL
100
AcDbLine
 10
251.1117740015314
 20
562.4420464345401
 30
0.0
 11
251.1117740015314
 21
560.4420464345402
 31
0.0
  0
LINE
  5
1993
102
{ACAD_REACTORS
330
1C90
102
}
330
1E
100
AcDbEntity
  8
STEMPEL
100
AcDbLine
 10
251.1117740015314
 20
562.4420464345401
 30
0.0
 11
251.1117740015314
 21
560.4420464345402
 31
0.0
  0
LINE
  5
1994
102
{ACAD_REACTORS
330
1CCB
102
}
330
1E
100
AcDbEntity
  8
STEMPEL
100
AcDbLine
 10
166.1117740015314
 20
565.4420464345402
 30
0.0
 11
166.1117740015314
 21
562.4420464345401
 31
0.0
  0
LINE
  5
1996
102
{ACAD_REACTORS
330
1C90
330
1CCB
102
}
330
1E
100
AcDbEntity
  8
STEMPEL
100
AcDbLine
 10
166.1117740015314
 20
562.4420464345401
 30
0.0
 11
325.2328871766616
 21
562.4420464345401
 31
0.0
  0
DIMENSION
  5
1997
330
1E
100
AcDbEntity
  8
BEM
100
AcDbDimension
  2
*D2
 10
207.4319092680021
 20
565.4420464345403
 30
0.0
 11
199.3069092680021
 21
601.8804936217316
 31
0.0
 70
    32
  1
70
 71
     5
 42
72.87689437438269
  3
Standard
100
AcDbAlignedDimension
 13
326.6117740015317
 23
638.3189408089228
 33
0.0
 14
318.6117740015317
 24
565.4420464345402
 34
0.0
 50
90.0
100
AcDbRotatedDimension
1001
ACAD
1000
DSTYLE
1002
{
1070
    40
1040
2.5
1070
    41
1040
3.5
1070
    42
1040
1.0
1070
    43
1040
7.0
1070
    44
1040
1.0
1070
    73
1070
     0
1070
    74
1070
     0
1070
    77
1070
     1
1070
    78
1070
     8
1070
    79
1070
     2
1070
   140
1040
3.5
1070
   141
1040
1.5
1070
   146
1040
0.5142857142857144
1070
   147
1040
1.5
1070
   172
1070
     1
1070
   178
1070
     1
1070
   179
1070
     2
1070
   271
1070
     2
1070
   272
1070
     2
1070
   284
1070
     8
1070
   285
1070
     8
1070
   286
1070
     8
1002
}
  0
LINE
  5
1998
102
{ACAD_REACTORS
330
1C90
102
}
330
1E
100
AcDbEntity
  8
STEMPEL
100
AcDbLine
 10
251.1117740015314
 20
560.4420464345402
 30
0.0
 11
325.2328871766616
 21
560.4420464345402
 31
0.0
  0
ARC
  5
1999
102
{ACAD_REACTORS
330
1C64
102
}
330
1E
100
AcDbEntity
  8
STEMPEL
100
AcDbCircle
 10
334.1933197487309
 20
500.2249790315297
 30
0.0
 40
15.42805065682075
100
AcDbArc
 50
2.02096539905792
 51
29.15286240521338
  0
ARC
  5
199A
102
{ACAD_REACTORS
330
1C64
102
}
330
1E
100
AcDbEntity
  8
STEMPEL
100
AcDbCircle
 10
334.194338829824
 20
500.2260995593101
 30
0.0
 40
17.42589582896457
100
AcDbArc
 50
1.78549935524345
 51
28.96368305442575
  0
LINE
  5
199B
102
{ACAD_REACTORS
330
1C64
330
1DB7
102
}
330
1E
100
AcDbEntity
  8
STEMPEL
100
AcDbLine
 10
340.1117740015314
 20
526.5715736634847
 30
0.0
 11
338.3380449069399
 21
525.6475146291154
 31
0.0
  0
ARC
  5
199C
102
{ACAD_REACTORS
330
1DB7
102
}
330
1E
100
AcDbEntity
  8
SCHRAFF
100
AcDbCircle
 10
340.1117740015314
 20
526.5715736634847
 30
0.0
 40
4.0
100
AcDbArc
 50
155.1981813039366
 51
267.5181462698053
  0
POINT
  5
199D
330
1E
100
AcDbEntity
  8
DEFPOINTS
  6
ByBlock
 62
     0
100
AcDbPoint
 10
341.5455307312719
 20
526.44204643454
 30
0.0
  0
POINT
  5
199E
330
1E
100
AcDbEntity
  8
DEFPOINTS
  6
ByBlock
 62
     0
100
AcDbPoint
 10
341.2977820205562
 20
526.4831717940021
 30
0.0
  0
LINE
  5
199F
102
{ACAD_REACTORS
330
1C90
102
}
330
1E
100
AcDbEntity
  8
STEMPEL
100
AcDbLine
 10
345.6117740015315
 20
528.4420464345401
 30
0.0
 11
345.6117740015315
 21
526.44204643454
 31
0.0
  0
LINE
  5
19A0
102
{ACAD_REACTORS
330
1C64
330
1DB7
102
}
330
1E
100
AcDbEntity
  8
STEMPEL
100
AcDbLine
 10
347.666993500252
 20
507.7406202355123
 30
0.0
 11
338.3380449069399
 21
525.6475146291154
 31
0.0
  0
LINE
  5
19A1
102
{ACAD_REACTORS
330
1C64
102
}
330
1E
100
AcDbEntity
  8
STEMPEL
100
AcDbLine
 10
349.4407225948436
 20
508.6646792698815
 30
0.0
 11
340.1117740015314
 21
526.5715736634847
 31
0.0
  0
LINE
  5
19A2
330
1E
100
AcDbEntity
  8
STEMPEL
100
AcDbLine
 10
341.5455307312719
 20
526.44204643454
 30
0.0
 11
349.6117740015315
 21
526.44204643454
 31
0.0
  0
LINE
  5
19A3
102
{ACAD_REACTORS
330
1C90
102
}
330
1E
100
AcDbEntity
  8
STEMPEL
100
AcDbLine
 10
341.5455307312722
 20
526.44204643454
 30
0.0
 11
349.6117740015315
 21
526.44204643454
 31
0.0
  0
LINE
  5
19A4
102
{ACAD_REACTORS
330
1C90
102
}
330
1E
100
AcDbEntity
  8
STEMPEL
100
AcDbLine
 10
341.5455307312719
 20
528.4420464345401
 30
0.0
 11
349.6117740015315
 21
528.4420464345401
 31
0.0
  0
POINT
  5
19A5
330
1E
100
AcDbEntity
  8
DEFPOINTS
  6
ByBlock
 62
     0
100
AcDbPoint
 10
416.1117740015314
 20
306.4468445367293
 30
0.0
  0
POINT
  5
19A6
330
1E
100
AcDbEntity
  8
DEFPOINTS
  6
ByBlock
 62
     0
100
AcDbPoint
 10
416.1117740015316
 20
306.4468445367294
 30
0.0
  0
POINT
  5
19A7
330
1E
100
AcDbEntity
  8
DEFPOINTS
  6
ByBlock
 62
     0
100
AcDbPoint
 10
416.1117740015316
 20
306.4468445367294
 30
0.0
  0
ARC
  5
19A8
102
{ACAD_REACTORS
330
1D2F
102
}
330
1E
100
AcDbEntity
  8
STEMPEL
100
AcDbCircle
 10
346.0164662515446
 20
370.1879574457937
 30
0.0
 40
2.5
100
AcDbArc
 50
9.999999999998609
 51
90.0
  0
LINE
  5
19A9
102
{ACAD_REACTORS
330
1D2F
102
}
330
1E
100
AcDbEntity
  8
STEMPEL
100
AcDbLine
 10
349.6117740015315
 20
364.1948801752218
 30
0.0
 11
348.4784856340751
 21
370.622077889961
 31
0.0
  0
ARC
  5
19AA
102
{ACAD_REACTORS
330
1D2F
102
}
330
1E
100
AcDbEntity
  8
STEMPEL
100
AcDbCircle
 10
341.1194136766181
 20
380.6879574457937
 30
0.0
 40
2.0
100
AcDbArc
 50
90.0
 51
175.0000000000002
  0
LINE
  5
19AB
102
{ACAD_REACTORS
330
1D2F
102
}
330
1E
100
AcDbEntity
  8
STEMPEL
100
AcDbLine
 10
339.1270242804347
 20
380.862268931289
 30
0.0
 11
338.2070007993881
 21
370.3463524231556
 31
0.0
  0
ARC
  5
19AC
102
{ACAD_REACTORS
330
1D2F
102
}
330
1E
100
AcDbEntity
  8
STEMPEL
100
AcDbCircle
 10
336.2146114032045
 20
370.5206639086509
 30
0.0
 40
2.0
100
AcDbArc
 50
332.6652690310804
 51
355.0000000000003
  0
ARC
  5
19AD
102
{ACAD_REACTORS
330
1D2F
102
}
330
1E
100
AcDbEntity
  8
STEMPEL
100
AcDbCircle
 10
337.1029504531285
 20
370.0614757855685
 30
0.0
 40
1.0
100
AcDbArc
 50
227.8915544213075
 51
332.6652690310804
  0
ARC
  5
19AE
102
{ACAD_REACTORS
330
1D2F
102
}
330
1E
100
AcDbEntity
  8
STEMPEL
100
AcDbCircle
 10
334.7560745187353
 20
367.4649062508617
 30
0.0
 40
2.499999999999997
100
AcDbArc
 50
47.89155442130747
 51
155.6378802944064
  0
LINE
  5
19AF
102
{ACAD_REACTORS
330
1D2F
102
}
330
1E
100
AcDbEntity
  8
STEMPEL
100
AcDbLine
 10
332.308512540939
 20
368.1203628186695
 30
0.0
 11
332.4786830689649
 21
368.4961618857617
 31
0.0
  0
LINE
  5
19B0
102
{ACAD_REACTORS
330
1CF9
330
1D2F
102
}
330
1E
100
AcDbEntity
  8
STEMPEL
100
AcDbLine
 10
332.1117740015314
 20
367.0046031169106
 30
0.0
 11
333.6037530772657
 21
375.4660369243713
 31
0.0
  0
LINE
  5
19B1
102
{ACAD_REACTORS
330
1CF9
330
1D2F
102
}
330
1E
100
AcDbEntity
  8
STEMPEL
100
AcDbLine
 10
332.1117740015314
 20
367.0046031169106
 30
0.0
 11
332.1117740015317
 21
364.7817923966957
 31
0.0
  0
LINE
  5
19B2
330
1E
100
AcDbEntity
  8
STEMPEL
100
AcDbLine
 10
334.7560745187353
 20
369.9649062508618
 30
0.0
 11
338.135843670737
 21
369.9649062508618
 31
0.0
  0
ARC
  5
19B3
102
{ACAD_REACTORS
330
1C3F
102
}
330
1E
100
AcDbEntity
  8
STEMPEL
100
AcDbCircle
 10
325.2328871766621
 20
376.9420464345402
 30
0.0
 40
3.5
100
AcDbArc
 50
350.0000000000014
 51
90.0
  0
LINE
  5
19B4
102
{ACAD_REACTORS
330
1C3F
102
}
330
1E
100
AcDbEntity
  8
STEMPEL
100
AcDbLine
 10
327.1117740015317
 20
367.4420464345402
 30
0.0
 11
327.1117740015319
 21
363.4420464345402
 31
0.0
  0
LINE
  5
19B5
102
{ACAD_REACTORS
330
1C3F
102
}
330
1E
100
AcDbEntity
  8
STEMPEL
100
AcDbLine
 10
327.1117740015317
 20
367.4420464345402
 30
0.0
 11
328.6797143122047
 21
376.334277812706
 31
0.0
  0
LINE
  5
19B6
102
{ACAD_REACTORS
330
1C3F
330
1CF9
102
}
330
1E
100
AcDbEntity
  8
STEMPEL
100
AcDbLine
 10
329.1117740015315
 20
367.2670691074884
 30
0.0
 11
329.1117740015317
 21
363.9779448194024
 31
0.0
  0
LINE
  5
19B7
102
{ACAD_REACTORS
330
1C3F
330
1CF9
102
}
330
1E
100
AcDbEntity
  8
STEMPEL
100
AcDbLine
 10
329.1117740015315
 20
367.2670691074884
 30
0.0
 11
330.6493298182289
 21
375.9869814573719
 31
0.0
  0
ARC
  5
19B8
102
{ACAD_REACTORS
330
1C3F
330
1CF9
102
}
330
1E
100
AcDbEntity
  8
STEMPEL
100
AcDbCircle
 10
325.2328871766618
 20
376.9420464345401
 30
0.0
 40
5.5
100
AcDbArc
 50
350.0000000000014
 51
90.0
  0
LINE
  5
19B9
102
{ACAD_REACTORS
330
1C4C
330
1D2F
102
}
330
1E
100
AcDbEntity
  8
STEMPEL
100
AcDbLine
 10
341.1117740015317
 20
357.6879574457937
 30
0.0
 11
341.1117740015317
 21
380.6879574457937
 31
0.0
  0
LINE
  5
19BA
102
{ACAD_REACTORS
330
1C4C
330
1D2F
102
}
330
1E
100
AcDbEntity
  8
STEMPEL
100
AcDbLine
 10
343.1117740015317
 20
357.6879574457937
 30
0.0
 11
343.1117740015317
 21
380.6879574457937
 31
0.0
  0
LINE
  5
19BB
102
{ACAD_REACTORS
330
1C4C
330
1D2F
102
}
330
1E
100
AcDbEntity
  8
STEMPEL
100
AcDbLine
 10
341.1117740015317
 20
357.6879574457937
 30
0.0
 11
343.1117740015317
 21
357.6879574457937
 31
0.0
  0
LINE
  5
19BC
102
{ACAD_REACTORS
330
1D2F
102
}
330
1E
100
AcDbEntity
  8
STEMPEL
100
AcDbLine
 10
345.8117740015315
 20
372.6879574457937
 30
0.0
 11
345.096614414421
 21
380.862268931289
 31
0.0
  0
ARC
  5
19BD
102
{ACAD_REACTORS
330
1D2F
102
}
330
1E
100
AcDbEntity
  8
STEMPEL
100
AcDbCircle
 10
343.1042250182374
 20
380.6879574457937
 30
0.0
 40
2.0
100
AcDbArc
 50
4.999999999999743
 51
90.0
  0
LINE
  5
19BE
102
{ACAD_REACTORS
330
1C4C
330
1D2F
102
}
330
1E
100
AcDbEntity
  8
STEMPEL
100
AcDbLine
 10
341.1117740015317
 20
380.6879574457937
 30
0.0
 11
343.1117740015317
 21
380.6879574457937
 31
0.0
  0
LINE
  5
19BF
102
{ACAD_REACTORS
330
1D2F
102
}
330
1E
100
AcDbEntity
  8
STEMPEL
100
AcDbLine
 10
341.1194136766181
 20
382.6879574457937
 30
0.0
 11
349.6117740015315
 21
382.6879574457937
 31
0.0
  0
LINE
  5
19C0
330
1E
100
AcDbEntity
  8
STEMPEL
100
AcDbLine
 10
345.8117740015315
 20
372.6879574457937
 30
0.0
 11
349.6117740015315
 21
372.6879574457937
 31
0.0
  0
ARC
  5
19C1
102
{ACAD_REACTORS
330
1CF9
102
}
330
1E
100
AcDbEntity
  8
STEMPEL
100
AcDbCircle
 10
325.2328871766618
 20
376.9420464345401
 30
0.0
 40
8.5
100
AcDbArc
 50
350.0000000000014
 51
90.0
  0
ARC
  5
19C2
102
{ACAD_REACTORS
330
1C06
102
}
330
1E
100
AcDbEntity
  8
STEMPEL
100
AcDbCircle
 10
348.6117740015319
 20
335.0866912691095
 30
0.0
 40
1.0
100
AcDbArc
 50
0.0
 51
48.62548277843391
  0
ARC
  5
19C3
102
{ACAD_REACTORS
330
1C06
102
}
330
1E
100
AcDbEntity
  8
STEMPEL
100
AcDbCircle
 10
348.6117740015319
 20
335.0866912691095
 30
0.0
 40
3.0
100
AcDbArc
 50
0.0
 51
48.62548277843391
  0
LINE
  5
19C4
102
{ACAD_REACTORS
330
1D2F
102
}
330
1E
100
AcDbEntity
  8
STEMPEL
100
AcDbLine
 10
346.1117740015317
 20
353.6879574457937
 30
0.0
 11
349.6117740015315
 21
353.6879574457937
 31
0.0
  0
LINE
  5
19C5
102
{ACAD_REACTORS
330
1CF9
102
}
330
1E
100
AcDbEntity
  8
STEMPEL
100
AcDbLine
 10
346.1117740015317
 20
352.6879574457937
 30
0.0
 11
346.1117740015317
 21
349.6879574457937
 31
0.0
  0
ARC
  5
19C6
102
{ACAD_REACTORS
330
1C3F
330
1DC1
102
}
330
1E
100
AcDbEntity
  8
STEMPEL
100
AcDbCircle
 10
341.5455307312724
 20
354.4420464345403
 30
0.0
 40
8.0
100
AcDbArc
 50
209.9999999999997
 51
270.0
  0
ARC
  5
19C7
102
{ACAD_REACTORS
330
1C3F
330
1CF9
102
}
330
1E
100
AcDbEntity
  8
STEMPEL
100
AcDbCircle
 10
341.5455307312722
 20
354.4420464345401
 30
0.0
 40
6.0
100
AcDbArc
 50
209.9999999999997
 51
270.0
  0
ARC
  5
19C8
102
{ACAD_REACTORS
330
1DC1
102
}
330
1E
100
AcDbEntity
  8
SCHRAFF
100
AcDbCircle
 10
339.9982079517114
 20
347.0298945271629
 30
0.0
 40
4.154177265989598
100
AcDbArc
 50
158.5162610359539
 51
285.5212466149662
  0
LINE
  5
19CA
102
{ACAD_REACTORS
330
1C06
330
1DC1
102
}
330
1E
100
AcDbEntity
  8
STEMPEL
100
AcDbLine
 10
340.1117740015319
 20
346.571573663485
 30
0.0
 11
338.7898176380542
 21
345.0707634246269
 31
0.0
  0
ARC
  5
19CB
102
{ACAD_REACTORS
330
1D2F
102
}
330
1E
100
AcDbEntity
  8
STEMPEL
100
AcDbCircle
 10
341.5455307312722
 20
354.4420464345401
 30
0.0
 40
3.0
100
AcDbArc
 50
209.9999999999997
 51
215.7815399860341
  0
LINE
  5
19CC
102
{ACAD_REACTORS
330
1C3F
102
}
330
1E
100
AcDbEntity
  8
STEMPEL
100
AcDbLine
 10
340.1117740015319
 20
348.6158691595248
 30
0.0
 11
340.1117740015319
 21
346.571573663485
 31
0.0
  0
POINT
  5
19CD
330
1E
100
AcDbEntity
  8
BEM
 62
     0
100
AcDbPoint
 10
341.5455307312724
 20
346.4420464345401
 30
0.0
  0
POINT
  5
19CE
330
1E
100
AcDbEntity
  8
BEM
 62
     0
100
AcDbPoint
 10
341.5455307312724
 20
346.4420464345401
 30
0.0
  0
LINE
  5
19CF
102
{ACAD_REACTORS
330
1C06
330
1DC1
102
}
330
1E
100
AcDbEntity
  8
STEMPEL
100
AcDbLine
 10
338.7898176380542
 20
345.0707634246269
 30
0.0
 11
349.2727521832707
 21
335.8370963885385
 31
0.0
  0
LINE
  5
19D0
102
{ACAD_REACTORS
330
1CF9
330
1D2F
102
}
330
1E
100
AcDbEntity
  8
STEMPEL
100
AcDbLine
 10
339.1117740015308
 20
352.6879574457937
 30
0.0
 11
349.6117740015312
 21
352.6879574457936
 31
0.0
  0
LINE
  5
19D1
102
{ACAD_REACTORS
330
1CF9
102
}
330
1E
100
AcDbEntity
  8
STEMPEL
100
AcDbLine
 10
337.8851157429023
 20
349.6879574457937
 30
0.0
 11
349.6117740015315
 21
349.6879574457937
 31
0.0
  0
LINE
  5
19D2
330
1E
100
AcDbEntity
  8
STEMPEL
100
AcDbLine
 10
341.5455307312724
 20
346.4420464345401
 30
0.0
 11
349.6117740015312
 21
346.44204643454
 31
0.0
  0
LINE
  5
19D3
102
{ACAD_REACTORS
330
1C06
102
}
330
1E
100
AcDbEntity
  8
STEMPEL
100
AcDbLine
 10
340.1117740015319
 20
346.571573663485
 30
0.0
 11
350.5947085467482
 21
337.3379066273965
 31
0.0
  0
LINE
  5
19D4
330
1E
100
AcDbEntity
  8
STEMPEL
100
AcDbLine
 10
341.5455307312722
 20
348.4420464345401
 30
0.0
 11
349.6117740015312
 21
348.44204643454
 31
0.0
  0
LINE
  5
19D5
102
{ACAD_REACTORS
330
1D2F
102
}
330
1E
100
AcDbEntity
  8
STEMPEL
100
AcDbLine
 10
346.1117740015317
 20
353.6879574457937
 30
0.0
 11
344.3797231939626
 21
352.6879574457937
 31
0.0
  0
LINE
  5
19D7
102
{ACAD_REACTORS
330
1C3F
102
}
330
1E
100
AcDbEntity
  8
STEMPEL
100
AcDbLine
 10
327.1117740015319
 20
363.4420464345402
 30
0.0
 11
334.6173275009968
 21
350.4420464345403
 31
0.0
  0
LINE
  5
19D8
102
{ACAD_REACTORS
330
1CF9
330
1D2F
102
}
330
1E
100
AcDbEntity
  8
STEMPEL
100
AcDbLine
 10
332.1117740015317
 20
364.7817923966957
 30
0.0
 11
338.9474545199188
 21
352.9420464345401
 31
0.0
  0
LINE
  5
19D9
102
{ACAD_REACTORS
330
1C3F
330
1CF9
102
}
330
1E
100
AcDbEntity
  8
STEMPEL
100
AcDbLine
 10
329.1117740015317
 20
363.9779448194024
 30
0.0
 11
336.3493783085656
 21
351.4420464345401
 31
0.0
  0
LINE
  5
19DA
102
{ACAD_REACTORS
330
1C64
330
1D2F
102
}
330
1E
100
AcDbEntity
  8
STEMPEL
100
AcDbLine
 10
349.6117740015315
 20
500.7690521182803
 30
0.0
 11
349.6117740015315
 21
340.7321648435842
 31
0.0
  0
LINE
  5
19DB
102
{ACAD_REACTORS
330
1C64
102
}
330
1E
100
AcDbEntity
  8
STEMPEL
100
AcDbLine
 10
351.6117740015314
 20
500.7690521182803
 30
0.0
 11
351.6117740015317
 21
340.7321648435842
 31
0.0
  0
LINE
  5
19DC
330
1E
100
AcDbEntity
  8
STEMPEL
100
AcDbLine
 10
251.1117740015319
 20
382.4420464345401
 30
0.0
 11
251.1117740015319
 21
380.4420464345401
 31
0.0
  0
LINE
  5
19DD
102
{ACAD_REACTORS
330
1C3F
102
}
330
1E
100
AcDbEntity
  8
STEMPEL
100
AcDbLine
 10
251.1117740015314
 20
382.4420464345401
 30
0.0
 11
251.1117740015314
 21
380.4420464345401
 31
0.0
  0
LINE
  5
19DE
102
{ACAD_REACTORS
330
1CF9
102
}
330
1E
100
AcDbEntity
  8
STEMPEL
100
AcDbLine
 10
166.1117740015314
 20
385.4420464345401
 30
0.0
 11
166.1117740015314
 21
382.4420464345401
 31
0.0
  0
LINE
  5
19DF
102
{ACAD_REACTORS
330
1CF9
102
}
330
1E
100
AcDbEntity
  8
STEMPEL
100
AcDbLine
 10
166.1117740015314
 20
385.4420464345401
 30
0.0
 11
349.6117740015312
 21
385.4420464345401
 31
0.0
  0
LINE
  5
19E0
102
{ACAD_REACTORS
330
1C3F
330
1CF9
102
}
330
1E
100
AcDbEntity
  8
STEMPEL
100
AcDbLine
 10
166.1117740015314
 20
382.4420464345401
 30
0.0
 11
325.2328871766618
 21
382.4420464345401
 31
0.0
  0
LINE
  5
19E2
102
{ACAD_REACTORS
330
1C3F
102
}
330
1E
100
AcDbEntity
  8
STEMPEL
100
AcDbLine
 10
251.1117740015319
 20
380.4420464345401
 30
0.0
 11
325.2328871766621
 21
380.4420464345402
 31
0.0
  0
LINE
  5
19E3
330
1E
100
AcDbEntity
  8
MITTEL
100
AcDbLine
 10
416.1117740015316
 20
643.3189408089224
 30
0.0
 11
416.1117740015316
 21
306.4468445367294
 31
0.0
  0
DIMENSION
  5
19E4
330
1E
100
AcDbEntity
  8
BEM
100
AcDbDimension
  2
*D3
 10
207.5452272682854
 20
562.4420464345401
 30
0.0
 11
199.4202272682853
 21
472.4420464345402
 31
0.0
 70
    32
  1
max.180
 71
     5
 42
180.0
  3
Standard
100
AcDbAlignedDimension
 13
211.5010313322446
 23
382.4420464345401
 33
0.0
 14
209.7107132449004
 24
562.4420464345401
 34
0.0
 50
90.0
100
AcDbRotatedDimension
1001
ACAD
1000
DSTYLE
1002
{
1070
    40
1040
2.5
1070
    41
1040
3.5
1070
    42
1040
1.0
1070
    43
1040
7.0
1070
    44
1040
1.0
1070
    73
1070
     0
1070
    74
1070
     0
1070
    77
1070
     1
1070
    78
1070
     8
1070
    79
1070
     2
1070
   140
1040
3.5
1070
   141
1040
1.5
1070
   146
1040
0.5142857142857144
1070
   147
1040
1.5
1070
   172
1070
     1
1070
   178
1070
     1
1070
   179
1070
     2
1070
   271
1070
     2
1070
   272
1070
     2
1070
   284
1070
     8
1070
   285
1070
     8
1070
   286
1070
     8
1002
}
  0
ARC
  5
19E5
102
{ACAD_REACTORS
330
1C90
330
1DB7
102
}
330
1E
100
AcDbEntity
  8
STEMPEL
100
AcDbCircle
 10
341.5455307312719
 20
534.44204643454
 30
0.0
 40
8.0
100
AcDbArc
 50
209.9999999999997
 51
270.0
  0
ARC
  5
19E6
102
{ACAD_REACTORS
330
1C90
330
1CCB
102
}
330
1E
100
AcDbEntity
  8
STEMPEL
100
AcDbCircle
 10
341.5455307312719
 20
534.44204643454
 30
0.0
 40
6.0
100
AcDbArc
 50
209.9999999999997
 51
270.0
  0
LINE
  5
19E7
102
{ACAD_REACTORS
330
1D85
102
}
330
1E
100
AcDbEntity
  8
STEMPEL
  6
Continuous
100
AcDbLine
 10
352.1117740015315
 20
549.0491742922873
 30
0.0
 11
352.1117740015315
 21
520.4420464345401
 31
0.0
  0
LINE
  5
19E8
102
{ACAD_REACTORS
330
1D69
330
1D85
102
}
330
1E
100
AcDbEntity
  8
STEMPEL
  6
Continuous
100
AcDbLine
 10
349.6117740015315
 20
549.0491742922873
 30
0.0
 11
349.6117740015315
 21
520.4420464345401
 31
0.0
  0
DIMENSION
  5
19E9
330
1E
100
AcDbEntity
  8
BEM
100
AcDbDimension
  2
*D4
 10
666.1117740015314
 20
694.7779988217989
 30
0.0
 11
424.2724534914374
 21
694.7779988217989
 31
0.0
 70
   160
 71
     5
 42
500.0
  3
Standard
100
AcDbAlignedDimension
 13
166.1117740015314
 23
565.4420464345402
 33
0.0
 14
666.1117740015314
 24
565.4420464345402
 34
0.0
100
AcDbRotatedDimension
1001
ACAD
1000
DSTYLE
1002
{
1070
    40
1040
2.5
1070
    41
1040
3.5
1070
    42
1040
1.0
1070
    43
1040
7.0
1070
    44
1040
1.0
1070
    73
1070
     0
1070
    74
1070
     0
1070
    77
1070
     1
1070
    78
1070
     8
1070
    79
1070
     2
1070
   140
1040
3.5
1070
   141
1040
1.5
1070
   146
1040
0.5142857142857144
1070
   147
1040
1.5
1070
   172
1070
     1
1070
   178
1070
     1
1070
   179
1070
     2
1070
   271
1070
     2
1070
   272
1070
     2
1070
   284
1070
     8
1070
   285
1070
     8
1070
   286
1070
     8
1002
}
  0
LINE
  5
19EA
102
{ACAD_REACTORS
330
1866
330
1CCB
102
}
330
1E
100
AcDbEntity
  8
STEMPEL
100
AcDbLine
 10
166.1117740015314
 20
565.4420464345402
 30
0.0
 11
666.1117740015314
 21
565.4420464345402
 31
0.0
  0
DIMENSION
  5
19EB
330
1E
100
AcDbEntity
  8
BEM
100
AcDbDimension
  2
*D5
 10
581.1117740015314
 20
678.1715465337815
 30
0.0
 11
416.1117740015314
 21
686.2965465337815
 31
0.0
 70
    32
  1
%%c<>
 71
     5
 42
330.0
  3
Standard
100
AcDbAlignedDimension
 13
251.1117740015314
 23
562.4420464345401
 33
0.0
 14
581.1117740015314
 24
562.4420464345401
 34
0.0
100
AcDbRotatedDimension
1001
ACAD
1000
DSTYLE
1002
{
1070
    40
1040
2.5
1070
    41
1040
3.5
1070
    42
1040
1.0
1070
    43
1040
7.0
1070
    44
1040
1.0
1070
    73
1070
     0
1070
    74
1070
     0
1070
    77
1070
     1
1070
    78
1070
     8
1070
    79
1070
     2
1070
   140
1040
3.5
1070
   141
1040
1.5
1070
   146
1040
0.5142857142857144
1070
   147
1040
1.5
1070
   172
1070
     1
1070
   178
1070
     1
1070
   179
1070
     2
1070
   271
1070
     2
1070
   272
1070
     2
1070
   284
1070
     8
1070
   285
1070
     8
1070
   286
1070
     8
1002
}
  0
LINE
  5
19ED
102
{ACAD_REACTORS
330
1865
102
}
330
1E
100
AcDbEntity
  8
STEMPEL
100
AcDbLine
 10
505.6117740015314
 20
635.3189408089228
 30
0.0
 11
326.6117740015317
 21
635.3189408089228
 31
0.0
  0
LINE
  5
19EE
102
{ACAD_REACTORS
330
1865
102
}
330
1E
100
AcDbEntity
  8
STEMPEL
100
AcDbLine
 10
505.6117740015314
 20
638.3189408089228
 30
0.0
 11
326.6117740015317
 21
638.3189408089228
 31
0.0
  0
LINE
  5
19EF
102
{ACAD_REACTORS
330
1864
102
}
330
1E
100
AcDbEntity
  8
STEMPEL
100
AcDbLine
 10
318.6117740015317
 20
630.4420464345403
 30
0.0
 11
513.6117740015317
 21
630.4420464345403
 31
0.0
  0
DIMENSION
  5
19F0
330
1E
100
AcDbEntity
  8
BEM
100
AcDbDimension
  2
*D6
 10
517.6117740015314
 20
659.5383743599859
 30
0.0
 11
416.1117740015315
 21
667.6633743599859
 31
0.0
 70
    32
  1
%%c<>
 71
     5
 42
202.9999999999998
  3
Standard
100
AcDbAlignedDimension
 13
314.6117740015317
 23
626.3189408089228
 33
0.0
 14
517.6117740015314
 24
626.3189408089228
 34
0.0
100
AcDbRotatedDimension
1001
ACAD
1000
DSTYLE
1002
{
1070
    40
1040
2.5
1070
    41
1040
3.5
1070
    42
1040
1.0
1070
    43
1040
7.0
1070
    44
1040
1.0
1070
    73
1070
     0
1070
    74
1070
     0
1070
    77
1070
     1
1070
    78
1070
     8
1070
    79
1070
     2
1070
   140
1040
3.5
1070
   141
1040
1.5
1070
   146
1040
0.5142857142857144
1070
   147
1040
1.5
1070
   172
1070
     1
1070
   178
1070
     1
1070
   179
1070
     2
1070
   271
1070
     2
1070
   272
1070
     2
1070
   284
1070
     8
1070
   285
1070
     8
1070
   286
1070
     8
1002
}
  0
LINE
  5
19F2
330
1E
100
AcDbEntity
  8
HILF
100
AcDbLine
 10
479.1818748878617
 20
504.931779010042
 30
0.0
 11
353.041673115201
 21
504.931779010042
 31
0.0
  0
LINE
  5
19F5
102
{ACAD_REACTORS
330
1D85
102
}
330
1E
100
AcDbEntity
  8
STEMPEL
  6
Continuous
100
AcDbLine
 10
482.6117740015316
 20
520.4420464345401
 30
0.0
 11
349.6117740015315
 21
520.4420464345401
 31
0.0
  0
LINE
  5
19F6
330
1E
100
AcDbEntity
  8
HILF
100
AcDbLine
 10
416.7767628824889
 20
560.3863828537877
 30
0.0
 11
481.7587533438557
 21
560.3863828537877
 31
0.0
  0
LINE
  5
19F7
102
{ACAD_REACTORS
330
1866
102
}
330
1E
100
AcDbEntity
  8
STEMPEL
100
AcDbLine
 10
318.6117740015317
 20
570.4420464345401
 30
0.0
 11
513.6117740015318
 21
570.4420464345401
 31
0.0
  0
LINE
  5
19F8
102
{ACAD_REACTORS
330
1CCB
330
1D85
330
1DAD
102
}
330
1E
100
AcDbEntity
  8
STEMPEL
100
AcDbLine
 10
318.6117740015315
 20
565.4420464345402
 30
0.0
 11
513.6117740015314
 21
565.4420464345402
 31
0.0
  0
LINE
  5
19F9
330
1E
100
AcDbEntity
  8
STEMPEL
100
AcDbLine
 10
354.8042649269072
 20
580.4420464345403
 30
0.0
 11
477.4192830761561
 21
580.4420464345403
 31
0.0
  0
LINE
  5
19FA
330
1E
100
AcDbEntity
  8
HILF
100
AcDbLine
 10
420.1117740015314
 20
552.7842636964571
 30
0.0
 11
478.0842447159699
 21
552.7842636964571
 31
0.0
  0
LINE
  5
19FB
330
1E
100
AcDbEntity
  8
STEMPEL
100
AcDbLine
 10
354.8042649269072
 20
625.4420464345403
 30
0.0
 11
477.4192830761561
 21
625.4420464345403
 31
0.0
  0
LINE
  5
19FC
330
1E
100
AcDbEntity
  8
STEMPEL
100
AcDbLine
 10
354.8042649269072
 20
615.4420464345403
 30
0.0
 11
477.4192830761561
 21
615.4420464345403
 31
0.0
  0
LINE
  5
19FD
330
1E
100
AcDbEntity
  8
STEMPEL
100
AcDbLine
 10
354.8042649269072
 20
610.4420464345403
 30
0.0
 11
477.4192830761561
 21
610.4420464345403
 31
0.0
  0
LINE
  5
19FE
330
1E
100
AcDbEntity
  8
STEMPEL
100
AcDbLine
 10
354.8042649269072
 20
600.4420464345403
 30
0.0
 11
477.4192830761561
 21
600.4420464345403
 31
0.0
  0
LINE
  5
19FF
330
1E
100
AcDbEntity
  8
STEMPEL
100
AcDbLine
 10
354.8042649269072
 20
595.4420464345402
 30
0.0
 11
477.4192830761561
 21
595.4420464345402
 31
0.0
  0
LINE
  5
1A00
330
1E
100
AcDbEntity
  8
STEMPEL
100
AcDbLine
 10
354.8042649269072
 20
585.4420464345403
 30
0.0
 11
477.4192830761561
 21
585.4420464345403
 31
0.0
  0
LINE
  5
1A02
102
{ACAD_REACTORS
330
1C64
102
}
330
1E
100
AcDbEntity
  8
STEMPEL
100
AcDbLine
 10
349.6117740015315
 20
340.7321648435842
 30
0.0
 11
482.6117740015316
 21
340.7321648435844
 31
0.0
  0
LINE
  5
1A04
330
1E
100
AcDbEntity
  8
HILF
100
AcDbLine
 10
353.6117740015317
 20
336.44204643454
 30
0.0
 11
478.6117740015316
 21
336.4420464345403
 31
0.0
  0
POINT
  5
1A09
330
1E
100
AcDbEntity
  8
BEM
  6
ByBlock
 62
     0
100
AcDbPoint
 10
681.1117740015319
 20
261.2776240816156
 30
0.0
  0
LINE
  5
1A0A
330
1E
100
AcDbEntity
  8
BEM
 62
     0
100
AcDbLine
 10
686.1117740015319
 20
261.2776240816156
 30
0.0
 11
692.373704881527
 21
261.2776240816156
 31
0.0
  0
LINE
  5
1A0B
102
{ACAD_REACTORS
330
1BF1
102
}
330
1E
100
AcDbEntity
  8
STEMPEL
100
AcDbLine
 10
667.4274729359678
 20
197.1138500003866
 30
0.0
 11
679.4508430703457
 21
197.8492308208442
 31
0.0
  0
LINE
  5
1A0C
102
{ACAD_REACTORS
330
1BF1
102
}
330
1E
100
AcDbEntity
  8
STEMPEL
100
AcDbLine
 10
667.4624110021396
 20
195.1122495299443
 30
0.0
 11
679.3982891903502
 21
195.8422791137323
 31
0.0
  0
POINT
  5
1A0D
330
1E
100
AcDbEntity
  8
DEFPOINTS
  6
ByBlock
 62
     0
100
AcDbPoint
 10
455.3697310243725
 20
267.1888875138886
 30
0.0
  0
LINE
  5
1A0E
330
1E
100
AcDbEntity
  8
MITTEL
100
AcDbLine
 10
455.3697310243777
 20
267.1888875138834
 30
0.0
 11
686.1100606264095
 21
261.1467393400762
 31
0.0
  0
ARC
  5
1A10
102
{ACAD_REACTORS
330
1DCF
102
}
330
1E
100
AcDbEntity
  8
SCHRAFF
100
AcDbCircle
 10
427.7890978441406
 20
202.8410584201474
 30
0.0
 40
2.431803413904121
100
AcDbArc
 50
172.9878398737045
 51
321.8312128682719
  0
ARC
  5
1A11
102
{ACAD_REACTORS
330
1DCF
102
}
330
1E
100
AcDbEntity
  8
SCHRAFF
100
AcDbCircle
 10
350.9438496047436
 20
279.57690251364
 30
0.0
 40
2.37465693292418
100
AcDbArc
 50
124.1218658817097
 51
278.2926018234225
  0
LINE
  5
1A12
102
{ACAD_REACTORS
330
1BE0
102
}
330
1E
100
AcDbEntity
  8
STEMPEL
100
AcDbLine
 10
351.6117740015319
 20
279.7300697636647
 30
0.0
 11
427.9572451621699
 21
203.3845986030267
 31
0.0
  0
LINE
  5
1A13
102
{ACAD_REACTORS
330
1BE0
330
1DCF
102
}
330
1E
100
AcDbEntity
  8
STEMPEL
100
AcDbLine
 10
349.6117740015319
 20
278.9016426389185
 30
0.0
 11
427.1072456005509
 21
201.4061710398993
 31
0.0
  0
LINE
  5
1A14
102
{ACAD_REACTORS
330
1BF1
102
}
330
1E
100
AcDbEntity
  8
STEMPEL
100
AcDbLine
 10
427.9572451621699
 20
203.3845986030267
 30
0.0
 11
667.4274729359678
 21
197.1138500003866
 31
0.0
  0
LINE
  5
1A15
102
{ACAD_REACTORS
330
1BF1
330
1DCF
102
}
330
1E
100
AcDbEntity
  8
STEMPEL
100
AcDbLine
 10
427.1072456005509
 20
201.4061710398993
 30
0.0
 11
667.4624110021396
 21
195.1122495299443
 31
0.0
  0
LINE
  5
1A17
102
{ACAD_REACTORS
330
1BF1
102
}
330
1E
100
AcDbEntity
  8
STEMPEL
100
AcDbLine
 10
682.8252588127135
 20
326.712969049499
 30
0.0
 11
679.3982891903502
 21
195.8422791137323
 31
0.0
  0
LINE
  5
1A18
330
1E
100
AcDbEntity
  8
HILF
100
AcDbLine
 10
670.7517453876873
 20
324.0626932151216
 30
0.0
 11
667.4800268159628
 21
199.1208017074986
 31
0.0
  0
DIMENSION
  5
1A19
330
1E
100
AcDbEntity
  8
BEM
100
AcDbDimension
  2
*D7
 10
707.1495304308282
 20
194.0990799500359
 30
0.0
 11
700.7242978558235
 21
260.7847899457692
 31
0.0
 70
    33
  1
%%c<>
 71
     5
 42
133.0000286658307
  3
Standard
100
AcDbAlignedDimension
 13
670.8566531642987
 23
328.0689595721848
 33
0.0
 14
667.4624110021396
 24
195.1122495299443
 34
0.0
1001
ACAD
1000
DSTYLE
1002
{
1070
    40
1040
2.5
1070
    41
1040
3.5
1070
    42
1040
1.0
1070
    43
1040
7.0
1070
    44
1040
1.0
1070
    73
1070
     0
1070
    74
1070
     0
1070
    77
1070
     1
1070
    78
1070
     8
1070
    79
1070
     2
1070
   140
1040
3.5
1070
   141
1040
1.5
1070
   146
1040
0.5142857142857144
1070
   147
1040
1.5
1070
   172
1070
     1
1070
   178
1070
     1
1070
   179
1070
     2
1070
   271
1070
     2
1070
   272
1070
     2
1070
   284
1070
     8
1070
   285
1070
     8
1070
   286
1070
     8
1002
}
  0
LINE
  5
1A1A
330
1E
100
AcDbEntity
  8
MITTEL
100
AcDbLine
 10
416.1117740015316
 20
306.4468445367294
 30
0.0
 11
455.3697310243777
 21
267.1888875138835
 31
0.0
  0
DIMENSION
  5
1A1B
330
1E
100
AcDbEntity
  8
BEM
100
AcDbDimension
  2
*D8
 10
681.1117740015319
 20
173.4494950076232
 30
0.0
 11
548.6117740015317
 21
181.5744950076232
 31
0.0
 70
    32
 71
     5
 42
265.0000000000002
  3
Standard
100
AcDbAlignedDimension
 13
416.1117740015316
 23
306.4468445367294
 33
0.0
 14
681.1117740015319
 24
261.2776240816156
 34
0.0
100
AcDbRotatedDimension
1001
ACAD
1000
DSTYLE
1002
{
1070
    40
1040
2.5
1070
    41
1040
3.5
1070
    42
1040
1.0
1070
    43
1040
7.0
1070
    44
1040
1.0
1070
    73
1070
     0
1070
    74
1070
     0
1070
    77
1070
     1
1070
    78
1070
     8
1070
    79
1070
     2
1070
   140
1040
3.5
1070
   141
1040
1.5
1070
   146
1040
0.5142857142857144
1070
   147
1040
1.5
1070
   172
1070
     1
1070
   178
1070
     1
1070
   179
1070
     2
1070
   271
1070
     2
1070
   272
1070
     2
1070
   284
1070
     8
1070
   285
1070
     8
1070
   286
1070
     8
1002
}
  0
LINE
  5
1A1C
102
{ACAD_REACTORS
330
1BE0
330
1BF1
102
}
330
1E
100
AcDbEntity
  8
STEMPEL
100
AcDbLine
 10
483.6322164482045
 20
332.9716039878674
 30
0.0
 11
427.1072456005407
 21
201.4061710399096
 31
0.0
  0
LINE
  5
1A1E
102
{ACAD_REACTORS
330
1BE0
330
1C06
102
}
330
1E
100
AcDbEntity
  8
STEMPEL
100
AcDbLine
 10
482.6117740015316
 20
333.9920464345401
 30
0.0
 11
349.6117740015319
 21
278.9016426389185
 31
0.0
  0
LINE
  5
1A20
102
{ACAD_REACTORS
330
1C06
102
}
330
1E
100
AcDbEntity
  8
STEMPEL
100
AcDbLine
 10
351.6117740015317
 20
335.0866912691095
 30
0.0
 11
351.6117740015319
 21
279.7300697636647
 31
0.0
  0
LINE
  5
1A21
102
{ACAD_REACTORS
330
1C06
330
1DCF
102
}
330
1E
100
AcDbEntity
  8
STEMPEL
100
AcDbLine
 10
349.6117740015319
 20
335.0866912691095
 30
0.0
 11
349.6117740015319
 21
278.9016426389185
 31
0.0
  0
LINE
  5
1B5D
330
1E
100
AcDbEntity
  8
BEM
 62
     1
100
AcDbLine
 10
412.9815406310767
 20
707.0376800970884
 30
0.0
 11
404.2315406310766
 21
707.0376800970884
 31
0.0
  0
LINE
  5
1B5E
330
1E
100
AcDbEntity
  8
BEM
 62
     1
100
AcDbLine
 10
404.2315406310766
 20
707.0376800970884
 30
0.0
 11
404.2315406310766
 21
698.2876800970885
 31
0.0
  0
DIMENSION
  5
1B6A
330
1E
100
AcDbEntity
  8
SCHRAFF
100
AcDbDimension
  2
*D9
 10
734.6838910609281
 20
261.2776240816156
 30
0.0
 11
726.5588910609279
 21
321.859835258078
 31
0.0
 70
    32
  1
121
 71
     5
 42
121.1644223529245
  3
Standard
100
AcDbAlignedDimension
 13
666.1117740015316
 23
382.4420464345401
 33
0.0
 14
708.864526588686
 24
261.2776240816156
 34
0.0
 50
90.0
100
AcDbRotatedDimension
1001
ACAD
1000
DSTYLE
1002
{
1070
    40
1040
2.5
1070
    41
1040
3.5
1070
    42
1040
1.0
1070
    43
1040
7.0
1070
    44
1040
1.0
1070
    73
1070
     0
1070
    74
1070
     0
1070
    77
1070
     1
1070
    78
1070
     8
1070
    79
1070
     2
1070
   140
1040
3.5
1070
   141
1040
1.5
1070
   146
1040
0.5142857142857144
1070
   147
1040
1.5
1070
   172
1070
     1
1070
   178
1070
     1
1070
   179
1070
     2
1070
   271
1070
     2
1070
   272
1070
     2
1070
   284
1070
     8
1070
   285
1070
     8
1070
   286
1070
     8
1002
}
  0
TEXT
  5
1BAC
330
1E
100
AcDbEntity
  8
TEXT
 62
     1
100
AcDbText
 10
762.3580732910611
 20
418.3807524697997
 30
0.0
 40
8.75
  1
EDV-Art.Nr.17000.125A
 41
0.8
  7
GREEKS
100
AcDbText
  0
TEXT
  5
1BAD
330
1E
100
AcDbEntity
  8
TEXT
 62
     1
100
AcDbText
 10
763.3983363157385
 20
436.0859191071973
 30
0.0
 40
8.75
  1
Anschlußmanschette DN125
 41
0.8
  7
GREEKS
100
AcDbText
  0
LINE
  5
1BAE
330
1E
100
AcDbEntity
  8
TEXT
 62
     2
100
AcDbLine
 10
762.3253860231709
 20
430.8737844874685
 30
0.0
 11
910.9495184614507
 21
430.8737844874685
 31
0.0
  0
LINE
  5
1BAF
330
1E
100
AcDbEntity
  8
TEXT
 62
     2
100
AcDbLine
 10
274.2639093391856
 20
266.2758793482648
 30
0.0
 11
349.9801009112577
 21
314.0518139545219
 31
0.0
  0
LINE
  5
1BB0
330
1E
100
AcDbEntity
  8
TEXT
 62
     2
100
AcDbLine
 10
659.8568560952444
 20
384.2389154593737
 30
0.0
 11
762.3253860231709
 21
430.8737844874685
 31
0.0
  0
LINE
  5
1BB1
330
1E
100
AcDbEntity
  8
TEXT
 62
     2
100
AcDbLine
 10
152.8880372986166
 20
266.2758793482648
 30
0.0
 11
274.2639093391856
 21
266.2758793482648
 31
0.0
  0
TEXT
  5
1BB2
330
1E
100
AcDbEntity
  8
TEXT
 62
     1
100
AcDbText
 10
153.1585776063591
 20
270.929570973023
 30
0.0
 40
8.75
  1
Ablauftopf DN125
 41
0.8
  7
GREEKS
100
AcDbText
  0
TEXT
  5
1BB3
330
1E
100
AcDbEntity
  8
TEXT
 62
     1
100
AcDbText
 10
152.9172223592329
 20
255.1213864753464
 30
0.0
 40
8.75
  1
EDV-Art.Nr.17135.125A
 41
0.8
  7
GREEKS
100
AcDbText
  0
TEXT
  5
1BB4
330
1E
100
AcDbEntity
  8
TEXT
 62
     1
100
AcDbText
 10
762.5738114537123
 20
677.6798651438139
 30
0.0
 40
8.75
  1
EDV-Art.Nr. 17112.000A
 41
0.8
  7
GREEKS
100
AcDbText
  0
LINE
  5
1BB5
330
1E
100
AcDbEntity
  8
TEXT
 62
     2
100
AcDbLine
 10
762.3253860231709
 20
689.2578735572835
 30
0.0
 11
888.7035164164002
 21
689.2578735572835
 31
0.0
  0
TEXT
  5
1BB6
330
1E
100
AcDbEntity
  8
TEXT
 62
     1
100
AcDbText
 10
762.5821825622965
 20
692.9535465125479
 30
0.0
 40
8.75
  1
Siebdeckel
 41
0.8
  7
GREEKS
100
AcDbText
  0
LINE
  5
1BB7
330
1E
100
AcDbEntity
  8
TEXT
 62
     2
100
AcDbLine
 10
658.8273261264178
 20
564.2803537811196
 30
0.0
 11
762.3253860231709
 21
607.1833157642002
 31
0.0
  0
LINE
  5
1BB8
102
{ACAD_REACTORS
330
1C90
330
1CCB
102
}
330
1E
100
AcDbEntity
  8
TEXT
 62
     2
100
AcDbLine
 10
762.3253860231709
 20
561.617947173728
 30
0.0
 11
493.8902833703332
 21
545.1074874071155
 31
0.0
  0
LINE
  5
1BB9
330
1E
100
AcDbEntity
  8
TEXT
 62
     2
100
AcDbLine
 10
762.3253860231709
 20
641.2353058951843
 30
0.0
 11
511.9006624073024
 21
597.7103666703706
 31
0.0
  0
LINE
  5
1BBA
330
1E
100
AcDbEntity
  8
TEXT
 62
     2
100
AcDbLine
 10
486.1483205093807
 20
511.2406117045191
 30
0.0
 11
762.3253860231709
 21
500.236263773231
 31
0.0
  0
LINE
  5
1BBB
102
{ACAD_REACTORS
330
1C3F
330
1CF9
102
}
330
1E
100
AcDbEntity
  8
TEXT
 62
     2
100
AcDbLine
 10
762.3253860231709
 20
467.9021901902189
 30
0.0
 11
494.2519906581256
 21
365.0895297782263
 31
0.0
  0
TEXT
  5
1BBC
330
1E
100
AcDbEntity
  8
TEXT
 62
     1
100
AcDbText
 10
762.5821825622965
 20
644.930978850449
 30
0.0
 40
8.75
  1
Siebkorb DN125
 41
0.8
  7
GREEKS
100
AcDbText
  0
LINE
  5
1BBD
330
1E
100
AcDbEntity
  8
TEXT
 62
     2
100
AcDbLine
 10
762.3253860231709
 20
641.2353058951843
 30
0.0
 11
888.7035164164002
 21
641.2353058951843
 31
0.0
  0
TEXT
  5
1BBE
330
1E
100
AcDbEntity
  8
TEXT
 62
     1
100
AcDbText
 10
762.3545710837865
 20
456.7476973173003
 30
0.0
 40
8.75
  1
EDV-Art.Nr.17201.125A
 41
0.8
  7
GREEKS
100
AcDbText
  0
TEXT
  5
1BBF
330
1E
100
AcDbEntity
  8
TEXT
 62
     1
100
AcDbText
 10
763.2104072842285
 20
472.555881814977
 30
0.0
 40
8.75
  1
Klemmring DN125
 41
0.8
  7
GREEKS
100
AcDbText
  0
TEXT
  5
1BC0
330
1E
100
AcDbEntity
  8
TEXT
 62
     1
100
AcDbText
 10
762.3545710837868
 20
489.0817709003124
 30
0.0
 40
8.75
  1
EDV-Art.Nr.17117.125A
 41
0.8
  7
GREEKS
100
AcDbText
  0
TEXT
  5
1BC1
330
1E
100
AcDbEntity
  8
TEXT
 62
     1
100
AcDbText
 10
762.5959263309134
 20
504.8899553979888
 30
0.0
 40
8.75
  1
Etageneinsatz DN125
 41
0.8
  7
GREEKS
100
AcDbText
  0
TEXT
  5
1BC2
330
1E
100
AcDbEntity
  8
TEXT
 62
     1
100
AcDbText
 10
762.3545710837873
 20
596.0288228912816
 30
0.0
 40
8.75
  1
EDV-Art.Nr.17000.125A
 41
0.8
  7
GREEKS
100
AcDbText
  0
TEXT
  5
1BC3
330
1E
100
AcDbEntity
  8
TEXT
 62
     1
100
AcDbText
 10
763.28337735582
 20
611.837007388958
 30
0.0
 40
8.75
  1
Anschlußmanschette DN125
 41
0.8
  7
GREEKS
100
AcDbText
  0
TEXT
  5
1BC4
330
1E
100
AcDbEntity
  8
TEXT
 62
     1
100
AcDbText
 10
762.3545710837873
 20
550.4634543008093
 30
0.0
 40
8.75
  1
EDV-Art.Nr.17201.125A
 41
0.8
  7
GREEKS
100
AcDbText
  0
TEXT
  5
1BC5
330
1E
100
AcDbEntity
  8
TEXT
 62
     1
100
AcDbText
 10
763.2104072842292
 20
566.2716387984858
 30
0.0
 40
8.75
  1
Klemmring DN125
 41
0.8
  7
GREEKS
100
AcDbText
  0
LINE
  5
1BC6
330
1E
100
AcDbEntity
  8
TEXT
 62
     2
100
AcDbLine
 10
762.3253860231709
 20
500.236263773231
 30
0.0
 11
883.7012580637399
 21
500.236263773231
 31
0.0
  0
LINE
  5
1BC7
330
1E
100
AcDbEntity
  8
TEXT
 62
     2
100
AcDbLine
 10
762.3253860231709
 20
561.617947173728
 30
0.0
 11
883.7436066530834
 21
561.617947173728
 31
0.0
  0
LINE
  5
1BC8
330
1E
100
AcDbEntity
  8
TEXT
 62
     2
100
AcDbLine
 10
762.3253860231709
 20
607.1833157642002
 30
0.0
 11
910.3889322866727
 21
607.1833157642002
 31
0.0
  0
LINE
  5
1BC9
330
1E
100
AcDbEntity
  8
TEXT
 62
     2
100
AcDbLine
 10
762.3253860231709
 20
467.9021901902189
 30
0.0
 11
885.9431539898331
 21
467.9021901902189
 31
0.0
  0
TEXT
  5
1BCA
330
1E
100
AcDbEntity
  8
TEXT
 62
     1
100
AcDbText
 10
762.5738114537123
 20
629.6572974817149
 30
0.0
 40
8.75
  1
EDV-Art.Nr. 17114.125A
 41
0.8
  7
GREEKS
100
AcDbText
  0
LINE
  5
1BCB
330
1E
100
AcDbEntity
  8
TEXT
 62
     2
100
AcDbLine
 10
762.3253860231709
 20
689.2578735572835
 30
0.0
 11
516.390800620586
 21
624.8977620588964
 31
0.0
  0
HATCH
  5
1BE0
330
1E
100
AcDbEntity
  8
SCHRAFF
100
AcDbHatch
 10
0.0
 20
0.0
 30
0.0
210
0.0
220
0.0
230
1.0
  2
_USER
 70
     0
 71
     1
 91
        2
 92
        7
 72
     0
 73
     1
 93
        4
 10
351.6117740015319
 20
279.7300697636647
 10
349.6117740015319
 20
278.9016426389185
 10
427.1072456005406
 20
201.4061710399094
 10
427.9572451621596
 20
203.3845986030368
 97
        4
330
1A1E
330
1A13
330
1A1C
330
1A12
 92
        7
 72
     0
 73
     1
 93
        4
 10
483.6322164482045
 20
332.9716039878675
 10
482.6117740015318
 20
333.9920464345402
 10
480.6117740015315
 20
333.1636193097939
 10
482.7822168865854
 20
330.9931764247403
 97
        4
330
1901
330
1A1E
330
190B
330
1A1C
 75
     0
 76
     0
 52
45.0
 41
2.0
 77
     0
 78
     1
 53
45.0
 43
0.0
 44
0.0
 45
-1.414213562373094
 46
1.414213562373095
 79
     0
 47
0.613850514719827
 98
        2
 10
384.8787318890622
 20
245.8668891464522
 10
481.9256699065581
 20
332.4198105304144
  0
HATCH
  5
1BF1
330
1E
100
AcDbEntity
  8
SCHRAFF
100
AcDbHatch
 10
0.0
 20
0.0
 30
0.0
210
0.0
220
0.0
230
1.0
  2
_USER
 70
     0
 71
     1
 91
        2
 92
        7
 72
     0
 73
     1
 93
        6
 10
483.6322164482043
 20
332.9716039878674
 10
482.7822168865854
 20
330.9931764247402
 10
670.8042992676811
 20
326.0696449222336
 10
682.7727049327179
 20
324.706017342387
 10
682.8252588127136
 20
326.7129690494989
 10
670.9439451270867
 20
328.0666737516934
 97
        6
330
1A1C
330
191D
330
18CD
330
1A17
330
18CC
330
191C
 92
        7
 72
     0
 73
     1
 93
        6
 10
427.9572451621556
 20
203.3845986030271
 10
427.1072456005364
 20
201.4061710398997
 10
667.4624110021397
 20
195.1122495299443
 10
679.3982891903503
 20
195.8422791137322
 10
679.450843070346
 20
197.8492308208443
 10
667.4274729359674
 20
197.1138500003866
 97
        6
330
1A1C
330
1A15
330
1A0C
330
1A17
330
1A0B
330
1A14
 75
     0
 76
     0
 52
135.0
 41
2.0
 77
     0
 78
     1
 53
135.0
 43
0.0
 44
0.0
 45
-1.414213562373095
 46
-1.414213562373094
 79
     0
 47
0.613850514719827
 98
        2
 10
535.9771302870345
 20
330.5782592018659
 10
518.1647167333003
 20
200.4419504141351
  0
HATCH
  5
1C06
330
1E
100
AcDbEntity
  8
SCHRAFF
100
AcDbHatch
 10
0.0
 20
0.0
 30
0.0
210
0.0
220
0.0
230
1.0
  2
_USER
 70
     0
 71
     1
 91
        2
 92
        7
 72
     1
 73
     1
 93
        8
 10
351.6117740015317
 20
335.0866912691095
 42
0.2154107132469859
 10
350.5947085467482
 20
337.3379066273965
 42
0.0
 10
340.1117740015319
 20
346.571573663485
 42
0.0
 10
338.7898176380542
 20
345.0707634246269
 42
0.0
 10
349.2727521832707
 20
335.8370963885385
 42
-0.2154107132469976
 10
349.6117740015319
 20
335.0866912691095
 42
0.0
 10
349.6117740015319
 20
278.9016426389185
 42
0.0
 10
351.6117740015318
 20
279.7300697636647
 42
0.0
 97
        8
330
19C3
330
19D3
330
19CA
330
19CF
330
19C2
330
1A21
330
1A1E
330
1A20
 92
        7
 72
     1
 73
     1
 93
        8
 10
493.4337303650091
 20
345.0707634246269
 42
0.0
 10
492.1117740015316
 20
346.5715736634849
 42
0.0
 10
481.6288394563153
 20
337.3379066273968
 42
0.2154107132470032
 10
480.6117740015316
 20
335.0866912691097
 42
0.0
 10
480.6117740015316
 20
333.163619309794
 42
0.0
 10
482.6117740015316
 20
333.9920464345401
 42
0.0
 10
482.6117740015316
 20
335.0866912691097
 42
-0.2154107132470033
 10
482.9507958197929
 20
335.8370963885387
 42
0.0
 97
        8
330
190E
330
1900
330
1909
330
190A
330
1A1E
330
1903
330
1902
330
18FC
 75
     0
 76
     0
 52
135.0
 41
2.0
 77
     0
 78
     1
 53
135.0
 43
0.0
 44
0.0
 45
-1.414213562373095
 46
-1.414213562373094
 79
     0
 47
0.613850514719827
 98
        2
 10
351.0965708885474
 20
304.1826871786097
 10
486.8394415590123
 20
341.0137182206709
  0
HATCH
  5
1C3F
330
1E
100
AcDbEntity
  8
SCHRAFF
100
AcDbHatch
 10
0.0
 20
0.0
 30
0.0
210
0.0
220
0.0
230
1.0
  2
_USER
 70
     0
 71
     1
 91
        4
 92
        7
 72
     0
 73
     1
 93
        4
 10
581.1117740015316
 20
382.4420464345401
 10
539.4968859808026
 20
382.4420464345401
 10
534.2820925051584
 20
380.4420464345401
 10
581.1117740015316
 20
380.44204643454
 97
        4
330
191E
330
1BBB
330
1917
330
18DD
 92
        7
 72
     1
 73
     1
 93
        8
 10
539.4968859808029
 20
382.4420464345401
 42
0.0
 10
506.9906608264012
 20
382.4420464345401
 42
0.466307658154996
 10
501.5742181848342
 20
375.9869814573719
 42
0.0
 10
502.9102146414656
 20
368.4101690418053
 42
0.0
 10
504.8124293028589
 20
369.1397145819221
 42
0.0
 10
503.5438336908588
 20
376.334277812706
 42
-0.4663076581549923
 10
506.9906608264014
 20
380.4420464345402
 42
0.0
 10
534.2820925051586
 20
380.4420464345401
 42
0.0
 97
        7
330
191E
330
18E6
330
18E5
330
1BBB
330
18E0
330
18E7
330
1917
 92
        7
 72
     1
 73
     1
 93
       10
 10
505.1117740015317
 20
363.4420464345403
 42
0.0
 10
505.1117740015317
 20
367.4420464345405
 42
0.0
 10
504.8124293028591
 20
369.1397145819221
 42
0.0
 10
502.9102146414656
 20
368.4101690418053
 42
0.0
 10
503.1117740015316
 20
367.2670691074882
 42
0.0
 10
503.1117740015316
 20
363.9779448194025
 42
0.0
 10
495.8741696944975
 20
351.4420464345401
 42
-0.2042469992338564
 10
492.1117740015317
 20
348.6158691595232
 42
0.0
 10
492.1117740015317
 20
346.571573663485
 42
0.2202105253246321
 10
497.6062205020667
 20
350.4420464345403
 42
0.0
 97
       10
330
18DF
330
18E0
330
1BBB
330
18E5
330
18E4
330
1913
330
1911
330
190C
330
1910
330
1914
 92
        7
 72
     1
 73
     1
 93
       14
 10
325.2328871766618
 20
382.4420464345401
 42
0.0
 10
251.1117740015315
 20
382.4420464345401
 42
0.0
 10
251.1117740015315
 20
380.4420464345401
 42
0.0
 10
325.2328871766621
 20
380.4420464345402
 42
-0.4663076581549923
 10
328.6797143122047
 20
376.334277812706
 42
0.0
 10
327.1117740015317
 20
367.4420464345399
 42
0.0
 10
327.1117740015319
 20
363.4420464345404
 42
0.0
 10
334.6173275009968
 20
350.4420464345403
 42
0.2202105253246333
 10
340.1117740015319
 20
346.5715736634849
 42
0.0
 10
340.1117740015319
 20
348.6158691595231
 42
-0.2042469992338767
 10
336.3493783085656
 20
351.4420464345401
 42
0.0
 10
329.1117740015316
 20
363.9779448194024
 42
0.0
 10
329.1117740015315
 20
367.2670691074882
 42
0.0
 10
330.6493298182289
 20
375.9869814573719
 42
0.466307658154996
 97
       14
330
19E0
330
19DD
330
19E2
330
19B3
330
19B5
330
19B4
330
19D7
330
19C6
330
19CC
330
19C7
330
19D9
330
19B6
330
19B7
330
19B8
 75
     0
 76
     0
 52
135.0
 41
2.0
 77
     0
 78
     1
 53
135.0
 43
0.0
 44
0.0
 45
-1.414213562373095
 46
-1.414213562373094
 79
     0
 47
0.613850514719827
 98
        4
 10
565.4597463034997
 20
380.9140029673413
 10
524.3069278243028
 20
380.9140029673413
 10
500.3523066541311
 20
357.5876824131524
 10
281.0753630612899
 20
380.9140029673413
  0
HATCH
  5
1C4C
330
1E
100
AcDbEntity
  8
SCHRAFF
100
AcDbHatch
 10
0.0
 20
0.0
 30
0.0
210
0.0
220
0.0
230
1.0
  2
_USER
 70
     0
 71
     1
 91
        2
 92
        7
 72
     0
 73
     1
 93
        4
 10
491.1117740015317
 20
380.6879574457937
 10
489.1117740015316
 20
380.6879574457937
 10
489.1117740015316
 20
357.6879574457937
 10
491.1117740015316
 20
357.6879574457937
 97
        4
330
18ED
330
18E9
330
18EB
330
18EA
 92
        7
 72
     0
 73
     1
 93
        4
 10
343.1117740015317
 20
380.6879574457937
 10
341.1117740015317
 20
380.6879574457937
 10
341.1117740015317
 20
357.6879574457937
 10
343.1117740015317
 20
357.6879574457937
 97
        4
330
19BE
330
19B9
330
19BB
330
19BA
 75
     0
 76
     0
 52
135.0
 41
2.0
 77
     0
 78
     1
 53
135.0
 43
0.0
 44
0.0
 45
-1.414213562373095
 46
-1.414213562373094
 79
     0
 47
0.613850514719827
 98
        2
 10
489.9105471045136
 20
361.2707850702495
 10
342.4974739713175
 20
366.1815901034083
  0
HATCH
  5
1C64
330
1E
100
AcDbEntity
  8
SCHRAFF
100
AcDbHatch
 10
0.0
 20
0.0
 30
0.0
210
0.0
220
0.0
230
1.0
  2
_USER
 70
     0
 71
     1
 91
        2
 92
        7
 72
     1
 73
     1
 93
        8
 10
482.6117740015314
 20
500.7690521182803
 42
-0.1189414107772302
 10
484.5565545028126
 20
507.7406202355157
 42
0.0
 10
493.885503096123
 20
525.6475146291156
 42
0.0
 10
492.1117740015313
 20
526.5715736634847
 42
0.0
 10
482.7828254082192
 20
508.6646792698815
 42
0.119146236692364
 10
480.6117740015314
 20
500.7690521182799
 42
0.0
 10
480.6117740015314
 20
340.7321648435844
 42
0.0
 10
482.6117740015316
 20
340.7321648435844
 42
0.0
 97
        8
330
18D2
330
18D4
330
18DA
330
18D5
330
18D3
330
1918
330
1A02
330
1919
 92
        7
 72
     1
 73
     1
 93
        8
 10
349.6117740015314
 20
340.7321648435842
 42
0.0
 10
351.6117740015317
 20
340.7321648435841
 42
0.0
 10
351.6117740015314
 20
500.7690521182803
 42
0.1191462366924201
 10
349.4407225948417
 20
508.6646792698854
 42
0.0
 10
340.1117740015314
 20
526.5715736634847
 42
0.0
 10
338.3380449069398
 20
525.6475146291154
 42
0.0
 10
347.666993500252
 20
507.7406202355123
 42
-0.1189414107771777
 10
349.6117740015315
 20
500.7690521182796
 42
0.0
 97
        8
330
199A
330
19A1
330
199B
330
19A0
330
1999
330
19DA
330
1A02
330
19DB
 75
     0
 76
     0
 52
45.0
 41
2.0
 77
     0
 78
     1
 53
45.0
 43
0.0
 44
0.0
 45
-1.414213562373094
 46
1.414213562373095
 79
     0
 47
0.6138505147198272
 98
        2
 10
481.9256699065581
 20
440.8709090251195
 10
350.482351169273
 20
446.3955630107652
  0
HATCH
  5
1C90
330
1E
100
AcDbEntity
  8
SCHRAFF
100
AcDbHatch
 10
0.0
 20
0.0
 30
0.0
210
0.0
220
0.0
230
1.0
  2
_USER
 70
     0
 71
     1
 91
        3
 92
        7
 72
     1
 73
     1
 93
       10
 10
581.1117740015314
 20
562.4420464345401
 42
0.0
 10
506.990660826401
 20
562.4420464345401
 42
0.4663076581549922
 10
501.5742181848339
 20
555.986981457372
 42
0.0
 10
503.1117740015314
 20
547.2670691074881
 42
0.0
 10
503.1117740015314
 20
545.6746675134055
 42
0.0
 10
505.1117740015314
 20
545.797680186513
 42
0.0
 10
505.1117740015313
 20
547.4420464345406
 42
0.0
 10
503.5438336908583
 20
556.3342778127061
 42
-0.4663076581549744
 10
506.990660826401
 20
560.4420464345402
 42
0.0
 10
581.1117740015314
 20
560.4420464345402
 42
0.0
 97
       10
330
18C7
330
1898
330
1895
330
1896
330
1BB8
330
1891
330
1890
330
1899
330
18C5
330
1868
 92
        7
 72
     1
 73
     1
 93
       16
 10
325.2328871766616
 20
562.4420464345401
 42
0.0
 10
251.1117740015314
 20
562.4420464345401
 42
0.0
 10
251.1117740015315
 20
560.4420464345403
 42
0.0
 10
325.2328871766616
 20
560.4420464345402
 42
-0.4663076581549942
 10
328.6797143122045
 20
556.3342778127061
 42
0.0
 10
327.1117740015315
 20
547.4420464345402
 42
0.0
 10
327.1117740015315
 20
543.4420464345399
 42
0.0
 10
334.6173275009966
 20
530.44204643454
 42
0.267949192431122
 10
341.545530731272
 20
526.44204643454
 42
0.0
 10
345.6117740015315
 20
526.44204643454
 42
0.0
 10
345.6117740015315
 20
528.44204643454
 42
0.0
 10
341.5455307312719
 20
528.4420464345401
 42
-0.2679491924311188
 10
336.3493783085654
 20
531.4420464345401
 42
0.0
 10
329.1117740015315
 20
543.9779448194023
 42
0.0
 10
329.1117740015315
 20
547.2670691074886
 42
0.0
 10
330.6493298182289
 20
555.986981457372
 42
0.4663076581550049
 97
       16
330
1996
330
1993
330
1998
330
1984
330
1975
330
1976
330
196B
330
19E5
330
19A3
330
199F
330
19A4
330
19E6
330
196C
330
1978
330
1977
330
1980
 92
        7
 72
     1
 73
     1
 93
       10
 10
497.6062205020663
 20
530.44204643454
 42
0.0
 10
505.1117740015313
 20
543.4420464345399
 42
0.0
 10
505.1117740015313
 20
545.797680186513
 42
0.0
 10
503.1117740015314
 20
545.6746675134054
 42
0.0
 10
503.1117740015314
 20
543.9779448194025
 42
0.0
 10
495.8741696944972
 20
531.4420464345401
 42
-0.2679491924311088
 10
490.6780172717909
 20
528.4420464345401
 42
0.0
 10
486.6117740015314
 20
528.4420464345401
 42
0.0
 10
486.6117740015314
 20
526.44204643454
 42
0.0
 10
490.6780172717907
 20
526.44204643454
 42
0.2679491924311259
 97
       10
330
188F
330
1891
330
1BB8
330
1896
330
18BC
330
1923
330
18D8
330
18D9
330
18D7
330
1922
 75
     0
 76
     0
 52
135.0
 41
2.0
 77
     0
 78
     1
 53
135.0
 43
0.0
 44
0.0
 45
-1.414213562373095
 46
-1.414213562373094
 79
     0
 47
0.6138505147198272
 98
        3
 10
555.6322064731562
 20
561.1856099820756
 10
301.9588821605253
 20
561.1856099820756
 10
489.9105471045136
 20
526.8099814565943
  0
HATCH
  5
1CA0
330
1E
100
AcDbEntity
  8
SCHRAFF
100
AcDbHatch
 10
0.0
 20
0.0
 30
0.0
210
0.0
220
0.0
230
1.0
  2
_USER
 70
     0
 71
     1
 91
        2
 92
        7
 72
     0
 73
     1
 93
        4
 10
491.1117740015317
 20
560.6879574457938
 10
489.1117740015316
 20
560.6879574457938
 10
489.1117740015314
 20
537.6879574457936
 10
491.1117740015313
 20
537.6879574457936
 97
        4
330
189C
330
18B7
330
18AD
330
18BA
 92
        7
 72
     0
 73
     1
 93
        4
 10
343.1117740015317
 20
560.6879574457938
 10
341.1117740015317
 20
560.6879574457938
 10
341.1117740015317
 20
537.6879574457936
 10
343.1117740015317
 20
537.6879574457936
 97
        4
330
195C
330
1985
330
1979
330
1986
 75
     0
 76
     0
 52
45.0
 41
2.0
 77
     0
 78
     1
 53
45.0
 43
0.0
 44
0.0
 45
-1.414213562373094
 46
1.414213562373095
 79
     0
 47
0.6138505147198272
 98
        2
 10
490.524766823788
 20
547.0670483061735
 10
342.4974739713175
 20
548.2947484466913
  0
HATCH
  5
1CCB
330
1E
100
AcDbEntity
  8
SCHRAFF
100
AcDbHatch
 10
0.0
 20
0.0
 30
0.0
210
0.0
220
0.0
230
1.0
  2
NET
 70
     0
 71
     1
 91
        3
 92
        7
 72
     1
 73
     1
 93
       10
 10
666.1117740015314
 20
565.4420464345402
 42
0.0
 10
506.990660826401
 20
565.4420464345402
 42
0.4663076581550105
 10
498.6197949257972
 20
555.466036924371
 42
0.0
 10
500.1117740015315
 20
547.0046031169101
 42
0.0
 10
500.1117740015312
 20
545.490148503744
 42
0.0
 10
503.1117740015314
 20
545.6746675134054
 42
0.0
 10
503.1117740015314
 20
547.2670691074886
 42
0.0
 10
501.5742181848339
 20
555.986981457372
 42
-0.4663076581549985
 10
506.9906608264012
 20
562.4420464345401
 42
0.0
 10
666.1117740015314
 20
562.4420464345401
 42
0.0
 97
       10
330
19EA
330
1897
330
1892
330
1893
330
1BB8
330
1896
330
1895
330
1898
330
18C7
330
1867
 92
        7
 72
     1
 73
     1
 93
        9
 10
503.1117740015314
 20
543.9779448194023
 42
0.0
 10
503.1117740015314
 20
545.6746675134055
 42
0.0
 10
500.1117740015311
 20
545.4901485037441
 42
0.0
 10
500.1117740015312
 20
544.781792396696
 42
0.0
 10
493.1293951370931
 20
532.6879574457936
 42
0.0
 10
486.1117740015314
 20
532.6879574457937
 42
0.0
 10
486.1117740015314
 20
529.6879574457936
 42
0.0
 10
494.3384322601604
 20
529.6879574457936
 42
0.098075067864391
 10
495.8741696944972
 20
531.4420464345401
 42
0.0
 97
        9
330
1896
330
1BB8
330
1893
330
18BB
330
18A8
330
18A9
330
18A7
330
1923
330
18BC
 92
        7
 72
     1
 73
     1
 93
       16
 10
325.2328871766616
 20
565.4420464345402
 42
0.0
 10
318.6117740015315
 20
565.4420464345402
 42
0.0
 10
166.1117740015314
 20
565.4420464345402
 42
0.0
 10
166.1117740015314
 20
562.4420464345401
 42
0.0
 10
325.2328871766616
 20
562.4420464345401
 42
-0.4663076581550049
 10
330.6493298182289
 20
555.986981457372
 42
0.0
 10
329.1117740015315
 20
547.2670691074886
 42
0.0
 10
329.1117740015315
 20
543.9779448194025
 42
0.0
 10
336.3493783085654
 20
531.4420464345401
 42
0.0980750678644006
 10
337.8851157429025
 20
529.6879574457936
 42
0.0
 10
346.1117740015315
 20
529.6879574457936
 42
0.0
 10
346.1117740015314
 20
532.6879574457937
 42
0.0
 10
339.0941528659697
 20
532.6879574457937
 42
0.0
 10
332.1117740015315
 20
544.7817923966956
 42
0.0
 10
332.1117740015315
 20
547.0046031169109
 42
0.0
 10
333.6037530772654
 20
555.4660369243714
 42
0.4663076581549911
 97
       16
330
19F8
330
19EA
330
1994
330
1996
330
1980
330
1977
330
1978
330
196C
330
19E6
330
197A
330
1965
330
197B
330
196A
330
1970
330
196E
330
1981
 75
     0
 76
     1
 52
45.0
 41
10.0
 77
     0
 78
     2
 53
45.0
 43
0.0
 44
0.0
 45
-0.8838834764831842
 46
0.8838834764831844
 79
     0
 53
135.0
 43
0.0
 44
0.0
 45
-0.8838834764831844
 46
-0.8838834764831842
 79
     0
 47
0.6138505147198272
 98
        3
 10
601.6987896556766
 20
563.641012498655
 10
498.5096405471786
 20
540.3146919444662
 10
313.0148614294171
 20
563.641012498655
  0
HATCH
  5
1CF9
330
1E
100
AcDbEntity
  8
SCHRAFF
100
AcDbHatch
 10
0.0
 20
0.0
 30
0.0
210
0.0
220
0.0
230
1.0
  2
NET
 70
     0
 71
     1
 91
        4
 92
        7
 72
     0
 73
     1
 93
        4
 10
547.3190761942687
 20
385.44204643454
 10
539.4968859808025
 20
382.4420464345401
 10
666.1117740015316
 20
382.4420464345401
 10
666.1117740015316
 20
385.4420464345401
 97
        4
330
1BBB
330
191E
330
18CB
330
191A
 92
        7
 72
     1
 73
     1
 93
        8
 10
547.319076194269
 20
385.4420464345401
 42
0.0
 10
506.9906608264012
 20
385.4420464345401
 42
0.466307658155013
 10
498.6197949257975
 20
375.4660369243709
 42
0.0
 10
500.0568926493754
 20
367.31585073163
 42
0.0
 10
502.9102146414656
 20
368.4101690418053
 42
0.0
 10
501.5742181848342
 20
375.9869814573719
 42
-0.4663076581549993
 10
506.9906608264012
 20
382.4420464345401
 42
0.0
 10
539.4968859808026
 20
382.44204643454
 42
0.0
 97
        7
330
191A
330
18E8
330
18E3
330
1BBB
330
18E5
330
18E6
330
191E
 92
        7
 72
     1
 73
     1
 93
       11
 10
503.1117740015316
 20
363.9779448194025
 42
0.0
 10
503.1117740015317
 20
367.2670691074886
 42
0.0
 10
502.9102146414656
 20
368.4101690418053
 42
0.0
 10
500.0568926493754
 20
367.31585073163
 42
0.0
 10
500.1117740015318
 20
367.0046031169111
 42
0.0
 10
500.1117740015313
 20
364.7817923966957
 42
0.0
 10
493.1293951370933
 20
352.6879574457938
 42
0.0
 10
486.1117740015316
 20
352.6879574457936
 42
0.0
 10
486.1117740015316
 20
349.6879574457938
 42
0.0
 10
494.3384322601604
 20
349.6879574457937
 42
0.0980750678643974
 10
495.8741696944975
 20
351.4420464345401
 42
0.0
 97
       11
330
18E4
330
18E5
330
1BBB
330
18E3
330
18E1
330
1916
330
18FF
330
1907
330
18FE
330
1911
330
1913
 92
        7
 72
     1
 73
     1
 93
       15
 10
325.2328871766618
 20
385.4420464345401
 42
0.0
 10
166.1117740015314
 20
385.4420464345401
 42
0.0
 10
166.1117740015314
 20
382.4420464345401
 42
0.0
 10
325.2328871766618
 20
382.4420464345401
 42
-0.466307658154996
 10
330.6493298182289
 20
375.9869814573719
 42
0.0
 10
329.1117740015315
 20
367.2670691074884
 42
0.0
 10
329.1117740015316
 20
363.9779448194024
 42
0.0
 10
336.3493783085656
 20
351.4420464345401
 42
0.0980750678644006
 10
337.8851157429028
 20
349.6879574457937
 42
0.0
 10
346.1117740015317
 20
349.6879574457937
 42
0.0
 10
346.1117740015316
 20
352.6879574457936
 42
0.0
 10
339.0941528659697
 20
352.6879574457937
 42
0.0
 10
332.1117740015318
 20
364.7817923966956
 42
0.0
 10
332.1117740015314
 20
367.0046031169107
 42
0.0
 10
333.6037530772657
 20
375.4660369243713
 42
0.4663076581549938
 97
       15
330
19DF
330
19DE
330
19E0
330
19B8
330
19B7
330
19B6
330
19D9
330
19C7
330
19D1
330
19C5
330
19D0
330
19D8
330
19B1
330
19B0
330
19C1
 75
     0
 76
     1
 52
45.0
 41
10.0
 77
     0
 78
     2
 53
45.0
 43
0.0
 44
0.0
 45
-0.8838834764831842
 46
0.8838834764831844
 79
     0
 53
135.0
 43
0.0
 44
0.0
 45
-0.8838834764831844
 46
-0.8838834764831842
 79
     0
 47
0.6138505147198272
 98
        4
 10
598.0134643909009
 20
384.3966600859667
 10
526.7638136505301
 20
384.3966600859667
 10
490.524766823788
 20
351.8625828890344
 10
287.8317938715668
 20
384.3966600859667
  0
HATCH
  5
1D2F
330
1E
100
AcDbEntity
  8
SCHRAFF
100
AcDbHatch
 10
0.0
 20
0.0
 30
0.0
210
0.0
220
0.0
230
1.0
  2
NET
 70
     0
 71
     1
 91
        4
 92
        7
 72
     1
 73
     1
 93
       19
 10
500.1117740015313
 20
364.7817923966958
 42
0.0
 10
500.1117740015317
 20
367.0046031169109
 42
0.0
 10
499.9150354621244
 20
368.1203628186681
 42
0.0
 10
499.7448649340982
 20
368.4961618857617
 42
0.5081320132659691
 10
495.7911335311899
 20
369.319598775652
 42
-0.4919185491805636
 10
494.2322585000107
 20
369.6022876624857
 42
-0.0977633374688674
 10
494.0165472036752
 20
370.3463524231556
 42
0.0
 10
493.0965237226286
 20
380.862268931289
 42
0.3888787318529745
 10
491.1041343264452
 20
382.6879574457937
 42
0.0
 10
489.1193229848259
 20
382.6879574457937
 42
0.3888787318530072
 10
487.1269335886423
 20
380.862268931289
 42
0.0
 10
486.411044863869
 20
372.6796233641723
 42
0.3872706394239322
 10
483.7450623689882
 20
370.622077889961
 42
0.0
 10
482.6117740015316
 20
364.1948801752209
 42
0.0
 10
482.6117740015316
 20
353.6879574457937
 42
0.0
 10
486.1117740015317
 20
353.6879574457937
 42
0.0
 10
487.8438248091008
 20
352.6879574457936
 42
0.0
 10
493.1117740015302
 20
352.6879574457937
 42
0.0252320798374671
 10
493.2760934831441
 20
352.9420464345401
 42
0.0
 97
       19
330
18E1
330
18E3
330
18E2
330
18F7
330
18F5
330
18F4
330
18F3
330
18F6
330
18EC
330
18F2
330
18EE
330
18F1
330
18EF
330
1919
330
1906
330
1908
330
18FF
330
190F
330
1916
 92
       22
 72
     0
 73
     1
 93
        4
 10
489.1117740015316
 20
380.6879574457937
 10
491.1117740015316
 20
380.6879574457937
 10
491.1117740015317
 20
357.6879574457937
 10
489.1117740015316
 20
357.6879574457937
 97
        4
330
18ED
330
18EA
330
18EB
330
18E9
 92
        7
 72
     1
 73
     1
 93
       19
 10
349.6117740015315
 20
364.1948801752216
 42
0.0
 10
348.4784856340751
 20
370.622077889961
 42
0.3872706394237395
 10
345.8125031391944
 20
372.6796233641705
 42
0.0
 10
345.096614414421
 20
380.862268931289
 42
0.3888787318529909
 10
343.1042250182374
 20
382.6879574457937
 42
0.0
 10
341.1194136766181
 20
382.6879574457937
 42
0.3888787318529745
 10
339.1270242804347
 20
380.862268931289
 42
0.0
 10
338.2070007993881
 20
370.3463524231556
 42
-0.0977633374688602
 10
337.9912895030525
 20
369.6022876624858
 42
-0.4919185491805664
 10
336.4324144718734
 20
369.3195987756524
 42
0.5081320132660197
 10
332.4786830689649
 20
368.4961618857617
 42
0.0
 10
332.3085125409386
 20
368.1203628186688
 42
0.0
 10
332.1117740015314
 20
367.004603116911
 42
0.0
 10
332.1117740015317
 20
364.7817923966957
 42
0.0
 10
338.9474545199188
 20
352.9420464345401
 42
0.025232079837409
 10
339.1117740015313
 20
352.6879574457937
 42
0.0
 10
344.3797231939625
 20
352.6879574457936
 42
0.0
 10
346.1117740015316
 20
353.6879574457937
 42
0.0
 10
349.6117740015315
 20
353.6879574457937
 42
0.0
 97
       19
330
19A9
330
19A8
330
19BC
330
19BD
330
19BF
330
19AA
330
19AB
330
19AC
330
19AD
330
19AE
330
19AF
330
19B0
330
19B1
330
19D8
330
19CB
330
19D0
330
19D5
330
19C4
330
19DA
 92
       22
 72
     0
 73
     1
 93
        4
 10
343.1117740015317
 20
357.6879574457937
 10
341.1117740015317
 20
357.6879574457937
 10
341.1117740015317
 20
380.6879574457937
 10
343.1117740015317
 20
380.6879574457937
 97
        4
330
19BB
330
19B9
330
19BE
330
19BA
 75
     0
 76
     1
 52
45.0
 41
20.0
 77
     0
 78
     2
 53
45.0
 43
0.0
 44
0.0
 45
-1.767766952966368
 46
1.767766952966368
 79
     0
 53
135.0
 43
0.0
 44
0.0
 45
-1.767766952966368
 46
-1.767766952966368
 79
     0
 47
0.6138505147198272
 98
        4
 10
486.8394415590123
 20
361.6841907198086
 10
486.8394415590123
 20
361.6841907198086
 10
344.3401400782704
 20
361.0703417673212
 10
344.3401400782704
 20
361.0703417673212
  0
HATCH
  5
1D69
330
1E
100
AcDbEntity
  8
SCHRAFF
100
AcDbHatch
 10
0.0
 20
0.0
 30
0.0
210
0.0
220
0.0
230
1.0
  2
NET
 70
     0
 71
     1
 91
        4
 92
        7
 72
     1
 73
     1
 93
       21
 10
349.6117740015315
 20
544.1948801752203
 42
0.0
 10
348.4784856340749
 20
550.622077889961
 42
0.3872706394237122
 10
345.8125031391944
 20
552.6796233641704
 42
0.0
 10
345.096614414421
 20
560.8622689312891
 42
0.001219144764163
 10
345.0957406840126
 20
560.8719828597214
 42
-0.0069971569276244
 10
344.9865794078706
 20
561.3637843110693
 42
0.3164994359636664
 10
343.1042250182373
 20
562.6879574457937
 42
0.0
 10
341.1194136766181
 20
562.6879574457937
 42
0.3888787318530072
 10
339.1270242804345
 20
560.8622689312891
 42
0.0
 10
338.2070007993879
 20
550.3463524231555
 42
-0.0977633374687977
 10
337.9912895030529
 20
549.6022876624861
 42
-0.491918549180882
 10
336.4324144718731
 20
549.3195987756523
 42
0.5081320132660197
 10
332.4786830689646
 20
548.4961618857616
 42
0.0
 10
332.3085125409386
 20
548.1203628186685
 42
0.0
 10
332.1117740015314
 20
547.0046031169106
 42
0.0
 10
332.1117740015314
 20
544.7817923966956
 42
0.0
 10
338.9474545199188
 20
532.9420464345401
 42
0.0252320798374052
 10
339.1117740015312
 20
532.6879574457937
 42
0.0
 10
344.3797231939629
 20
532.6879574457938
 42
0.0
 10
346.1117740015315
 20
533.6879574457936
 42
0.0
 10
349.6117740015315
 20
533.6879574457936
 42
0.0
 97
       21
330
1969
330
1967
330
1987
330
195D
330
197F
330
1959
330
195B
330
195A
330
1983
330
1974
330
1973
330
1972
330
1971
330
196E
330
1970
330
196A
330
196D
330
197B
330
197C
330
1964
330
19E8
 92
       22
 72
     0
 73
     1
 93
        4
 10
343.1117740015317
 20
537.6879574457936
 10
341.1117740015317
 20
537.6879574457936
 10
341.1117740015317
 20
560.6879574457938
 10
343.1117740015317
 20
560.6879574457938
 97
        4
330
1979
330
1985
330
195C
330
1986
 92
        7
 72
     1
 73
     1
 93
       21
 10
500.1117740015312
 20
544.7817923966958
 42
0.0
 10
500.1117740015313
 20
547.0046031169115
 42
0.0
 10
499.9150354621244
 20
548.1203628186677
 42
0.0
 10
499.7448649340982
 20
548.4961618857616
 42
0.508132013265981
 10
495.7911335311898
 20
549.319598775652
 42
-0.4919185491806802
 10
494.2322585000105
 20
549.6022876624854
 42
-0.0977633374688903
 10
494.0165472036752
 20
550.3463524231555
 42
0.0
 10
493.0965237226283
 20
560.8622689312891
 42
0.3888787318529745
 10
491.1041343264449
 20
562.6879574457937
 42
0.0
 10
489.1193229848258
 20
562.6879574457937
 42
0.3164994359638503
 10
487.236968595192
 20
561.3637843110679
 42
-0.0069971569275871
 10
487.1278073190506
 20
560.8719828597228
 42
0.0012191447643317
 10
487.1269335886423
 20
560.8622689312891
 42
0.0
 10
486.4110448638688
 20
552.6796233641723
 42
0.3872706394239322
 10
483.7450623689879
 20
550.622077889961
 42
0.0
 10
482.6117740015316
 20
544.1948801752212
 42
0.0
 10
482.6117740015316
 20
533.6879574457936
 42
0.0
 10
486.1117740015316
 20
533.6879574457936
 42
0.0
 10
487.8438248091007
 20
532.6879574457937
 42
0.0
 10
493.1117740015302
 20
532.6879574457937
 42
0.0252320798374671
 10
493.2760934831441
 20
532.9420464345401
 42
0.0
 97
       21
330
1893
330
1892
330
1894
330
18BE
330
18B3
330
18B4
330
18B9
330
189A
330
189D
330
189B
330
18B6
330
189E
330
18B8
330
18AE
330
18B0
330
1920
330
18AB
330
18AA
330
18A8
330
18AC
330
18BB
 92
       22
 72
     0
 73
     1
 93
        4
 10
489.1117740015316
 20
560.6879574457938
 10
491.1117740015316
 20
560.6879574457938
 10
491.1117740015314
 20
537.6879574457936
 10
489.1117740015314
 20
537.6879574457936
 97
        4
330
189C
330
18BA
330
18AD
330
18B7
 75
     0
 76
     1
 52
45.0
 41
20.0
 77
     0
 78
     2
 53
45.0
 43
0.0
 44
0.0
 45
-1.767766952966368
 46
1.767766952966368
 79
     0
 53
135.0
 43
0.0
 44
0.0
 45
-1.767766952966368
 46
-1.767766952966368
 79
     0
 47
0.6138505147198272
 98
        4
 10
346.7970224299325
 20
540.9285431324965
 10
346.7970224299325
 20
540.9285431324965
 10
486.225218365173
 20
539.0869918039479
 10
486.225218365173
 20
539.0869918039479
  0
HATCH
  5
1D85
330
1E
100
AcDbEntity
  8
SCHRAFF
100
AcDbHatch
 10
0.0
 20
0.0
 30
0.0
210
0.0
220
0.0
230
1.0
  2
_USER
 70
     0
 71
     1
 91
        2
 92
        7
 72
     1
 73
     1
 93
       10
 10
482.6117740015316
 20
549.0491742922873
 42
-0.1528962216020377
 10
484.3974882872458
 20
554.7522883718126
 42
0.1528962216020373
 10
487.6117740015314
 20
565.0178937149584
 42
0.0
 10
487.6117740015314
 20
565.4420464345402
 42
0.0
 10
485.1117740015314
 20
565.4420464345401
 42
0.0
 10
485.1117740015314
 20
565.0178937149584
 42
-0.1528962216020376
 10
482.3439168586744
 20
556.178066891694
 42
0.1528962216020364
 10
480.1117740015314
 20
549.0491742922873
 42
0.0
 10
480.1117740015315
 20
520.4420464345401
 42
0.0
 10
482.6117740015316
 20
520.4420464345401
 42
0.0
 97
       10
330
18AF
330
18B6
330
18A0
330
19F8
330
18A1
330
18B5
330
18B2
330
1921
330
19F5
330
1920
 92
        7
 72
     1
 73
     1
 93
       10
 10
352.1117740015315
 20
549.0491742922873
 42
0.1528962216020356
 10
349.8796311443886
 20
556.1780668916939
 42
-0.1528962216020401
 10
347.1117740015314
 20
565.0178937149584
 42
0.0
 10
347.1117740015314
 20
565.4420464345401
 42
0.0
 10
344.6117740015314
 20
565.4420464345402
 42
0.0
 10
344.6117740015314
 20
565.0178937149584
 42
0.1528962216020379
 10
347.8260597158171
 20
554.7522883718126
 42
-0.1528962216020414
 10
349.6117740015315
 20
549.0491742922871
 42
0.0
 10
349.6117740015314
 20
520.4420464345401
 42
0.0
 10
352.1117740015315
 20
520.4420464345401
 42
0.0
 97
       10
330
1968
330
197E
330
1958
330
19F8
330
1960
330
197F
330
1966
330
19E8
330
19F5
330
19E7
 75
     0
 76
     0
 52
135.0
 41
2.0
 77
     0
 78
     1
 53
135.0
 43
0.0
 44
0.0
 45
-1.414213562373095
 46
-1.414213562373094
 79
     0
 47
0.6138505147198272
 98
        2
 10
481.3114501872838
 20
538.4731406159171
 10
351.7107940823867
 20
542.1562432730147
  0
TEXT
  5
1D8E
330
1E
100
AcDbEntity
  8
TEXT
 62
     1
100
AcDbText
 10
583.6541091452814
 20
281.5023572832367
 30
0.0
 40
8.75
  1
DN125
 50
357.0
 41
0.75
  7
GREEKS
100
AcDbText
  0
TEXT
  5
1D8F
330
1E
100
AcDbEntity
  8
TEXT
 62
     1
100
AcDbText
 10
410.6497015955222
 20
415.471171465767
 30
0.0
 40
8.75
  1
DN125
 50
90.0
 41
0.75
  7
GREEKS
100
AcDbText
  0
HATCH
  5
1DAD
330
1E
100
AcDbEntity
  8
SCHRAFF
100
AcDbHatch
 10
0.0
 20
0.0
 30
0.0
210
0.0
220
0.0
230
1.0
  2
_USER
 70
     0
 71
     1
 91
        2
 92
        7
 72
     1
 73
     1
 93
        4
 10
489.5999026550976
 20
565.4420464345402
 42
0.0
 10
487.6117740015313
 20
565.4420464345401
 42
0.0
 10
487.6117740015314
 20
565.0178937149584
 42
-0.019819905870749
 10
487.5552510895977
 20
563.5925411304944
 42
0.2746723117491706
 97
        4
330
19F8
330
18A0
330
18B6
330
18A2
 92
        7
 72
     1
 73
     1
 93
        4
 10
344.6117740015314
 20
565.0178937149584
 42
0.0
 10
344.6117740015314
 20
565.4420464345402
 42
0.0
 10
342.6236453479654
 20
565.4420464345402
 42
0.2746723117491471
 10
344.6682969134651
 20
563.5925411304945
 42
-0.0198199058707474
 97
        4
330
1960
330
19F8
330
195F
330
197F
 75
     0
 76
     0
 52
0.0
 41
0.1
 77
     0
 78
     1
 53
0.0
 43
0.0
 44
0.0
 45
0.0
 46
0.1
 79
     0
 47
0.2369369660577512
 98
        2
 10
488.2371477993411
 20
564.7224600727597
 10
343.8554163946101
 20
564.4855220960187
  0
HATCH
  5
1DB7
330
1E
100
AcDbEntity
  8
SCHRAFF
100
AcDbHatch
 10
0.0
 20
0.0
 30
0.0
210
0.0
220
0.0
230
1.0
  2
_USER
 70
     0
 71
     1
 91
        2
 92
        7
 72
     1
 73
     1
 93
        4
 10
495.7428306564485
 20
528.2494972519663
 42
-0.1270166537925836
 10
492.1117740015314
 20
526.5715736634847
 42
0.0
 10
493.8855030961229
 20
525.6475146291154
 42
0.0
 10
492.2849858994021
 20
522.5753257184197
 42
0.5335015749934764
 97
        4
330
1922
330
18DA
330
18D4
330
18DB
 92
        7
 72
     1
 73
     1
 93
        4
 10
340.1117740015314
 20
526.5715736634847
 42
-0.1270166537925836
 10
336.4807173466144
 20
528.2494972519663
 42
0.5335015749934723
 10
339.9385621036606
 20
522.5753257184197
 42
0.0
 10
338.3380449069398
 20
525.6475146291153
 42
0.0
 97
        4
330
19E5
330
199C
330
19A0
330
199B
 75
     0
 76
     0
 52
0.0
 41
0.1
 77
     0
 78
     1
 53
0.0
 43
0.0
 44
0.0
 45
0.0
 46
0.1
 79
     0
 47
0.2369369660577512
 98
        2
 10
494.4012278627947
 20
525.6278598309945
 10
337.4542551802633
 20
525.8647978077355
  0
HATCH
  5
1DC1
330
1E
100
AcDbEntity
  8
SCHRAFF
100
AcDbHatch
 10
0.0
 20
0.0
 30
0.0
210
0.0
220
0.0
230
1.0
  2
_USER
 70
     0
 71
     1
 91
        2
 92
        7
 72
     1
 73
     1
 93
        4
 10
495.91853425804
 20
348.3974635939435
 42
-0.1343178744576837
 10
492.1117740015317
 20
346.5715736634849
 42
0.0
 10
493.4337303650091
 20
345.0707634246268
 42
0.0
 10
490.7855349860732
 20
342.7381575812793
 42
0.4214203446102851
 97
        4
330
1910
330
190E
330
18FC
330
1912
 92
        7
 72
     1
 73
     1
 93
        4
 10
340.1117740015319
 20
346.571573663485
 42
-0.141675362988718
 10
336.1326564968317
 20
348.551308575653
 42
0.6188488611026799
 10
341.10984790188
 20
343.0272147525052
 42
0.0
 10
338.7898176380542
 20
345.0707634246269
 42
0.0
 97
        4
330
19C6
330
19C8
330
19CF
330
19CA
 75
     0
 76
     0
 52
0.0
 41
0.1
 77
     0
 78
     1
 53
0.0
 43
0.0
 44
0.0
 45
0.0
 46
0.1
 79
     0
 47
0.2791675576022252
 98
        2
 10
494.4481619934013
 20
344.9932238559575
 10
337.4612695118703
 20
345.8307259524972
  0
HATCH
  5
1DCF
330
1E
100
AcDbEntity
  8
SCHRAFF
100
AcDbHatch
 10
0.0
 20
0.0
 30
0.0
210
0.0
220
0.0
230
1.0
  2
_USER
 70
     0
 71
     1
 91
        3
 92
        7
 72
     1
 73
     1
 93
        6
 10
483.6329835294349
 20
336.4379867346318
 42
0.0
 10
482.9507958197929
 20
335.8370963885387
 42
0.2154107132470033
 10
482.6117740015316
 20
335.0866912691097
 42
0.0
 10
482.6117740015316
 20
333.9920464345405
 42
0.0
 10
483.6322164482044
 20
332.9716039878674
 42
0.0
 10
486.0665769705016
 20
332.9078580141593
 42
0.4204793586454804
 97
        6
330
18FC
330
1902
330
1903
330
1901
330
191C
330
1905
 92
        7
 72
     1
 73
     1
 93
        3
 10
349.611774001532
 20
281.5427535091158
 42
0.796652974180728
 10
351.2863426452904
 20
277.22707399516
 42
0.0
 10
349.6117740015318
 20
278.9016426389184
 42
0.0
 97
        3
330
1A11
330
1A13
330
1A21
 92
        7
 72
     1
 73
     1
 93
        3
 10
429.7009662832447
 20
201.3382520735299
 42
0.0
 10
427.1072456005509
 20
201.4061710398992
 42
0.0
 10
425.3754836767062
 20
203.1379329637439
 42
0.7593396417236635
 97
        3
330
1A15
330
1A13
330
1A10
 75
     0
 76
     0
 52
0.0
 41
0.1
 77
     0
 78
     1
 53
0.0
 43
0.0
 44
0.0
 45
0.0
 46
0.1
 79
     0
 47
0.2791675576022252
 98
        3
 10
484.1127262433665
 20
334.3848552337938
 10
349.1933851817421
 20
279.3888458039782
 10
427.6868314225075
 20
200.942761952261
  0
ENDSEC
  0
SECTION
  2
OBJECTS
  0
DICTIONARY
  5
C
330
0
100
AcDbDictionary
281
     1
  3
ACAD_COLOR
350
11A
  3
ACAD_GROUP
350
D
  3
ACAD_LAYOUT
350
19
  3
ACAD_MATERIAL
350
119
  3
ACAD_MLINESTYLE
350
16
  3
ACAD_PLOTSETTINGS
350
18
  3
ACAD_PLOTSTYLENAME
350
E
  3
AcDbVariableDictionary
350
125
  0
DICTIONARY
  5
DB
330
1E
100
AcDbDictionary
280
     1
281
     1
  3
ACAD_LAYOUTSELFREF
360
10F
  0
DICTIONARY
  5
DD
330
1A
100
AcDbDictionary
280
     1
281
     1
  3
ACAD_LAYOUTSELFREF
360
10E
  0
DICTIONARY
  5
11A
102
{ACAD_REACTORS
330
C
102
}
330
C
100
AcDbDictionary
281
     1
  0
DICTIONARY
  5
D
102
{ACAD_REACTORS
330
C
102
}
330
C
100
AcDbDictionary
281
     1
  0
DICTIONARY
  5
19
102
{ACAD_REACTORS
330
C
102
}
330
C
100
AcDbDictionary
281
     1
  3
Layout1
350
1D
  3
Model
350
21
  0
DICTIONARY
  5
119
102
{ACAD_REACTORS
330
C
102
}
330
C
100
AcDbDictionary
281
     1
  0
DICTIONARY
  5
16
102
{ACAD_REACTORS
330
C
102
}
330
C
100
AcDbDictionary
281
     1
  3
Standard
350
17
  0
DICTIONARY
  5
18
102
{ACAD_REACTORS
330
C
102
}
330
C
100
AcDbDictionary
281
     1
  0
ACDBDICTIONARYWDFLT
  5
E
102
{ACAD_REACTORS
330
C
102
}
330
C
100
AcDbDictionary
281
     1
  3
Normal
350
F
100
AcDbDictionaryWithDefault
340
F
  0
DICTIONARY
  5
125
102
{ACAD_REACTORS
330
C
102
}
330
C
100
AcDbDictionary
281
     1
  3
DIMASSOC
350
126
  3
PROJECTNAME
350
127
  0
XRECORD
  5
10F
102
{ACAD_REACTORS
330
DB
102
}
330
DB
100
AcDbXrecord
280
     1
340
1E
  0
XRECORD
  5
10E
102
{ACAD_REACTORS
330
DD
102
}
330
DD
100
AcDbXrecord
280
     1
340
1A
  0
LAYOUT
  5
1D
102
{ACAD_REACTORS
330
19
102
}
330
19
100
AcDbPlotSettings
  1

  2
\\NT_WORK01\HP LaserJet 5000 PCL 6
  4

  6

 40
0.0
 41
0.0
 42
0.0
 43
0.0
 44
0.0
 45
0.0
 46
0.0
 47
0.0
 48
0.0
 49
0.0
140
0.0
141
0.0
142
1.0
143
1.0
 70
   688
 72
     0
 73
     0
 74
     5
  7

 75
    16
147
1.0
 76
     0
 77
     2
 78
   300
148
0.0
149
0.0
100
AcDbLayout
  1
Layout1
 70
     0
 71
     1
 10
0.0
 20
0.0
 11
12.0
 21
9.0
 12
0.0
 22
0.0
 32
0.0
 14
1.000000000000000E+20
 24
1.000000000000000E+20
 34
1.000000000000000E+20
 15
-1.000000000000000E+20
 25
-1.000000000000000E+20
 35
-1.000000000000000E+20
146
0.0
 13
0.0
 23
0.0
 33
0.0
 16
1.0
 26
0.0
 36
0.0
 17
0.0
 27
1.0
 37
0.0
 76
     0
330
1A
  0
LAYOUT
  5
21
102
{ACAD_REACTORS
330
19
102
}
330
19
100
AcDbPlotSettings
  1

  2
none_device
  4
Letter_(8.50_x_11.00_Inches)
  6

 40
6.349999904632568
 41
6.349999904632568
 42
6.350006103515625
 43
6.350006103515625
 44
215.8999938964844
 45
279.3999938964844
 46
0.0
 47
0.0
 48
0.0
 49
0.0
140
0.0
141
0.0
142
1.0
143
1.0
 70
 11952
 72
     0
 73
     1
 74
     0
  7

 75
     0
147
1.0
 76
     0
 77
     2
 78
   300
148
-3298.604784342
149
606.347332383264
100
AcDbLayout
  1
Model
 70
     1
 71
     0
 10
0.0
 20
0.0
 11
12.0
 21
9.0
 12
0.0
 22
0.0
 32
0.0
 14
0.0
 24
0.0
 34
0.0
 15
0.0
 25
0.0
 35
0.0
146
0.0
 13
0.0
 23
0.0
 33
0.0
 16
1.0
 26
0.0
 36
0.0
 17
0.0
 27
1.0
 37
0.0
 76
     0
330
1E
  0
MLINESTYLE
  5
17
102
{ACAD_REACTORS
330
16
102
}
330
16
100
AcDbMlineStyle
  2
STANDARD
 70
     0
  3

 62
   256
 51
90.0
 52
90.0
 71
     2
 49
0.5
 62
   256
  6
BYLAYER
 49
-0.5
 62
   256
  6
BYLAYER
  0
ACDBPLACEHOLDER
  5
F
102
{ACAD_REACTORS
330
E
102
}
330
E
  0
DICTIONARYVAR
  5
126
102
{ACAD_REACTORS
330
125
102
}
330
125
100
DictionaryVariables
280
     0
  1
1
  0
DICTIONARYVAR
  5
127
102
{ACAD_REACTORS
330
125
102
}
330
125
100
DictionaryVariables
280
     0
  1

  0
ENDSEC
  0
EOF
