  0
SECTION
  2
HEADER
  9
$ACADVER
  1
AC1018
  9
$ACADMAINTVER
 70
     2
  9
$DWGCODEPAGE
  3
ANSI_1252
  9
$INSBASE
 10
0.0
 20
0.0
 30
0.0
  9
$EXTMIN
 10
-0.0000000000004547
 20
-0.0000000000000205
 30
0.0
  9
$EXTMAX
 10
594.0000000000001
 20
840.0000000000002
 30
0.0
  9
$LIMMIN
 10
0.0
 20
0.0
  9
$LIMMAX
 10
593.9999999999997
 20
840.0000000000002
  9
$ORTHOMODE
 70
     1
  9
$REGENMODE
 70
     1
  9
$FILLMODE
 70
     1
  9
$QTEXTMODE
 70
     0
  9
$MIRRTEXT
 70
     1
  9
$LTSCALE
 40
20.0
  9
$ATTMODE
 70
     1
  9
$TEXTSIZE
 40
3.5
  9
$TRACEWID
 40
0.5
  9
$TEXTSTYLE
  7
STANDARD
  9
$CLAYER
  8
STEMPEL
  9
$CELTYPE
  6
ByLayer
  9
$CECOLOR
 62
   256
  9
$CELTSCALE
 40
1.0
  9
$DISPSILH
 70
     0
  9
$DIMSCALE
 40
2.0
  9
$DIMASZ
 40
3.5
  9
$DIMEXO
 40
1.0
  9
$DIMDLI
 40
7.0
  9
$DIMRND
 40
0.0
  9
$DIMDLE
 40
0.0
  9
$DIMEXE
 40
1.0
  9
$DIMTP
 40
0.0
  9
$DIMTM
 40
0.0
  9
$DIMTXT
 40
3.5
  9
$DIMCEN
 40
1.5
  9
$DIMTSZ
 40
0.0
  9
$DIMTOL
 70
     0
  9
$DIMLIM
 70
     0
  9
$DIMTIH
 70
     0
  9
$DIMTOH
 70
     0
  9
$DIMSE1
 70
     0
  9
$DIMSE2
 70
     0
  9
$DIMTAD
 70
     1
  9
$DIMZIN
 70
     8
  9
$DIMBLK
  1

  9
$DIMASO
 70
     1
  9
$DIMSHO
 70
     0
  9
$DIMPOST
  1

  9
$DIMAPOST
  1

  9
$DIMALT
 70
     0
  9
$DIMALTD
 70
     2
  9
$DIMALTF
 40
25.4
  9
$DIMLFAC
 40
1.0
  9
$DIMTOFL
 70
     1
  9
$DIMTVP
 40
0.0
  9
$DIMTIX
 70
     0
  9
$DIMSOXD
 70
     0
  9
$DIMSAH
 70
     0
  9
$DIMBLK1
  1

  9
$DIMBLK2
  1

  9
$DIMSTYLE
  2
Standard
  9
$DIMCLRD
 70
     0
  9
$DIMCLRE
 70
     0
  9
$DIMCLRT
 70
     1
  9
$DIMTFAC
 40
0.5142857142857144
  9
$DIMGAP
 40
1.5
  9
$DIMJUST
 70
     0
  9
$DIMSD1
 70
     0
  9
$DIMSD2
 70
     0
  9
$DIMTOLJ
 70
     1
  9
$DIMTZIN
 70
     8
  9
$DIMALTZ
 70
     8
  9
$DIMALTTZ
 70
     8
  9
$DIMUPT
 70
     0
  9
$DIMDEC
 70
     2
  9
$DIMTDEC
 70
     2
  9
$DIMALTU
 70
     2
  9
$DIMALTTD
 70
     2
  9
$DIMTXSTY
  7
STANDARD
  9
$DIMAUNIT
 70
     0
  9
$DIMADEC
 70
     2
  9
$DIMALTRND
 40
0.0
  9
$DIMAZIN
 70
     2
  9
$DIMDSEP
 70
    46
  9
$DIMATFIT
 70
     3
  9
$DIMFRAC
 70
     0
  9
$DIMLDRBLK
  1

  9
$DIMLUNIT
 70
     2
  9
$DIMLWD
 70
    -2
  9
$DIMLWE
 70
    -2
  9
$DIMTMOVE
 70
     0
  9
$LUNITS
 70
     2
  9
$LUPREC
 70
     2
  9
$SKETCHINC
 40
1.0
  9
$FILLETRAD
 40
0.0
  9
$AUNITS
 70
     0
  9
$AUPREC
 70
     0
  9
$MENU
  1
ACAD
  9
$ELEVATION
 40
0.0
  9
$PELEVATION
 40
0.0
  9
$THICKNESS
 40
0.0
  9
$LIMCHECK
 70
     0
  9
$CHAMFERA
 40
0.0
  9
$CHAMFERB
 40
0.0
  9
$CHAMFERC
 40
0.0
  9
$CHAMFERD
 40
0.0
  9
$SKPOLY
 70
     0
  9
$TDCREATE
 40
2455397.823042361
  9
$TDUCREATE
 40
2455397.781375695
  9
$TDUPDATE
 40
2455996.362092697
  9
$TDUUPDATE
 40
2455996.320426030
  9
$TDINDWG
 40
0.0406491667
  9
$TDUSRTIMER
 40
0.0406491667
  9
$USRTIMER
 70
     1
  9
$ANGBASE
 50
0.0
  9
$ANGDIR
 70
     0
  9
$PDMODE
 70
     0
  9
$PDSIZE
 40
0.0
  9
$PLINEWID
 40
0.0
  9
$SPLFRAME
 70
     0
  9
$SPLINETYPE
 70
     6
  9
$SPLINESEGS
 70
     8
  9
$HANDSEED
  5
913
  9
$SURFTAB1
 70
     6
  9
$SURFTAB2
 70
     6
  9
$SURFTYPE
 70
     6
  9
$SURFU
 70
     6
  9
$SURFV
 70
     6
  9
$UCSBASE
  2

  9
$UCSNAME
  2

  9
$UCSORG
 10
0.0
 20
0.0
 30
0.0
  9
$UCSXDIR
 10
1.0
 20
0.0
 30
0.0
  9
$UCSYDIR
 10
0.0
 20
1.0
 30
0.0
  9
$UCSORTHOREF
  2

  9
$UCSORTHOVIEW
 70
     0
  9
$UCSORGTOP
 10
0.0
 20
0.0
 30
0.0
  9
$UCSORGBOTTOM
 10
0.0
 20
0.0
 30
0.0
  9
$UCSORGLEFT
 10
0.0
 20
0.0
 30
0.0
  9
$UCSORGRIGHT
 10
0.0
 20
0.0
 30
0.0
  9
$UCSORGFRONT
 10
0.0
 20
0.0
 30
0.0
  9
$UCSORGBACK
 10
0.0
 20
0.0
 30
0.0
  9
$PUCSBASE
  2

  9
$PUCSNAME
  2

  9
$PUCSORG
 10
0.0
 20
0.0
 30
0.0
  9
$PUCSXDIR
 10
1.0
 20
0.0
 30
0.0
  9
$PUCSYDIR
 10
0.0
 20
1.0
 30
0.0
  9
$PUCSORTHOREF
  2

  9
$PUCSORTHOVIEW
 70
     0
  9
$PUCSORGTOP
 10
0.0
 20
0.0
 30
0.0
  9
$PUCSORGBOTTOM
 10
0.0
 20
0.0
 30
0.0
  9
$PUCSORGLEFT
 10
0.0
 20
0.0
 30
0.0
  9
$PUCSORGRIGHT
 10
0.0
 20
0.0
 30
0.0
  9
$PUCSORGFRONT
 10
0.0
 20
0.0
 30
0.0
  9
$PUCSORGBACK
 10
0.0
 20
0.0
 30
0.0
  9
$USERI1
 70
     0
  9
$USERI2
 70
     0
  9
$USERI3
 70
     0
  9
$USERI4
 70
     0
  9
$USERI5
 70
     0
  9
$USERR1
 40
0.0
  9
$USERR2
 40
0.0
  9
$USERR3
 40
0.0
  9
$USERR4
 40
0.0
  9
$USERR5
 40
0.0
  9
$WORLDVIEW
 70
     1
  9
$SHADEDGE
 70
     3
  9
$SHADEDIF
 70
    70
  9
$TILEMODE
 70
     1
  9
$MAXACTVP
 70
    16
  9
$PINSBASE
 10
0.0
 20
0.0
 30
0.0
  9
$PLIMCHECK
 70
     0
  9
$PEXTMIN
 10
1.000000000000000E+20
 20
1.000000000000000E+20
 30
1.000000000000000E+20
  9
$PEXTMAX
 10
-1.000000000000000E+20
 20
-1.000000000000000E+20
 30
-1.000000000000000E+20
  9
$PLIMMIN
 10
0.0
 20
0.0
  9
$PLIMMAX
 10
12.0
 20
9.0
  9
$UNITMODE
 70
     0
  9
$VISRETAIN
 70
     0
  9
$PLINEGEN
 70
     0
  9
$PSLTSCALE
 70
     0
  9
$TREEDEPTH
 70
  3020
  9
$CMLSTYLE
  2
Standard
  9
$CMLJUST
 70
     0
  9
$CMLSCALE
 40
1.0
  9
$PROXYGRAPHICS
 70
     1
  9
$MEASUREMENT
 70
     0
  9
$CELWEIGHT
370
    -1
  9
$ENDCAPS
280
     0
  9
$JOINSTYLE
280
     0
  9
$LWDISPLAY
290
     0
  9
$INSUNITS
 70
     0
  9
$HYPERLINKBASE
  1

  9
$STYLESHEET
  1
monochrome1.ctb
  9
$XEDIT
290
     1
  9
$CEPSNTYPE
380
     0
  9
$PSTYLEMODE
290
     1
  9
$FINGERPRINTGUID
  2
{D68B0D02-A558-11D7-B632-000102183313}
  9
$VERSIONGUID
  2
{3F0613FA-F013-4726-9ED6-3F10522BF7AD}
  9
$EXTNAMES
290
     1
  9
$PSVPSCALE
 40
0.0
  9
$OLESTARTUP
290
     0
  9
$SORTENTS
280
   127
  9
$INDEXCTL
280
     0
  9
$HIDETEXT
280
     0
  9
$XCLIPFRAME
290
     0
  9
$HALOGAP
280
     0
  9
$OBSCOLOR
 70
   257
  9
$OBSLTYPE
280
     0
  9
$INTERSECTIONDISPLAY
280
     0
  9
$INTERSECTIONCOLOR
 70
   257
  9
$DIMASSOC
280
     1
  9
$PROJECTNAME
  1

  0
ENDSEC
  0
SECTION
  2
CLASSES
  0
CLASS
  1
ACDBDICTIONARYWDFLT
  2
AcDbDictionaryWithDefault
  3
ObjectDBX Classes
 90
        0
 91
        1
280
     0
281
     0
  0
CLASS
  1
DICTIONARYVAR
  2
AcDbDictionaryVar
  3
ObjectDBX Classes
 90
        0
 91
        2
280
     0
281
     0
  0
ENDSEC
  0
SECTION
  2
TABLES
  0
TABLE
  2
VPORT
  5
8
330
0
100
AcDbSymbolTable
 70
     2
  0
VPORT
  5
912
330
8
100
AcDbSymbolTableRecord
100
AcDbViewportTableRecord
  2
*Active
 70
     0
 10
0.0
 20
0.0
 11
1.0
 21
1.0
 12
296.9999999999999
 22
420.0000000000001
 13
0.0
 23
0.0
 14
1.0
 24
1.0
 15
10.0
 25
10.0
 16
0.0
 26
0.0
 36
1.0
 17
0.0
 27
0.0
 37
0.0
 40
840.3801096268706
 41
1.374331550802138
 42
50.0
 43
0.0
 44
0.0
 50
0.0
 51
0.0
 71
     0
 72
  1500
 73
     1
 74
     0
 75
     0
 76
     0
 77
     0
 78
     0
281
     0
 65
     1
110
0.0
120
0.0
130
0.0
111
1.0
121
0.0
131
0.0
112
0.0
122
1.0
132
0.0
 79
     0
146
0.0
  0
ENDTAB
  0
TABLE
  2
LTYPE
  5
5
330
0
100
AcDbSymbolTable
 70
     2
  0
LTYPE
  5
13
330
5
100
AcDbSymbolTableRecord
100
AcDbLinetypeTableRecord
  2
ByBlock
 70
     0
  3

 72
    65
 73
     0
 40
0.0
  0
LTYPE
  5
14
330
5
100
AcDbSymbolTableRecord
100
AcDbLinetypeTableRecord
  2
ByLayer
 70
     0
  3

 72
    65
 73
     0
 40
0.0
  0
LTYPE
  5
15
330
5
100
AcDbSymbolTableRecord
100
AcDbLinetypeTableRecord
  2
Continuous
 70
     0
  3
Solid line
 72
    65
 73
     0
 40
0.0
  0
LTYPE
  5
25
330
5
100
AcDbSymbolTableRecord
100
AcDbLinetypeTableRecord
  2
STRICHPUNKT
 70
     0
  3
__ . __ . __ . __ . __ . __ . __ . __ . __ . __
 72
    65
 73
     4
 40
1.0
 49
0.5
 74
     0
 49
-0.25
 74
     0
 49
0.0
 74
     0
 49
-0.25
 74
     0
  0
ENDTAB
  0
TABLE
  2
LAYER
  5
2
330
0
100
AcDbSymbolTable
 70
     9
  0
LAYER
  5
10
330
2
100
AcDbSymbolTableRecord
100
AcDbLayerTableRecord
  2
0
 70
     0
 62
     7
  6
Continuous
370
    -3
390
F
  0
LAYER
  5
2A
330
2
100
AcDbSymbolTableRecord
100
AcDbLayerTableRecord
  2
VOLL
 70
     0
 62
     1
  6
Continuous
370
    -3
390
F
  0
LAYER
  5
2B
330
2
100
AcDbSymbolTableRecord
100
AcDbLayerTableRecord
  2
HILF
 70
     0
 62
     2
  6
Continuous
370
    -3
390
F
  0
LAYER
  5
2C
330
2
100
AcDbSymbolTableRecord
100
AcDbLayerTableRecord
  2
MITTEL
 70
     0
 62
     2
  6
STRICHPUNKT
370
    -3
390
F
  0
LAYER
  5
2F
330
2
100
AcDbSymbolTableRecord
100
AcDbLayerTableRecord
  2
BEM
 70
     0
 62
     7
  6
Continuous
370
    -3
390
F
  0
LAYER
  5
30
330
2
100
AcDbSymbolTableRecord
100
AcDbLayerTableRecord
  2
STEMPEL
 70
     0
 62
     3
  6
Continuous
370
    -3
390
F
  0
LAYER
  5
31
330
2
100
AcDbSymbolTableRecord
100
AcDbLayerTableRecord
  2
TEXT
 70
     0
 62
     7
  6
Continuous
370
    -3
390
F
  0
LAYER
  5
2B4
330
2
100
AcDbSymbolTableRecord
100
AcDbLayerTableRecord
  2
DEFPOINTS
 70
     0
 62
     7
  6
Continuous
290
     0
370
    -3
390
F
  0
LAYER
  5
2B5
330
2
100
AcDbSymbolTableRecord
100
AcDbLayerTableRecord
  2
SCHRAFF
 70
     0
 62
     7
  6
Continuous
370
    -3
390
F
  0
ENDTAB
  0
TABLE
  2
STYLE
  5
3
330
0
100
AcDbSymbolTable
 70
     2
  0
STYLE
  5
11
330
3
100
AcDbSymbolTableRecord
100
AcDbTextStyleTableRecord
  2
STANDARD
 70
     0
 40
0.0
 41
0.8
 50
0.0
 71
     0
 42
3.5
  3
simplex.shx
  4

  0
STYLE
  5
24
330
3
100
AcDbSymbolTableRecord
100
AcDbTextStyleTableRecord
  2
GREEKS
 70
     0
 40
0.0
 41
0.8
 50
0.0
 71
     0
 42
2.5
  3
SIMPLEX.shx
  4

  0
ENDTAB
  0
TABLE
  2
VIEW
  5
6
330
0
100
AcDbSymbolTable
 70
     0
  0
ENDTAB
  0
TABLE
  2
UCS
  5
7
330
0
100
AcDbSymbolTable
 70
     0
  0
ENDTAB
  0
TABLE
  2
APPID
  5
9
330
0
100
AcDbSymbolTable
 70
     1
  0
APPID
  5
12
330
9
100
AcDbSymbolTableRecord
100
AcDbRegAppTableRecord
  2
ACAD
 70
     0
  0
ENDTAB
  0
TABLE
  2
DIMSTYLE
  5
A
330
0
100
AcDbSymbolTable
 70
     1
100
AcDbDimStyleTable
 71
     1
340
9D
  0
DIMSTYLE
105
9D
102
{ACAD_REACTORS
330
41F
330
409
330
3F6
330
3F5
330
3CF
102
}
330
A
100
AcDbSymbolTableRecord
100
AcDbDimStyleTableRecord
  2
Standard
 70
     0
340
11
  0
ENDTAB
  0
TABLE
  2
BLOCK_RECORD
  5
1
330
0
100
AcDbSymbolTable
 70
    16
  0
BLOCK_RECORD
  5
1E
102
{ACAD_XDICTIONARY
360
A0
102
}
330
1
100
AcDbSymbolTableRecord
100
AcDbBlockTableRecord
  2
*Model_Space
340
21
  0
BLOCK_RECORD
  5
1A
102
{ACAD_XDICTIONARY
360
A2
102
}
330
1
100
AcDbSymbolTableRecord
100
AcDbBlockTableRecord
  2
*Paper_Space
340
1D
  0
BLOCK_RECORD
  5
22
330
1
100
AcDbSymbolTableRecord
100
AcDbBlockTableRecord
  2
LOGO
340
0
102
{BLKREFS
331
898
102
}
  0
BLOCK_RECORD
  5
12B
330
1
100
AcDbSymbolTableRecord
100
AcDbBlockTableRecord
  2
*X1
340
0
102
{BLKREFS
331
3C3
102
}
  0
BLOCK_RECORD
  5
154
330
1
100
AcDbSymbolTableRecord
100
AcDbBlockTableRecord
  2
*X2
340
0
102
{BLKREFS
331
3F2
102
}
  0
BLOCK_RECORD
  5
1D1
330
1
100
AcDbSymbolTableRecord
100
AcDbBlockTableRecord
  2
*X3
340
0
102
{BLKREFS
331
3A0
102
}
  0
BLOCK_RECORD
  5
1EE
330
1
100
AcDbSymbolTableRecord
100
AcDbBlockTableRecord
  2
*X4
340
0
102
{BLKREFS
331
3A9
102
}
  0
BLOCK_RECORD
  5
209
330
1
100
AcDbSymbolTableRecord
100
AcDbBlockTableRecord
  2
*X5
340
0
102
{BLKREFS
331
3AA
102
}
  0
BLOCK_RECORD
  5
21D
330
1
100
AcDbSymbolTableRecord
100
AcDbBlockTableRecord
  2
*X6
340
0
102
{BLKREFS
331
3CA
102
}
  0
BLOCK_RECORD
  5
22C
330
1
100
AcDbSymbolTableRecord
100
AcDbBlockTableRecord
  2
*X7
340
0
102
{BLKREFS
331
3CB
102
}
  0
BLOCK_RECORD
  5
23A
330
1
100
AcDbSymbolTableRecord
100
AcDbBlockTableRecord
  2
*X8
340
0
102
{BLKREFS
331
3F4
102
}
  0
BLOCK_RECORD
  5
261
330
1
100
AcDbSymbolTableRecord
100
AcDbBlockTableRecord
  2
*X9
340
0
102
{BLKREFS
331
3A1
102
}
  0
BLOCK_RECORD
  5
26C
330
1
100
AcDbSymbolTableRecord
100
AcDbBlockTableRecord
  2
*X10
340
0
102
{BLKREFS
331
38E
102
}
  0
BLOCK_RECORD
  5
420
330
1
100
AcDbSymbolTableRecord
100
AcDbBlockTableRecord
  2
*D11
340
0
  0
BLOCK_RECORD
  5
42D
330
1
100
AcDbSymbolTableRecord
100
AcDbBlockTableRecord
  2
*D12
340
0
  0
BLOCK_RECORD
  5
43A
330
1
100
AcDbSymbolTableRecord
100
AcDbBlockTableRecord
  2
*D13
340
0
  0
BLOCK_RECORD
  5
447
330
1
100
AcDbSymbolTableRecord
100
AcDbBlockTableRecord
  2
*D14
340
0
  0
BLOCK_RECORD
  5
454
330
1
100
AcDbSymbolTableRecord
100
AcDbBlockTableRecord
  2
*D15
340
0
  0
ENDTAB
  0
ENDSEC
  0
SECTION
  2
BLOCKS
  0
BLOCK
  5
35
330
1E
100
AcDbEntity
  8
0
100
AcDbBlockBegin
  2
*Model_Space
 70
     0
 10
0.0
 20
0.0
 30
0.0
  3
*Model_Space
  1

  0
ENDBLK
  5
36
330
1E
100
AcDbEntity
  8
0
100
AcDbBlockEnd
  0
BLOCK
  5
33
330
1A
100
AcDbEntity
 67
     1
  8
0
100
AcDbBlockBegin
  2
*Paper_Space
 70
     0
 10
0.0
 20
0.0
 30
0.0
  3
*Paper_Space
  1

  0
ENDBLK
  5
34
330
1A
100
AcDbEntity
 67
     1
  8
0
100
AcDbBlockEnd
  0
BLOCK
  5
37
330
22
100
AcDbEntity
  8
0
100
AcDbBlockBegin
  2
LOGO
 70
     0
 10
0.0
 20
0.0
 30
0.0
  3
LOGO
  1

  0
ARC
  5
38
330
22
100
AcDbEntity
  8
0
100
AcDbCircle
 10
11.59973089678112
 20
-9.271599258481501
 30
0.0
 40
4.5
100
AcDbArc
 50
270.0
 51
231.0575587310159
  0
LINE
  5
39
330
22
100
AcDbEntity
  8
0
100
AcDbLine
 10
3.599730896781125
 20
-4.771599258481529
 30
0.0
 11
3.599730896781153
 21
-11.77159925848133
 31
0.0
  0
LINE
  5
3A
330
22
100
AcDbEntity
  8
0
100
AcDbLine
 10
2.599730896781125
 20
-4.771599258481529
 30
0.0
 11
2.599730896781153
 21
-11.77159925848133
 31
0.0
  0
CIRCLE
  5
3B
330
22
100
AcDbEntity
  8
0
100
AcDbCircle
 10
11.59973089678112
 20
-9.271599258481501
 30
0.0
 40
3.5
  0
ARC
  5
3C
330
22
100
AcDbEntity
  8
0
100
AcDbCircle
 10
31.59973089678115
 20
-9.271599258481472
 30
0.0
 40
4.5
100
AcDbArc
 50
270.0
 51
231.0575587310182
  0
LINE
  5
3D
330
22
100
AcDbEntity
  8
0
100
AcDbLine
 10
17.59973089678112
 20
-4.771599258481472
 30
0.0
 11
17.59973089678115
 21
-13.77159925848147
 31
0.0
  0
ARC
  5
3E
330
22
100
AcDbEntity
  8
0
100
AcDbCircle
 10
22.59973089678116
 20
-7.271599258481472
 30
0.0
 40
2.5
100
AcDbArc
 50
293.1161887722295
 51
90.0
  0
CIRCLE
  5
3F
330
22
100
AcDbEntity
  8
0
100
AcDbCircle
 10
31.59973089678115
 20
-9.271599258481472
 30
0.0
 40
3.5
  0
ARC
  5
40
330
22
100
AcDbEntity
  8
0
100
AcDbCircle
 10
4.599730896781153
 20
-11.77159925848133
 30
0.0
 40
1.0
100
AcDbArc
 50
180.0
 51
270.0
  0
ARC
  5
41
330
22
100
AcDbEntity
  8
0
100
AcDbCircle
 10
4.599730896781153
 20
-11.77159925848133
 30
0.0
 40
2.0
100
AcDbArc
 50
179.9999999999992
 51
270.0
  0
LINE
  5
42
330
22
100
AcDbEntity
  8
0
100
AcDbLine
 10
11.59973089678115
 20
-13.77159925848144
 30
0.0
 11
4.599730896781153
 21
-13.77159925848147
 31
0.0
  0
LINE
  5
43
330
22
100
AcDbEntity
  8
0
100
AcDbLine
 10
8.771303772034769
 20
-12.77159925848136
 30
0.0
 11
4.599730896781153
 21
-12.77159925848133
 31
0.0
  0
LINE
  5
44
330
22
100
AcDbEntity
  8
0
100
AcDbLine
 10
31.59973089678115
 20
-13.77159925848147
 30
0.0
 11
23.6715276665056
 21
-13.77159925848144
 31
0.0
  0
LINE
  5
45
330
22
100
AcDbEntity
  8
0
100
AcDbLine
 10
23.56565672307022
 20
-9.51278021337896
 30
0.0
 11
24.4388546544846
 21
-12.77159925848144
 31
0.0
  0
LINE
  5
46
330
22
100
AcDbEntity
  8
0
100
AcDbLine
 10
22.59973089678116
 20
-9.771599258481472
 30
0.0
 11
18.59973089678112
 21
-9.771599258481472
 31
0.0
  0
LINE
  5
47
330
22
100
AcDbEntity
  8
0
100
AcDbLine
 10
18.59973089678115
 20
-13.77159925848144
 30
0.0
 11
17.59973089678115
 21
-13.77159925848144
 31
0.0
  0
LINE
  5
48
330
22
100
AcDbEntity
  8
0
100
AcDbLine
 10
18.59973089678115
 20
-9.771599258481472
 30
0.0
 11
18.59973089678115
 21
-13.77159925848144
 31
0.0
  0
LINE
  5
49
330
22
100
AcDbEntity
  8
0
100
AcDbLine
 10
22.59973089678116
 20
-9.771599258481472
 30
0.0
 11
23.67152766650562
 21
-13.77159925848147
 31
0.0
  0
ARC
  5
4A
330
22
100
AcDbEntity
  8
0
100
AcDbCircle
 10
22.59973089678116
 20
-7.271599258481472
 30
0.0
 40
2.5
100
AcDbArc
 50
270.0
 51
270.0000000000007
  0
LINE
  5
4B
330
22
100
AcDbEntity
  8
0
100
AcDbLine
 10
28.77130377203494
 20
-12.77159925848147
 30
0.0
 11
24.43885465448463
 21
-12.77159925848144
 31
0.0
  0
LINE
  5
4C
330
22
100
AcDbEntity
  8
0
100
AcDbLine
 10
3.599730896781125
 20
-4.771599258481472
 30
0.0
 11
2.599730896781125
 21
-4.771599258481472
 31
0.0
  0
LINE
  5
4D
330
22
100
AcDbEntity
  8
0
100
AcDbLine
 10
22.59973089678116
 20
-8.771599258481472
 30
0.0
 11
18.59973089678115
 21
-8.771599258481472
 31
0.0
  0
LINE
  5
4E
330
22
100
AcDbEntity
  8
0
100
AcDbLine
 10
22.59973089678116
 20
-5.771599258481472
 30
0.0
 11
18.59973089678115
 21
-5.771599258481472
 31
0.0
  0
LINE
  5
4F
330
22
100
AcDbEntity
  8
0
100
AcDbLine
 10
22.59973089678116
 20
-4.771599258481472
 30
0.0
 11
17.59973089678115
 21
-4.771599258481472
 31
0.0
  0
LINE
  5
50
330
22
100
AcDbEntity
  8
0
100
AcDbLine
 10
18.59973089678115
 20
-5.771599258481472
 30
0.0
 11
18.59973089678115
 21
-8.771599258481472
 31
0.0
  0
ARC
  5
51
330
22
100
AcDbEntity
  8
0
100
AcDbCircle
 10
22.59973089678116
 20
-7.271599258481472
 30
0.0
 40
1.5
100
AcDbArc
 50
270.0
 51
90.0
  0
ENDBLK
  5
52
330
22
100
AcDbEntity
  8
0
100
AcDbBlockEnd
  0
BLOCK
  5
12C
330
12B
100
AcDbEntity
  8
0
100
AcDbBlockBegin
  2
*X1
 70
     1
 10
0.0
 20
0.0
 30
0.0
  3
*X1
  1

  0
LINE
  5
12D
330
12B
100
AcDbEntity
  8
0
 62
     0
100
AcDbLine
 10
164.8343025922801
 20
222.6
 30
0.0
 11
167.9697043475556
 21
222.6
 31
0.0
  0
LINE
  5
12E
330
12B
100
AcDbEntity
  8
0
 62
     0
100
AcDbLine
 10
164.9047907403175
 20
222.7
 30
0.0
 11
168.1697043475556
 21
222.7
 31
0.0
  0
LINE
  5
12F
330
12B
100
AcDbEntity
  8
0
 62
     0
100
AcDbLine
 10
164.9797802569385
 20
222.8
 30
0.0
 11
168.3697043475556
 21
222.8
 31
0.0
  0
LINE
  5
130
330
12B
100
AcDbEntity
  8
0
 62
     0
100
AcDbLine
 10
165.0595833618161
 20
222.9
 30
0.0
 11
168.5697043475556
 21
222.9
 31
0.0
  0
LINE
  5
131
330
12B
100
AcDbEntity
  8
0
 62
     0
100
AcDbLine
 10
165.1445649188855
 20
223.0
 30
0.0
 11
168.7697043475556
 21
223.0
 31
0.0
  0
LINE
  5
132
330
12B
100
AcDbEntity
  8
0
 62
     0
100
AcDbLine
 10
165.2351552571325
 20
223.1
 30
0.0
 11
168.9697043475556
 21
223.1
 31
0.0
  0
LINE
  5
133
330
12B
100
AcDbEntity
  8
0
 62
     0
100
AcDbLine
 10
165.3318673929381
 20
223.2
 30
0.0
 11
169.1697043475556
 21
223.2
 31
0.0
  0
LINE
  5
134
330
12B
100
AcDbEntity
  8
0
 62
     0
100
AcDbLine
 10
165.4353206583142
 20
223.3
 30
0.0
 11
169.3697043475556
 21
223.3
 31
0.0
  0
LINE
  5
135
330
12B
100
AcDbEntity
  8
0
 62
     0
100
AcDbLine
 10
165.546273919725
 20
223.4
 30
0.0
 11
169.5697043475556
 21
223.4
 31
0.0
  0
LINE
  5
136
330
12B
100
AcDbEntity
  8
0
 62
     0
100
AcDbLine
 10
165.6656736368377
 20
223.5
 30
0.0
 11
169.7697043475556
 21
223.5
 31
0.0
  0
LINE
  5
137
330
12B
100
AcDbEntity
  8
0
 62
     0
100
AcDbLine
 10
165.7947257957781
 20
223.6
 30
0.0
 11
169.9697043475556
 21
223.6
 31
0.0
  0
LINE
  5
138
330
12B
100
AcDbEntity
  8
0
 62
     0
100
AcDbLine
 10
165.9350080908235
 20
223.7
 30
0.0
 11
170.1697043475556
 21
223.7
 31
0.0
  0
LINE
  5
139
330
12B
100
AcDbEntity
  8
0
 62
     0
100
AcDbLine
 10
166.0886539605325
 20
223.8
 30
0.0
 11
170.3697043475556
 21
223.8
 31
0.0
  0
LINE
  5
13A
330
12B
100
AcDbEntity
  8
0
 62
     0
100
AcDbLine
 10
166.2586744884473
 20
223.9
 30
0.0
 11
170.3470637717072
 21
223.9
 31
0.0
  0
LINE
  5
13B
330
12B
100
AcDbEntity
  8
0
 62
     0
100
AcDbLine
 10
166.4495708139136
 20
224.0
 30
0.0
 11
170.1561674462409
 21
224.0
 31
0.0
  0
LINE
  5
13C
330
12B
100
AcDbEntity
  8
0
 62
     0
100
AcDbLine
 10
166.6686422289031
 20
224.1
 30
0.0
 11
169.9370960312514
 21
224.1
 31
0.0
  0
LINE
  5
13D
330
12B
100
AcDbEntity
  8
0
 62
     0
100
AcDbLine
 10
166.929304249794
 20
224.2
 30
0.0
 11
169.6764340103605
 21
224.2
 31
0.0
  0
LINE
  5
13E
330
12B
100
AcDbEntity
  8
0
 62
     0
100
AcDbLine
 10
167.2623580075159
 20
224.3
 30
0.0
 11
169.3433802526386
 21
224.3
 31
0.0
  0
LINE
  5
13F
330
12B
100
AcDbEntity
  8
0
 62
     0
100
AcDbLine
 10
167.7942963112988
 20
224.4
 30
0.0
 11
168.8114419488558
 21
224.4
 31
0.0
  0
LINE
  5
140
330
12B
100
AcDbEntity
  8
0
 62
     0
100
AcDbLine
 10
164.8326355583662
 20
149.4
 30
0.0
 11
167.9648213268927
 21
149.4
 31
0.0
  0
LINE
  5
141
330
12B
100
AcDbEntity
  8
0
 62
     0
100
AcDbLine
 10
164.9030173303478
 20
149.3
 30
0.0
 11
168.1648213268927
 21
149.3
 31
0.0
  0
LINE
  5
142
330
12B
100
AcDbEntity
  8
0
 62
     0
100
AcDbLine
 10
164.9778934191861
 20
149.2
 30
0.0
 11
168.3648213268927
 21
149.2
 31
0.0
  0
LINE
  5
143
330
12B
100
AcDbEntity
  8
0
 62
     0
100
AcDbLine
 10
165.0575748913512
 20
149.1
 30
0.0
 11
168.5648213268927
 21
149.1
 31
0.0
  0
LINE
  5
144
330
12B
100
AcDbEntity
  8
0
 62
     0
100
AcDbLine
 10
165.1424251875589
 20
149.0
 30
0.0
 11
168.7648213268927
 21
149.0
 31
0.0
  0
LINE
  5
145
330
12B
100
AcDbEntity
  8
0
 62
     0
100
AcDbLine
 10
165.2328728545594
 20
148.9
 30
0.0
 11
168.9648213268927
 21
148.9
 31
0.0
  0
LINE
  5
146
330
12B
100
AcDbEntity
  8
0
 62
     0
100
AcDbLine
 10
165.3294286397384
 20
148.8
 30
0.0
 11
169.1648213268927
 21
148.8
 31
0.0
  0
LINE
  5
147
330
12B
100
AcDbEntity
  8
0
 62
     0
100
AcDbLine
 10
165.4327089311547
 20
148.7
 30
0.0
 11
169.3648213268927
 21
148.7
 31
0.0
  0
LINE
  5
148
330
12B
100
AcDbEntity
  8
0
 62
     0
100
AcDbLine
 10
165.5434686906029
 20
148.6
 30
0.0
 11
169.5648213268927
 21
148.6
 31
0.0
  0
LINE
  5
149
330
12B
100
AcDbEntity
  8
0
 62
     0
100
AcDbLine
 10
165.6626490628737
 20
148.5
 30
0.0
 11
169.7648213268927
 21
148.5
 31
0.0
  0
LINE
  5
14A
330
12B
100
AcDbEntity
  8
0
 62
     0
100
AcDbLine
 10
165.7914485716767
 20
148.4
 30
0.0
 11
169.9648213268927
 21
148.4
 31
0.0
  0
LINE
  5
14B
330
12B
100
AcDbEntity
  8
0
 62
     0
100
AcDbLine
 10
165.9314340289097
 20
148.3
 30
0.0
 11
170.1648213268927
 21
148.3
 31
0.0
  0
LINE
  5
14C
330
12B
100
AcDbEntity
  8
0
 62
     0
100
AcDbLine
 10
166.084722233016
 20
148.2
 30
0.0
 11
170.3648213268927
 21
148.2
 31
0.0
  0
LINE
  5
14D
330
12B
100
AcDbEntity
  8
0
 62
     0
100
AcDbLine
 10
166.2542972190049
 20
148.1
 30
0.0
 11
170.3514410411496
 21
148.1
 31
0.0
  0
LINE
  5
14E
330
12B
100
AcDbEntity
  8
0
 62
     0
100
AcDbLine
 10
166.4446123951971
 20
148.0
 30
0.0
 11
170.1611258649574
 21
148.0
 31
0.0
  0
LINE
  5
14F
330
12B
100
AcDbEntity
  8
0
 62
     0
100
AcDbLine
 10
166.6628723890378
 20
147.9
 30
0.0
 11
169.9428658711167
 21
147.9
 31
0.0
  0
LINE
  5
150
330
12B
100
AcDbEntity
  8
0
 62
     0
100
AcDbLine
 10
166.9222676204038
 20
147.8
 30
0.0
 11
169.6834706397507
 21
147.8
 31
0.0
  0
LINE
  5
151
330
12B
100
AcDbEntity
  8
0
 62
     0
100
AcDbLine
 10
167.2528540128502
 20
147.7
 30
0.0
 11
169.3528842473043
 21
147.7
 31
0.0
  0
LINE
  5
152
330
12B
100
AcDbEntity
  8
0
 62
     0
100
AcDbLine
 10
167.7746618182216
 20
147.6
 30
0.0
 11
168.831076441933
 21
147.6
 31
0.0
  0
ENDBLK
  5
153
330
12B
100
AcDbEntity
  8
0
100
AcDbBlockEnd
  0
BLOCK
  5
155
330
154
100
AcDbEntity
  8
0
100
AcDbBlockBegin
  2
*X2
 70
     1
 10
0.0
 20
0.0
 30
0.0
  3
*X2
  1

  0
LINE
  5
156
330
154
100
AcDbEntity
  8
0
 62
     0
100
AcDbLine
 10
555.0333782618544
 20
296.9394031287645
 30
0.0
 11
557.1498782618544
 21
299.0559031287645
 31
0.0
  0
LINE
  5
157
330
154
100
AcDbEntity
  8
0
 62
     0
100
AcDbLine
 10
634.9168782618542
 20
376.8229031287644
 30
0.0
 11
637.0333782618544
 21
378.9394031287646
 31
0.0
  0
LINE
  5
158
330
154
100
AcDbEntity
  8
0
 62
     0
100
AcDbLine
 10
557.1498782618544
 20
299.0559031287645
 30
0.0
 11
559.5333782618543
 21
301.4394031287645
 31
0.0
  0
LINE
  5
159
330
154
100
AcDbEntity
  8
0
 62
     0
100
AcDbLine
 10
553.2656113088879
 20
296.9394031287645
 30
0.0
 11
555.3821113088879
 21
299.0559031287645
 31
0.0
  0
LINE
  5
15A
330
154
100
AcDbEntity
  8
0
 62
     0
100
AcDbLine
 10
633.1491113088879
 20
376.8229031287644
 30
0.0
 11
635.2656113088881
 21
378.9394031287646
 31
0.0
  0
LINE
  5
15B
330
154
100
AcDbEntity
  8
0
 62
     0
100
AcDbLine
 10
555.3821113088879
 20
299.0559031287645
 30
0.0
 11
557.7656113088879
 21
301.4394031287645
 31
0.0
  0
LINE
  5
15C
330
154
100
AcDbEntity
  8
0
 62
     0
100
AcDbLine
 10
552.7681536356094
 20
298.2097124084523
 30
0.0
 11
553.6143443559216
 21
299.0559031287645
 31
0.0
  0
LINE
  5
15D
330
154
100
AcDbEntity
  8
0
 62
     0
100
AcDbLine
 10
631.3813443559215
 20
376.8229031287644
 30
0.0
 11
633.4978443559217
 21
378.9394031287646
 31
0.0
  0
LINE
  5
15E
330
154
100
AcDbEntity
  8
0
 62
     0
100
AcDbLine
 10
553.6143443559216
 20
299.0559031287645
 30
0.0
 11
555.9978443559216
 21
301.4394031287645
 31
0.0
  0
LINE
  5
15F
330
154
100
AcDbEntity
  8
0
 62
     0
100
AcDbLine
 10
552.7681536356094
 20
299.9774793614187
 30
0.0
 11
554.2300774029552
 21
301.4394031287645
 31
0.0
  0
LINE
  5
160
330
154
100
AcDbEntity
  8
0
 62
     0
100
AcDbLine
 10
629.6135774029551
 20
376.8229031287644
 30
0.0
 11
631.7300774029553
 21
378.9394031287646
 31
0.0
  0
LINE
  5
161
330
154
100
AcDbEntity
  8
0
 62
     0
100
AcDbLine
 10
627.8458104499888
 20
376.8229031287644
 30
0.0
 11
629.962310449989
 21
378.9394031287646
 31
0.0
  0
LINE
  5
162
330
154
100
AcDbEntity
  8
0
 62
     0
100
AcDbLine
 10
626.0780434970223
 20
376.8229031287644
 30
0.0
 11
628.1945434970226
 21
378.9394031287646
 31
0.0
  0
LINE
  5
163
330
154
100
AcDbEntity
  8
0
 62
     0
100
AcDbLine
 10
624.310276544056
 20
376.8229031287644
 30
0.0
 11
626.4267765440562
 21
378.9394031287646
 31
0.0
  0
LINE
  5
164
330
154
100
AcDbEntity
  8
0
 62
     0
100
AcDbLine
 10
622.5425095910897
 20
376.8229031287644
 30
0.0
 11
624.6590095910899
 21
378.9394031287646
 31
0.0
  0
LINE
  5
165
330
154
100
AcDbEntity
  8
0
 62
     0
100
AcDbLine
 10
620.7747426381232
 20
376.8229031287644
 30
0.0
 11
622.8912426381235
 21
378.9394031287646
 31
0.0
  0
LINE
  5
166
330
154
100
AcDbEntity
  8
0
 62
     0
100
AcDbLine
 10
619.0069756851569
 20
376.8229031287644
 30
0.0
 11
621.1234756851571
 21
378.9394031287646
 31
0.0
  0
LINE
  5
167
330
154
100
AcDbEntity
  8
0
 62
     0
100
AcDbLine
 10
617.2392087321906
 20
376.8229031287644
 30
0.0
 11
619.3557087321908
 21
378.9394031287647
 31
0.0
  0
LINE
  5
168
330
154
100
AcDbEntity
  8
0
 62
     0
100
AcDbLine
 10
616.0841239759989
 20
377.4355853255391
 30
0.0
 11
617.5879417792245
 21
378.9394031287647
 31
0.0
  0
LINE
  5
169
330
154
100
AcDbEntity
  8
0
 62
     0
100
AcDbLine
 10
615.4785263564455
 20
378.5977546589522
 30
0.0
 11
615.8201748262581
 21
378.9394031287647
 31
0.0
  0
LINE
  5
16A
330
154
100
AcDbEntity
  8
0
 62
     0
100
AcDbLine
 10
572.4293018609976
 20
374.4394031287645
 30
0.0
 11
572.7463768864943
 21
374.7564781542611
 31
0.0
  0
LINE
  5
16B
330
154
100
AcDbEntity
  8
0
 62
     0
100
AcDbLine
 10
570.6615349080314
 20
374.4394031287645
 30
0.0
 11
572.5002911534342
 21
376.2781593741673
 31
0.0
  0
LINE
  5
16C
330
154
100
AcDbEntity
  8
0
 62
     0
100
AcDbLine
 10
568.893767955065
 20
374.4394031287645
 30
0.0
 11
571.2772679550649
 21
376.8229031287644
 31
0.0
  0
LINE
  5
16D
330
154
100
AcDbEntity
  8
0
 62
     0
100
AcDbLine
 10
571.2772679550649
 20
376.8229031287644
 30
0.0
 11
572.2292754152883
 21
377.7749105889879
 31
0.0
  0
LINE
  5
16E
330
154
100
AcDbEntity
  8
0
 62
     0
100
AcDbLine
 10
567.1260010020986
 20
374.4394031287645
 30
0.0
 11
569.5095010020985
 21
376.8229031287644
 31
0.0
  0
LINE
  5
16F
330
154
100
AcDbEntity
  8
0
 62
     0
100
AcDbLine
 10
569.5095010020986
 20
376.8229031287644
 30
0.0
 11
571.6260010020987
 21
378.9394031287645
 31
0.0
  0
LINE
  5
170
330
154
100
AcDbEntity
  8
0
 62
     0
100
AcDbLine
 10
565.3582340491323
 20
374.4394031287645
 30
0.0
 11
567.7417340491322
 21
376.8229031287644
 31
0.0
  0
LINE
  5
171
330
154
100
AcDbEntity
  8
0
 62
     0
100
AcDbLine
 10
567.7417340491322
 20
376.8229031287644
 30
0.0
 11
569.8582340491323
 21
378.9394031287645
 31
0.0
  0
LINE
  5
172
330
154
100
AcDbEntity
  8
0
 62
     0
100
AcDbLine
 10
563.5904670961658
 20
374.4394031287645
 30
0.0
 11
565.9739670961657
 21
376.8229031287644
 31
0.0
  0
LINE
  5
173
330
154
100
AcDbEntity
  8
0
 62
     0
100
AcDbLine
 10
565.9739670961658
 20
376.8229031287644
 30
0.0
 11
568.0904670961659
 21
378.9394031287645
 31
0.0
  0
LINE
  5
174
330
154
100
AcDbEntity
  8
0
 62
     0
100
AcDbLine
 10
561.8227001431995
 20
374.4394031287645
 30
0.0
 11
564.2062001431994
 21
376.8229031287644
 31
0.0
  0
LINE
  5
175
330
154
100
AcDbEntity
  8
0
 62
     0
100
AcDbLine
 10
564.2062001431995
 20
376.8229031287644
 30
0.0
 11
566.3227001431996
 21
378.9394031287645
 31
0.0
  0
LINE
  5
176
330
154
100
AcDbEntity
  8
0
 62
     0
100
AcDbLine
 10
560.0549331902331
 20
374.4394031287645
 30
0.0
 11
562.4384331902331
 21
376.8229031287644
 31
0.0
  0
LINE
  5
177
330
154
100
AcDbEntity
  8
0
 62
     0
100
AcDbLine
 10
562.4384331902331
 20
376.8229031287644
 30
0.0
 11
564.5549331902332
 21
378.9394031287645
 31
0.0
  0
LINE
  5
178
330
154
100
AcDbEntity
  8
0
 62
     0
100
AcDbLine
 10
558.2871662372667
 20
374.4394031287645
 30
0.0
 11
560.6706662372666
 21
376.8229031287644
 31
0.0
  0
LINE
  5
179
330
154
100
AcDbEntity
  8
0
 62
     0
100
AcDbLine
 10
560.6706662372667
 20
376.8229031287644
 30
0.0
 11
562.7871662372668
 21
378.9394031287645
 31
0.0
  0
LINE
  5
17A
330
154
100
AcDbEntity
  8
0
 62
     0
100
AcDbLine
 10
556.5193992843004
 20
374.4394031287645
 30
0.0
 11
558.9028992843004
 21
376.8229031287644
 31
0.0
  0
LINE
  5
17B
330
154
100
AcDbEntity
  8
0
 62
     0
100
AcDbLine
 10
558.9028992843005
 20
376.8229031287644
 30
0.0
 11
561.0193992843005
 21
378.9394031287645
 31
0.0
  0
LINE
  5
17C
330
154
100
AcDbEntity
  8
0
 62
     0
100
AcDbLine
 10
554.751632331334
 20
374.4394031287645
 30
0.0
 11
557.135132331334
 21
376.8229031287644
 31
0.0
  0
LINE
  5
17D
330
154
100
AcDbEntity
  8
0
 62
     0
100
AcDbLine
 10
557.135132331334
 20
376.8229031287644
 30
0.0
 11
559.2516323313341
 21
378.9394031287645
 31
0.0
  0
LINE
  5
17E
330
154
100
AcDbEntity
  8
0
 62
     0
100
AcDbLine
 10
552.9838653783676
 20
374.4394031287645
 30
0.0
 11
555.3673653783675
 21
376.8229031287644
 31
0.0
  0
LINE
  5
17F
330
154
100
AcDbEntity
  8
0
 62
     0
100
AcDbLine
 10
555.3673653783676
 20
376.8229031287644
 30
0.0
 11
557.4838653783678
 21
378.9394031287645
 31
0.0
  0
LINE
  5
180
330
154
100
AcDbEntity
  8
0
 62
     0
100
AcDbLine
 10
552.7681536356094
 20
375.9914583389726
 30
0.0
 11
553.5995984254013
 21
376.8229031287644
 31
0.0
  0
LINE
  5
181
330
154
100
AcDbEntity
  8
0
 62
     0
100
AcDbLine
 10
553.5995984254013
 20
376.8229031287644
 30
0.0
 11
555.7160984254013
 21
378.9394031287645
 31
0.0
  0
LINE
  5
182
330
154
100
AcDbEntity
  8
0
 62
     0
100
AcDbLine
 10
552.7681536356095
 20
377.759225291939
 30
0.0
 11
553.948331472435
 21
378.9394031287645
 31
0.0
  0
LINE
  5
183
330
154
100
AcDbEntity
  8
0
 62
     0
100
AcDbLine
 10
556.8011452148207
 20
296.9394031287645
 30
0.0
 11
558.9176452148207
 21
299.0559031287645
 31
0.0
  0
LINE
  5
184
330
154
100
AcDbEntity
  8
0
 62
     0
100
AcDbLine
 10
636.6846452148206
 20
376.8229031287644
 30
0.0
 11
638.8011452148208
 21
378.9394031287646
 31
0.0
  0
LINE
  5
185
330
154
100
AcDbEntity
  8
0
 62
     0
100
AcDbLine
 10
558.9176452148207
 20
299.0559031287645
 30
0.0
 11
561.3011452148207
 21
301.4394031287645
 31
0.0
  0
LINE
  5
186
330
154
100
AcDbEntity
  8
0
 62
     0
100
AcDbLine
 10
558.5689121677871
 20
296.9394031287645
 30
0.0
 11
560.685412167787
 21
299.0559031287645
 31
0.0
  0
LINE
  5
187
330
154
100
AcDbEntity
  8
0
 62
     0
100
AcDbLine
 10
638.452412167787
 20
376.8229031287644
 30
0.0
 11
640.5689121677871
 21
378.9394031287646
 31
0.0
  0
LINE
  5
188
330
154
100
AcDbEntity
  8
0
 62
     0
100
AcDbLine
 10
560.685412167787
 20
299.0559031287645
 30
0.0
 11
563.068912167787
 21
301.4394031287645
 31
0.0
  0
LINE
  5
189
330
154
100
AcDbEntity
  8
0
 62
     0
100
AcDbLine
 10
560.3366791207535
 20
296.9394031287645
 30
0.0
 11
562.4531791207535
 21
299.0559031287645
 31
0.0
  0
LINE
  5
18A
330
154
100
AcDbEntity
  8
0
 62
     0
100
AcDbLine
 10
562.4531791207535
 20
299.0559031287645
 30
0.0
 11
564.8366791207534
 21
301.4394031287645
 31
0.0
  0
LINE
  5
18B
330
154
100
AcDbEntity
  8
0
 62
     0
100
AcDbLine
 10
562.1044460737198
 20
296.9394031287645
 30
0.0
 11
564.2209460737197
 21
299.0559031287645
 31
0.0
  0
LINE
  5
18C
330
154
100
AcDbEntity
  8
0
 62
     0
100
AcDbLine
 10
564.2209460737197
 20
299.0559031287645
 30
0.0
 11
566.6044460737198
 21
301.4394031287645
 31
0.0
  0
LINE
  5
18D
330
154
100
AcDbEntity
  8
0
 62
     0
100
AcDbLine
 10
563.8722130266862
 20
296.9394031287645
 30
0.0
 11
565.9887130266861
 21
299.0559031287645
 31
0.0
  0
LINE
  5
18E
330
154
100
AcDbEntity
  8
0
 62
     0
100
AcDbLine
 10
565.9887130266861
 20
299.0559031287645
 30
0.0
 11
568.3722130266861
 21
301.4394031287645
 31
0.0
  0
LINE
  5
18F
330
154
100
AcDbEntity
  8
0
 62
     0
100
AcDbLine
 10
565.6399799796526
 20
296.9394031287645
 30
0.0
 11
567.7564799796526
 21
299.0559031287645
 31
0.0
  0
LINE
  5
190
330
154
100
AcDbEntity
  8
0
 62
     0
100
AcDbLine
 10
567.7564799796526
 20
299.0559031287645
 30
0.0
 11
569.1950287594994
 21
300.4944519086114
 31
0.0
  0
LINE
  5
191
330
154
100
AcDbEntity
  8
0
 62
     0
100
AcDbLine
 10
567.4077469326189
 20
296.9394031287645
 30
0.0
 11
569.2916007420704
 21
298.8232569382159
 31
0.0
  0
LINE
  5
192
330
154
100
AcDbEntity
  8
0
 62
     0
100
AcDbLine
 10
569.1755138855853
 20
296.9394031287645
 30
0.0
 11
569.4337915698461
 21
297.1976808130253
 31
0.0
  0
LINE
  5
193
330
154
100
AcDbEntity
  8
0
 62
     0
100
AcDbLine
 10
558.9415480374781
 20
374.4394031287645
 30
0.0
 11
556.5580480374782
 21
376.8229031287644
 31
0.0
  0
LINE
  5
194
330
154
100
AcDbEntity
  8
0
 62
     0
100
AcDbLine
 10
556.5580480374782
 20
376.8229031287644
 30
0.0
 11
554.4415480374781
 21
378.9394031287645
 31
0.0
  0
LINE
  5
195
330
154
100
AcDbEntity
  8
0
 62
     0
100
AcDbLine
 10
557.1737810845117
 20
374.4394031287645
 30
0.0
 11
554.7902810845117
 21
376.8229031287644
 31
0.0
  0
LINE
  5
196
330
154
100
AcDbEntity
  8
0
 62
     0
100
AcDbLine
 10
554.7902810845118
 20
376.8229031287644
 30
0.0
 11
552.7681536356095
 21
378.8450305776668
 31
0.0
  0
LINE
  5
197
330
154
100
AcDbEntity
  8
0
 62
     0
100
AcDbLine
 10
555.4060141315455
 20
374.4394031287645
 30
0.0
 11
553.0225141315454
 21
376.8229031287644
 31
0.0
  0
LINE
  5
198
330
154
100
AcDbEntity
  8
0
 62
     0
100
AcDbLine
 10
553.0225141315454
 20
376.8229031287644
 30
0.0
 11
552.7681536356095
 21
377.0772636247004
 31
0.0
  0
LINE
  5
199
330
154
100
AcDbEntity
  8
0
 62
     0
100
AcDbLine
 10
553.638247178579
 20
374.4394031287645
 30
0.0
 11
552.7681536356094
 21
375.3094966717341
 31
0.0
  0
LINE
  5
19A
330
154
100
AcDbEntity
  8
0
 62
     0
100
AcDbLine
 10
569.193012238334
 20
300.5483286211193
 30
0.0
 11
568.3019377306887
 21
301.4394031287645
 31
0.0
  0
LINE
  5
19B
330
154
100
AcDbEntity
  8
0
 62
     0
100
AcDbLine
 10
569.3037813810795
 20
298.6697925254075
 30
0.0
 11
568.9176707777225
 21
299.0559031287645
 31
0.0
  0
LINE
  5
19C
330
154
100
AcDbEntity
  8
0
 62
     0
100
AcDbLine
 10
568.9176707777225
 20
299.0559031287645
 30
0.0
 11
566.5341707777225
 21
301.4394031287645
 31
0.0
  0
LINE
  5
19D
330
154
100
AcDbEntity
  8
0
 62
     0
100
AcDbLine
 10
569.2664038247561
 20
296.9394031287645
 30
0.0
 11
567.149903824756
 21
299.0559031287645
 31
0.0
  0
LINE
  5
19E
330
154
100
AcDbEntity
  8
0
 62
     0
100
AcDbLine
 10
567.149903824756
 20
299.0559031287645
 30
0.0
 11
564.766403824756
 21
301.4394031287645
 31
0.0
  0
LINE
  5
19F
330
154
100
AcDbEntity
  8
0
 62
     0
100
AcDbLine
 10
567.4986368717898
 20
296.9394031287645
 30
0.0
 11
565.3821368717897
 21
299.0559031287645
 31
0.0
  0
LINE
  5
1A0
330
154
100
AcDbEntity
  8
0
 62
     0
100
AcDbLine
 10
565.3821368717897
 20
299.0559031287645
 30
0.0
 11
562.9986368717896
 21
301.4394031287645
 31
0.0
  0
LINE
  5
1A1
330
154
100
AcDbEntity
  8
0
 62
     0
100
AcDbLine
 10
565.7308699188233
 20
296.9394031287645
 30
0.0
 11
563.6143699188234
 21
299.0559031287645
 31
0.0
  0
LINE
  5
1A2
330
154
100
AcDbEntity
  8
0
 62
     0
100
AcDbLine
 10
563.6143699188234
 20
299.0559031287645
 30
0.0
 11
561.2308699188234
 21
301.4394031287645
 31
0.0
  0
LINE
  5
1A3
330
154
100
AcDbEntity
  8
0
 62
     0
100
AcDbLine
 10
563.963102965857
 20
296.9394031287645
 30
0.0
 11
561.8466029658569
 21
299.0559031287645
 31
0.0
  0
LINE
  5
1A4
330
154
100
AcDbEntity
  8
0
 62
     0
100
AcDbLine
 10
561.8466029658569
 20
299.0559031287645
 30
0.0
 11
559.4631029658569
 21
301.4394031287645
 31
0.0
  0
LINE
  5
1A5
330
154
100
AcDbEntity
  8
0
 62
     0
100
AcDbLine
 10
562.1953360128905
 20
296.9394031287645
 30
0.0
 11
560.0788360128906
 21
299.0559031287645
 31
0.0
  0
LINE
  5
1A6
330
154
100
AcDbEntity
  8
0
 62
     0
100
AcDbLine
 10
560.0788360128906
 20
299.0559031287645
 30
0.0
 11
557.6953360128905
 21
301.4394031287645
 31
0.0
  0
LINE
  5
1A7
330
154
100
AcDbEntity
  8
0
 62
     0
100
AcDbLine
 10
560.4275690599243
 20
296.9394031287645
 30
0.0
 11
558.3110690599243
 21
299.0559031287645
 31
0.0
  0
LINE
  5
1A8
330
154
100
AcDbEntity
  8
0
 62
     0
100
AcDbLine
 10
558.3110690599243
 20
299.0559031287645
 30
0.0
 11
555.9275690599243
 21
301.4394031287645
 31
0.0
  0
LINE
  5
1A9
330
154
100
AcDbEntity
  8
0
 62
     0
100
AcDbLine
 10
558.6598021069579
 20
296.9394031287645
 30
0.0
 11
556.5433021069578
 21
299.0559031287645
 31
0.0
  0
LINE
  5
1AA
330
154
100
AcDbEntity
  8
0
 62
     0
100
AcDbLine
 10
556.5433021069578
 20
299.0559031287645
 30
0.0
 11
554.1598021069578
 21
301.4394031287645
 31
0.0
  0
LINE
  5
1AB
330
154
100
AcDbEntity
  8
0
 62
     0
100
AcDbLine
 10
556.8920351539914
 20
296.9394031287645
 30
0.0
 11
554.7755351539915
 21
299.0559031287645
 31
0.0
  0
LINE
  5
1AC
330
154
100
AcDbEntity
  8
0
 62
     0
100
AcDbLine
 10
554.7755351539915
 20
299.0559031287645
 30
0.0
 11
552.7681536356094
 21
301.0632846471466
 31
0.0
  0
LINE
  5
1AD
330
154
100
AcDbEntity
  8
0
 62
     0
100
AcDbLine
 10
555.1242682010252
 20
296.9394031287645
 30
0.0
 11
553.0077682010251
 21
299.0559031287645
 31
0.0
  0
LINE
  5
1AE
330
154
100
AcDbEntity
  8
0
 62
     0
100
AcDbLine
 10
553.0077682010251
 20
299.0559031287645
 30
0.0
 11
552.7681536356094
 21
299.2955176941802
 31
0.0
  0
LINE
  5
1AF
330
154
100
AcDbEntity
  8
0
 62
     0
100
AcDbLine
 10
553.3565012480588
 20
296.9394031287645
 30
0.0
 11
552.7681536356094
 21
297.5277507412139
 31
0.0
  0
LINE
  5
1B0
330
154
100
AcDbEntity
  8
0
 62
     0
100
AcDbLine
 10
560.7093149904446
 20
374.4394031287645
 30
0.0
 11
558.3258149904445
 21
376.8229031287644
 31
0.0
  0
LINE
  5
1B1
330
154
100
AcDbEntity
  8
0
 62
     0
100
AcDbLine
 10
558.3258149904446
 20
376.8229031287644
 30
0.0
 11
556.2093149904446
 21
378.9394031287645
 31
0.0
  0
LINE
  5
1B2
330
154
100
AcDbEntity
  8
0
 62
     0
100
AcDbLine
 10
562.4770819434108
 20
374.4394031287645
 30
0.0
 11
560.0935819434109
 21
376.8229031287644
 31
0.0
  0
LINE
  5
1B3
330
154
100
AcDbEntity
  8
0
 62
     0
100
AcDbLine
 10
560.0935819434109
 20
376.8229031287644
 30
0.0
 11
557.9770819434108
 21
378.9394031287645
 31
0.0
  0
LINE
  5
1B4
330
154
100
AcDbEntity
  8
0
 62
     0
100
AcDbLine
 10
564.2448488963772
 20
374.4394031287645
 30
0.0
 11
561.8613488963773
 21
376.8229031287644
 31
0.0
  0
LINE
  5
1B5
330
154
100
AcDbEntity
  8
0
 62
     0
100
AcDbLine
 10
561.8613488963773
 20
376.8229031287644
 30
0.0
 11
559.7448488963772
 21
378.9394031287645
 31
0.0
  0
LINE
  5
1B6
330
154
100
AcDbEntity
  8
0
 62
     0
100
AcDbLine
 10
566.0126158493437
 20
374.4394031287645
 30
0.0
 11
563.6291158493436
 21
376.8229031287644
 31
0.0
  0
LINE
  5
1B7
330
154
100
AcDbEntity
  8
0
 62
     0
100
AcDbLine
 10
563.6291158493437
 20
376.8229031287644
 30
0.0
 11
561.5126158493437
 21
378.9394031287645
 31
0.0
  0
LINE
  5
1B8
330
154
100
AcDbEntity
  8
0
 62
     0
100
AcDbLine
 10
567.7803828023099
 20
374.4394031287645
 30
0.0
 11
565.39688280231
 21
376.8229031287644
 31
0.0
  0
LINE
  5
1B9
330
154
100
AcDbEntity
  8
0
 62
     0
100
AcDbLine
 10
565.39688280231
 20
376.8229031287644
 30
0.0
 11
563.2803828023099
 21
378.9394031287645
 31
0.0
  0
LINE
  5
1BA
330
154
100
AcDbEntity
  8
0
 62
     0
100
AcDbLine
 10
569.5481497552763
 20
374.4394031287645
 30
0.0
 11
567.1646497552764
 21
376.8229031287644
 31
0.0
  0
LINE
  5
1BB
330
154
100
AcDbEntity
  8
0
 62
     0
100
AcDbLine
 10
567.1646497552764
 20
376.8229031287644
 30
0.0
 11
565.0481497552763
 21
378.9394031287645
 31
0.0
  0
LINE
  5
1BC
330
154
100
AcDbEntity
  8
0
 62
     0
100
AcDbLine
 10
571.3159167082427
 20
374.4394031287645
 30
0.0
 11
568.9324167082427
 21
376.8229031287644
 31
0.0
  0
LINE
  5
1BD
330
154
100
AcDbEntity
  8
0
 62
     0
100
AcDbLine
 10
568.9324167082428
 20
376.8229031287644
 30
0.0
 11
566.8159167082428
 21
378.9394031287645
 31
0.0
  0
LINE
  5
1BE
330
154
100
AcDbEntity
  8
0
 62
     0
100
AcDbLine
 10
572.742745450558
 20
374.7803413394156
 30
0.0
 11
570.7001836612091
 21
376.8229031287644
 31
0.0
  0
LINE
  5
1BF
330
154
100
AcDbEntity
  8
0
 62
     0
100
AcDbLine
 10
570.7001836612091
 20
376.8229031287644
 30
0.0
 11
568.583683661209
 21
378.9394031287645
 31
0.0
  0
LINE
  5
1C0
330
154
100
AcDbEntity
  8
0
 62
     0
100
AcDbLine
 10
572.3912741589749
 20
376.899579583965
 30
0.0
 11
570.3514506141755
 21
378.9394031287645
 31
0.0
  0
LINE
  5
1C1
330
154
100
AcDbEntity
  8
0
 62
     0
100
AcDbLine
 10
616.6621244383348
 20
376.8229031287644
 30
0.0
 11
616.1328985825644
 21
377.3521289845348
 31
0.0
  0
LINE
  5
1C2
330
154
100
AcDbEntity
  8
0
 62
     0
100
AcDbLine
 10
618.4298913913011
 20
376.8229031287644
 30
0.0
 11
616.3133913913009
 21
378.9394031287647
 31
0.0
  0
LINE
  5
1C3
330
154
100
AcDbEntity
  8
0
 62
     0
100
AcDbLine
 10
620.1976583442675
 20
376.8229031287644
 30
0.0
 11
618.0811583442672
 21
378.9394031287646
 31
0.0
  0
LINE
  5
1C4
330
154
100
AcDbEntity
  8
0
 62
     0
100
AcDbLine
 10
621.9654252972339
 20
376.8229031287644
 30
0.0
 11
619.8489252972336
 21
378.9394031287646
 31
0.0
  0
LINE
  5
1C5
330
154
100
AcDbEntity
  8
0
 62
     0
100
AcDbLine
 10
623.7331922502002
 20
376.8229031287644
 30
0.0
 11
621.6166922502
 21
378.9394031287646
 31
0.0
  0
LINE
  5
1C6
330
154
100
AcDbEntity
  8
0
 62
     0
100
AcDbLine
 10
625.5009592031666
 20
376.8229031287644
 30
0.0
 11
623.3844592031664
 21
378.9394031287646
 31
0.0
  0
LINE
  5
1C7
330
154
100
AcDbEntity
  8
0
 62
     0
100
AcDbLine
 10
627.268726156133
 20
376.8229031287644
 30
0.0
 11
625.1522261561327
 21
378.9394031287646
 31
0.0
  0
LINE
  5
1C8
330
154
100
AcDbEntity
  8
0
 62
     0
100
AcDbLine
 10
629.0364931090993
 20
376.8229031287644
 30
0.0
 11
626.9199931090992
 21
378.9394031287646
 31
0.0
  0
LINE
  5
1C9
330
154
100
AcDbEntity
  8
0
 62
     0
100
AcDbLine
 10
630.8042600620657
 20
376.8229031287644
 30
0.0
 11
628.6877600620655
 21
378.9394031287646
 31
0.0
  0
LINE
  5
1CA
330
154
100
AcDbEntity
  8
0
 62
     0
100
AcDbLine
 10
632.572027015032
 20
376.8229031287644
 30
0.0
 11
630.4555270150318
 21
378.9394031287646
 31
0.0
  0
LINE
  5
1CB
330
154
100
AcDbEntity
  8
0
 62
     0
100
AcDbLine
 10
634.3397939679984
 20
376.8229031287644
 30
0.0
 11
632.2232939679983
 21
378.9394031287646
 31
0.0
  0
LINE
  5
1CC
330
154
100
AcDbEntity
  8
0
 62
     0
100
AcDbLine
 10
636.1075609209648
 20
376.8229031287644
 30
0.0
 11
633.9910609209645
 21
378.9394031287646
 31
0.0
  0
LINE
  5
1CD
330
154
100
AcDbEntity
  8
0
 62
     0
100
AcDbLine
 10
637.8753278739311
 20
376.8229031287644
 30
0.0
 11
635.758827873931
 21
378.9394031287646
 31
0.0
  0
LINE
  5
1CE
330
154
100
AcDbEntity
  8
0
 62
     0
100
AcDbLine
 10
639.6430948268975
 20
376.8229031287644
 30
0.0
 11
637.5265948268974
 21
378.9394031287646
 31
0.0
  0
LINE
  5
1CF
330
154
100
AcDbEntity
  8
0
 62
     0
100
AcDbLine
 10
640.3021639873578
 20
377.9316009212705
 30
0.0
 11
639.2943617798638
 21
378.9394031287646
 31
0.0
  0
ENDBLK
  5
1D0
330
154
100
AcDbEntity
  8
0
100
AcDbBlockEnd
  0
BLOCK
  5
1D2
330
1D1
100
AcDbEntity
  8
0
100
AcDbBlockBegin
  2
*X3
 70
     1
 10
0.0
 20
0.0
 30
0.0
  3
*X3
  1

  0
LINE
  5
1D3
330
1D1
100
AcDbEntity
  8
0
 62
     0
100
AcDbLine
 10
625.4623104499889
 20
374.4394031287645
 30
0.0
 11
627.8458104499888
 21
376.8229031287644
 31
0.0
  0
LINE
  5
1D4
330
1D1
100
AcDbEntity
  8
0
 62
     0
100
AcDbLine
 10
623.6945434970225
 20
374.4394031287645
 30
0.0
 11
626.0780434970223
 21
376.8229031287644
 31
0.0
  0
LINE
  5
1D5
330
1D1
100
AcDbEntity
  8
0
 62
     0
100
AcDbLine
 10
621.9267765440561
 20
374.4394031287645
 30
0.0
 11
624.310276544056
 21
376.8229031287644
 31
0.0
  0
LINE
  5
1D6
330
1D1
100
AcDbEntity
  8
0
 62
     0
100
AcDbLine
 10
620.1590095910898
 20
374.4394031287645
 30
0.0
 11
622.5425095910897
 21
376.8229031287644
 31
0.0
  0
LINE
  5
1D7
330
1D1
100
AcDbEntity
  8
0
 62
     0
100
AcDbLine
 10
618.6272369495192
 20
374.6753974401603
 30
0.0
 11
620.7747426381232
 21
376.8229031287644
 31
0.0
  0
LINE
  5
1D8
330
1D1
100
AcDbEntity
  8
0
 62
     0
100
AcDbLine
 10
617.6192504536669
 20
375.4351778972745
 30
0.0
 11
619.0069756851569
 21
376.8229031287644
 31
0.0
  0
LINE
  5
1D9
330
1D1
100
AcDbEntity
  8
0
 62
     0
100
AcDbLine
 10
616.7782407490177
 20
376.3619351455917
 30
0.0
 11
617.2392087321904
 21
376.8229031287644
 31
0.0
  0
LINE
  5
1DA
330
1D1
100
AcDbEntity
  8
0
 62
     0
100
AcDbLine
 10
627.2300774029552
 20
374.4394031287645
 30
0.0
 11
629.6135774029551
 21
376.8229031287644
 31
0.0
  0
LINE
  5
1DB
330
1D1
100
AcDbEntity
  8
0
 62
     0
100
AcDbLine
 10
628.9978443559216
 20
374.4394031287645
 30
0.0
 11
631.3813443559214
 21
376.8229031287644
 31
0.0
  0
LINE
  5
1DC
330
1D1
100
AcDbEntity
  8
0
 62
     0
100
AcDbLine
 10
630.765611308888
 20
374.4394031287645
 30
0.0
 11
633.1491113088879
 21
376.8229031287644
 31
0.0
  0
LINE
  5
1DD
330
1D1
100
AcDbEntity
  8
0
 62
     0
100
AcDbLine
 10
632.5333782618543
 20
374.4394031287645
 30
0.0
 11
634.9168782618542
 21
376.8229031287644
 31
0.0
  0
LINE
  5
1DE
330
1D1
100
AcDbEntity
  8
0
 62
     0
100
AcDbLine
 10
634.3011452148207
 20
374.4394031287645
 30
0.0
 11
636.6846452148206
 21
376.8229031287644
 31
0.0
  0
LINE
  5
1DF
330
1D1
100
AcDbEntity
  8
0
 62
     0
100
AcDbLine
 10
636.0689121677871
 20
374.4394031287645
 30
0.0
 11
638.452412167787
 21
376.8229031287644
 31
0.0
  0
LINE
  5
1E0
330
1D1
100
AcDbEntity
  8
0
 62
     0
100
AcDbLine
 10
627.8844592031665
 20
374.4394031287645
 30
0.0
 11
625.5009592031665
 21
376.8229031287644
 31
0.0
  0
LINE
  5
1E1
330
1D1
100
AcDbEntity
  8
0
 62
     0
100
AcDbLine
 10
626.1166922502002
 20
374.4394031287645
 30
0.0
 11
623.7331922502002
 21
376.8229031287644
 31
0.0
  0
LINE
  5
1E2
330
1D1
100
AcDbEntity
  8
0
 62
     0
100
AcDbLine
 10
624.3489252972338
 20
374.4394031287645
 30
0.0
 11
621.9654252972339
 21
376.8229031287644
 31
0.0
  0
LINE
  5
1E3
330
1D1
100
AcDbEntity
  8
0
 62
     0
100
AcDbLine
 10
622.5811583442674
 20
374.4394031287645
 30
0.0
 11
620.1976583442674
 21
376.8229031287644
 31
0.0
  0
LINE
  5
1E4
330
1D1
100
AcDbEntity
  8
0
 62
     0
100
AcDbLine
 10
620.813391391301
 20
374.4394031287645
 30
0.0
 11
618.4298913913011
 21
376.8229031287644
 31
0.0
  0
LINE
  5
1E5
330
1D1
100
AcDbEntity
  8
0
 62
     0
100
AcDbLine
 10
629.6522261561328
 20
374.4394031287645
 30
0.0
 11
627.268726156133
 21
376.8229031287644
 31
0.0
  0
LINE
  5
1E6
330
1D1
100
AcDbEntity
  8
0
 62
     0
100
AcDbLine
 10
631.4199931090993
 20
374.4394031287645
 30
0.0
 11
629.0364931090993
 21
376.8229031287644
 31
0.0
  0
LINE
  5
1E7
330
1D1
100
AcDbEntity
  8
0
 62
     0
100
AcDbLine
 10
633.1877600620656
 20
374.4394031287645
 30
0.0
 11
630.8042600620657
 21
376.8229031287644
 31
0.0
  0
LINE
  5
1E8
330
1D1
100
AcDbEntity
  8
0
 62
     0
100
AcDbLine
 10
634.9555270150319
 20
374.4394031287645
 30
0.0
 11
632.572027015032
 21
376.8229031287644
 31
0.0
  0
LINE
  5
1E9
330
1D1
100
AcDbEntity
  8
0
 62
     0
100
AcDbLine
 10
636.7232939679984
 20
374.4394031287645
 30
0.0
 11
634.3397939679983
 21
376.8229031287644
 31
0.0
  0
LINE
  5
1EA
330
1D1
100
AcDbEntity
  8
0
 62
     0
100
AcDbLine
 10
638.1143329246057
 20
374.8161311251236
 30
0.0
 11
636.1075609209648
 21
376.8229031287644
 31
0.0
  0
LINE
  5
1EB
330
1D1
100
AcDbEntity
  8
0
 62
     0
100
AcDbLine
 10
638.9781500026011
 20
375.7200810000945
 30
0.0
 11
637.8753278739311
 21
376.8229031287644
 31
0.0
  0
LINE
  5
1EC
330
1D1
100
AcDbEntity
  8
0
 62
     0
100
AcDbLine
 10
639.6734096042555
 20
376.7925883514064
 30
0.0
 11
639.6430948268974
 21
376.8229031287644
 31
0.0
  0
ENDBLK
  5
1ED
330
1D1
100
AcDbEntity
  8
0
100
AcDbBlockEnd
  0
BLOCK
  5
1EF
330
1EE
100
AcDbEntity
  8
0
100
AcDbBlockBegin
  2
*X4
 70
     1
 10
0.0
 20
0.0
 30
0.0
  3
*X4
  1

  0
LINE
  5
1F0
330
1EE
100
AcDbEntity
  8
0
 62
     0
100
AcDbLine
 10
625.2681536356094
 20
386.6196149851497
 30
0.0
 11
626.5879417792242
 21
387.9394031287644
 31
0.0
  0
LINE
  5
1F1
330
1EE
100
AcDbEntity
  8
0
 62
     0
100
AcDbLine
 10
632.0219263948286
 20
393.3733877443689
 30
0.0
 11
636.4280477074169
 21
397.7795090569571
 31
0.0
  0
LINE
  5
1F2
330
1EE
100
AcDbEntity
  8
0
 62
     0
100
AcDbLine
 10
629.9362913497747
 20
393.9394031287645
 30
0.0
 11
633.9362913497747
 21
397.9394031287645
 31
0.0
  0
LINE
  5
1F3
330
1EE
100
AcDbEntity
  8
0
 62
     0
100
AcDbLine
 10
627.2846409203252
 20
393.9394031287645
 30
0.0
 11
631.2846409203252
 21
397.9394031287645
 31
0.0
  0
LINE
  5
1F4
330
1EE
100
AcDbEntity
  8
0
 62
     0
100
AcDbLine
 10
625.2681536356094
 20
394.5745662734984
 30
0.0
 11
628.6329904908756
 21
397.9394031287645
 31
0.0
  0
LINE
  5
1F5
330
1EE
100
AcDbEntity
  8
0
 62
     0
100
AcDbLine
 10
625.2681536356094
 20
397.2262167029479
 30
0.0
 11
625.9813400614261
 21
397.9394031287645
 31
0.0
  0
LINE
  5
1F6
330
1EE
100
AcDbEntity
  8
0
 62
     0
100
AcDbLine
 10
625.2681536356094
 20
383.9679645557001
 30
0.0
 11
629.2395922086738
 21
387.9394031287645
 31
0.0
  0
LINE
  5
1F7
330
1EE
100
AcDbEntity
  8
0
 62
     0
100
AcDbLine
 10
633.1322651836641
 20
391.8320761037548
 30
0.0
 11
637.2681536356094
 21
395.9679645557001
 31
0.0
  0
LINE
  5
1F8
330
1EE
100
AcDbEntity
  8
0
 62
     0
100
AcDbLine
 10
626.8912426381233
 20
382.9394031287645
 30
0.0
 11
637.2681536356094
 21
393.3163141262506
 31
0.0
  0
LINE
  5
1F9
330
1EE
100
AcDbEntity
  8
0
 62
     0
100
AcDbLine
 10
629.5428930675728
 20
382.9394031287645
 30
0.0
 11
637.2681536356094
 21
390.664663696801
 31
0.0
  0
LINE
  5
1FA
330
1EE
100
AcDbEntity
  8
0
 62
     0
100
AcDbLine
 10
632.6207149100953
 20
383.3655745418374
 30
0.0
 11
635.9736349253771
 21
386.7184945571192
 31
0.0
  0
LINE
  5
1FB
330
1EE
100
AcDbEntity
  8
0
 62
     0
100
AcDbLine
 10
636.9445434970224
 20
387.6894031287644
 30
0.0
 11
637.2681536356094
 21
388.0130132673514
 31
0.0
  0
LINE
  5
1FC
330
1EE
100
AcDbEntity
  8
0
 62
     0
100
AcDbLine
 10
635.3445170995587
 20
385.5408982385192
 30
0.0
 11
632.2222794205095
 21
388.6631359175684
 31
0.0
  0
LINE
  5
1FD
330
1EE
100
AcDbEntity
  8
0
 62
     0
100
AcDbLine
 10
626.9460122093134
 20
393.9394031287645
 30
0.0
 11
625.2681536356094
 21
395.6172617024685
 31
0.0
  0
LINE
  5
1FE
330
1EE
100
AcDbEntity
  8
0
 62
     0
100
AcDbLine
 10
634.0535669227866
 20
384.1801979858418
 30
0.0
 11
630.2942482892222
 21
387.9395166194061
 31
0.0
  0
LINE
  5
1FF
330
1EE
100
AcDbEntity
  8
0
 62
     0
100
AcDbLine
 10
632.3253434008982
 20
383.2567710782805
 30
0.0
 11
627.6427113504143
 21
387.9394031287645
 31
0.0
  0
LINE
  5
200
330
1EE
100
AcDbEntity
  8
0
 62
     0
100
AcDbLine
 10
629.9910609209647
 20
382.9394031287645
 30
0.0
 11
625.629607278287
 21
387.3008567714422
 31
0.0
  0
LINE
  5
201
330
1EE
100
AcDbEntity
  8
0
 62
     0
100
AcDbLine
 10
627.3394104915151
 20
382.9394031287645
 30
0.0
 11
625.2681536356094
 21
385.0106599846703
 31
0.0
  0
LINE
  5
202
330
1EE
100
AcDbEntity
  8
0
 62
     0
100
AcDbLine
 10
636.185806581814
 20
387.3512591857135
 30
0.0
 11
633.2058567972002
 21
390.3312089703272
 31
0.0
  0
LINE
  5
203
330
1EE
100
AcDbEntity
  8
0
 62
     0
100
AcDbLine
 10
629.5976626387629
 20
393.9394031287645
 30
0.0
 11
625.597662638763
 21
397.9394031287645
 31
0.0
  0
LINE
  5
204
330
1EE
100
AcDbEntity
  8
0
 62
     0
100
AcDbLine
 10
637.2681536356094
 20
388.9205625613677
 30
0.0
 11
628.2493130682126
 21
397.9394031287645
 31
0.0
  0
LINE
  5
205
330
1EE
100
AcDbEntity
  8
0
 62
     0
100
AcDbLine
 10
637.2681536356094
 20
391.5722129908172
 30
0.0
 11
630.9009634976621
 21
397.9394031287645
 31
0.0
  0
LINE
  5
206
330
1EE
100
AcDbEntity
  8
0
 62
     0
100
AcDbLine
 10
637.2681536356094
 20
394.2238634202667
 30
0.0
 11
633.5526139271117
 21
397.9394031287645
 31
0.0
  0
LINE
  5
207
330
1EE
100
AcDbEntity
  8
0
 62
     0
100
AcDbLine
 10
637.2681536356094
 20
396.8755138497163
 30
0.0
 11
636.2042643565612
 21
397.9394031287645
 31
0.0
  0
ENDBLK
  5
208
330
1EE
100
AcDbEntity
  8
0
100
AcDbBlockEnd
  0
BLOCK
  5
20A
330
209
100
AcDbEntity
  8
0
100
AcDbBlockBegin
  2
*X5
 70
     1
 10
0.0
 20
0.0
 30
0.0
  3
*X5
  1

  0
LINE
  5
20B
330
209
100
AcDbEntity
  8
0
 62
     0
100
AcDbLine
 10
636.2681536356094
 20
385.2452463143851
 30
0.0
 11
640.7681536356094
 21
389.7452463143851
 31
0.0
  0
LINE
  5
20C
330
209
100
AcDbEntity
  8
0
 62
     0
100
AcDbLine
 10
643.9623104499887
 20
392.9394031287645
 30
0.0
 11
647.8648922762811
 21
396.8419849550567
 31
0.0
  0
LINE
  5
20D
330
209
100
AcDbEntity
  8
0
 62
     0
100
AcDbLine
 10
637.2681536356094
 20
389.7807802203178
 30
0.0
 11
645.4267765440561
 21
397.9394031287645
 31
0.0
  0
LINE
  5
20E
330
209
100
AcDbEntity
  8
0
 62
     0
100
AcDbLine
 10
637.2681536356094
 20
393.3163141262506
 30
0.0
 11
641.8912426381234
 21
397.9394031287645
 31
0.0
  0
LINE
  5
20F
330
209
100
AcDbEntity
  8
0
 62
     0
100
AcDbLine
 10
637.2681536356094
 20
396.8518480321833
 30
0.0
 11
638.3557087321906
 21
397.9394031287645
 31
0.0
  0
LINE
  5
210
330
209
100
AcDbEntity
  8
0
 62
     0
100
AcDbLine
 10
636.2681536356094
 20
381.7097124084524
 30
0.0
 11
640.7681536356094
 21
386.2097124084523
 31
0.0
  0
LINE
  5
211
330
209
100
AcDbEntity
  8
0
 62
     0
100
AcDbLine
 10
637.0333782618542
 20
378.9394031287645
 30
0.0
 11
641.0333782618542
 21
382.9394031287645
 31
0.0
  0
LINE
  5
212
330
209
100
AcDbEntity
  8
0
 62
     0
100
AcDbLine
 10
640.5689121677871
 20
378.9394031287645
 30
0.0
 11
641.1511789262474
 21
379.5216698872248
 31
0.0
  0
LINE
  5
213
330
209
100
AcDbEntity
  8
0
 62
     0
100
AcDbLine
 10
640.7681536356094
 20
388.0722129908172
 30
0.0
 11
637.2681536356094
 21
391.5722129908171
 31
0.0
  0
LINE
  5
214
330
209
100
AcDbEntity
  8
0
 62
     0
100
AcDbLine
 10
642.703339371199
 20
382.6014933492948
 30
0.0
 11
642.3654295917292
 21
382.9394031287645
 31
0.0
  0
LINE
  5
215
330
209
100
AcDbEntity
  8
0
 62
     0
100
AcDbLine
 10
640.7681536356094
 20
384.5366790848844
 30
0.0
 11
637.2681536356094
 21
388.0366790848844
 31
0.0
  0
LINE
  5
216
330
209
100
AcDbEntity
  8
0
 62
     0
100
AcDbLine
 10
641.5257710217026
 20
380.2435277928586
 30
0.0
 11
636.2681536356094
 21
385.5011451789517
 31
0.0
  0
LINE
  5
217
330
209
100
AcDbEntity
  8
0
 62
     0
100
AcDbLine
 10
639.2943617798638
 20
378.9394031287645
 30
0.0
 11
636.2681536356094
 21
381.9656112730189
 31
0.0
  0
LINE
  5
218
330
209
100
AcDbEntity
  8
0
 62
     0
100
AcDbLine
 10
640.7681536356094
 20
391.6077468967499
 30
0.0
 11
637.2681536356094
 21
395.1077468967499
 31
0.0
  0
LINE
  5
219
330
209
100
AcDbEntity
  8
0
 62
     0
100
AcDbLine
 10
642.9720313095275
 20
392.9394031287645
 30
0.0
 11
637.9720313095275
 21
397.9394031287645
 31
0.0
  0
LINE
  5
21A
330
209
100
AcDbEntity
  8
0
 62
     0
100
AcDbLine
 10
646.5075652154602
 20
392.9394031287645
 30
0.0
 11
641.5075652154602
 21
397.9394031287645
 31
0.0
  0
LINE
  5
21B
330
209
100
AcDbEntity
  8
0
 62
     0
100
AcDbLine
 10
647.5341556143892
 20
395.4483466357682
 30
0.0
 11
645.0430991213929
 21
397.9394031287645
 31
0.0
  0
ENDBLK
  5
21C
330
209
100
AcDbEntity
  8
0
100
AcDbBlockEnd
  0
BLOCK
  5
21E
330
21D
100
AcDbEntity
  8
0
100
AcDbBlockBegin
  2
*X6
 70
     1
 10
0.0
 20
0.0
 30
0.0
  3
*X6
  1

  0
LINE
  5
21F
330
21D
100
AcDbEntity
  8
0
 62
     0
100
AcDbLine
 10
553.8587391125205
 20
372.8394031287644
 30
0.0
 11
555.4587391125206
 21
374.4394031287645
 31
0.0
  0
LINE
  5
220
330
21D
100
AcDbEntity
  8
0
 62
     0
100
AcDbLine
 10
551.0303119877743
 20
372.8394031287644
 30
0.0
 11
552.6303119877744
 21
374.4394031287645
 31
0.0
  0
LINE
  5
221
330
21D
100
AcDbEntity
  8
0
 62
     0
100
AcDbLine
 10
548.2018848630282
 20
372.8394031287644
 30
0.0
 11
549.8018848630282
 21
374.4394031287645
 31
0.0
  0
LINE
  5
222
330
21D
100
AcDbEntity
  8
0
 62
     0
100
AcDbLine
 10
545.373457738282
 20
372.8394031287644
 30
0.0
 11
546.973457738282
 21
374.4394031287645
 31
0.0
  0
LINE
  5
223
330
21D
100
AcDbEntity
  8
0
 62
     0
100
AcDbLine
 10
542.5450306135358
 20
372.8394031287644
 30
0.0
 11
544.1450306135358
 21
374.4394031287645
 31
0.0
  0
LINE
  5
224
330
21D
100
AcDbEntity
  8
0
 62
     0
100
AcDbLine
 10
539.7166034887895
 20
372.8394031287644
 30
0.0
 11
541.3166034887897
 21
374.4394031287645
 31
0.0
  0
LINE
  5
225
330
21D
100
AcDbEntity
  8
0
 62
     0
100
AcDbLine
 10
556.6871662372667
 20
372.8394031287644
 30
0.0
 11
558.2871662372667
 21
374.4394031287645
 31
0.0
  0
LINE
  5
226
330
21D
100
AcDbEntity
  8
0
 62
     0
100
AcDbLine
 10
559.5155933620129
 20
372.8394031287644
 30
0.0
 11
561.1155933620129
 21
374.4394031287645
 31
0.0
  0
LINE
  5
227
330
21D
100
AcDbEntity
  8
0
 62
     0
100
AcDbLine
 10
562.344020486759
 20
372.8394031287644
 30
0.0
 11
563.9440204867591
 21
374.4394031287645
 31
0.0
  0
LINE
  5
228
330
21D
100
AcDbEntity
  8
0
 62
     0
100
AcDbLine
 10
565.1724476115052
 20
372.8394031287644
 30
0.0
 11
566.7724476115053
 21
374.4394031287645
 31
0.0
  0
LINE
  5
229
330
21D
100
AcDbEntity
  8
0
 62
     0
100
AcDbLine
 10
568.0008747362514
 20
372.8394031287644
 30
0.0
 11
569.6008747362516
 21
374.4394031287645
 31
0.0
  0
LINE
  5
22A
330
21D
100
AcDbEntity
  8
0
 62
     0
100
AcDbLine
 10
570.8293018609976
 20
372.8394031287644
 30
0.0
 11
572.4293018609978
 21
374.4394031287645
 31
0.0
  0
ENDBLK
  5
22B
330
21D
100
AcDbEntity
  8
0
100
AcDbBlockEnd
  0
BLOCK
  5
22D
330
22C
100
AcDbEntity
  8
0
100
AcDbBlockBegin
  2
*X7
 70
     1
 10
0.0
 20
0.0
 30
0.0
  3
*X7
  1

  0
LINE
  5
22E
330
22C
100
AcDbEntity
  8
0
 62
     0
100
AcDbLine
 10
550.3409901064292
 20
301.4394031287645
 30
0.0
 11
551.9409901064291
 21
303.0394031287644
 31
0.0
  0
LINE
  5
22F
330
22C
100
AcDbEntity
  8
0
 62
     0
100
AcDbLine
 10
547.512562981683
 20
301.4394031287645
 30
0.0
 11
549.1125629816829
 21
303.0394031287644
 31
0.0
  0
LINE
  5
230
330
22C
100
AcDbEntity
  8
0
 62
     0
100
AcDbLine
 10
544.6841358569368
 20
301.4394031287645
 30
0.0
 11
546.2841358569367
 21
303.0394031287644
 31
0.0
  0
LINE
  5
231
330
22C
100
AcDbEntity
  8
0
 62
     0
100
AcDbLine
 10
541.8557087321906
 20
301.4394031287645
 30
0.0
 11
543.4557087321905
 21
303.0394031287644
 31
0.0
  0
LINE
  5
232
330
22C
100
AcDbEntity
  8
0
 62
     0
100
AcDbLine
 10
539.0272816074444
 20
301.4394031287645
 30
0.0
 11
540.6272816074443
 21
303.0394031287644
 31
0.0
  0
LINE
  5
233
330
22C
100
AcDbEntity
  8
0
 62
     0
100
AcDbLine
 10
553.1694172311754
 20
301.4394031287645
 30
0.0
 11
554.7694172311753
 21
303.0394031287644
 31
0.0
  0
LINE
  5
234
330
22C
100
AcDbEntity
  8
0
 62
     0
100
AcDbLine
 10
555.9978443559216
 20
301.4394031287645
 30
0.0
 11
557.5978443559214
 21
303.0394031287644
 31
0.0
  0
LINE
  5
235
330
22C
100
AcDbEntity
  8
0
 62
     0
100
AcDbLine
 10
558.8262714806677
 20
301.4394031287645
 30
0.0
 11
560.4262714806676
 21
303.0394031287644
 31
0.0
  0
LINE
  5
236
330
22C
100
AcDbEntity
  8
0
 62
     0
100
AcDbLine
 10
561.6546986054139
 20
301.4394031287645
 30
0.0
 11
563.2546986054138
 21
303.0394031287644
 31
0.0
  0
LINE
  5
237
330
22C
100
AcDbEntity
  8
0
 62
     0
100
AcDbLine
 10
564.4831257301602
 20
301.4394031287645
 30
0.0
 11
566.0831257301601
 21
303.0394031287644
 31
0.0
  0
LINE
  5
238
330
22C
100
AcDbEntity
  8
0
 62
     0
100
AcDbLine
 10
567.3115528549064
 20
301.4394031287645
 30
0.0
 11
568.9115528549063
 21
303.0394031287644
 31
0.0
  0
ENDBLK
  5
239
330
22C
100
AcDbEntity
  8
0
100
AcDbBlockEnd
  0
BLOCK
  5
23B
330
23A
100
AcDbEntity
  8
0
100
AcDbBlockBegin
  2
*X8
 70
     1
 10
0.0
 20
0.0
 30
0.0
  3
*X8
  1

  0
LINE
  5
23C
330
23A
100
AcDbEntity
  8
0
 62
     0
100
AcDbLine
 10
569.2308699188234
 20
293.4394031287645
 30
0.0
 11
567.6308699188233
 21
295.0394031287645
 31
0.0
  0
LINE
  5
23D
330
23A
100
AcDbEntity
  8
0
 62
     0
100
AcDbLine
 10
566.4024427940772
 20
293.4394031287645
 30
0.0
 11
564.8024427940771
 21
295.0394031287645
 31
0.0
  0
LINE
  5
23E
330
23A
100
AcDbEntity
  8
0
 62
     0
100
AcDbLine
 10
563.5740156693309
 20
293.4394031287645
 30
0.0
 11
561.9740156693309
 21
295.0394031287645
 31
0.0
  0
LINE
  5
23F
330
23A
100
AcDbEntity
  8
0
 62
     0
100
AcDbLine
 10
560.7455885445847
 20
293.4394031287645
 30
0.0
 11
559.1455885445847
 21
295.0394031287645
 31
0.0
  0
LINE
  5
240
330
23A
100
AcDbEntity
  8
0
 62
     0
100
AcDbLine
 10
557.9171614198386
 20
293.4394031287645
 30
0.0
 11
556.3171614198386
 21
295.0394031287645
 31
0.0
  0
LINE
  5
241
330
23A
100
AcDbEntity
  8
0
 62
     0
100
AcDbLine
 10
555.0887342950924
 20
293.4394031287645
 30
0.0
 11
553.4887342950923
 21
295.0394031287645
 31
0.0
  0
LINE
  5
242
330
23A
100
AcDbEntity
  8
0
 62
     0
100
AcDbLine
 10
552.2603071703461
 20
293.4394031287645
 30
0.0
 11
550.6603071703461
 21
295.0394031287645
 31
0.0
  0
LINE
  5
243
330
23A
100
AcDbEntity
  8
0
 62
     0
100
AcDbLine
 10
549.4318800455999
 20
293.4394031287645
 30
0.0
 11
547.8318800455999
 21
295.0394031287645
 31
0.0
  0
LINE
  5
244
330
23A
100
AcDbEntity
  8
0
 62
     0
100
AcDbLine
 10
546.6034529208537
 20
293.4394031287645
 30
0.0
 11
545.0034529208538
 21
295.0394031287645
 31
0.0
  0
LINE
  5
245
330
23A
100
AcDbEntity
  8
0
 62
     0
100
AcDbLine
 10
543.7750257961076
 20
293.4394031287645
 30
0.0
 11
542.1750257961076
 21
295.0394031287645
 31
0.0
  0
LINE
  5
246
330
23A
100
AcDbEntity
  8
0
 62
     0
100
AcDbLine
 10
540.9465986713614
 20
293.4394031287645
 30
0.0
 11
539.3465986713614
 21
295.0394031287645
 31
0.0
  0
LINE
  5
247
330
23A
100
AcDbEntity
  8
0
 62
     0
100
AcDbLine
 10
538.1181715466152
 20
293.4394031287645
 30
0.0
 11
537.7681536356091
 21
293.7894210397706
 31
0.0
  0
LINE
  5
248
330
23A
100
AcDbEntity
  8
0
 62
     0
100
AcDbLine
 10
537.7681536356091
 20
293.7894210397706
 30
0.0
 11
536.5181715466152
 21
295.0394031287646
 31
0.0
  0
LINE
  5
249
330
23A
100
AcDbEntity
  8
0
 62
     0
100
AcDbLine
 10
535.289744421869
 20
293.4394031287645
 30
0.0
 11
533.689744421869
 21
295.0394031287646
 31
0.0
  0
LINE
  5
24A
330
23A
100
AcDbEntity
  8
0
 62
     0
100
AcDbLine
 10
532.4613172971228
 20
293.4394031287645
 30
0.0
 11
530.8613172971227
 21
295.0394031287646
 31
0.0
  0
LINE
  5
24B
330
23A
100
AcDbEntity
  8
0
 62
     0
100
AcDbLine
 10
529.6328901723766
 20
293.4394031287645
 30
0.0
 11
528.0328901723767
 21
295.0394031287646
 31
0.0
  0
LINE
  5
24C
330
23A
100
AcDbEntity
  8
0
 62
     0
100
AcDbLine
 10
526.8044630476305
 20
293.4394031287645
 30
0.0
 11
525.2044630476304
 21
295.0394031287646
 31
0.0
  0
LINE
  5
24D
330
23A
100
AcDbEntity
  8
0
 62
     0
100
AcDbLine
 10
523.9760359228843
 20
293.4394031287645
 30
0.0
 11
522.3760359228842
 21
295.0394031287646
 31
0.0
  0
LINE
  5
24E
330
23A
100
AcDbEntity
  8
0
 62
     0
100
AcDbLine
 10
521.147608798138
 20
293.4394031287645
 30
0.0
 11
521.0006887584923
 21
293.5863231684103
 31
0.0
  0
LINE
  5
24F
330
23A
100
AcDbEntity
  8
0
 62
     0
100
AcDbLine
 10
527.0857039147625
 20
380.8394031287644
 30
0.0
 11
525.6316753787594
 21
382.2934316647674
 31
0.0
  0
LINE
  5
250
330
23A
100
AcDbEntity
  8
0
 62
     0
100
AcDbLine
 10
529.9141310395087
 20
380.8394031287644
 30
0.0
 11
528.3141310395087
 21
382.4394031287645
 31
0.0
  0
LINE
  5
251
330
23A
100
AcDbEntity
  8
0
 62
     0
100
AcDbLine
 10
532.7425581642549
 20
380.8394031287644
 30
0.0
 11
531.1425581642549
 21
382.4394031287645
 31
0.0
  0
LINE
  5
252
330
23A
100
AcDbEntity
  8
0
 62
     0
100
AcDbLine
 10
535.5709852890011
 20
380.8394031287644
 30
0.0
 11
533.9709852890011
 21
382.4394031287645
 31
0.0
  0
LINE
  5
253
330
23A
100
AcDbEntity
  8
0
 62
     0
100
AcDbLine
 10
538.3994124137473
 20
380.8394031287644
 30
0.0
 11
536.7994124137472
 21
382.4394031287645
 31
0.0
  0
LINE
  5
254
330
23A
100
AcDbEntity
  8
0
 62
     0
100
AcDbLine
 10
541.2278395384935
 20
380.8394031287644
 30
0.0
 11
539.6278395384934
 21
382.4394031287645
 31
0.0
  0
LINE
  5
255
330
23A
100
AcDbEntity
  8
0
 62
     0
100
AcDbLine
 10
544.0562666632396
 20
380.8394031287644
 30
0.0
 11
542.4562666632396
 21
382.4394031287645
 31
0.0
  0
LINE
  5
256
330
23A
100
AcDbEntity
  8
0
 62
     0
100
AcDbLine
 10
546.8846937879858
 20
380.8394031287644
 30
0.0
 11
545.2846937879858
 21
382.4394031287645
 31
0.0
  0
LINE
  5
257
330
23A
100
AcDbEntity
  8
0
 62
     0
100
AcDbLine
 10
549.713120912732
 20
380.8394031287644
 30
0.0
 11
548.113120912732
 21
382.4394031287645
 31
0.0
  0
LINE
  5
258
330
23A
100
AcDbEntity
  8
0
 62
     0
100
AcDbLine
 10
552.5415480374782
 20
380.8394031287644
 30
0.0
 11
550.9415480374782
 21
382.4394031287645
 31
0.0
  0
LINE
  5
259
330
23A
100
AcDbEntity
  8
0
 62
     0
100
AcDbLine
 10
555.3699751622245
 20
380.8394031287644
 30
0.0
 11
553.7699751622243
 21
382.4394031287645
 31
0.0
  0
LINE
  5
25A
330
23A
100
AcDbEntity
  8
0
 62
     0
100
AcDbLine
 10
558.1984022869705
 20
380.8394031287644
 30
0.0
 11
556.5984022869705
 21
382.4394031287645
 31
0.0
  0
LINE
  5
25B
330
23A
100
AcDbEntity
  8
0
 62
     0
100
AcDbLine
 10
561.0268294117168
 20
380.8394031287644
 30
0.0
 11
559.4268294117167
 21
382.4394031287645
 31
0.0
  0
LINE
  5
25C
330
23A
100
AcDbEntity
  8
0
 62
     0
100
AcDbLine
 10
563.855256536463
 20
380.8394031287644
 30
0.0
 11
562.2552565364629
 21
382.4394031287645
 31
0.0
  0
LINE
  5
25D
330
23A
100
AcDbEntity
  8
0
 62
     0
100
AcDbLine
 10
566.6836836612092
 20
380.8394031287644
 30
0.0
 11
565.0836836612092
 21
382.4394031287645
 31
0.0
  0
LINE
  5
25E
330
23A
100
AcDbEntity
  8
0
 62
     0
100
AcDbLine
 10
569.5121107859554
 20
380.8394031287644
 30
0.0
 11
567.9121107859552
 21
382.4394031287645
 31
0.0
  0
LINE
  5
25F
330
23A
100
AcDbEntity
  8
0
 62
     0
100
AcDbLine
 10
571.3477192114201
 20
381.8322218280459
 30
0.0
 11
570.7405379107014
 21
382.4394031287645
 31
0.0
  0
ENDBLK
  5
260
330
23A
100
AcDbEntity
  8
0
100
AcDbBlockEnd
  0
BLOCK
  5
262
330
261
100
AcDbEntity
  8
0
100
AcDbBlockBegin
  2
*X9
 70
     1
 10
0.0
 20
0.0
 30
0.0
  3
*X9
  1

  0
LINE
  5
263
330
261
100
AcDbEntity
  8
0
 62
     0
100
AcDbLine
 10
626.0806532808791
 20
380.8394031287645
 30
0.0
 11
624.4806532808791
 21
382.4394031287645
 31
0.0
  0
LINE
  5
264
330
261
100
AcDbEntity
  8
0
 62
     0
100
AcDbLine
 10
623.252226156133
 20
380.8394031287645
 30
0.0
 11
621.6522261561329
 21
382.4394031287645
 31
0.0
  0
LINE
  5
265
330
261
100
AcDbEntity
  8
0
 62
     0
100
AcDbLine
 10
620.4237990313868
 20
380.8394031287645
 30
0.0
 11
618.8237990313866
 21
382.4394031287645
 31
0.0
  0
LINE
  5
266
330
261
100
AcDbEntity
  8
0
 62
     0
100
AcDbLine
 10
617.5953719066406
 20
380.8394031287645
 30
0.0
 11
615.9953719066406
 21
382.4394031287645
 31
0.0
  0
LINE
  5
267
330
261
100
AcDbEntity
  8
0
 62
     0
100
AcDbLine
 10
628.9090804056253
 20
380.8394031287645
 30
0.0
 11
627.3090804056253
 21
382.4394031287645
 31
0.0
  0
LINE
  5
268
330
261
100
AcDbEntity
  8
0
 62
     0
100
AcDbLine
 10
631.572020127783
 20
381.004890531353
 30
0.0
 11
630.1358464824631
 21
382.4410641766728
 31
0.0
  0
LINE
  5
269
330
261
100
AcDbEntity
  8
0
 62
     0
100
AcDbLine
 10
633.636531883737
 20
381.7688059001451
 30
0.0
 11
632.4434701363992
 21
382.961867647483
 31
0.0
  0
LINE
  5
26A
330
261
100
AcDbEntity
  8
0
 62
     0
100
AcDbLine
 10
635.2675957812066
 20
382.9661691274217
 30
0.0
 11
634.1359759660171
 21
384.0977889426111
 31
0.0
  0
ENDBLK
  5
26B
330
261
100
AcDbEntity
  8
0
100
AcDbBlockEnd
  0
BLOCK
  5
26D
330
26C
100
AcDbEntity
  8
0
100
AcDbBlockBegin
  2
*X10
 70
     1
 10
0.0
 20
0.0
 30
0.0
  3
*X10
  1

  0
LINE
  5
26E
330
26C
100
AcDbEntity
  8
0
 62
     0
100
AcDbLine
 10
627.2615215677872
 20
369.8746532158839
 30
0.0
 11
628.8615215677874
 21
371.4746532158842
 31
0.0
  0
LINE
  5
26F
330
26C
100
AcDbEntity
  8
0
 62
     0
100
AcDbLine
 10
624.5236544822828
 20
369.9652132551258
 30
0.0
 11
626.0330944430412
 21
371.4746532158842
 31
0.0
  0
LINE
  5
270
330
26C
100
AcDbEntity
  8
0
 62
     0
100
AcDbLine
 10
622.1543890151272
 20
370.4243749127163
 30
0.0
 11
623.204667318295
 21
371.4746532158842
 31
0.0
  0
LINE
  5
271
330
26C
100
AcDbEntity
  8
0
 62
     0
100
AcDbLine
 10
619.9766000204919
 20
371.0750130428272
 30
0.0
 11
620.3762401935489
 21
371.4746532158842
 31
0.0
  0
LINE
  5
272
330
26C
100
AcDbEntity
  8
0
 62
     0
100
AcDbLine
 10
630.0899486925333
 20
369.8746532158839
 30
0.0
 11
631.6899486925336
 21
371.4746532158842
 31
0.0
  0
LINE
  5
273
330
26C
100
AcDbEntity
  8
0
 62
     0
100
AcDbLine
 10
633.1104086779771
 20
370.0666860765815
 30
0.0
 11
634.5183758172798
 21
371.4746532158842
 31
0.0
  0
LINE
  5
274
330
26C
100
AcDbEntity
  8
0
 62
     0
100
AcDbLine
 10
636.8863198834108
 20
371.0141701572689
 30
0.0
 11
637.3468029420259
 21
371.4746532158842
 31
0.0
  0
ENDBLK
  5
275
330
26C
100
AcDbEntity
  8
0
100
AcDbBlockEnd
  0
BLOCK
  5
42B
330
420
100
AcDbEntity
  8
0
100
AcDbBlockBegin
  2
*D11
 70
     1
 10
0.0
 20
0.0
 30
0.0
  3
*D11
  1

  0
LINE
  5
8EA
330
420
100
AcDbEntity
  8
BEM
 62
     0
370
    -2
100
AcDbLine
 10
234.9999999999998
 20
623.7704269040013
 30
0.0
 11
189.8315261437971
 21
623.7704269040013
 31
0.0
  0
LINE
  5
8EB
330
420
100
AcDbEntity
  8
BEM
 62
     0
370
    -2
100
AcDbLine
 10
203.4999999999998
 20
723.7704269040015
 30
0.0
 11
189.8315261437972
 21
723.7704269040015
 31
0.0
  0
LINE
  5
8EC
330
420
100
AcDbEntity
  8
BEM
 62
     0
370
    -2
100
AcDbLine
 10
191.8315261437971
 20
630.7704269040012
 30
0.0
 11
191.8315261437972
 21
716.7704269040015
 31
0.0
  0
SOLID
  5
8ED
330
420
100
AcDbEntity
  8
BEM
 62
     0
100
AcDbTrace
 10
190.6648594771305
 20
630.7704269040012
 30
0.0
 11
192.9981928104638
 21
630.7704269040012
 31
0.0
 12
191.8315261437971
 22
623.7704269040013
 32
0.0
 13
191.8315261437971
 23
623.7704269040013
 33
0.0
  0
SOLID
  5
8EE
330
420
100
AcDbEntity
  8
BEM
 62
     0
100
AcDbTrace
 10
190.6648594771305
 20
716.7704269040015
 30
0.0
 11
192.9981928104638
 21
716.7704269040015
 31
0.0
 12
191.8315261437972
 22
723.7704269040015
 32
0.0
 13
191.8315261437972
 23
723.7704269040015
 33
0.0
  0
MTEXT
  5
8EF
330
420
100
AcDbEntity
  8
BEM
 62
     1
100
AcDbMText
 10
185.331526143797
 20
673.7704269040014
 30
0.0
 40
7.0
 41
0.0
 71
     5
 72
     1
  1
\A1;min.100-max.170
 11
0.0000000000000001
 21
1.0
 31
0.0
 73
     1
 44
1.0
  0
POINT
  5
8F0
330
420
100
AcDbEntity
  8
DEFPOINTS
 62
     0
100
AcDbPoint
 10
236.9999999999998
 20
623.7704269040013
 30
0.0
  0
POINT
  5
8F1
330
420
100
AcDbEntity
  8
DEFPOINTS
 62
     0
100
AcDbPoint
 10
205.4999999999998
 20
723.7704269040015
 30
0.0
  0
POINT
  5
8F2
330
420
100
AcDbEntity
  8
DEFPOINTS
 62
     0
100
AcDbPoint
 10
191.8315261437972
 20
723.7704269040015
 30
0.0
  0
ENDBLK
  5
42C
330
420
100
AcDbEntity
  8
0
100
AcDbBlockEnd
  0
BLOCK
  5
438
330
42D
100
AcDbEntity
  8
0
100
AcDbBlockBegin
  2
*D12
 70
     1
 10
0.0
 20
0.0
 30
0.0
  3
*D12
  1

  0
LINE
  5
901
330
42D
100
AcDbEntity
  8
BEM
 62
     0
370
    -2
100
AcDbLine
 10
335.4999999999998
 20
503.7704269040013
 30
0.0
 11
405.7959781471706
 21
503.7704269040012
 31
0.0
  0
LINE
  5
902
330
42D
100
AcDbEntity
  8
BEM
 62
     0
370
    -2
100
AcDbLine
 10
390.4999999999998
 20
723.7704269040015
 30
0.0
 11
405.7959781471707
 21
723.7704269040015
 31
0.0
  0
LINE
  5
903
330
42D
100
AcDbEntity
  8
BEM
 62
     0
370
    -2
100
AcDbLine
 10
403.7959781471705
 20
510.7704269040012
 30
0.0
 11
403.7959781471706
 21
716.7704269040015
 31
0.0
  0
SOLID
  5
904
330
42D
100
AcDbEntity
  8
BEM
 62
     0
100
AcDbTrace
 10
402.6293114805039
 20
510.7704269040012
 30
0.0
 11
404.9626448138373
 21
510.7704269040012
 31
0.0
 12
403.7959781471705
 22
503.7704269040012
 32
0.0
 13
403.7959781471705
 23
503.7704269040012
 33
0.0
  0
SOLID
  5
905
330
42D
100
AcDbEntity
  8
BEM
 62
     0
100
AcDbTrace
 10
402.629311480504
 20
716.7704269040015
 30
0.0
 11
404.9626448138373
 21
716.7704269040015
 31
0.0
 12
403.7959781471706
 22
723.7704269040015
 32
0.0
 13
403.7959781471706
 23
723.7704269040015
 33
0.0
  0
MTEXT
  5
906
330
42D
100
AcDbEntity
  8
BEM
 62
     1
100
AcDbMText
 10
397.2959781471706
 20
613.7704269040015
 30
0.0
 40
7.0
 41
0.0
 71
     5
 72
     1
  1
\A1;220
 11
0.0000000000000001
 21
1.0
 31
0.0
 73
     1
 44
1.0
  0
POINT
  5
907
330
42D
100
AcDbEntity
  8
DEFPOINTS
 62
     0
100
AcDbPoint
 10
333.4999999999998
 20
503.7704269040013
 30
0.0
  0
POINT
  5
908
330
42D
100
AcDbEntity
  8
DEFPOINTS
 62
     0
100
AcDbPoint
 10
388.4999999999998
 20
723.7704269040015
 30
0.0
  0
POINT
  5
909
330
42D
100
AcDbEntity
  8
DEFPOINTS
 62
     0
100
AcDbPoint
 10
403.7959781471706
 20
723.7704269040015
 30
0.0
  0
ENDBLK
  5
439
330
42D
100
AcDbEntity
  8
0
100
AcDbBlockEnd
  0
BLOCK
  5
445
330
43A
100
AcDbEntity
  8
0
100
AcDbBlockBegin
  2
*D13
 70
     1
 10
0.0
 20
0.0
 30
0.0
  3
*D13
  1

  0
LINE
  5
8E1
330
43A
100
AcDbEntity
  8
BEM
 62
     0
370
    -2
100
AcDbLine
 10
388.4999999999998
 20
725.7704269040015
 30
0.0
 11
388.4999999999998
 21
735.1550031782477
 31
0.0
  0
LINE
  5
8E2
330
43A
100
AcDbEntity
  8
BEM
 62
     0
370
    -2
100
AcDbLine
 10
205.4999999999998
 20
725.7704269040015
 30
0.0
 11
205.4999999999998
 21
735.1550031782477
 31
0.0
  0
LINE
  5
8E3
330
43A
100
AcDbEntity
  8
BEM
 62
     0
370
    -2
100
AcDbLine
 10
381.4999999999998
 20
733.1550031782477
 30
0.0
 11
212.4999999999998
 21
733.1550031782477
 31
0.0
  0
SOLID
  5
8E4
330
43A
100
AcDbEntity
  8
BEM
 62
     0
100
AcDbTrace
 10
381.4999999999998
 20
734.3216698449143
 30
0.0
 11
381.4999999999998
 21
731.9883365115811
 31
0.0
 12
388.4999999999998
 22
733.1550031782477
 32
0.0
 13
388.4999999999998
 23
733.1550031782477
 33
0.0
  0
SOLID
  5
8E5
330
43A
100
AcDbEntity
  8
BEM
 62
     0
100
AcDbTrace
 10
212.4999999999998
 20
734.3216698449143
 30
0.0
 11
212.4999999999998
 21
731.9883365115811
 31
0.0
 12
205.4999999999998
 22
733.1550031782477
 32
0.0
 13
205.4999999999998
 23
733.1550031782477
 33
0.0
  0
MTEXT
  5
8E6
330
43A
100
AcDbEntity
  8
BEM
 62
     1
100
AcDbMText
 10
296.9999999999998
 20
739.6550031782477
 30
0.0
 40
7.0
 41
0.0
 71
     5
 72
     1
  1
\A1;%%c183
 73
     1
 44
1.0
  0
POINT
  5
8E7
330
43A
100
AcDbEntity
  8
DEFPOINTS
 62
     0
100
AcDbPoint
 10
388.4999999999998
 20
723.7704269040015
 30
0.0
  0
POINT
  5
8E8
330
43A
100
AcDbEntity
  8
DEFPOINTS
 62
     0
100
AcDbPoint
 10
205.4999999999998
 20
723.7704269040015
 30
0.0
  0
POINT
  5
8E9
330
43A
100
AcDbEntity
  8
DEFPOINTS
 62
     0
100
AcDbPoint
 10
205.4999999999998
 20
733.1550031782477
 30
0.0
  0
ENDBLK
  5
446
330
43A
100
AcDbEntity
  8
0
100
AcDbBlockEnd
  0
BLOCK
  5
452
330
447
100
AcDbEntity
  8
0
100
AcDbBlockBegin
  2
*D14
 70
     1
 10
0.0
 20
0.0
 30
0.0
  3
*D14
  1

  0
LINE
  5
843
330
447
100
AcDbEntity
  8
BEM
 62
     0
370
    -2
100
AcDbLine
 10
333.4999999999998
 20
111.5924155812777
 30
0.0
 11
333.4999999999998
 21
75.47740579990551
 31
0.0
  0
LINE
  5
844
330
447
100
AcDbEntity
  8
BEM
 62
     0
370
    -2
100
AcDbLine
 10
260.4999999999998
 20
111.5924155812777
 30
0.0
 11
260.4999999999998
 21
75.47740579990551
 31
0.0
  0
LINE
  5
845
330
447
100
AcDbEntity
  8
BEM
 62
     0
370
    -2
100
AcDbLine
 10
326.4999999999998
 20
77.47740579990551
 30
0.0
 11
267.4999999999998
 21
77.47740579990551
 31
0.0
  0
SOLID
  5
846
330
447
100
AcDbEntity
  8
BEM
 62
     0
100
AcDbTrace
 10
326.4999999999998
 20
78.64407246657219
 30
0.0
 11
326.4999999999998
 21
76.31073913323884
 31
0.0
 12
333.4999999999998
 22
77.47740579990551
 32
0.0
 13
333.4999999999998
 23
77.47740579990551
 33
0.0
  0
SOLID
  5
847
330
447
100
AcDbEntity
  8
BEM
 62
     0
100
AcDbTrace
 10
267.4999999999998
 20
78.64407246657219
 30
0.0
 11
267.4999999999998
 21
76.31073913323884
 31
0.0
 12
260.4999999999998
 22
77.47740579990551
 32
0.0
 13
260.4999999999998
 23
77.47740579990551
 33
0.0
  0
MTEXT
  5
848
330
447
100
AcDbEntity
  8
BEM
 62
     1
100
AcDbMText
 10
296.9999999999998
 20
83.97740579990552
 30
0.0
 40
7.0
 41
0.0
 71
     5
 72
     1
  1
\A1;%%C73
 73
     1
 44
1.0
  0
POINT
  5
849
330
447
100
AcDbEntity
  8
DEFPOINTS
 62
     0
100
AcDbPoint
 10
333.4999999999998
 20
113.5924155812777
 30
0.0
  0
POINT
  5
84A
330
447
100
AcDbEntity
  8
DEFPOINTS
 62
     0
100
AcDbPoint
 10
260.4999999999998
 20
113.5924155812777
 30
0.0
  0
POINT
  5
84B
330
447
100
AcDbEntity
  8
DEFPOINTS
 62
     0
100
AcDbPoint
 10
260.4999999999998
 20
77.47740579990551
 30
0.0
  0
ENDBLK
  5
453
330
447
100
AcDbEntity
  8
0
100
AcDbBlockEnd
  0
BLOCK
  5
45F
330
454
100
AcDbEntity
  8
0
100
AcDbBlockBegin
  2
*D15
 70
     1
 10
0.0
 20
0.0
 30
0.0
  3
*D15
  1

  0
LINE
  5
8D8
330
454
100
AcDbEntity
  8
BEM
 62
     0
370
    -2
100
AcDbLine
 10
259.3748866352592
 20
103.5924155812777
 30
0.0
 11
188.35754963648
 21
103.5924155812777
 31
0.0
  0
LINE
  5
8D9
330
454
100
AcDbEntity
  8
BEM
 62
     0
370
    -2
100
AcDbLine
 10
245.2499999999989
 20
602.2704269040015
 30
0.0
 11
188.3575496364801
 21
602.2704269040015
 31
0.0
  0
LINE
  5
8DA
330
454
100
AcDbEntity
  8
BEM
 62
     0
370
    -2
100
AcDbLine
 10
190.35754963648
 20
110.5924155812777
 30
0.0
 11
190.3575496364801
 21
595.2704269040014
 31
0.0
  0
SOLID
  5
8DB
330
454
100
AcDbEntity
  8
BEM
 62
     0
100
AcDbTrace
 10
189.1908829698133
 20
110.5924155812777
 30
0.0
 11
191.5242163031467
 21
110.5924155812777
 31
0.0
 12
190.35754963648
 22
103.5924155812777
 32
0.0
 13
190.35754963648
 23
103.5924155812777
 33
0.0
  0
SOLID
  5
8DC
330
454
100
AcDbEntity
  8
BEM
 62
     0
100
AcDbTrace
 10
189.1908829698135
 20
595.2704269040014
 30
0.0
 11
191.5242163031468
 21
595.2704269040014
 31
0.0
 12
190.3575496364801
 22
602.2704269040015
 32
0.0
 13
190.3575496364801
 23
602.2704269040015
 33
0.0
  0
MTEXT
  5
8DD
330
454
100
AcDbEntity
  8
BEM
 62
     1
100
AcDbMText
 10
183.85754963648
 20
352.9314212426397
 30
0.0
 40
7.0
 41
0.0
 71
     5
 72
     1
  1
\A1;2500
 11
0.0000000000000001
 21
1.0
 31
0.0
 73
     1
 44
1.0
  0
POINT
  5
8DE
330
454
100
AcDbEntity
  8
DEFPOINTS
 62
     0
100
AcDbPoint
 10
261.3748866352592
 20
103.5924155812777
 30
0.0
  0
POINT
  5
8DF
330
454
100
AcDbEntity
  8
DEFPOINTS
 62
     0
100
AcDbPoint
 10
247.2499999999989
 20
602.2704269040015
 30
0.0
  0
POINT
  5
8E0
330
454
100
AcDbEntity
  8
DEFPOINTS
 62
     0
100
AcDbPoint
 10
190.3575496364801
 20
602.2704269040015
 30
0.0
  0
ENDBLK
  5
460
330
454
100
AcDbEntity
  8
0
100
AcDbBlockEnd
  0
ENDSEC
  0
SECTION
  2
ENTITIES
  0
TEXT
  5
8F
330
1E
100
AcDbEntity
  8
VOLL
100
AcDbText
 10
78.07675471698113
 20
31.02594776470585
 30
0.0
 40
1.8
  1

  7
GREEKS
100
AcDbText
  0
LINE
  5
36D
330
1E
100
AcDbEntity
  8
STEMPEL
100
AcDbLine
 10
205.4999999999998
 20
723.7704269040015
 30
0.0
 11
205.4999999999998
 21
721.7704269040017
 31
0.0
  0
LINE
  5
36E
330
1E
100
AcDbEntity
  8
STEMPEL
100
AcDbLine
 10
260.4999999999999
 20
697.7704269040017
 30
0.0
 11
260.4999999999999
 21
683.7704269040017
 31
0.0
  0
LINE
  5
36F
330
1E
100
AcDbEntity
  8
STEMPEL
100
AcDbLine
 10
333.4999999999998
 20
697.7704269040017
 30
0.0
 11
333.4999999999998
 21
683.7704269040017
 31
0.0
  0
LINE
  5
370
330
1E
100
AcDbEntity
  8
STEMPEL
100
AcDbLine
 10
249.4999999999998
 20
721.7704269040017
 30
0.0
 11
254.4999999999998
 21
697.7704269040017
 31
0.0
  0
LINE
  5
371
330
1E
100
AcDbEntity
  8
STEMPEL
100
AcDbLine
 10
236.9999999999998
 20
602.2704269040015
 30
0.0
 11
237.9999999999998
 21
603.2704269040014
 31
0.0
  0
LINE
  5
372
330
1E
100
AcDbEntity
  8
STEMPEL
100
AcDbLine
 10
241.9999999999998
 20
606.7704269040015
 30
0.0
 11
241.9999999999999
 21
612.8580919663038
 31
0.0
  0
POINT
  5
373
330
1E
100
AcDbEntity
  8
DEFPOINTS
  6
ByBlock
 62
     0
100
AcDbPoint
 10
243.9999999999998
 20
599.2704269040014
 30
0.0
  0
POINT
  5
374
330
1E
100
AcDbEntity
  8
DEFPOINTS
  6
ByBlock
 62
     0
100
AcDbPoint
 10
236.9999999999998
 20
591.2704269040014
 30
0.0
  0
LINE
  5
375
330
1E
100
AcDbEntity
  8
STEMPEL
100
AcDbLine
 10
240.9999999999998
 20
596.2704269040015
 30
0.0
 11
240.9999999999998
 21
591.2704269040013
 31
0.0
  0
LINE
  5
376
330
1E
100
AcDbEntity
  8
STEMPEL
100
AcDbLine
 10
236.9999999999998
 20
602.2704269040012
 30
0.0
 11
236.9999999999998
 21
591.2704269040014
 31
0.0
  0
LINE
  5
377
330
1E
100
AcDbEntity
  8
STEMPEL
100
AcDbLine
 10
236.9999999999998
 20
603.2704269040014
 30
0.0
 11
236.9999999999998
 21
623.7704269040013
 31
0.0
  0
LINE
  5
378
330
1E
100
AcDbEntity
  8
STEMPEL
100
AcDbLine
 10
251.9999999999998
 20
623.7704269040013
 30
0.0
 11
255.4999999999998
 21
627.2704269040012
 31
0.0
  0
LINE
  5
379
330
1E
100
AcDbEntity
  8
STEMPEL
100
AcDbLine
 10
249.6030535398938
 20
620.2704269040013
 30
0.0
 11
260.2096552576921
 21
620.2704269040013
 31
0.0
  0
LINE
  5
37A
330
1E
100
AcDbEntity
  8
STEMPEL
100
AcDbLine
 10
247.5
 20
602.2704269040015
 30
0.0
 11
255.9999999999998
 21
602.2704269040015
 31
0.0
  0
LINE
  5
37B
330
1E
100
AcDbEntity
  8
STEMPEL
100
AcDbLine
 10
247.5
 20
602.2704269040015
 30
0.0
 11
247.5
 21
603.2704269040014
 31
0.0
  0
LINE
  5
37C
330
1E
100
AcDbEntity
  8
STEMPEL
100
AcDbLine
 10
247.25
 20
603.2704269040014
 30
0.0
 11
247.25
 21
602.2704269040015
 31
0.0
  0
LINE
  5
37D
330
1E
100
AcDbEntity
  8
STEMPEL
100
AcDbLine
 10
249.7937539928612
 20
601.0120424265681
 30
0.0
 11
250.8293374286745
 21
602.2704269040015
 31
0.0
  0
LINE
  5
37E
330
1E
100
AcDbEntity
  8
BEM
100
AcDbLine
 10
250.8293374286745
 20
602.2704269040015
 30
0.0
 11
250.8293374286745
 21
602.2704269040015
 31
0.0
  0
LINE
  5
37F
330
1E
100
AcDbEntity
  8
STEMPEL
100
AcDbLine
 10
250.8293374286745
 20
602.2704269040015
 30
0.0
 11
251.3042089411422
 21
601.8858835353861
 31
0.0
  0
LINE
  5
380
330
1E
100
AcDbEntity
  8
STEMPEL
100
AcDbLine
 10
249.8126348121116
 20
601.0349853677588
 30
0.0
 11
250.275922346299
 21
600.6598225197953
 31
0.0
  0
LINE
  5
381
330
1E
100
AcDbEntity
  8
STEMPEL
100
AcDbLine
 10
255.9999999999998
 20
602.2704269040015
 30
0.0
 11
247.25
 21
602.2704269040015
 31
0.0
  0
POINT
  5
382
330
1E
100
AcDbEntity
  8
DEFPOINTS
  6
ByBlock
 62
     0
100
AcDbPoint
 10
247.5
 20
602.2704269040015
 30
0.0
  0
LINE
  5
383
330
1E
100
AcDbEntity
  8
STEMPEL
100
AcDbLine
 10
251.9999999999998
 20
608.8686874769834
 30
0.0
 11
251.9999999999998
 21
606.7704269040015
 31
0.0
  0
LWPOLYLINE
  5
384
330
1E
100
AcDbEntity
  8
HILF
100
AcDbPolyline
 90
        4
 70
     0
 43
0.0
 10
258.1165
 20
605.6926430526276
 42
-0.0006321624436858
 10
258.3617509899557
 20
605.5550756509705
 42
-0.1109685586490079
 10
260.5216902726509
 20
603.6084928465413
 42
-0.0036411918816774
 10
260.5727159164147
 20
603.5353293360178
 42
-0.0419838312641144
  0
LINE
  5
385
330
1E
100
AcDbEntity
  8
STEMPEL
100
AcDbLine
 10
246.9999999999998
 20
592.2704269040015
 30
0.0
 11
247.9999999999998
 21
591.2704269040014
 31
0.0
  0
LINE
  5
386
330
1E
100
AcDbEntity
  8
STEMPEL
100
AcDbLine
 10
246.9999999999998
 20
596.2704269040015
 30
0.0
 11
247.0
 21
592.2704269040015
 31
0.0
  0
LINE
  5
387
330
1E
100
AcDbEntity
  8
STEMPEL
100
AcDbLine
 10
251.9999999999998
 20
596.4020796068486
 30
0.0
 11
251.9999999999998
 21
591.2704269040014
 31
0.0
  0
LINE
  5
388
330
1E
100
AcDbEntity
  8
STEMPEL
100
AcDbLine
 10
262.1000000000001
 20
597.5431454731527
 30
0.0
 11
262.1000000000001
 21
591.2303656699095
 31
0.0
  0
ARC
  5
389
330
1E
100
AcDbEntity
  8
STEMPEL
100
AcDbCircle
 10
245.9999999999998
 20
596.4020796068486
 30
0.0
 40
6.0
100
AcDbArc
 50
0.0
 51
77.97530081943484
  0
ARC
  5
38A
330
1E
100
AcDbEntity
  8
STEMPEL
100
AcDbCircle
 10
246.4999999999998
 20
595.9969467510537
 30
0.0
 40
6.0
100
AcDbArc
 50
0.0
 51
56.70437478612583
  0
ARC
  5
38B
330
1E
100
AcDbEntity
  8
STEMPEL
100
AcDbCircle
 10
246.4999999999998
 20
595.9969467510537
 30
0.0
 40
7.599999999999999
100
AcDbArc
 50
0.0
 51
50.79235077003835
  0
LINE
  5
38C
330
1E
100
AcDbEntity
  8
STEMPEL
100
AcDbLine
 10
260.4999999999998
 20
603.6389336317499
 30
0.0
 11
260.4999999999998
 21
585.0457422148457
 31
0.0
  0
LWPOLYLINE
  5
38D
330
1E
100
AcDbEntity
  8
HILF
100
AcDbPolyline
 90
        6
 70
     0
 43
0.0
 10
260.5727159164147
 20
603.5353293360178
 42
-0.0994768080708193
 10
261.5199773101654
 20
601.3159650278495
 42
-0.0419838312641144
 10
262.2561752501588
 20
595.2709249138511
 42
-0.0460673634131019
 10
261.9876501508398
 20
590.3756801349532
 42
-0.0488767544318833
 10
260.8685872681524
 20
585.8911597648617
 42
-0.0344713912746867
 10
260.4999999999998
 20
585.0457422148457
 42
-0.0796681492465088
  0
INSERT
  5
38E
330
1E
100
AcDbEntity
  8
SCHRAFF
100
AcDbBlockReference
  2
*X10
 10
631.9746532158838
 20
-33.99772673160794
 30
0.0
 50
90.0
1001
ACAD
1000
HATCH
1002
{
1070
    16
1000
_U,I
1040
2.0
1040
0.7853981633974483
1070
     0
1002
}
  0
LINE
  5
38F
330
1E
100
AcDbEntity
  8
STEMPEL
100
AcDbLine
 10
260.2096552576921
 20
620.2704269040013
 30
0.0
 11
260.2096552576921
 21
604.0147976448321
 31
0.0
  0
LINE
  5
390
330
1E
100
AcDbEntity
  8
STEMPEL
100
AcDbLine
 10
252.8058261758406
 20
620.2704269040013
 30
0.0
 11
252.8058261758406
 21
608.4774687464972
 31
0.0
  0
LINE
  5
391
330
1E
100
AcDbEntity
  8
STEMPEL
100
AcDbLine
 10
249.6030535398938
 20
620.2704269040013
 30
0.0
 11
249.6030535398938
 21
609.9855869689794
 31
0.0
  0
LINE
  5
392
330
1E
100
AcDbEntity
  8
STEMPEL
100
AcDbLine
 10
333.7903447423075
 20
620.2704269040014
 30
0.0
 11
333.7903447423075
 21
603.2704269040014
 31
0.0
  0
LWPOLYLINE
  5
393
330
1E
100
AcDbEntity
  8
HILF
100
AcDbPolyline
 90
        2
 70
     0
 43
0.0
 10
254.0999999999999
 20
580.6554918300722
 42
-0.0282388255545229
 10
252.4999999999998
 20
580.3079668303212
  0
LWPOLYLINE
  5
394
330
1E
100
AcDbEntity
  8
HILF
100
AcDbPolyline
 90
        3
 70
     0
 43
0.0
 10
258.495296366481
 20
582.7198775156358
 42
-0.0099400147758935
 10
258.2768091614723
 20
582.5677495683844
 42
-0.0796681492465088
 10
254.0999999999999
 20
580.6554918300722
  0
LWPOLYLINE
  5
395
330
1E
100
AcDbEntity
  8
HILF
100
AcDbPolyline
 90
        3
 70
     0
 43
0.0
 10
260.4999999999998
 20
538.7962155352674
 42
-0.0019711026580859
 10
261.1357440349434
 20
538.8877469317443
 42
-0.0060178117735423
 10
262.1
 20
539.0108847383508
 42
-0.0442889108201287
  0
LWPOLYLINE
  5
396
330
1E
100
AcDbEntity
  8
HILF
100
AcDbPolyline
 90
        2
 70
     0
 43
0.0
 10
252.4999999999998
 20
537.1992949419956
 42
-0.0250505374239429
 10
260.4999999999998
 20
538.7962155352674
 42
-0.0642863246672119
  0
LINE
  5
397
330
1E
100
AcDbEntity
  8
STEMPEL
100
AcDbLine
 10
260.4999999999998
 20
518.7704269040015
 30
0.0
 11
255.9999999999998
 21
518.7704269040015
 31
0.0
  0
LINE
  5
398
330
1E
100
AcDbEntity
  8
HILF
100
AcDbLine
 10
258.1164999999999
 20
538.407267358559
 30
0.0
 11
258.1164999999999
 21
518.7704269040015
 31
0.0
  0
LINE
  5
399
330
1E
100
AcDbEntity
  8
STEMPEL
100
AcDbLine
 10
255.9999999999998
 20
538.0006412564
 30
0.0
 11
255.9999999999998
 21
518.7704269040015
 31
0.0
  0
LINE
  5
39A
330
1E
100
AcDbEntity
  8
HILF
100
AcDbLine
 10
335.8834999999999
 20
535.276472972362
 30
0.0
 11
335.8834999999999
 21
518.7704269040015
 31
0.0
  0
LINE
  5
39B
330
1E
100
AcDbEntity
  8
HILF
100
AcDbLine
 10
258.1164999999999
 20
605.6926430526276
 30
0.0
 11
258.1164999999999
 21
582.462322907117
 31
0.0
  0
LINE
  5
39C
330
1E
100
AcDbEntity
  8
STEMPEL
100
AcDbLine
 10
255.9999999999998
 20
606.8463910244136
 30
0.0
 11
255.9999999999998
 21
581.3272914239669
 31
0.0
  0
LINE
  5
39D
330
1E
100
AcDbEntity
  8
STEMPEL
100
AcDbLine
 10
254.0999999999999
 20
580.6554918300722
 30
0.0
 11
254.0999999999999
 21
595.9969467510537
 31
0.0
  0
LINE
  5
39E
330
1E
100
AcDbEntity
  8
STEMPEL
100
AcDbLine
 10
252.4999999999998
 20
580.3079668303212
 30
0.0
 11
252.4999999999998
 21
595.9969467510537
 31
0.0
  0
LWPOLYLINE
  5
39F
330
1E
100
AcDbEntity
  8
HILF
100
AcDbPolyline
 90
        2
 70
     0
 43
0.0
 10
260.4999999999998
 20
585.0457422148457
 42
-0.1161788824451116
 10
258.495296366481
 20
582.7198775156358
 42
-0.0796681492465088
  0
INSERT
  5
3A0
330
1E
100
AcDbEntity
  8
SCHRAFF
100
AcDbBlockReference
  2
*X3
 10
634.9394031287642
 20
-33.99772673160794
 30
0.0
 50
90.0
1001
ACAD
1000
HATCH
1002
{
1070
    16
1000
NET,I
1040
10.0
1040
0.7853981633974483
1002
}
  0
INSERT
  5
3A1
330
1E
100
AcDbEntity
  8
SCHRAFF
100
AcDbBlockReference
  2
*X9
 10
634.9394031287642
 20
-33.99772673160794
 30
0.0
 50
90.0
1001
ACAD
1000
HATCH
1002
{
1070
    16
1000
_U,I
1040
2.0
1040
2.356194490192344
1070
     0
1002
}
  0
LINE
  5
3A2
330
1E
100
AcDbEntity
  8
STEMPEL
100
AcDbLine
 10
236.9999999999998
 20
603.2704269040014
 30
0.0
 11
247.5
 21
603.2704269040014
 31
0.0
  0
LINE
  5
3A3
330
1E
100
AcDbEntity
  8
STEMPEL
100
AcDbLine
 10
251.9999999999998
 20
606.7704269040015
 30
0.0
 11
241.9999999999998
 21
606.7704269040015
 31
0.0
  0
ARC
  5
3A4
330
1E
100
AcDbEntity
  8
STEMPEL
100
AcDbCircle
 10
243.9999999999998
 20
596.2704269040015
 30
0.0
 40
3.0
100
AcDbArc
 50
0.0
 51
180.0
  0
LINE
  5
3A5
330
1E
100
AcDbEntity
  8
STEMPEL
100
AcDbLine
 10
247.5
 20
603.2704269040014
 30
0.0
 11
238.0
 21
603.2704269040014
 31
0.0
  0
LINE
  5
3A6
330
1E
100
AcDbEntity
  8
0
  6
ByBlock
 62
     0
100
AcDbLine
 10
246.5
 20
602.2704269040015
 30
0.0
 11
190.6858708446202
 21
602.2704269040015
 31
0.0
  0
LINE
  5
3A7
330
1E
100
AcDbEntity
  8
STEMPEL
100
AcDbLine
 10
252.4999999999998
 20
591.2704269040014
 30
0.0
 11
236.9999999999998
 21
591.2704269040014
 31
0.0
  0
LWPOLYLINE
  5
3A8
330
1E
100
AcDbEntity
  8
HILF
100
AcDbPolyline
 90
        4
 70
     0
 43
0.0
 10
236.9999999999998
 20
614.1048961905307
 42
-0.0231868566544614
 10
242.8300822830029
 20
612.6097135014316
 42
-0.026985811466644
 10
247.6864959603004
 20
610.8294225842314
 42
-0.0261549800922424
 10
258.1165
 20
605.6926430526276
 42
-0.1109685586490079
  0
INSERT
  5
3A9
330
1E
100
AcDbEntity
  8
SCHRAFF
100
AcDbBlockReference
  2
*X4
 10
634.9394031287642
 20
-33.99772673160794
 30
0.0
 50
90.0
1001
ACAD
1000
HATCH
1002
{
1070
    16
1000
NET,I
1040
15.0
1040
0.7853981633974483
1002
}
  0
INSERT
  5
3AA
330
1E
100
AcDbEntity
  8
SCHRAFF
100
AcDbBlockReference
  2
*X5
 10
634.9394031287642
 20
-33.99772673160794
 30
0.0
 50
90.0
1001
ACAD
1000
HATCH
1002
{
1070
    16
1000
NET,I
1040
20.0
1040
0.7853981633974483
1002
}
  0
LINE
  5
3AB
330
1E
100
AcDbEntity
  8
STEMPEL
100
AcDbLine
 10
262.0999999999999
 20
503.7704269040013
 30
0.0
 11
260.4999999999999
 21
503.7704269040013
 31
0.0
  0
LINE
  5
3AC
330
1E
100
AcDbEntity
  8
STEMPEL
100
AcDbLine
 10
333.4999999999998
 20
503.7704269040013
 30
0.0
 11
262.0999999999999
 21
503.7704269040013
 31
0.0
  0
ARC
  5
3AD
330
1E
100
AcDbEntity
  8
STEMPEL
100
AcDbCircle
 10
264.4999999999998
 20
445.1032426339988
 30
0.0
 40
12.0
100
AcDbArc
 50
180.0
 51
206.5650511770765
  0
ARC
  5
3AE
330
1E
100
AcDbEntity
  8
SCHRAFF
100
AcDbCircle
 10
262.7688646657024
 20
426.8060331968545
 30
0.0
 40
4.200983067013757
100
AcDbArc
 50
149.2540993634802
 51
237.3109518135977
  0
ARC
  5
3AF
330
1E
100
AcDbEntity
  8
SCHRAFF
100
AcDbCircle
 10
270.0519827407973
 20
426.2704269040012
 30
0.0
 40
5.155401060792863
100
AcDbArc
 50
144.4147246136725
 51
215.5852753863229
  0
LINE
  5
3B0
330
1E
100
AcDbEntity
  8
STEMPEL
100
AcDbLine
 10
260.5
 20
426.2704269040013
 30
0.0
 11
253.7668737080009
 21
439.7366794879993
 31
0.0
  0
ARC
  5
3B1
330
1E
100
AcDbEntity
  8
SCHRAFF
100
AcDbCircle
 10
283.5259913703985
 20
426.2704269040012
 30
0.0
 40
5.155401060792863
100
AcDbArc
 50
144.4147246136725
 51
215.5852753863229
  0
ARC
  5
3B2
330
1E
100
AcDbEntity
  8
SCHRAFF
100
AcDbCircle
 10
279.0346551605314
 20
426.2704269040012
 30
0.0
 40
5.155401060792863
100
AcDbArc
 50
144.4147246136725
 51
215.5852753863229
  0
ARC
  5
3B3
330
1E
100
AcDbEntity
  8
SCHRAFF
100
AcDbCircle
 10
274.5433189506643
 20
426.2704269040012
 30
0.0
 40
5.155401060792863
100
AcDbArc
 50
144.4147246136725
 51
215.5852753863229
  0
ARC
  5
3B4
330
1E
100
AcDbEntity
  8
SCHRAFF
100
AcDbCircle
 10
292.5086637901327
 20
426.2704269040012
 30
0.0
 40
5.155401060792863
100
AcDbArc
 50
144.4147246136725
 51
215.5852753863229
  0
ARC
  5
3B5
330
1E
100
AcDbEntity
  8
SCHRAFF
100
AcDbCircle
 10
288.0173275802656
 20
426.2704269040012
 30
0.0
 40
5.155401060792863
100
AcDbArc
 50
144.4147246136725
 51
215.5852753863229
  0
ARC
  5
3B6
330
1E
100
AcDbEntity
  8
SCHRAFF
100
AcDbCircle
 10
296.9999999999998
 20
426.2704269040012
 30
0.0
 40
5.155401060792863
100
AcDbArc
 50
144.4147246136725
 51
215.5852753863229
  0
ARC
  5
3B7
330
1E
100
AcDbEntity
  8
SCHRAFF
100
AcDbCircle
 10
301.4913362098669
 20
426.2704269040012
 30
0.0
 40
5.155401060792863
100
AcDbArc
 50
144.4147246136725
 51
215.5852753863229
  0
ARC
  5
3B8
330
1E
100
AcDbEntity
  8
SCHRAFF
100
AcDbCircle
 10
305.982672419734
 20
426.2704269040012
 30
0.0
 40
5.155401060792863
100
AcDbArc
 50
144.4147246136725
 51
215.5852753863229
  0
ARC
  5
3B9
330
1E
100
AcDbEntity
  8
SCHRAFF
100
AcDbCircle
 10
310.474008629601
 20
426.2704269040012
 30
0.0
 40
5.155401060792863
100
AcDbArc
 50
144.4147246136725
 51
215.5852753863229
  0
ARC
  5
3BA
330
1E
100
AcDbEntity
  8
SCHRAFF
100
AcDbCircle
 10
314.9653448394681
 20
426.2704269040012
 30
0.0
 40
5.155401060792863
100
AcDbArc
 50
144.4147246136725
 51
215.5852753863229
  0
ARC
  5
3BB
330
1E
100
AcDbEntity
  8
SCHRAFF
100
AcDbCircle
 10
323.9480172592023
 20
426.2704269040012
 30
0.0
 40
5.155401060792863
100
AcDbArc
 50
144.4147246136725
 51
215.5852753863229
  0
ARC
  5
3BC
330
1E
100
AcDbEntity
  8
SCHRAFF
100
AcDbCircle
 10
328.4393534690694
 20
426.2704269040012
 30
0.0
 40
5.155401060792863
100
AcDbArc
 50
144.4147246136725
 51
215.5852753863229
  0
ARC
  5
3BD
330
1E
100
AcDbEntity
  8
SCHRAFF
100
AcDbCircle
 10
331.2311353342973
 20
426.8060331968545
 30
0.0
 40
4.200983067013757
100
AcDbArc
 50
302.6890481864023
 51
30.74590063651974
  0
ARC
  5
3BE
330
1E
100
AcDbEntity
  8
SCHRAFF
100
AcDbCircle
 10
337.4220258888036
 20
426.2704269040012
 30
0.0
 40
5.155401060792863
100
AcDbArc
 50
144.4147246136725
 51
215.5852753863229
  0
ARC
  5
3BF
330
1E
100
AcDbEntity
  8
SCHRAFF
100
AcDbCircle
 10
332.9306896789365
 20
426.2704269040012
 30
0.0
 40
5.155401060792863
100
AcDbArc
 50
144.4147246136725
 51
215.5852753863229
  0
ARC
  5
3C0
330
1E
100
AcDbEntity
  8
SCHRAFF
100
AcDbCircle
 10
319.4566810493352
 20
426.2704269040012
 30
0.0
 40
5.155401060792863
100
AcDbArc
 50
144.4147246136725
 51
215.5852753863229
  0
LINE
  5
3C1
330
1E
100
AcDbEntity
  8
HILF
100
AcDbLine
 10
337.8315757837204
 20
442.2704269040013
 30
0.0
 11
256.1684242162794
 21
442.2704269040013
 31
0.0
  0
LINE
  5
3C2
330
1E
100
AcDbEntity
  8
STEMPEL
100
AcDbLine
 10
333.4999999999998
 20
426.2704269040013
 30
0.0
 11
260.5
 21
426.2704269040013
 31
0.0
  0
INSERT
  5
3C3
330
1E
100
AcDbEntity
  8
SCHRAFF
100
AcDbBlockReference
  2
*X1
 10
482.9987792448341
 20
258.5031640667772
 30
0.0
 50
90.0
1001
ACAD
1000
HATCH
1002
{
1070
    16
1000
_U,I
1040
0.1
1040
0.0
1070
     0
1002
}
  0
LINE
  5
3C4
330
1E
100
AcDbEntity
  8
STEMPEL
100
AcDbLine
 10
252.4999999999998
 20
445.1032426339988
 30
0.0
 11
252.4999999999998
 21
580.3079668303212
 31
0.0
  0
LINE
  5
3C5
330
1E
100
AcDbEntity
  8
STEMPEL
100
AcDbLine
 10
254.0999999999999
 20
491.2890764252565
 30
0.0
 11
254.0999999999999
 21
537.5857803018609
 31
0.0
  0
LINE
  5
3C6
330
1E
100
AcDbEntity
  8
STEMPEL
100
AcDbLine
 10
331.8999999999999
 20
535.176621771849
 30
0.0
 11
331.8999999999999
 21
503.7704269040013
 31
0.0
  0
LINE
  5
3C7
330
1E
100
AcDbEntity
  8
STEMPEL
100
AcDbLine
 10
333.4999999999998
 20
535.1718450781773
 30
0.0
 11
333.4999999999998
 21
503.7704269040013
 31
0.0
  0
LINE
  5
3C8
330
1E
100
AcDbEntity
  8
STEMPEL
100
AcDbLine
 10
260.4999999999998
 20
538.7962155352674
 30
0.0
 11
260.4999999999999
 21
503.7704269040013
 31
0.0
  0
LINE
  5
3C9
330
1E
100
AcDbEntity
  8
STEMPEL
100
AcDbLine
 10
262.1
 20
539.0108847383508
 30
0.0
 11
262.0999999999999
 21
503.7704269040013
 31
0.0
  0
INSERT
  5
3CA
330
1E
100
AcDbEntity
  8
SCHRAFF
100
AcDbBlockReference
  2
*X6
 10
634.9394031287642
 20
-33.99772673160794
 30
0.0
 50
90.0
1001
ACAD
1000
HATCH
1002
{
1070
    16
1000
_U,I
1040
2.0
1040
0.7853981633974483
1070
     0
1002
}
  0
INSERT
  5
3CB
330
1E
100
AcDbEntity
  8
SCHRAFF
100
AcDbBlockReference
  2
*X7
 10
634.9394031287642
 20
-33.99772673160794
 30
0.0
 50
90.0
1001
ACAD
1000
HATCH
1002
{
1070
    16
1000
_U,I
1040
2.0
1040
0.7853981633974483
1070
     0
1002
}
  0
LINE
  5
3CC
330
1E
100
AcDbEntity
  8
STEMPEL
100
AcDbLine
 10
255.9999999999998
 20
683.7704269040017
 30
0.0
 11
255.9999999999998
 21
627.2704269040012
 31
0.0
  0
LINE
  5
3CD
330
1E
100
AcDbEntity
  8
HILF
100
AcDbLine
 10
258.1164999999999
 20
683.7704269040017
 30
0.0
 11
258.1164999999999
 21
627.2704269040012
 31
0.0
  0
LINE
  5
3CE
330
1E
100
AcDbEntity
  8
HILF
100
AcDbLine
 10
335.8834999999999
 20
683.7704269040017
 30
0.0
 11
335.8834999999999
 21
627.2704269040012
 31
0.0
  0
DIMENSION
  5
3CF
330
1E
100
AcDbEntity
  8
BEM
100
AcDbDimension
  2
*D11
 10
191.8315261437972
 20
723.7704269040015
 30
0.0
 11
185.331526143797
 21
673.7704269040014
 31
0.0
 70
    32
  1
min.100-max.170
 71
     5
 42
100.0000000000002
  3
Standard
100
AcDbAlignedDimension
 13
236.9999999999998
 23
623.7704269040013
 33
0.0
 14
205.4999999999998
 24
723.7704269040015
 34
0.0
 50
90.0
100
AcDbRotatedDimension
1001
ACAD
1000
DSTYLE
1002
{
1070
    40
1040
2.0
1070
    41
1040
3.5
1070
    42
1040
1.0
1070
    43
1040
7.0
1070
    44
1040
1.0
1070
    73
1070
     0
1070
    74
1070
     0
1070
    77
1070
     1
1070
    78
1070
     8
1070
    79
1070
     2
1070
   140
1040
3.5
1070
   141
1040
1.5
1070
   146
1040
0.5142857142857144
1070
   147
1040
1.5
1070
   172
1070
     1
1070
   178
1070
     1
1070
   179
1070
     2
1070
   271
1070
     2
1070
   272
1070
     2
1070
   284
1070
     8
1070
   285
1070
     8
1070
   286
1070
     8
1002
}
  0
LINE
  5
3D0
330
1E
100
AcDbEntity
  8
STEMPEL
100
AcDbLine
 10
388.4999999999998
 20
723.7704269040015
 30
0.0
 11
388.4999999999998
 21
721.7704269040017
 31
0.0
  0
LINE
  5
3D1
330
1E
100
AcDbEntity
  8
TEXT
 62
     2
100
AcDbLine
 10
172.3489393634164
 20
746.231240449515
 30
0.0
 11
208.3596996511632
 21
722.6972846562719
 31
0.0
  0
LINE
  5
3D2
330
1E
100
AcDbEntity
  8
STEMPEL
100
AcDbLine
 10
344.4999999999998
 20
721.7704269040017
 30
0.0
 11
339.4999999999998
 21
697.7704269040017
 31
0.0
  0
LINE
  5
3D3
330
1E
100
AcDbEntity
  8
STEMPEL
100
AcDbLine
 10
341.9999999999998
 20
623.7704269040015
 30
0.0
 11
338.4999999999998
 21
627.2704269040015
 31
0.0
  0
POINT
  5
3D4
330
1E
100
AcDbEntity
  8
DEFPOINTS
  6
ByBlock
 62
     0
100
AcDbPoint
 10
356.9999999999999
 20
623.7704269040015
 30
0.0
  0
POINT
  5
3D5
330
1E
100
AcDbEntity
  8
DEFPOINTS
  6
ByBlock
 62
     0
100
AcDbPoint
 10
356.9999999999998
 20
603.2704269040013
 30
0.0
  0
LINE
  5
3D6
330
1E
100
AcDbEntity
  8
STEMPEL
100
AcDbLine
 10
357.0
 20
602.2704269040015
 30
0.0
 11
356.0
 21
603.2704269040014
 31
0.0
  0
LINE
  5
3D7
330
1E
100
AcDbEntity
  8
STEMPEL
100
AcDbLine
 10
346.4999999999998
 20
603.2704269040013
 30
0.0
 11
356.9999999999998
 21
603.2704269040013
 31
0.0
  0
LINE
  5
3D8
330
1E
100
AcDbEntity
  8
STEMPEL
100
AcDbLine
 10
356.9999999999998
 20
602.2704269040015
 30
0.0
 11
357.0
 21
591.2704269040014
 31
0.0
  0
LINE
  5
3D9
330
1E
100
AcDbEntity
  8
STEMPEL
100
AcDbLine
 10
356.9999999999998
 20
603.2704269040013
 30
0.0
 11
356.9999999999999
 21
623.7704269040015
 31
0.0
  0
LINE
  5
3DA
330
1E
100
AcDbEntity
  8
STEMPEL
100
AcDbLine
 10
341.1941738241591
 20
620.2704269040014
 30
0.0
 11
341.1941738241591
 21
603.2704269040014
 31
0.0
  0
LINE
  5
3DB
330
1E
100
AcDbEntity
  8
STEMPEL
100
AcDbLine
 10
344.3969464601058
 20
620.2704269040014
 30
0.0
 11
344.3969464601057
 21
603.2704269040014
 31
0.0
  0
LINE
  5
3DC
330
1E
100
AcDbEntity
  8
STEMPEL
100
AcDbLine
 10
337.9999999999998
 20
535.4610779674429
 30
0.0
 11
337.9999999999998
 21
518.7704269040015
 31
0.0
  0
TEXT
  5
3DD
330
1E
100
AcDbEntity
  8
TEXT
 62
     1
100
AcDbText
 10
72.72434607516714
 20
749.7863902565501
 30
0.0
 40
7.0
  1
Ablaufkörper
 41
0.8
  7
GREEKS
100
AcDbText
  0
ARC
  5
3DE
330
1E
100
AcDbEntity
  8
STEMPEL
100
AcDbCircle
 10
329.4999999999998
 20
445.1032426339987
 30
0.0
 40
12.0
100
AcDbArc
 50
333.4349488229235
 51
0.0
  0
LINE
  5
3DF
330
1E
100
AcDbEntity
  8
TEXT
 62
     2
100
AcDbLine
 10
319.8300023657932
 20
398.2261175666994
 30
0.0
 11
402.603458569752
 21
362.1192218440115
 31
0.0
  0
LINE
  5
3E0
330
1E
100
AcDbEntity
  8
STEMPEL
100
AcDbLine
 10
341.4999999999998
 20
445.1032426339987
 30
0.0
 11
341.4999999999998
 21
591.2704269040014
 31
0.0
  0
LINE
  5
3E1
330
1E
100
AcDbEntity
  8
STEMPEL
100
AcDbLine
 10
339.8999999999999
 20
486.5707718222038
 30
0.0
 11
339.8999999999997
 21
535.665371261867
 31
0.0
  0
LINE
  5
3E2
330
1E
100
AcDbEntity
  8
STEMPEL
100
AcDbLine
 10
337.9999999999998
 20
683.7704269040017
 30
0.0
 11
337.9999999999998
 21
627.2704269040012
 31
0.0
  0
TEXT
  5
3E3
330
1E
100
AcDbEntity
  8
TEXT
 62
     1
100
AcDbText
 10
72.72434607516714
 20
737.4202707758273
 30
0.0
 40
7.0
  1
EDV-Art.Nr.16730.070X
 41
0.8
  7
GREEKS
100
AcDbText
  0
LINE
  5
3E4
330
1E
100
AcDbEntity
  8
TEXT
 62
     2
100
AcDbLine
 10
72.00034107878287
 20
746.231240449515
 30
0.0
 11
172.3489393634164
 21
746.231240449515
 31
0.0
  0
LINE
  5
3E5
330
1E
100
AcDbEntity
  8
STEMPEL
100
AcDbLine
 10
388.4999999999998
 20
723.7704269040015
 30
0.0
 11
205.4999999999998
 21
723.7704269040015
 31
0.0
  0
LINE
  5
3E6
330
1E
100
AcDbEntity
  8
STEMPEL
100
AcDbLine
 10
337.9999999999998
 20
518.7704269040015
 30
0.0
 11
333.4999999999998
 21
518.7704269040015
 31
0.0
  0
LINE
  5
3E7
330
1E
100
AcDbEntity
  8
STEMPEL
100
AcDbLine
 10
388.4999999999998
 20
721.7704269040017
 30
0.0
 11
205.4999999999998
 21
721.7704269040017
 31
0.0
  0
LINE
  5
3E8
330
1E
100
AcDbEntity
  8
STEMPEL
100
AcDbLine
 10
339.4999999999998
 20
697.7704269040017
 30
0.0
 11
254.4999999999998
 21
697.7704269040017
 31
0.0
  0
LINE
  5
3E9
330
1E
100
AcDbEntity
  8
STEMPEL
100
AcDbLine
 10
337.9999999999998
 20
683.7704269040017
 30
0.0
 11
255.9999999999998
 21
683.7704269040017
 31
0.0
  0
LINE
  5
3EA
330
1E
100
AcDbEntity
  8
STEMPEL
100
AcDbLine
 10
255.4999999999998
 20
627.2704269040012
 30
0.0
 11
338.5000000000001
 21
627.2704269040012
 31
0.0
  0
LINE
  5
3EB
330
1E
100
AcDbEntity
  8
STEMPEL
100
AcDbLine
 10
236.9999999999998
 20
623.7704269040013
 30
0.0
 11
356.9999999999999
 21
623.7704269040013
 31
0.0
  0
LINE
  5
3EC
330
1E
100
AcDbEntity
  8
STEMPEL
100
AcDbLine
 10
356.0
 20
603.2704269040014
 30
0.0
 11
260.7447311131906
 21
603.2704269040014
 31
0.0
  0
LINE
  5
3ED
330
1E
100
AcDbEntity
  8
STEMPEL
100
AcDbLine
 10
357.0
 20
591.2704269040014
 30
0.0
 11
262.104577916308
 21
591.2704269040014
 31
0.0
  0
LINE
  5
3EE
330
1E
100
AcDbEntity
  8
STEMPEL
100
AcDbLine
 10
333.4999999999998
 20
426.2704269040013
 30
0.0
 11
340.2331262919988
 21
439.7366794879993
 31
0.0
  0
LWPOLYLINE
  5
3F0
330
1E
100
AcDbEntity
  8
HILF
100
AcDbPolyline
 90
       13
 70
     0
 43
0.0
 10
252.4999999999998
 20
491.6705853257521
 42
0.0253566964198723
 10
258.7772908072068
 20
490.4216585630753
 42
0.0577266812947551
 10
268.2626219691574
 20
490.1335289788498
 42
0.0446932683552401
 10
276.0379219577529
 20
491.5025403762476
 42
-0.0644039513663536
 10
281.4784224554887
 20
492.2414045835707
 42
-0.1828281043000841
 10
289.3114927484069
 20
489.3348847133871
 42
0.167232093281953
 10
297.7302861781975
 20
485.9177758098678
 42
0.1404064153145453
 10
305.8207473902025
 20
487.7678864663379
 42
-0.1425166623286356
 10
313.8035577309706
 20
489.5586547046262
 42
-0.0914172910499692
 10
320.4323102381127
 20
487.9028674012896
 42
0.0730063240209456
 10
328.6266840941947
 20
485.5345269468988
 42
0.0787577093792566
 10
336.0754592543017
 20
485.6953822966775
 42
0.0329632454166637
 10
341.4999999999998
 20
487.0498255925022
  0
LWPOLYLINE
  5
3F1
330
1E
100
AcDbEntity
  8
HILF
100
AcDbPolyline
 90
       10
 70
     0
 43
0.0
 10
262.1
 20
539.0108847383508
 42
-0.0582459796791481
 10
271.4772773754703
 20
538.9979343862618
 42
-0.0442889108201287
 10
283.5001910532987
 20
536.4822936148562
 42
0.0725012474055349
 10
290.9437946782282
 20
535.3570574510438
 42
0.081760108854166
 10
300.46859942255
 20
536.8733981500407
 42
-0.0862445974538114
 10
309.517351131308
 20
538.2314347007834
 42
-0.0516442806981
 10
317.1665463049883
 20
537.2602325671608
 42
0.0337141020403809
 10
328.8052762641303
 20
535.3570574510438
 42
0.0438998702127888
 10
336.2604880713574
 20
535.3053155026113
 42
0.0128284894092256
 10
341.4999999999998
 20
535.8652240339024
  0
INSERT
  5
3F2
330
1E
100
AcDbEntity
  8
SCHRAFF
100
AcDbBlockReference
  2
*X2
 10
634.9394031287642
 20
-33.99772673160794
 30
0.0
 50
90.0
1001
ACAD
1000
HATCH
1002
{
1070
    16
1000
NET,I
1040
10.0
1040
0.7853981633974483
1002
}
  0
LINE
  5
3F3
330
1E
100
AcDbEntity
  8
STEMPEL
100
AcDbLine
 10
344.3969464601058
 20
620.2704269040014
 30
0.0
 11
333.7903447423075
 21
620.2704269040014
 31
0.0
  0
INSERT
  5
3F4
330
1E
100
AcDbEntity
  8
SCHRAFF
100
AcDbBlockReference
  2
*X8
 10
634.9394031287642
 20
-33.99772673160794
 30
0.0
 50
90.0
1001
ACAD
1000
HATCH
1002
{
1070
    16
1000
_U,I
1040
2.0
1040
2.356194490192344
1070
     0
1002
}
  0
DIMENSION
  5
3F5
330
1E
100
AcDbEntity
  8
BEM
100
AcDbDimension
  2
*D12
 10
403.7959781471706
 20
723.7704269040015
 30
0.0
 11
397.2959781471706
 21
613.7704269040015
 31
0.0
 70
    32
 71
     5
 42
220.0000000000003
  3
Standard
100
AcDbAlignedDimension
 13
333.4999999999998
 23
503.7704269040013
 33
0.0
 14
388.4999999999998
 24
723.7704269040015
 34
0.0
 50
90.0
100
AcDbRotatedDimension
1001
ACAD
1000
DSTYLE
1002
{
1070
    40
1040
2.0
1070
    41
1040
3.5
1070
    42
1040
1.0
1070
    43
1040
7.0
1070
    44
1040
1.0
1070
    73
1070
     0
1070
    74
1070
     0
1070
    77
1070
     1
1070
    78
1070
     8
1070
    79
1070
     2
1070
   140
1040
3.5
1070
   141
1040
1.5
1070
   146
1040
0.5142857142857144
1070
   147
1040
1.5
1070
   172
1070
     1
1070
   178
1070
     1
1070
   179
1070
     2
1070
   271
1070
     2
1070
   272
1070
     2
1070
   284
1070
     8
1070
   285
1070
     8
1070
   286
1070
     8
1002
}
  0
DIMENSION
  5
3F6
330
1E
100
AcDbEntity
  8
BEM
100
AcDbDimension
  2
*D13
 10
205.4999999999998
 20
733.1550031782477
 30
0.0
 11
296.9999999999998
 21
739.6550031782477
 31
0.0
 70
    32
  1
%%c<>
 71
     5
 42
183.0
  3
Standard
100
AcDbAlignedDimension
 13
388.4999999999998
 23
723.7704269040015
 33
0.0
 14
205.4999999999998
 24
723.7704269040015
 34
0.0
 50
180.0
100
AcDbRotatedDimension
1001
ACAD
1000
DSTYLE
1002
{
1070
    40
1040
2.0
1070
    41
1040
3.5
1070
    42
1040
1.0
1070
    43
1040
7.0
1070
    44
1040
1.0
1070
    73
1070
     0
1070
    74
1070
     0
1070
    77
1070
     1
1070
    78
1070
     8
1070
    79
1070
     2
1070
   140
1040
3.5
1070
   141
1040
1.5
1070
   146
1040
0.5142857142857144
1070
   147
1040
1.5
1070
   172
1070
     1
1070
   178
1070
     1
1070
   179
1070
     2
1070
   271
1070
     2
1070
   272
1070
     2
1070
   284
1070
     8
1070
   285
1070
     8
1070
   286
1070
     8
1002
}
  0
LINE
  5
404
330
1E
100
AcDbEntity
  8
STEMPEL
100
AcDbLine
 10
261.3748866352592
 20
103.5924155812777
 30
0.0
 11
260.4999999999998
 21
113.5924155812777
 31
0.0
  0
POINT
  5
405
330
1E
100
AcDbEntity
  8
DEFPOINTS
  6
ByBlock
 62
     0
100
AcDbPoint
 10
332.6251133647406
 20
103.5924155812777
 30
0.0
  0
LINE
  5
406
330
1E
100
AcDbEntity
  8
STEMPEL
100
AcDbLine
 10
332.6251133647406
 20
103.5924155812777
 30
0.0
 11
333.4999999999998
 21
113.5924155812777
 31
0.0
  0
LINE
  5
407
330
1E
100
AcDbEntity
  8
STEMPEL
100
AcDbLine
 10
332.6251133647406
 20
103.5924155812777
 30
0.0
 11
261.3748866352592
 21
103.5924155812777
 31
0.0
  0
LINE
  5
408
330
1E
100
AcDbEntity
  8
HILF
100
AcDbLine
 10
330.2877765198612
 20
113.5924155812777
 30
0.0
 11
263.7122234801386
 21
113.5924155812777
 31
0.0
  0
DIMENSION
  5
409
330
1E
100
AcDbEntity
  8
BEM
100
AcDbDimension
  2
*D14
 10
260.4999999999998
 20
77.47740579990551
 30
0.0
 11
296.9999999999998
 21
83.97740579990552
 31
0.0
 70
    32
  1
%%C<>
 71
     5
 42
73.0
  3
Standard
100
AcDbAlignedDimension
 13
333.4999999999998
 23
113.5924155812777
 33
0.0
 14
260.4999999999998
 24
113.5924155812777
 34
0.0
 50
180.0
100
AcDbRotatedDimension
1001
ACAD
1000
DSTYLE
1002
{
1070
    40
1040
2.0
1070
    41
1040
3.5
1070
    42
1040
1.0
1070
    43
1040
7.0
1070
    44
1040
1.0
1070
    73
1070
     0
1070
    74
1070
     0
1070
    77
1070
     1
1070
    78
1070
     8
1070
    79
1070
     2
1070
   140
1040
3.5
1070
   141
1040
1.5
1070
   146
1040
0.5142857142857144
1070
   147
1040
1.5
1070
   172
1070
     1
1070
   178
1070
     1
1070
   179
1070
     2
1070
   271
1070
     2
1070
   272
1070
     2
1070
   284
1070
     8
1070
   285
1070
     8
1070
   286
1070
     8
1002
}
  0
LINE
  5
40A
330
1E
100
AcDbEntity
  8
STEMPEL
100
AcDbLine
 10
260.4999999999998
 20
113.5924155812777
 30
0.0
 11
260.4999999999998
 21
341.8005534563942
 31
0.0
  0
LINE
  5
40B
330
1E
100
AcDbEntity
  8
STEMPEL
100
AcDbLine
 10
333.4999999999998
 20
113.5924155812777
 30
0.0
 11
333.4999999999998
 21
341.8005534563942
 31
0.0
  0
TEXT
  5
40C
330
1E
100
AcDbEntity
  8
TEXT
 62
     1
100
AcDbText
 10
403.3274635661362
 20
365.6743716510465
 30
0.0
 40
7.0
  1
Fallrohr
 41
0.8
  7
GREEKS
100
AcDbText
  0
LINE
  5
40D
330
1E
100
AcDbEntity
  8
MITTEL
100
AcDbLine
 10
296.9999999999998
 20
98.5924155812777
 30
0.0
 11
296.9999999999998
 21
728.7704269040014
 31
0.0
  0
TEXT
  5
41D
330
1E
100
AcDbEntity
  8
TEXT
 62
     1
100
AcDbText
 10
403.3274635661362
 20
353.3082521703237
 30
0.0
 40
7.0
  1
EDV-Art.Nr.16721.070X
 41
0.8
  7
GREEKS
100
AcDbText
  0
LINE
  5
41E
330
1E
100
AcDbEntity
  8
TEXT
 62
     2
100
AcDbLine
 10
402.603458569752
 20
362.1192218440115
 30
0.0
 11
502.9520568543857
 21
362.1192218440115
 31
0.0
  0
DIMENSION
  5
41F
330
1E
100
AcDbEntity
  8
BEM
100
AcDbDimension
  2
*D15
 10
190.3575496364801
 20
602.2704269040015
 30
0.0
 11
183.85754963648
 21
352.9314212426397
 31
0.0
 70
    32
  1
2500
 71
     5
 42
498.6780113227237
  3
Standard
100
AcDbAlignedDimension
 13
261.3748866352592
 23
103.5924155812777
 33
0.0
 14
247.2499999999989
 24
602.2704269040015
 34
0.0
 50
90.0
100
AcDbRotatedDimension
1001
ACAD
1000
DSTYLE
1002
{
1070
    40
1040
2.0
1070
    41
1040
3.5
1070
    42
1040
1.0
1070
    43
1040
7.0
1070
    44
1040
1.0
1070
    73
1070
     0
1070
    74
1070
     0
1070
    77
1070
     1
1070
    78
1070
     8
1070
    79
1070
     2
1070
   140
1040
3.5
1070
   141
1040
1.5
1070
   146
1040
0.5142857142857144
1070
   147
1040
1.5
1070
   172
1070
     1
1070
   178
1070
     1
1070
   179
1070
     2
1070
   271
1070
     2
1070
   272
1070
     2
1070
   284
1070
     8
1070
   285
1070
     8
1070
   286
1070
     8
1002
}
  0
SPLINE
  5
83F
330
1E
100
AcDbEntity
  8
HILF
100
AcDbSpline
210
0.0
220
0.0
230
1.0
 70
     8
 71
     3
 72
    11
 73
     7
 74
     5
 42
0.0000000001
 43
0.0000000001
 44
0.0000000001
 40
0.0
 40
0.0
 40
0.0
 40
0.0
 40
18.92253947016626
 40
37.84507894033252
 40
56.7676184104988
 40
75.69015788066512
 40
75.69015788066512
 40
75.69015788066512
 40
75.69015788066512
 10
260.4999999999998
 20
341.8005534563942
 30
0.0
 10
266.5833333333331
 20
344.3005534563942
 30
0.0
 10
278.7499999999997
 20
349.3005534563942
 30
0.0
 10
296.9999999999999
 20
341.8005534563944
 30
0.0
 10
315.2499999999997
 20
334.300553456394
 30
0.0
 10
327.4166666666665
 20
339.3005534563942
 30
0.0
 10
333.4999999999998
 20
341.8005534563942
 30
0.0
 11
260.4999999999998
 21
341.8005534563942
 31
0.0
 11
278.7499999999998
 21
346.8005534563943
 31
0.0
 11
296.9999999999998
 21
341.8005534563942
 31
0.0
 11
315.2499999999998
 21
336.8005534563942
 31
0.0
 11
333.4999999999998
 21
341.8005534563942
 31
0.0
  0
SPLINE
  5
840
330
1E
100
AcDbEntity
  8
HILF
100
AcDbSpline
210
0.0
220
0.0
230
1.0
 70
     8
 71
     3
 72
    11
 73
     7
 74
     5
 42
0.0000000001
 43
0.0000000001
 44
0.0000000001
 40
0.0
 40
0.0
 40
0.0
 40
0.0
 40
18.92253947016626
 40
37.84507894033252
 40
56.7676184104988
 40
75.69015788066512
 40
75.69015788066512
 40
75.69015788066512
 40
75.69015788066512
 10
260.4999999999998
 20
346.8005534563943
 30
0.0
 10
266.5833333333331
 20
349.3005534563943
 30
0.0
 10
278.7499999999997
 20
354.3005534563942
 30
0.0
 10
296.9999999999999
 20
346.8005534563944
 30
0.0
 10
315.2499999999997
 20
339.3005534563942
 30
0.0
 10
327.4166666666665
 20
344.3005534563941
 30
0.0
 10
333.4999999999998
 20
346.8005534563943
 30
0.0
 11
260.4999999999998
 21
346.8005534563943
 31
0.0
 11
278.7499999999998
 21
351.8005534563942
 31
0.0
 11
296.9999999999998
 21
346.8005534563943
 31
0.0
 11
315.2499999999998
 21
341.8005534563942
 31
0.0
 11
333.4999999999998
 21
346.8005534563943
 31
0.0
  0
LINE
  5
841
330
1E
100
AcDbEntity
  8
STEMPEL
100
AcDbLine
 10
260.4999999999998
 20
346.8005534563943
 30
0.0
 11
260.4999999999998
 21
426.2704269040014
 31
0.0
  0
LINE
  5
842
330
1E
100
AcDbEntity
  8
STEMPEL
100
AcDbLine
 10
333.4999999999998
 20
346.8005534563943
 30
0.0
 11
333.4999999999998
 21
426.2704269040014
 31
0.0
  0
LINE
  5
855
330
1E
100
AcDbEntity
  8
STEMPEL
100
AcDbLine
 10
483.9999999999998
 20
830.0
 30
0.0
 11
483.9999999999998
 21
470.0000000000001
 31
0.0
  0
LINE
  5
856
330
1E
100
AcDbEntity
  8
STEMPEL
100
AcDbLine
 10
483.9999999999998
 20
566.0000000000002
 30
0.0
 11
583.9999999999998
 21
566.0000000000001
 31
0.0
  0
LINE
  5
857
330
1E
100
AcDbEntity
  8
STEMPEL
100
AcDbLine
 10
483.9999999999998
 20
650.0
 30
0.0
 11
583.9999999999998
 21
650.0
 31
0.0
  0
LINE
  5
858
330
1E
100
AcDbEntity
  8
STEMPEL
100
AcDbLine
 10
484.0
 20
752.0000000000001
 30
0.0
 11
553.9999999999998
 21
752.0000000000001
 31
0.0
  0
LINE
  5
859
330
1E
100
AcDbEntity
  8
STEMPEL
100
AcDbLine
 10
563.9999999999998
 20
566.0
 30
0.0
 11
563.9999999999997
 21
470.0000000000001
 31
0.0
  0
LINE
  5
85A
330
1E
100
AcDbEntity
  8
STEMPEL
100
AcDbLine
 10
553.9999999999998
 20
830.0
 30
0.0
 11
553.9999999999999
 21
566.0000000000002
 31
0.0
  0
LINE
  5
85B
330
1E
100
AcDbEntity
  8
STEMPEL
100
AcDbLine
 10
513.9999999999997
 20
830.0
 30
0.0
 11
513.9999999999998
 21
566.0000000000002
 31
0.0
  0
LINE
  5
85C
330
1E
100
AcDbEntity
  8
VOLL
100
AcDbLine
 10
483.9999999999998
 20
484.0000000000002
 30
0.0
 11
583.9999999999998
 21
484.0000000000001
 31
0.0
  0
LINE
  5
85D
330
1E
100
AcDbEntity
  8
VOLL
100
AcDbLine
 10
483.9999999999998
 20
524.0000000000001
 30
0.0
 11
583.9999999999998
 21
524.0000000000001
 31
0.0
  0
LINE
  5
85E
330
1E
100
AcDbEntity
  8
VOLL
100
AcDbLine
 10
483.9999999999998
 20
544.0000000000002
 30
0.0
 11
583.9999999999998
 21
544.0000000000001
 31
0.0
  0
LINE
  5
85F
330
1E
100
AcDbEntity
  8
VOLL
100
AcDbLine
 10
513.9999999999998
 20
584.0000000000002
 30
0.0
 11
553.9999999999999
 21
584.0000000000002
 31
0.0
  0
LINE
  5
860
330
1E
100
AcDbEntity
  8
VOLL
100
AcDbLine
 10
484.0
 20
610.0000000000002
 30
0.0
 11
553.9999999999999
 21
610.0000000000001
 31
0.0
  0
LINE
  5
861
330
1E
100
AcDbEntity
  8
HILF
100
AcDbLine
 10
493.9999999999997
 20
470.0000000000001
 30
0.0
 11
493.9999999999997
 21
566.0000000000002
 31
0.0
  0
LINE
  5
862
330
1E
100
AcDbEntity
  8
HILF
100
AcDbLine
 10
503.9999999999998
 20
470.0000000000001
 30
0.0
 11
503.9999999999998
 21
566.0000000000002
 31
0.0
  0
LINE
  5
863
330
1E
100
AcDbEntity
  8
HILF
100
AcDbLine
 10
513.9999999999998
 20
470.0000000000001
 30
0.0
 11
513.9999999999998
 21
566.0000000000002
 31
0.0
  0
LINE
  5
864
330
1E
100
AcDbEntity
  8
HILF
100
AcDbLine
 10
523.9999999999999
 20
470.0000000000001
 30
0.0
 11
523.9999999999999
 21
566.0000000000002
 31
0.0
  0
LINE
  5
865
330
1E
100
AcDbEntity
  8
HILF
100
AcDbLine
 10
533.9999999999998
 20
470.0000000000001
 30
0.0
 11
533.9999999999998
 21
566.0000000000002
 31
0.0
  0
LINE
  5
866
330
1E
100
AcDbEntity
  8
HILF
100
AcDbLine
 10
543.9999999999997
 20
470.0000000000001
 30
0.0
 11
543.9999999999998
 21
566.0000000000002
 31
0.0
  0
LINE
  5
867
330
1E
100
AcDbEntity
  8
HILF
100
AcDbLine
 10
553.9999999999998
 20
470.0000000000001
 30
0.0
 11
553.9999999999999
 21
566.0000000000002
 31
0.0
  0
LINE
  5
868
330
1E
100
AcDbEntity
  8
HILF
100
AcDbLine
 10
523.9999999999999
 20
566.0000000000002
 30
0.0
 11
523.9999999999999
 21
650.0
 31
0.0
  0
LINE
  5
869
330
1E
100
AcDbEntity
  8
HILF
100
AcDbLine
 10
533.9999999999998
 20
566.0000000000002
 30
0.0
 11
533.9999999999998
 21
650.0
 31
0.0
  0
LINE
  5
86A
330
1E
100
AcDbEntity
  8
HILF
100
AcDbLine
 10
543.9999999999998
 20
566.0000000000002
 30
0.0
 11
543.9999999999998
 21
650.0
 31
0.0
  0
LINE
  5
86B
330
1E
100
AcDbEntity
  8
HILF
100
AcDbLine
 10
509.9624175243584
 20
654.7736801096948
 30
0.0
 11
509.9624175243584
 21
744.8353916556311
 31
0.0
  0
LINE
  5
86C
330
1E
100
AcDbEntity
  8
HILF
100
AcDbLine
 10
523.9999999999999
 20
654.7736801096948
 30
0.0
 11
523.9999999999999
 21
744.835391655631
 31
0.0
  0
LINE
  5
86D
330
1E
100
AcDbEntity
  8
HILF
100
AcDbLine
 10
533.9999999999998
 20
654.7736801096948
 30
0.0
 11
533.9999999999998
 21
744.835391655631
 31
0.0
  0
LINE
  5
86E
330
1E
100
AcDbEntity
  8
HILF
100
AcDbLine
 10
543.9999999999998
 20
654.7736801096948
 30
0.0
 11
543.9999999999998
 21
744.835391655631
 31
0.0
  0
LINE
  5
86F
330
1E
100
AcDbEntity
  8
VOLL
100
AcDbLine
 10
533.9999999999998
 20
752.0000000000001
 30
0.0
 11
533.9999999999998
 21
830.0
 31
0.0
  0
LINE
  5
870
330
1E
100
AcDbEntity
  8
HILF
100
AcDbLine
 10
510.2201636304415
 20
756.7238616296994
 30
0.0
 11
510.2201636304415
 21
824.8588839326728
 31
0.0
  0
LINE
  5
871
330
1E
100
AcDbEntity
  8
HILF
100
AcDbLine
 10
579.1060174197166
 20
653.4909699289886
 30
0.0
 11
579.1060174197166
 21
824.8588839326728
 31
0.0
  0
TEXT
  5
872
330
1E
100
AcDbEntity
  8
TEXT
100
AcDbText
 10
575.3261810501585
 20
492.7826069847976
 30
0.0
 40
4.0
  1
Änderung
 50
90.0
 41
0.8
  7
GREEKS
 72
     1
 11
575.3261810501585
 21
503.5254641276548
 31
0.0
100
AcDbText
  0
TEXT
  5
873
330
1E
100
AcDbEntity
  8
TEXT
100
AcDbText
 10
491.537910491291
 20
573.5163572150378
 30
0.0
 40
5.0
  1
Maßstab
 50
90.0
 41
0.8
  7
GREEKS
100
AcDbText
  0
TEXT
  5
874
330
1E
100
AcDbEntity
  8
TEXT
100
AcDbText
 10
491.5815831565179
 20
614.2858954734053
 30
0.0
 40
5.0
  1
Zul. Abw.
 50
90.0
 41
0.8
  7
GREEKS
100
AcDbText
  0
TEXT
  5
875
330
1E
100
AcDbEntity
  8
TEXT
100
AcDbText
 10
491.4510671988218
 20
654.8779403809011
 30
0.0
 40
5.0
  1
Benennung
 50
90.0
 41
0.8
  7
GREEKS
100
AcDbText
  0
TEXT
  5
876
330
1E
100
AcDbEntity
  8
TEXT
100
AcDbText
 10
491.6867965462862
 20
756.1787549576341
 30
0.0
 40
5.0
  1
Zeichnungs Nr.
 50
90.0
 41
0.8
  7
GREEKS
100
AcDbText
  0
TEXT
  5
877
330
1E
100
AcDbEntity
  8
TEXT
100
AcDbText
 10
563.1543942980693
 20
654.742238391136
 30
0.0
 40
5.0
  1
Bauvorhaben
 50
90.0
 41
0.8
  7
GREEKS
100
AcDbText
  0
TEXT
  5
878
330
1E
100
AcDbEntity
  8
TEXT
100
AcDbText
 10
520.8188176290001
 20
756.7238616296994
 30
0.0
 40
5.0
  1
Ersatz für:
 50
90.0
 41
0.8
  7
GREEKS
100
AcDbText
  0
TEXT
  5
879
330
1E
100
AcDbEntity
  8
TEXT
100
AcDbText
 10
580.3453415397278
 20
478.2664110704577
 30
0.0
 40
4.0
  1
Index
 50
180.0
 41
0.8
  7
GREEKS
100
AcDbText
  0
TEXT
  5
87A
330
1E
100
AcDbEntity
  8
TEXT
100
AcDbText
 10
575.3284373066017
 20
530.0571803261056
 30
0.0
 40
4.0
  1
Tag
 50
90.0
 41
0.8
  7
GREEKS
 72
     1
 11
575.3284373066017
 21
533.7905136594389
 31
0.0
100
AcDbText
  0
TEXT
  5
87B
330
1E
100
AcDbEntity
  8
TEXT
100
AcDbText
 10
575.4067578303358
 20
548.6614567187548
 30
0.0
 40
4.0
  1
Name
 50
90.0
 41
0.8
  7
GREEKS
 72
     1
 11
575.4067578303358
 21
554.9852662425642
 31
0.0
100
AcDbText
  0
TEXT
  5
87C
330
1E
100
AcDbEntity
  8
TEXT
100
AcDbText
 10
520.6811949877005
 20
592.3311673153651
 30
0.0
 40
4.0
  1
Tag
 50
90.0
 41
0.8
  7
GREEKS
100
AcDbText
  0
TEXT
  5
87D
330
1E
100
AcDbEntity
  8
TEXT
100
AcDbText
 10
520.6903890808475
 20
622.4626584226296
 30
0.0
 40
4.0
  1
Name
 50
90.0
 41
0.8
  7
GREEKS
100
AcDbText
  0
TEXT
  5
87E
330
1E
100
AcDbEntity
  8
TEXT
100
AcDbText
 10
530.3700963038202
 20
567.5836127167616
 30
0.0
 40
4.0
  1
Gez.
 50
90.0
 41
0.8
  7
GREEKS
100
AcDbText
  0
TEXT
  5
87F
330
1E
100
AcDbEntity
  8
TEXT
100
AcDbText
 10
540.310737085716
 20
567.5515086571673
 30
0.0
 40
4.0
  1
Gepr.
 50
90.0
 41
0.8
  7
GREEKS
100
AcDbText
  0
TEXT
  5
880
330
1E
100
AcDbEntity
  8
TEXT
100
AcDbText
 10
550.4705361035018
 20
567.6006777387304
 30
0.0
 40
4.0
  1
Norm.
 50
90.0
 41
0.8
  7
GREEKS
100
AcDbText
  0
LINE
  5
881
330
1E
100
AcDbEntity
  8
STEMPEL
100
AcDbLine
 10
583.9999999999998
 20
480.0
 30
0.0
 11
583.9999999999998
 21
830.0
 31
0.0
  0
TEXT
  5
882
330
1E
100
AcDbEntity
  8
TEXT
100
AcDbText
 10
541.9258382212137
 20
757.2400861497007
 30
0.0
 40
5.0
  1
ersetzt durch:
 50
90.0
 41
0.8
  7
GREEKS
100
AcDbText
  0
LINE
  5
883
330
1E
100
AcDbEntity
  8
STEMPEL
100
AcDbLine
 10
583.9999999999998
 20
830.0
 30
0.0
 11
583.9999999999998
 21
40.00000000000011
 31
0.0
  0
LINE
  5
884
330
1E
100
AcDbEntity
  8
STEMPEL
100
AcDbLine
 10
583.9999999999998
 20
830.0
 30
0.0
 11
9.999999999999772
 21
830.0
 31
0.0
  0
LINE
  5
885
330
1E
100
AcDbEntity
  8
STEMPEL
100
AcDbLine
 10
583.9999999999998
 20
470.0000000000001
 30
0.0
 11
483.9999999999998
 21
470.0000000000001
 31
0.0
  0
LINE
  5
886
330
1E
100
AcDbEntity
  8
STEMPEL
100
AcDbLine
 10
9.999999999999772
 20
830.0
 30
0.0
 11
9.999999999999772
 21
40.00000000000003
 31
0.0
  0
LINE
  5
887
330
1E
100
AcDbEntity
  8
HILF
100
AcDbLine
 10
-0.0000000000004547
 20
840.0
 30
0.0
 11
0.0
 21
-0.0000000000000205
 31
0.0
  0
LINE
  5
888
330
1E
100
AcDbEntity
  8
HILF
100
AcDbLine
 10
593.9999999999997
 20
840.0000000000002
 30
0.0
 11
593.9999999999997
 21
0.0000000000001137
 31
0.0
  0
LINE
  5
889
330
1E
100
AcDbEntity
  8
HILF
100
AcDbLine
 10
296.9999999999999
 20
31.08767135713863
 30
0.0
 11
296.9999999999999
 21
0.0000000000001887
 31
0.0
  0
TEXT
  5
88A
330
1E
100
AcDbEntity
  8
TEXT
100
AcDbText
 10
520.8597452884832
 20
568.622109822104
 30
0.0
 40
4.0
  1
2012
 50
90.0
 41
0.8
  7
GREEKS
100
AcDbText
  0
LINE
  5
88B
330
1E
100
AcDbEntity
  8
HILF
100
AcDbLine
 10
593.9999999999998
 20
840.0000000000002
 30
0.0
 11
-0.0000000000002274
 21
840.0
 31
0.0
  0
TEXT
  5
88C
330
1E
100
AcDbEntity
  8
VOLL
100
AcDbText
 10
531.948104470588
 20
156.1535094339624
 30
0.0
 40
3.6
  1

 50
90.0
  7
GREEKS
100
AcDbText
  0
TEXT
  5
88D
330
1E
100
AcDbEntity
  8
TEXT
100
AcDbText
 10
482.3279999999998
 20
471.8550995097769
 30
0.0
 40
5.0
  1
Erstellt mit AUTOCAD 2004
 50
90.0
 41
0.8
  7
GREEKS
100
AcDbText
  0
TEXT
  5
88E
330
1E
100
AcDbEntity
  8
TEXT
100
AcDbText
 10
530.9103608027647
 20
624.4216048581258
 30
0.0
 40
4.0
  1
Koeh
 50
90.0
 41
0.8
  7
GREEKS
 72
     1
 11
530.9103608027647
 21
629.6787477152687
 31
0.0
100
AcDbText
  0
TEXT
  5
88F
330
1E
100
AcDbEntity
  8
TEXT
 62
     1
100
AcDbText
 10
505.8509857108602
 20
767.7799161129603
 30
0.0
 40
7.0
  1
16738070W
 50
90.0
 41
0.8
  7
GREEKS
 72
     1
 11
505.8509857108602
 21
791.246582779627
 31
0.0
100
AcDbText
  0
TEXT
  5
890
330
1E
100
AcDbEntity
  8
TEXT
 62
     1
100
AcDbText
 10
505.8509857108602
 20
580.5006306481888
 30
0.0
 40
7.0
  1
1:2
 50
90.0
 41
0.8
  7
GREEKS
100
AcDbText
  0
TEXT
  5
891
330
1E
100
AcDbEntity
  8
TEXT
100
AcDbText
 10
530.8923495917424
 20
590.3989971082362
 30
0.0
 40
4.0
  1
09.03.
 50
90.0
 41
0.8
  7
GREEKS
 72
     1
 11
530.8923495917424
 21
597.40852091776
 31
0.0
100
AcDbText
  0
TEXT
  5
892
330
1E
100
AcDbEntity
  8
TEXT
 62
     1
100
AcDbText
 10
506.582512107462
 20
654.4942536306288
 30
0.0
 40
7.0
  1
Balkondirektablauf DN70
 50
90.0
 41
0.7
  7
GREEKS
100
AcDbText
  0
TEXT
  5
893
330
1E
100
AcDbEntity
  8
TEXT
100
AcDbText
 10
522.4966558241469
 20
655.1296391125316
 30
0.0
 40
5.0
  1
für obere Balkone
 50
90.0
 41
0.8
  7
GREEKS
100
AcDbText
  0
TEXT
  5
894
330
1E
100
AcDbEntity
  8
TEXT
100
AcDbText
 10
531.8841929322513
 20
655.1296391125316
 30
0.0
 40
5.0
  1
Deckenstärke 100 - 170mm
 50
90.0
 41
0.8
  7
GREEKS
100
AcDbText
  0
TEXT
  5
895
330
1E
100
AcDbEntity
  8
TEXT
100
AcDbText
 10
542.3598805695782
 20
655.1296391125316
 30
0.0
 40
5.0
  1
EDV-Art.Nr. 16738.070X
 50
90.0
 41
0.8
  7
GREEKS
100
AcDbText
  0
TEXT
  5
896
330
1E
100
AcDbEntity
  8
TEXT
100
AcDbText
 10
551.3702584697734
 20
654.9837501577827
 30
0.0
 40
4.0
  1
16738070W.DWG
 50
90.0
 41
0.8
  7
GREEKS
100
AcDbText
  0
TEXT
  5
897
330
1E
100
AcDbEntity
  8
TEXT
100
AcDbText
 10
503.2363615897696
 20
612.626132208084
 30
0.0
 40
4.0
  1
DIN EN1123-2
 50
90.0
 41
0.8
  7
GREEKS
 72
     1
 11
503.2363615897696
 21
629.6166083985602
 31
0.0
100
AcDbText
  0
INSERT
  5
898
330
1E
100
AcDbEntity
  8
STEMPEL
100
AcDbBlockReference
  2
LOGO
 10
548.9789472355165
 20
570.9955485457795
 30
0.0
 41
2.0
 42
2.0
 43
2.0
 50
90.0
  0
LINE
  5
899
330
1E
100
AcDbEntity
  8
HILF
100
AcDbLine
 10
593.9999999999997
 20
0.0000000000001137
 30
0.0
 11
0.0
 21
-0.0000000000000205
 31
0.0
  0
LINE
  5
89A
330
1E
100
AcDbEntity
  8
STEMPEL
100
AcDbLine
 10
583.9999999999998
 20
40.00000000000011
 30
0.0
 11
9.999999999999772
 21
40.00000000000003
 31
0.0
  0
LINE
  5
89B
330
1E
100
AcDbEntity
  8
HILF
 62
     7
100
AcDbLine
 10
594.0000000000001
 20
460.0000000000001
 30
0.0
 11
583.9999999999998
 21
460.0000000000001
 31
0.0
  0
LINE
  5
89C
330
1E
100
AcDbEntity
  8
HILF
 62
     7
100
AcDbLine
 10
9.999999999999772
 20
460.0
 30
0.0
 11
-0.0000000000001137
 21
460.0
 31
0.0
  0
TEXT
  5
89D
330
1E
100
AcDbEntity
  8
BEM
100
AcDbText
 10
583.8320989200111
 20
837.3022923857167
 30
0.0
 40
4.0
  1
Diese Zeichnung ist urheberrechtlich geschützt und bleibt unser Eigentum. Sie darf weder ganz noch teilweise verfielfältigt und nicht an Dritte weitergegeben werden.
 50
180.0
 41
0.8
  7
GREEKS
100
AcDbText
  0
TEXT
  5
89E
330
1E
100
AcDbEntity
  8
TEXT
 62
     1
100
AcDbText
 10
282.5467936187786
 20
217.5734188480402
 30
0.0
 40
7.0
  1
DN70
 50
90.0
 41
0.8
  7
GREEKS
100
AcDbText
  0
ENDSEC
  0
SECTION
  2
OBJECTS
  0
DICTIONARY
  5
C
330
0
100
AcDbDictionary
281
     1
  3
ACAD_COLOR
350
DF
  3
ACAD_GROUP
350
D
  3
ACAD_LAYOUT
350
19
  3
ACAD_MATERIAL
350
DE
  3
ACAD_MLINESTYLE
350
16
  3
ACAD_PLOTSETTINGS
350
18
  3
ACAD_PLOTSTYLENAME
350
E
  3
AcDbVariableDictionary
350
EA
  0
DICTIONARY
  5
A0
330
1E
100
AcDbDictionary
280
     1
281
     1
  3
ACAD_LAYOUTSELFREF
360
D4
  0
DICTIONARY
  5
A2
330
1A
100
AcDbDictionary
280
     1
281
     1
  3
ACAD_LAYOUTSELFREF
360
D3
  0
DICTIONARY
  5
DF
102
{ACAD_REACTORS
330
C
102
}
330
C
100
AcDbDictionary
281
     1
  0
DICTIONARY
  5
D
102
{ACAD_REACTORS
330
C
102
}
330
C
100
AcDbDictionary
281
     1
  0
DICTIONARY
  5
19
102
{ACAD_REACTORS
330
C
102
}
330
C
100
AcDbDictionary
281
     1
  3
Layout1
350
1D
  3
Model
350
21
  0
DICTIONARY
  5
DE
102
{ACAD_REACTORS
330
C
102
}
330
C
100
AcDbDictionary
281
     1
  0
DICTIONARY
  5
16
102
{ACAD_REACTORS
330
C
102
}
330
C
100
AcDbDictionary
281
     1
  3
Standard
350
17
  0
DICTIONARY
  5
18
102
{ACAD_REACTORS
330
C
102
}
330
C
100
AcDbDictionary
281
     1
  0
ACDBDICTIONARYWDFLT
  5
E
102
{ACAD_REACTORS
330
C
102
}
330
C
100
AcDbDictionary
281
     1
  3
Normal
350
F
100
AcDbDictionaryWithDefault
340
F
  0
DICTIONARY
  5
EA
102
{ACAD_REACTORS
330
C
102
}
330
C
100
AcDbDictionary
281
     1
  3
DIMASSOC
350
EB
  3
PROJECTNAME
350
EC
  0
XRECORD
  5
D4
102
{ACAD_REACTORS
330
A0
102
}
330
A0
100
AcDbXrecord
280
     1
340
1E
  0
XRECORD
  5
D3
102
{ACAD_REACTORS
330
A2
102
}
330
A2
100
AcDbXrecord
280
     1
340
1A
  0
LAYOUT
  5
1D
102
{ACAD_REACTORS
330
19
102
}
330
19
100
AcDbPlotSettings
  1

  2
\\NT_WORK01\HP LaserJet 5000 PCL 6
  4

  6

 40
0.0
 41
0.0
 42
0.0
 43
0.0
 44
0.0
 45
0.0
 46
0.0
 47
0.0
 48
0.0
 49
0.0
140
0.0
141
0.0
142
1.0
143
1.0
 70
   688
 72
     0
 73
     0
 74
     5
  7

 75
    16
147
1.0
 76
     0
 77
     2
 78
   300
148
0.0
149
0.0
100
AcDbLayout
  1
Layout1
 70
     0
 71
     1
 10
0.0
 20
0.0
 11
12.0
 21
9.0
 12
0.0
 22
0.0
 32
0.0
 14
1.000000000000000E+20
 24
1.000000000000000E+20
 34
1.000000000000000E+20
 15
-1.000000000000000E+20
 25
-1.000000000000000E+20
 35
-1.000000000000000E+20
146
0.0
 13
0.0
 23
0.0
 33
0.0
 16
1.0
 26
0.0
 36
0.0
 17
0.0
 27
1.0
 37
0.0
 76
     0
330
1A
  0
LAYOUT
  5
21
102
{ACAD_REACTORS
330
19
102
}
330
19
100
AcDbPlotSettings
  1

  2
none_device
  4
Letter_(8.50_x_11.00_Inches)
  6

 40
6.349999904632568
 41
6.349999904632568
 42
6.350006103515625
 43
6.350006103515625
 44
215.8999938964844
 45
279.3999938964844
 46
0.0
 47
0.0
 48
0.0
 49
0.0
140
0.0
141
0.0
142
1.0
143
1.0
 70
 11952
 72
     0
 73
     1
 74
     0
  7

 75
     0
147
1.0
 76
     0
 77
     2
 78
   300
148
3251.566150932968
149
127.4457819382556
100
AcDbLayout
  1
Model
 70
     1
 71
     0
 10
0.0
 20
0.0
 11
12.0
 21
9.0
 12
0.0
 22
0.0
 32
0.0
 14
0.0
 24
0.0
 34
0.0
 15
0.0
 25
0.0
 35
0.0
146
0.0
 13
0.0
 23
0.0
 33
0.0
 16
1.0
 26
0.0
 36
0.0
 17
0.0
 27
1.0
 37
0.0
 76
     0
330
1E
  0
MLINESTYLE
  5
17
102
{ACAD_REACTORS
330
16
102
}
330
16
100
AcDbMlineStyle
  2
STANDARD
 70
     0
  3

 62
   256
 51
90.0
 52
90.0
 71
     2
 49
0.5
 62
   256
  6
BYLAYER
 49
-0.5
 62
   256
  6
BYLAYER
  0
ACDBPLACEHOLDER
  5
F
102
{ACAD_REACTORS
330
E
102
}
330
E
  0
DICTIONARYVAR
  5
EB
102
{ACAD_REACTORS
330
EA
102
}
330
EA
100
DictionaryVariables
280
     0
  1
1
  0
DICTIONARYVAR
  5
EC
102
{ACAD_REACTORS
330
EA
102
}
330
EA
100
DictionaryVariables
280
     0
  1

  0
ENDSEC
  0
EOF
