  0
SECTION
  2
HEADER
  9
$ACADVER
  1
AC1018
  9
$ACADMAINTVER
 70
     2
  9
$DWGCODEPAGE
  3
ANSI_1252
  9
$INSBASE
 10
0.0
 20
0.0
 30
0.0
  9
$EXTMIN
 10
-0.0000000000001137
 20
-0.0000000000001137
 30
0.0
  9
$EXTMAX
 10
420.0
 20
594.0000000000002
 30
0.0
  9
$LIMMIN
 10
0.0
 20
0.0
  9
$LIMMAX
 10
419.9999999999999
 20
594.0000000000002
  9
$ORTHOMODE
 70
     1
  9
$REGENMODE
 70
     1
  9
$FILLMODE
 70
     1
  9
$QTEXTMODE
 70
     0
  9
$MIRRTEXT
 70
     1
  9
$LTSCALE
 40
20.0
  9
$ATTMODE
 70
     1
  9
$TEXTSIZE
 40
3.5
  9
$TRACEWID
 40
0.5
  9
$TEXTSTYLE
  7
STANDARD
  9
$CLAYER
  8
SCHRAFF
  9
$CELTYPE
  6
ByLayer
  9
$CECOLOR
 62
   256
  9
$CELTSCALE
 40
1.0
  9
$DISPSILH
 70
     0
  9
$DIMSCALE
 40
2.0
  9
$DIMASZ
 40
3.5
  9
$DIMEXO
 40
1.0
  9
$DIMDLI
 40
7.0
  9
$DIMRND
 40
0.0
  9
$DIMDLE
 40
0.0
  9
$DIMEXE
 40
1.0
  9
$DIMTP
 40
0.0
  9
$DIMTM
 40
0.0
  9
$DIMTXT
 40
3.5
  9
$DIMCEN
 40
1.5
  9
$DIMTSZ
 40
0.0
  9
$DIMTOL
 70
     0
  9
$DIMLIM
 70
     0
  9
$DIMTIH
 70
     0
  9
$DIMTOH
 70
     0
  9
$DIMSE1
 70
     0
  9
$DIMSE2
 70
     0
  9
$DIMTAD
 70
     1
  9
$DIMZIN
 70
     8
  9
$DIMBLK
  1

  9
$DIMASO
 70
     1
  9
$DIMSHO
 70
     0
  9
$DIMPOST
  1

  9
$DIMAPOST
  1

  9
$DIMALT
 70
     0
  9
$DIMALTD
 70
     2
  9
$DIMALTF
 40
25.4
  9
$DIMLFAC
 40
1.0
  9
$DIMTOFL
 70
     1
  9
$DIMTVP
 40
0.0
  9
$DIMTIX
 70
     0
  9
$DIMSOXD
 70
     0
  9
$DIMSAH
 70
     0
  9
$DIMBLK1
  1

  9
$DIMBLK2
  1

  9
$DIMSTYLE
  2
Standard
  9
$DIMCLRD
 70
     0
  9
$DIMCLRE
 70
     0
  9
$DIMCLRT
 70
     1
  9
$DIMTFAC
 40
0.5142857142857144
  9
$DIMGAP
 40
1.5
  9
$DIMJUST
 70
     0
  9
$DIMSD1
 70
     0
  9
$DIMSD2
 70
     0
  9
$DIMTOLJ
 70
     1
  9
$DIMTZIN
 70
     8
  9
$DIMALTZ
 70
     8
  9
$DIMALTTZ
 70
     8
  9
$DIMUPT
 70
     0
  9
$DIMDEC
 70
     2
  9
$DIMTDEC
 70
     2
  9
$DIMALTU
 70
     2
  9
$DIMALTTD
 70
     2
  9
$DIMTXSTY
  7
STANDARD
  9
$DIMAUNIT
 70
     0
  9
$DIMADEC
 70
     2
  9
$DIMALTRND
 40
0.0
  9
$DIMAZIN
 70
     2
  9
$DIMDSEP
 70
    46
  9
$DIMATFIT
 70
     3
  9
$DIMFRAC
 70
     0
  9
$DIMLDRBLK
  1

  9
$DIMLUNIT
 70
     2
  9
$DIMLWD
 70
    -2
  9
$DIMLWE
 70
    -2
  9
$DIMTMOVE
 70
     0
  9
$LUNITS
 70
     2
  9
$LUPREC
 70
     2
  9
$SKETCHINC
 40
1.0
  9
$FILLETRAD
 40
0.0
  9
$AUNITS
 70
     0
  9
$AUPREC
 70
     0
  9
$MENU
  1
ACAD
  9
$ELEVATION
 40
0.0
  9
$PELEVATION
 40
0.0
  9
$THICKNESS
 40
0.0
  9
$LIMCHECK
 70
     0
  9
$CHAMFERA
 40
0.0
  9
$CHAMFERB
 40
0.0
  9
$CHAMFERC
 40
0.0
  9
$CHAMFERD
 40
0.0
  9
$SKPOLY
 70
     0
  9
$TDCREATE
 40
2455397.823042361
  9
$TDUCREATE
 40
2455397.781375695
  9
$TDUPDATE
 40
2455995.438188808
  9
$TDUUPDATE
 40
2455995.396522141
  9
$TDINDWG
 40
0.0488275579
  9
$TDUSRTIMER
 40
0.0488275579
  9
$USRTIMER
 70
     1
  9
$ANGBASE
 50
0.0
  9
$ANGDIR
 70
     0
  9
$PDMODE
 70
     0
  9
$PDSIZE
 40
0.0
  9
$PLINEWID
 40
0.0
  9
$SPLFRAME
 70
     0
  9
$SPLINETYPE
 70
     6
  9
$SPLINESEGS
 70
     8
  9
$HANDSEED
  5
60E
  9
$SURFTAB1
 70
     6
  9
$SURFTAB2
 70
     6
  9
$SURFTYPE
 70
     6
  9
$SURFU
 70
     6
  9
$SURFV
 70
     6
  9
$UCSBASE
  2

  9
$UCSNAME
  2

  9
$UCSORG
 10
0.0
 20
0.0
 30
0.0
  9
$UCSXDIR
 10
1.0
 20
0.0
 30
0.0
  9
$UCSYDIR
 10
0.0
 20
1.0
 30
0.0
  9
$UCSORTHOREF
  2

  9
$UCSORTHOVIEW
 70
     0
  9
$UCSORGTOP
 10
0.0
 20
0.0
 30
0.0
  9
$UCSORGBOTTOM
 10
0.0
 20
0.0
 30
0.0
  9
$UCSORGLEFT
 10
0.0
 20
0.0
 30
0.0
  9
$UCSORGRIGHT
 10
0.0
 20
0.0
 30
0.0
  9
$UCSORGFRONT
 10
0.0
 20
0.0
 30
0.0
  9
$UCSORGBACK
 10
0.0
 20
0.0
 30
0.0
  9
$PUCSBASE
  2

  9
$PUCSNAME
  2

  9
$PUCSORG
 10
0.0
 20
0.0
 30
0.0
  9
$PUCSXDIR
 10
1.0
 20
0.0
 30
0.0
  9
$PUCSYDIR
 10
0.0
 20
1.0
 30
0.0
  9
$PUCSORTHOREF
  2

  9
$PUCSORTHOVIEW
 70
     0
  9
$PUCSORGTOP
 10
0.0
 20
0.0
 30
0.0
  9
$PUCSORGBOTTOM
 10
0.0
 20
0.0
 30
0.0
  9
$PUCSORGLEFT
 10
0.0
 20
0.0
 30
0.0
  9
$PUCSORGRIGHT
 10
0.0
 20
0.0
 30
0.0
  9
$PUCSORGFRONT
 10
0.0
 20
0.0
 30
0.0
  9
$PUCSORGBACK
 10
0.0
 20
0.0
 30
0.0
  9
$USERI1
 70
     0
  9
$USERI2
 70
     0
  9
$USERI3
 70
     0
  9
$USERI4
 70
     0
  9
$USERI5
 70
     0
  9
$USERR1
 40
0.0
  9
$USERR2
 40
0.0
  9
$USERR3
 40
0.0
  9
$USERR4
 40
0.0
  9
$USERR5
 40
0.0
  9
$WORLDVIEW
 70
     1
  9
$SHADEDGE
 70
     3
  9
$SHADEDIF
 70
    70
  9
$TILEMODE
 70
     1
  9
$MAXACTVP
 70
    16
  9
$PINSBASE
 10
0.0
 20
0.0
 30
0.0
  9
$PLIMCHECK
 70
     0
  9
$PEXTMIN
 10
1.000000000000000E+20
 20
1.000000000000000E+20
 30
1.000000000000000E+20
  9
$PEXTMAX
 10
-1.000000000000000E+20
 20
-1.000000000000000E+20
 30
-1.000000000000000E+20
  9
$PLIMMIN
 10
0.0
 20
0.0
  9
$PLIMMAX
 10
12.0
 20
9.0
  9
$UNITMODE
 70
     0
  9
$VISRETAIN
 70
     0
  9
$PLINEGEN
 70
     0
  9
$PSLTSCALE
 70
     0
  9
$TREEDEPTH
 70
  3020
  9
$CMLSTYLE
  2
Standard
  9
$CMLJUST
 70
     0
  9
$CMLSCALE
 40
1.0
  9
$PROXYGRAPHICS
 70
     1
  9
$MEASUREMENT
 70
     0
  9
$CELWEIGHT
370
    -1
  9
$ENDCAPS
280
     0
  9
$JOINSTYLE
280
     0
  9
$LWDISPLAY
290
     0
  9
$INSUNITS
 70
     0
  9
$HYPERLINKBASE
  1

  9
$STYLESHEET
  1
monochrome1.ctb
  9
$XEDIT
290
     1
  9
$CEPSNTYPE
380
     0
  9
$PSTYLEMODE
290
     1
  9
$FINGERPRINTGUID
  2
{D68B0D02-A558-11D7-B632-000102183313}
  9
$VERSIONGUID
  2
{BAAFA339-9D8C-4135-906C-F24334973D44}
  9
$EXTNAMES
290
     1
  9
$PSVPSCALE
 40
0.0
  9
$OLESTARTUP
290
     0
  9
$SORTENTS
280
   127
  9
$INDEXCTL
280
     0
  9
$HIDETEXT
280
     0
  9
$XCLIPFRAME
290
     0
  9
$HALOGAP
280
     0
  9
$OBSCOLOR
 70
   257
  9
$OBSLTYPE
280
     0
  9
$INTERSECTIONDISPLAY
280
     0
  9
$INTERSECTIONCOLOR
 70
   257
  9
$DIMASSOC
280
     1
  9
$PROJECTNAME
  1

  0
ENDSEC
  0
SECTION
  2
CLASSES
  0
CLASS
  1
ACDBDICTIONARYWDFLT
  2
AcDbDictionaryWithDefault
  3
ObjectDBX Classes
 90
        0
 91
        1
280
     0
281
     0
  0
CLASS
  1
DICTIONARYVAR
  2
AcDbDictionaryVar
  3
ObjectDBX Classes
 90
        0
 91
        2
280
     0
281
     0
  0
ENDSEC
  0
SECTION
  2
TABLES
  0
TABLE
  2
VPORT
  5
8
330
0
100
AcDbSymbolTable
 70
     3
  0
VPORT
  5
60D
330
8
100
AcDbSymbolTableRecord
100
AcDbViewportTableRecord
  2
*Active
 70
     0
 10
0.0
 20
0.0
 11
1.0
 21
1.0
 12
210.0
 22
297.0
 13
0.0
 23
0.0
 14
1.0
 24
1.0
 15
10.0
 25
10.0
 16
0.0
 26
0.0
 36
1.0
 17
0.0
 27
0.0
 37
0.0
 40
594.3818942778336
 41
1.374331550802138
 42
50.0
 43
0.0
 44
0.0
 50
0.0
 51
0.0
 71
     0
 72
  1500
 73
     1
 74
     0
 75
     0
 76
     0
 77
     0
 78
     0
281
     0
 65
     1
110
0.0
120
0.0
130
0.0
111
1.0
121
0.0
131
0.0
112
0.0
122
1.0
132
0.0
 79
     0
146
0.0
  0
ENDTAB
  0
TABLE
  2
LTYPE
  5
5
330
0
100
AcDbSymbolTable
 70
     3
  0
LTYPE
  5
13
330
5
100
AcDbSymbolTableRecord
100
AcDbLinetypeTableRecord
  2
ByBlock
 70
     0
  3

 72
    65
 73
     0
 40
0.0
  0
LTYPE
  5
14
330
5
100
AcDbSymbolTableRecord
100
AcDbLinetypeTableRecord
  2
ByLayer
 70
     0
  3

 72
    65
 73
     0
 40
0.0
  0
LTYPE
  5
15
330
5
100
AcDbSymbolTableRecord
100
AcDbLinetypeTableRecord
  2
Continuous
 70
     0
  3
Solid line
 72
    65
 73
     0
 40
0.0
  0
LTYPE
  5
25
330
5
100
AcDbSymbolTableRecord
100
AcDbLinetypeTableRecord
  2
STRICHPUNKT
 70
     0
  3
__ . __ . __ . __ . __ . __ . __ . __ . __ . __
 72
    65
 73
     4
 40
1.0
 49
0.5
 74
     0
 49
-0.25
 74
     0
 49
0.0
 74
     0
 49
-0.25
 74
     0
  0
LTYPE
  5
26
330
5
100
AcDbSymbolTableRecord
100
AcDbLinetypeTableRecord
  2
VERDECKT
 70
     0
  3
_ _ _ _ _ _ _ _ _ _ _ _ _ _ _ _ _ _ _ _ _ _ _
 72
    65
 73
     2
 40
0.375
 49
0.25
 74
     0
 49
-0.125
 74
     0
  0
ENDTAB
  0
TABLE
  2
LAYER
  5
2
330
0
100
AcDbSymbolTable
 70
    10
  0
LAYER
  5
10
330
2
100
AcDbSymbolTableRecord
100
AcDbLayerTableRecord
  2
0
 70
     0
 62
     7
  6
Continuous
370
    -3
390
F
  0
LAYER
  5
2A
330
2
100
AcDbSymbolTableRecord
100
AcDbLayerTableRecord
  2
VOLL
 70
     0
 62
     1
  6
Continuous
370
    -3
390
F
  0
LAYER
  5
2B
330
2
100
AcDbSymbolTableRecord
100
AcDbLayerTableRecord
  2
HILF
 70
     0
 62
     2
  6
Continuous
370
    -3
390
F
  0
LAYER
  5
2C
330
2
100
AcDbSymbolTableRecord
100
AcDbLayerTableRecord
  2
MITTEL
 70
     0
 62
     2
  6
STRICHPUNKT
370
    -3
390
F
  0
LAYER
  5
2D
330
2
100
AcDbSymbolTableRecord
100
AcDbLayerTableRecord
  2
VERDECKT
 70
     0
 62
     6
  6
VERDECKT
370
    -3
390
F
  0
LAYER
  5
2F
330
2
100
AcDbSymbolTableRecord
100
AcDbLayerTableRecord
  2
BEM
 70
     0
 62
     7
  6
Continuous
370
    -3
390
F
  0
LAYER
  5
30
330
2
100
AcDbSymbolTableRecord
100
AcDbLayerTableRecord
  2
STEMPEL
 70
     0
 62
     3
  6
Continuous
370
    -3
390
F
  0
LAYER
  5
31
330
2
100
AcDbSymbolTableRecord
100
AcDbLayerTableRecord
  2
TEXT
 70
     0
 62
     7
  6
Continuous
370
    -3
390
F
  0
LAYER
  5
17D
330
2
100
AcDbSymbolTableRecord
100
AcDbLayerTableRecord
  2
DEFPOINTS
 70
     0
 62
     7
  6
Continuous
290
     0
370
    -3
390
F
  0
LAYER
  5
17E
330
2
100
AcDbSymbolTableRecord
100
AcDbLayerTableRecord
  2
SCHRAFF
 70
     0
 62
     7
  6
Continuous
370
    -3
390
F
  0
ENDTAB
  0
TABLE
  2
STYLE
  5
3
330
0
100
AcDbSymbolTable
 70
     2
  0
STYLE
  5
11
330
3
100
AcDbSymbolTableRecord
100
AcDbTextStyleTableRecord
  2
STANDARD
 70
     0
 40
0.0
 41
0.8
 50
0.0
 71
     0
 42
3.5
  3
simplex.shx
  4

  0
STYLE
  5
24
330
3
100
AcDbSymbolTableRecord
100
AcDbTextStyleTableRecord
  2
GREEKS
 70
     0
 40
0.0
 41
0.8
 50
0.0
 71
     0
 42
2.5
  3
SIMPLEX.shx
  4

  0
ENDTAB
  0
TABLE
  2
VIEW
  5
6
330
0
100
AcDbSymbolTable
 70
     0
  0
ENDTAB
  0
TABLE
  2
UCS
  5
7
330
0
100
AcDbSymbolTable
 70
     0
  0
ENDTAB
  0
TABLE
  2
APPID
  5
9
330
0
100
AcDbSymbolTable
 70
     1
  0
APPID
  5
12
330
9
100
AcDbSymbolTableRecord
100
AcDbRegAppTableRecord
  2
ACAD
 70
     0
  0
ENDTAB
  0
TABLE
  2
DIMSTYLE
  5
A
330
0
100
AcDbSymbolTable
 70
     1
100
AcDbDimStyleTable
 71
     1
340
9D
  0
DIMSTYLE
105
9D
102
{ACAD_REACTORS
330
2B9
330
2A4
330
299
330
298
330
258
330
5F2
102
}
330
A
100
AcDbSymbolTableRecord
100
AcDbDimStyleTableRecord
  2
Standard
 70
     0
340
11
  0
ENDTAB
  0
TABLE
  2
BLOCK_RECORD
  5
1
330
0
100
AcDbSymbolTable
 70
     8
  0
BLOCK_RECORD
  5
1E
102
{ACAD_XDICTIONARY
360
A0
102
}
330
1
100
AcDbSymbolTableRecord
100
AcDbBlockTableRecord
  2
*Model_Space
340
21
  0
BLOCK_RECORD
  5
1A
102
{ACAD_XDICTIONARY
360
A2
102
}
330
1
100
AcDbSymbolTableRecord
100
AcDbBlockTableRecord
  2
*Paper_Space
340
1D
  0
BLOCK_RECORD
  5
22
330
1
100
AcDbSymbolTableRecord
100
AcDbBlockTableRecord
  2
LOGO
340
0
102
{BLKREFS
331
9B
102
}
  0
BLOCK_RECORD
  5
2E1
330
1
100
AcDbSymbolTableRecord
100
AcDbBlockTableRecord
  2
*D2
340
0
  0
BLOCK_RECORD
  5
2ED
330
1
100
AcDbSymbolTableRecord
100
AcDbBlockTableRecord
  2
*D3
340
0
  0
BLOCK_RECORD
  5
2F9
330
1
100
AcDbSymbolTableRecord
100
AcDbBlockTableRecord
  2
*D4
340
0
  0
BLOCK_RECORD
  5
305
330
1
100
AcDbSymbolTableRecord
100
AcDbBlockTableRecord
  2
*D5
340
0
  0
BLOCK_RECORD
  5
313
330
1
100
AcDbSymbolTableRecord
100
AcDbBlockTableRecord
  2
*D6
340
0
  0
BLOCK_RECORD
  5
5F3
330
1
100
AcDbSymbolTableRecord
100
AcDbBlockTableRecord
  2
*D7
340
0
  0
ENDTAB
  0
ENDSEC
  0
SECTION
  2
BLOCKS
  0
BLOCK
  5
35
330
1E
100
AcDbEntity
  8
0
100
AcDbBlockBegin
  2
*Model_Space
 70
     0
 10
0.0
 20
0.0
 30
0.0
  3
*Model_Space
  1

  0
ENDBLK
  5
36
330
1E
100
AcDbEntity
  8
0
100
AcDbBlockEnd
  0
BLOCK
  5
33
330
1A
100
AcDbEntity
 67
     1
  8
0
100
AcDbBlockBegin
  2
*Paper_Space
 70
     0
 10
0.0
 20
0.0
 30
0.0
  3
*Paper_Space
  1

  0
ENDBLK
  5
34
330
1A
100
AcDbEntity
 67
     1
  8
0
100
AcDbBlockEnd
  0
BLOCK
  5
37
330
22
100
AcDbEntity
  8
0
100
AcDbBlockBegin
  2
LOGO
 70
     0
 10
0.0
 20
0.0
 30
0.0
  3
LOGO
  1

  0
ARC
  5
38
330
22
100
AcDbEntity
  8
0
100
AcDbCircle
 10
11.59973089678112
 20
-9.271599258481501
 30
0.0
 40
4.5
100
AcDbArc
 50
270.0
 51
231.0575587310159
  0
LINE
  5
39
330
22
100
AcDbEntity
  8
0
100
AcDbLine
 10
3.599730896781125
 20
-4.771599258481529
 30
0.0
 11
3.599730896781153
 21
-11.77159925848133
 31
0.0
  0
LINE
  5
3A
330
22
100
AcDbEntity
  8
0
100
AcDbLine
 10
2.599730896781125
 20
-4.771599258481529
 30
0.0
 11
2.599730896781153
 21
-11.77159925848133
 31
0.0
  0
CIRCLE
  5
3B
330
22
100
AcDbEntity
  8
0
100
AcDbCircle
 10
11.59973089678112
 20
-9.271599258481501
 30
0.0
 40
3.5
  0
ARC
  5
3C
330
22
100
AcDbEntity
  8
0
100
AcDbCircle
 10
31.59973089678115
 20
-9.271599258481472
 30
0.0
 40
4.5
100
AcDbArc
 50
270.0
 51
231.0575587310182
  0
LINE
  5
3D
330
22
100
AcDbEntity
  8
0
100
AcDbLine
 10
17.59973089678112
 20
-4.771599258481472
 30
0.0
 11
17.59973089678115
 21
-13.77159925848147
 31
0.0
  0
ARC
  5
3E
330
22
100
AcDbEntity
  8
0
100
AcDbCircle
 10
22.59973089678116
 20
-7.271599258481472
 30
0.0
 40
2.5
100
AcDbArc
 50
293.1161887722295
 51
90.0
  0
CIRCLE
  5
3F
330
22
100
AcDbEntity
  8
0
100
AcDbCircle
 10
31.59973089678115
 20
-9.271599258481472
 30
0.0
 40
3.5
  0
ARC
  5
40
330
22
100
AcDbEntity
  8
0
100
AcDbCircle
 10
4.599730896781153
 20
-11.77159925848133
 30
0.0
 40
1.0
100
AcDbArc
 50
180.0
 51
270.0
  0
ARC
  5
41
330
22
100
AcDbEntity
  8
0
100
AcDbCircle
 10
4.599730896781153
 20
-11.77159925848133
 30
0.0
 40
2.0
100
AcDbArc
 50
179.9999999999992
 51
270.0
  0
LINE
  5
42
330
22
100
AcDbEntity
  8
0
100
AcDbLine
 10
11.59973089678115
 20
-13.77159925848144
 30
0.0
 11
4.599730896781153
 21
-13.77159925848147
 31
0.0
  0
LINE
  5
43
330
22
100
AcDbEntity
  8
0
100
AcDbLine
 10
8.771303772034769
 20
-12.77159925848136
 30
0.0
 11
4.599730896781153
 21
-12.77159925848133
 31
0.0
  0
LINE
  5
44
330
22
100
AcDbEntity
  8
0
100
AcDbLine
 10
31.59973089678115
 20
-13.77159925848147
 30
0.0
 11
23.6715276665056
 21
-13.77159925848144
 31
0.0
  0
LINE
  5
45
330
22
100
AcDbEntity
  8
0
100
AcDbLine
 10
23.56565672307022
 20
-9.51278021337896
 30
0.0
 11
24.4388546544846
 21
-12.77159925848144
 31
0.0
  0
LINE
  5
46
330
22
100
AcDbEntity
  8
0
100
AcDbLine
 10
22.59973089678116
 20
-9.771599258481472
 30
0.0
 11
18.59973089678112
 21
-9.771599258481472
 31
0.0
  0
LINE
  5
47
330
22
100
AcDbEntity
  8
0
100
AcDbLine
 10
18.59973089678115
 20
-13.77159925848144
 30
0.0
 11
17.59973089678115
 21
-13.77159925848144
 31
0.0
  0
LINE
  5
48
330
22
100
AcDbEntity
  8
0
100
AcDbLine
 10
18.59973089678115
 20
-9.771599258481472
 30
0.0
 11
18.59973089678115
 21
-13.77159925848144
 31
0.0
  0
LINE
  5
49
330
22
100
AcDbEntity
  8
0
100
AcDbLine
 10
22.59973089678116
 20
-9.771599258481472
 30
0.0
 11
23.67152766650562
 21
-13.77159925848147
 31
0.0
  0
ARC
  5
4A
330
22
100
AcDbEntity
  8
0
100
AcDbCircle
 10
22.59973089678116
 20
-7.271599258481472
 30
0.0
 40
2.5
100
AcDbArc
 50
270.0
 51
270.0000000000007
  0
LINE
  5
4B
330
22
100
AcDbEntity
  8
0
100
AcDbLine
 10
28.77130377203494
 20
-12.77159925848147
 30
0.0
 11
24.43885465448463
 21
-12.77159925848144
 31
0.0
  0
LINE
  5
4C
330
22
100
AcDbEntity
  8
0
100
AcDbLine
 10
3.599730896781125
 20
-4.771599258481472
 30
0.0
 11
2.599730896781125
 21
-4.771599258481472
 31
0.0
  0
LINE
  5
4D
330
22
100
AcDbEntity
  8
0
100
AcDbLine
 10
22.59973089678116
 20
-8.771599258481472
 30
0.0
 11
18.59973089678115
 21
-8.771599258481472
 31
0.0
  0
LINE
  5
4E
330
22
100
AcDbEntity
  8
0
100
AcDbLine
 10
22.59973089678116
 20
-5.771599258481472
 30
0.0
 11
18.59973089678115
 21
-5.771599258481472
 31
0.0
  0
LINE
  5
4F
330
22
100
AcDbEntity
  8
0
100
AcDbLine
 10
22.59973089678116
 20
-4.771599258481472
 30
0.0
 11
17.59973089678115
 21
-4.771599258481472
 31
0.0
  0
LINE
  5
50
330
22
100
AcDbEntity
  8
0
100
AcDbLine
 10
18.59973089678115
 20
-5.771599258481472
 30
0.0
 11
18.59973089678115
 21
-8.771599258481472
 31
0.0
  0
ARC
  5
51
330
22
100
AcDbEntity
  8
0
100
AcDbCircle
 10
22.59973089678116
 20
-7.271599258481472
 30
0.0
 40
1.5
100
AcDbArc
 50
270.0
 51
90.0
  0
ENDBLK
  5
52
330
22
100
AcDbEntity
  8
0
100
AcDbBlockEnd
  0
BLOCK
  5
2EB
330
2E1
100
AcDbEntity
  8
0
100
AcDbBlockBegin
  2
*D2
 70
     1
 10
0.0
 20
0.0
 30
0.0
  3
*D2
  1

  0
LINE
  5
540
330
2E1
100
AcDbEntity
  8
BEM
 62
     0
370
    -2
100
AcDbLine
 10
195.7960073864344
 20
310.0307494576735
 30
0.0
 11
195.7960073864344
 21
288.9301337759664
 31
0.0
  0
LINE
  5
541
330
2E1
100
AcDbEntity
  8
BEM
 62
     0
370
    -2
100
AcDbLine
 10
248.7960073864343
 20
310.0307494576735
 30
0.0
 11
248.7960073864343
 21
288.9301337759664
 31
0.0
  0
LINE
  5
542
330
2E1
100
AcDbEntity
  8
BEM
 62
     0
370
    -2
100
AcDbLine
 10
202.7960073864345
 20
290.9301337759664
 30
0.0
 11
241.7960073864343
 21
290.9301337759664
 31
0.0
  0
SOLID
  5
543
330
2E1
100
AcDbEntity
  8
BEM
 62
     0
100
AcDbTrace
 10
202.7960073864345
 20
292.0968004426331
 30
0.0
 11
202.7960073864345
 21
289.7634671092997
 31
0.0
 12
195.7960073864344
 22
290.9301337759664
 32
0.0
 13
195.7960073864344
 23
290.9301337759664
 33
0.0
  0
SOLID
  5
544
330
2E1
100
AcDbEntity
  8
BEM
 62
     0
100
AcDbTrace
 10
241.7960073864343
 20
292.0968004426331
 30
0.0
 11
241.7960073864343
 21
289.7634671092997
 31
0.0
 12
248.7960073864343
 22
290.9301337759664
 32
0.0
 13
248.7960073864343
 23
290.9301337759664
 33
0.0
  0
MTEXT
  5
545
330
2E1
100
AcDbEntity
  8
BEM
 62
     1
100
AcDbMText
 10
222.2960073864344
 20
297.4301337759664
 30
0.0
 40
7.0
 41
0.0
 71
     5
 72
     1
  1
\A1;%%c53
 73
     1
 44
1.0
  0
POINT
  5
546
330
2E1
100
AcDbEntity
  8
DEFPOINTS
 62
     0
100
AcDbPoint
 10
195.7960073864344
 20
312.0307494576735
 30
0.0
  0
POINT
  5
547
330
2E1
100
AcDbEntity
  8
DEFPOINTS
 62
     0
100
AcDbPoint
 10
248.7960073864343
 20
312.0307494576735
 30
0.0
  0
POINT
  5
548
330
2E1
100
AcDbEntity
  8
DEFPOINTS
 62
     0
100
AcDbPoint
 10
248.7960073864343
 20
290.9301337759664
 30
0.0
  0
ENDBLK
  5
2EC
330
2E1
100
AcDbEntity
  8
0
100
AcDbBlockEnd
  0
BLOCK
  5
2F7
330
2ED
100
AcDbEntity
  8
0
100
AcDbBlockBegin
  2
*D3
 70
     1
 10
0.0
 20
0.0
 30
0.0
  3
*D3
  1

  0
LINE
  5
5D5
330
2ED
100
AcDbEntity
  8
BEM
 62
     0
370
    -2
100
AcDbLine
 10
194.227720947749
 20
307.0962408720359
 30
0.0
 11
113.2636988288786
 21
307.0962408720359
 31
0.0
  0
LINE
  5
5D6
330
2ED
100
AcDbEntity
  8
BEM
 62
     0
370
    -2
100
AcDbLine
 10
144.2960073864338
 20
559.0962408720359
 30
0.0
 11
113.2636988288786
 21
559.0962408720359
 31
0.0
  0
LINE
  5
5D7
330
2ED
100
AcDbEntity
  8
BEM
 62
     0
370
    -2
100
AcDbLine
 10
115.2636988288786
 20
314.0962408720359
 30
0.0
 11
115.2636988288786
 21
552.0962408720359
 31
0.0
  0
SOLID
  5
5D8
330
2ED
100
AcDbEntity
  8
BEM
 62
     0
100
AcDbTrace
 10
114.0970321622119
 20
314.0962408720359
 30
0.0
 11
116.4303654955453
 21
314.0962408720359
 31
0.0
 12
115.2636988288786
 22
307.0962408720359
 32
0.0
 13
115.2636988288786
 23
307.0962408720359
 33
0.0
  0
SOLID
  5
5D9
330
2ED
100
AcDbEntity
  8
BEM
 62
     0
100
AcDbTrace
 10
114.097032162212
 20
552.0962408720359
 30
0.0
 11
116.4303654955453
 21
552.0962408720359
 31
0.0
 12
115.2636988288786
 22
559.0962408720359
 32
0.0
 13
115.2636988288786
 23
559.0962408720359
 33
0.0
  0
MTEXT
  5
5DA
330
2ED
100
AcDbEntity
  8
BEM
 62
     1
100
AcDbMText
 10
108.7636988288785
 20
433.096240872036
 30
0.0
 40
7.0
 41
0.0
 71
     5
 72
     1
  1
\A1;252
 11
0.0000000000000001
 21
1.0
 31
0.0
 73
     1
 44
1.0
  0
POINT
  5
5DB
330
2ED
100
AcDbEntity
  8
DEFPOINTS
 62
     0
100
AcDbPoint
 10
196.227720947749
 20
307.0962408720359
 30
0.0
  0
POINT
  5
5DC
330
2ED
100
AcDbEntity
  8
DEFPOINTS
 62
     0
100
AcDbPoint
 10
146.2960073864338
 20
559.0962408720359
 30
0.0
  0
POINT
  5
5DD
330
2ED
100
AcDbEntity
  8
DEFPOINTS
 62
     0
100
AcDbPoint
 10
115.2636988288786
 20
559.0962408720359
 30
0.0
  0
ENDBLK
  5
2F8
330
2ED
100
AcDbEntity
  8
0
100
AcDbBlockEnd
  0
BLOCK
  5
303
330
2F9
100
AcDbEntity
  8
0
100
AcDbBlockBegin
  2
*D4
 70
     1
 10
0.0
 20
0.0
 30
0.0
  3
*D4
  1

  0
LINE
  5
5CC
330
2F9
100
AcDbEntity
  8
BEM
 62
     0
370
    -2
100
AcDbLine
 10
194.227720947749
 20
307.0962408720359
 30
0.0
 11
129.0519870308574
 21
307.0962408720359
 31
0.0
  0
LINE
  5
5CD
330
2F9
100
AcDbEntity
  8
BEM
 62
     0
370
    -2
100
AcDbLine
 10
144.2960073864338
 20
557.0962408720357
 30
0.0
 11
129.0519870308574
 21
557.0962408720357
 31
0.0
  0
LINE
  5
5CE
330
2F9
100
AcDbEntity
  8
BEM
 62
     0
370
    -2
100
AcDbLine
 10
131.0519870308574
 20
314.0962408720359
 30
0.0
 11
131.0519870308574
 21
550.0962408720357
 31
0.0
  0
SOLID
  5
5CF
330
2F9
100
AcDbEntity
  8
BEM
 62
     0
100
AcDbTrace
 10
129.8853203641907
 20
314.0962408720359
 30
0.0
 11
132.218653697524
 21
314.0962408720359
 31
0.0
 12
131.0519870308574
 22
307.0962408720359
 32
0.0
 13
131.0519870308574
 23
307.0962408720359
 33
0.0
  0
SOLID
  5
5D0
330
2F9
100
AcDbEntity
  8
BEM
 62
     0
100
AcDbTrace
 10
129.8853203641908
 20
550.0962408720357
 30
0.0
 11
132.2186536975241
 21
550.0962408720357
 31
0.0
 12
131.0519870308574
 22
557.0962408720357
 32
0.0
 13
131.0519870308574
 23
557.0962408720357
 33
0.0
  0
MTEXT
  5
5D1
330
2F9
100
AcDbEntity
  8
BEM
 62
     1
100
AcDbMText
 10
124.5519870308573
 20
432.0962408720358
 30
0.0
 40
7.0
 41
0.0
 71
     5
 72
     1
  1
\A1;250
 11
0.0000000000000001
 21
1.0
 31
0.0
 73
     1
 44
1.0
  0
POINT
  5
5D2
330
2F9
100
AcDbEntity
  8
DEFPOINTS
 62
     0
100
AcDbPoint
 10
196.227720947749
 20
307.0962408720359
 30
0.0
  0
POINT
  5
5D3
330
2F9
100
AcDbEntity
  8
DEFPOINTS
 62
     0
100
AcDbPoint
 10
146.2960073864338
 20
557.0962408720357
 30
0.0
  0
POINT
  5
5D4
330
2F9
100
AcDbEntity
  8
DEFPOINTS
 62
     0
100
AcDbPoint
 10
131.0519870308574
 20
557.0962408720357
 30
0.0
  0
ENDBLK
  5
304
330
2F9
100
AcDbEntity
  8
0
100
AcDbBlockEnd
  0
BLOCK
  5
311
330
305
100
AcDbEntity
  8
0
100
AcDbBlockBegin
  2
*D5
 70
     1
 10
0.0
 20
0.0
 30
0.0
  3
*D5
  1

  0
LINE
  5
5C1
330
305
100
AcDbEntity
  8
BEM
 62
     0
370
    -2
100
AcDbLine
 10
144.2960073864338
 20
559.0962408720359
 30
0.0
 11
129.0519870308574
 21
559.0962408720359
 31
0.0
  0
LINE
  5
5C2
330
305
100
AcDbEntity
  8
BEM
 62
     0
370
    -2
100
AcDbLine
 10
144.2960073864338
 20
557.0962408720357
 30
0.0
 11
129.0519870308574
 21
557.0962408720357
 31
0.0
  0
LINE
  5
5C3
330
305
100
AcDbEntity
  8
BEM
 62
     0
370
    -2
100
AcDbLine
 10
131.0519870308574
 20
550.0962408720357
 30
0.0
 11
131.0519870308574
 21
543.0962408720358
 31
0.0
  0
LINE
  5
5C4
330
305
100
AcDbEntity
  8
BEM
 62
     0
370
    -2
100
AcDbLine
 10
131.0519870308574
 20
566.096240872036
 30
0.0
 11
131.0519870308574
 21
582.8295742053693
 31
0.0
  0
LINE
  5
5C5
330
305
100
AcDbEntity
  8
BEM
 62
     0
370
    -2
100
AcDbLine
 10
131.0519870308574
 20
557.0962408720357
 30
0.0
 11
131.0519870308574
 21
559.0962408720359
 31
0.0
  0
SOLID
  5
5C6
330
305
100
AcDbEntity
  8
BEM
 62
     0
100
AcDbTrace
 10
129.8853203641908
 20
550.0962408720357
 30
0.0
 11
132.2186536975241
 21
550.0962408720357
 31
0.0
 12
131.0519870308574
 22
557.0962408720357
 32
0.0
 13
131.0519870308574
 23
557.0962408720357
 33
0.0
  0
SOLID
  5
5C7
330
305
100
AcDbEntity
  8
BEM
 62
     0
100
AcDbTrace
 10
129.8853203641908
 20
566.096240872036
 30
0.0
 11
132.2186536975241
 21
566.096240872036
 31
0.0
 12
131.0519870308574
 22
559.0962408720359
 32
0.0
 13
131.0519870308574
 23
559.0962408720359
 33
0.0
  0
MTEXT
  5
5C8
330
305
100
AcDbEntity
  8
BEM
 62
     1
100
AcDbMText
 10
124.5519870308573
 20
577.9629075387027
 30
0.0
 40
7.0
 41
0.0
 71
     5
 72
     1
  1
\A1;2
 11
0.0000000000000001
 21
1.0
 31
0.0
 73
     1
 44
1.0
  0
POINT
  5
5C9
330
305
100
AcDbEntity
  8
DEFPOINTS
 62
     0
100
AcDbPoint
 10
146.2960073864338
 20
559.0962408720359
 30
0.0
  0
POINT
  5
5CA
330
305
100
AcDbEntity
  8
DEFPOINTS
 62
     0
100
AcDbPoint
 10
146.2960073864338
 20
557.0962408720357
 30
0.0
  0
POINT
  5
5CB
330
305
100
AcDbEntity
  8
DEFPOINTS
 62
     0
100
AcDbPoint
 10
131.0519870308574
 20
557.0962408720357
 30
0.0
  0
ENDBLK
  5
312
330
305
100
AcDbEntity
  8
0
100
AcDbBlockEnd
  0
BLOCK
  5
31F
330
313
100
AcDbEntity
  8
0
100
AcDbBlockBegin
  2
*D6
 70
     1
 10
0.0
 20
0.0
 30
0.0
  3
*D6
  1

  0
LINE
  5
5DE
330
313
100
AcDbEntity
  8
BEM
 62
     0
370
    -2
100
AcDbLine
 10
246.1746870428742
 20
561.096240872036
 30
0.0
 11
317.257154790273
 21
561.0962408720358
 31
0.0
  0
LINE
  5
5DF
330
313
100
AcDbEntity
  8
BEM
 62
     0
370
    -2
100
AcDbLine
 10
300.2960073864338
 20
559.0962408720359
 30
0.0
 11
317.257154790273
 21
559.0962408720359
 31
0.0
  0
LINE
  5
5E0
330
313
100
AcDbEntity
  8
BEM
 62
     0
370
    -2
100
AcDbLine
 10
315.257154790273
 20
568.0962408720358
 30
0.0
 11
315.257154790273
 21
575.0962408720359
 31
0.0
  0
LINE
  5
5E1
330
313
100
AcDbEntity
  8
BEM
 62
     0
370
    -2
100
AcDbLine
 10
315.257154790273
 20
552.0962408720359
 30
0.0
 11
315.257154790273
 21
535.3629075387026
 31
0.0
  0
LINE
  5
5E2
330
313
100
AcDbEntity
  8
BEM
 62
     0
370
    -2
100
AcDbLine
 10
315.257154790273
 20
561.0962408720358
 30
0.0
 11
315.257154790273
 21
559.0962408720359
 31
0.0
  0
SOLID
  5
5E3
330
313
100
AcDbEntity
  8
BEM
 62
     0
100
AcDbTrace
 10
314.0904881236064
 20
568.0962408720358
 30
0.0
 11
316.4238214569397
 21
568.0962408720358
 31
0.0
 12
315.257154790273
 22
561.0962408720358
 32
0.0
 13
315.257154790273
 23
561.0962408720358
 33
0.0
  0
SOLID
  5
5E4
330
313
100
AcDbEntity
  8
BEM
 62
     0
100
AcDbTrace
 10
314.0904881236064
 20
552.0962408720359
 30
0.0
 11
316.4238214569397
 21
552.0962408720359
 31
0.0
 12
315.257154790273
 22
559.0962408720359
 32
0.0
 13
315.257154790273
 23
559.0962408720359
 33
0.0
  0
MTEXT
  5
5E5
330
313
100
AcDbEntity
  8
BEM
 62
     1
100
AcDbMText
 10
308.757154790273
 20
540.2295742053694
 30
0.0
 40
7.0
 41
0.0
 71
     5
 72
     1
  1
\A1;2
 11
0.0000000000000001
 21
1.0
 31
0.0
 73
     1
 44
1.0
  0
POINT
  5
5E6
330
313
100
AcDbEntity
  8
DEFPOINTS
 62
     0
100
AcDbPoint
 10
244.1746870428742
 20
561.096240872036
 30
0.0
  0
POINT
  5
5E7
330
313
100
AcDbEntity
  8
DEFPOINTS
 62
     0
100
AcDbPoint
 10
298.2960073864338
 20
559.0962408720359
 30
0.0
  0
POINT
  5
5E8
330
313
100
AcDbEntity
  8
DEFPOINTS
 62
     0
100
AcDbPoint
 10
315.257154790273
 20
559.0962408720359
 30
0.0
  0
ENDBLK
  5
320
330
313
100
AcDbEntity
  8
0
100
AcDbBlockEnd
  0
BLOCK
  5
5FD
330
5F3
100
AcDbEntity
  8
0
100
AcDbBlockBegin
  2
*D7
 70
     1
 10
0.0
 20
0.0
 30
0.0
  3
*D7
  1

  0
LINE
  5
5FF
330
5F3
100
AcDbEntity
  8
BEM
 62
     0
370
    -2
100
AcDbLine
 10
220.2960073864337
 20
130.7130360654627
 30
0.0
 11
135.4880822085638
 21
130.7130360654628
 31
0.0
  0
LINE
  5
600
330
5F3
100
AcDbEntity
  8
BEM
 62
     0
370
    -2
100
AcDbLine
 10
220.2960073864337
 20
282.7130360654627
 30
0.0
 11
135.4880822085638
 21
282.7130360654627
 31
0.0
  0
LINE
  5
601
330
5F3
100
AcDbEntity
  8
BEM
 62
     0
370
    -2
100
AcDbLine
 10
137.4880822085638
 20
137.7130360654627
 30
0.0
 11
137.4880822085638
 21
275.7130360654628
 31
0.0
  0
SOLID
  5
602
330
5F3
100
AcDbEntity
  8
BEM
 62
     0
100
AcDbTrace
 10
136.3214155418971
 20
137.7130360654627
 30
0.0
 11
138.6547488752304
 21
137.7130360654627
 31
0.0
 12
137.4880822085638
 22
130.7130360654628
 32
0.0
 13
137.4880822085638
 23
130.7130360654628
 33
0.0
  0
SOLID
  5
603
330
5F3
100
AcDbEntity
  8
BEM
 62
     0
100
AcDbTrace
 10
136.3214155418971
 20
275.7130360654628
 30
0.0
 11
138.6547488752304
 21
275.7130360654628
 31
0.0
 12
137.4880822085638
 22
282.7130360654627
 32
0.0
 13
137.4880822085638
 23
282.7130360654627
 33
0.0
  0
MTEXT
  5
604
330
5F3
100
AcDbEntity
  8
BEM
 62
     1
100
AcDbMText
 10
130.9880822085637
 20
206.7130360654628
 30
0.0
 40
7.0
 41
0.0
 71
     5
 72
     1
  1
\A1;152
 11
0.0000000000000001
 21
1.0
 31
0.0
 73
     1
 44
1.0
  0
POINT
  5
605
330
5F3
100
AcDbEntity
  8
DEFPOINTS
 62
     0
100
AcDbPoint
 10
222.2960073864337
 20
130.7130360654627
 30
0.0
  0
POINT
  5
606
330
5F3
100
AcDbEntity
  8
DEFPOINTS
 62
     0
100
AcDbPoint
 10
222.2960073864337
 20
282.7130360654627
 30
0.0
  0
POINT
  5
607
330
5F3
100
AcDbEntity
  8
DEFPOINTS
 62
     0
100
AcDbPoint
 10
137.4880822085638
 20
282.7130360654627
 30
0.0
  0
ENDBLK
  5
5FE
330
5F3
100
AcDbEntity
  8
0
100
AcDbBlockEnd
  0
ENDSEC
  0
SECTION
  2
ENTITIES
  0
LINE
  5
57
330
1E
100
AcDbEntity
  8
STEMPEL
100
AcDbLine
 10
410.0
 20
110.0
 30
0.0
 11
39.99999999999997
 21
110.0
 31
0.0
  0
LINE
  5
58
330
1E
100
AcDbEntity
  8
STEMPEL
100
AcDbLine
 10
136.0000000000001
 20
109.9999999999999
 30
0.0
 11
136.0
 21
9.999999999999971
 31
0.0
  0
LINE
  5
59
330
1E
100
AcDbEntity
  8
STEMPEL
100
AcDbLine
 10
220.0
 20
110.0
 30
0.0
 11
220.0
 21
9.999999999999971
 31
0.0
  0
LINE
  5
5A
330
1E
100
AcDbEntity
  8
STEMPEL
100
AcDbLine
 10
332.0
 20
109.9999999999997
 30
0.0
 11
332.0
 21
40.0
 31
0.0
  0
LINE
  5
5B
330
1E
100
AcDbEntity
  8
STEMPEL
100
AcDbLine
 10
135.9999999999999
 20
29.99999999999997
 30
0.0
 11
39.99999999999997
 21
29.99999999999997
 31
0.0
  0
LINE
  5
5C
330
1E
100
AcDbEntity
  8
STEMPEL
100
AcDbLine
 10
410.0
 20
40.0
 30
0.0
 11
136.0000000000001
 21
39.99999999999997
 31
0.0
  0
LINE
  5
5D
330
1E
100
AcDbEntity
  8
STEMPEL
100
AcDbLine
 10
410.0
 20
80.0
 30
0.0
 11
136.0000000000001
 21
79.99999999999994
 31
0.0
  0
LINE
  5
5E
330
1E
100
AcDbEntity
  8
VOLL
100
AcDbLine
 10
54.00000000000009
 20
110.0
 30
0.0
 11
53.99999999999997
 21
9.999999999999971
 31
0.0
  0
LINE
  5
5F
330
1E
100
AcDbEntity
  8
VOLL
100
AcDbLine
 10
94.00000000000011
 20
109.9999999999999
 30
0.0
 11
94.0
 21
9.999999999999971
 31
0.0
  0
LINE
  5
60
330
1E
100
AcDbEntity
  8
VOLL
100
AcDbLine
 10
114.0000000000001
 20
109.9999999999999
 30
0.0
 11
114.0
 21
9.999999999999971
 31
0.0
  0
LINE
  5
61
330
1E
100
AcDbEntity
  8
VOLL
100
AcDbLine
 10
154.0000000000001
 20
79.99999999999994
 30
0.0
 11
154.0000000000001
 21
39.99999999999997
 31
0.0
  0
LINE
  5
62
330
1E
100
AcDbEntity
  8
VOLL
100
AcDbLine
 10
180.0000000000001
 20
109.9999999999998
 30
0.0
 11
180.0
 21
39.99999999999997
 31
0.0
  0
LINE
  5
63
330
1E
100
AcDbEntity
  8
HILF
100
AcDbLine
 10
40.00000000000008
 20
100.0
 30
0.0
 11
136.0000000000001
 21
100.0
 31
0.0
  0
LINE
  5
64
330
1E
100
AcDbEntity
  8
HILF
100
AcDbLine
 10
40.00000000000008
 20
90.00000000000005
 30
0.0
 11
136.0000000000001
 21
90.00000000000005
 31
0.0
  0
LINE
  5
65
330
1E
100
AcDbEntity
  8
HILF
100
AcDbLine
 10
40.00000000000008
 20
79.99999999999994
 30
0.0
 11
136.0000000000001
 21
79.99999999999994
 31
0.0
  0
LINE
  5
66
330
1E
100
AcDbEntity
  8
HILF
100
AcDbLine
 10
40.00000000000008
 20
69.99999999999994
 30
0.0
 11
136.0000000000001
 21
69.99999999999994
 31
0.0
  0
LINE
  5
67
330
1E
100
AcDbEntity
  8
HILF
100
AcDbLine
 10
40.00000000000008
 20
59.99999999999997
 30
0.0
 11
136.0000000000001
 21
59.99999999999997
 31
0.0
  0
LINE
  5
68
330
1E
100
AcDbEntity
  8
HILF
100
AcDbLine
 10
40.00000000000008
 20
49.99999999999997
 30
0.0
 11
136.0000000000001
 21
49.99999999999997
 31
0.0
  0
LINE
  5
69
330
1E
100
AcDbEntity
  8
HILF
100
AcDbLine
 10
40.00000000000008
 20
39.99999999999997
 30
0.0
 11
136.0000000000001
 21
39.99999999999997
 31
0.0
  0
LINE
  5
6A
330
1E
100
AcDbEntity
  8
HILF
100
AcDbLine
 10
136.0000000000001
 20
69.99999999999994
 30
0.0
 11
220.0
 21
69.99999999999994
 31
0.0
  0
LINE
  5
6B
330
1E
100
AcDbEntity
  8
HILF
100
AcDbLine
 10
136.0000000000001
 20
59.99999999999997
 30
0.0
 11
220.0
 21
59.99999999999997
 31
0.0
  0
LINE
  5
6C
330
1E
100
AcDbEntity
  8
HILF
100
AcDbLine
 10
136.0000000000001
 20
49.99999999999997
 30
0.0
 11
220.0
 21
49.99999999999997
 31
0.0
  0
LINE
  5
6D
330
1E
100
AcDbEntity
  8
HILF
100
AcDbLine
 10
224.7736801096948
 20
84.03758247564139
 30
0.0
 11
324.8353916556311
 21
84.03758247564139
 31
0.0
  0
LINE
  5
6E
330
1E
100
AcDbEntity
  8
HILF
100
AcDbLine
 10
224.7736801096948
 20
69.99999999999994
 30
0.0
 11
324.835391655631
 21
69.99999999999994
 31
0.0
  0
LINE
  5
6F
330
1E
100
AcDbEntity
  8
HILF
100
AcDbLine
 10
224.7736801096948
 20
59.99999999999997
 30
0.0
 11
324.835391655631
 21
59.99999999999997
 31
0.0
  0
LINE
  5
70
330
1E
100
AcDbEntity
  8
HILF
100
AcDbLine
 10
224.7736801096948
 20
49.99999999999997
 30
0.0
 11
324.835391655631
 21
49.99999999999997
 31
0.0
  0
LINE
  5
71
330
1E
100
AcDbEntity
  8
VOLL
100
AcDbLine
 10
332.0
 20
60.0
 30
0.0
 11
410.0
 21
60.0
 31
0.0
  0
LINE
  5
72
330
1E
100
AcDbEntity
  8
HILF
100
AcDbLine
 10
336.7238616296993
 20
83.77983636955827
 30
0.0
 11
404.8588839326728
 21
83.77983636955827
 31
0.0
  0
LINE
  5
73
330
1E
100
AcDbEntity
  8
HILF
100
AcDbLine
 10
223.4909699289885
 20
14.89398258028314
 30
0.0
 11
404.8588839326728
 21
14.89398258028314
 31
0.0
  0
TEXT
  5
74
330
1E
100
AcDbEntity
  8
TEXT
100
AcDbText
 10
63.97619749102928
 20
18.67381894984132
 30
0.0
 40
4.0
  1
Änderung
 41
0.8
  7
GREEKS
 72
     1
 11
74.71905463388643
 21
18.67381894984132
 31
0.0
100
AcDbText
  0
TEXT
  5
75
330
1E
100
AcDbEntity
  8
TEXT
100
AcDbText
 10
143.5163572150377
 20
102.4620895087088
 30
0.0
 40
5.0
  1
Maßstab
 41
0.8
  7
GREEKS
100
AcDbText
  0
TEXT
  5
76
330
1E
100
AcDbEntity
  8
TEXT
100
AcDbText
 10
184.2858954734051
 20
102.4184168434819
 30
0.0
 40
5.0
  1
Zul. Abw.
 41
0.8
  7
GREEKS
100
AcDbText
  0
TEXT
  5
77
330
1E
100
AcDbEntity
  8
TEXT
100
AcDbText
 10
224.877940380901
 20
102.5489328011779
 30
0.0
 40
5.0
  1
Benennung
 41
0.8
  7
GREEKS
100
AcDbText
  0
TEXT
  5
78
330
1E
100
AcDbEntity
  8
TEXT
100
AcDbText
 10
336.178754957634
 20
102.3132034537136
 30
0.0
 40
5.0
  1
Zeichnungs Nr.
 41
0.8
  7
GREEKS
100
AcDbText
  0
TEXT
  5
79
330
1E
100
AcDbEntity
  8
TEXT
100
AcDbText
 10
224.742238391136
 20
30.84560570193057
 30
0.0
 40
5.0
  1
Bauvorhaben
 41
0.8
  7
GREEKS
100
AcDbText
  0
TEXT
  5
7A
330
1E
100
AcDbEntity
  8
TEXT
100
AcDbText
 10
336.7238616296993
 20
73.1811823709997
 30
0.0
 40
5.0
  1
Ersatz für:
 41
0.8
  7
GREEKS
100
AcDbText
  0
TEXT
  5
7B
330
1E
100
AcDbEntity
  8
TEXT
100
AcDbText
 10
48.26641107045756
 20
13.65465846027192
 30
0.0
 40
4.0
  1
Index
 50
90.0
 41
0.8
  7
GREEKS
100
AcDbText
  0
TEXT
  5
7C
330
1E
100
AcDbEntity
  8
TEXT
100
AcDbText
 10
100.6986119235389
 20
18.6715626933981
 30
0.0
 40
4.0
  1
Tag
 41
0.8
  7
GREEKS
 72
     1
 11
104.4319452568723
 21
18.6715626933981
 31
0.0
100
AcDbText
  0
TEXT
  5
7D
330
1E
100
AcDbEntity
  8
TEXT
100
AcDbText
 10
119.0122744386592
 20
18.59324216966408
 30
0.0
 40
4.0
  1
Name
 41
0.8
  7
GREEKS
 72
     1
 11
125.3360839624688
 21
18.59324216966408
 31
0.0
100
AcDbText
  0
TEXT
  5
7E
330
1E
100
AcDbEntity
  8
TEXT
100
AcDbText
 10
162.3311673153651
 20
73.31880501229926
 30
0.0
 40
4.0
  1
Tag
 41
0.8
  7
GREEKS
100
AcDbText
  0
TEXT
  5
7F
330
1E
100
AcDbEntity
  8
TEXT
100
AcDbText
 10
192.4626584226295
 20
73.30961091915225
 30
0.0
 40
4.0
  1
Name
 41
0.8
  7
GREEKS
100
AcDbText
  0
TEXT
  5
80
330
1E
100
AcDbEntity
  8
TEXT
100
AcDbText
 10
137.5836127167615
 20
63.62990369617964
 30
0.0
 40
4.0
  1
Gez.
 41
0.8
  7
GREEKS
100
AcDbText
  0
TEXT
  5
81
330
1E
100
AcDbEntity
  8
TEXT
100
AcDbText
 10
137.5515086571672
 20
53.68926291428377
 30
0.0
 40
4.0
  1
Gepr.
 41
0.8
  7
GREEKS
100
AcDbText
  0
TEXT
  5
82
330
1E
100
AcDbEntity
  8
TEXT
100
AcDbText
 10
137.6006777387304
 20
43.52946389649807
 30
0.0
 40
4.0
  1
Norm.
 41
0.8
  7
GREEKS
100
AcDbText
  0
LINE
  5
83
330
1E
100
AcDbEntity
  8
STEMPEL
100
AcDbLine
 10
49.99999999999989
 20
10.0
 30
0.0
 11
410.0
 21
10.0
 31
0.0
  0
TEXT
  5
84
330
1E
100
AcDbEntity
  8
TEXT
100
AcDbText
 10
337.2400861497006
 20
52.07416177878602
 30
0.0
 40
5.0
  1
ersetzt durch:
 41
0.8
  7
GREEKS
100
AcDbText
  0
LINE
  5
85
330
1E
100
AcDbEntity
  8
STEMPEL
100
AcDbLine
 10
410.0
 20
10.0
 30
0.0
 11
39.99999999999989
 21
10.0
 31
0.0
  0
LINE
  5
86
330
1E
100
AcDbEntity
  8
STEMPEL
100
AcDbLine
 10
410.0
 20
10.0
 30
0.0
 11
410.0
 21
584.0
 31
0.0
  0
LINE
  5
87
330
1E
100
AcDbEntity
  8
STEMPEL
100
AcDbLine
 10
40.0
 20
10.0
 30
0.0
 11
39.99999999999989
 21
584.0
 31
0.0
  0
LINE
  5
88
330
1E
100
AcDbEntity
  8
STEMPEL
100
AcDbLine
 10
410.0
 20
584.0
 30
0.0
 11
39.99999999999989
 21
584.0
 31
0.0
  0
LINE
  5
89
330
1E
100
AcDbEntity
  8
HILF
100
AcDbLine
 10
0.0
 20
0.0
 30
0.0
 11
-0.0000000000001137
 21
594.0
 31
0.0
  0
LINE
  5
8A
330
1E
100
AcDbEntity
  8
HILF
100
AcDbLine
 10
419.9999999999999
 20
594.0000000000002
 30
0.0
 11
0.0
 21
594.0
 31
0.0
  0
LINE
  5
8B
330
1E
100
AcDbEntity
  8
HILF
100
AcDbLine
 10
420.0
 20
0.0
 30
0.0
 11
0.0
 21
0.0
 31
0.0
  0
LINE
  5
8C
330
1E
100
AcDbEntity
  8
HILF
100
AcDbLine
 10
31.08767135713856
 20
297.0
 30
0.0
 11
0.0000000000001137
 21
297.0
 31
0.0
  0
TEXT
  5
8D
330
1E
100
AcDbEntity
  8
TEXT
100
AcDbText
 10
138.622109822104
 20
73.14025471151666
 30
0.0
 40
4.0
  1
2012
 41
0.8
  7
GREEKS
100
AcDbText
  0
LINE
  5
8E
330
1E
100
AcDbEntity
  8
HILF
100
AcDbLine
 10
420.0
 20
-0.0000000000001137
 30
0.0
 11
419.9999999999999
 21
594.0
 31
0.0
  0
TEXT
  5
8F
330
1E
100
AcDbEntity
  8
VOLL
100
AcDbText
 10
78.07675471698113
 20
31.02594776470585
 30
0.0
 40
1.8
  1

  7
GREEKS
100
AcDbText
  0
TEXT
  5
90
330
1E
100
AcDbEntity
  8
TEXT
100
AcDbText
 10
41.85509950977674
 20
111.6719999999999
 30
0.0
 40
5.0
  1
Erstellt mit AUTOCAD 2004
 41
0.8
  7
GREEKS
100
AcDbText
  0
TEXT
  5
91
330
1E
100
AcDbEntity
  8
TEXT
100
AcDbText
 10
194.4216048581257
 20
63.0896391972351
 30
0.0
 40
4.0
  1
Koeh
 41
0.8
  7
GREEKS
 72
     1
 11
199.6787477152685
 21
63.0896391972351
 31
0.0
100
AcDbText
  0
TEXT
  5
92
330
1E
100
AcDbEntity
  8
TEXT
 62
     1
100
AcDbText
 10
345.8630902086937
 20
88.14901428913959
 30
0.0
 40
7.0
  1
16733050W
 41
0.8
  7
GREEKS
 72
     1
 11
369.3297568753604
 21
88.14901428913959
 31
0.0
100
AcDbText
  0
TEXT
  5
93
330
1E
100
AcDbEntity
  8
TEXT
 62
     1
100
AcDbText
 10
150.5006306481887
 20
88.14901428913959
 30
0.0
 40
7.0
  1
1:2
 41
0.8
  7
GREEKS
100
AcDbText
  0
TEXT
  5
94
330
1E
100
AcDbEntity
  8
TEXT
100
AcDbText
 10
160.398997108236
 20
63.10765040825732
 30
0.0
 40
4.0
  1
08.03.
 41
0.8
  7
GREEKS
 72
     1
 11
167.4085209177598
 21
63.10765040825732
 31
0.0
100
AcDbText
  0
TEXT
  5
95
330
1E
100
AcDbEntity
  8
TEXT
 62
     1
100
AcDbText
 10
226.8935731057402
 20
87.41748789253779
 30
0.0
 40
7.0
  1
Ablaufkörper DN50
 41
0.8
  7
GREEKS
100
AcDbText
  0
TEXT
  5
98
330
1E
100
AcDbEntity
  8
TEXT
100
AcDbText
 10
225.1296391125315
 20
51.64011943042158
 30
0.0
 40
5.0
  1
EDV-Art.Nr. 16733.050X
 41
0.8
  7
GREEKS
100
AcDbText
  0
TEXT
  5
99
330
1E
100
AcDbEntity
  8
TEXT
100
AcDbText
 10
224.9837501577827
 20
42.62974153022632
 30
0.0
 40
4.0
  1
16733050W.DWG
 41
0.8
  7
GREEKS
100
AcDbText
  0
TEXT
  5
9A
330
1E
100
AcDbEntity
  8
TEXT
100
AcDbText
 10
182.626132208084
 20
90.76363841023022
 30
0.0
 40
4.0
  1
DIN EN1123-2
 41
0.8
  7
GREEKS
 72
     1
 11
199.6166083985602
 21
90.76363841023022
 31
0.0
100
AcDbText
  0
INSERT
  5
9B
330
1E
100
AcDbEntity
  8
STEMPEL
100
AcDbBlockReference
  2
LOGO
 10
140.9955485457794
 20
45.02105276448322
 30
0.0
 41
2.0
 42
2.0
 43
2.0
  0
TEXT
  5
118
330
1E
100
AcDbEntity
  8
BEM
100
AcDbText
 10
417.3022923857165
 20
10.16790107998849
 30
0.0
 40
4.0
  1
Diese Zeichnung ist urheberrechtlich geschützt und bleibt unser Eigentum. Sie darf weder ganz noch teilweise verfielfältigt und nicht an Dritte weitergegeben werden.
 50
90.0
 41
0.8
  7
GREEKS
100
AcDbText
  0
CIRCLE
  5
225
330
1E
100
AcDbEntity
  8
HILF
100
AcDbCircle
 10
222.2960073864337
 20
206.7130360654628
 30
0.0
 40
25.15285047356757
  0
CIRCLE
  5
226
330
1E
100
AcDbEntity
  8
VERDECKT
100
AcDbCircle
 10
222.2960073864336
 20
206.7130360654628
 30
0.0
 40
25.0
  0
CIRCLE
  5
227
330
1E
100
AcDbEntity
  8
VERDECKT
100
AcDbCircle
 10
222.2960073864336
 20
206.7130360654628
 30
0.0
 40
26.5
  0
ARC
  5
229
330
1E
100
AcDbEntity
  8
STEMPEL
100
AcDbCircle
 10
237.4988031819445
 20
191.5102402699519
 30
0.0
 40
3.5
100
AcDbArc
 50
225.0
 51
45.0
  0
ARC
  5
22A
330
1E
100
AcDbEntity
  8
STEMPEL
100
AcDbCircle
 10
237.4988031819444
 20
221.9158318609735
 30
0.0
 40
3.5
100
AcDbArc
 50
315.0
 51
135.0
  0
LINE
  5
22B
330
1E
100
AcDbEntity
  8
STEMPEL
100
AcDbLine
 10
237.7960073864337
 20
203.2130360654627
 30
0.0
 11
243.7960073864337
 21
203.2130360654627
 31
0.0
  0
LINE
  5
22C
330
1E
100
AcDbEntity
  8
STEMPEL
100
AcDbLine
 10
237.7960073864337
 20
210.2130360654627
 30
0.0
 11
243.7960073864337
 21
210.2130360654627
 31
0.0
  0
LINE
  5
22D
330
1E
100
AcDbEntity
  8
MITTEL
100
AcDbLine
 10
140.7960073864337
 20
206.7130360654628
 30
0.0
 11
303.7960073864337
 21
206.7130360654628
 31
0.0
  0
LINE
  5
22E
330
1E
100
AcDbEntity
  8
MITTEL
100
AcDbLine
 10
201.0828039508372
 20
227.9262395010592
 30
0.0
 11
243.5092108220301
 21
185.4998326298663
 31
0.0
  0
LINE
  5
22F
330
1E
100
AcDbEntity
  8
MITTEL
100
AcDbLine
 10
243.5092108220301
 20
227.9262395010592
 30
0.0
 11
201.0828039508372
 21
185.4998326298663
 31
0.0
  0
CIRCLE
  5
230
330
1E
100
AcDbEntity
  8
STEMPEL
100
AcDbCircle
 10
222.2960073864337
 20
206.7130360654628
 30
0.0
 40
76.0
  0
ARC
  5
231
330
1E
100
AcDbEntity
  8
HILF
100
AcDbCircle
 10
222.2960073864336
 20
206.7130360654628
 30
0.0
 40
23.02672995353534
100
AcDbArc
 50
188.1168315070082
 51
216.8831684929902
  0
LINE
  5
232
330
1E
100
AcDbEntity
  8
STEMPEL
100
AcDbLine
 10
230.7812887606722
 20
193.2780072229183
 30
0.0
 11
235.0239294477916
 21
189.035366535799
 31
0.0
  0
ARC
  5
233
330
1E
100
AcDbEntity
  8
STEMPEL
100
AcDbCircle
 10
222.2960073864337
 20
191.2130360654628
 30
0.0
 40
3.5
100
AcDbArc
 50
0.0
 51
180.0
  0
LINE
  5
234
330
1E
100
AcDbEntity
  8
STEMPEL
100
AcDbLine
 10
213.8107260121952
 20
193.2780072229183
 30
0.0
 11
209.5680853250759
 21
189.035366535799
 31
0.0
  0
ARC
  5
235
330
1E
100
AcDbEntity
  8
STEMPEL
100
AcDbCircle
 10
207.0932115909229
 20
191.5102402699519
 30
0.0
 40
3.5
100
AcDbArc
 50
135.0
 51
315.0
  0
LINE
  5
236
330
1E
100
AcDbEntity
  8
MITTEL
100
AcDbLine
 10
222.2960073864337
 20
288.2130360654628
 30
0.0
 11
222.2960073864337
 21
125.2130360654627
 31
0.0
  0
ARC
  5
237
330
1E
100
AcDbEntity
  8
HILF
100
AcDbCircle
 10
222.2960073864336
 20
206.7130360654628
 30
0.0
 40
23.02672995353534
100
AcDbArc
 50
233.1168315070098
 51
261.8831684929918
  0
ARC
  5
238
330
1E
100
AcDbEntity
  8
HILF
100
AcDbCircle
 10
222.2960073864336
 20
206.7130360654628
 30
0.0
 40
23.02672995353534
100
AcDbArc
 50
278.1168315070098
 51
306.8831684929902
  0
ARC
  5
239
330
1E
100
AcDbEntity
  8
STEMPEL
100
AcDbCircle
 10
222.2960073864337
 20
185.2130360654627
 30
0.0
 40
3.5
100
AcDbArc
 50
180.0
 51
0.0
  0
LINE
  5
23A
330
1E
100
AcDbEntity
  8
STEMPEL
100
AcDbLine
 10
218.7960073864337
 20
191.2130360654627
 30
0.0
 11
218.7960073864337
 21
185.2130360654627
 31
0.0
  0
LINE
  5
23B
330
1E
100
AcDbEntity
  8
STEMPEL
100
AcDbLine
 10
225.7960073864337
 20
191.2130360654627
 30
0.0
 11
225.7960073864337
 21
185.2130360654627
 31
0.0
  0
ARC
  5
23C
330
1E
100
AcDbEntity
  8
HILF
100
AcDbCircle
 10
222.2960073864336
 20
206.7130360654628
 30
0.0
 40
23.02672995353534
100
AcDbArc
 50
98.11683150700824
 51
126.8831684929902
  0
CIRCLE
  5
23D
330
1E
100
AcDbEntity
  8
STEMPEL
100
AcDbCircle
 10
222.2960073864337
 20
206.7130360654628
 30
0.0
 40
7.5
  0
ARC
  5
23E
330
1E
100
AcDbEntity
  8
STEMPEL
100
AcDbCircle
 10
207.0932115909229
 20
221.9158318609735
 30
0.0
 40
3.5
100
AcDbArc
 50
45.0
 51
225.0
  0
LINE
  5
23F
330
1E
100
AcDbEntity
  8
STEMPEL
100
AcDbLine
 10
208.8609785438893
 20
198.2277546912242
 30
0.0
 11
204.61833785677
 21
193.9851140041048
 31
0.0
  0
LINE
  5
240
330
1E
100
AcDbEntity
  8
STEMPEL
100
AcDbLine
 10
206.7960073864337
 20
203.2130360654627
 30
0.0
 11
200.7960073864337
 21
203.2130360654628
 31
0.0
  0
LINE
  5
241
330
1E
100
AcDbEntity
  8
STEMPEL
100
AcDbLine
 10
206.7960073864337
 20
210.2130360654628
 30
0.0
 11
200.7960073864337
 21
210.2130360654628
 31
0.0
  0
LINE
  5
242
330
1E
100
AcDbEntity
  8
STEMPEL
100
AcDbLine
 10
208.8609785438893
 20
215.1983174397013
 30
0.0
 11
204.61833785677
 21
219.4409581268207
 31
0.0
  0
ARC
  5
243
330
1E
100
AcDbEntity
  8
STEMPEL
100
AcDbCircle
 10
200.7960073864337
 20
206.7130360654628
 30
0.0
 40
3.5
100
AcDbArc
 50
90.0
 51
270.0
  0
ARC
  5
244
330
1E
100
AcDbEntity
  8
HILF
100
AcDbCircle
 10
222.2960073864336
 20
206.7130360654628
 30
0.0
 40
23.02672995353534
100
AcDbArc
 50
143.1168315070098
 51
171.8831684929917
  0
ARC
  5
245
330
1E
100
AcDbEntity
  8
STEMPEL
100
AcDbCircle
 10
206.7960073864337
 20
206.7130360654628
 30
0.0
 40
3.5
100
AcDbArc
 50
270.0
 51
90.0
  0
ARC
  5
246
330
1E
100
AcDbEntity
  8
STEMPEL
100
AcDbCircle
 10
211.3358522780422
 20
195.7528809570712
 30
0.0
 40
3.5
100
AcDbArc
 50
315.0
 51
135.0
  0
LINE
  5
247
330
1E
100
AcDbEntity
  8
STEMPEL
100
AcDbLine
 10
213.8107260121952
 20
220.1480649080072
 30
0.0
 11
209.5680853250759
 21
224.3907055951265
 31
0.0
  0
ARC
  5
248
330
1E
100
AcDbEntity
  8
STEMPEL
100
AcDbCircle
 10
211.3358522780422
 20
217.6731911738542
 30
0.0
 40
3.5
100
AcDbArc
 50
225.0
 51
45.0
  0
ARC
  5
249
330
1E
100
AcDbEntity
  8
HILF
100
AcDbCircle
 10
222.2960073864336
 20
206.7130360654628
 30
0.0
 40
23.02672995353534
100
AcDbArc
 50
53.11683150700979
 51
81.88316849299015
  0
LINE
  5
24A
330
1E
100
AcDbEntity
  8
STEMPEL
100
AcDbLine
 10
218.7960073864337
 20
222.2130360654627
 30
0.0
 11
218.7960073864337
 21
228.2130360654627
 31
0.0
  0
LINE
  5
24B
330
1E
100
AcDbEntity
  8
STEMPEL
100
AcDbLine
 10
225.7960073864337
 20
222.2130360654627
 30
0.0
 11
225.7960073864337
 21
228.2130360654627
 31
0.0
  0
ARC
  5
24C
330
1E
100
AcDbEntity
  8
STEMPEL
100
AcDbCircle
 10
233.2561624948252
 20
195.7528809570712
 30
0.0
 40
3.5
100
AcDbArc
 50
45.0
 51
225.0
  0
ARC
  5
24D
330
1E
100
AcDbEntity
  8
STEMPEL
100
AcDbCircle
 10
233.2561624948252
 20
217.6731911738542
 30
0.0
 40
3.5
100
AcDbArc
 50
135.0
 51
315.0
  0
ARC
  5
24E
330
1E
100
AcDbEntity
  8
STEMPEL
100
AcDbCircle
 10
222.2960073864337
 20
222.2130360654627
 30
0.0
 40
3.5
100
AcDbArc
 50
180.0
 51
0.0
  0
ARC
  5
24F
330
1E
100
AcDbEntity
  8
STEMPEL
100
AcDbCircle
 10
237.7960073864337
 20
206.7130360654628
 30
0.0
 40
3.5
100
AcDbArc
 50
90.0
 51
270.0
  0
LINE
  5
250
330
1E
100
AcDbEntity
  8
STEMPEL
100
AcDbLine
 10
235.7310362289781
 20
198.2277546912242
 30
0.0
 11
239.9736769160974
 21
193.9851140041048
 31
0.0
  0
LINE
  5
251
330
1E
100
AcDbEntity
  8
STEMPEL
100
AcDbLine
 10
230.7812887606722
 20
220.1480649080072
 30
0.0
 11
235.0239294477916
 21
224.3907055951265
 31
0.0
  0
LINE
  5
252
330
1E
100
AcDbEntity
  8
STEMPEL
100
AcDbLine
 10
235.7310362289781
 20
215.1983174397013
 30
0.0
 11
239.9736769160974
 21
219.4409581268206
 31
0.0
  0
ARC
  5
253
330
1E
100
AcDbEntity
  8
STEMPEL
100
AcDbCircle
 10
222.2960073864337
 20
228.2130360654627
 30
0.0
 40
3.5
100
AcDbArc
 50
0.0
 51
180.0
  0
ARC
  5
254
330
1E
100
AcDbEntity
  8
HILF
100
AcDbCircle
 10
222.2960073864336
 20
206.7130360654628
 30
0.0
 40
23.02672995353534
100
AcDbArc
 50
323.1168315070098
 51
351.8831684929901
  0
ARC
  5
255
330
1E
100
AcDbEntity
  8
STEMPEL
100
AcDbCircle
 10
243.7960073864337
 20
206.7130360654628
 30
0.0
 40
3.5
100
AcDbArc
 50
270.0
 51
90.0
  0
ARC
  5
256
330
1E
100
AcDbEntity
  8
HILF
100
AcDbCircle
 10
222.2960073864336
 20
206.7130360654628
 30
0.0
 40
23.02672995353534
100
AcDbArc
 50
8.116831507008237
 51
36.88316849299022
  0
DIMENSION
  5
258
330
1E
100
AcDbEntity
  8
BEM
100
AcDbDimension
  2
*D2
 10
248.7960073864343
 20
290.9301337759664
 30
0.0
 11
222.2960073864344
 21
297.4301337759664
 31
0.0
 70
    32
  1
%%c<>
 71
     5
 42
52.99999999999989
  3
Standard
100
AcDbAlignedDimension
 13
195.7960073864344
 23
312.0307494576735
 33
0.0
 14
248.7960073864343
 24
312.0307494576735
 34
0.0
100
AcDbRotatedDimension
1001
ACAD
1000
DSTYLE
1002
{
1070
    40
1040
2.0
1070
    41
1040
3.5
1070
    42
1040
1.0
1070
    43
1040
7.0
1070
    44
1040
1.0
1070
    73
1070
     0
1070
    74
1070
     0
1070
    77
1070
     1
1070
    78
1070
     8
1070
    79
1070
     2
1070
   140
1040
3.5
1070
   141
1040
1.5
1070
   146
1040
0.5142857142857144
1070
   147
1040
1.5
1070
   172
1070
     1
1070
   178
1070
     1
1070
   179
1070
     2
1070
   271
1070
     2
1070
   272
1070
     2
1070
   284
1070
     8
1070
   285
1070
     8
1070
   286
1070
     8
1002
}
  0
LINE
  5
293
102
{ACAD_REACTORS
330
483
330
5B7
102
}
330
1E
100
AcDbEntity
  8
STEMPEL
100
AcDbLine
 10
146.2960073864338
 20
557.0962408720357
 30
0.0
 11
298.2960073864338
 21
557.096240872036
 31
0.0
  0
LINE
  5
294
102
{ACAD_REACTORS
330
5B7
102
}
330
1E
100
AcDbEntity
  8
STEMPEL
100
AcDbLine
 10
199.7102209488068
 20
559.0962408720359
 30
0.0
 11
244.8817938240609
 21
559.0962408720359
 31
0.0
  0
LINE
  5
295
102
{ACAD_REACTORS
330
5B7
102
}
330
1E
100
AcDbEntity
  8
STEMPEL
100
AcDbLine
 10
200.4173277299935
 20
561.096240872036
 30
0.0
 11
244.1746870428742
 21
561.096240872036
 31
0.0
  0
LINE
  5
296
330
1E
100
AcDbEntity
  8
HILF
100
AcDbLine
 10
245.7902776301192
 20
312.096240872036
 30
0.0
 11
198.8017371427494
 21
312.096240872036
 31
0.0
  0
LINE
  5
297
102
{ACAD_REACTORS
330
483
102
}
330
1E
100
AcDbEntity
  8
STEMPEL
100
AcDbLine
 10
248.3642938251197
 20
307.0962408720359
 30
0.0
 11
196.227720947749
 21
307.0962408720359
 31
0.0
  0
DIMENSION
  5
298
330
1E
100
AcDbEntity
  8
BEM
100
AcDbDimension
  2
*D3
 10
115.2636988288786
 20
559.0962408720359
 30
0.0
 11
108.7636988288785
 21
433.096240872036
 31
0.0
 70
    32
 71
     5
 42
252.0
  3
Standard
100
AcDbAlignedDimension
 13
196.227720947749
 23
307.0962408720359
 33
0.0
 14
146.2960073864338
 24
559.0962408720359
 34
0.0
 50
90.0
100
AcDbRotatedDimension
1001
ACAD
1000
DSTYLE
1002
{
1070
    40
1040
2.0
1070
    41
1040
3.5
1070
    42
1040
1.0
1070
    43
1040
7.0
1070
    44
1040
1.0
1070
    73
1070
     0
1070
    74
1070
     0
1070
    77
1070
     1
1070
    78
1070
     8
1070
    79
1070
     2
1070
   140
1040
3.5
1070
   141
1040
1.5
1070
   146
1040
0.5142857142857144
1070
   147
1040
1.5
1070
   172
1070
     1
1070
   178
1070
     1
1070
   179
1070
     2
1070
   271
1070
     2
1070
   272
1070
     2
1070
   284
1070
     8
1070
   285
1070
     8
1070
   286
1070
     8
1002
}
  0
DIMENSION
  5
299
330
1E
100
AcDbEntity
  8
BEM
100
AcDbDimension
  2
*D4
 10
131.0519870308574
 20
557.0962408720357
 30
0.0
 11
124.5519870308573
 21
432.0962408720358
 31
0.0
 70
    32
 71
     5
 42
249.9999999999998
  3
Standard
100
AcDbAlignedDimension
 13
196.227720947749
 23
307.0962408720359
 33
0.0
 14
146.2960073864338
 24
557.0962408720357
 34
0.0
 50
90.0
100
AcDbRotatedDimension
1001
ACAD
1000
DSTYLE
1002
{
1070
    40
1040
2.0
1070
    41
1040
3.5
1070
    42
1040
1.0
1070
    43
1040
7.0
1070
    44
1040
1.0
1070
    73
1070
     0
1070
    74
1070
     0
1070
    77
1070
     1
1070
    78
1070
     8
1070
    79
1070
     2
1070
   140
1040
3.5
1070
   141
1040
1.5
1070
   146
1040
0.5142857142857144
1070
   147
1040
1.5
1070
   172
1070
     1
1070
   178
1070
     1
1070
   179
1070
     2
1070
   271
1070
     2
1070
   272
1070
     2
1070
   284
1070
     8
1070
   285
1070
     8
1070
   286
1070
     8
1002
}
  0
LINE
  5
29A
102
{ACAD_REACTORS
330
483
102
}
330
1E
100
AcDbEntity
  8
STEMPEL
100
AcDbLine
 10
195.7960073864333
 20
557.0962408720357
 30
0.0
 11
195.7960073864344
 21
312.0307494576735
 31
0.0
  0
LINE
  5
29B
102
{ACAD_REACTORS
330
483
102
}
330
1E
100
AcDbEntity
  8
STEMPEL
100
AcDbLine
 10
197.2960073864333
 20
557.0962408720357
 30
0.0
 11
197.2960073864344
 21
312.0962408720359
 31
0.0
  0
LINE
  5
29C
330
1E
100
AcDbEntity
  8
MITTEL
100
AcDbLine
 10
222.2960073864339
 20
566.096240872036
 30
0.0
 11
222.2960073864344
 21
302.0962408720359
 31
0.0
  0
LINE
  5
29D
102
{ACAD_REACTORS
330
483
102
}
330
1E
100
AcDbEntity
  8
STEMPEL
100
AcDbLine
 10
195.7960073864344
 20
312.0307494576735
 30
0.0
 11
196.227720947749
 21
307.0962408720359
 31
0.0
  0
LINE
  5
29E
102
{ACAD_REACTORS
330
483
102
}
330
1E
100
AcDbEntity
  8
STEMPEL
100
AcDbLine
 10
197.2960073864344
 20
312.0962408720359
 30
0.0
 11
197.7334507040641
 21
307.0962408720359
 31
0.0
  0
HATCH
  5
2A1
330
1E
100
AcDbEntity
  8
SCHRAFF
100
AcDbHatch
 10
0.0
 20
0.0
 30
0.0
210
0.0
220
0.0
230
1.0
  2
_USER
 70
     0
 71
     0
 91
        1
 92
        7
 72
     1
 73
     1
 93
        3
 10
195.7960073864338
 20
554.0962408720359
 42
0.0
 10
195.7960073864338
 20
557.0962408720358
 42
0.0
 10
192.7960073864338
 20
557.0962408720358
 42
0.4142135623730951
 97
        0
 75
     0
 76
     0
 52
0.0
 41
0.1
 77
     0
 78
     1
 53
0.0
 43
91.84589704982863
 44
154.4199787241313
 45
0.0
 46
0.1
 79
     0
 47
0.0469429173688829
 98
        1
 10
193.926344834065
 20
555.8578641037847
  0
ARC
  5
2A2
330
1E
100
AcDbEntity
  8
SCHRAFF
100
AcDbCircle
 10
195.7960073864338
 20
557.0962408720358
 30
0.0
 40
3.0
100
AcDbArc
 50
180.0
 51
270.0
  0
LINE
  5
2A3
102
{ACAD_REACTORS
330
5B7
102
}
330
1E
100
AcDbEntity
  8
STEMPEL
100
AcDbLine
 10
146.2960073864338
 20
559.0962408720359
 30
0.0
 11
196.760473480501
 21
559.0962408720359
 31
0.0
  0
DIMENSION
  5
2A4
330
1E
100
AcDbEntity
  8
BEM
100
AcDbDimension
  2
*D5
 10
131.0519870308574
 20
557.0962408720357
 30
0.0
 11
131.0519870308573
 21
577.9629075387027
 31
0.0
 70
   160
 71
     5
 42
2.000000000000227
  3
Standard
100
AcDbAlignedDimension
 13
146.2960073864338
 23
559.0962408720359
 33
0.0
 14
146.2960073864338
 24
557.0962408720357
 34
0.0
 50
90.0
100
AcDbRotatedDimension
1001
ACAD
1000
DSTYLE
1002
{
1070
    40
1040
2.0
1070
    41
1040
3.5
1070
    42
1040
1.0
1070
    43
1040
7.0
1070
    44
1040
1.0
1070
    73
1070
     0
1070
    74
1070
     0
1070
    77
1070
     1
1070
    78
1070
     8
1070
    79
1070
     2
1070
   140
1040
3.5
1070
   141
1040
1.5
1070
   146
1040
0.5142857142857144
1070
   147
1040
1.5
1070
   172
1070
     1
1070
   178
1070
     1
1070
   179
1070
     2
1070
   271
1070
     2
1070
   272
1070
     2
1070
   284
1070
     8
1070
   285
1070
     8
1070
   286
1070
     8
1002
}
  0
LINE
  5
2A5
102
{ACAD_REACTORS
330
5B7
102
}
330
1E
100
AcDbEntity
  8
STEMPEL
100
AcDbLine
 10
146.2960073864338
 20
559.0962408720359
 30
0.0
 11
146.2960073864338
 21
557.096240872036
 31
0.0
  0
ARC
  5
2A6
330
1E
100
AcDbEntity
  8
STEMPEL
100
AcDbCircle
 10
200.4173277299935
 20
558.096240872036
 30
0.0
 40
3.0
100
AcDbArc
 50
90.0
 51
134.9999999999988
  0
ARC
  5
2A7
102
{ACAD_REACTORS
330
5B7
102
}
330
1E
100
AcDbEntity
  8
STEMPEL
100
AcDbCircle
 10
196.0533666993146
 20
560.0962408720359
 30
0.0
 40
3.0
100
AcDbArc
 50
270.0
 51
315.0
  0
ARC
  5
2A8
102
{ACAD_REACTORS
330
5B7
102
}
330
1E
100
AcDbEntity
  8
STEMPEL
100
AcDbCircle
 10
196.760473480501
 20
560.0962408720358
 30
0.0
 40
1.0
100
AcDbArc
 50
270.0
 51
314.9999999999988
  0
ARC
  5
2A9
330
1E
100
AcDbEntity
  8
STEMPEL
100
AcDbCircle
 10
199.7102209488068
 20
558.0962408720359
 30
0.0
 40
1.0
100
AcDbArc
 50
90.0
 51
135.0000000000011
  0
LINE
  5
2AA
102
{ACAD_REACTORS
330
5B7
102
}
330
1E
100
AcDbEntity
  8
STEMPEL
100
AcDbLine
 10
197.2800976619932
 20
557.3585171560256
 30
0.0
 11
197.1693838013939
 21
559.1836663000324
 31
0.0
  0
LINE
  5
2AB
330
1E
100
AcDbEntity
  8
STEMPEL
100
AcDbLine
 10
197.4675802616876
 20
559.3891340908494
 30
0.0
 11
198.2960073864339
 21
560.2175612155956
 31
0.0
  0
LINE
  5
2AC
330
1E
100
AcDbEntity
  8
STEMPEL
100
AcDbLine
 10
198.1746870428742
 20
557.9749205284763
 30
0.0
 11
199.0031141676203
 21
558.8033476532225
 31
0.0
  0
LINE
  5
2AD
102
{ACAD_REACTORS
330
5B7
102
}
330
1E
100
AcDbEntity
  8
STEMPEL
100
AcDbLine
 10
210.2960073864338
 20
559.0962408720359
 30
0.0
 11
210.2960073864338
 21
561.096240872036
 31
0.0
  0
LINE
  5
2AE
102
{ACAD_REACTORS
330
5B7
102
}
330
1E
100
AcDbEntity
  8
STEMPEL
100
AcDbLine
 10
214.7960073864338
 20
561.096240872036
 30
0.0
 11
214.7960073864338
 21
559.0962408720359
 31
0.0
  0
LINE
  5
2AF
102
{ACAD_REACTORS
330
5B7
102
}
330
1E
100
AcDbEntity
  8
STEMPEL
100
AcDbLine
 10
229.7960073864338
 20
561.096240872036
 30
0.0
 11
229.7960073864338
 21
559.0962408720359
 31
0.0
  0
LINE
  5
2B0
102
{ACAD_REACTORS
330
5B7
102
}
330
1E
100
AcDbEntity
  8
STEMPEL
100
AcDbLine
 10
234.2960073864338
 20
559.0962408720359
 30
0.0
 11
234.2960073864338
 21
561.096240872036
 31
0.0
  0
LINE
  5
2B1
102
{ACAD_REACTORS
330
483
102
}
330
1E
100
AcDbEntity
  8
STEMPEL
100
AcDbLine
 10
248.7960073864333
 20
557.096240872036
 30
0.0
 11
248.7960073864343
 21
312.0307494576735
 31
0.0
  0
LINE
  5
2B2
102
{ACAD_REACTORS
330
483
102
}
330
1E
100
AcDbEntity
  8
STEMPEL
100
AcDbLine
 10
247.2960073864332
 20
557.096240872036
 30
0.0
 11
247.2960073864343
 21
312.096240872036
 31
0.0
  0
LINE
  5
2B3
102
{ACAD_REACTORS
330
483
102
}
330
1E
100
AcDbEntity
  8
STEMPEL
100
AcDbLine
 10
247.2960073864342
 20
312.0962408720359
 30
0.0
 11
246.8585640688046
 21
307.0962408720359
 31
0.0
  0
LINE
  5
2B4
102
{ACAD_REACTORS
330
483
102
}
330
1E
100
AcDbEntity
  8
STEMPEL
100
AcDbLine
 10
248.7960073864343
 20
312.0307494576735
 30
0.0
 11
248.3642938251197
 21
307.0962408720359
 31
0.0
  0
DIMENSION
  5
2B9
330
1E
100
AcDbEntity
  8
BEM
100
AcDbDimension
  2
*D6
 10
315.257154790273
 20
559.0962408720359
 30
0.0
 11
308.757154790273
 21
540.2295742053694
 31
0.0
 70
    32
 71
     5
 42
1.999999999999886
  3
Standard
100
AcDbAlignedDimension
 13
244.1746870428742
 23
561.096240872036
 33
0.0
 14
298.2960073864338
 24
559.0962408720359
 34
0.0
 50
90.0
100
AcDbRotatedDimension
1001
ACAD
1000
DSTYLE
1002
{
1070
    40
1040
2.0
1070
    41
1040
3.5
1070
    42
1040
1.0
1070
    43
1040
7.0
1070
    44
1040
1.0
1070
    73
1070
     0
1070
    74
1070
     0
1070
    77
1070
     1
1070
    78
1070
     8
1070
    79
1070
     2
1070
   140
1040
3.5
1070
   141
1040
1.5
1070
   146
1040
0.5142857142857144
1070
   147
1040
1.5
1070
   172
1070
     1
1070
   178
1070
     1
1070
   179
1070
     2
1070
   271
1070
     2
1070
   272
1070
     2
1070
   284
1070
     8
1070
   285
1070
     8
1070
   286
1070
     8
1002
}
  0
LINE
  5
2BB
102
{ACAD_REACTORS
330
5B7
102
}
330
1E
100
AcDbEntity
  8
STEMPEL
100
AcDbLine
 10
247.8315412923666
 20
559.0962408720359
 30
0.0
 11
298.2960073864338
 21
559.0962408720359
 31
0.0
  0
ARC
  5
2BC
330
1E
100
AcDbEntity
  8
SCHRAFF
100
AcDbCircle
 10
248.7960073864341
 20
557.0962408720358
 30
0.0
 40
3.0
100
AcDbArc
 50
270.0
 51
0.0
  0
ARC
  5
2BD
330
1E
100
AcDbEntity
  8
STEMPEL
100
AcDbCircle
 10
244.1746870428742
 20
558.096240872036
 30
0.0
 40
3.0
100
AcDbArc
 50
45.00000000000115
 51
90.0
  0
LINE
  5
2BE
330
1E
100
AcDbEntity
  8
STEMPEL
100
AcDbLine
 10
246.4173277299934
 20
557.9749205284763
 30
0.0
 11
245.5889006052474
 21
558.8033476532225
 31
0.0
  0
ARC
  5
2BF
330
1E
100
AcDbEntity
  8
STEMPEL
100
AcDbCircle
 10
244.8817938240609
 20
558.096240872036
 30
0.0
 40
1.0
100
AcDbArc
 50
44.99999999999885
 51
90.0
  0
HATCH
  5
2C0
330
1E
100
AcDbEntity
  8
SCHRAFF
100
AcDbHatch
 10
0.0
 20
0.0
 30
0.0
210
0.0
220
0.0
230
1.0
  2
_USER
 70
     0
 71
     0
 91
        1
 92
        7
 72
     1
 73
     1
 93
        3
 10
248.7960073864341
 20
554.0962408720359
 42
0.0
 10
248.7960073864341
 20
557.0962408720358
 42
0.0
 10
251.796007386434
 20
557.0962408720358
 42
-0.4142135623731007
 97
        0
 75
     0
 76
     0
 52
0.0
 41
0.1
 77
     0
 78
     1
 53
180.0
 43
352.7461177230392
 44
154.4199787241313
 45
0.0
 46
0.1
 79
     0
 47
0.0469429173688829
 98
        1
 10
250.6656699388028
 20
555.8578641037847
  0
ARC
  5
2C1
102
{ACAD_REACTORS
330
5B7
102
}
330
1E
100
AcDbEntity
  8
STEMPEL
100
AcDbCircle
 10
248.5386480735532
 20
560.0962408720358
 30
0.0
 40
3.0
100
AcDbArc
 50
224.9999999999977
 51
270.0
  0
ARC
  5
2C2
102
{ACAD_REACTORS
330
5B7
102
}
330
1E
100
AcDbEntity
  8
STEMPEL
100
AcDbCircle
 10
247.8315412923666
 20
560.0962408720358
 30
0.0
 40
1.0
100
AcDbArc
 50
225.0000000000011
 51
270.0
  0
LINE
  5
2C3
102
{ACAD_REACTORS
330
5B7
102
}
330
1E
100
AcDbEntity
  8
STEMPEL
100
AcDbLine
 10
247.3119171108744
 20
557.3585171560256
 30
0.0
 11
247.4226309714735
 21
559.1836663000325
 31
0.0
  0
LINE
  5
2C4
330
1E
100
AcDbEntity
  8
STEMPEL
100
AcDbLine
 10
247.12443451118
 20
559.3891340908494
 30
0.0
 11
246.2960073864338
 21
560.2175612155956
 31
0.0
  0
LINE
  5
2C6
102
{ACAD_REACTORS
330
5B7
102
}
330
1E
100
AcDbEntity
  8
STEMPEL
100
AcDbLine
 10
298.2960073864338
 20
559.0962408720359
 30
0.0
 11
298.2960073864338
 21
557.096240872036
 31
0.0
  0
HATCH
  5
483
330
1E
100
AcDbEntity
  8
SCHRAFF
100
AcDbHatch
 10
0.0
 20
0.0
 30
0.0
210
0.0
220
0.0
230
1.0
  2
_USER
 70
     0
 71
     1
 91
        2
 92
        7
 72
     0
 73
     1
 93
        6
 10
197.2960073864332
 20
557.0962408720358
 10
195.7960073864334
 20
557.096240872036
 10
195.7960073864344
 20
312.0307494576737
 10
196.227720947749
 20
307.0962408720359
 10
197.7334507040641
 20
307.0962408720359
 10
197.2960073864344
 20
312.0962408720354
 97
        6
330
293
330
29A
330
29D
330
297
330
29E
330
29B
 92
        7
 72
     0
 73
     1
 93
        6
 10
247.2960073864343
 20
312.0962408720373
 10
246.8585640688046
 20
307.0962408720359
 10
248.3642938251196
 20
307.0962408720359
 10
248.7960073864344
 20
312.0307494576733
 10
248.7960073864333
 20
557.096240872036
 10
247.2960073864332
 20
557.0962408720358
 97
        6
330
293
330
2B2
330
2B3
330
297
330
2B4
330
2B1
 75
     0
 76
     0
 52
135.0
 41
2.0
 77
     0
 78
     1
 53
135.0
 43
-2.382407245037938
 44
23.86683356066123
 45
-1.414213562373095
 46
-1.414213562373094
 79
     0
 47
0.5491937351715177
 98
        2
 10
196.6769682153222
 20
452.754743337367
 10
247.7902225541145
 20
452.2055496188388
  0
TEXT
  5
48D
330
1E
100
AcDbEntity
  8
TEXT
 62
     1
100
AcDbText
 10
213.65457028626
 20
409.159787275548
 30
0.0
 40
7.0
  1
DN50
 50
90.0
 41
0.8
  7
GREEKS
100
AcDbText
  0
TEXT
  5
4DA
330
1E
100
AcDbEntity
  8
TEXT
 62
     1
100
AcDbText
 10
289.0765271548718
 20
114.5401381868921
 30
0.0
 40
7.0
  1
und innen beschichtet
 41
0.8
  7
GREEKS
100
AcDbText
  0
TEXT
  5
4DB
330
1E
100
AcDbEntity
  8
TEXT
 62
     1
100
AcDbText
 10
241.126809717474
 20
125.2622500018956
 30
0.0
 40
7.0
  1
Werkstoff: E195 EN10305 feuerverzinkt
 41
0.8
  7
GREEKS
100
AcDbText
  0
HATCH
  5
5B7
330
1E
100
AcDbEntity
  8
SCHRAFF
100
AcDbHatch
 10
0.0
 20
0.0
 30
0.0
210
0.0
220
0.0
230
1.0
  2
_USER
 70
     0
 71
     1
 91
        4
 92
        7
 72
     1
 73
     1
 93
        6
 10
298.2960073864339
 20
557.096240872036
 42
0.0
 10
298.2960073864338
 20
559.0962408720359
 42
0.0
 10
247.8315412923666
 20
559.0962408720359
 42
-0.1057060103101132
 10
247.4226309714735
 20
559.1836663000325
 42
0.0
 10
247.3119171108744
 20
557.3585171560256
 42
0.1057060103100921
 10
248.5386480735533
 20
557.0962408720358
 42
0.0
 97
        6
330
2BB
330
2C2
330
2C3
330
2C1
330
293
330
2C6
 92
        7
 72
     0
 73
     1
 93
        4
 10
234.2960073864338
 20
559.0962408720359
 10
234.2960073864338
 20
561.096240872036
 10
229.7960073864338
 20
561.096240872036
 10
229.7960073864338
 20
559.0962408720359
 97
        4
330
295
330
2AF
330
294
330
2B0
 92
        7
 72
     0
 73
     1
 93
        4
 10
210.2960073864338
 20
561.096240872036
 10
210.2960073864338
 20
559.0962408720359
 10
214.7960073864338
 20
559.0962408720359
 10
214.7960073864338
 20
561.096240872036
 97
        4
330
295
330
2AD
330
294
330
2AE
 92
        7
 72
     1
 73
     1
 93
        6
 10
146.2960073864338
 20
559.0962408720359
 42
0.0
 10
146.2960073864338
 20
557.0962408720357
 42
0.0
 10
196.0533666993146
 20
557.0962408720358
 42
0.1057060103100666
 10
197.2800976619932
 20
557.3585171560255
 42
0.0
 10
197.1693838013939
 20
559.1836663000324
 42
-0.1057060103100784
 10
196.760473480501
 20
559.0962408720359
 42
0.0
 97
        6
330
2A8
330
2A3
330
2A5
330
293
330
2A7
330
2AA
 75
     0
 76
     0
 52
45.0
 41
2.0
 77
     0
 78
     1
 53
45.0
 43
0.0
 44
0.0
 45
-1.414213562373094
 46
1.414213562373095
 79
     0
 47
0.2680647302970531
 98
        4
 10
268.1261576632769
 20
558.0534269896607
 10
233.2650669463924
 20
559.9298806517508
 10
213.4210595761219
 20
560.4660104696647
 10
180.973427336175
 20
558.5895568075746
  0
DIMENSION
  5
5F2
330
1E
100
AcDbEntity
  8
BEM
100
AcDbDimension
  2
*D7
 10
137.4880822085638
 20
282.7130360654627
 30
0.0
 11
130.9880822085637
 21
206.7130360654628
 31
0.0
 70
    32
 71
     5
 42
152.0
  3
Standard
100
AcDbAlignedDimension
 13
222.2960073864337
 23
130.7130360654627
 33
0.0
 14
222.2960073864337
 24
282.7130360654627
 34
0.0
 50
90.0
100
AcDbRotatedDimension
1001
ACAD
1000
DSTYLE
1002
{
1070
    40
1040
2.0
1070
    41
1040
3.5
1070
    42
1040
1.0
1070
    43
1040
7.0
1070
    44
1040
1.0
1070
    73
1070
     0
1070
    74
1070
     0
1070
    77
1070
     1
1070
    78
1070
     8
1070
    79
1070
     2
1070
   140
1040
3.5
1070
   141
1040
1.5
1070
   146
1040
0.5142857142857144
1070
   147
1040
1.5
1070
   172
1070
     1
1070
   178
1070
     1
1070
   179
1070
     2
1070
   271
1070
     2
1070
   272
1070
     2
1070
   284
1070
     8
1070
   285
1070
     8
1070
   286
1070
     8
1002
}
  0
ENDSEC
  0
SECTION
  2
OBJECTS
  0
DICTIONARY
  5
C
330
0
100
AcDbDictionary
281
     1
  3
ACAD_COLOR
350
DF
  3
ACAD_GROUP
350
D
  3
ACAD_LAYOUT
350
19
  3
ACAD_MATERIAL
350
DE
  3
ACAD_MLINESTYLE
350
16
  3
ACAD_PLOTSETTINGS
350
18
  3
ACAD_PLOTSTYLENAME
350
E
  3
AcDbVariableDictionary
350
EA
  0
DICTIONARY
  5
A0
330
1E
100
AcDbDictionary
280
     1
281
     1
  3
ACAD_LAYOUTSELFREF
360
D4
  0
DICTIONARY
  5
A2
330
1A
100
AcDbDictionary
280
     1
281
     1
  3
ACAD_LAYOUTSELFREF
360
D3
  0
DICTIONARY
  5
DF
102
{ACAD_REACTORS
330
C
102
}
330
C
100
AcDbDictionary
281
     1
  0
DICTIONARY
  5
D
102
{ACAD_REACTORS
330
C
102
}
330
C
100
AcDbDictionary
281
     1
  0
DICTIONARY
  5
19
102
{ACAD_REACTORS
330
C
102
}
330
C
100
AcDbDictionary
281
     1
  3
Layout1
350
1D
  3
Model
350
21
  0
DICTIONARY
  5
DE
102
{ACAD_REACTORS
330
C
102
}
330
C
100
AcDbDictionary
281
     1
  0
DICTIONARY
  5
16
102
{ACAD_REACTORS
330
C
102
}
330
C
100
AcDbDictionary
281
     1
  3
Standard
350
17
  0
DICTIONARY
  5
18
102
{ACAD_REACTORS
330
C
102
}
330
C
100
AcDbDictionary
281
     1
  0
ACDBDICTIONARYWDFLT
  5
E
102
{ACAD_REACTORS
330
C
102
}
330
C
100
AcDbDictionary
281
     1
  3
Normal
350
F
100
AcDbDictionaryWithDefault
340
F
  0
DICTIONARY
  5
EA
102
{ACAD_REACTORS
330
C
102
}
330
C
100
AcDbDictionary
281
     1
  3
DIMASSOC
350
EB
  3
PROJECTNAME
350
EC
  0
XRECORD
  5
D4
102
{ACAD_REACTORS
330
A0
102
}
330
A0
100
AcDbXrecord
280
     1
340
1E
  0
XRECORD
  5
D3
102
{ACAD_REACTORS
330
A2
102
}
330
A2
100
AcDbXrecord
280
     1
340
1A
  0
LAYOUT
  5
1D
102
{ACAD_REACTORS
330
19
102
}
330
19
100
AcDbPlotSettings
  1

  2
\\NT_WORK01\HP LaserJet 5000 PCL 6
  4

  6

 40
0.0
 41
0.0
 42
0.0
 43
0.0
 44
0.0
 45
0.0
 46
0.0
 47
0.0
 48
0.0
 49
0.0
140
0.0
141
0.0
142
1.0
143
1.0
 70
   688
 72
     0
 73
     0
 74
     5
  7

 75
    16
147
1.0
 76
     0
 77
     2
 78
   300
148
0.0
149
0.0
100
AcDbLayout
  1
Layout1
 70
     0
 71
     1
 10
0.0
 20
0.0
 11
12.0
 21
9.0
 12
0.0
 22
0.0
 32
0.0
 14
1.000000000000000E+20
 24
1.000000000000000E+20
 34
1.000000000000000E+20
 15
-1.000000000000000E+20
 25
-1.000000000000000E+20
 35
-1.000000000000000E+20
146
0.0
 13
0.0
 23
0.0
 33
0.0
 16
1.0
 26
0.0
 36
0.0
 17
0.0
 27
1.0
 37
0.0
 76
     0
330
1A
  0
LAYOUT
  5
21
102
{ACAD_REACTORS
330
19
102
}
330
19
100
AcDbPlotSettings
  1

  2
none_device
  4
Letter_(8.50_x_11.00_Inches)
  6

 40
6.349999904632568
 41
6.349999904632568
 42
6.350006103515625
 43
6.350006103515625
 44
215.8999938964844
 45
279.3999938964844
 46
0.0
 47
0.0
 48
0.0
 49
0.0
140
0.0
141
0.0
142
1.0
143
1.0
 70
 11952
 72
     0
 73
     1
 74
     0
  7

 75
     0
147
1.0
 76
     0
 77
     2
 78
   300
148
2307.174310523203
149
97.39114423170139
100
AcDbLayout
  1
Model
 70
     1
 71
     0
 10
0.0
 20
0.0
 11
12.0
 21
9.0
 12
0.0
 22
0.0
 32
0.0
 14
0.0
 24
0.0
 34
0.0
 15
0.0
 25
0.0
 35
0.0
146
0.0
 13
0.0
 23
0.0
 33
0.0
 16
1.0
 26
0.0
 36
0.0
 17
0.0
 27
1.0
 37
0.0
 76
     0
330
1E
  0
MLINESTYLE
  5
17
102
{ACAD_REACTORS
330
16
102
}
330
16
100
AcDbMlineStyle
  2
STANDARD
 70
     0
  3

 62
   256
 51
90.0
 52
90.0
 71
     2
 49
0.5
 62
   256
  6
BYLAYER
 49
-0.5
 62
   256
  6
BYLAYER
  0
ACDBPLACEHOLDER
  5
F
102
{ACAD_REACTORS
330
E
102
}
330
E
  0
DICTIONARYVAR
  5
EB
102
{ACAD_REACTORS
330
EA
102
}
330
EA
100
DictionaryVariables
280
     0
  1
1
  0
DICTIONARYVAR
  5
EC
102
{ACAD_REACTORS
330
EA
102
}
330
EA
100
DictionaryVariables
280
     0
  1

  0
ENDSEC
  0
EOF
