  0
SECTION
  2
HEADER
  9
$ACADVER
  1
AC1018
  9
$ACADMAINTVER
 70
     2
  9
$DWGCODEPAGE
  3
ANSI_1252
  9
$INSBASE
 10
0.0
 20
0.0
 30
0.0
  9
$EXTMIN
 10
-0.0000000000001137
 20
-0.0000000000001137
 30
0.0
  9
$EXTMAX
 10
420.0
 20
594.0000000000002
 30
0.0
  9
$LIMMIN
 10
0.0
 20
0.0
  9
$LIMMAX
 10
419.9999999999999
 20
594.0
  9
$ORTHOMODE
 70
     1
  9
$REGENMODE
 70
     1
  9
$FILLMODE
 70
     1
  9
$QTEXTMODE
 70
     0
  9
$MIRRTEXT
 70
     1
  9
$LTSCALE
 40
20.0
  9
$ATTMODE
 70
     1
  9
$TEXTSIZE
 40
3.5
  9
$TRACEWID
 40
0.5
  9
$TEXTSTYLE
  7
STANDARD
  9
$CLAYER
  8
SCHRAFF
  9
$CELTYPE
  6
ByLayer
  9
$CECOLOR
 62
   256
  9
$CELTSCALE
 40
1.0
  9
$DISPSILH
 70
     0
  9
$DIMSCALE
 40
2.0
  9
$DIMASZ
 40
3.5
  9
$DIMEXO
 40
1.0
  9
$DIMDLI
 40
7.0
  9
$DIMRND
 40
0.0
  9
$DIMDLE
 40
0.0
  9
$DIMEXE
 40
1.0
  9
$DIMTP
 40
0.0
  9
$DIMTM
 40
0.0
  9
$DIMTXT
 40
3.5
  9
$DIMCEN
 40
1.5
  9
$DIMTSZ
 40
0.0
  9
$DIMTOL
 70
     0
  9
$DIMLIM
 70
     0
  9
$DIMTIH
 70
     0
  9
$DIMTOH
 70
     0
  9
$DIMSE1
 70
     0
  9
$DIMSE2
 70
     0
  9
$DIMTAD
 70
     1
  9
$DIMZIN
 70
     8
  9
$DIMBLK
  1

  9
$DIMASO
 70
     1
  9
$DIMSHO
 70
     0
  9
$DIMPOST
  1

  9
$DIMAPOST
  1

  9
$DIMALT
 70
     0
  9
$DIMALTD
 70
     2
  9
$DIMALTF
 40
25.4
  9
$DIMLFAC
 40
1.0
  9
$DIMTOFL
 70
     1
  9
$DIMTVP
 40
0.0
  9
$DIMTIX
 70
     0
  9
$DIMSOXD
 70
     0
  9
$DIMSAH
 70
     0
  9
$DIMBLK1
  1

  9
$DIMBLK2
  1

  9
$DIMSTYLE
  2
Standard
  9
$DIMCLRD
 70
     0
  9
$DIMCLRE
 70
     0
  9
$DIMCLRT
 70
     1
  9
$DIMTFAC
 40
0.5142857142857144
  9
$DIMGAP
 40
1.5
  9
$DIMJUST
 70
     0
  9
$DIMSD1
 70
     0
  9
$DIMSD2
 70
     0
  9
$DIMTOLJ
 70
     1
  9
$DIMTZIN
 70
     8
  9
$DIMALTZ
 70
     8
  9
$DIMALTTZ
 70
     8
  9
$DIMUPT
 70
     0
  9
$DIMDEC
 70
     2
  9
$DIMTDEC
 70
     2
  9
$DIMALTU
 70
     2
  9
$DIMALTTD
 70
     2
  9
$DIMTXSTY
  7
STANDARD
  9
$DIMAUNIT
 70
     0
  9
$DIMADEC
 70
     2
  9
$DIMALTRND
 40
0.0
  9
$DIMAZIN
 70
     2
  9
$DIMDSEP
 70
    46
  9
$DIMATFIT
 70
     3
  9
$DIMFRAC
 70
     0
  9
$DIMLDRBLK
  1

  9
$DIMLUNIT
 70
     2
  9
$DIMLWD
 70
    -2
  9
$DIMLWE
 70
    -2
  9
$DIMTMOVE
 70
     0
  9
$LUNITS
 70
     2
  9
$LUPREC
 70
     2
  9
$SKETCHINC
 40
1.0
  9
$FILLETRAD
 40
0.0
  9
$AUNITS
 70
     0
  9
$AUPREC
 70
     0
  9
$MENU
  1
ACAD
  9
$ELEVATION
 40
0.0
  9
$PELEVATION
 40
0.0
  9
$THICKNESS
 40
0.0
  9
$LIMCHECK
 70
     0
  9
$CHAMFERA
 40
0.0
  9
$CHAMFERB
 40
0.0
  9
$CHAMFERC
 40
0.0
  9
$CHAMFERD
 40
0.0
  9
$SKPOLY
 70
     0
  9
$TDCREATE
 40
2455397.823042361
  9
$TDUCREATE
 40
2455397.781375695
  9
$TDUPDATE
 40
2455587.334034989
  9
$TDUUPDATE
 40
2455587.292368322
  9
$TDINDWG
 40
0.0481389931
  9
$TDUSRTIMER
 40
0.0481389931
  9
$USRTIMER
 70
     1
  9
$ANGBASE
 50
0.0
  9
$ANGDIR
 70
     0
  9
$PDMODE
 70
     0
  9
$PDSIZE
 40
0.0
  9
$PLINEWID
 40
0.0
  9
$SPLFRAME
 70
     0
  9
$SPLINETYPE
 70
     6
  9
$SPLINESEGS
 70
     8
  9
$HANDSEED
  5
F72
  9
$SURFTAB1
 70
     6
  9
$SURFTAB2
 70
     6
  9
$SURFTYPE
 70
     6
  9
$SURFU
 70
     6
  9
$SURFV
 70
     6
  9
$UCSBASE
  2

  9
$UCSNAME
  2

  9
$UCSORG
 10
0.0
 20
0.0
 30
0.0
  9
$UCSXDIR
 10
1.0
 20
0.0
 30
0.0
  9
$UCSYDIR
 10
0.0
 20
1.0
 30
0.0
  9
$UCSORTHOREF
  2

  9
$UCSORTHOVIEW
 70
     0
  9
$UCSORGTOP
 10
0.0
 20
0.0
 30
0.0
  9
$UCSORGBOTTOM
 10
0.0
 20
0.0
 30
0.0
  9
$UCSORGLEFT
 10
0.0
 20
0.0
 30
0.0
  9
$UCSORGRIGHT
 10
0.0
 20
0.0
 30
0.0
  9
$UCSORGFRONT
 10
0.0
 20
0.0
 30
0.0
  9
$UCSORGBACK
 10
0.0
 20
0.0
 30
0.0
  9
$PUCSBASE
  2

  9
$PUCSNAME
  2

  9
$PUCSORG
 10
0.0
 20
0.0
 30
0.0
  9
$PUCSXDIR
 10
1.0
 20
0.0
 30
0.0
  9
$PUCSYDIR
 10
0.0
 20
1.0
 30
0.0
  9
$PUCSORTHOREF
  2

  9
$PUCSORTHOVIEW
 70
     0
  9
$PUCSORGTOP
 10
0.0
 20
0.0
 30
0.0
  9
$PUCSORGBOTTOM
 10
0.0
 20
0.0
 30
0.0
  9
$PUCSORGLEFT
 10
0.0
 20
0.0
 30
0.0
  9
$PUCSORGRIGHT
 10
0.0
 20
0.0
 30
0.0
  9
$PUCSORGFRONT
 10
0.0
 20
0.0
 30
0.0
  9
$PUCSORGBACK
 10
0.0
 20
0.0
 30
0.0
  9
$USERI1
 70
     0
  9
$USERI2
 70
     0
  9
$USERI3
 70
     0
  9
$USERI4
 70
     0
  9
$USERI5
 70
     0
  9
$USERR1
 40
0.0
  9
$USERR2
 40
0.0
  9
$USERR3
 40
0.0
  9
$USERR4
 40
0.0
  9
$USERR5
 40
0.0
  9
$WORLDVIEW
 70
     1
  9
$SHADEDGE
 70
     3
  9
$SHADEDIF
 70
    70
  9
$TILEMODE
 70
     1
  9
$MAXACTVP
 70
    16
  9
$PINSBASE
 10
0.0
 20
0.0
 30
0.0
  9
$PLIMCHECK
 70
     0
  9
$PEXTMIN
 10
1.000000000000000E+20
 20
1.000000000000000E+20
 30
1.000000000000000E+20
  9
$PEXTMAX
 10
-1.000000000000000E+20
 20
-1.000000000000000E+20
 30
-1.000000000000000E+20
  9
$PLIMMIN
 10
0.0
 20
0.0
  9
$PLIMMAX
 10
12.0
 20
9.0
  9
$UNITMODE
 70
     0
  9
$VISRETAIN
 70
     0
  9
$PLINEGEN
 70
     0
  9
$PSLTSCALE
 70
     0
  9
$TREEDEPTH
 70
  3020
  9
$CMLSTYLE
  2
Standard
  9
$CMLJUST
 70
     0
  9
$CMLSCALE
 40
1.0
  9
$PROXYGRAPHICS
 70
     1
  9
$MEASUREMENT
 70
     0
  9
$CELWEIGHT
370
    -1
  9
$ENDCAPS
280
     0
  9
$JOINSTYLE
280
     0
  9
$LWDISPLAY
290
     0
  9
$INSUNITS
 70
     0
  9
$HYPERLINKBASE
  1

  9
$STYLESHEET
  1
monochrome1.ctb
  9
$XEDIT
290
     1
  9
$CEPSNTYPE
380
     0
  9
$PSTYLEMODE
290
     1
  9
$FINGERPRINTGUID
  2
{D68B0D02-A558-11D7-B632-000102183313}
  9
$VERSIONGUID
  2
{D3EDB738-5C1E-4AD6-8657-926F8A260C09}
  9
$EXTNAMES
290
     1
  9
$PSVPSCALE
 40
0.0
  9
$OLESTARTUP
290
     0
  9
$SORTENTS
280
   127
  9
$INDEXCTL
280
     0
  9
$HIDETEXT
280
     0
  9
$XCLIPFRAME
290
     0
  9
$HALOGAP
280
     0
  9
$OBSCOLOR
 70
   257
  9
$OBSLTYPE
280
     0
  9
$INTERSECTIONDISPLAY
280
     0
  9
$INTERSECTIONCOLOR
 70
   257
  9
$DIMASSOC
280
     1
  9
$PROJECTNAME
  1

  0
ENDSEC
  0
SECTION
  2
CLASSES
  0
CLASS
  1
ACDBDICTIONARYWDFLT
  2
AcDbDictionaryWithDefault
  3
ObjectDBX Classes
 90
        0
 91
        1
280
     0
281
     0
  0
CLASS
  1
DICTIONARYVAR
  2
AcDbDictionaryVar
  3
ObjectDBX Classes
 90
        0
 91
        2
280
     0
281
     0
  0
ENDSEC
  0
SECTION
  2
TABLES
  0
TABLE
  2
VPORT
  5
8
330
0
100
AcDbSymbolTable
 70
     2
  0
VPORT
  5
F71
330
8
100
AcDbSymbolTableRecord
100
AcDbViewportTableRecord
  2
*Active
 70
     0
 10
0.0
 20
0.0
 11
1.0
 21
1.0
 12
210.0
 22
297.0
 13
0.0
 23
0.0
 14
1.0
 24
1.0
 15
10.0
 25
10.0
 16
0.0
 26
0.0
 36
1.0
 17
0.0
 27
0.0
 37
0.0
 40
594.0845053863559
 41
1.336927223719676
 42
50.0
 43
0.0
 44
0.0
 50
0.0
 51
0.0
 71
     0
 72
  1500
 73
     1
 74
     0
 75
     0
 76
     0
 77
     0
 78
     0
281
     0
 65
     1
110
0.0
120
0.0
130
0.0
111
1.0
121
0.0
131
0.0
112
0.0
122
1.0
132
0.0
 79
     0
146
0.0
  0
ENDTAB
  0
TABLE
  2
LTYPE
  5
5
330
0
100
AcDbSymbolTable
 70
     2
  0
LTYPE
  5
13
330
5
100
AcDbSymbolTableRecord
100
AcDbLinetypeTableRecord
  2
ByBlock
 70
     0
  3

 72
    65
 73
     0
 40
0.0
  0
LTYPE
  5
14
330
5
100
AcDbSymbolTableRecord
100
AcDbLinetypeTableRecord
  2
ByLayer
 70
     0
  3

 72
    65
 73
     0
 40
0.0
  0
LTYPE
  5
15
330
5
100
AcDbSymbolTableRecord
100
AcDbLinetypeTableRecord
  2
Continuous
 70
     0
  3
Solid line
 72
    65
 73
     0
 40
0.0
  0
LTYPE
  5
25
330
5
100
AcDbSymbolTableRecord
100
AcDbLinetypeTableRecord
  2
STRICHPUNKT
 70
     0
  3
__ . __ . __ . __ . __ . __ . __ . __ . __ . __
 72
    65
 73
     4
 40
1.0
 49
0.5
 74
     0
 49
-0.25
 74
     0
 49
0.0
 74
     0
 49
-0.25
 74
     0
  0
ENDTAB
  0
TABLE
  2
LAYER
  5
2
330
0
100
AcDbSymbolTable
 70
     9
  0
LAYER
  5
10
330
2
100
AcDbSymbolTableRecord
100
AcDbLayerTableRecord
  2
0
 70
     0
 62
     7
  6
Continuous
370
    -3
390
F
  0
LAYER
  5
2A
330
2
100
AcDbSymbolTableRecord
100
AcDbLayerTableRecord
  2
VOLL
 70
     0
 62
     1
  6
Continuous
370
    -3
390
F
  0
LAYER
  5
2B
330
2
100
AcDbSymbolTableRecord
100
AcDbLayerTableRecord
  2
HILF
 70
     0
 62
     2
  6
Continuous
370
    -3
390
F
  0
LAYER
  5
2C
330
2
100
AcDbSymbolTableRecord
100
AcDbLayerTableRecord
  2
MITTEL
 70
     0
 62
     2
  6
STRICHPUNKT
370
    -3
390
F
  0
LAYER
  5
2F
330
2
100
AcDbSymbolTableRecord
100
AcDbLayerTableRecord
  2
BEM
 70
     0
 62
     7
  6
Continuous
370
    -3
390
F
  0
LAYER
  5
30
330
2
100
AcDbSymbolTableRecord
100
AcDbLayerTableRecord
  2
STEMPEL
 70
     0
 62
     3
  6
Continuous
370
    -3
390
F
  0
LAYER
  5
31
330
2
100
AcDbSymbolTableRecord
100
AcDbLayerTableRecord
  2
TEXT
 70
     0
 62
     7
  6
Continuous
370
    -3
390
F
  0
LAYER
  5
3A6
330
2
100
AcDbSymbolTableRecord
100
AcDbLayerTableRecord
  2
DEFPOINTS
 70
     0
 62
     7
  6
Continuous
290
     0
370
    -3
390
F
  0
LAYER
  5
3A7
330
2
100
AcDbSymbolTableRecord
100
AcDbLayerTableRecord
  2
SCHRAFF
 70
     0
 62
     7
  6
Continuous
370
    -3
390
F
  0
ENDTAB
  0
TABLE
  2
STYLE
  5
3
330
0
100
AcDbSymbolTable
 70
     2
  0
STYLE
  5
11
330
3
100
AcDbSymbolTableRecord
100
AcDbTextStyleTableRecord
  2
STANDARD
 70
     0
 40
0.0
 41
0.8
 50
0.0
 71
     0
 42
3.5
  3
simplex.shx
  4

  0
STYLE
  5
24
330
3
100
AcDbSymbolTableRecord
100
AcDbTextStyleTableRecord
  2
GREEKS
 70
     0
 40
0.0
 41
0.8
 50
0.0
 71
     0
 42
2.5
  3
SIMPLEX.shx
  4

  0
ENDTAB
  0
TABLE
  2
VIEW
  5
6
330
0
100
AcDbSymbolTable
 70
     0
  0
ENDTAB
  0
TABLE
  2
UCS
  5
7
330
0
100
AcDbSymbolTable
 70
     0
  0
ENDTAB
  0
TABLE
  2
APPID
  5
9
330
0
100
AcDbSymbolTable
 70
     1
  0
APPID
  5
12
330
9
100
AcDbSymbolTableRecord
100
AcDbRegAppTableRecord
  2
ACAD
 70
     0
  0
ENDTAB
  0
TABLE
  2
DIMSTYLE
  5
A
330
0
100
AcDbSymbolTable
 70
     1
100
AcDbDimStyleTable
 71
     1
340
9D
  0
DIMSTYLE
105
9D
102
{ACAD_REACTORS
330
9E6
330
9E5
330
9DF
330
9DE
330
9D6
330
F4E
102
}
330
A
100
AcDbSymbolTableRecord
100
AcDbDimStyleTableRecord
  2
Standard
 70
     0
340
11
  0
ENDTAB
  0
TABLE
  2
BLOCK_RECORD
  5
1
330
0
100
AcDbSymbolTable
 70
     9
  0
BLOCK_RECORD
  5
1E
102
{ACAD_XDICTIONARY
360
A0
102
}
330
1
100
AcDbSymbolTableRecord
100
AcDbBlockTableRecord
  2
*Model_Space
340
21
  0
BLOCK_RECORD
  5
1A
102
{ACAD_XDICTIONARY
360
A2
102
}
330
1
100
AcDbSymbolTableRecord
100
AcDbBlockTableRecord
  2
*Paper_Space
340
1D
  0
BLOCK_RECORD
  5
22
330
1
100
AcDbSymbolTableRecord
100
AcDbBlockTableRecord
  2
LOGO
340
0
102
{BLKREFS
331
9B
102
}
  0
BLOCK_RECORD
  5
810
330
1
100
AcDbSymbolTableRecord
100
AcDbBlockTableRecord
  2
*X1
340
0
102
{BLKREFS
331
9C3
102
}
  0
BLOCK_RECORD
  5
896
330
1
100
AcDbSymbolTableRecord
100
AcDbBlockTableRecord
  2
*X2
340
0
102
{BLKREFS
331
9C4
102
}
  0
BLOCK_RECORD
  5
A02
330
1
100
AcDbSymbolTableRecord
100
AcDbBlockTableRecord
  2
*D3
340
0
  0
BLOCK_RECORD
  5
A0F
330
1
100
AcDbSymbolTableRecord
100
AcDbBlockTableRecord
  2
*D4
340
0
  0
BLOCK_RECORD
  5
A1C
330
1
100
AcDbSymbolTableRecord
100
AcDbBlockTableRecord
  2
*D5
340
0
  0
BLOCK_RECORD
  5
A29
330
1
100
AcDbSymbolTableRecord
100
AcDbBlockTableRecord
  2
*D6
340
0
  0
BLOCK_RECORD
  5
A36
330
1
100
AcDbSymbolTableRecord
100
AcDbBlockTableRecord
  2
*D7
340
0
  0
BLOCK_RECORD
  5
F4F
330
1
100
AcDbSymbolTableRecord
100
AcDbBlockTableRecord
  2
*D8
340
0
  0
ENDTAB
  0
ENDSEC
  0
SECTION
  2
BLOCKS
  0
BLOCK
  5
35
330
1E
100
AcDbEntity
  8
0
100
AcDbBlockBegin
  2
*Model_Space
 70
     0
 10
0.0
 20
0.0
 30
0.0
  3
*Model_Space
  1

  0
ENDBLK
  5
36
330
1E
100
AcDbEntity
  8
0
100
AcDbBlockEnd
  0
BLOCK
  5
33
330
1A
100
AcDbEntity
 67
     1
  8
0
100
AcDbBlockBegin
  2
*Paper_Space
 70
     0
 10
0.0
 20
0.0
 30
0.0
  3
*Paper_Space
  1

  0
ENDBLK
  5
34
330
1A
100
AcDbEntity
 67
     1
  8
0
100
AcDbBlockEnd
  0
BLOCK
  5
37
330
22
100
AcDbEntity
  8
0
100
AcDbBlockBegin
  2
LOGO
 70
     0
 10
0.0
 20
0.0
 30
0.0
  3
LOGO
  1

  0
ARC
  5
38
330
22
100
AcDbEntity
  8
0
100
AcDbCircle
 10
11.59973089678112
 20
-9.271599258481501
 30
0.0
 40
4.5
100
AcDbArc
 50
270.0
 51
231.0575587310159
  0
LINE
  5
39
330
22
100
AcDbEntity
  8
0
100
AcDbLine
 10
3.599730896781125
 20
-4.771599258481529
 30
0.0
 11
3.599730896781153
 21
-11.77159925848133
 31
0.0
  0
LINE
  5
3A
330
22
100
AcDbEntity
  8
0
100
AcDbLine
 10
2.599730896781125
 20
-4.771599258481529
 30
0.0
 11
2.599730896781153
 21
-11.77159925848133
 31
0.0
  0
CIRCLE
  5
3B
330
22
100
AcDbEntity
  8
0
100
AcDbCircle
 10
11.59973089678112
 20
-9.271599258481501
 30
0.0
 40
3.5
  0
ARC
  5
3C
330
22
100
AcDbEntity
  8
0
100
AcDbCircle
 10
31.59973089678115
 20
-9.271599258481472
 30
0.0
 40
4.5
100
AcDbArc
 50
270.0
 51
231.0575587310182
  0
LINE
  5
3D
330
22
100
AcDbEntity
  8
0
100
AcDbLine
 10
17.59973089678112
 20
-4.771599258481472
 30
0.0
 11
17.59973089678115
 21
-13.77159925848147
 31
0.0
  0
ARC
  5
3E
330
22
100
AcDbEntity
  8
0
100
AcDbCircle
 10
22.59973089678116
 20
-7.271599258481472
 30
0.0
 40
2.5
100
AcDbArc
 50
293.1161887722295
 51
90.0
  0
CIRCLE
  5
3F
330
22
100
AcDbEntity
  8
0
100
AcDbCircle
 10
31.59973089678115
 20
-9.271599258481472
 30
0.0
 40
3.5
  0
ARC
  5
40
330
22
100
AcDbEntity
  8
0
100
AcDbCircle
 10
4.599730896781153
 20
-11.77159925848133
 30
0.0
 40
1.0
100
AcDbArc
 50
180.0
 51
270.0
  0
ARC
  5
41
330
22
100
AcDbEntity
  8
0
100
AcDbCircle
 10
4.599730896781153
 20
-11.77159925848133
 30
0.0
 40
2.0
100
AcDbArc
 50
179.9999999999992
 51
270.0
  0
LINE
  5
42
330
22
100
AcDbEntity
  8
0
100
AcDbLine
 10
11.59973089678115
 20
-13.77159925848144
 30
0.0
 11
4.599730896781153
 21
-13.77159925848147
 31
0.0
  0
LINE
  5
43
330
22
100
AcDbEntity
  8
0
100
AcDbLine
 10
8.771303772034769
 20
-12.77159925848136
 30
0.0
 11
4.599730896781153
 21
-12.77159925848133
 31
0.0
  0
LINE
  5
44
330
22
100
AcDbEntity
  8
0
100
AcDbLine
 10
31.59973089678115
 20
-13.77159925848147
 30
0.0
 11
23.6715276665056
 21
-13.77159925848144
 31
0.0
  0
LINE
  5
45
330
22
100
AcDbEntity
  8
0
100
AcDbLine
 10
23.56565672307022
 20
-9.51278021337896
 30
0.0
 11
24.4388546544846
 21
-12.77159925848144
 31
0.0
  0
LINE
  5
46
330
22
100
AcDbEntity
  8
0
100
AcDbLine
 10
22.59973089678116
 20
-9.771599258481472
 30
0.0
 11
18.59973089678112
 21
-9.771599258481472
 31
0.0
  0
LINE
  5
47
330
22
100
AcDbEntity
  8
0
100
AcDbLine
 10
18.59973089678115
 20
-13.77159925848144
 30
0.0
 11
17.59973089678115
 21
-13.77159925848144
 31
0.0
  0
LINE
  5
48
330
22
100
AcDbEntity
  8
0
100
AcDbLine
 10
18.59973089678115
 20
-9.771599258481472
 30
0.0
 11
18.59973089678115
 21
-13.77159925848144
 31
0.0
  0
LINE
  5
49
330
22
100
AcDbEntity
  8
0
100
AcDbLine
 10
22.59973089678116
 20
-9.771599258481472
 30
0.0
 11
23.67152766650562
 21
-13.77159925848147
 31
0.0
  0
ARC
  5
4A
330
22
100
AcDbEntity
  8
0
100
AcDbCircle
 10
22.59973089678116
 20
-7.271599258481472
 30
0.0
 40
2.5
100
AcDbArc
 50
270.0
 51
270.0000000000007
  0
LINE
  5
4B
330
22
100
AcDbEntity
  8
0
100
AcDbLine
 10
28.77130377203494
 20
-12.77159925848147
 30
0.0
 11
24.43885465448463
 21
-12.77159925848144
 31
0.0
  0
LINE
  5
4C
330
22
100
AcDbEntity
  8
0
100
AcDbLine
 10
3.599730896781125
 20
-4.771599258481472
 30
0.0
 11
2.599730896781125
 21
-4.771599258481472
 31
0.0
  0
LINE
  5
4D
330
22
100
AcDbEntity
  8
0
100
AcDbLine
 10
22.59973089678116
 20
-8.771599258481472
 30
0.0
 11
18.59973089678115
 21
-8.771599258481472
 31
0.0
  0
LINE
  5
4E
330
22
100
AcDbEntity
  8
0
100
AcDbLine
 10
22.59973089678116
 20
-5.771599258481472
 30
0.0
 11
18.59973089678115
 21
-5.771599258481472
 31
0.0
  0
LINE
  5
4F
330
22
100
AcDbEntity
  8
0
100
AcDbLine
 10
22.59973089678116
 20
-4.771599258481472
 30
0.0
 11
17.59973089678115
 21
-4.771599258481472
 31
0.0
  0
LINE
  5
50
330
22
100
AcDbEntity
  8
0
100
AcDbLine
 10
18.59973089678115
 20
-5.771599258481472
 30
0.0
 11
18.59973089678115
 21
-8.771599258481472
 31
0.0
  0
ARC
  5
51
330
22
100
AcDbEntity
  8
0
100
AcDbCircle
 10
22.59973089678116
 20
-7.271599258481472
 30
0.0
 40
1.5
100
AcDbArc
 50
270.0
 51
90.0
  0
ENDBLK
  5
52
330
22
100
AcDbEntity
  8
0
100
AcDbBlockEnd
  0
BLOCK
  5
811
330
810
100
AcDbEntity
  8
0
100
AcDbBlockBegin
  2
*X1
 70
     1
 10
0.0
 20
0.0
 30
0.0
  3
*X1
  1

  0
LINE
  5
812
330
810
100
AcDbEntity
  8
0
 62
     0
100
AcDbLine
 10
603.5239972105696
 20
409.9535158607523
 30
0.0
 11
604.6220283781874
 21
411.0515470283701
 31
0.0
  0
LINE
  5
813
330
810
100
AcDbEntity
  8
0
 62
     0
100
AcDbLine
 10
600.8723467811201
 20
409.9535158607523
 30
0.0
 11
603.5471875796532
 21
412.6283566592854
 31
0.0
  0
LINE
  5
814
330
810
100
AcDbEntity
  8
0
 62
     0
100
AcDbLine
 10
598.2206963516705
 20
409.9535158607523
 30
0.0
 11
601.3956963516705
 21
413.1285158607523
 31
0.0
  0
LINE
  5
815
330
810
100
AcDbEntity
  8
0
 62
     0
100
AcDbLine
 10
601.3956963516705
 20
413.1285158607523
 30
0.0
 11
602.2213623649284
 21
413.9541818740102
 31
0.0
  0
LINE
  5
816
330
810
100
AcDbEntity
  8
0
 62
     0
100
AcDbLine
 10
595.569045922221
 20
409.9535158607523
 30
0.0
 11
598.744045922221
 21
413.1285158607523
 31
0.0
  0
LINE
  5
817
330
810
100
AcDbEntity
  8
0
 62
     0
100
AcDbLine
 10
598.7440459222209
 20
413.1285158607523
 30
0.0
 11
600.6690459222199
 21
415.0535158607512
 31
0.0
  0
LINE
  5
818
330
810
100
AcDbEntity
  8
0
 62
     0
100
AcDbLine
 10
592.9173954927714
 20
409.9535158607523
 30
0.0
 11
596.0923954927714
 21
413.1285158607523
 31
0.0
  0
LINE
  5
819
330
810
100
AcDbEntity
  8
0
 62
     0
100
AcDbLine
 10
596.0923954927713
 20
413.1285158607523
 30
0.0
 11
598.0173954927704
 21
415.0535158607512
 31
0.0
  0
LINE
  5
81A
330
810
100
AcDbEntity
  8
0
 62
     0
100
AcDbLine
 10
590.2657450633219
 20
409.9535158607523
 30
0.0
 11
593.4407450633218
 21
413.1285158607522
 31
0.0
  0
LINE
  5
81B
330
810
100
AcDbEntity
  8
0
 62
     0
100
AcDbLine
 10
600.3657450633218
 20
420.0535158607522
 30
0.0
 11
601.1220283781874
 21
420.8097991756178
 31
0.0
  0
LINE
  5
81C
330
810
100
AcDbEntity
  8
0
 62
     0
100
AcDbLine
 10
593.4407450633218
 20
413.1285158607523
 30
0.0
 11
595.3657450633208
 21
415.0535158607512
 31
0.0
  0
LINE
  5
81D
330
810
100
AcDbEntity
  8
0
 62
     0
100
AcDbLine
 10
587.6140946338723
 20
409.9535158607523
 30
0.0
 11
590.7890946338723
 21
413.1285158607522
 31
0.0
  0
LINE
  5
81E
330
810
100
AcDbEntity
  8
0
 62
     0
100
AcDbLine
 10
597.7140946338722
 20
420.0535158607522
 30
0.0
 11
601.1220283781874
 21
423.4614496050673
 31
0.0
  0
LINE
  5
81F
330
810
100
AcDbEntity
  8
0
 62
     0
100
AcDbLine
 10
590.7890946338723
 20
413.1285158607523
 30
0.0
 11
592.7140946338712
 21
415.0535158607512
 31
0.0
  0
LINE
  5
820
330
810
100
AcDbEntity
  8
0
 62
     0
100
AcDbLine
 10
584.9624442044228
 20
409.9535158607523
 30
0.0
 11
588.1374442044227
 21
413.1285158607522
 31
0.0
  0
LINE
  5
821
330
810
100
AcDbEntity
  8
0
 62
     0
100
AcDbLine
 10
595.0624442044227
 20
420.0535158607522
 30
0.0
 11
601.1220283781874
 21
426.1131000345169
 31
0.0
  0
LINE
  5
822
330
810
100
AcDbEntity
  8
0
 62
     0
100
AcDbLine
 10
588.1374442044227
 20
413.1285158607522
 30
0.0
 11
590.0624442044216
 21
415.0535158607512
 31
0.0
  0
LINE
  5
823
330
810
100
AcDbEntity
  8
0
 62
     0
100
AcDbLine
 10
582.3107937749732
 20
409.9535158607523
 30
0.0
 11
585.4857937749732
 21
413.1285158607522
 31
0.0
  0
LINE
  5
824
330
810
100
AcDbEntity
  8
0
 62
     0
100
AcDbLine
 10
597.622028378187
 20
425.264750463966
 30
0.0
 11
601.1220283781874
 21
428.7647504639665
 31
0.0
  0
LINE
  5
825
330
810
100
AcDbEntity
  8
0
 62
     0
100
AcDbLine
 10
585.4857937749732
 20
413.1285158607522
 30
0.0
 11
587.4107937749721
 21
415.0535158607512
 31
0.0
  0
LINE
  5
826
330
810
100
AcDbEntity
  8
0
 62
     0
100
AcDbLine
 10
592.4107937749731
 20
420.0535158607522
 30
0.0
 11
597.4107937749733
 21
425.0535158607523
 31
0.0
  0
LINE
  5
827
330
810
100
AcDbEntity
  8
0
 62
     0
100
AcDbLine
 10
579.6591433455236
 20
409.9535158607523
 30
0.0
 11
582.8341433455237
 21
413.1285158607522
 31
0.0
  0
LINE
  5
828
330
810
100
AcDbEntity
  8
0
 62
     0
100
AcDbLine
 10
597.6220283781872
 20
427.9164008934158
 30
0.0
 11
599.7591433455237
 21
430.0535158607523
 31
0.0
  0
LINE
  5
829
330
810
100
AcDbEntity
  8
0
 62
     0
100
AcDbLine
 10
582.8341433455235
 20
413.1285158607522
 30
0.0
 11
584.7591433455225
 21
415.0535158607512
 31
0.0
  0
LINE
  5
82A
330
810
100
AcDbEntity
  8
0
 62
     0
100
AcDbLine
 10
589.7591433455236
 20
420.0535158607522
 30
0.0
 11
594.7591433455236
 21
425.0535158607523
 31
0.0
  0
LINE
  5
82B
330
810
100
AcDbEntity
  8
0
 62
     0
100
AcDbLine
 10
578.6220283781874
 20
411.5680513228656
 30
0.0
 11
580.182492916074
 21
413.1285158607521
 31
0.0
  0
LINE
  5
82C
330
810
100
AcDbEntity
  8
0
 62
     0
100
AcDbLine
 10
587.107492916074
 20
420.0535158607522
 30
0.0
 11
592.1074929160741
 21
425.0535158607523
 31
0.0
  0
LINE
  5
82D
330
810
100
AcDbEntity
  8
0
 62
     0
100
AcDbLine
 10
580.182492916074
 20
413.1285158607522
 30
0.0
 11
584.1220283781874
 21
417.0680513228656
 31
0.0
  0
LINE
  5
82E
330
810
100
AcDbEntity
  8
0
 62
     0
100
AcDbLine
 10
578.6220283781874
 20
414.2197017523152
 30
0.0
 11
584.1220283781874
 21
419.7197017523151
 31
0.0
  0
LINE
  5
82F
330
810
100
AcDbEntity
  8
0
 62
     0
100
AcDbLine
 10
584.4558424866245
 20
420.0535158607522
 30
0.0
 11
589.4558424866245
 21
425.0535158607523
 31
0.0
  0
LINE
  5
830
330
810
100
AcDbEntity
  8
0
 62
     0
100
AcDbLine
 10
578.6220283781874
 20
416.8713521817647
 30
0.0
 11
586.804192057175
 21
425.0535158607523
 31
0.0
  0
LINE
  5
831
330
810
100
AcDbEntity
  8
0
 62
     0
100
AcDbLine
 10
578.6220283781874
 20
419.5230026112143
 30
0.0
 11
578.6525416277254
 21
419.5535158607523
 31
0.0
  0
LINE
  5
832
330
810
100
AcDbEntity
  8
0
 62
     0
100
AcDbLine
 10
580.6220283781875
 20
421.5230026112142
 30
0.0
 11
584.1525416277254
 21
425.0535158607523
 31
0.0
  0
LINE
  5
833
330
810
100
AcDbEntity
  8
0
 62
     0
100
AcDbLine
 10
580.6220283781875
 20
424.1746530406638
 30
0.0
 11
581.5008911982759
 21
425.0535158607523
 31
0.0
  0
LINE
  5
834
330
810
100
AcDbEntity
  8
0
 62
     0
100
AcDbLine
 10
578.6220283781874
 20
297.5470828565349
 30
0.0
 11
581.2284613824049
 21
300.1535158607524
 31
0.0
  0
LINE
  5
835
330
810
100
AcDbEntity
  8
0
 62
     0
100
AcDbLine
 10
578.6220283781874
 20
294.8954324270853
 30
0.0
 11
580.7051118118543
 21
296.9785158607522
 31
0.0
  0
LINE
  5
836
330
810
100
AcDbEntity
  8
0
 62
     0
100
AcDbLine
 10
580.7051118118543
 20
296.9785158607522
 30
0.0
 11
583.8801118118545
 21
300.1535158607524
 31
0.0
  0
LINE
  5
837
330
810
100
AcDbEntity
  8
0
 62
     0
100
AcDbLine
 10
578.6220283781874
 20
292.2437819976358
 30
0.0
 11
583.3567622413039
 21
296.9785158607522
 31
0.0
  0
LINE
  5
838
330
810
100
AcDbEntity
  8
0
 62
     0
100
AcDbLine
 10
583.3567622413039
 20
296.9785158607522
 30
0.0
 11
586.531762241304
 21
300.1535158607524
 31
0.0
  0
LINE
  5
839
330
810
100
AcDbEntity
  8
0
 62
     0
100
AcDbLine
 10
579.5834126707534
 20
290.5535158607523
 30
0.0
 11
586.0084126707534
 21
296.9785158607522
 31
0.0
  0
LINE
  5
83A
330
810
100
AcDbEntity
  8
0
 62
     0
100
AcDbLine
 10
586.0084126707534
 20
296.9785158607522
 30
0.0
 11
589.1834126707535
 21
300.1535158607524
 31
0.0
  0
LINE
  5
83B
330
810
100
AcDbEntity
  8
0
 62
     0
100
AcDbLine
 10
580.6220283781875
 20
288.9404811387366
 30
0.0
 11
584.1220283781874
 21
292.4404811387367
 31
0.0
  0
LINE
  5
83C
330
810
100
AcDbEntity
  8
0
 62
     0
100
AcDbLine
 10
588.660063100203
 20
296.9785158607522
 30
0.0
 11
591.8350631002031
 21
300.1535158607523
 31
0.0
  0
LINE
  5
83D
330
810
100
AcDbEntity
  8
0
 62
     0
100
AcDbLine
 10
586.7350631002042
 20
295.0535158607534
 30
0.0
 11
588.660063100203
 21
296.9785158607522
 31
0.0
  0
LINE
  5
83E
330
810
100
AcDbEntity
  8
0
 62
     0
100
AcDbLine
 10
580.6220283781875
 20
286.2888307092871
 30
0.0
 11
584.1220283781874
 21
289.7888307092872
 31
0.0
  0
LINE
  5
83F
330
810
100
AcDbEntity
  8
0
 62
     0
100
AcDbLine
 10
591.3117135296525
 20
296.9785158607522
 30
0.0
 11
594.4867135296526
 21
300.1535158607523
 31
0.0
  0
LINE
  5
840
330
810
100
AcDbEntity
  8
0
 62
     0
100
AcDbLine
 10
589.3867135296536
 20
295.0535158607534
 30
0.0
 11
591.3117135296525
 21
296.9785158607522
 31
0.0
  0
LINE
  5
841
330
810
100
AcDbEntity
  8
0
 62
     0
100
AcDbLine
 10
580.6220283781875
 20
283.6371802798375
 30
0.0
 11
584.1220283781874
 21
287.1371802798375
 31
0.0
  0
LINE
  5
842
330
810
100
AcDbEntity
  8
0
 62
     0
100
AcDbLine
 10
593.9633639591021
 20
296.9785158607522
 30
0.0
 11
597.1383639591022
 21
300.1535158607523
 31
0.0
  0
LINE
  5
843
330
810
100
AcDbEntity
  8
0
 62
     0
100
AcDbLine
 10
592.0383639591031
 20
295.0535158607533
 30
0.0
 11
593.9633639591021
 21
296.9785158607522
 31
0.0
  0
LINE
  5
844
330
810
100
AcDbEntity
  8
0
 62
     0
100
AcDbLine
 10
580.6220283781875
 20
280.985529850388
 30
0.0
 11
584.6900143885517
 21
285.0535158607523
 31
0.0
  0
LINE
  5
845
330
810
100
AcDbEntity
  8
0
 62
     0
100
AcDbLine
 10
596.6150143885516
 20
296.9785158607522
 30
0.0
 11
599.7900143885517
 21
300.1535158607523
 31
0.0
  0
LINE
  5
846
330
810
100
AcDbEntity
  8
0
 62
     0
100
AcDbLine
 10
594.6900143885527
 20
295.0535158607533
 30
0.0
 11
596.6150143885516
 21
296.9785158607522
 31
0.0
  0
LINE
  5
847
330
810
100
AcDbEntity
  8
0
 62
     0
100
AcDbLine
 10
582.3416648180013
 20
280.0535158607523
 30
0.0
 11
587.3416648180014
 21
285.0535158607523
 31
0.0
  0
LINE
  5
848
330
810
100
AcDbEntity
  8
0
 62
     0
100
AcDbLine
 10
599.2666648180012
 20
296.9785158607522
 30
0.0
 11
602.4416648180013
 21
300.1535158607523
 31
0.0
  0
LINE
  5
849
330
810
100
AcDbEntity
  8
0
 62
     0
100
AcDbLine
 10
597.3416648180022
 20
295.0535158607533
 30
0.0
 11
599.2666648180012
 21
296.9785158607522
 31
0.0
  0
LINE
  5
84A
330
810
100
AcDbEntity
  8
0
 62
     0
100
AcDbLine
 10
584.9933152474509
 20
280.0535158607523
 30
0.0
 11
589.9933152474509
 21
285.0535158607523
 31
0.0
  0
LINE
  5
84B
330
810
100
AcDbEntity
  8
0
 62
     0
100
AcDbLine
 10
601.9183152474507
 20
296.9785158607522
 30
0.0
 11
604.6220283781873
 21
299.6822289914888
 31
0.0
  0
LINE
  5
84C
330
810
100
AcDbEntity
  8
0
 62
     0
100
AcDbLine
 10
599.9933152474518
 20
295.0535158607533
 30
0.0
 11
601.9183152474507
 21
296.9785158607522
 31
0.0
  0
LINE
  5
84D
330
810
100
AcDbEntity
  8
0
 62
     0
100
AcDbLine
 10
587.6449656769004
 20
280.0535158607523
 30
0.0
 11
592.6449656769005
 21
285.0535158607523
 31
0.0
  0
LINE
  5
84E
330
810
100
AcDbEntity
  8
0
 62
     0
100
AcDbLine
 10
590.29661610635
 20
280.0535158607523
 30
0.0
 11
595.29661610635
 21
285.0535158607523
 31
0.0
  0
LINE
  5
84F
330
810
100
AcDbEntity
  8
0
 62
     0
100
AcDbLine
 10
592.9482665357995
 20
280.0535158607523
 30
0.0
 11
597.9482665357996
 21
285.0535158607523
 31
0.0
  0
LINE
  5
850
330
810
100
AcDbEntity
  8
0
 62
     0
100
AcDbLine
 10
595.5999169652491
 20
280.0535158607523
 30
0.0
 11
600.5999169652491
 21
285.0535158607523
 31
0.0
  0
LINE
  5
851
330
810
100
AcDbEntity
  8
0
 62
     0
100
AcDbLine
 10
598.2515673946986
 20
280.0535158607523
 30
0.0
 11
601.1220283781874
 21
282.9239768442412
 31
0.0
  0
LINE
  5
852
330
810
100
AcDbEntity
  8
0
 62
     0
100
AcDbLine
 10
600.9032178241482
 20
280.0535158607523
 30
0.0
 11
601.1220283781874
 21
280.2723264147916
 31
0.0
  0
LINE
  5
853
330
810
100
AcDbEntity
  8
0
 62
     0
100
AcDbLine
 10
604.6220283781873
 20
299.5907680641101
 30
0.0
 11
604.0592805815452
 21
300.1535158607522
 31
0.0
  0
LINE
  5
854
330
810
100
AcDbEntity
  8
0
 62
     0
100
AcDbLine
 10
603.8148292651409
 20
297.746316747707
 30
0.0
 11
601.4076301520957
 21
300.1535158607522
 31
0.0
  0
LINE
  5
855
330
810
100
AcDbEntity
  8
0
 62
     0
100
AcDbLine
 10
602.4890040504162
 20
296.4204915329823
 30
0.0
 11
601.9309797226461
 21
296.9785158607522
 31
0.0
  0
LINE
  5
856
330
810
100
AcDbEntity
  8
0
 62
     0
100
AcDbLine
 10
601.9309797226461
 20
296.9785158607522
 30
0.0
 11
598.7559797226461
 21
300.1535158607523
 31
0.0
  0
LINE
  5
857
330
810
100
AcDbEntity
  8
0
 62
     0
100
AcDbLine
 10
601.1631788356915
 20
295.0946663182575
 30
0.0
 11
599.2793292931966
 21
296.9785158607522
 31
0.0
  0
LINE
  5
858
330
810
100
AcDbEntity
  8
0
 62
     0
100
AcDbLine
 10
599.2793292931966
 20
296.9785158607522
 30
0.0
 11
596.1043292931966
 21
300.1535158607523
 31
0.0
  0
LINE
  5
859
330
810
100
AcDbEntity
  8
0
 62
     0
100
AcDbLine
 10
598.5526788637461
 20
295.0535158607532
 30
0.0
 11
596.627678863747
 21
296.9785158607522
 31
0.0
  0
LINE
  5
85A
330
810
100
AcDbEntity
  8
0
 62
     0
100
AcDbLine
 10
596.627678863747
 20
296.9785158607522
 30
0.0
 11
593.452678863747
 21
300.1535158607523
 31
0.0
  0
LINE
  5
85B
330
810
100
AcDbEntity
  8
0
 62
     0
100
AcDbLine
 10
595.9010284342965
 20
295.0535158607533
 30
0.0
 11
593.9760284342975
 21
296.9785158607522
 31
0.0
  0
LINE
  5
85C
330
810
100
AcDbEntity
  8
0
 62
     0
100
AcDbLine
 10
593.9760284342975
 20
296.9785158607522
 30
0.0
 11
590.8010284342975
 21
300.1535158607523
 31
0.0
  0
LINE
  5
85D
330
810
100
AcDbEntity
  8
0
 62
     0
100
AcDbLine
 10
593.2493780048469
 20
295.0535158607533
 30
0.0
 11
591.3243780048479
 21
296.9785158607522
 31
0.0
  0
LINE
  5
85E
330
810
100
AcDbEntity
  8
0
 62
     0
100
AcDbLine
 10
591.3243780048479
 20
296.9785158607522
 30
0.0
 11
588.1493780048479
 21
300.1535158607523
 31
0.0
  0
LINE
  5
85F
330
810
100
AcDbEntity
  8
0
 62
     0
100
AcDbLine
 10
601.1220283781874
 20
284.5292150579632
 30
0.0
 11
600.5977275753982
 21
285.0535158607523
 31
0.0
  0
LINE
  5
860
330
810
100
AcDbEntity
  8
0
 62
     0
100
AcDbLine
 10
588.6727275753984
 20
296.9785158607522
 30
0.0
 11
585.4977275753983
 21
300.1535158607524
 31
0.0
  0
LINE
  5
861
330
810
100
AcDbEntity
  8
0
 62
     0
100
AcDbLine
 10
590.5977275753973
 20
295.0535158607533
 30
0.0
 11
588.6727275753984
 21
296.9785158607522
 31
0.0
  0
LINE
  5
862
330
810
100
AcDbEntity
  8
0
 62
     0
100
AcDbLine
 10
601.1220283781874
 20
281.8775646285136
 30
0.0
 11
597.9460771459486
 21
285.0535158607523
 31
0.0
  0
LINE
  5
863
330
810
100
AcDbEntity
  8
0
 62
     0
100
AcDbLine
 10
586.0210771459487
 20
296.9785158607522
 30
0.0
 11
582.8460771459488
 21
300.1535158607524
 31
0.0
  0
LINE
  5
864
330
810
100
AcDbEntity
  8
0
 62
     0
100
AcDbLine
 10
587.9460771459478
 20
295.0535158607534
 30
0.0
 11
586.0210771459487
 21
296.9785158607522
 31
0.0
  0
LINE
  5
865
330
810
100
AcDbEntity
  8
0
 62
     0
100
AcDbLine
 10
600.2944267164992
 20
280.0535158607523
 30
0.0
 11
595.2944267164991
 21
285.0535158607523
 31
0.0
  0
LINE
  5
866
330
810
100
AcDbEntity
  8
0
 62
     0
100
AcDbLine
 10
583.3694267164992
 20
296.9785158607522
 30
0.0
 11
580.1944267164993
 21
300.1535158607524
 31
0.0
  0
LINE
  5
867
330
810
100
AcDbEntity
  8
0
 62
     0
100
AcDbLine
 10
585.2944267164982
 20
295.0535158607534
 30
0.0
 11
583.3694267164992
 21
296.9785158607522
 31
0.0
  0
LINE
  5
868
330
810
100
AcDbEntity
  8
0
 62
     0
100
AcDbLine
 10
597.6427762870497
 20
280.0535158607523
 30
0.0
 11
592.6427762870495
 21
285.0535158607523
 31
0.0
  0
LINE
  5
869
330
810
100
AcDbEntity
  8
0
 62
     0
100
AcDbLine
 10
580.7177762870496
 20
296.9785158607522
 30
0.0
 11
578.6220283781874
 21
299.0742637696146
 31
0.0
  0
LINE
  5
86A
330
810
100
AcDbEntity
  8
0
 62
     0
100
AcDbLine
 10
584.1220283781874
 20
293.5742637696145
 30
0.0
 11
580.7177762870496
 21
296.9785158607522
 31
0.0
  0
LINE
  5
86B
330
810
100
AcDbEntity
  8
0
 62
     0
100
AcDbLine
 10
594.9911258576001
 20
280.0535158607523
 30
0.0
 11
589.9911258576
 21
285.0535158607523
 31
0.0
  0
LINE
  5
86C
330
810
100
AcDbEntity
  8
0
 62
     0
100
AcDbLine
 10
584.1220283781874
 20
290.922613340165
 30
0.0
 11
578.6220283781874
 21
296.422613340165
 31
0.0
  0
LINE
  5
86D
330
810
100
AcDbEntity
  8
0
 62
     0
100
AcDbLine
 10
592.3394754281506
 20
280.0535158607523
 30
0.0
 11
587.3394754281505
 21
285.0535158607523
 31
0.0
  0
LINE
  5
86E
330
810
100
AcDbEntity
  8
0
 62
     0
100
AcDbLine
 10
584.1220283781874
 20
288.2709629107154
 30
0.0
 11
578.6220283781874
 21
293.7709629107155
 31
0.0
  0
LINE
  5
86F
330
810
100
AcDbEntity
  8
0
 62
     0
100
AcDbLine
 10
589.687824998701
 20
280.0535158607523
 30
0.0
 11
584.687824998701
 21
285.0535158607523
 31
0.0
  0
LINE
  5
870
330
810
100
AcDbEntity
  8
0
 62
     0
100
AcDbLine
 10
579.1878249987011
 20
290.5535158607522
 30
0.0
 11
578.6220283781874
 21
291.1193124812659
 31
0.0
  0
LINE
  5
871
330
810
100
AcDbEntity
  8
0
 62
     0
100
AcDbLine
 10
584.1220283781874
 20
285.6193124812659
 30
0.0
 11
580.6220283781875
 21
289.1193124812659
 31
0.0
  0
LINE
  5
872
330
810
100
AcDbEntity
  8
0
 62
     0
100
AcDbLine
 10
587.0361745692515
 20
280.0535158607523
 30
0.0
 11
580.6220283781875
 21
286.4676620518164
 31
0.0
  0
LINE
  5
873
330
810
100
AcDbEntity
  8
0
 62
     0
100
AcDbLine
 10
584.384524139802
 20
280.0535158607523
 30
0.0
 11
580.6220283781875
 21
283.8160116223668
 31
0.0
  0
LINE
  5
874
330
810
100
AcDbEntity
  8
0
 62
     0
100
AcDbLine
 10
581.7328737103524
 20
280.0535158607523
 30
0.0
 11
580.6220283781875
 21
281.1643611929173
 31
0.0
  0
LINE
  5
875
330
810
100
AcDbEntity
  8
0
 62
     0
100
AcDbLine
 10
579.1120943239309
 20
409.9535158607523
 30
0.0
 11
578.6220283781874
 21
410.4435818064957
 31
0.0
  0
LINE
  5
876
330
810
100
AcDbEntity
  8
0
 62
     0
100
AcDbLine
 10
581.7637447533805
 20
409.9535158607523
 30
0.0
 11
578.6220283781874
 21
413.0952322359453
 31
0.0
  0
LINE
  5
877
330
810
100
AcDbEntity
  8
0
 62
     0
100
AcDbLine
 10
584.41539518283
 20
409.9535158607523
 30
0.0
 11
581.2403951828302
 21
413.1285158607522
 31
0.0
  0
LINE
  5
878
330
810
100
AcDbEntity
  8
0
 62
     0
100
AcDbLine
 10
581.24039518283
 20
413.1285158607522
 30
0.0
 11
578.6220283781874
 21
415.7468826653949
 31
0.0
  0
LINE
  5
879
330
810
100
AcDbEntity
  8
0
 62
     0
100
AcDbLine
 10
587.0670456122796
 20
409.9535158607523
 30
0.0
 11
583.8920456122797
 21
413.1285158607522
 31
0.0
  0
LINE
  5
87A
330
810
100
AcDbEntity
  8
0
 62
     0
100
AcDbLine
 10
583.8920456122796
 20
413.1285158607522
 30
0.0
 11
578.6220283781874
 21
418.3985330948444
 31
0.0
  0
LINE
  5
87B
330
810
100
AcDbEntity
  8
0
 62
     0
100
AcDbLine
 10
589.7186960417291
 20
409.9535158607523
 30
0.0
 11
586.5436960417291
 21
413.1285158607522
 31
0.0
  0
LINE
  5
87C
330
810
100
AcDbEntity
  8
0
 62
     0
100
AcDbLine
 10
584.1220283781874
 20
415.550183524294
 30
0.0
 11
580.1186960417291
 21
419.5535158607523
 31
0.0
  0
LINE
  5
87D
330
810
100
AcDbEntity
  8
0
 62
     0
100
AcDbLine
 10
586.5436960417293
 20
413.1285158607523
 30
0.0
 11
584.6186960417302
 21
415.0535158607512
 31
0.0
  0
LINE
  5
87E
330
810
100
AcDbEntity
  8
0
 62
     0
100
AcDbLine
 10
592.3703464711786
 20
409.9535158607523
 30
0.0
 11
589.1953464711787
 21
413.1285158607522
 31
0.0
  0
LINE
  5
87F
330
810
100
AcDbEntity
  8
0
 62
     0
100
AcDbLine
 10
584.1220283781874
 20
418.2018339537435
 30
0.0
 11
580.6220283781875
 21
421.7018339537436
 31
0.0
  0
LINE
  5
880
330
810
100
AcDbEntity
  8
0
 62
     0
100
AcDbLine
 10
589.1953464711788
 20
413.1285158607523
 30
0.0
 11
587.2703464711797
 21
415.0535158607512
 31
0.0
  0
LINE
  5
881
330
810
100
AcDbEntity
  8
0
 62
     0
100
AcDbLine
 10
595.0219969006282
 20
409.9535158607523
 30
0.0
 11
591.8469969006284
 21
413.1285158607523
 31
0.0
  0
LINE
  5
882
330
810
100
AcDbEntity
  8
0
 62
     0
100
AcDbLine
 10
584.9219969006282
 20
420.0535158607522
 30
0.0
 11
580.6220283781875
 21
424.3534843831931
 31
0.0
  0
LINE
  5
883
330
810
100
AcDbEntity
  8
0
 62
     0
100
AcDbLine
 10
591.8469969006282
 20
413.1285158607523
 30
0.0
 11
589.9219969006293
 21
415.0535158607512
 31
0.0
  0
LINE
  5
884
330
810
100
AcDbEntity
  8
0
 62
     0
100
AcDbLine
 10
597.6736473300778
 20
409.9535158607523
 30
0.0
 11
594.4986473300779
 21
413.1285158607523
 31
0.0
  0
LINE
  5
885
330
810
100
AcDbEntity
  8
0
 62
     0
100
AcDbLine
 10
587.5736473300778
 20
420.0535158607522
 30
0.0
 11
582.5736473300778
 21
425.0535158607523
 31
0.0
  0
LINE
  5
886
330
810
100
AcDbEntity
  8
0
 62
     0
100
AcDbLine
 10
594.4986473300778
 20
413.1285158607523
 30
0.0
 11
592.5736473300788
 21
415.0535158607512
 31
0.0
  0
LINE
  5
887
330
810
100
AcDbEntity
  8
0
 62
     0
100
AcDbLine
 10
600.3252977595273
 20
409.9535158607523
 30
0.0
 11
597.1502977595275
 21
413.1285158607523
 31
0.0
  0
LINE
  5
888
330
810
100
AcDbEntity
  8
0
 62
     0
100
AcDbLine
 10
590.2252977595273
 20
420.0535158607522
 30
0.0
 11
585.2252977595274
 21
425.0535158607523
 31
0.0
  0
LINE
  5
889
330
810
100
AcDbEntity
  8
0
 62
     0
100
AcDbLine
 10
597.1502977595273
 20
413.1285158607523
 30
0.0
 11
595.2252977595284
 21
415.0535158607512
 31
0.0
  0
LINE
  5
88A
330
810
100
AcDbEntity
  8
0
 62
     0
100
AcDbLine
 10
602.9769481889769
 20
409.9535158607523
 30
0.0
 11
599.8019481889769
 21
413.1285158607523
 31
0.0
  0
LINE
  5
88B
330
810
100
AcDbEntity
  8
0
 62
     0
100
AcDbLine
 10
592.8769481889769
 20
420.0535158607522
 30
0.0
 11
587.8769481889769
 21
425.0535158607523
 31
0.0
  0
LINE
  5
88C
330
810
100
AcDbEntity
  8
0
 62
     0
100
AcDbLine
 10
599.8019481889769
 20
413.1285158607523
 30
0.0
 11
597.8769481889779
 21
415.0535158607512
 31
0.0
  0
LINE
  5
88D
330
810
100
AcDbEntity
  8
0
 62
     0
100
AcDbLine
 10
604.6220283781874
 20
410.9600861009913
 30
0.0
 11
602.4535986184264
 21
413.1285158607523
 31
0.0
  0
LINE
  5
88E
330
810
100
AcDbEntity
  8
0
 62
     0
100
AcDbLine
 10
595.5285986184265
 20
420.0535158607522
 30
0.0
 11
590.5285986184265
 21
425.0535158607523
 31
0.0
  0
LINE
  5
88F
330
810
100
AcDbEntity
  8
0
 62
     0
100
AcDbLine
 10
602.4535986184264
 20
413.1285158607523
 30
0.0
 11
600.5285986184275
 21
415.0535158607512
 31
0.0
  0
LINE
  5
890
330
810
100
AcDbEntity
  8
0
 62
     0
100
AcDbLine
 10
598.1802490478761
 20
420.0535158607522
 30
0.0
 11
593.180249047876
 21
425.0535158607523
 31
0.0
  0
LINE
  5
891
330
810
100
AcDbEntity
  8
0
 62
     0
100
AcDbLine
 10
600.8318994773256
 20
420.0535158607522
 30
0.0
 11
595.8318994773255
 21
425.0535158607523
 31
0.0
  0
LINE
  5
892
330
810
100
AcDbEntity
  8
0
 62
     0
100
AcDbLine
 10
601.1220283781874
 20
422.4150373893399
 30
0.0
 11
597.622028378187
 21
425.9150373893404
 31
0.0
  0
LINE
  5
893
330
810
100
AcDbEntity
  8
0
 62
     0
100
AcDbLine
 10
601.1220283781874
 20
425.0666878187894
 30
0.0
 11
597.6220283781873
 21
428.5666878187897
 31
0.0
  0
LINE
  5
894
330
810
100
AcDbEntity
  8
0
 62
     0
100
AcDbLine
 10
601.1220283781874
 20
427.718338248239
 30
0.0
 11
598.7868507656743
 21
430.0535158607523
 31
0.0
  0
ENDBLK
  5
895
330
810
100
AcDbEntity
  8
0
100
AcDbBlockEnd
  0
BLOCK
  5
897
330
896
100
AcDbEntity
  8
0
100
AcDbBlockBegin
  2
*X2
 70
     1
 10
0.0
 20
0.0
 30
0.0
  3
*X2
  1

  0
LINE
  5
898
330
896
100
AcDbEntity
  8
0
 62
     0
100
AcDbLine
 10
578.6525416277255
 20
419.5535158607524
 30
0.0
 11
580.6220283781875
 21
421.5230026112142
 31
0.0
  0
LINE
  5
899
330
896
100
AcDbEntity
  8
0
 62
     0
100
AcDbLine
 10
573.4870392798308
 20
417.9235474187903
 30
0.0
 11
580.6220283781875
 21
425.058536517147
 31
0.0
  0
LINE
  5
89A
330
896
100
AcDbEntity
  8
0
 62
     0
100
AcDbLine
 10
568.3588007888183
 20
416.3308428337106
 30
0.0
 11
574.0797695366231
 21
422.0518115815155
 31
0.0
  0
LINE
  5
89B
330
896
100
AcDbEntity
  8
0
 62
     0
100
AcDbLine
 10
576.6220283781875
 20
424.5940704230797
 30
0.0
 11
580.6220283781875
 21
428.5940704230797
 31
0.0
  0
LINE
  5
89C
330
896
100
AcDbEntity
  8
0
 62
     0
100
AcDbLine
 10
566.6220283781872
 20
418.1296043290122
 30
0.0
 11
569.2501404051779
 21
420.7577163560029
 31
0.0
  0
LINE
  5
89D
330
896
100
AcDbEntity
  8
0
 62
     0
100
AcDbLine
 10
575.0220954825947
 20
426.5296714334197
 30
0.0
 11
578.5459399099275
 21
430.0535158607526
 31
0.0
  0
LINE
  5
89E
330
896
100
AcDbEntity
  8
0
 62
     0
100
AcDbLine
 10
571.5104060039944
 20
426.5535158607522
 30
0.0
 11
575.0104060039948
 21
430.0535158607526
 31
0.0
  0
LINE
  5
89F
330
896
100
AcDbEntity
  8
0
 62
     0
100
AcDbLine
 10
567.9748720980618
 20
426.5535158607522
 30
0.0
 11
571.4748720980621
 21
430.0535158607526
 31
0.0
  0
LINE
  5
8A0
330
896
100
AcDbEntity
  8
0
 62
     0
100
AcDbLine
 10
566.6220283781872
 20
428.7362060468105
 30
0.0
 11
567.9393381921292
 21
430.0535158607526
 31
0.0
  0
LINE
  5
8A1
330
896
100
AcDbEntity
  8
0
 62
     0
100
AcDbLine
 10
566.6220283781874
 20
290.8503837154339
 30
0.0
 11
569.3359572625244
 21
293.5643125997708
 31
0.0
  0
LINE
  5
8A2
330
896
100
AcDbEntity
  8
0
 62
     0
100
AcDbLine
 10
568.7819461947682
 20
289.474767626082
 30
0.0
 11
572.0580686880395
 21
292.7508901193533
 31
0.0
  0
LINE
  5
8A3
330
896
100
AcDbEntity
  8
0
 62
     0
100
AcDbLine
 10
571.5703338738942
 20
288.7276213992753
 30
0.0
 11
574.5405569708802
 21
291.6978444962613
 31
0.0
  0
LINE
  5
8A4
330
896
100
AcDbEntity
  8
0
 62
     0
100
AcDbLine
 10
567.0268953097457
 20
280.648648929194
 30
0.0
 11
569.9317622413039
 21
283.5535158607523
 31
0.0
  0
LINE
  5
8A5
330
896
100
AcDbEntity
  8
0
 62
     0
100
AcDbLine
 10
574.3587215530204
 20
287.9804751724686
 30
0.0
 11
576.9317622413041
 21
290.5535158607523
 31
0.0
  0
LINE
  5
8A6
330
896
100
AcDbEntity
  8
0
 62
     0
100
AcDbLine
 10
569.9672961472368
 20
280.0535158607523
 30
0.0
 11
573.4672961472368
 21
283.5535158607523
 31
0.0
  0
LINE
  5
8A7
330
896
100
AcDbEntity
  8
0
 62
     0
100
AcDbLine
 10
576.4999509905144
 20
286.58617070403
 30
0.0
 11
580.4672961472367
 21
290.5535158607523
 31
0.0
  0
LINE
  5
8A8
330
896
100
AcDbEntity
  8
0
 62
     0
100
AcDbLine
 10
573.5028300531695
 20
280.0535158607523
 30
0.0
 11
580.6220283781875
 21
287.1727141857702
 31
0.0
  0
LINE
  5
8A9
330
896
100
AcDbEntity
  8
0
 62
     0
100
AcDbLine
 10
577.0383639591021
 20
280.0535158607523
 30
0.0
 11
580.6220283781875
 21
283.6371802798375
 31
0.0
  0
LINE
  5
8AA
330
896
100
AcDbEntity
  8
0
 62
     0
100
AcDbLine
 10
580.5738978650349
 20
280.0535158607523
 30
0.0
 11
580.6220283781875
 21
280.1016463739047
 31
0.0
  0
LINE
  5
8AB
330
896
100
AcDbEntity
  8
0
 62
     0
100
AcDbLine
 10
580.6220283781875
 20
289.1193124812659
 30
0.0
 11
579.1878249987011
 21
290.5535158607522
 31
0.0
  0
LINE
  5
8AC
330
896
100
AcDbEntity
  8
0
 62
     0
100
AcDbLine
 10
580.6220283781875
 20
285.5837785753332
 30
0.0
 11
574.476938117939
 21
291.7288688355817
 31
0.0
  0
LINE
  5
8AD
330
896
100
AcDbEntity
  8
0
 62
     0
100
AcDbLine
 10
580.6220283781875
 20
282.0482446694004
 30
0.0
 11
576.617075897544
 21
286.0531971500438
 31
0.0
  0
LINE
  5
8AE
330
896
100
AcDbEntity
  8
0
 62
     0
100
AcDbLine
 10
574.810980219599
 20
287.8592928279889
 30
0.0
 11
569.0367233132568
 21
293.633549734331
 31
0.0
  0
LINE
  5
8AF
330
896
100
AcDbEntity
  8
0
 62
     0
100
AcDbLine
 10
579.0812232809027
 20
280.0535158607523
 30
0.0
 11
575.4402465089194
 21
283.6944926327356
 31
0.0
  0
LINE
  5
8B0
330
896
100
AcDbEntity
  8
0
 62
     0
100
AcDbLine
 10
569.9813510881538
 20
289.1533880535014
 30
0.0
 11
566.6220283781874
 21
292.5127107634677
 31
0.0
  0
LINE
  5
8B1
330
896
100
AcDbEntity
  8
0
 62
     0
100
AcDbLine
 10
575.54568937497
 20
280.0535158607523
 30
0.0
 11
572.04568937497
 21
283.5535158607523
 31
0.0
  0
LINE
  5
8B2
330
896
100
AcDbEntity
  8
0
 62
     0
100
AcDbLine
 10
572.0101554690374
 20
280.0535158607523
 30
0.0
 11
568.5101554690374
 21
283.5535158607523
 31
0.0
  0
LINE
  5
8B3
330
896
100
AcDbEntity
  8
0
 62
     0
100
AcDbLine
 10
568.4746215631045
 20
280.0535158607523
 30
0.0
 11
566.6220283781874
 21
281.9061090456695
 31
0.0
  0
LINE
  5
8B4
330
896
100
AcDbEntity
  8
0
 62
     0
100
AcDbLine
 10
566.8019722242974
 20
416.0764536250034
 30
0.0
 11
566.6220283781872
 21
416.2563974711138
 31
0.0
  0
LINE
  5
8B5
330
896
100
AcDbEntity
  8
0
 62
     0
100
AcDbLine
 10
569.7651368696415
 20
416.6488228855921
 30
0.0
 11
566.6220283781872
 21
419.7919313770465
 31
0.0
  0
LINE
  5
8B6
330
896
100
AcDbEntity
  8
0
 62
     0
100
AcDbLine
 10
572.4484061551903
 20
417.501087505976
 30
0.0
 11
569.2041108794187
 21
420.7453827817477
 31
0.0
  0
LINE
  5
8B7
330
896
100
AcDbEntity
  8
0
 62
     0
100
AcDbLine
 10
574.8975685272628
 20
418.5874590398363
 30
0.0
 11
571.9924985585447
 21
421.4925290085544
 31
0.0
  0
LINE
  5
8B8
330
896
100
AcDbEntity
  8
0
 62
     0
100
AcDbLine
 10
566.9315117063469
 20
426.5535158607522
 30
0.0
 11
566.6220283781872
 21
426.8629991889119
 31
0.0
  0
LINE
  5
8B9
330
896
100
AcDbEntity
  8
0
 62
     0
100
AcDbLine
 10
577.4670456122795
 20
419.5535158607523
 30
0.0
 11
574.7808862376708
 21
422.2396752353612
 31
0.0
  0
LINE
  5
8BA
330
896
100
AcDbEntity
  8
0
 62
     0
100
AcDbLine
 10
570.4670456122795
 20
426.5535158607522
 30
0.0
 11
567.2945369952333
 21
429.7260244777986
 31
0.0
  0
LINE
  5
8BB
330
896
100
AcDbEntity
  8
0
 62
     0
100
AcDbLine
 10
580.6220283781875
 20
419.9340670007772
 30
0.0
 11
576.606623418983
 21
423.9494719599816
 31
0.0
  0
LINE
  5
8BC
330
896
100
AcDbEntity
  8
0
 62
     0
100
AcDbLine
 10
574.0025795182122
 20
426.5535158607522
 30
0.0
 11
570.5025795182121
 21
430.0535158607526
 31
0.0
  0
LINE
  5
8BD
330
896
100
AcDbEntity
  8
0
 62
     0
100
AcDbLine
 10
580.6220283781875
 20
423.4696009067099
 30
0.0
 11
574.0381134241448
 21
430.0535158607526
 31
0.0
  0
LINE
  5
8BE
330
896
100
AcDbEntity
  8
0
 62
     0
100
AcDbLine
 10
580.6220283781875
 20
427.0051348126426
 30
0.0
 11
577.5736473300776
 21
430.0535158607526
 31
0.0
  0
ENDBLK
  5
8BF
330
896
100
AcDbEntity
  8
0
100
AcDbBlockEnd
  0
BLOCK
  5
A0D
330
A02
100
AcDbEntity
  8
0
100
AcDbBlockBegin
  2
*D3
 70
     1
 10
0.0
 20
0.0
 30
0.0
  3
*D3
  1

  0
LINE
  5
F22
330
A02
100
AcDbEntity
  8
BEM
 62
     0
370
    -2
100
AcDbLine
 10
173.9999999999997
 20
193.4081254960147
 30
0.0
 11
173.9999999999997
 21
161.9431931211902
 31
0.0
  0
LINE
  5
F23
330
A02
100
AcDbEntity
  8
BEM
 62
     0
370
    -2
100
AcDbLine
 10
275.9999999999995
 20
193.4081254960156
 30
0.0
 11
275.9999999999995
 21
161.9431931211902
 31
0.0
  0
LINE
  5
F24
330
A02
100
AcDbEntity
  8
BEM
 62
     0
370
    -2
100
AcDbLine
 10
180.9999999999997
 20
163.9431931211902
 30
0.0
 11
268.9999999999995
 21
163.9431931211902
 31
0.0
  0
SOLID
  5
F25
330
A02
100
AcDbEntity
  8
BEM
 62
     0
100
AcDbTrace
 10
180.9999999999997
 20
165.1098597878569
 30
0.0
 11
180.9999999999997
 21
162.7765264545236
 31
0.0
 12
173.9999999999997
 22
163.9431931211902
 32
0.0
 13
173.9999999999997
 23
163.9431931211902
 33
0.0
  0
SOLID
  5
F26
330
A02
100
AcDbEntity
  8
BEM
 62
     0
100
AcDbTrace
 10
268.9999999999995
 20
165.1098597878569
 30
0.0
 11
268.9999999999995
 21
162.7765264545236
 31
0.0
 12
275.9999999999995
 22
163.9431931211902
 32
0.0
 13
275.9999999999995
 23
163.9431931211902
 33
0.0
  0
MTEXT
  5
F27
330
A02
100
AcDbEntity
  8
BEM
 62
     1
100
AcDbMText
 10
224.9999999999996
 20
170.4431931211902
 30
0.0
 40
7.0
 41
0.0
 71
     5
 72
     1
  1
\A1;%%C102
 73
     1
 44
1.0
  0
POINT
  5
F28
330
A02
100
AcDbEntity
  8
DEFPOINTS
 62
     0
100
AcDbPoint
 10
173.9999999999997
 20
195.4081254960147
 30
0.0
  0
POINT
  5
F29
330
A02
100
AcDbEntity
  8
DEFPOINTS
 62
     0
100
AcDbPoint
 10
275.9999999999995
 20
195.4081254960156
 30
0.0
  0
POINT
  5
F2A
330
A02
100
AcDbEntity
  8
DEFPOINTS
 62
     0
100
AcDbPoint
 10
275.9999999999995
 20
163.9431931211902
 30
0.0
  0
ENDBLK
  5
A0E
330
A02
100
AcDbEntity
  8
0
100
AcDbBlockEnd
  0
BLOCK
  5
A1A
330
A0F
100
AcDbEntity
  8
0
100
AcDbBlockBegin
  2
*D4
 70
     1
 10
0.0
 20
0.0
 30
0.0
  3
*D4
  1

  0
LINE
  5
F19
330
A0F
100
AcDbEntity
  8
BEM
 62
     0
370
    -2
100
AcDbLine
 10
284.9999999999997
 20
374.4130111396215
 30
0.0
 11
284.9999999999997
 21
147.2900643664092
 31
0.0
  0
LINE
  5
F1A
330
A0F
100
AcDbEntity
  8
BEM
 62
     0
370
    -2
100
AcDbLine
 10
164.9999999999997
 20
374.4130111396216
 30
0.0
 11
164.9999999999997
 21
147.2900643664092
 31
0.0
  0
LINE
  5
F1B
330
A0F
100
AcDbEntity
  8
BEM
 62
     0
370
    -2
100
AcDbLine
 10
277.9999999999997
 20
149.2900643664092
 30
0.0
 11
171.9999999999997
 21
149.2900643664092
 31
0.0
  0
SOLID
  5
F1C
330
A0F
100
AcDbEntity
  8
BEM
 62
     0
100
AcDbTrace
 10
277.9999999999997
 20
150.4567310330758
 30
0.0
 11
277.9999999999997
 21
148.1233976997425
 31
0.0
 12
284.9999999999997
 22
149.2900643664092
 32
0.0
 13
284.9999999999997
 23
149.2900643664092
 33
0.0
  0
SOLID
  5
F1D
330
A0F
100
AcDbEntity
  8
BEM
 62
     0
100
AcDbTrace
 10
171.9999999999997
 20
150.4567310330758
 30
0.0
 11
171.9999999999997
 21
148.1233976997425
 31
0.0
 12
164.9999999999997
 22
149.2900643664092
 32
0.0
 13
164.9999999999997
 23
149.2900643664092
 33
0.0
  0
MTEXT
  5
F1E
330
A0F
100
AcDbEntity
  8
BEM
 62
     1
100
AcDbMText
 10
224.9999999999997
 20
155.7900643664092
 30
0.0
 40
7.0
 41
0.0
 71
     5
 72
     1
  1
\A1;%%C120
 73
     1
 44
1.0
  0
POINT
  5
F1F
330
A0F
100
AcDbEntity
  8
DEFPOINTS
 62
     0
100
AcDbPoint
 10
284.9999999999997
 20
376.4130111396215
 30
0.0
  0
POINT
  5
F20
330
A0F
100
AcDbEntity
  8
DEFPOINTS
 62
     0
100
AcDbPoint
 10
164.9999999999997
 20
376.4130111396216
 30
0.0
  0
POINT
  5
F21
330
A0F
100
AcDbEntity
  8
DEFPOINTS
 62
     0
100
AcDbPoint
 10
164.9999999999997
 20
149.2900643664092
 30
0.0
  0
ENDBLK
  5
A1B
330
A0F
100
AcDbEntity
  8
0
100
AcDbBlockEnd
  0
BLOCK
  5
A27
330
A1C
100
AcDbEntity
  8
0
100
AcDbBlockBegin
  2
*D5
 70
     1
 10
0.0
 20
0.0
 30
0.0
  3
*D5
  1

  0
LINE
  5
F10
330
A1C
100
AcDbEntity
  8
BEM
 62
     0
370
    -2
100
AcDbLine
 10
276.9501360376884
 20
183.408125496015
 30
0.0
 11
313.9374665906409
 21
183.408125496015
 31
0.0
  0
LINE
  5
F11
330
A1C
100
AcDbEntity
  8
BEM
 62
     0
370
    -2
100
AcDbLine
 10
278.2796672039316
 20
338.408125496015
 30
0.0
 11
313.9374665906409
 21
338.408125496015
 31
0.0
  0
LINE
  5
F12
330
A1C
100
AcDbEntity
  8
BEM
 62
     0
370
    -2
100
AcDbLine
 10
311.9374665906409
 20
190.408125496015
 30
0.0
 11
311.9374665906409
 21
331.4081254960151
 31
0.0
  0
SOLID
  5
F13
330
A1C
100
AcDbEntity
  8
BEM
 62
     0
100
AcDbTrace
 10
310.7707999239742
 20
190.408125496015
 30
0.0
 11
313.1041332573076
 21
190.408125496015
 31
0.0
 12
311.9374665906409
 22
183.408125496015
 32
0.0
 13
311.9374665906409
 23
183.408125496015
 33
0.0
  0
SOLID
  5
F14
330
A1C
100
AcDbEntity
  8
BEM
 62
     0
100
AcDbTrace
 10
310.7707999239742
 20
331.4081254960151
 30
0.0
 11
313.1041332573076
 21
331.4081254960151
 31
0.0
 12
311.9374665906409
 22
338.408125496015
 32
0.0
 13
311.9374665906409
 23
338.408125496015
 33
0.0
  0
MTEXT
  5
F15
330
A1C
100
AcDbEntity
  8
BEM
 62
     1
100
AcDbMText
 10
305.4374665906408
 20
260.9081254960151
 30
0.0
 40
7.0
 41
0.0
 71
     5
 72
     1
  1
\A1;155
 11
0.0000000000000001
 21
1.0
 31
0.0
 73
     1
 44
1.0
  0
POINT
  5
F16
330
A1C
100
AcDbEntity
  8
DEFPOINTS
 62
     0
100
AcDbPoint
 10
274.9501360376884
 20
183.408125496015
 30
0.0
  0
POINT
  5
F17
330
A1C
100
AcDbEntity
  8
DEFPOINTS
 62
     0
100
AcDbPoint
 10
276.2796672039316
 20
338.408125496015
 30
0.0
  0
POINT
  5
F18
330
A1C
100
AcDbEntity
  8
DEFPOINTS
 62
     0
100
AcDbPoint
 10
311.9374665906409
 20
338.408125496015
 30
0.0
  0
ENDBLK
  5
A28
330
A1C
100
AcDbEntity
  8
0
100
AcDbBlockEnd
  0
BLOCK
  5
A34
330
A29
100
AcDbEntity
  8
0
100
AcDbBlockBegin
  2
*D6
 70
     1
 10
0.0
 20
0.0
 30
0.0
  3
*D6
  1

  0
LINE
  5
F07
330
A29
100
AcDbEntity
  8
BEM
 62
     0
370
    -2
100
AcDbLine
 10
291.5
 20
533.4081254960149
 30
0.0
 11
313.9368796134415
 21
533.4081254960149
 31
0.0
  0
LINE
  5
F08
330
A29
100
AcDbEntity
  8
BEM
 62
     0
370
    -2
100
AcDbLine
 10
286.6737215954121
 20
373.408125496015
 30
0.0
 11
313.9368796134415
 21
373.408125496015
 31
0.0
  0
LINE
  5
F09
330
A29
100
AcDbEntity
  8
BEM
 62
     0
370
    -2
100
AcDbLine
 10
311.9368796134415
 20
526.4081254960149
 30
0.0
 11
311.9368796134415
 21
380.408125496015
 31
0.0
  0
SOLID
  5
F0A
330
A29
100
AcDbEntity
  8
BEM
 62
     0
100
AcDbTrace
 10
310.7702129467749
 20
526.4081254960149
 30
0.0
 11
313.1035462801082
 21
526.4081254960149
 31
0.0
 12
311.9368796134415
 22
533.4081254960149
 32
0.0
 13
311.9368796134415
 23
533.4081254960149
 33
0.0
  0
SOLID
  5
F0B
330
A29
100
AcDbEntity
  8
BEM
 62
     0
100
AcDbTrace
 10
310.7702129467748
 20
380.408125496015
 30
0.0
 11
313.1035462801082
 21
380.408125496015
 31
0.0
 12
311.9368796134415
 22
373.408125496015
 32
0.0
 13
311.9368796134415
 23
373.408125496015
 33
0.0
  0
MTEXT
  5
F0C
330
A29
100
AcDbEntity
  8
BEM
 62
     1
100
AcDbMText
 10
305.4368796134414
 20
453.408125496015
 30
0.0
 40
7.0
 41
0.0
 71
     5
 72
     1
  1
\A1;160
 11
0.0000000000000001
 21
1.0
 31
0.0
 73
     1
 44
1.0
  0
POINT
  5
F0D
330
A29
100
AcDbEntity
  8
DEFPOINTS
 62
     0
100
AcDbPoint
 10
289.4999999999999
 20
533.4081254960149
 30
0.0
  0
POINT
  5
F0E
330
A29
100
AcDbEntity
  8
DEFPOINTS
 62
     0
100
AcDbPoint
 10
284.6737215954121
 20
373.408125496015
 30
0.0
  0
POINT
  5
F0F
330
A29
100
AcDbEntity
  8
DEFPOINTS
 62
     0
100
AcDbPoint
 10
311.9368796134415
 20
373.408125496015
 30
0.0
  0
ENDBLK
  5
A35
330
A29
100
AcDbEntity
  8
0
100
AcDbBlockEnd
  0
BLOCK
  5
A41
330
A36
100
AcDbEntity
  8
0
100
AcDbBlockBegin
  2
*D7
 70
     1
 10
0.0
 20
0.0
 30
0.0
  3
*D7
  1

  0
LINE
  5
EFE
330
A36
100
AcDbEntity
  8
BEM
 62
     0
370
    -2
100
AcDbLine
 10
276.9501360376884
 20
183.408125496015
 30
0.0
 11
332.669296886941
 21
183.408125496015
 31
0.0
  0
LINE
  5
EFF
330
A36
100
AcDbEntity
  8
BEM
 62
     0
370
    -2
100
AcDbLine
 10
291.5
 20
533.4081254960149
 30
0.0
 11
332.669296886941
 21
533.4081254960149
 31
0.0
  0
LINE
  5
F00
330
A36
100
AcDbEntity
  8
BEM
 62
     0
370
    -2
100
AcDbLine
 10
330.6692968869409
 20
190.408125496015
 30
0.0
 11
330.669296886941
 21
526.4081254960149
 31
0.0
  0
SOLID
  5
F01
330
A36
100
AcDbEntity
  8
BEM
 62
     0
100
AcDbTrace
 10
329.5026302202743
 20
190.408125496015
 30
0.0
 11
331.8359635536077
 21
190.408125496015
 31
0.0
 12
330.6692968869409
 22
183.408125496015
 32
0.0
 13
330.6692968869409
 23
183.408125496015
 33
0.0
  0
SOLID
  5
F02
330
A36
100
AcDbEntity
  8
BEM
 62
     0
100
AcDbTrace
 10
329.5026302202743
 20
526.4081254960149
 30
0.0
 11
331.8359635536077
 21
526.4081254960149
 31
0.0
 12
330.669296886941
 22
533.4081254960149
 32
0.0
 13
330.669296886941
 23
533.4081254960149
 33
0.0
  0
MTEXT
  5
F03
330
A36
100
AcDbEntity
  8
BEM
 62
     1
100
AcDbMText
 10
324.1692968869409
 20
358.408125496015
 30
0.0
 40
7.0
 41
0.0
 71
     5
 72
     1
  1
\A1;350
 11
0.0000000000000001
 21
1.0
 31
0.0
 73
     1
 44
1.0
  0
POINT
  5
F04
330
A36
100
AcDbEntity
  8
DEFPOINTS
 62
     0
100
AcDbPoint
 10
274.9501360376884
 20
183.408125496015
 30
0.0
  0
POINT
  5
F05
330
A36
100
AcDbEntity
  8
DEFPOINTS
 62
     0
100
AcDbPoint
 10
289.4999999999999
 20
533.4081254960149
 30
0.0
  0
POINT
  5
F06
330
A36
100
AcDbEntity
  8
DEFPOINTS
 62
     0
100
AcDbPoint
 10
330.669296886941
 20
533.4081254960149
 30
0.0
  0
ENDBLK
  5
A42
330
A36
100
AcDbEntity
  8
0
100
AcDbBlockEnd
  0
BLOCK
  5
F59
330
F4F
100
AcDbEntity
  8
0
100
AcDbBlockBegin
  2
*D8
 70
     1
 10
0.0
 20
0.0
 30
0.0
  3
*D8
  1

  0
LINE
  5
F64
330
F4F
100
AcDbEntity
  8
BEM
 62
     0
370
    -2
100
AcDbLine
 10
300.0
 20
559.9081254960151
 30
0.0
 11
300.0
 21
572.6503943581344
 31
0.0
  0
LINE
  5
F65
330
F4F
100
AcDbEntity
  8
BEM
 62
     0
370
    -2
100
AcDbLine
 10
149.9999999999999
 20
559.9081254960151
 30
0.0
 11
149.9999999999999
 21
572.6503943581344
 31
0.0
  0
LINE
  5
F66
330
F4F
100
AcDbEntity
  8
BEM
 62
     0
370
    -2
100
AcDbLine
 10
292.9999999999999
 20
570.6503943581345
 30
0.0
 11
156.9999999999999
 21
570.6503943581345
 31
0.0
  0
SOLID
  5
F67
330
F4F
100
AcDbEntity
  8
BEM
 62
     0
100
AcDbTrace
 10
292.9999999999999
 20
571.817061024801
 30
0.0
 11
292.9999999999999
 21
569.4837276914678
 31
0.0
 12
300.0
 22
570.6503943581345
 32
0.0
 13
300.0
 23
570.6503943581345
 33
0.0
  0
SOLID
  5
F68
330
F4F
100
AcDbEntity
  8
BEM
 62
     0
100
AcDbTrace
 10
156.9999999999999
 20
571.817061024801
 30
0.0
 11
156.9999999999999
 21
569.4837276914678
 31
0.0
 12
149.9999999999999
 22
570.6503943581345
 32
0.0
 13
149.9999999999999
 23
570.6503943581345
 33
0.0
  0
MTEXT
  5
F69
330
F4F
100
AcDbEntity
  8
BEM
 62
     1
100
AcDbMText
 10
225.0
 20
577.1503943581344
 30
0.0
 40
7.0
 41
0.0
 71
     5
 72
     1
  1
\A1;%%c150
 73
     1
 44
1.0
  0
POINT
  5
F6A
330
F4F
100
AcDbEntity
  8
DEFPOINTS
 62
     0
100
AcDbPoint
 10
300.0
 20
557.9081254960151
 30
0.0
  0
POINT
  5
F6B
330
F4F
100
AcDbEntity
  8
DEFPOINTS
 62
     0
100
AcDbPoint
 10
149.9999999999999
 20
557.9081254960151
 30
0.0
  0
POINT
  5
F6C
330
F4F
100
AcDbEntity
  8
DEFPOINTS
 62
     0
100
AcDbPoint
 10
149.9999999999999
 20
570.6503943581345
 30
0.0
  0
ENDBLK
  5
F5A
330
F4F
100
AcDbEntity
  8
0
100
AcDbBlockEnd
  0
ENDSEC
  0
SECTION
  2
ENTITIES
  0
LINE
  5
57
330
1E
100
AcDbEntity
  8
STEMPEL
100
AcDbLine
 10
410.0
 20
110.0
 30
0.0
 11
39.99999999999997
 21
110.0
 31
0.0
  0
LINE
  5
58
330
1E
100
AcDbEntity
  8
STEMPEL
100
AcDbLine
 10
136.0000000000001
 20
109.9999999999999
 30
0.0
 11
136.0
 21
9.999999999999971
 31
0.0
  0
LINE
  5
59
330
1E
100
AcDbEntity
  8
STEMPEL
100
AcDbLine
 10
220.0
 20
110.0
 30
0.0
 11
220.0
 21
9.999999999999971
 31
0.0
  0
LINE
  5
5A
330
1E
100
AcDbEntity
  8
STEMPEL
100
AcDbLine
 10
332.0
 20
109.9999999999997
 30
0.0
 11
332.0
 21
40.0
 31
0.0
  0
LINE
  5
5B
330
1E
100
AcDbEntity
  8
STEMPEL
100
AcDbLine
 10
135.9999999999999
 20
29.99999999999997
 30
0.0
 11
39.99999999999997
 21
29.99999999999997
 31
0.0
  0
LINE
  5
5C
330
1E
100
AcDbEntity
  8
STEMPEL
100
AcDbLine
 10
410.0
 20
40.0
 30
0.0
 11
136.0000000000001
 21
39.99999999999997
 31
0.0
  0
LINE
  5
5D
330
1E
100
AcDbEntity
  8
STEMPEL
100
AcDbLine
 10
410.0
 20
80.0
 30
0.0
 11
136.0000000000001
 21
79.99999999999994
 31
0.0
  0
LINE
  5
5E
330
1E
100
AcDbEntity
  8
VOLL
100
AcDbLine
 10
54.00000000000009
 20
110.0
 30
0.0
 11
53.99999999999997
 21
9.999999999999971
 31
0.0
  0
LINE
  5
5F
330
1E
100
AcDbEntity
  8
VOLL
100
AcDbLine
 10
94.00000000000011
 20
109.9999999999999
 30
0.0
 11
94.0
 21
9.999999999999971
 31
0.0
  0
LINE
  5
60
330
1E
100
AcDbEntity
  8
VOLL
100
AcDbLine
 10
114.0000000000001
 20
109.9999999999999
 30
0.0
 11
114.0
 21
9.999999999999971
 31
0.0
  0
LINE
  5
61
330
1E
100
AcDbEntity
  8
VOLL
100
AcDbLine
 10
154.0000000000001
 20
79.99999999999994
 30
0.0
 11
154.0000000000001
 21
39.99999999999997
 31
0.0
  0
LINE
  5
62
330
1E
100
AcDbEntity
  8
VOLL
100
AcDbLine
 10
180.0000000000001
 20
109.9999999999998
 30
0.0
 11
180.0
 21
39.99999999999997
 31
0.0
  0
LINE
  5
63
330
1E
100
AcDbEntity
  8
HILF
100
AcDbLine
 10
40.00000000000008
 20
100.0
 30
0.0
 11
136.0000000000001
 21
100.0
 31
0.0
  0
LINE
  5
64
330
1E
100
AcDbEntity
  8
HILF
100
AcDbLine
 10
40.00000000000008
 20
90.00000000000005
 30
0.0
 11
136.0000000000001
 21
90.00000000000005
 31
0.0
  0
LINE
  5
65
330
1E
100
AcDbEntity
  8
HILF
100
AcDbLine
 10
40.00000000000008
 20
79.99999999999994
 30
0.0
 11
136.0000000000001
 21
79.99999999999994
 31
0.0
  0
LINE
  5
66
330
1E
100
AcDbEntity
  8
HILF
100
AcDbLine
 10
40.00000000000008
 20
69.99999999999994
 30
0.0
 11
136.0000000000001
 21
69.99999999999994
 31
0.0
  0
LINE
  5
67
330
1E
100
AcDbEntity
  8
HILF
100
AcDbLine
 10
40.00000000000008
 20
59.99999999999997
 30
0.0
 11
136.0000000000001
 21
59.99999999999997
 31
0.0
  0
LINE
  5
68
330
1E
100
AcDbEntity
  8
HILF
100
AcDbLine
 10
40.00000000000008
 20
49.99999999999997
 30
0.0
 11
136.0000000000001
 21
49.99999999999997
 31
0.0
  0
LINE
  5
69
330
1E
100
AcDbEntity
  8
HILF
100
AcDbLine
 10
40.00000000000008
 20
39.99999999999997
 30
0.0
 11
136.0000000000001
 21
39.99999999999997
 31
0.0
  0
LINE
  5
6A
330
1E
100
AcDbEntity
  8
HILF
100
AcDbLine
 10
136.0000000000001
 20
69.99999999999994
 30
0.0
 11
220.0
 21
69.99999999999994
 31
0.0
  0
LINE
  5
6B
330
1E
100
AcDbEntity
  8
HILF
100
AcDbLine
 10
136.0000000000001
 20
59.99999999999997
 30
0.0
 11
220.0
 21
59.99999999999997
 31
0.0
  0
LINE
  5
6C
330
1E
100
AcDbEntity
  8
HILF
100
AcDbLine
 10
136.0000000000001
 20
49.99999999999997
 30
0.0
 11
220.0
 21
49.99999999999997
 31
0.0
  0
LINE
  5
6D
330
1E
100
AcDbEntity
  8
HILF
100
AcDbLine
 10
224.7736801096948
 20
84.03758247564139
 30
0.0
 11
324.8353916556311
 21
84.03758247564139
 31
0.0
  0
LINE
  5
6E
330
1E
100
AcDbEntity
  8
HILF
100
AcDbLine
 10
224.7736801096948
 20
69.99999999999994
 30
0.0
 11
324.835391655631
 21
69.99999999999994
 31
0.0
  0
LINE
  5
6F
330
1E
100
AcDbEntity
  8
HILF
100
AcDbLine
 10
224.7736801096948
 20
59.99999999999997
 30
0.0
 11
324.835391655631
 21
59.99999999999997
 31
0.0
  0
LINE
  5
70
330
1E
100
AcDbEntity
  8
HILF
100
AcDbLine
 10
224.7736801096948
 20
49.99999999999997
 30
0.0
 11
324.835391655631
 21
49.99999999999997
 31
0.0
  0
LINE
  5
71
330
1E
100
AcDbEntity
  8
VOLL
100
AcDbLine
 10
332.0
 20
60.0
 30
0.0
 11
410.0
 21
60.0
 31
0.0
  0
LINE
  5
72
330
1E
100
AcDbEntity
  8
HILF
100
AcDbLine
 10
336.7238616296993
 20
83.77983636955827
 30
0.0
 11
404.8588839326728
 21
83.77983636955827
 31
0.0
  0
LINE
  5
73
330
1E
100
AcDbEntity
  8
HILF
100
AcDbLine
 10
223.4909699289885
 20
14.89398258028314
 30
0.0
 11
404.8588839326728
 21
14.89398258028314
 31
0.0
  0
TEXT
  5
74
330
1E
100
AcDbEntity
  8
TEXT
100
AcDbText
 10
62.77143678218995
 20
18.67381894984132
 30
0.0
 40
4.0
  1
Änderung
 41
0.8
  7
GREEKS
 72
     1
 11
73.5142939250471
 21
18.67381894984132
 31
0.0
100
AcDbText
  0
TEXT
  5
75
330
1E
100
AcDbEntity
  8
TEXT
100
AcDbText
 10
143.5163572150377
 20
102.4620895087088
 30
0.0
 40
5.0
  1
Maßstab
 41
0.8
  7
GREEKS
100
AcDbText
  0
TEXT
  5
76
330
1E
100
AcDbEntity
  8
TEXT
100
AcDbText
 10
184.2858954734051
 20
102.4184168434819
 30
0.0
 40
5.0
  1
Zul. Abw.
 41
0.8
  7
GREEKS
100
AcDbText
  0
TEXT
  5
77
330
1E
100
AcDbEntity
  8
TEXT
100
AcDbText
 10
224.877940380901
 20
102.5489328011779
 30
0.0
 40
5.0
  1
Benennung
 41
0.8
  7
GREEKS
100
AcDbText
  0
TEXT
  5
78
330
1E
100
AcDbEntity
  8
TEXT
100
AcDbText
 10
336.178754957634
 20
102.3132034537136
 30
0.0
 40
5.0
  1
Zeichnungs Nr.
 41
0.8
  7
GREEKS
100
AcDbText
  0
TEXT
  5
79
330
1E
100
AcDbEntity
  8
TEXT
100
AcDbText
 10
224.742238391136
 20
30.84560570193057
 30
0.0
 40
5.0
  1
Bauvorhaben
 41
0.8
  7
GREEKS
100
AcDbText
  0
TEXT
  5
7A
330
1E
100
AcDbEntity
  8
TEXT
100
AcDbText
 10
336.7238616296993
 20
73.1811823709997
 30
0.0
 40
5.0
  1
Ersatz für:
 41
0.8
  7
GREEKS
100
AcDbText
  0
TEXT
  5
7B
330
1E
100
AcDbEntity
  8
TEXT
100
AcDbText
 10
48.26641107045756
 20
13.65465846027192
 30
0.0
 40
4.0
  1
Index
 50
90.0
 41
0.8
  7
GREEKS
100
AcDbText
  0
TEXT
  5
7C
330
1E
100
AcDbEntity
  8
TEXT
100
AcDbText
 10
99.22106294389282
 20
18.6715626933981
 30
0.0
 40
4.0
  1
Tag
 41
0.8
  7
GREEKS
 72
     1
 11
102.9543962772261
 21
18.6715626933981
 31
0.0
100
AcDbText
  0
TEXT
  5
7D
330
1E
100
AcDbEntity
  8
TEXT
100
AcDbText
 10
119.0122744386592
 20
18.59324216966408
 30
0.0
 40
4.0
  1
Name
 41
0.8
  7
GREEKS
 72
     1
 11
125.3360839624688
 21
18.59324216966408
 31
0.0
100
AcDbText
  0
TEXT
  5
7E
330
1E
100
AcDbEntity
  8
TEXT
100
AcDbText
 10
162.3311673153651
 20
73.31880501229926
 30
0.0
 40
4.0
  1
Tag
 41
0.8
  7
GREEKS
100
AcDbText
  0
TEXT
  5
7F
330
1E
100
AcDbEntity
  8
TEXT
100
AcDbText
 10
192.4626584226295
 20
73.30961091915225
 30
0.0
 40
4.0
  1
Name
 41
0.8
  7
GREEKS
100
AcDbText
  0
TEXT
  5
80
330
1E
100
AcDbEntity
  8
TEXT
100
AcDbText
 10
137.5836127167615
 20
63.62990369617964
 30
0.0
 40
4.0
  1
Gez.
 41
0.8
  7
GREEKS
100
AcDbText
  0
TEXT
  5
81
330
1E
100
AcDbEntity
  8
TEXT
100
AcDbText
 10
137.5515086571672
 20
53.68926291428377
 30
0.0
 40
4.0
  1
Gepr.
 41
0.8
  7
GREEKS
100
AcDbText
  0
TEXT
  5
82
330
1E
100
AcDbEntity
  8
TEXT
100
AcDbText
 10
137.6006777387304
 20
43.52946389649807
 30
0.0
 40
4.0
  1
Norm.
 41
0.8
  7
GREEKS
100
AcDbText
  0
LINE
  5
83
330
1E
100
AcDbEntity
  8
STEMPEL
100
AcDbLine
 10
49.99999999999989
 20
10.0
 30
0.0
 11
410.0
 21
10.0
 31
0.0
  0
TEXT
  5
84
330
1E
100
AcDbEntity
  8
TEXT
100
AcDbText
 10
337.2400861497006
 20
52.07416177878602
 30
0.0
 40
5.0
  1
ersetzt durch:
 41
0.8
  7
GREEKS
100
AcDbText
  0
LINE
  5
85
330
1E
100
AcDbEntity
  8
STEMPEL
100
AcDbLine
 10
410.0
 20
10.0
 30
0.0
 11
39.99999999999989
 21
10.0
 31
0.0
  0
LINE
  5
86
330
1E
100
AcDbEntity
  8
STEMPEL
100
AcDbLine
 10
410.0
 20
10.0
 30
0.0
 11
410.0
 21
584.0
 31
0.0
  0
LINE
  5
87
330
1E
100
AcDbEntity
  8
STEMPEL
100
AcDbLine
 10
40.0
 20
10.0
 30
0.0
 11
39.99999999999989
 21
584.0
 31
0.0
  0
LINE
  5
88
330
1E
100
AcDbEntity
  8
STEMPEL
100
AcDbLine
 10
410.0
 20
584.0
 30
0.0
 11
39.99999999999989
 21
584.0
 31
0.0
  0
LINE
  5
89
330
1E
100
AcDbEntity
  8
HILF
100
AcDbLine
 10
0.0
 20
0.0
 30
0.0
 11
-0.0000000000001137
 21
594.0
 31
0.0
  0
LINE
  5
8A
330
1E
100
AcDbEntity
  8
HILF
100
AcDbLine
 10
419.9999999999999
 20
594.0000000000002
 30
0.0
 11
0.0
 21
594.0
 31
0.0
  0
LINE
  5
8B
330
1E
100
AcDbEntity
  8
HILF
100
AcDbLine
 10
420.0
 20
0.0
 30
0.0
 11
0.0
 21
0.0
 31
0.0
  0
LINE
  5
8C
330
1E
100
AcDbEntity
  8
HILF
100
AcDbLine
 10
31.08767135713856
 20
297.0
 30
0.0
 11
0.0000000000001137
 21
297.0
 31
0.0
  0
TEXT
  5
8D
330
1E
100
AcDbEntity
  8
TEXT
100
AcDbText
 10
138.622109822104
 20
73.14025471151666
 30
0.0
 40
4.0
  1
2011
 41
0.8
  7
GREEKS
100
AcDbText
  0
LINE
  5
8E
330
1E
100
AcDbEntity
  8
HILF
100
AcDbLine
 10
420.0
 20
-0.0000000000001137
 30
0.0
 11
419.9999999999999
 21
594.0
 31
0.0
  0
TEXT
  5
8F
330
1E
100
AcDbEntity
  8
VOLL
100
AcDbText
 10
78.07675471698113
 20
31.02594776470585
 30
0.0
 40
1.8
  1

  7
GREEKS
100
AcDbText
  0
TEXT
  5
90
330
1E
100
AcDbEntity
  8
TEXT
100
AcDbText
 10
41.85509950977674
 20
111.6719999999999
 30
0.0
 40
5.0
  1
Erstellt mit AUTOCAD 2004
 41
0.8
  7
GREEKS
100
AcDbText
  0
TEXT
  5
91
330
1E
100
AcDbEntity
  8
TEXT
100
AcDbText
 10
194.4216048581257
 20
63.0896391972351
 30
0.0
 40
4.0
  1
Koeh
 41
0.8
  7
GREEKS
 72
     1
 11
199.6787477152685
 21
63.0896391972351
 31
0.0
100
AcDbText
  0
TEXT
  5
92
330
1E
100
AcDbEntity
  8
TEXT
 62
     1
100
AcDbText
 10
346.6857427089419
 20
88.14901428913959
 30
0.0
 40
7.0
  1
16720100W
 41
0.8
  7
GREEKS
 72
     1
 11
369.6190760422752
 21
88.14901428913959
 31
0.0
100
AcDbText
  0
TEXT
  5
93
330
1E
100
AcDbEntity
  8
TEXT
 62
     1
100
AcDbText
 10
150.5006306481887
 20
88.14901428913959
 30
0.0
 40
7.0
  1
1:2
 41
0.8
  7
GREEKS
100
AcDbText
  0
TEXT
  5
94
330
1E
100
AcDbEntity
  8
TEXT
100
AcDbText
 10
160.7037590129979
 20
63.10765040825732
 30
0.0
 40
4.0
  1
24.01.
 41
0.8
  7
GREEKS
 72
     1
 11
167.4085209177598
 21
63.10765040825732
 31
0.0
100
AcDbText
  0
TEXT
  5
95
330
1E
100
AcDbEntity
  8
TEXT
 62
     1
100
AcDbText
 10
226.8935731057402
 20
87.41748789253779
 30
0.0
 40
7.0
  1
Fallrohr DN100
 41
0.8
  7
GREEKS
100
AcDbText
  0
TEXT
  5
96
330
1E
100
AcDbEntity
  8
TEXT
100
AcDbText
 10
225.1296391125315
 20
71.50334417585288
 30
0.0
 40
5.0
  1
350 mm lang
 41
0.8
  7
GREEKS
100
AcDbText
  0
TEXT
  5
98
330
1E
100
AcDbEntity
  8
TEXT
100
AcDbText
 10
225.1296391125315
 20
51.64011943042158
 30
0.0
 40
5.0
  1
EDV-Art.Nr. 16720.100X
 41
0.8
  7
GREEKS
100
AcDbText
  0
TEXT
  5
99
330
1E
100
AcDbEntity
  8
TEXT
100
AcDbText
 10
224.9837501577827
 20
42.62974153022632
 30
0.0
 40
4.0
  1
16720100W.DWG
 41
0.8
  7
GREEKS
100
AcDbText
  0
TEXT
  5
9A
330
1E
100
AcDbEntity
  8
TEXT
100
AcDbText
 10
182.626132208084
 20
90.76363841023022
 30
0.0
 40
4.0
  1
DIN EN1123-2
 41
0.8
  7
GREEKS
 72
     1
 11
199.6166083985602
 21
90.76363841023022
 31
0.0
100
AcDbText
  0
INSERT
  5
9B
330
1E
100
AcDbEntity
  8
STEMPEL
100
AcDbBlockReference
  2
LOGO
 10
140.9955485457794
 20
45.02105276448322
 30
0.0
 41
2.0
 42
2.0
 43
2.0
  0
TEXT
  5
118
330
1E
100
AcDbEntity
  8
BEM
100
AcDbText
 10
417.3022923857165
 20
10.16790107998849
 30
0.0
 40
4.0
  1
Diese Zeichnung ist urheberrechtlich geschützt und bleibt unser Eigentum. Sie darf weder ganz noch teilweise verfielfältigt und nicht an Dritte weitergegeben werden.
 50
90.0
 41
0.8
  7
GREEKS
100
AcDbText
  0
LINE
  5
989
330
1E
100
AcDbEntity
  8
STEMPEL
100
AcDbLine
 10
149.9999999999999
 20
557.9081254960151
 30
0.0
 11
165.0000000000008
 21
557.9081254960151
 31
0.0
  0
LINE
  5
98A
330
1E
100
AcDbEntity
  8
STEMPEL
100
AcDbLine
 10
149.9999999999999
 20
554.4081254960151
 30
0.0
 11
154.9999999999999
 21
554.4081254960146
 31
0.0
  0
LINE
  5
98B
330
1E
100
AcDbEntity
  8
STEMPEL
100
AcDbLine
 10
159.9999999999999
 20
540.9081254960151
 30
0.0
 11
165.0000000000008
 21
540.9081254960151
 31
0.0
  0
LINE
  5
98C
330
1E
100
AcDbEntity
  8
STEMPEL
100
AcDbLine
 10
149.9999999999999
 20
554.4081254960151
 30
0.0
 11
149.9999999999999
 21
557.9081254960151
 31
0.0
  0
LINE
  5
98D
330
1E
100
AcDbEntity
  8
STEMPEL
100
AcDbLine
 10
165.0000000000008
 20
540.9081254960151
 30
0.0
 11
165.0000000000008
 21
557.9081254960151
 31
0.0
  0
LINE
  5
98E
330
1E
100
AcDbEntity
  8
STEMPEL
100
AcDbLine
 10
159.9999999999999
 20
540.9081254960151
 30
0.0
 11
159.9999999999999
 21
557.9081254960151
 31
0.0
  0
LINE
  5
98F
330
1E
100
AcDbEntity
  8
STEMPEL
100
AcDbLine
 10
165.0000000000008
 20
557.9081254960151
 30
0.0
 11
168.5000000000008
 21
561.4081254960151
 31
0.0
  0
LINE
  5
990
330
1E
100
AcDbEntity
  8
STEMPEL
100
AcDbLine
 10
154.9999999999997
 20
537.4081254960151
 30
0.0
 11
149.9999999999997
 21
537.4081254960151
 31
0.0
  0
ARC
  5
991
330
1E
100
AcDbEntity
  8
STEMPEL
100
AcDbCircle
 10
155.3999999999998
 20
531.508125496015
 30
0.0
 40
1.9
100
AcDbArc
 50
90.0
 51
180.0
  0
LINE
  5
992
330
1E
100
AcDbEntity
  8
STEMPEL
100
AcDbLine
 10
160.4999999999997
 20
537.4081254960149
 30
0.0
 11
160.4999999999999
 21
533.4081254960149
 31
0.0
  0
LINE
  5
993
330
1E
100
AcDbEntity
  8
STEMPEL
100
AcDbLine
 10
160.4999999999999
 20
535.4081254960151
 30
0.0
 11
160.4999999999999
 21
537.4081254960151
 31
0.0
  0
ARC
  5
994
330
1E
100
AcDbEntity
  8
STEMPEL
100
AcDbCircle
 10
155.8625867985285
 20
531.508125496015
 30
0.0
 40
1.9
100
AcDbArc
 50
15.00000000000115
 51
90.0
  0
LINE
  5
995
102
{ACAD_REACTORS
330
EBB
102
}
330
1E
100
AcDbEntity
  8
STEMPEL
100
AcDbLine
 10
161.2004687812131
 20
532.3481930499963
 30
0.0
 11
162.8965062837102
 21
533.4081254960151
 31
0.0
  0
LINE
  5
996
330
1E
100
AcDbEntity
  8
STEMPEL
100
AcDbLine
 10
155.3999999999998
 20
533.4081254960151
 30
0.0
 11
155.8625867985285
 21
533.4081254960151
 31
0.0
  0
LINE
  5
997
330
1E
100
AcDbEntity
  8
STEMPEL
100
AcDbLine
 10
150.3759422170034
 20
537.4081254960151
 30
0.0
 11
160.4999999999999
 21
537.4081254960151
 31
0.0
  0
LINE
  5
998
330
1E
100
AcDbEntity
  8
STEMPEL
100
AcDbLine
 10
149.9999999999997
 20
524.4081254960149
 30
0.0
 11
150.9999999999997
 21
523.4081254960149
 31
0.0
  0
LINE
  5
999
330
1E
100
AcDbEntity
  8
STEMPEL
100
AcDbLine
 10
164.625835222893
 20
523.4081254960149
 30
0.0
 11
150.9999999999997
 21
523.4081254960149
 31
0.0
  0
LINE
  5
99A
330
1E
100
AcDbEntity
  8
STEMPEL
100
AcDbLine
 10
149.9999999999997
 20
537.4081254960151
 30
0.0
 11
149.9999999999997
 21
524.4081254960149
 31
0.0
  0
ARC
  5
99B
330
1E
100
AcDbEntity
  8
STEMPEL
100
AcDbCircle
 10
139.1893652938338
 20
520.3369033488568
 30
0.0
 40
25.0
100
AcDbArc
 50
7.056548564393372
 51
31.52354387398621
  0
LINE
  5
99C
330
1E
100
AcDbEntity
  8
STEMPEL
100
AcDbLine
 10
157.6978458684779
 20
531.9998816817099
 30
0.0
 11
159.9999999999999
 21
523.4081254960151
 31
0.0
  0
LINE
  5
99D
330
1E
100
AcDbEntity
  8
STEMPEL
100
AcDbLine
 10
153.4999999999999
 20
531.508125496015
 30
0.0
 11
153.4999999999999
 21
523.4081254960151
 31
0.0
  0
ARC
  5
99E
102
{ACAD_REACTORS
330
EBB
102
}
330
1E
100
AcDbEntity
  8
STEMPEL
100
AcDbCircle
 10
139.9999999999998
 20
519.0990374747607
 30
0.0
 40
25.0
100
AcDbArc
 50
0.0
 51
32.00317268118462
  0
ARC
  5
99F
102
{ACAD_REACTORS
330
EBB
102
}
330
1E
100
AcDbEntity
  8
STEMPEL
100
AcDbCircle
 10
139.9999999999998
 20
519.0990374747607
 30
0.0
 40
27.0
100
AcDbArc
 50
0.0
 51
32.00317268118462
  0
LINE
  5
9A0
330
1E
100
AcDbEntity
  8
STEMPEL
100
AcDbLine
 10
150.3759422170034
 20
554.4081254960151
 30
0.0
 11
150.3759422170034
 21
537.4081254960151
 31
0.0
  0
LINE
  5
9A1
330
1E
100
AcDbEntity
  8
STEMPEL
100
AcDbLine
 10
154.9999999999999
 20
554.4081254960146
 30
0.0
 11
154.9999999999999
 21
537.4081254960151
 31
0.0
  0
LINE
  5
9A2
330
1E
100
AcDbEntity
  8
HILF
100
AcDbLine
 10
166.9249999999999
 20
535.4081254960151
 30
0.0
 11
166.9249999999999
 21
559.833125496014
 31
0.0
  0
LINE
  5
9A3
330
1E
100
AcDbEntity
  8
STEMPEL
100
AcDbLine
 10
170.0999999999998
 20
535.4081254960151
 30
0.0
 11
170.0999999999998
 21
561.4081254960151
 31
0.0
  0
LINE
  5
9A4
330
1E
100
AcDbEntity
  8
STEMPEL
100
AcDbLine
 10
279.8999999999998
 20
535.4081254960151
 30
0.0
 11
279.9
 21
561.4081254960151
 31
0.0
  0
LINE
  5
9A5
330
1E
100
AcDbEntity
  8
STEMPEL
100
AcDbLine
 10
168.5000000000008
 20
561.4081254960151
 30
0.0
 11
281.4999999999988
 21
561.4081254960151
 31
0.0
  0
LINE
  5
9A9
330
1E
100
AcDbEntity
  8
STEMPEL
100
AcDbLine
 10
284.9999999999988
 20
557.9081254960151
 30
0.0
 11
300.0
 21
557.9081254960151
 31
0.0
  0
LINE
  5
9AA
330
1E
100
AcDbEntity
  8
STEMPEL
100
AcDbLine
 10
284.9999999999988
 20
540.9081254960151
 30
0.0
 11
294.9999999999999
 21
540.9081254960151
 31
0.0
  0
LINE
  5
9AB
330
1E
100
AcDbEntity
  8
STEMPEL
100
AcDbLine
 10
284.9999999999988
 20
540.9081254960151
 30
0.0
 11
284.999999999999
 21
557.9081254960149
 31
0.0
  0
LINE
  5
9AC
330
1E
100
AcDbEntity
  8
STEMPEL
100
AcDbLine
 10
294.9999999999999
 20
540.9081254960151
 30
0.0
 11
294.9999999999999
 21
557.9081254960151
 31
0.0
  0
LINE
  5
9AD
330
1E
100
AcDbEntity
  8
STEMPEL
100
AcDbLine
 10
289.4999999999999
 20
537.4081254960149
 30
0.0
 11
289.4999999999999
 21
533.4081254960149
 31
0.0
  0
LINE
  5
9AE
330
1E
100
AcDbEntity
  8
STEMPEL
100
AcDbLine
 10
294.5999999999998
 20
533.4081254960151
 30
0.0
 11
294.1374132014711
 21
533.4081254960151
 31
0.0
  0
LINE
  5
9AF
330
1E
100
AcDbEntity
  8
STEMPEL
100
AcDbLine
 10
289.4999999999999
 20
535.4081254960151
 30
0.0
 11
289.4999999999999
 21
537.4081254960151
 31
0.0
  0
ARC
  5
9B0
330
1E
100
AcDbEntity
  8
STEMPEL
100
AcDbCircle
 10
294.137413201471
 20
531.508125496015
 30
0.0
 40
1.9
100
AcDbArc
 50
90.0
 51
164.9999999999988
  0
LINE
  5
9B1
102
{ACAD_REACTORS
330
EBB
102
}
330
1E
100
AcDbEntity
  8
STEMPEL
100
AcDbLine
 10
288.7995312187865
 20
532.3481930499963
 30
0.0
 11
287.1034937162894
 21
533.4081254960151
 31
0.0
  0
LINE
  5
9B2
330
1E
100
AcDbEntity
  8
STEMPEL
100
AcDbLine
 10
300.0
 20
537.4081254960149
 30
0.0
 11
289.4999999999999
 21
537.4081254960149
 31
0.0
  0
ARC
  5
9B3
330
1E
100
AcDbEntity
  8
STEMPEL
100
AcDbCircle
 10
294.5999999999997
 20
531.508125496015
 30
0.0
 40
1.9
100
AcDbArc
 50
0.0
 51
90.0
  0
LINE
  5
9B4
330
1E
100
AcDbEntity
  8
STEMPEL
100
AcDbLine
 10
289.4999999999999
 20
537.4081254960151
 30
0.0
 11
300.0
 21
537.4081254960151
 31
0.0
  0
LINE
  5
9B5
330
1E
100
AcDbEntity
  8
STEMPEL
100
AcDbLine
 10
300.0
 20
524.4081254960151
 30
0.0
 11
298.9999999999999
 21
523.4081254960151
 31
0.0
  0
LINE
  5
9B6
330
1E
100
AcDbEntity
  8
STEMPEL
100
AcDbLine
 10
298.9999999999999
 20
523.4081254960151
 30
0.0
 11
285.3741647771069
 21
523.4081254960151
 31
0.0
  0
LINE
  5
9B7
330
1E
100
AcDbEntity
  8
STEMPEL
100
AcDbLine
 10
300.0
 20
537.4081254960149
 30
0.0
 11
300.0
 21
524.4081254960151
 31
0.0
  0
ARC
  5
9B8
330
1E
100
AcDbEntity
  8
STEMPEL
100
AcDbCircle
 10
310.8106347061657
 20
520.3369033488568
 30
0.0
 40
25.0
100
AcDbArc
 50
148.4764561260138
 51
172.9434514356065
  0
LINE
  5
9B9
330
1E
100
AcDbEntity
  8
STEMPEL
100
AcDbLine
 10
296.4999999999999
 20
531.508125496015
 30
0.0
 11
296.4999999999999
 21
523.4081254960151
 31
0.0
  0
LINE
  5
9BA
330
1E
100
AcDbEntity
  8
STEMPEL
100
AcDbLine
 10
292.3021541315217
 20
531.9998816817099
 30
0.0
 11
290.0
 21
523.4081254960151
 31
0.0
  0
ARC
  5
9BB
102
{ACAD_REACTORS
330
EBB
102
}
330
1E
100
AcDbEntity
  8
STEMPEL
100
AcDbCircle
 10
309.9999999999998
 20
519.0990374747607
 30
0.0
 40
25.0
100
AcDbArc
 50
147.9968273188154
 51
180.0
  0
LINE
  5
9BC
330
1E
100
AcDbEntity
  8
STEMPEL
100
AcDbLine
 10
300.0
 20
537.4081254960151
 30
0.0
 11
300.0
 21
557.9081254960151
 31
0.0
  0
LINE
  5
9BD
330
1E
100
AcDbEntity
  8
HILF
100
AcDbLine
 10
283.075
 20
535.4081254960151
 30
0.0
 11
283.075
 21
559.833125496014
 31
0.0
  0
LINE
  5
9BE
330
1E
100
AcDbEntity
  8
STEMPEL
100
AcDbLine
 10
289.4999999999999
 20
533.4081254960149
 30
0.0
 11
160.4999999999997
 21
533.4081254960151
 31
0.0
  0
ARC
  5
9BF
102
{ACAD_REACTORS
330
EBB
102
}
330
1E
100
AcDbEntity
  8
STEMPEL
100
AcDbCircle
 10
309.9999999999998
 20
519.0990374747607
 30
0.0
 40
27.0
100
AcDbArc
 50
147.9968273188154
 51
180.0
  0
LINE
  5
9C0
330
1E
100
AcDbEntity
  8
STEMPEL
100
AcDbLine
 10
160.4999999999999
 20
535.4081254960151
 30
0.0
 11
289.4999999999999
 21
535.4081254960151
 31
0.0
  0
LINE
  5
9C1
330
1E
100
AcDbEntity
  8
STEMPEL
100
AcDbLine
 10
284.9999999999988
 20
557.9081254960151
 30
0.0
 11
281.4999999999988
 21
561.4081254960151
 31
0.0
  0
INSERT
  5
9C3
330
1E
100
AcDbEntity
  8
SCHRAFF
100
AcDbBlockReference
  2
*X1
 10
580.0535158607522
 20
-43.2139028821723
 30
0.0
 50
90.0
1001
ACAD
1000
HATCH
1002
{
1070
    16
1000
NET,I
1040
15.0
1040
0.7853981633974483
1002
}
  0
INSERT
  5
9C4
330
1E
100
AcDbEntity
  8
SCHRAFF
100
AcDbBlockReference
  2
*X2
 10
580.0535158607522
 20
-43.2139028821723
 30
0.0
 50
90.0
1001
ACAD
1000
HATCH
1002
{
1070
    16
1000
NET,I
1040
20.0
1040
0.7853981633974483
1002
}
  0
ARC
  5
9CB
102
{ACAD_REACTORS
330
EBB
102
}
330
1E
100
AcDbEntity
  8
STEMPEL
100
AcDbCircle
 10
287.9999999999995
 20
335.8325092300666
 30
0.0
 40
14.0
100
AcDbArc
 50
166.5058417400816
 51
180.0
  0
ARC
  5
9CC
102
{ACAD_REACTORS
330
EBB
102
}
330
1E
100
AcDbEntity
  8
STEMPEL
100
AcDbCircle
 10
287.9999999999995
 20
335.8325092300666
 30
0.0
 40
12.0
100
AcDbArc
 50
166.5058417400816
 51
180.0
  0
LINE
  5
9CE
330
1E
100
AcDbEntity
  8
HILF
100
AcDbLine
 10
280.5378541752765
 20
373.408125496015
 30
0.0
 11
169.4621458247229
 21
373.4081254960151
 31
0.0
  0
LINE
  5
9CF
330
1E
100
AcDbEntity
  8
HILF
100
AcDbLine
 10
272.2086669071102
 20
338.408125496015
 30
0.0
 11
177.7913330928892
 21
338.408125496015
 31
0.0
  0
LINE
  5
9D0
102
{ACAD_REACTORS
330
EBB
102
}
330
1E
100
AcDbEntity
  8
STEMPEL
100
AcDbLine
 10
173.9999999999997
 20
195.4081254960147
 30
0.0
 11
175.0498639623105
 21
183.408125496015
 31
0.0
  0
LINE
  5
9D1
102
{ACAD_REACTORS
330
EBB
102
}
330
1E
100
AcDbEntity
  8
STEMPEL
100
AcDbLine
 10
175.9999999999997
 20
195.4954473818322
 30
0.0
 11
177.0575036373974
 21
183.408125496015
 31
0.0
  0
LINE
  5
9D2
102
{ACAD_REACTORS
330
EBB
102
}
330
1E
100
AcDbEntity
  8
STEMPEL
100
AcDbLine
 10
275.9999999999995
 20
195.4081254960156
 30
0.0
 11
274.9501360376884
 21
183.408125496015
 31
0.0
  0
LINE
  5
9D3
102
{ACAD_REACTORS
330
EBB
102
}
330
1E
100
AcDbEntity
  8
STEMPEL
100
AcDbLine
 10
273.9999999999995
 20
195.4954473818327
 30
0.0
 11
272.9424963626017
 21
183.408125496015
 31
0.0
  0
LINE
  5
9D4
102
{ACAD_REACTORS
330
EBB
102
}
330
1E
100
AcDbEntity
  8
STEMPEL
100
AcDbLine
 10
274.9501360376884
 20
183.408125496015
 30
0.0
 11
175.0498639623105
 21
183.408125496015
 31
0.0
  0
LINE
  5
9D5
330
1E
100
AcDbEntity
  8
HILF
100
AcDbLine
 10
272.2086669071099
 20
195.408125496015
 30
0.0
 11
177.791333092889
 21
195.408125496015
 31
0.0
  0
DIMENSION
  5
9D6
330
1E
100
AcDbEntity
  8
BEM
100
AcDbDimension
  2
*D3
 10
275.9999999999995
 20
163.9431931211902
 30
0.0
 11
224.9999999999996
 21
170.4431931211902
 31
0.0
 70
    32
  1
%%C<>
 71
     5
 42
101.9999999999998
  3
Standard
100
AcDbAlignedDimension
 13
173.9999999999997
 23
195.4081254960147
 33
0.0
 14
275.9999999999995
 24
195.4081254960156
 34
0.0
 50
180.0
100
AcDbRotatedDimension
1001
ACAD
1000
DSTYLE
1002
{
1070
    40
1040
2.0
1070
    41
1040
3.5
1070
    42
1040
1.0
1070
    43
1040
7.0
1070
    44
1040
1.0
1070
    73
1070
     0
1070
    74
1070
     0
1070
    77
1070
     1
1070
    78
1070
     8
1070
    79
1070
     2
1070
   140
1040
3.5
1070
   141
1040
1.5
1070
   146
1040
0.5142857142857144
1070
   147
1040
1.5
1070
   172
1070
     1
1070
   178
1070
     1
1070
   179
1070
     2
1070
   271
1070
     2
1070
   272
1070
     2
1070
   284
1070
     8
1070
   285
1070
     8
1070
   286
1070
     8
1002
}
  0
LINE
  5
9D7
102
{ACAD_REACTORS
330
EBB
102
}
330
1E
100
AcDbEntity
  8
STEMPEL
100
AcDbLine
 10
173.9999999999997
 20
195.4081254960147
 30
0.0
 11
173.9999999999999
 21
335.8325092300666
 31
0.0
  0
LINE
  5
9D8
102
{ACAD_REACTORS
330
EBB
102
}
330
1E
100
AcDbEntity
  8
STEMPEL
100
AcDbLine
 10
175.9999999999997
 20
195.4954473818322
 30
0.0
 11
175.9999999999999
 21
335.8325092300666
 31
0.0
  0
LINE
  5
9D9
102
{ACAD_REACTORS
330
EBB
102
}
330
1E
100
AcDbEntity
  8
STEMPEL
100
AcDbLine
 10
275.9999999999995
 20
195.4081254960156
 30
0.0
 11
275.9999999999995
 21
335.8325092300666
 31
0.0
  0
LINE
  5
9DA
102
{ACAD_REACTORS
330
EBB
102
}
330
1E
100
AcDbEntity
  8
STEMPEL
100
AcDbLine
 10
273.9999999999995
 20
195.4954473818327
 30
0.0
 11
273.9999999999995
 21
335.8325092300666
 31
0.0
  0
ARC
  5
9DB
102
{ACAD_REACTORS
330
EBB
102
}
330
1E
100
AcDbEntity
  8
STEMPEL
100
AcDbCircle
 10
270.9999999999996
 20
376.4130111396215
 30
0.0
 40
14.0
100
AcDbArc
 50
346.5058417400816
 51
0.0
  0
ARC
  5
9DC
102
{ACAD_REACTORS
330
EBB
102
}
330
1E
100
AcDbEntity
  8
STEMPEL
100
AcDbCircle
 10
270.9999999999996
 20
376.4130111396214
 30
0.0
 40
12.0
100
AcDbArc
 50
346.5058417400817
 51
0.0
  0
DIMENSION
  5
9DE
330
1E
100
AcDbEntity
  8
BEM
100
AcDbDimension
  2
*D4
 10
164.9999999999997
 20
149.2900643664092
 30
0.0
 11
224.9999999999997
 21
155.7900643664092
 31
0.0
 70
    32
  1
%%C<>
 71
     5
 42
120.0
  3
Standard
100
AcDbAlignedDimension
 13
284.9999999999997
 23
376.4130111396215
 33
0.0
 14
164.9999999999997
 24
376.4130111396216
 34
0.0
 50
180.0
100
AcDbRotatedDimension
1001
ACAD
1000
DSTYLE
1002
{
1070
    40
1040
2.0
1070
    41
1040
3.5
1070
    42
1040
1.0
1070
    43
1040
7.0
1070
    44
1040
1.0
1070
    73
1070
     0
1070
    74
1070
     0
1070
    77
1070
     1
1070
    78
1070
     8
1070
    79
1070
     2
1070
   140
1040
3.5
1070
   141
1040
1.5
1070
   146
1040
0.5142857142857144
1070
   147
1040
1.5
1070
   172
1070
     1
1070
   178
1070
     1
1070
   179
1070
     2
1070
   271
1070
     2
1070
   272
1070
     2
1070
   284
1070
     8
1070
   285
1070
     8
1070
   286
1070
     8
1002
}
  0
DIMENSION
  5
9DF
330
1E
100
AcDbEntity
  8
BEM
100
AcDbDimension
  2
*D5
 10
311.9374665906409
 20
338.408125496015
 30
0.0
 11
305.4374665906408
 21
260.9081254960151
 31
0.0
 70
    32
 71
     5
 42
155.0
  3
Standard
100
AcDbAlignedDimension
 13
274.9501360376884
 23
183.408125496015
 33
0.0
 14
276.2796672039316
 24
338.408125496015
 34
0.0
 50
90.0
100
AcDbRotatedDimension
1001
ACAD
1000
DSTYLE
1002
{
1070
    40
1040
2.0
1070
    41
1040
3.5
1070
    42
1040
1.0
1070
    43
1040
7.0
1070
    44
1040
1.0
1070
    73
1070
     0
1070
    74
1070
     0
1070
    77
1070
     1
1070
    78
1070
     8
1070
    79
1070
     2
1070
   140
1040
3.5
1070
   141
1040
1.5
1070
   146
1040
0.5142857142857144
1070
   147
1040
1.5
1070
   172
1070
     1
1070
   178
1070
     1
1070
   179
1070
     2
1070
   271
1070
     2
1070
   272
1070
     2
1070
   284
1070
     8
1070
   285
1070
     8
1070
   286
1070
     8
1002
}
  0
LINE
  5
9E0
330
1E
100
AcDbEntity
  8
MITTEL
100
AcDbLine
 10
224.9999999999995
 20
178.408125496015
 30
0.0
 11
225.0
 21
566.408125496015
 31
0.0
  0
LINE
  5
9E1
102
{ACAD_REACTORS
330
EBB
102
}
330
1E
100
AcDbEntity
  8
STEMPEL
100
AcDbLine
 10
166.9999999999997
 20
376.4130111396214
 30
0.0
 11
166.9999999999997
 21
519.0990374747607
 31
0.0
  0
LINE
  5
9E2
102
{ACAD_REACTORS
330
EBB
102
}
330
1E
100
AcDbEntity
  8
STEMPEL
100
AcDbLine
 10
164.9999999999997
 20
376.4130111396216
 30
0.0
 11
164.9999999999999
 21
519.0990374747607
 31
0.0
  0
LINE
  5
9E3
102
{ACAD_REACTORS
330
EBB
102
}
330
1E
100
AcDbEntity
  8
STEMPEL
100
AcDbLine
 10
282.9999999999997
 20
376.4130111396214
 30
0.0
 11
283.0
 21
519.0990374747606
 31
0.0
  0
LINE
  5
9E4
102
{ACAD_REACTORS
330
EBB
102
}
330
1E
100
AcDbEntity
  8
STEMPEL
100
AcDbLine
 10
284.9999999999997
 20
376.4130111396214
 30
0.0
 11
285.0
 21
519.0990374747606
 31
0.0
  0
DIMENSION
  5
9E5
330
1E
100
AcDbEntity
  8
BEM
100
AcDbDimension
  2
*D6
 10
311.9368796134415
 20
373.408125496015
 30
0.0
 11
305.4368796134414
 21
453.408125496015
 31
0.0
 70
    32
 71
     5
 42
159.9999999999999
  3
Standard
100
AcDbAlignedDimension
 13
289.4999999999999
 23
533.4081254960149
 33
0.0
 14
284.6737215954121
 24
373.408125496015
 34
0.0
 50
90.0
100
AcDbRotatedDimension
1001
ACAD
1000
DSTYLE
1002
{
1070
    40
1040
2.0
1070
    41
1040
3.5
1070
    42
1040
1.0
1070
    43
1040
7.0
1070
    44
1040
1.0
1070
    73
1070
     0
1070
    74
1070
     0
1070
    77
1070
     1
1070
    78
1070
     8
1070
    79
1070
     2
1070
   140
1040
3.5
1070
   141
1040
1.5
1070
   146
1040
0.5142857142857144
1070
   147
1040
1.5
1070
   172
1070
     1
1070
   178
1070
     1
1070
   179
1070
     2
1070
   271
1070
     2
1070
   272
1070
     2
1070
   284
1070
     8
1070
   285
1070
     8
1070
   286
1070
     8
1002
}
  0
DIMENSION
  5
9E6
330
1E
100
AcDbEntity
  8
BEM
100
AcDbDimension
  2
*D7
 10
330.669296886941
 20
533.4081254960149
 30
0.0
 11
324.1692968869409
 21
358.408125496015
 31
0.0
 70
    32
 71
     5
 42
350.0
  3
Standard
100
AcDbAlignedDimension
 13
274.9501360376884
 23
183.408125496015
 33
0.0
 14
289.4999999999999
 24
533.4081254960149
 34
0.0
 50
90.0
100
AcDbRotatedDimension
1001
ACAD
1000
DSTYLE
1002
{
1070
    40
1040
2.0
1070
    41
1040
3.5
1070
    42
1040
1.0
1070
    43
1040
7.0
1070
    44
1040
1.0
1070
    73
1070
     0
1070
    74
1070
     0
1070
    77
1070
     1
1070
    78
1070
     8
1070
    79
1070
     2
1070
   140
1040
3.5
1070
   141
1040
1.5
1070
   146
1040
0.5142857142857144
1070
   147
1040
1.5
1070
   172
1070
     1
1070
   178
1070
     1
1070
   179
1070
     2
1070
   271
1070
     2
1070
   272
1070
     2
1070
   284
1070
     8
1070
   285
1070
     8
1070
   286
1070
     8
1002
}
  0
TEXT
  5
E56
330
1E
100
AcDbEntity
  8
TEXT
 62
     1
100
AcDbText
 10
207.6437116989407
 20
251.5385724758341
 30
0.0
 40
7.0
  1
DN100
 50
90.0
 41
0.8
  7
GREEKS
100
AcDbText
  0
LINE
  5
E8C
102
{ACAD_REACTORS
330
EBB
102
}
330
1E
100
AcDbEntity
  8
STEMPEL
100
AcDbLine
 10
282.6687246024665
 20
373.6128564739319
 30
0.0
 11
274.3864879637881
 21
339.0993563400377
 31
0.0
  0
LINE
  5
E8D
102
{ACAD_REACTORS
330
EBB
102
}
330
1E
100
AcDbEntity
  8
STEMPEL
100
AcDbLine
 10
284.613512036211
 20
373.1461640296504
 30
0.0
 11
276.3312753975326
 21
338.6326638957561
 31
0.0
  0
LINE
  5
E8E
102
{ACAD_REACTORS
330
EBB
102
}
330
1E
100
AcDbEntity
  8
STEMPEL
100
AcDbLine
 10
165.3864879637884
 20
373.1461640296505
 30
0.0
 11
173.6687246024668
 21
338.6326638957562
 31
0.0
  0
LINE
  5
E8F
102
{ACAD_REACTORS
330
EBB
102
}
330
1E
100
AcDbEntity
  8
STEMPEL
100
AcDbLine
 10
167.331275397533
 20
373.612856473932
 30
0.0
 11
175.6135120362114
 21
339.0993563400378
 31
0.0
  0
ARC
  5
E90
102
{ACAD_REACTORS
330
EBB
102
}
330
1E
100
AcDbEntity
  8
STEMPEL
100
AcDbCircle
 10
178.9999999999999
 20
376.4130111396215
 30
0.0
 40
12.0
100
AcDbArc
 50
179.9999999999999
 51
193.4941582599182
  0
ARC
  5
E91
102
{ACAD_REACTORS
330
EBB
102
}
330
1E
100
AcDbEntity
  8
STEMPEL
100
AcDbCircle
 10
178.9999999999999
 20
376.4130111396216
 30
0.0
 40
14.0
100
AcDbArc
 50
179.9999999999999
 51
193.4941582599183
  0
ARC
  5
E92
102
{ACAD_REACTORS
330
EBB
102
}
330
1E
100
AcDbEntity
  8
STEMPEL
100
AcDbCircle
 10
161.9999999999999
 20
335.8325092300666
 30
0.0
 40
12.0
100
AcDbArc
 50
359.9999999999999
 51
13.49415825991831
  0
ARC
  5
E93
102
{ACAD_REACTORS
330
EBB
102
}
330
1E
100
AcDbEntity
  8
STEMPEL
100
AcDbCircle
 10
161.9999999999999
 20
335.8325092300666
 30
0.0
 40
14.0
100
AcDbArc
 50
359.9999999999999
 51
13.49415825991833
  0
HATCH
  5
EBB
330
1E
100
AcDbEntity
  8
SCHRAFF
100
AcDbHatch
 10
0.0
 20
0.0
 30
0.0
210
0.0
220
0.0
230
1.0
  2
_USER
 70
     0
 71
     1
 91
        2
 92
        7
 72
     1
 73
     1
 93
       16
 10
166.9999999999997
 20
519.0990374747607
 42
0.1405549515947593
 10
162.8965062837102
 20
533.4081254960151
 42
0.0
 10
161.2004687812131
 20
532.3481930499963
 42
-0.1405549515947603
 10
164.9999999999999
 20
519.0990374747607
 42
0.0
 10
164.9999999999997
 20
376.4130111396216
 42
0.0589475079620173
 10
165.3864879637883
 20
373.1461640296512
 42
0.0
 10
173.6687246024668
 20
338.6326638957562
 42
-0.0589475079620307
 10
173.9999999999999
 20
335.8325092300666
 42
0.0
 10
173.9999999999997
 20
195.4081254960143
 42
0.0
 10
175.0498639623106
 20
183.408125496015
 42
0.0
 10
177.0575036373974
 20
183.408125496015
 42
0.0
 10
175.9999999999997
 20
195.495447381832
 42
0.0
 10
175.9999999999999
 20
335.8325092300666
 42
0.0589475079620326
 10
175.6135120362114
 20
339.0993563400378
 42
0.0
 10
167.331275397533
 20
373.612856473932
 42
-0.0589475079620331
 10
166.9999999999997
 20
376.4130111396216
 42
0.0
 97
       16
330
99F
330
995
330
99E
330
9E2
330
E91
330
E8E
330
E92
330
9D7
330
9D0
330
9D4
330
9D1
330
9D8
330
E93
330
E8F
330
E90
330
9E1
 92
        7
 72
     1
 73
     1
 93
       16
 10
282.9999999999997
 20
376.4130111396214
 42
-0.0589475079620183
 10
282.6687246024666
 20
373.6128564739324
 42
0.0
 10
274.3864879637881
 20
339.0993563400377
 42
0.0589475079620306
 10
273.9999999999995
 20
335.8325092300666
 42
0.0
 10
273.9999999999995
 20
195.495447381833
 42
0.0
 10
272.9424963626017
 20
183.408125496015
 42
0.0
 10
274.9501360376884
 20
183.408125496015
 42
0.0
 10
275.9999999999995
 20
195.4081254960154
 42
0.0
 10
275.9999999999995
 20
335.8325092300666
 42
-0.0589475079620305
 10
276.3312753975326
 20
338.6326638957561
 42
0.0
 10
284.613512036211
 20
373.1461640296504
 42
0.0589475079620296
 10
284.9999999999997
 20
376.4130111396215
 42
0.0
 10
285.0
 20
519.0990374747606
 42
-0.1405549515947606
 10
288.7995312187865
 20
532.3481930499963
 42
0.0
 10
287.1034937162894
 20
533.4081254960151
 42
0.1405549515947604
 10
283.0
 20
519.0990374747606
 42
0.0
 97
       16
330
9BB
330
9B1
330
9BF
330
9E3
330
9DC
330
E8C
330
9CB
330
9DA
330
9D3
330
9D4
330
9D2
330
9D9
330
9CC
330
E8D
330
9DB
330
9E4
 75
     0
 76
     0
 52
135.0
 41
2.0
 77
     0
 78
     1
 53
135.0
 43
0.0
 44
3.224039686653441
 45
-1.414213562373095
 46
-1.414213562373094
 79
     0
 47
0.8131590247953411
 98
        2
 10
166.3881562496917
 20
402.2968146127998
 10
283.5707186417735
 20
412.0547226691387
  0
TEXT
  5
EC5
330
1E
100
AcDbEntity
  8
TEXT
 62
     1
100
AcDbText
 10
369.6190760422752
 20
62.73492790196519
 30
0.0
 40
7.0
  1

 41
0.8
  7
GREEKS
 72
     1
 11
369.6190760422752
 21
62.73492790196519
 31
0.0
100
AcDbText
  0
TEXT
  5
EF2
330
1E
100
AcDbEntity
  8
TEXT
 62
     1
100
AcDbText
 10
188.921783712564
 20
113.0570341608418
 30
0.0
 40
7.0
  1
Zubehör: Gleitscheibe DN100
 41
0.8
  7
GREEKS
100
AcDbText
  0
TEXT
  5
EF3
330
1E
100
AcDbEntity
  8
TEXT
 62
     1
100
AcDbText
 10
183.7360785190859
 20
134.4763772932256
 30
0.0
 40
7.0
  1
Werkstoff: E195 EN10305 feuerverzinkt
 41
0.8
  7
GREEKS
100
AcDbText
  0
TEXT
  5
EF4
330
1E
100
AcDbEntity
  8
TEXT
 62
     1
100
AcDbText
 10
231.6857959564837
 20
123.7542654782221
 30
0.0
 40
7.0
  1
und innen beschichtet
 41
0.8
  7
GREEKS
100
AcDbText
  0
DIMENSION
  5
F4E
330
1E
100
AcDbEntity
  8
BEM
100
AcDbDimension
  2
*D8
 10
149.9999999999999
 20
570.6503943581345
 30
0.0
 11
225.0
 21
577.1503943581344
 31
0.0
 70
    32
  1
%%c<>
 71
     5
 42
150.0
  3
Standard
100
AcDbAlignedDimension
 13
300.0
 23
557.9081254960151
 33
0.0
 14
149.9999999999999
 24
557.9081254960151
 34
0.0
100
AcDbRotatedDimension
1001
ACAD
1000
DSTYLE
1002
{
1070
    40
1040
2.0
1070
    41
1040
3.5
1070
    42
1040
1.0
1070
    43
1040
7.0
1070
    44
1040
1.0
1070
    73
1070
     0
1070
    74
1070
     0
1070
    77
1070
     1
1070
    78
1070
     8
1070
    79
1070
     2
1070
   140
1040
3.5
1070
   141
1040
1.5
1070
   146
1040
0.5142857142857144
1070
   147
1040
1.5
1070
   172
1070
     1
1070
   178
1070
     1
1070
   179
1070
     2
1070
   271
1070
     2
1070
   272
1070
     2
1070
   284
1070
     8
1070
   285
1070
     8
1070
   286
1070
     8
1002
}
  0
ENDSEC
  0
SECTION
  2
OBJECTS
  0
DICTIONARY
  5
C
330
0
100
AcDbDictionary
281
     1
  3
ACAD_COLOR
350
DF
  3
ACAD_GROUP
350
D
  3
ACAD_LAYOUT
350
19
  3
ACAD_MATERIAL
350
DE
  3
ACAD_MLINESTYLE
350
16
  3
ACAD_PLOTSETTINGS
350
18
  3
ACAD_PLOTSTYLENAME
350
E
  3
AcDbVariableDictionary
350
EA
  0
DICTIONARY
  5
A0
330
1E
100
AcDbDictionary
280
     1
281
     1
  3
ACAD_LAYOUTSELFREF
360
D4
  0
DICTIONARY
  5
A2
330
1A
100
AcDbDictionary
280
     1
281
     1
  3
ACAD_LAYOUTSELFREF
360
D3
  0
DICTIONARY
  5
DF
102
{ACAD_REACTORS
330
C
102
}
330
C
100
AcDbDictionary
281
     1
  0
DICTIONARY
  5
D
102
{ACAD_REACTORS
330
C
102
}
330
C
100
AcDbDictionary
281
     1
  0
DICTIONARY
  5
19
102
{ACAD_REACTORS
330
C
102
}
330
C
100
AcDbDictionary
281
     1
  3
Layout1
350
1D
  3
Model
350
21
  0
DICTIONARY
  5
DE
102
{ACAD_REACTORS
330
C
102
}
330
C
100
AcDbDictionary
281
     1
  0
DICTIONARY
  5
16
102
{ACAD_REACTORS
330
C
102
}
330
C
100
AcDbDictionary
281
     1
  3
Standard
350
17
  0
DICTIONARY
  5
18
102
{ACAD_REACTORS
330
C
102
}
330
C
100
AcDbDictionary
281
     1
  0
ACDBDICTIONARYWDFLT
  5
E
102
{ACAD_REACTORS
330
C
102
}
330
C
100
AcDbDictionary
281
     1
  3
Normal
350
F
100
AcDbDictionaryWithDefault
340
F
  0
DICTIONARY
  5
EA
102
{ACAD_REACTORS
330
C
102
}
330
C
100
AcDbDictionary
281
     1
  3
DIMASSOC
350
EB
  3
PROJECTNAME
350
EC
  0
XRECORD
  5
D4
102
{ACAD_REACTORS
330
A0
102
}
330
A0
100
AcDbXrecord
280
     1
340
1E
  0
XRECORD
  5
D3
102
{ACAD_REACTORS
330
A2
102
}
330
A2
100
AcDbXrecord
280
     1
340
1A
  0
LAYOUT
  5
1D
102
{ACAD_REACTORS
330
19
102
}
330
19
100
AcDbPlotSettings
  1

  2
\\NT_WORK01\HP LaserJet 5000 PCL 6
  4

  6

 40
0.0
 41
0.0
 42
0.0
 43
0.0
 44
0.0
 45
0.0
 46
0.0
 47
0.0
 48
0.0
 49
0.0
140
0.0
141
0.0
142
1.0
143
1.0
 70
   688
 72
     0
 73
     0
 74
     5
  7

 75
    16
147
1.0
 76
     0
 77
     2
 78
   300
148
0.0
149
0.0
100
AcDbLayout
  1
Layout1
 70
     0
 71
     1
 10
0.0
 20
0.0
 11
12.0
 21
9.0
 12
0.0
 22
0.0
 32
0.0
 14
1.000000000000000E+20
 24
1.000000000000000E+20
 34
1.000000000000000E+20
 15
-1.000000000000000E+20
 25
-1.000000000000000E+20
 35
-1.000000000000000E+20
146
0.0
 13
0.0
 23
0.0
 33
0.0
 16
1.0
 26
0.0
 36
0.0
 17
0.0
 27
1.0
 37
0.0
 76
     0
330
1A
  0
LAYOUT
  5
21
102
{ACAD_REACTORS
330
19
102
}
330
19
100
AcDbPlotSettings
  1

  2
none_device
  4
Letter_(8.50_x_11.00_Inches)
  6

 40
6.349999904632568
 41
6.349999904632568
 42
6.350006103515625
 43
6.350006103515625
 44
215.8999938964844
 45
279.3999938964844
 46
0.0
 47
0.0
 48
0.0
 49
0.0
140
0.0
141
0.0
142
1.0
143
1.0
 70
 11952
 72
     0
 73
     1
 74
     0
  7

 75
     0
147
1.0
 76
     0
 77
     2
 78
   300
148
2300.101145613352
149
90.09424104214634
100
AcDbLayout
  1
Model
 70
     1
 71
     0
 10
0.0
 20
0.0
 11
12.0
 21
9.0
 12
0.0
 22
0.0
 32
0.0
 14
0.0
 24
0.0
 34
0.0
 15
0.0
 25
0.0
 35
0.0
146
0.0
 13
0.0
 23
0.0
 33
0.0
 16
1.0
 26
0.0
 36
0.0
 17
0.0
 27
1.0
 37
0.0
 76
     0
330
1E
  0
MLINESTYLE
  5
17
102
{ACAD_REACTORS
330
16
102
}
330
16
100
AcDbMlineStyle
  2
STANDARD
 70
     0
  3

 62
   256
 51
90.0
 52
90.0
 71
     2
 49
0.5
 62
   256
  6
BYLAYER
 49
-0.5
 62
   256
  6
BYLAYER
  0
ACDBPLACEHOLDER
  5
F
102
{ACAD_REACTORS
330
E
102
}
330
E
  0
DICTIONARYVAR
  5
EB
102
{ACAD_REACTORS
330
EA
102
}
330
EA
100
DictionaryVariables
280
     0
  1
1
  0
DICTIONARYVAR
  5
EC
102
{ACAD_REACTORS
330
EA
102
}
330
EA
100
DictionaryVariables
280
     0
  1

  0
ENDSEC
  0
EOF
