  0
SECTION
  2
HEADER
  9
$ACADVER
  1
AC1018
  9
$ACADMAINTVER
 70
     2
  9
$DWGCODEPAGE
  3
ANSI_1252
  9
$INSBASE
 10
0.0
 20
0.0
 30
0.0
  9
$EXTMIN
 10
-0.0128100481844058
 20
-0.0181170681471485
 30
-0.0000000000000053
  9
$EXTMAX
 10
420.0128212946063
 20
594.0181329738
 30
0.0000000000000099
  9
$LIMMIN
 10
0.0
 20
0.0
  9
$LIMMAX
 10
419.9999999999999
 20
594.0
  9
$ORTHOMODE
 70
     1
  9
$REGENMODE
 70
     1
  9
$FILLMODE
 70
     1
  9
$QTEXTMODE
 70
     0
  9
$MIRRTEXT
 70
     1
  9
$LTSCALE
 40
20.0
  9
$ATTMODE
 70
     1
  9
$TEXTSIZE
 40
3.5
  9
$TRACEWID
 40
0.5
  9
$TEXTSTYLE
  7
STANDARD
  9
$CLAYER
  8
SCHRAFF
  9
$CELTYPE
  6
ByLayer
  9
$CECOLOR
 62
   256
  9
$CELTSCALE
 40
1.0
  9
$DISPSILH
 70
     0
  9
$DIMSCALE
 40
2.0
  9
$DIMASZ
 40
3.5
  9
$DIMEXO
 40
1.0
  9
$DIMDLI
 40
7.0
  9
$DIMRND
 40
0.0
  9
$DIMDLE
 40
0.0
  9
$DIMEXE
 40
1.0
  9
$DIMTP
 40
0.0
  9
$DIMTM
 40
0.0
  9
$DIMTXT
 40
3.5
  9
$DIMCEN
 40
1.5
  9
$DIMTSZ
 40
0.0
  9
$DIMTOL
 70
     0
  9
$DIMLIM
 70
     0
  9
$DIMTIH
 70
     0
  9
$DIMTOH
 70
     0
  9
$DIMSE1
 70
     0
  9
$DIMSE2
 70
     0
  9
$DIMTAD
 70
     1
  9
$DIMZIN
 70
     8
  9
$DIMBLK
  1

  9
$DIMASO
 70
     1
  9
$DIMSHO
 70
     0
  9
$DIMPOST
  1

  9
$DIMAPOST
  1

  9
$DIMALT
 70
     0
  9
$DIMALTD
 70
     2
  9
$DIMALTF
 40
25.4
  9
$DIMLFAC
 40
1.0
  9
$DIMTOFL
 70
     1
  9
$DIMTVP
 40
0.0
  9
$DIMTIX
 70
     0
  9
$DIMSOXD
 70
     0
  9
$DIMSAH
 70
     0
  9
$DIMBLK1
  1

  9
$DIMBLK2
  1

  9
$DIMSTYLE
  2
Standard
  9
$DIMCLRD
 70
     0
  9
$DIMCLRE
 70
     0
  9
$DIMCLRT
 70
     1
  9
$DIMTFAC
 40
0.5142857142857144
  9
$DIMGAP
 40
1.5
  9
$DIMJUST
 70
     0
  9
$DIMSD1
 70
     0
  9
$DIMSD2
 70
     0
  9
$DIMTOLJ
 70
     1
  9
$DIMTZIN
 70
     8
  9
$DIMALTZ
 70
     8
  9
$DIMALTTZ
 70
     8
  9
$DIMUPT
 70
     0
  9
$DIMDEC
 70
     2
  9
$DIMTDEC
 70
     2
  9
$DIMALTU
 70
     2
  9
$DIMALTTD
 70
     2
  9
$DIMTXSTY
  7
STANDARD
  9
$DIMAUNIT
 70
     0
  9
$DIMADEC
 70
     2
  9
$DIMALTRND
 40
0.0
  9
$DIMAZIN
 70
     2
  9
$DIMDSEP
 70
    46
  9
$DIMATFIT
 70
     3
  9
$DIMFRAC
 70
     0
  9
$DIMLDRBLK
  1

  9
$DIMLUNIT
 70
     2
  9
$DIMLWD
 70
    -2
  9
$DIMLWE
 70
    -2
  9
$DIMTMOVE
 70
     0
  9
$LUNITS
 70
     2
  9
$LUPREC
 70
     2
  9
$SKETCHINC
 40
1.0
  9
$FILLETRAD
 40
0.0
  9
$AUNITS
 70
     0
  9
$AUPREC
 70
     0
  9
$MENU
  1
ACAD
  9
$ELEVATION
 40
0.0
  9
$PELEVATION
 40
0.0
  9
$THICKNESS
 40
0.0
  9
$LIMCHECK
 70
     0
  9
$CHAMFERA
 40
0.0
  9
$CHAMFERB
 40
0.0
  9
$CHAMFERC
 40
0.0
  9
$CHAMFERD
 40
0.0
  9
$SKPOLY
 70
     0
  9
$TDCREATE
 40
2455397.864709028
  9
$TDUCREATE
 40
2455397.781375695
  9
$TDUPDATE
 40
2455462.342361180
  9
$TDUUPDATE
 40
2455462.259027847
  9
$TDINDWG
 40
0.0318030671
  9
$TDUSRTIMER
 40
0.0318030671
  9
$USRTIMER
 70
     1
  9
$ANGBASE
 50
0.0
  9
$ANGDIR
 70
     0
  9
$PDMODE
 70
     0
  9
$PDSIZE
 40
0.0
  9
$PLINEWID
 40
0.0
  9
$SPLFRAME
 70
     0
  9
$SPLINETYPE
 70
     6
  9
$SPLINESEGS
 70
     8
  9
$HANDSEED
  5
BF6
  9
$SURFTAB1
 70
     6
  9
$SURFTAB2
 70
     6
  9
$SURFTYPE
 70
     6
  9
$SURFU
 70
     6
  9
$SURFV
 70
     6
  9
$UCSBASE
  2

  9
$UCSNAME
  2

  9
$UCSORG
 10
0.0
 20
0.0
 30
0.0
  9
$UCSXDIR
 10
1.0
 20
0.0
 30
0.0
  9
$UCSYDIR
 10
0.0
 20
1.0
 30
0.0
  9
$UCSORTHOREF
  2

  9
$UCSORTHOVIEW
 70
     0
  9
$UCSORGTOP
 10
0.0
 20
0.0
 30
0.0
  9
$UCSORGBOTTOM
 10
0.0
 20
0.0
 30
0.0
  9
$UCSORGLEFT
 10
0.0
 20
0.0
 30
0.0
  9
$UCSORGRIGHT
 10
0.0
 20
0.0
 30
0.0
  9
$UCSORGFRONT
 10
0.0
 20
0.0
 30
0.0
  9
$UCSORGBACK
 10
0.0
 20
0.0
 30
0.0
  9
$PUCSBASE
  2

  9
$PUCSNAME
  2

  9
$PUCSORG
 10
0.0
 20
0.0
 30
0.0
  9
$PUCSXDIR
 10
1.0
 20
0.0
 30
0.0
  9
$PUCSYDIR
 10
0.0
 20
1.0
 30
0.0
  9
$PUCSORTHOREF
  2

  9
$PUCSORTHOVIEW
 70
     0
  9
$PUCSORGTOP
 10
0.0
 20
0.0
 30
0.0
  9
$PUCSORGBOTTOM
 10
0.0
 20
0.0
 30
0.0
  9
$PUCSORGLEFT
 10
0.0
 20
0.0
 30
0.0
  9
$PUCSORGRIGHT
 10
0.0
 20
0.0
 30
0.0
  9
$PUCSORGFRONT
 10
0.0
 20
0.0
 30
0.0
  9
$PUCSORGBACK
 10
0.0
 20
0.0
 30
0.0
  9
$USERI1
 70
     0
  9
$USERI2
 70
     0
  9
$USERI3
 70
     0
  9
$USERI4
 70
     0
  9
$USERI5
 70
     0
  9
$USERR1
 40
0.0
  9
$USERR2
 40
0.0
  9
$USERR3
 40
0.0
  9
$USERR4
 40
0.0
  9
$USERR5
 40
0.0
  9
$WORLDVIEW
 70
     1
  9
$SHADEDGE
 70
     3
  9
$SHADEDIF
 70
    70
  9
$TILEMODE
 70
     1
  9
$MAXACTVP
 70
    16
  9
$PINSBASE
 10
0.0
 20
0.0
 30
0.0
  9
$PLIMCHECK
 70
     0
  9
$PEXTMIN
 10
1.000000000000000E+20
 20
1.000000000000000E+20
 30
1.000000000000000E+20
  9
$PEXTMAX
 10
-1.000000000000000E+20
 20
-1.000000000000000E+20
 30
-1.000000000000000E+20
  9
$PLIMMIN
 10
0.0
 20
0.0
  9
$PLIMMAX
 10
12.0
 20
9.0
  9
$UNITMODE
 70
     0
  9
$VISRETAIN
 70
     0
  9
$PLINEGEN
 70
     0
  9
$PSLTSCALE
 70
     0
  9
$TREEDEPTH
 70
  3020
  9
$CMLSTYLE
  2
Standard
  9
$CMLJUST
 70
     0
  9
$CMLSCALE
 40
1.0
  9
$PROXYGRAPHICS
 70
     1
  9
$MEASUREMENT
 70
     0
  9
$CELWEIGHT
370
    -1
  9
$ENDCAPS
280
     0
  9
$JOINSTYLE
280
     0
  9
$LWDISPLAY
290
     0
  9
$INSUNITS
 70
     0
  9
$HYPERLINKBASE
  1

  9
$STYLESHEET
  1
monochrome 1.ctb
  9
$XEDIT
290
     1
  9
$CEPSNTYPE
380
     0
  9
$PSTYLEMODE
290
     1
  9
$FINGERPRINTGUID
  2
{D68B0D02-A558-11D7-B632-000102183313}
  9
$VERSIONGUID
  2
{B788CC8D-CC3D-4EED-99ED-2E79718A662C}
  9
$EXTNAMES
290
     1
  9
$PSVPSCALE
 40
0.0
  9
$OLESTARTUP
290
     0
  9
$SORTENTS
280
   127
  9
$INDEXCTL
280
     0
  9
$HIDETEXT
280
     0
  9
$XCLIPFRAME
290
     0
  9
$HALOGAP
280
     0
  9
$OBSCOLOR
 70
   257
  9
$OBSLTYPE
280
     0
  9
$INTERSECTIONDISPLAY
280
     0
  9
$INTERSECTIONCOLOR
 70
   257
  9
$DIMASSOC
280
     1
  9
$PROJECTNAME
  1

  0
ENDSEC
  0
SECTION
  2
CLASSES
  0
CLASS
  1
ACDBDICTIONARYWDFLT
  2
AcDbDictionaryWithDefault
  3
ObjectDBX Classes
 90
        0
 91
        1
280
     0
281
     0
  0
CLASS
  1
DICTIONARYVAR
  2
AcDbDictionaryVar
  3
ObjectDBX Classes
 90
        0
 91
        2
280
     0
281
     0
  0
ENDSEC
  0
SECTION
  2
TABLES
  0
TABLE
  2
VPORT
  5
8
330
0
100
AcDbSymbolTable
 70
     2
  0
VPORT
  5
BF5
330
8
100
AcDbSymbolTableRecord
100
AcDbViewportTableRecord
  2
*Active
 70
     0
 10
0.0
 20
0.0
 11
1.0
 21
1.0
 12
210.000005623211
 22
297.0000079528264
 13
0.0
 23
0.0
 14
1.0
 24
1.0
 15
10.0
 25
10.0
 16
0.0
 26
0.0
 36
1.0
 17
0.0
 27
0.0
 37
0.0
 40
598.8333126264042
 41
1.336927223719676
 42
50.0
 43
0.0
 44
0.0
 50
0.0
 51
0.0
 71
     0
 72
  1500
 73
     1
 74
     0
 75
     0
 76
     0
 77
     0
 78
     0
281
     0
 65
     1
110
0.0
120
0.0
130
0.0
111
1.0
121
0.0
131
0.0
112
0.0
122
1.0
132
0.0
 79
     0
146
0.0
  0
ENDTAB
  0
TABLE
  2
LTYPE
  5
5
330
0
100
AcDbSymbolTable
 70
     3
  0
LTYPE
  5
13
330
5
100
AcDbSymbolTableRecord
100
AcDbLinetypeTableRecord
  2
ByBlock
 70
     0
  3

 72
    65
 73
     0
 40
0.0
  0
LTYPE
  5
14
330
5
100
AcDbSymbolTableRecord
100
AcDbLinetypeTableRecord
  2
ByLayer
 70
     0
  3

 72
    65
 73
     0
 40
0.0
  0
LTYPE
  5
15
330
5
100
AcDbSymbolTableRecord
100
AcDbLinetypeTableRecord
  2
Continuous
 70
     0
  3
Solid line
 72
    65
 73
     0
 40
0.0
  0
LTYPE
  5
25
330
5
100
AcDbSymbolTableRecord
100
AcDbLinetypeTableRecord
  2
STRICHPUNKT
 70
     0
  3
__ . __ . __ . __ . __ . __ . __ . __ . __ . __
 72
    65
 73
     4
 40
1.0
 49
0.5
 74
     0
 49
-0.25
 74
     0
 49
0.0
 74
     0
 49
-0.25
 74
     0
  0
LTYPE
  5
27
330
5
100
AcDbSymbolTableRecord
100
AcDbLinetypeTableRecord
  2
RAND
 70
     0
  3
__ __ . __ __ . __ __ . __ __ . __ __ . __ __
 72
    65
 73
     6
 40
1.75
 49
0.5
 74
     0
 49
-0.25
 74
     0
 49
0.5
 74
     0
 49
-0.25
 74
     0
 49
0.0
 74
     0
 49
-0.25
 74
     0
  0
ENDTAB
  0
TABLE
  2
LAYER
  5
2
330
0
100
AcDbSymbolTable
 70
     9
  0
LAYER
  5
10
330
2
100
AcDbSymbolTableRecord
100
AcDbLayerTableRecord
  2
0
 70
     0
 62
     7
  6
Continuous
370
    -3
390
F
  0
LAYER
  5
2A
330
2
100
AcDbSymbolTableRecord
100
AcDbLayerTableRecord
  2
VOLL
 70
     0
 62
     1
  6
Continuous
370
    -3
390
F
  0
LAYER
  5
2B
330
2
100
AcDbSymbolTableRecord
100
AcDbLayerTableRecord
  2
HILF
 70
     0
 62
     2
  6
Continuous
370
    -3
390
F
  0
LAYER
  5
2C
330
2
100
AcDbSymbolTableRecord
100
AcDbLayerTableRecord
  2
MITTEL
 70
     0
 62
     2
  6
STRICHPUNKT
370
    -3
390
F
  0
LAYER
  5
2F
330
2
100
AcDbSymbolTableRecord
100
AcDbLayerTableRecord
  2
BEM
 70
     0
 62
     7
  6
Continuous
370
    -3
390
F
  0
LAYER
  5
30
330
2
100
AcDbSymbolTableRecord
100
AcDbLayerTableRecord
  2
STEMPEL
 70
     0
 62
     3
  6
Continuous
370
    -3
390
F
  0
LAYER
  5
31
330
2
100
AcDbSymbolTableRecord
100
AcDbLayerTableRecord
  2
TEXT
 70
     0
 62
     7
  6
Continuous
370
    -3
390
F
  0
LAYER
  5
318
330
2
100
AcDbSymbolTableRecord
100
AcDbLayerTableRecord
  2
DEFPOINTS
 70
     0
 62
     4
  6
RAND
290
     0
370
    -3
390
F
  0
LAYER
  5
319
330
2
100
AcDbSymbolTableRecord
100
AcDbLayerTableRecord
  2
SCHRAFF
 70
     0
 62
     7
  6
Continuous
370
    -3
390
F
  0
ENDTAB
  0
TABLE
  2
STYLE
  5
3
330
0
100
AcDbSymbolTable
 70
     2
  0
STYLE
  5
11
330
3
100
AcDbSymbolTableRecord
100
AcDbTextStyleTableRecord
  2
STANDARD
 70
     0
 40
0.0
 41
0.8
 50
0.0
 71
     0
 42
3.5
  3
simplex.shx
  4

  0
STYLE
  5
24
330
3
100
AcDbSymbolTableRecord
100
AcDbTextStyleTableRecord
  2
GREEKS
 70
     0
 40
0.0
 41
0.8
 50
0.0
 71
     0
 42
2.5
  3
SIMPLEX.shx
  4

  0
ENDTAB
  0
TABLE
  2
VIEW
  5
6
330
0
100
AcDbSymbolTable
 70
     0
  0
ENDTAB
  0
TABLE
  2
UCS
  5
7
330
0
100
AcDbSymbolTable
 70
     0
  0
ENDTAB
  0
TABLE
  2
APPID
  5
9
330
0
100
AcDbSymbolTable
 70
     1
  0
APPID
  5
12
330
9
100
AcDbSymbolTableRecord
100
AcDbRegAppTableRecord
  2
ACAD
 70
     0
  0
ENDTAB
  0
TABLE
  2
DIMSTYLE
  5
A
330
0
100
AcDbSymbolTable
 70
     1
100
AcDbDimStyleTable
 71
     1
340
9D
  0
DIMSTYLE
105
9D
102
{ACAD_REACTORS
330
987
330
982
330
981
330
980
330
97D
330
94A
330
946
102
}
330
A
100
AcDbSymbolTableRecord
100
AcDbDimStyleTableRecord
  2
Standard
 70
     0
340
11
  0
ENDTAB
  0
TABLE
  2
BLOCK_RECORD
  5
1
330
0
100
AcDbSymbolTable
 70
     8
  0
BLOCK_RECORD
  5
1E
102
{ACAD_XDICTIONARY
360
A0
102
}
330
1
100
AcDbSymbolTableRecord
100
AcDbBlockTableRecord
  2
*Model_Space
340
21
  0
BLOCK_RECORD
  5
1A
102
{ACAD_XDICTIONARY
360
A2
102
}
330
1
100
AcDbSymbolTableRecord
100
AcDbBlockTableRecord
  2
*Paper_Space
340
1D
  0
BLOCK_RECORD
  5
22
330
1
100
AcDbSymbolTableRecord
100
AcDbBlockTableRecord
  2
LOGO
340
0
102
{BLKREFS
331
9B
102
}
  0
BLOCK_RECORD
  5
98A
330
1
100
AcDbSymbolTableRecord
100
AcDbBlockTableRecord
  2
*D1
340
0
  0
BLOCK_RECORD
  5
997
330
1
100
AcDbSymbolTableRecord
100
AcDbBlockTableRecord
  2
*D2
340
0
  0
BLOCK_RECORD
  5
9A4
330
1
100
AcDbSymbolTableRecord
100
AcDbBlockTableRecord
  2
*D3
340
0
  0
BLOCK_RECORD
  5
9B1
330
1
100
AcDbSymbolTableRecord
100
AcDbBlockTableRecord
  2
*D4
340
0
  0
BLOCK_RECORD
  5
9BE
330
1
100
AcDbSymbolTableRecord
100
AcDbBlockTableRecord
  2
*D5
340
0
  0
BLOCK_RECORD
  5
9CB
330
1
100
AcDbSymbolTableRecord
100
AcDbBlockTableRecord
  2
*D6
340
0
  0
BLOCK_RECORD
  5
9D8
330
1
100
AcDbSymbolTableRecord
100
AcDbBlockTableRecord
  2
*D7
340
0
  0
ENDTAB
  0
ENDSEC
  0
SECTION
  2
BLOCKS
  0
BLOCK
  5
35
330
1E
100
AcDbEntity
  8
0
100
AcDbBlockBegin
  2
*Model_Space
 70
     0
 10
0.0
 20
0.0
 30
0.0
  3
*Model_Space
  1

  0
ENDBLK
  5
36
330
1E
100
AcDbEntity
  8
0
100
AcDbBlockEnd
  0
BLOCK
  5
33
330
1A
100
AcDbEntity
 67
     1
  8
0
100
AcDbBlockBegin
  2
*Paper_Space
 70
     0
 10
0.0
 20
0.0
 30
0.0
  3
*Paper_Space
  1

  0
ENDBLK
  5
34
330
1A
100
AcDbEntity
 67
     1
  8
0
100
AcDbBlockEnd
  0
BLOCK
  5
37
330
22
100
AcDbEntity
  8
0
100
AcDbBlockBegin
  2
LOGO
 70
     0
 10
0.0
 20
0.0
 30
0.0
  3
LOGO
  1

  0
ARC
  5
38
330
22
100
AcDbEntity
  8
0
100
AcDbCircle
 10
11.59973089678112
 20
-9.271599258481501
 30
0.0
 40
4.5
100
AcDbArc
 50
270.0
 51
231.0575587310159
  0
LINE
  5
39
330
22
100
AcDbEntity
  8
0
100
AcDbLine
 10
3.599730896781125
 20
-4.771599258481529
 30
0.0
 11
3.599730896781153
 21
-11.77159925848133
 31
0.0
  0
LINE
  5
3A
330
22
100
AcDbEntity
  8
0
100
AcDbLine
 10
2.599730896781125
 20
-4.771599258481529
 30
0.0
 11
2.599730896781153
 21
-11.77159925848133
 31
0.0
  0
CIRCLE
  5
3B
330
22
100
AcDbEntity
  8
0
100
AcDbCircle
 10
11.59973089678112
 20
-9.271599258481501
 30
0.0
 40
3.5
  0
ARC
  5
3C
330
22
100
AcDbEntity
  8
0
100
AcDbCircle
 10
31.59973089678115
 20
-9.271599258481472
 30
0.0
 40
4.5
100
AcDbArc
 50
270.0
 51
231.0575587310182
  0
LINE
  5
3D
330
22
100
AcDbEntity
  8
0
100
AcDbLine
 10
17.59973089678112
 20
-4.771599258481472
 30
0.0
 11
17.59973089678115
 21
-13.77159925848147
 31
0.0
  0
ARC
  5
3E
330
22
100
AcDbEntity
  8
0
100
AcDbCircle
 10
22.59973089678116
 20
-7.271599258481472
 30
0.0
 40
2.5
100
AcDbArc
 50
293.1161887722295
 51
90.0
  0
CIRCLE
  5
3F
330
22
100
AcDbEntity
  8
0
100
AcDbCircle
 10
31.59973089678115
 20
-9.271599258481472
 30
0.0
 40
3.5
  0
ARC
  5
40
330
22
100
AcDbEntity
  8
0
100
AcDbCircle
 10
4.599730896781153
 20
-11.77159925848133
 30
0.0
 40
1.0
100
AcDbArc
 50
180.0
 51
270.0
  0
ARC
  5
41
330
22
100
AcDbEntity
  8
0
100
AcDbCircle
 10
4.599730896781153
 20
-11.77159925848133
 30
0.0
 40
2.0
100
AcDbArc
 50
179.9999999999992
 51
270.0
  0
LINE
  5
42
330
22
100
AcDbEntity
  8
0
100
AcDbLine
 10
11.59973089678115
 20
-13.77159925848144
 30
0.0
 11
4.599730896781153
 21
-13.77159925848147
 31
0.0
  0
LINE
  5
43
330
22
100
AcDbEntity
  8
0
100
AcDbLine
 10
8.771303772034769
 20
-12.77159925848136
 30
0.0
 11
4.599730896781153
 21
-12.77159925848133
 31
0.0
  0
LINE
  5
44
330
22
100
AcDbEntity
  8
0
100
AcDbLine
 10
31.59973089678115
 20
-13.77159925848147
 30
0.0
 11
23.6715276665056
 21
-13.77159925848144
 31
0.0
  0
LINE
  5
45
330
22
100
AcDbEntity
  8
0
100
AcDbLine
 10
23.56565672307022
 20
-9.51278021337896
 30
0.0
 11
24.4388546544846
 21
-12.77159925848144
 31
0.0
  0
LINE
  5
46
330
22
100
AcDbEntity
  8
0
100
AcDbLine
 10
22.59973089678116
 20
-9.771599258481472
 30
0.0
 11
18.59973089678112
 21
-9.771599258481472
 31
0.0
  0
LINE
  5
47
330
22
100
AcDbEntity
  8
0
100
AcDbLine
 10
18.59973089678115
 20
-13.77159925848144
 30
0.0
 11
17.59973089678115
 21
-13.77159925848144
 31
0.0
  0
LINE
  5
48
330
22
100
AcDbEntity
  8
0
100
AcDbLine
 10
18.59973089678115
 20
-9.771599258481472
 30
0.0
 11
18.59973089678115
 21
-13.77159925848144
 31
0.0
  0
LINE
  5
49
330
22
100
AcDbEntity
  8
0
100
AcDbLine
 10
22.59973089678116
 20
-9.771599258481472
 30
0.0
 11
23.67152766650562
 21
-13.77159925848147
 31
0.0
  0
ARC
  5
4A
330
22
100
AcDbEntity
  8
0
100
AcDbCircle
 10
22.59973089678116
 20
-7.271599258481472
 30
0.0
 40
2.5
100
AcDbArc
 50
270.0
 51
270.0000000000007
  0
LINE
  5
4B
330
22
100
AcDbEntity
  8
0
100
AcDbLine
 10
28.77130377203494
 20
-12.77159925848147
 30
0.0
 11
24.43885465448463
 21
-12.77159925848144
 31
0.0
  0
LINE
  5
4C
330
22
100
AcDbEntity
  8
0
100
AcDbLine
 10
3.599730896781125
 20
-4.771599258481472
 30
0.0
 11
2.599730896781125
 21
-4.771599258481472
 31
0.0
  0
LINE
  5
4D
330
22
100
AcDbEntity
  8
0
100
AcDbLine
 10
22.59973089678116
 20
-8.771599258481472
 30
0.0
 11
18.59973089678115
 21
-8.771599258481472
 31
0.0
  0
LINE
  5
4E
330
22
100
AcDbEntity
  8
0
100
AcDbLine
 10
22.59973089678116
 20
-5.771599258481472
 30
0.0
 11
18.59973089678115
 21
-5.771599258481472
 31
0.0
  0
LINE
  5
4F
330
22
100
AcDbEntity
  8
0
100
AcDbLine
 10
22.59973089678116
 20
-4.771599258481472
 30
0.0
 11
17.59973089678115
 21
-4.771599258481472
 31
0.0
  0
LINE
  5
50
330
22
100
AcDbEntity
  8
0
100
AcDbLine
 10
18.59973089678115
 20
-5.771599258481472
 30
0.0
 11
18.59973089678115
 21
-8.771599258481472
 31
0.0
  0
ARC
  5
51
330
22
100
AcDbEntity
  8
0
100
AcDbCircle
 10
22.59973089678116
 20
-7.271599258481472
 30
0.0
 40
1.5
100
AcDbArc
 50
270.0
 51
90.0
  0
ENDBLK
  5
52
330
22
100
AcDbEntity
  8
0
100
AcDbBlockEnd
  0
BLOCK
  5
995
330
98A
100
AcDbEntity
  8
0
100
AcDbBlockBegin
  2
*D1
 70
     1
 10
0.0
 20
0.0
 30
0.0
  3
*D1
  1

  0
LINE
  5
AA7
330
98A
100
AcDbEntity
  8
BEM
 62
     0
370
    -2
100
AcDbLine
 10
95.23814622734949
 20
443.3921255965298
 30
0.0
 11
82.62633862758395
 21
443.3921255965298
 31
0.0
  0
LINE
  5
AA8
330
98A
100
AcDbEntity
  8
BEM
 62
     0
370
    -2
100
AcDbLine
 10
95.23814622734949
 20
432.3921255965299
 30
0.0
 11
82.62633862758395
 21
432.3921255965299
 31
0.0
  0
LINE
  5
AA9
330
98A
100
AcDbEntity
  8
BEM
 62
     0
370
    -2
100
AcDbLine
 10
84.62633862758394
 20
450.3921255965297
 30
0.0
 11
84.62633862758394
 21
457.3921255965298
 31
0.0
  0
LINE
  5
AAA
330
98A
100
AcDbEntity
  8
BEM
 62
     0
370
    -2
100
AcDbLine
 10
84.62633862758394
 20
425.3921255965299
 30
0.0
 11
84.62633862758393
 21
406.7921255965298
 31
0.0
  0
LINE
  5
AAB
330
98A
100
AcDbEntity
  8
BEM
 62
     0
370
    -2
100
AcDbLine
 10
84.62633862758394
 20
443.3921255965298
 30
0.0
 11
84.62633862758394
 21
432.3921255965299
 31
0.0
  0
SOLID
  5
AAC
330
98A
100
AcDbEntity
  8
BEM
 62
     0
100
AcDbTrace
 10
83.45967196091727
 20
450.3921255965297
 30
0.0
 11
85.79300529425061
 21
450.3921255965297
 31
0.0
 12
84.62633862758394
 22
443.3921255965298
 32
0.0
 13
84.62633862758394
 23
443.3921255965298
 33
0.0
  0
SOLID
  5
AAD
330
98A
100
AcDbEntity
  8
BEM
 62
     0
100
AcDbTrace
 10
83.45967196091727
 20
425.3921255965299
 30
0.0
 11
85.79300529425061
 21
425.3921255965299
 31
0.0
 12
84.62633862758394
 22
432.3921255965299
 32
0.0
 13
84.62633862758394
 23
432.3921255965299
 33
0.0
  0
MTEXT
  5
AAE
330
98A
100
AcDbEntity
  8
BEM
 62
     1
100
AcDbMText
 10
78.12633862758388
 20
412.5921255965299
 30
0.0
 40
7.0
 41
0.0
 71
     5
 72
     1
  1
\A1;11
 11
0.0000000000000001
 21
1.0
 31
0.0
 73
     1
 44
1.0
  0
POINT
  5
AAF
330
98A
100
AcDbEntity
  8
DEFPOINTS
 62
     0
100
AcDbPoint
 10
97.23814622734948
 20
443.3921255965298
 30
0.0
  0
POINT
  5
AB0
330
98A
100
AcDbEntity
  8
DEFPOINTS
 62
     0
100
AcDbPoint
 10
97.23814622734948
 20
432.3921255965299
 30
0.0
  0
POINT
  5
AB1
330
98A
100
AcDbEntity
  8
DEFPOINTS
 62
     0
100
AcDbPoint
 10
84.62633862758394
 20
432.3921255965299
 30
0.0
  0
ENDBLK
  5
996
330
98A
100
AcDbEntity
  8
0
100
AcDbBlockEnd
  0
BLOCK
  5
9A2
330
997
100
AcDbEntity
  8
0
100
AcDbBlockBegin
  2
*D2
 70
     1
 10
0.0
 20
0.0
 30
0.0
  3
*D2
  1

  0
LINE
  5
AB2
330
997
100
AcDbEntity
  8
BEM
 62
     0
370
    -2
100
AcDbLine
 10
97.23814622734948
 20
445.3921255965298
 30
0.0
 11
97.23814622734948
 21
457.8465425246651
 31
0.0
  0
LINE
  5
AB3
330
997
100
AcDbEntity
  8
BEM
 62
     0
370
    -2
100
AcDbLine
 10
247.2381462273497
 20
445.3921255965298
 30
0.0
 11
247.2381462273497
 21
457.8465425246651
 31
0.0
  0
LINE
  5
AB4
330
997
100
AcDbEntity
  8
BEM
 62
     0
370
    -2
100
AcDbLine
 10
104.2381462273495
 20
455.8465425246651
 30
0.0
 11
240.2381462273497
 21
455.8465425246651
 31
0.0
  0
SOLID
  5
AB5
330
997
100
AcDbEntity
  8
BEM
 62
     0
100
AcDbTrace
 10
104.2381462273495
 20
457.0132091913318
 30
0.0
 11
104.2381462273495
 21
454.6798758579984
 31
0.0
 12
97.23814622734948
 22
455.8465425246651
 32
0.0
 13
97.23814622734948
 23
455.8465425246651
 33
0.0
  0
SOLID
  5
AB6
330
997
100
AcDbEntity
  8
BEM
 62
     0
100
AcDbTrace
 10
240.2381462273497
 20
457.0132091913318
 30
0.0
 11
240.2381462273497
 21
454.6798758579984
 31
0.0
 12
247.2381462273497
 22
455.8465425246651
 32
0.0
 13
247.2381462273497
 23
455.8465425246651
 33
0.0
  0
MTEXT
  5
AB7
330
997
100
AcDbEntity
  8
BEM
 62
     1
100
AcDbMText
 10
175.7039789313723
 20
462.3465425246651
 30
0.0
 40
7.0
 41
0.0
 71
     5
 72
     1
  1
\A1;150
 73
     1
 44
1.0
  0
POINT
  5
AB8
330
997
100
AcDbEntity
  8
DEFPOINTS
 62
     0
100
AcDbPoint
 10
97.23814622734948
 20
443.3921255965298
 30
0.0
  0
POINT
  5
AB9
330
997
100
AcDbEntity
  8
DEFPOINTS
 62
     0
100
AcDbPoint
 10
247.2381462273497
 20
443.3921255965299
 30
0.0
  0
POINT
  5
ABA
330
997
100
AcDbEntity
  8
DEFPOINTS
 62
     0
100
AcDbPoint
 10
247.2381462273497
 20
455.8465425246651
 30
0.0
  0
ENDBLK
  5
9A3
330
997
100
AcDbEntity
  8
0
100
AcDbBlockEnd
  0
BLOCK
  5
9AF
330
9A4
100
AcDbEntity
  8
0
100
AcDbBlockBegin
  2
*D3
 70
     1
 10
0.0
 20
0.0
 30
0.0
  3
*D3
  1

  0
LINE
  5
A95
330
9A4
100
AcDbEntity
  8
BEM
 62
     0
370
    -2
100
AcDbLine
 10
101.7381462273496
 20
274.3921255965297
 30
0.0
 11
82.62633862758393
 21
274.3921255965297
 31
0.0
  0
LINE
  5
A96
330
9A4
100
AcDbEntity
  8
BEM
 62
     0
370
    -2
100
AcDbLine
 10
97.23814622734961
 20
303.3921255965297
 30
0.0
 11
82.62633862758395
 21
303.3921255965297
 31
0.0
  0
LINE
  5
A97
330
9A4
100
AcDbEntity
  8
BEM
 62
     0
370
    -2
100
AcDbLine
 10
84.62633862758393
 20
281.3921255965297
 30
0.0
 11
84.62633862758394
 21
296.3921255965297
 31
0.0
  0
SOLID
  5
A98
330
9A4
100
AcDbEntity
  8
BEM
 62
     0
100
AcDbTrace
 10
83.45967196091725
 20
281.3921255965297
 30
0.0
 11
85.7930052942506
 21
281.3921255965297
 31
0.0
 12
84.62633862758393
 22
274.3921255965297
 32
0.0
 13
84.62633862758393
 23
274.3921255965297
 33
0.0
  0
SOLID
  5
A99
330
9A4
100
AcDbEntity
  8
BEM
 62
     0
100
AcDbTrace
 10
83.45967196091727
 20
296.3921255965297
 30
0.0
 11
85.79300529425061
 21
296.3921255965297
 31
0.0
 12
84.62633862758394
 22
303.3921255965297
 32
0.0
 13
84.62633862758394
 23
303.3921255965297
 33
0.0
  0
MTEXT
  5
A9A
330
9A4
100
AcDbEntity
  8
BEM
 62
     1
100
AcDbMText
 10
78.12633862758389
 20
288.8921255965297
 30
0.0
 40
7.0
 41
0.0
 71
     5
 72
     1
  1
\A1;29
 11
0.0000000000000001
 21
1.0
 31
0.0
 73
     1
 44
1.0
  0
POINT
  5
A9B
330
9A4
100
AcDbEntity
  8
DEFPOINTS
 62
     0
100
AcDbPoint
 10
103.7381462273496
 20
274.3921255965297
 30
0.0
  0
POINT
  5
A9C
330
9A4
100
AcDbEntity
  8
DEFPOINTS
 62
     0
100
AcDbPoint
 10
99.2381462273496
 20
303.3921255965297
 30
0.0
  0
POINT
  5
A9D
330
9A4
100
AcDbEntity
  8
DEFPOINTS
 62
     0
100
AcDbPoint
 10
84.62633862758394
 20
303.3921255965297
 30
0.0
  0
ENDBLK
  5
9B0
330
9A4
100
AcDbEntity
  8
0
100
AcDbBlockEnd
  0
BLOCK
  5
9BC
330
9B1
100
AcDbEntity
  8
0
100
AcDbBlockBegin
  2
*D4
 70
     1
 10
0.0
 20
0.0
 30
0.0
  3
*D4
  1

  0
LINE
  5
A8C
330
9B1
100
AcDbEntity
  8
BEM
 62
     0
370
    -2
100
AcDbLine
 10
103.7381462273496
 20
272.3921255965297
 30
0.0
 11
103.7381462273496
 21
252.9878208118151
 31
0.0
  0
LINE
  5
A8D
330
9B1
100
AcDbEntity
  8
BEM
 62
     0
370
    -2
100
AcDbLine
 10
240.7381462273496
 20
272.3921255965297
 30
0.0
 11
240.7381462273496
 21
252.9878208118151
 31
0.0
  0
LINE
  5
A8E
330
9B1
100
AcDbEntity
  8
BEM
 62
     0
370
    -2
100
AcDbLine
 10
110.7381462273496
 20
254.9878208118151
 30
0.0
 11
233.7381462273496
 21
254.9878208118151
 31
0.0
  0
SOLID
  5
A8F
330
9B1
100
AcDbEntity
  8
BEM
 62
     0
100
AcDbTrace
 10
110.7381462273496
 20
256.1544874784818
 30
0.0
 11
110.7381462273496
 21
253.8211541451484
 31
0.0
 12
103.7381462273496
 22
254.9878208118151
 32
0.0
 13
103.7381462273496
 23
254.9878208118151
 33
0.0
  0
SOLID
  5
A90
330
9B1
100
AcDbEntity
  8
BEM
 62
     0
100
AcDbTrace
 10
233.7381462273496
 20
256.1544874784818
 30
0.0
 11
233.7381462273496
 21
253.8211541451484
 31
0.0
 12
240.7381462273496
 22
254.9878208118151
 32
0.0
 13
240.7381462273496
 23
254.9878208118151
 33
0.0
  0
MTEXT
  5
A91
330
9B1
100
AcDbEntity
  8
BEM
 62
     1
100
AcDbMText
 10
172.2381462273496
 20
261.4878208118152
 30
0.0
 40
7.0
 41
0.0
 71
     5
 72
     1
  1
\A1;%%c137
 73
     1
 44
1.0
  0
POINT
  5
A92
330
9B1
100
AcDbEntity
  8
DEFPOINTS
 62
     0
100
AcDbPoint
 10
103.7381462273496
 20
274.3921255965297
 30
0.0
  0
POINT
  5
A93
330
9B1
100
AcDbEntity
  8
DEFPOINTS
 62
     0
100
AcDbPoint
 10
240.7381462273496
 20
274.3921255965297
 30
0.0
  0
POINT
  5
A94
330
9B1
100
AcDbEntity
  8
DEFPOINTS
 62
     0
100
AcDbPoint
 10
240.7381462273496
 20
254.9878208118151
 30
0.0
  0
ENDBLK
  5
9BD
330
9B1
100
AcDbEntity
  8
0
100
AcDbBlockEnd
  0
BLOCK
  5
9C9
330
9BE
100
AcDbEntity
  8
0
100
AcDbBlockBegin
  2
*D5
 70
     1
 10
0.0
 20
0.0
 30
0.0
  3
*D5
  1

  0
LINE
  5
A83
330
9BE
100
AcDbEntity
  8
BEM
 62
     0
370
    -2
100
AcDbLine
 10
100.7381462273496
 20
278.3921255965297
 30
0.0
 11
100.7381462273496
 21
240.5029637158954
 31
0.0
  0
LINE
  5
A84
330
9BE
100
AcDbEntity
  8
BEM
 62
     0
370
    -2
100
AcDbLine
 10
243.7381462273496
 20
278.3921255965297
 30
0.0
 11
243.7381462273496
 21
240.5029637158954
 31
0.0
  0
LINE
  5
A85
330
9BE
100
AcDbEntity
  8
BEM
 62
     0
370
    -2
100
AcDbLine
 10
107.7381462273496
 20
242.5029637158954
 30
0.0
 11
236.7381462273496
 21
242.5029637158954
 31
0.0
  0
SOLID
  5
A86
330
9BE
100
AcDbEntity
  8
BEM
 62
     0
100
AcDbTrace
 10
107.7381462273496
 20
243.6696303825621
 30
0.0
 11
107.7381462273496
 21
241.3362970492288
 31
0.0
 12
100.7381462273496
 22
242.5029637158954
 32
0.0
 13
100.7381462273496
 23
242.5029637158954
 33
0.0
  0
SOLID
  5
A87
330
9BE
100
AcDbEntity
  8
BEM
 62
     0
100
AcDbTrace
 10
236.7381462273496
 20
243.6696303825621
 30
0.0
 11
236.7381462273496
 21
241.3362970492288
 31
0.0
 12
243.7381462273496
 22
242.5029637158954
 32
0.0
 13
243.7381462273496
 23
242.5029637158954
 33
0.0
  0
MTEXT
  5
A88
330
9BE
100
AcDbEntity
  8
BEM
 62
     1
100
AcDbMText
 10
172.2381462273496
 20
249.0029637158954
 30
0.0
 40
7.0
 41
0.0
 71
     5
 72
     1
  1
\A1;%%c143
 73
     1
 44
1.0
  0
POINT
  5
A89
330
9BE
100
AcDbEntity
  8
DEFPOINTS
 62
     0
100
AcDbPoint
 10
100.7381462273496
 20
280.3921255965297
 30
0.0
  0
POINT
  5
A8A
330
9BE
100
AcDbEntity
  8
DEFPOINTS
 62
     0
100
AcDbPoint
 10
243.7381462273496
 20
280.3921255965297
 30
0.0
  0
POINT
  5
A8B
330
9BE
100
AcDbEntity
  8
DEFPOINTS
 62
     0
100
AcDbPoint
 10
243.7381462273496
 20
242.5029637158954
 30
0.0
  0
ENDBLK
  5
9CA
330
9BE
100
AcDbEntity
  8
0
100
AcDbBlockEnd
  0
BLOCK
  5
9D6
330
9CB
100
AcDbEntity
  8
0
100
AcDbBlockBegin
  2
*D6
 70
     1
 10
0.0
 20
0.0
 30
0.0
  3
*D6
  1

  0
LINE
  5
A7A
330
9CB
100
AcDbEntity
  8
BEM
 62
     0
370
    -2
100
AcDbLine
 10
94.2381462273496
 20
288.3921255965297
 30
0.0
 11
94.2381462273496
 21
227.5839680410843
 31
0.0
  0
LINE
  5
A7B
330
9CB
100
AcDbEntity
  8
BEM
 62
     0
370
    -2
100
AcDbLine
 10
250.2381462273496
 20
288.3921255965297
 30
0.0
 11
250.2381462273496
 21
227.5839680410843
 31
0.0
  0
LINE
  5
A7C
330
9CB
100
AcDbEntity
  8
BEM
 62
     0
370
    -2
100
AcDbLine
 10
101.2381462273496
 20
229.5839680410843
 30
0.0
 11
243.2381462273496
 21
229.5839680410843
 31
0.0
  0
SOLID
  5
A7D
330
9CB
100
AcDbEntity
  8
BEM
 62
     0
100
AcDbTrace
 10
101.2381462273496
 20
230.7506347077509
 30
0.0
 11
101.2381462273496
 21
228.4173013744176
 31
0.0
 12
94.2381462273496
 22
229.5839680410843
 32
0.0
 13
94.2381462273496
 23
229.5839680410843
 33
0.0
  0
SOLID
  5
A7E
330
9CB
100
AcDbEntity
  8
BEM
 62
     0
100
AcDbTrace
 10
243.2381462273496
 20
230.7506347077509
 30
0.0
 11
243.2381462273496
 21
228.4173013744176
 31
0.0
 12
250.2381462273496
 22
229.5839680410843
 32
0.0
 13
250.2381462273496
 23
229.5839680410843
 33
0.0
  0
MTEXT
  5
A7F
330
9CB
100
AcDbEntity
  8
BEM
 62
     1
100
AcDbMText
 10
172.2381462273496
 20
236.0839680410843
 30
0.0
 40
7.0
 41
0.0
 71
     5
 72
     1
  1
\A1;%%c156
 73
     1
 44
1.0
  0
POINT
  5
A80
330
9CB
100
AcDbEntity
  8
DEFPOINTS
 62
     0
100
AcDbPoint
 10
94.2381462273496
 20
290.3921255965297
 30
0.0
  0
POINT
  5
A81
330
9CB
100
AcDbEntity
  8
DEFPOINTS
 62
     0
100
AcDbPoint
 10
250.2381462273496
 20
290.3921255965297
 30
0.0
  0
POINT
  5
A82
330
9CB
100
AcDbEntity
  8
DEFPOINTS
 62
     0
100
AcDbPoint
 10
250.2381462273496
 20
229.5839680410843
 30
0.0
  0
ENDBLK
  5
9D7
330
9CB
100
AcDbEntity
  8
0
100
AcDbBlockEnd
  0
BLOCK
  5
9E3
330
9D8
100
AcDbEntity
  8
0
100
AcDbBlockBegin
  2
*D7
 70
     1
 10
0.0
 20
0.0
 30
0.0
  3
*D7
  1

  0
LINE
  5
A71
330
9D8
100
AcDbEntity
  8
BEM
 62
     0
370
    -2
100
AcDbLine
 10
95.23814622734949
 20
443.3921255965298
 30
0.0
 11
68.62633862758399
 21
443.3921255965298
 31
0.0
  0
LINE
  5
A72
330
9D8
100
AcDbEntity
  8
BEM
 62
     0
370
    -2
100
AcDbLine
 10
101.7381462273496
 20
274.3921255965297
 30
0.0
 11
68.62633862758395
 21
274.3921255965297
 31
0.0
  0
LINE
  5
A73
330
9D8
100
AcDbEntity
  8
BEM
 62
     0
370
    -2
100
AcDbLine
 10
70.62633862758399
 20
436.3921255965298
 30
0.0
 11
70.62633862758395
 21
281.3921255965297
 31
0.0
  0
SOLID
  5
A74
330
9D8
100
AcDbEntity
  8
BEM
 62
     0
100
AcDbTrace
 10
69.45967196091732
 20
436.3921255965298
 30
0.0
 11
71.79300529425066
 21
436.3921255965298
 31
0.0
 12
70.62633862758399
 22
443.3921255965298
 32
0.0
 13
70.62633862758399
 23
443.3921255965298
 33
0.0
  0
SOLID
  5
A75
330
9D8
100
AcDbEntity
  8
BEM
 62
     0
100
AcDbTrace
 10
69.45967196091728
 20
281.3921255965297
 30
0.0
 11
71.79300529425062
 21
281.3921255965297
 31
0.0
 12
70.62633862758395
 22
274.3921255965297
 32
0.0
 13
70.62633862758395
 23
274.3921255965297
 33
0.0
  0
MTEXT
  5
A76
330
9D8
100
AcDbEntity
  8
BEM
 62
     1
100
AcDbMText
 10
64.12633862758392
 20
358.8921255965297
 30
0.0
 40
7.0
 41
0.0
 71
     5
 72
     1
  1
\A1;169
 11
0.0000000000000001
 21
1.0
 31
0.0
 73
     1
 44
1.0
  0
POINT
  5
A77
330
9D8
100
AcDbEntity
  8
DEFPOINTS
 62
     0
100
AcDbPoint
 10
97.23814622734948
 20
443.3921255965298
 30
0.0
  0
POINT
  5
A78
330
9D8
100
AcDbEntity
  8
DEFPOINTS
 62
     0
100
AcDbPoint
 10
103.7381462273496
 20
274.3921255965297
 30
0.0
  0
POINT
  5
A79
330
9D8
100
AcDbEntity
  8
DEFPOINTS
 62
     0
100
AcDbPoint
 10
70.62633862758395
 20
274.3921255965297
 30
0.0
  0
ENDBLK
  5
9E4
330
9D8
100
AcDbEntity
  8
0
100
AcDbBlockEnd
  0
ENDSEC
  0
SECTION
  2
ENTITIES
  0
LINE
  5
57
330
1E
100
AcDbEntity
  8
STEMPEL
100
AcDbLine
 10
410.0
 20
110.0
 30
0.0
 11
39.99999999999997
 21
110.0
 31
0.0
  0
LINE
  5
58
330
1E
100
AcDbEntity
  8
STEMPEL
100
AcDbLine
 10
136.0000000000001
 20
109.9999999999999
 30
0.0
 11
136.0
 21
9.999999999999971
 31
0.0
  0
LINE
  5
59
330
1E
100
AcDbEntity
  8
STEMPEL
100
AcDbLine
 10
220.0
 20
110.0
 30
0.0
 11
220.0
 21
9.999999999999971
 31
0.0
  0
LINE
  5
5A
330
1E
100
AcDbEntity
  8
STEMPEL
100
AcDbLine
 10
332.0
 20
109.9999999999997
 30
0.0
 11
332.0
 21
40.0
 31
0.0
  0
LINE
  5
5B
330
1E
100
AcDbEntity
  8
STEMPEL
100
AcDbLine
 10
135.9999999999999
 20
29.99999999999997
 30
0.0
 11
39.99999999999997
 21
29.99999999999997
 31
0.0
  0
LINE
  5
5C
330
1E
100
AcDbEntity
  8
STEMPEL
100
AcDbLine
 10
410.0
 20
40.0
 30
0.0
 11
136.0000000000001
 21
39.99999999999997
 31
0.0
  0
LINE
  5
5D
330
1E
100
AcDbEntity
  8
STEMPEL
100
AcDbLine
 10
410.0
 20
80.0
 30
0.0
 11
136.0000000000001
 21
79.99999999999994
 31
0.0
  0
LINE
  5
5E
330
1E
100
AcDbEntity
  8
VOLL
100
AcDbLine
 10
54.00000000000009
 20
110.0
 30
0.0
 11
53.99999999999997
 21
9.999999999999971
 31
0.0
  0
LINE
  5
5F
330
1E
100
AcDbEntity
  8
VOLL
100
AcDbLine
 10
94.00000000000011
 20
109.9999999999999
 30
0.0
 11
94.0
 21
9.999999999999971
 31
0.0
  0
LINE
  5
60
330
1E
100
AcDbEntity
  8
VOLL
100
AcDbLine
 10
114.0000000000001
 20
109.9999999999999
 30
0.0
 11
114.0
 21
9.999999999999971
 31
0.0
  0
LINE
  5
61
330
1E
100
AcDbEntity
  8
VOLL
100
AcDbLine
 10
154.0000000000001
 20
79.99999999999994
 30
0.0
 11
154.0000000000001
 21
39.99999999999997
 31
0.0
  0
LINE
  5
62
330
1E
100
AcDbEntity
  8
VOLL
100
AcDbLine
 10
180.0000000000001
 20
109.9999999999998
 30
0.0
 11
180.0
 21
39.99999999999997
 31
0.0
  0
LINE
  5
63
330
1E
100
AcDbEntity
  8
HILF
100
AcDbLine
 10
40.00000000000008
 20
100.0
 30
0.0
 11
136.0000000000001
 21
100.0
 31
0.0
  0
LINE
  5
64
330
1E
100
AcDbEntity
  8
HILF
100
AcDbLine
 10
40.00000000000008
 20
90.00000000000005
 30
0.0
 11
136.0000000000001
 21
90.00000000000005
 31
0.0
  0
LINE
  5
65
330
1E
100
AcDbEntity
  8
HILF
100
AcDbLine
 10
40.00000000000008
 20
79.99999999999994
 30
0.0
 11
136.0000000000001
 21
79.99999999999994
 31
0.0
  0
LINE
  5
66
330
1E
100
AcDbEntity
  8
HILF
100
AcDbLine
 10
40.00000000000008
 20
69.99999999999994
 30
0.0
 11
136.0000000000001
 21
69.99999999999994
 31
0.0
  0
LINE
  5
67
330
1E
100
AcDbEntity
  8
HILF
100
AcDbLine
 10
40.00000000000008
 20
59.99999999999997
 30
0.0
 11
136.0000000000001
 21
59.99999999999997
 31
0.0
  0
LINE
  5
68
330
1E
100
AcDbEntity
  8
HILF
100
AcDbLine
 10
40.00000000000008
 20
49.99999999999997
 30
0.0
 11
136.0000000000001
 21
49.99999999999997
 31
0.0
  0
LINE
  5
69
330
1E
100
AcDbEntity
  8
HILF
100
AcDbLine
 10
40.00000000000008
 20
39.99999999999997
 30
0.0
 11
136.0000000000001
 21
39.99999999999997
 31
0.0
  0
LINE
  5
6A
330
1E
100
AcDbEntity
  8
HILF
100
AcDbLine
 10
136.0000000000001
 20
69.99999999999994
 30
0.0
 11
220.0
 21
69.99999999999994
 31
0.0
  0
LINE
  5
6B
330
1E
100
AcDbEntity
  8
HILF
100
AcDbLine
 10
136.0000000000001
 20
59.99999999999997
 30
0.0
 11
220.0
 21
59.99999999999997
 31
0.0
  0
LINE
  5
6C
330
1E
100
AcDbEntity
  8
HILF
100
AcDbLine
 10
136.0000000000001
 20
49.99999999999997
 30
0.0
 11
220.0
 21
49.99999999999997
 31
0.0
  0
LINE
  5
6D
330
1E
100
AcDbEntity
  8
HILF
100
AcDbLine
 10
224.7736801096948
 20
84.03758247564139
 30
0.0
 11
324.8353916556311
 21
84.03758247564139
 31
0.0
  0
LINE
  5
6E
330
1E
100
AcDbEntity
  8
HILF
100
AcDbLine
 10
224.7736801096948
 20
69.99999999999994
 30
0.0
 11
324.835391655631
 21
69.99999999999994
 31
0.0
  0
LINE
  5
6F
330
1E
100
AcDbEntity
  8
HILF
100
AcDbLine
 10
224.7736801096948
 20
59.99999999999997
 30
0.0
 11
324.835391655631
 21
59.99999999999997
 31
0.0
  0
LINE
  5
70
330
1E
100
AcDbEntity
  8
HILF
100
AcDbLine
 10
224.7736801096948
 20
49.99999999999997
 30
0.0
 11
324.835391655631
 21
49.99999999999997
 31
0.0
  0
LINE
  5
71
330
1E
100
AcDbEntity
  8
VOLL
100
AcDbLine
 10
332.0
 20
60.0
 30
0.0
 11
410.0
 21
60.0
 31
0.0
  0
LINE
  5
72
330
1E
100
AcDbEntity
  8
HILF
100
AcDbLine
 10
336.7238616296993
 20
83.77983636955827
 30
0.0
 11
404.8588839326728
 21
83.77983636955827
 31
0.0
  0
LINE
  5
73
330
1E
100
AcDbEntity
  8
HILF
100
AcDbLine
 10
223.4909699289885
 20
14.89398258028314
 30
0.0
 11
404.8588839326728
 21
14.89398258028314
 31
0.0
  0
TEXT
  5
74
330
1E
100
AcDbEntity
  8
TEXT
100
AcDbText
 10
63.86165979631819
 20
18.67381894984132
 30
0.0
 40
4.0
  1
Änderung
 41
0.8
  7
GREEKS
 72
     1
 11
74.60451693917534
 21
18.67381894984132
 31
0.0
100
AcDbText
  0
TEXT
  5
75
330
1E
100
AcDbEntity
  8
TEXT
100
AcDbText
 10
143.5163572150377
 20
102.4620895087088
 30
0.0
 40
5.0
  1
Maßstab
 41
0.8
  7
GREEKS
100
AcDbText
  0
TEXT
  5
76
330
1E
100
AcDbEntity
  8
TEXT
100
AcDbText
 10
184.2858954734051
 20
102.4184168434819
 30
0.0
 40
5.0
  1
Zul. Abw.
 41
0.8
  7
GREEKS
100
AcDbText
  0
TEXT
  5
77
330
1E
100
AcDbEntity
  8
TEXT
100
AcDbText
 10
224.877940380901
 20
102.5489328011779
 30
0.0
 40
5.0
  1
Benennung
 41
0.8
  7
GREEKS
100
AcDbText
  0
TEXT
  5
78
330
1E
100
AcDbEntity
  8
TEXT
100
AcDbText
 10
336.178754957634
 20
102.3132034537136
 30
0.0
 40
5.0
  1
Zeichnungs Nr.
 41
0.8
  7
GREEKS
100
AcDbText
  0
TEXT
  5
79
330
1E
100
AcDbEntity
  8
TEXT
100
AcDbText
 10
224.742238391136
 20
30.84560570193057
 30
0.0
 40
5.0
  1
Bauvorhaben
 41
0.8
  7
GREEKS
100
AcDbText
  0
TEXT
  5
7A
330
1E
100
AcDbEntity
  8
TEXT
100
AcDbText
 10
336.7238616296993
 20
73.1811823709997
 30
0.0
 40
5.0
  1
Ersatz für:
 41
0.8
  7
GREEKS
100
AcDbText
  0
TEXT
  5
7B
330
1E
100
AcDbEntity
  8
TEXT
100
AcDbText
 10
48.26641107045756
 20
13.65465846027192
 30
0.0
 40
4.0
  1
Index
 50
90.0
 41
0.8
  7
GREEKS
100
AcDbText
  0
TEXT
  5
7C
330
1E
100
AcDbEntity
  8
TEXT
100
AcDbText
 10
100.0934676075481
 20
18.6715626933981
 30
0.0
 40
4.0
  1
Tag
 41
0.8
  7
GREEKS
 72
     1
 11
103.8268009408814
 21
18.6715626933981
 31
0.0
100
AcDbText
  0
TEXT
  5
7D
330
1E
100
AcDbEntity
  8
TEXT
100
AcDbText
 10
119.0122744386592
 20
18.59324216966408
 30
0.0
 40
4.0
  1
Name
 41
0.8
  7
GREEKS
 72
     1
 11
125.3360839624688
 21
18.59324216966408
 31
0.0
100
AcDbText
  0
TEXT
  5
7E
330
1E
100
AcDbEntity
  8
TEXT
100
AcDbText
 10
162.3311673153651
 20
73.31880501229926
 30
0.0
 40
4.0
  1
Tag
 41
0.8
  7
GREEKS
100
AcDbText
  0
TEXT
  5
7F
330
1E
100
AcDbEntity
  8
TEXT
100
AcDbText
 10
192.4626584226295
 20
73.30961091915225
 30
0.0
 40
4.0
  1
Name
 41
0.8
  7
GREEKS
100
AcDbText
  0
TEXT
  5
80
330
1E
100
AcDbEntity
  8
TEXT
100
AcDbText
 10
137.5836127167615
 20
63.62990369617964
 30
0.0
 40
4.0
  1
Gez.
 41
0.8
  7
GREEKS
100
AcDbText
  0
TEXT
  5
81
330
1E
100
AcDbEntity
  8
TEXT
100
AcDbText
 10
137.5515086571672
 20
53.68926291428377
 30
0.0
 40
4.0
  1
Gepr.
 41
0.8
  7
GREEKS
100
AcDbText
  0
TEXT
  5
82
330
1E
100
AcDbEntity
  8
TEXT
100
AcDbText
 10
137.6006777387304
 20
43.52946389649807
 30
0.0
 40
4.0
  1
Norm.
 41
0.8
  7
GREEKS
100
AcDbText
  0
LINE
  5
83
330
1E
100
AcDbEntity
  8
STEMPEL
100
AcDbLine
 10
49.99999999999989
 20
10.0
 30
0.0
 11
410.0
 21
10.0
 31
0.0
  0
TEXT
  5
84
330
1E
100
AcDbEntity
  8
TEXT
100
AcDbText
 10
337.2400861497006
 20
52.07416177878602
 30
0.0
 40
5.0
  1
ersetzt durch:
 41
0.8
  7
GREEKS
100
AcDbText
  0
LINE
  5
85
330
1E
100
AcDbEntity
  8
STEMPEL
100
AcDbLine
 10
410.0
 20
10.0
 30
0.0
 11
39.99999999999989
 21
10.0
 31
0.0
  0
LINE
  5
86
330
1E
100
AcDbEntity
  8
STEMPEL
100
AcDbLine
 10
410.0
 20
10.0
 30
0.0
 11
410.0
 21
584.0
 31
0.0
  0
LINE
  5
87
330
1E
100
AcDbEntity
  8
STEMPEL
100
AcDbLine
 10
40.0
 20
10.0
 30
0.0
 11
39.99999999999989
 21
584.0
 31
0.0
  0
LINE
  5
88
330
1E
100
AcDbEntity
  8
STEMPEL
100
AcDbLine
 10
410.0
 20
584.0
 30
0.0
 11
39.99999999999989
 21
584.0
 31
0.0
  0
LINE
  5
89
330
1E
100
AcDbEntity
  8
HILF
100
AcDbLine
 10
0.0
 20
0.0
 30
0.0
 11
-0.0000000000001137
 21
594.0
 31
0.0
  0
LINE
  5
8A
330
1E
100
AcDbEntity
  8
HILF
100
AcDbLine
 10
419.9999999999999
 20
594.0000000000002
 30
0.0
 11
0.0
 21
594.0
 31
0.0
  0
LINE
  5
8B
330
1E
100
AcDbEntity
  8
HILF
100
AcDbLine
 10
420.0
 20
0.0
 30
0.0
 11
0.0
 21
0.0
 31
0.0
  0
LINE
  5
8C
330
1E
100
AcDbEntity
  8
HILF
100
AcDbLine
 10
31.08767135713856
 20
297.0
 30
0.0
 11
0.0000000000001137
 21
297.0
 31
0.0
  0
TEXT
  5
8D
330
1E
100
AcDbEntity
  8
TEXT
100
AcDbText
 10
138.622109822104
 20
73.14025471151666
 30
0.0
 40
4.0
  1
2008
 41
0.8
  7
GREEKS
100
AcDbText
  0
LINE
  5
8E
330
1E
100
AcDbEntity
  8
HILF
100
AcDbLine
 10
420.0
 20
-0.0000000000001137
 30
0.0
 11
419.9999999999999
 21
594.0
 31
0.0
  0
TEXT
  5
8F
330
1E
100
AcDbEntity
  8
VOLL
100
AcDbText
 10
78.07675471698113
 20
31.02594776470585
 30
0.0
 40
1.8
  1

  7
GREEKS
100
AcDbText
  0
TEXT
  5
90
330
1E
100
AcDbEntity
  8
TEXT
100
AcDbText
 10
41.85509950977674
 20
111.6719999999999
 30
0.0
 40
5.0
  1
Erstellt mit AUTOCAD 2004
 41
0.8
  7
GREEKS
100
AcDbText
  0
TEXT
  5
91
330
1E
100
AcDbEntity
  8
TEXT
100
AcDbText
 10
194.4216048581257
 20
63.0896391972351
 30
0.0
 40
4.0
  1
Koeh
 41
0.8
  7
GREEKS
 72
     1
 11
199.6787477152685
 21
63.0896391972351
 31
0.0
100
AcDbText
  0
TEXT
  5
92
330
1E
100
AcDbEntity
  8
TEXT
 62
     1
100
AcDbText
 10
347.8020442601452
 20
88.14901428913959
 30
0.0
 40
7.0
  1
16304100W
 41
0.8
  7
GREEKS
 72
     1
 11
370.7353775934786
 21
88.14901428913959
 31
0.0
100
AcDbText
  0
TEXT
  5
93
330
1E
100
AcDbEntity
  8
TEXT
 62
     1
100
AcDbText
 10
150.5006306481887
 20
88.14901428913959
 30
0.0
 40
7.0
  1
1:2
 41
0.8
  7
GREEKS
100
AcDbText
  0
TEXT
  5
94
330
1E
100
AcDbEntity
  8
TEXT
100
AcDbText
 10
160.398997108236
 20
63.10765040825732
 30
0.0
 40
4.0
  1
03.06.
 41
0.8
  7
GREEKS
 72
     1
 11
167.4085209177598
 21
63.10765040825732
 31
0.0
100
AcDbText
  0
TEXT
  5
95
330
1E
100
AcDbEntity
  8
TEXT
 62
     1
100
AcDbText
 10
226.8935731057402
 20
87.41748789253779
 30
0.0
 40
7.0
  1
Siebeinheit DN100
 41
0.8
  7
GREEKS
100
AcDbText
  0
TEXT
  5
96
330
1E
100
AcDbEntity
  8
TEXT
100
AcDbText
 10
225.1296391125315
 20
71.50334417585288
 30
0.0
 40
5.0
  1
für Bobere Balkone
 41
0.8
  7
GREEKS
100
AcDbText
  0
TEXT
  5
98
330
1E
100
AcDbEntity
  8
TEXT
100
AcDbText
 10
225.1296391125315
 20
51.64011943042158
 30
0.0
 40
5.0
  1
EDV-Art.Nr. 16304.100X
 41
0.8
  7
GREEKS
100
AcDbText
  0
TEXT
  5
99
330
1E
100
AcDbEntity
  8
TEXT
100
AcDbText
 10
224.9837501577827
 20
42.62974153022632
 30
0.0
 40
4.0
  1
16304100W.DWG
 41
0.8
  7
GREEKS
100
AcDbText
  0
TEXT
  5
9A
330
1E
100
AcDbEntity
  8
TEXT
100
AcDbText
 10
182.626132208084
 20
90.76363841023022
 30
0.0
 40
4.0
  1
DIN EN1123-2
 41
0.8
  7
GREEKS
 72
     1
 11
199.6166083985602
 21
90.76363841023022
 31
0.0
100
AcDbText
  0
INSERT
  5
9B
330
1E
100
AcDbEntity
  8
STEMPEL
100
AcDbBlockReference
  2
LOGO
 10
140.9955485457794
 20
45.02105276448322
 30
0.0
 41
2.0
 42
2.0
 43
2.0
  0
TEXT
  5
118
330
1E
100
AcDbEntity
  8
BEM
100
AcDbText
 10
417.3022923857165
 20
10.16790107998849
 30
0.0
 40
4.0
  1
Diese Zeichnung ist urheberrechtlich geschützt und bleibt unser Eigentum. Sie darf weder ganz noch teilweise verfielfältigt und nicht an Dritte weitergegeben werden.
 50
90.0
 41
0.8
  7
GREEKS
100
AcDbText
  0
LINE
  5
8CF
330
1E
100
AcDbEntity
  8
BEM
 62
     1
100
AcDbLine
 10
303.715192627109
 20
460.4082155272802
 30
0.0
 11
310.715192627109
 21
460.4082155272802
 31
0.0
  0
LINE
  5
8D0
330
1E
100
AcDbEntity
  8
BEM
 62
     1
100
AcDbLine
 10
310.715192627109
 20
453.4082155272802
 30
0.0
 11
303.715192627109
 21
453.4082155272802
 31
0.0
  0
LINE
  5
8D1
330
1E
100
AcDbEntity
  8
BEM
 62
     1
100
AcDbLine
 10
303.715192627109
 20
453.4082155272802
 30
0.0
 11
303.715192627109
 21
460.4082155272802
 31
0.0
  0
LINE
  5
8D2
330
1E
100
AcDbEntity
  8
BEM
 62
     1
100
AcDbLine
 10
310.715192627109
 20
460.4082155272802
 30
0.0
 11
310.715192627109
 21
453.4082155272802
 31
0.0
  0
LINE
  5
8D3
102
{ACAD_REACTORS
330
B26
102
}
330
1E
100
AcDbEntity
  8
STEMPEL
100
AcDbLine
 10
247.2381462273497
 20
443.3921255965299
 30
0.0
 11
247.2381462273497
 21
432.3921255965299
 31
0.0
  0
LINE
  5
8D4
102
{ACAD_REACTORS
330
B26
102
}
330
1E
100
AcDbEntity
  8
STEMPEL
100
AcDbLine
 10
244.2381462273497
 20
443.3921255965299
 30
0.0
 11
244.2381462273497
 21
435.3921255965299
 31
0.0
  0
LINE
  5
8DB
330
1E
100
AcDbEntity
  8
STEMPEL
100
AcDbLine
 10
230.0514849022305
 20
435.3921255965298
 30
0.0
 11
230.0514849022306
 21
439.3921255965299
 31
0.0
  0
POINT
  5
8DC
330
1E
100
AcDbEntity
  8
DEFPOINTS
  6
ByBlock
 62
     0
100
AcDbPoint
 10
234.2381462273497
 20
435.3921255965299
 30
0.0
  0
LINE
  5
8DE
102
{ACAD_REACTORS
330
B26
102
}
330
1E
100
AcDbEntity
  8
STEMPEL
100
AcDbLine
 10
238.7381462273497
 20
432.3921255965298
 30
0.0
 11
247.2381462273497
 21
432.3921255965299
 31
0.0
  0
LINE
  5
8E1
330
1E
100
AcDbEntity
  8
TEXT
 62
     2
100
AcDbLine
 10
282.9721610558029
 20
449.956188505522
 30
0.0
 11
242.1380220133965
 21
442.4346671840264
 31
0.0
  0
LINE
  5
8E2
330
1E
100
AcDbEntity
  8
STEMPEL
100
AcDbLine
 10
221.5514849022306
 20
435.3921255965298
 30
0.0
 11
221.5514849022306
 21
439.3921255965298
 31
0.0
  0
LINE
  5
8E9
330
1E
100
AcDbEntity
  8
MITTEL
100
AcDbLine
 10
225.8014849022305
 20
427.3921255965299
 30
0.0
 11
225.8014849022306
 21
444.3921255965298
 31
0.0
  0
LINE
  5
8EA
330
1E
100
AcDbEntity
  8
BEM
 62
     1
100
AcDbLine
 10
166.7855116648524
 20
466.1977652757147
 30
0.0
 11
166.7855116648524
 21
459.1977652757146
 31
0.0
  0
LINE
  5
8EB
330
1E
100
AcDbEntity
  8
STEMPEL
100
AcDbLine
 10
221.5514849022306
 20
439.3921255965298
 30
0.0
 11
230.0514849022306
 21
439.3921255965299
 31
0.0
  0
LINE
  5
8EE
330
1E
100
AcDbEntity
  8
STEMPEL
100
AcDbLine
 10
229.8436717754306
 20
439.3921255965299
 30
0.0
 11
221.766549538611
 21
439.3921255965299
 31
0.0
  0
LINE
  5
8EF
102
{ACAD_REACTORS
330
B26
102
}
330
1E
100
AcDbEntity
  8
STEMPEL
100
AcDbLine
 10
238.2381462273496
 20
415.3921255965298
 30
0.0
 11
238.2381462273496
 21
412.3921255965298
 31
0.0
  0
LINE
  5
8F0
102
{ACAD_REACTORS
330
B26
102
}
330
1E
100
AcDbEntity
  8
STEMPEL
100
AcDbLine
 10
238.2381462273496
 20
412.3921255965298
 30
0.0
 11
238.7381462273496
 21
412.3921255965298
 31
0.0
  0
LINE
  5
8F1
102
{ACAD_REACTORS
330
B26
102
}
330
1E
100
AcDbEntity
  8
STEMPEL
100
AcDbLine
 10
238.2381462273496
 20
415.3921255965298
 30
0.0
 11
238.7381462273496
 21
415.3921255965298
 31
0.0
  0
LINE
  5
8F2
102
{ACAD_REACTORS
330
B26
102
}
330
1E
100
AcDbEntity
  8
STEMPEL
100
AcDbLine
 10
238.2381462273496
 20
400.3921255965297
 30
0.0
 11
238.7381462273496
 21
400.3921255965297
 31
0.0
  0
LINE
  5
8F3
102
{ACAD_REACTORS
330
B26
102
}
330
1E
100
AcDbEntity
  8
STEMPEL
100
AcDbLine
 10
238.2381462273496
 20
397.3921255965298
 30
0.0
 11
238.7381462273496
 21
397.3921255965298
 31
0.0
  0
LINE
  5
8F4
102
{ACAD_REACTORS
330
B26
102
}
330
1E
100
AcDbEntity
  8
STEMPEL
100
AcDbLine
 10
238.2381462273496
 20
400.3921255965297
 30
0.0
 11
238.2381462273496
 21
397.3921255965298
 31
0.0
  0
LINE
  5
8F5
102
{ACAD_REACTORS
330
B26
102
}
330
1E
100
AcDbEntity
  8
STEMPEL
100
AcDbLine
 10
238.7381462273497
 20
412.3921255965298
 30
0.0
 11
238.7381462273497
 21
400.3921255965297
 31
0.0
  0
LINE
  5
8F6
102
{ACAD_REACTORS
330
B26
102
}
330
1E
100
AcDbEntity
  8
STEMPEL
100
AcDbLine
 10
238.2381462273496
 20
385.3921255965298
 30
0.0
 11
238.2381462273496
 21
382.3921255965298
 31
0.0
  0
LINE
  5
8F7
102
{ACAD_REACTORS
330
B26
102
}
330
1E
100
AcDbEntity
  8
STEMPEL
100
AcDbLine
 10
238.2381462273496
 20
382.3921255965298
 30
0.0
 11
238.7381462273496
 21
382.3921255965298
 31
0.0
  0
LINE
  5
8F8
102
{ACAD_REACTORS
330
B26
102
}
330
1E
100
AcDbEntity
  8
STEMPEL
100
AcDbLine
 10
238.2381462273496
 20
385.3921255965298
 30
0.0
 11
238.7381462273496
 21
385.3921255965298
 31
0.0
  0
LINE
  5
8F9
102
{ACAD_REACTORS
330
B26
102
}
330
1E
100
AcDbEntity
  8
STEMPEL
100
AcDbLine
 10
238.2381462273497
 20
370.3921255965298
 30
0.0
 11
238.7381462273496
 21
370.3921255965298
 31
0.0
  0
POINT
  5
8FA
330
1E
100
AcDbEntity
  8
DEFPOINTS
  6
ByBlock
 62
     0
100
AcDbPoint
 10
234.8557110118863
 20
377.8566750286166
 30
0.0
  0
LINE
  5
8FB
102
{ACAD_REACTORS
330
B26
102
}
330
1E
100
AcDbEntity
  8
STEMPEL
100
AcDbLine
 10
238.7381462273497
 20
382.3921255965298
 30
0.0
 11
238.7381462273497
 21
370.3921255965298
 31
0.0
  0
LINE
  5
8FC
102
{ACAD_REACTORS
330
B26
102
}
330
1E
100
AcDbEntity
  8
STEMPEL
100
AcDbLine
 10
238.7381462273497
 20
397.3921255965298
 30
0.0
 11
238.7381462273497
 21
385.3921255965298
 31
0.0
  0
LINE
  5
8FD
102
{ACAD_REACTORS
330
B26
102
}
330
1E
100
AcDbEntity
  8
STEMPEL
100
AcDbLine
 10
238.2381462273496
 20
367.3921255965297
 30
0.0
 11
238.7381462273496
 21
367.3921255965298
 31
0.0
  0
LINE
  5
8FE
102
{ACAD_REACTORS
330
B26
102
}
330
1E
100
AcDbEntity
  8
STEMPEL
100
AcDbLine
 10
238.2381462273496
 20
355.3921255965298
 30
0.0
 11
238.7381462273496
 21
355.3921255965298
 31
0.0
  0
LINE
  5
8FF
102
{ACAD_REACTORS
330
B26
102
}
330
1E
100
AcDbEntity
  8
STEMPEL
100
AcDbLine
 10
238.2381462273496
 20
352.3921255965298
 30
0.0
 11
238.7381462273496
 21
352.3921255965298
 31
0.0
  0
LINE
  5
900
102
{ACAD_REACTORS
330
B26
102
}
330
1E
100
AcDbEntity
  8
STEMPEL
100
AcDbLine
 10
238.2381462273496
 20
355.3921255965298
 30
0.0
 11
238.2381462273496
 21
352.3921255965298
 31
0.0
  0
LINE
  5
901
102
{ACAD_REACTORS
330
B26
102
}
330
1E
100
AcDbEntity
  8
STEMPEL
100
AcDbLine
 10
238.7381462273497
 20
367.3921255965298
 30
0.0
 11
238.7381462273497
 21
355.3921255965298
 31
0.0
  0
LINE
  5
902
102
{ACAD_REACTORS
330
B26
102
}
330
1E
100
AcDbEntity
  8
STEMPEL
100
AcDbLine
 10
238.2381462273496
 20
340.3921255965298
 30
0.0
 11
238.2381462273496
 21
337.3921255965298
 31
0.0
  0
LINE
  5
903
102
{ACAD_REACTORS
330
B26
102
}
330
1E
100
AcDbEntity
  8
STEMPEL
100
AcDbLine
 10
238.2381462273496
 20
337.3921255965298
 30
0.0
 11
238.7381462273496
 21
337.3921255965298
 31
0.0
  0
LINE
  5
904
102
{ACAD_REACTORS
330
B26
102
}
330
1E
100
AcDbEntity
  8
STEMPEL
100
AcDbLine
 10
238.2381462273496
 20
340.3921255965298
 30
0.0
 11
238.7381462273496
 21
340.3921255965298
 31
0.0
  0
LINE
  5
905
102
{ACAD_REACTORS
330
B26
102
}
330
1E
100
AcDbEntity
  8
STEMPEL
100
AcDbLine
 10
238.2381462273496
 20
325.3921255965298
 30
0.0
 11
238.2381462273496
 21
322.3921255965298
 31
0.0
  0
LINE
  5
906
102
{ACAD_REACTORS
330
B26
102
}
330
1E
100
AcDbEntity
  8
STEMPEL
100
AcDbLine
 10
238.2381462273496
 20
322.3921255965298
 30
0.0
 11
238.7381462273496
 21
322.3921255965298
 31
0.0
  0
LINE
  5
907
102
{ACAD_REACTORS
330
B26
102
}
330
1E
100
AcDbEntity
  8
STEMPEL
100
AcDbLine
 10
238.2381462273496
 20
325.3921255965298
 30
0.0
 11
238.7381462273496
 21
325.3921255965298
 31
0.0
  0
LINE
  5
908
102
{ACAD_REACTORS
330
B26
102
}
330
1E
100
AcDbEntity
  8
STEMPEL
100
AcDbLine
 10
238.7381462273497
 20
337.3921255965298
 30
0.0
 11
238.7381462273496
 21
325.3921255965298
 31
0.0
  0
LINE
  5
909
102
{ACAD_REACTORS
330
B26
102
}
330
1E
100
AcDbEntity
  8
STEMPEL
100
AcDbLine
 10
238.7381462273497
 20
352.3921255965298
 30
0.0
 11
238.7381462273497
 21
340.3921255965298
 31
0.0
  0
LINE
  5
90A
330
1E
100
AcDbEntity
  8
TEXT
 62
     2
100
AcDbLine
 10
282.9721610558029
 20
363.2792915393805
 30
0.0
 11
236.6956828261275
 21
355.4916232326965
 31
0.0
  0
LINE
  5
90B
102
{ACAD_REACTORS
330
B26
102
}
330
1E
100
AcDbEntity
  8
STEMPEL
100
AcDbLine
 10
238.2381462273497
 20
370.3921255965298
 30
0.0
 11
238.2381462273496
 21
367.3921255965297
 31
0.0
  0
LINE
  5
90C
102
{ACAD_REACTORS
330
B26
102
}
330
1E
100
AcDbEntity
  8
STEMPEL
100
AcDbLine
 10
238.7381462273497
 20
432.3921255965298
 30
0.0
 11
238.7381462273497
 21
415.3921255965298
 31
0.0
  0
TEXT
  5
90D
330
1E
100
AcDbEntity
  8
TEXT
 62
     1
100
AcDbText
 10
285.0920540518482
 20
353.766816817966
 30
0.0
 40
7.0
  1
EDV-Art.Nr. 16290.100X
 41
0.8
  7
GREEKS
100
AcDbText
  0
LINE
  5
90E
330
1E
100
AcDbEntity
  8
TEXT
 62
     2
100
AcDbLine
 10
282.9721610558029
 20
363.2792915393805
 30
0.0
 11
388.5972398748058
 21
363.2792915393805
 31
0.0
  0
LINE
  5
90F
330
1E
100
AcDbEntity
  8
TEXT
 62
     2
100
AcDbLine
 10
282.9721610558029
 20
449.956188505522
 30
0.0
 11
388.5972398748058
 21
449.956188505522
 31
0.0
  0
TEXT
  5
910
330
1E
100
AcDbEntity
  8
TEXT
 62
     1
100
AcDbText
 10
285.0920540518482
 20
440.4437137841075
 30
0.0
 40
7.0
  1
EDV-Art.Nr. 16197.000X
 41
0.8
  7
GREEKS
100
AcDbText
  0
TEXT
  5
911
330
1E
100
AcDbEntity
  8
TEXT
 62
     1
100
AcDbText
 10
285.0920540518482
 20
366.6591969562769
 30
0.0
 40
7.0
  1
Siebaufnahme DN100
 41
0.8
  7
GREEKS
100
AcDbText
  0
TEXT
  5
912
330
1E
100
AcDbEntity
  8
TEXT
 62
     1
100
AcDbText
 10
285.0920540518482
 20
453.3360939224183
 30
0.0
 40
7.0
  1
Sieb  143
 41
0.8
  7
GREEKS
100
AcDbText
  0
LINE
  5
913
330
1E
100
AcDbEntity
  8
BEM
 62
     1
100
AcDbLine
 10
159.7855116648523
 20
459.1977652757146
 30
0.0
 11
159.7855116648523
 21
466.1977652757147
 31
0.0
  0
LINE
  5
914
330
1E
100
AcDbEntity
  8
STEMPEL
100
AcDbLine
 10
122.9248075524685
 20
435.3921255965298
 30
0.0
 11
122.9248075524685
 21
439.3921255965298
 31
0.0
  0
LINE
  5
91A
330
1E
100
AcDbEntity
  8
STEMPEL
100
AcDbLine
 10
114.4248075524687
 20
435.3921255965298
 30
0.0
 11
114.4248075524685
 21
439.3921255965299
 31
0.0
  0
POINT
  5
91B
330
1E
100
AcDbEntity
  8
DEFPOINTS
  6
ByBlock
 62
     0
100
AcDbPoint
 10
110.2381462273495
 20
435.3921255965299
 30
0.0
  0
LINE
  5
91C
330
1E
100
AcDbEntity
  8
STEMPEL
100
AcDbLine
 10
122.9248075524685
 20
439.3921255965298
 30
0.0
 11
114.4248075524685
 21
439.3921255965299
 31
0.0
  0
LINE
  5
91D
330
1E
100
AcDbEntity
  8
STEMPEL
100
AcDbLine
 10
114.6326206792686
 20
439.3921255965299
 30
0.0
 11
122.7097429160882
 21
439.3921255965299
 31
0.0
  0
LINE
  5
91E
102
{ACAD_REACTORS
330
B26
102
}
330
1E
100
AcDbEntity
  8
STEMPEL
100
AcDbLine
 10
100.2381462273495
 20
443.3921255965299
 30
0.0
 11
100.2381462273495
 21
435.3921255965299
 31
0.0
  0
LINE
  5
925
102
{ACAD_REACTORS
330
B26
102
}
330
1E
100
AcDbEntity
  8
STEMPEL
100
AcDbLine
 10
97.23814622734948
 20
443.3921255965299
 30
0.0
 11
97.23814622734948
 21
432.3921255965299
 31
0.0
  0
LINE
  5
926
102
{ACAD_REACTORS
330
B26
102
}
330
1E
100
AcDbEntity
  8
STEMPEL
100
AcDbLine
 10
105.7381462273495
 20
432.3921255965298
 30
0.0
 11
97.23814622734948
 21
432.3921255965299
 31
0.0
  0
LINE
  5
928
330
1E
100
AcDbEntity
  8
MITTEL
100
AcDbLine
 10
118.6748075524687
 20
427.3921255965299
 30
0.0
 11
118.6748075524685
 21
444.3921255965298
 31
0.0
  0
LINE
  5
92B
102
{ACAD_REACTORS
330
B26
102
}
330
1E
100
AcDbEntity
  8
STEMPEL
100
AcDbLine
 10
106.2381462273496
 20
415.3921255965298
 30
0.0
 11
106.2381462273496
 21
412.3921255965298
 31
0.0
  0
LINE
  5
92C
102
{ACAD_REACTORS
330
B26
102
}
330
1E
100
AcDbEntity
  8
STEMPEL
100
AcDbLine
 10
106.2381462273496
 20
412.3921255965298
 30
0.0
 11
105.7381462273496
 21
412.3921255965298
 31
0.0
  0
LINE
  5
92D
102
{ACAD_REACTORS
330
B26
102
}
330
1E
100
AcDbEntity
  8
STEMPEL
100
AcDbLine
 10
106.2381462273496
 20
415.3921255965298
 30
0.0
 11
105.7381462273496
 21
415.3921255965298
 31
0.0
  0
LINE
  5
92E
102
{ACAD_REACTORS
330
B26
102
}
330
1E
100
AcDbEntity
  8
STEMPEL
100
AcDbLine
 10
106.2381462273496
 20
400.3921255965297
 30
0.0
 11
106.2381462273496
 21
397.3921255965298
 31
0.0
  0
LINE
  5
92F
102
{ACAD_REACTORS
330
B26
102
}
330
1E
100
AcDbEntity
  8
STEMPEL
100
AcDbLine
 10
106.2381462273496
 20
397.3921255965298
 30
0.0
 11
105.7381462273496
 21
397.3921255965298
 31
0.0
  0
LINE
  5
930
102
{ACAD_REACTORS
330
B26
102
}
330
1E
100
AcDbEntity
  8
STEMPEL
100
AcDbLine
 10
106.2381462273496
 20
400.3921255965297
 30
0.0
 11
105.7381462273496
 21
400.3921255965297
 31
0.0
  0
LINE
  5
931
102
{ACAD_REACTORS
330
B26
102
}
330
1E
100
AcDbEntity
  8
STEMPEL
100
AcDbLine
 10
105.7381462273495
 20
412.3921255965298
 30
0.0
 11
105.7381462273495
 21
400.3921255965297
 31
0.0
  0
LINE
  5
932
102
{ACAD_REACTORS
330
B26
102
}
330
1E
100
AcDbEntity
  8
STEMPEL
100
AcDbLine
 10
106.2381462273496
 20
385.3921255965298
 30
0.0
 11
105.7381462273496
 21
385.3921255965298
 31
0.0
  0
LINE
  5
933
102
{ACAD_REACTORS
330
B26
102
}
330
1E
100
AcDbEntity
  8
STEMPEL
100
AcDbLine
 10
106.2381462273496
 20
382.3921255965298
 30
0.0
 11
105.7381462273496
 21
382.3921255965298
 31
0.0
  0
LINE
  5
934
102
{ACAD_REACTORS
330
B26
102
}
330
1E
100
AcDbEntity
  8
STEMPEL
100
AcDbLine
 10
106.2381462273496
 20
385.3921255965298
 30
0.0
 11
106.2381462273496
 21
382.3921255965298
 31
0.0
  0
LINE
  5
935
102
{ACAD_REACTORS
330
B26
102
}
330
1E
100
AcDbEntity
  8
STEMPEL
100
AcDbLine
 10
106.2381462273495
 20
370.3921255965298
 30
0.0
 11
105.7381462273496
 21
370.3921255965298
 31
0.0
  0
LINE
  5
936
102
{ACAD_REACTORS
330
B26
102
}
330
1E
100
AcDbEntity
  8
STEMPEL
100
AcDbLine
 10
105.7381462273495
 20
382.3921255965298
 30
0.0
 11
105.7381462273495
 21
370.3921255965298
 31
0.0
  0
LINE
  5
937
102
{ACAD_REACTORS
330
B26
102
}
330
1E
100
AcDbEntity
  8
STEMPEL
100
AcDbLine
 10
105.7381462273495
 20
397.3921255965298
 30
0.0
 11
105.7381462273495
 21
385.3921255965298
 31
0.0
  0
LINE
  5
938
102
{ACAD_REACTORS
330
B26
102
}
330
1E
100
AcDbEntity
  8
STEMPEL
100
AcDbLine
 10
106.2381462273496
 20
367.3921255965297
 30
0.0
 11
105.7381462273496
 21
367.3921255965298
 31
0.0
  0
LINE
  5
939
102
{ACAD_REACTORS
330
B26
102
}
330
1E
100
AcDbEntity
  8
STEMPEL
100
AcDbLine
 10
106.2381462273496
 20
355.3921255965298
 30
0.0
 11
106.2381462273496
 21
352.3921255965298
 31
0.0
  0
LINE
  5
93A
102
{ACAD_REACTORS
330
B26
102
}
330
1E
100
AcDbEntity
  8
STEMPEL
100
AcDbLine
 10
106.2381462273496
 20
352.3921255965298
 30
0.0
 11
105.7381462273496
 21
352.3921255965298
 31
0.0
  0
LINE
  5
93B
102
{ACAD_REACTORS
330
B26
102
}
330
1E
100
AcDbEntity
  8
STEMPEL
100
AcDbLine
 10
106.2381462273496
 20
355.3921255965298
 30
0.0
 11
105.7381462273496
 21
355.3921255965298
 31
0.0
  0
LINE
  5
93C
102
{ACAD_REACTORS
330
B26
102
}
330
1E
100
AcDbEntity
  8
STEMPEL
100
AcDbLine
 10
105.7381462273495
 20
367.3921255965298
 30
0.0
 11
105.7381462273495
 21
355.3921255965298
 31
0.0
  0
LINE
  5
93D
102
{ACAD_REACTORS
330
B26
102
}
330
1E
100
AcDbEntity
  8
STEMPEL
100
AcDbLine
 10
106.2381462273496
 20
340.3921255965298
 30
0.0
 11
105.7381462273496
 21
340.3921255965298
 31
0.0
  0
LINE
  5
93E
102
{ACAD_REACTORS
330
B26
102
}
330
1E
100
AcDbEntity
  8
STEMPEL
100
AcDbLine
 10
106.2381462273496
 20
337.3921255965298
 30
0.0
 11
105.7381462273496
 21
337.3921255965298
 31
0.0
  0
LINE
  5
93F
102
{ACAD_REACTORS
330
B26
102
}
330
1E
100
AcDbEntity
  8
STEMPEL
100
AcDbLine
 10
106.2381462273496
 20
340.3921255965298
 30
0.0
 11
106.2381462273496
 21
337.3921255965298
 31
0.0
  0
LINE
  5
940
102
{ACAD_REACTORS
330
B26
102
}
330
1E
100
AcDbEntity
  8
STEMPEL
100
AcDbLine
 10
106.2381462273496
 20
325.3921255965298
 30
0.0
 11
106.2381462273496
 21
322.3921255965298
 31
0.0
  0
LINE
  5
941
102
{ACAD_REACTORS
330
B26
102
}
330
1E
100
AcDbEntity
  8
STEMPEL
100
AcDbLine
 10
106.2381462273496
 20
322.3921255965298
 30
0.0
 11
105.7381462273496
 21
322.3921255965298
 31
0.0
  0
LINE
  5
942
102
{ACAD_REACTORS
330
B26
102
}
330
1E
100
AcDbEntity
  8
STEMPEL
100
AcDbLine
 10
106.2381462273496
 20
325.3921255965298
 30
0.0
 11
105.7381462273496
 21
325.3921255965298
 31
0.0
  0
LINE
  5
943
102
{ACAD_REACTORS
330
B26
102
}
330
1E
100
AcDbEntity
  8
STEMPEL
100
AcDbLine
 10
105.7381462273495
 20
337.3921255965298
 30
0.0
 11
105.7381462273496
 21
325.3921255965298
 31
0.0
  0
LINE
  5
944
102
{ACAD_REACTORS
330
B26
102
}
330
1E
100
AcDbEntity
  8
STEMPEL
100
AcDbLine
 10
105.7381462273495
 20
352.3921255965298
 30
0.0
 11
105.7381462273495
 21
340.3921255965298
 31
0.0
  0
LINE
  5
945
102
{ACAD_REACTORS
330
B26
102
}
330
1E
100
AcDbEntity
  8
STEMPEL
100
AcDbLine
 10
106.2381462273495
 20
370.3921255965298
 30
0.0
 11
106.2381462273496
 21
367.3921255965297
 31
0.0
  0
DIMENSION
  5
946
330
1E
100
AcDbEntity
  8
BEM
100
AcDbDimension
  2
*D1
 10
84.62633862758394
 20
432.3921255965299
 30
0.0
 11
78.12633862758388
 21
412.5921255965299
 31
0.0
 70
    32
 71
     5
 42
10.99999999999988
  3
Standard
100
AcDbAlignedDimension
 13
97.23814622734948
 23
443.3921255965298
 33
0.0
 14
97.23814622734948
 24
432.3921255965299
 34
0.0
 50
90.0
100
AcDbRotatedDimension
1001
ACAD
1000
DSTYLE
1002
{
1070
    40
1040
2.0
1070
    41
1040
3.5
1070
    42
1040
1.0
1070
    43
1040
7.0
1070
    44
1040
1.0
1070
    73
1070
     0
1070
    74
1070
     0
1070
    77
1070
     1
1070
    78
1070
     8
1070
    79
1070
     2
1070
   140
1040
3.5
1070
   141
1040
1.5
1070
   146
1040
0.5142857142857144
1070
   147
1040
1.5
1070
   172
1070
     1
1070
   178
1070
     1
1070
   179
1070
     2
1070
   271
1070
     2
1070
   272
1070
     2
1070
   284
1070
     8
1070
   285
1070
     8
1070
   286
1070
     8
1002
}
  0
LINE
  5
947
102
{ACAD_REACTORS
330
B26
102
}
330
1E
100
AcDbEntity
  8
STEMPEL
100
AcDbLine
 10
105.7381462273495
 20
432.3921255965298
 30
0.0
 11
105.7381462273495
 21
415.3921255965298
 31
0.0
  0
LINE
  5
948
102
{ACAD_REACTORS
330
B26
102
}
330
1E
100
AcDbEntity
  8
STEMPEL
100
AcDbLine
 10
97.23814622734948
 20
443.3921255965298
 30
0.0
 11
247.2381462273497
 21
443.3921255965299
 31
0.0
  0
LINE
  5
949
102
{ACAD_REACTORS
330
B26
102
}
330
1E
100
AcDbEntity
  8
STEMPEL
100
AcDbLine
 10
100.2381462273495
 20
435.3921255965299
 30
0.0
 11
244.2381462273497
 21
435.3921255965299
 31
0.0
  0
DIMENSION
  5
94A
330
1E
100
AcDbEntity
  8
BEM
100
AcDbDimension
  2
*D2
 10
247.2381462273497
 20
455.8465425246651
 30
0.0
 11
175.7039789313723
 21
455.8465425246651
 31
0.0
 70
   160
 71
     5
 42
150.0000000000002
  3
Standard
100
AcDbAlignedDimension
 13
97.23814622734948
 23
443.3921255965298
 33
0.0
 14
247.2381462273497
 24
443.3921255965299
 34
0.0
100
AcDbRotatedDimension
1001
ACAD
1000
DSTYLE
1002
{
1070
    40
1040
2.0
1070
    41
1040
3.5
1070
    42
1040
1.0
1070
    43
1040
7.0
1070
    44
1040
1.0
1070
    73
1070
     0
1070
    74
1070
     0
1070
    77
1070
     1
1070
    78
1070
     8
1070
    79
1070
     2
1070
   140
1040
3.5
1070
   141
1040
1.5
1070
   146
1040
0.5142857142857144
1070
   147
1040
1.5
1070
   172
1070
     1
1070
   178
1070
     1
1070
   179
1070
     2
1070
   271
1070
     2
1070
   272
1070
     2
1070
   284
1070
     8
1070
   285
1070
     8
1070
   286
1070
     8
1002
}
  0
LINE
  5
94B
330
1E
100
AcDbEntity
  8
BEM
 62
     1
100
AcDbLine
 10
166.7855116648524
 20
459.1977652757146
 30
0.0
 11
159.7855116648523
 21
459.1977652757146
 31
0.0
  0
LINE
  5
94C
330
1E
100
AcDbEntity
  8
BEM
 62
     1
100
AcDbLine
 10
159.7855116648523
 20
466.1977652757147
 30
0.0
 11
166.7855116648524
 21
466.1977652757147
 31
0.0
  0
LINE
  5
950
102
{ACAD_REACTORS
330
B26
102
}
330
1E
100
AcDbEntity
  8
STEMPEL
100
AcDbLine
 10
238.2381462273496
 20
310.3921255965298
 30
0.0
 11
238.7381462273496
 21
310.3921255965298
 31
0.0
  0
LINE
  5
951
330
1E
100
AcDbEntity
  8
STEMPEL
100
AcDbLine
 10
238.7381462273497
 20
298.3921255965297
 30
0.0
 11
238.9381462273497
 21
298.3921255965297
 31
0.0
  0
LINE
  5
952
102
{ACAD_REACTORS
330
AD5
102
}
330
1E
100
AcDbEntity
  8
STEMPEL
100
AcDbLine
 10
238.7381462273496
 20
303.3921255965297
 30
0.0
 11
245.2381462273496
 21
303.3921255965297
 31
0.0
  0
LINE
  5
953
102
{ACAD_REACTORS
330
B26
102
}
330
1E
100
AcDbEntity
  8
STEMPEL
100
AcDbLine
 10
238.2381462273496
 20
307.3921255965298
 30
0.0
 11
238.7381462273496
 21
307.3921255965298
 31
0.0
  0
LINE
  5
954
102
{ACAD_REACTORS
330
B26
102
}
330
1E
100
AcDbEntity
  8
STEMPEL
100
AcDbLine
 10
238.2381462273496
 20
310.3921255965298
 30
0.0
 11
238.2381462273496
 21
307.3921255965298
 31
0.0
  0
ARC
  5
955
102
{ACAD_REACTORS
330
AD5
102
}
330
1E
100
AcDbEntity
  8
STEMPEL
100
AcDbCircle
 10
245.2381462273496
 20
298.3921255965297
 30
0.0
 40
5.0
100
AcDbArc
 50
0.0
 51
90.0
  0
LINE
  5
956
102
{ACAD_REACTORS
330
AD5
102
}
330
1E
100
AcDbEntity
  8
STEMPEL
100
AcDbLine
 10
246.2381462273496
 20
290.3921255965296
 30
0.0
 11
250.2381462273496
 21
290.3921255965297
 31
0.0
  0
POINT
  5
957
330
1E
100
AcDbEntity
  8
DEFPOINTS
  6
ByBlock
 62
     0
100
AcDbPoint
 10
236.8881040965969
 20
293.3921255965298
 30
0.0
  0
LINE
  5
958
102
{ACAD_REACTORS
330
AD5
102
}
330
1E
100
AcDbEntity
  8
STEMPEL
100
AcDbLine
 10
240.7381462273496
 20
274.3921255965297
 30
0.0
 11
240.7381462273496
 21
278.8921255965296
 31
0.0
  0
ARC
  5
959
102
{ACAD_REACTORS
330
AD5
102
}
330
1E
100
AcDbEntity
  8
STEMPEL
100
AcDbCircle
 10
242.2381462273496
 20
278.8921255965296
 30
0.0
 40
1.5
100
AcDbArc
 50
90.0
 51
180.0
  0
LINE
  5
95A
102
{ACAD_REACTORS
330
AD5
102
}
330
1E
100
AcDbEntity
  8
STEMPEL
100
AcDbLine
 10
242.2381462273496
 20
280.3921255965296
 30
0.0
 11
243.7381462273496
 21
280.3921255965297
 31
0.0
  0
LINE
  5
95B
102
{ACAD_REACTORS
330
AD5
102
}
330
1E
100
AcDbEntity
  8
STEMPEL
100
AcDbLine
 10
236.2381462273496
 20
274.3921255965297
 30
0.0
 11
240.7381462273496
 21
274.3921255965297
 31
0.0
  0
LINE
  5
95C
102
{ACAD_REACTORS
330
AD5
102
}
330
1E
100
AcDbEntity
  8
STEMPEL
100
AcDbLine
 10
236.2381462273496
 20
274.3921255965297
 30
0.0
 11
236.2381462273496
 21
293.3921255965297
 31
0.0
  0
LINE
  5
95D
102
{ACAD_REACTORS
330
AD5
102
}
330
1E
100
AcDbEntity
  8
STEMPEL
100
AcDbLine
 10
243.7381462273496
 20
280.3921255965297
 30
0.0
 11
243.7381462273496
 21
287.8921255965296
 31
0.0
  0
ARC
  5
95E
102
{ACAD_REACTORS
330
AD5
102
}
330
1E
100
AcDbEntity
  8
STEMPEL
100
AcDbCircle
 10
246.2381462273496
 20
287.8921255965296
 30
0.0
 40
2.5
100
AcDbArc
 50
90.0
 51
180.0
  0
LINE
  5
95F
102
{ACAD_REACTORS
330
AD5
102
}
330
1E
100
AcDbEntity
  8
STEMPEL
100
AcDbLine
 10
238.9381462273497
 20
293.3921255965298
 30
0.0
 11
238.9381462273497
 21
303.3921255965297
 31
0.0
  0
LINE
  5
960
102
{ACAD_REACTORS
330
B26
102
}
330
1E
100
AcDbEntity
  8
STEMPEL
100
AcDbLine
 10
238.7381462273496
 20
307.3921255965298
 30
0.0
 11
238.7381462273496
 21
293.3921255965298
 31
0.0
  0
LINE
  5
961
102
{ACAD_REACTORS
330
AD5
102
}
330
1E
100
AcDbEntity
  8
STEMPEL
100
AcDbLine
 10
250.2381462273496
 20
290.3921255965297
 30
0.0
 11
250.2381462273496
 21
298.3921255965297
 31
0.0
  0
LINE
  5
962
330
1E
100
AcDbEntity
  8
TEXT
 62
     2
100
AcDbLine
 10
282.9721610558029
 20
307.4715165571932
 30
0.0
 11
247.6018993740056
 21
299.6838482505092
 31
0.0
  0
LINE
  5
963
330
1E
100
AcDbEntity
  8
STEMPEL
100
AcDbLine
 10
179.7381462273496
 20
274.3921255965297
 30
0.0
 11
179.7381462273496
 21
293.3921255965297
 31
0.0
  0
LINE
  5
964
330
1E
100
AcDbEntity
  8
STEMPEL
100
AcDbLine
 10
164.7381462273496
 20
274.3921255965297
 30
0.0
 11
164.7381462273497
 21
293.3921255965297
 31
0.0
  0
LINE
  5
965
330
1E
100
AcDbEntity
  8
STEMPEL
100
AcDbLine
 10
164.7381462273496
 20
274.3921255965297
 30
0.0
 11
179.7381462273496
 21
274.3921255965297
 31
0.0
  0
TEXT
  5
966
330
1E
100
AcDbEntity
  8
TEXT
 62
     1
100
AcDbText
 10
285.0920540518482
 20
297.9590418357787
 30
0.0
 40
7.0
  1
EDV-Art.Nr. 16097.100X
 41
0.8
  7
GREEKS
100
AcDbText
  0
TEXT
  5
967
330
1E
100
AcDbEntity
  8
TEXT
 62
     1
100
AcDbText
 10
285.0920540518482
 20
310.8514219740896
 30
0.0
 40
7.0
  1
Entwässerungsring DN100
 41
0.8
  7
GREEKS
100
AcDbText
  0
LINE
  5
968
330
1E
100
AcDbEntity
  8
TEXT
 62
     2
100
AcDbLine
 10
282.9721610558029
 20
307.4715165571932
 30
0.0
 11
396.3380669238582
 21
307.4715165571932
 31
0.0
  0
LINE
  5
969
102
{ACAD_REACTORS
330
B26
102
}
330
1E
100
AcDbEntity
  8
STEMPEL
100
AcDbLine
 10
106.2381462273496
 20
310.3921255965298
 30
0.0
 11
105.7381462273496
 21
310.3921255965298
 31
0.0
  0
LINE
  5
96A
330
1E
100
AcDbEntity
  8
STEMPEL
100
AcDbLine
 10
105.5381462273495
 20
298.3921255965297
 30
0.0
 11
105.7381462273496
 21
298.3921255965297
 31
0.0
  0
LINE
  5
96B
102
{ACAD_REACTORS
330
B26
102
}
330
1E
100
AcDbEntity
  8
STEMPEL
100
AcDbLine
 10
106.2381462273496
 20
307.3921255965298
 30
0.0
 11
105.7381462273496
 21
307.3921255965298
 31
0.0
  0
ARC
  5
96C
102
{ACAD_REACTORS
330
AD5
102
}
330
1E
100
AcDbEntity
  8
STEMPEL
100
AcDbCircle
 10
99.2381462273496
 20
298.3921255965297
 30
0.0
 40
5.0
100
AcDbArc
 50
90.0
 51
180.0
  0
POINT
  5
96D
330
1E
100
AcDbEntity
  8
DEFPOINTS
  6
ByBlock
 62
     0
100
AcDbPoint
 10
94.9966687312966
 20
301.0397412503728
 30
0.0
  0
POINT
  5
96E
330
1E
100
AcDbEntity
  8
DEFPOINTS
  6
ByBlock
 62
     0
100
AcDbPoint
 10
94.58822657115002
 20
300.2301264645623
 30
0.0
  0
LINE
  5
96F
102
{ACAD_REACTORS
330
AD5
102
}
330
1E
100
AcDbEntity
  8
STEMPEL
100
AcDbLine
 10
99.2381462273496
 20
303.3921255965297
 30
0.0
 11
105.7381462273496
 21
303.3921255965297
 31
0.0
  0
LINE
  5
970
102
{ACAD_REACTORS
330
B26
102
}
330
1E
100
AcDbEntity
  8
STEMPEL
100
AcDbLine
 10
106.2381462273496
 20
310.3921255965298
 30
0.0
 11
106.2381462273496
 21
307.3921255965298
 31
0.0
  0
POINT
  5
971
330
1E
100
AcDbEntity
  8
DEFPOINTS
  6
ByBlock
 62
     0
100
AcDbPoint
 10
107.5881883581023
 20
293.3921255965298
 30
0.0
  0
LINE
  5
972
102
{ACAD_REACTORS
330
AD5
102
}
330
1E
100
AcDbEntity
  8
STEMPEL
100
AcDbLine
 10
94.2381462273496
 20
290.3921255965297
 30
0.0
 11
98.23814622734971
 21
290.3921255965297
 31
0.0
  0
ARC
  5
973
102
{ACAD_REACTORS
330
AD5
102
}
330
1E
100
AcDbEntity
  8
STEMPEL
100
AcDbCircle
 10
98.23814622734971
 20
287.8921255965297
 30
0.0
 40
2.5
100
AcDbArc
 50
0.0
 51
90.0
  0
LINE
  5
974
102
{ACAD_REACTORS
330
AD5
102
}
330
1E
100
AcDbEntity
  8
STEMPEL
100
AcDbLine
 10
103.7381462273496
 20
274.3921255965297
 30
0.0
 11
103.7381462273496
 21
278.8921255965297
 31
0.0
  0
LINE
  5
975
102
{ACAD_REACTORS
330
AD5
102
}
330
1E
100
AcDbEntity
  8
STEMPEL
100
AcDbLine
 10
103.7381462273496
 20
274.3921255965297
 30
0.0
 11
108.2381462273497
 21
274.3921255965296
 31
0.0
  0
ARC
  5
976
102
{ACAD_REACTORS
330
AD5
102
}
330
1E
100
AcDbEntity
  8
STEMPEL
100
AcDbCircle
 10
102.2381462273496
 20
278.8921255965297
 30
0.0
 40
1.5
100
AcDbArc
 50
0.0
 51
90.0
  0
LINE
  5
977
102
{ACAD_REACTORS
330
AD5
102
}
330
1E
100
AcDbEntity
  8
STEMPEL
100
AcDbLine
 10
100.7381462273496
 20
280.3921255965297
 30
0.0
 11
102.2381462273496
 21
280.3921255965297
 31
0.0
  0
LINE
  5
978
102
{ACAD_REACTORS
330
AD5
102
}
330
1E
100
AcDbEntity
  8
STEMPEL
100
AcDbLine
 10
108.2381462273496
 20
274.3921255965297
 30
0.0
 11
108.2381462273496
 21
293.3921255965297
 31
0.0
  0
LINE
  5
979
102
{ACAD_REACTORS
330
AD5
102
}
330
1E
100
AcDbEntity
  8
STEMPEL
100
AcDbLine
 10
100.7381462273496
 20
280.3921255965297
 30
0.0
 11
100.7381462273497
 21
287.8921255965297
 31
0.0
  0
LINE
  5
97A
102
{ACAD_REACTORS
330
AD5
102
}
330
1E
100
AcDbEntity
  8
STEMPEL
100
AcDbLine
 10
105.5381462273496
 20
293.3921255965297
 30
0.0
 11
105.5381462273495
 21
303.3921255965297
 31
0.0
  0
LINE
  5
97B
102
{ACAD_REACTORS
330
B26
102
}
330
1E
100
AcDbEntity
  8
STEMPEL
100
AcDbLine
 10
105.7381462273496
 20
307.3921255965298
 30
0.0
 11
105.7381462273496
 21
293.3921255965298
 31
0.0
  0
LINE
  5
97C
102
{ACAD_REACTORS
330
AD5
102
}
330
1E
100
AcDbEntity
  8
STEMPEL
100
AcDbLine
 10
94.2381462273496
 20
290.3921255965297
 30
0.0
 11
94.2381462273496
 21
298.3921255965297
 31
0.0
  0
DIMENSION
  5
97D
330
1E
100
AcDbEntity
  8
BEM
100
AcDbDimension
  2
*D3
 10
84.62633862758394
 20
303.3921255965297
 30
0.0
 11
78.12633862758389
 21
288.8921255965297
 31
0.0
 70
    32
 71
     5
 42
29.0
  3
Standard
100
AcDbAlignedDimension
 13
103.7381462273496
 23
274.3921255965297
 33
0.0
 14
99.2381462273496
 24
303.3921255965297
 34
0.0
 50
90.0
100
AcDbRotatedDimension
1001
ACAD
1000
DSTYLE
1002
{
1070
    40
1040
2.0
1070
    41
1040
3.5
1070
    42
1040
1.0
1070
    43
1040
7.0
1070
    44
1040
1.0
1070
    73
1070
     0
1070
    74
1070
     0
1070
    77
1070
     1
1070
    78
1070
     8
1070
    79
1070
     2
1070
   140
1040
3.5
1070
   141
1040
1.5
1070
   146
1040
0.5142857142857144
1070
   147
1040
1.5
1070
   172
1070
     1
1070
   178
1070
     1
1070
   179
1070
     2
1070
   271
1070
     2
1070
   272
1070
     2
1070
   284
1070
     8
1070
   285
1070
     8
1070
   286
1070
     8
1002
}
  0
LINE
  5
97F
102
{ACAD_REACTORS
330
AD5
330
B26
102
}
330
1E
100
AcDbEntity
  8
STEMPEL
100
AcDbLine
 10
105.5381462273496
 20
293.3921255965297
 30
0.0
 11
238.9381462273497
 21
293.3921255965298
 31
0.0
  0
DIMENSION
  5
980
330
1E
100
AcDbEntity
  8
BEM
100
AcDbDimension
  2
*D4
 10
240.7381462273496
 20
254.9878208118151
 30
0.0
 11
172.2381462273496
 21
261.4878208118152
 31
0.0
 70
    32
  1
%%c<>
 71
     5
 42
137.0
  3
Standard
100
AcDbAlignedDimension
 13
103.7381462273496
 23
274.3921255965297
 33
0.0
 14
240.7381462273496
 24
274.3921255965297
 34
0.0
100
AcDbRotatedDimension
1001
ACAD
1000
DSTYLE
1002
{
1070
    40
1040
2.0
1070
    41
1040
3.5
1070
    42
1040
1.0
1070
    43
1040
7.0
1070
    44
1040
1.0
1070
    73
1070
     0
1070
    74
1070
     0
1070
    77
1070
     1
1070
    78
1070
     8
1070
    79
1070
     2
1070
   140
1040
3.5
1070
   141
1040
1.5
1070
   146
1040
0.5142857142857144
1070
   147
1040
1.5
1070
   172
1070
     1
1070
   178
1070
     1
1070
   179
1070
     2
1070
   271
1070
     2
1070
   272
1070
     2
1070
   284
1070
     8
1070
   285
1070
     8
1070
   286
1070
     8
1002
}
  0
DIMENSION
  5
981
330
1E
100
AcDbEntity
  8
BEM
100
AcDbDimension
  2
*D5
 10
243.7381462273496
 20
242.5029637158954
 30
0.0
 11
172.2381462273496
 21
249.0029637158954
 31
0.0
 70
    32
  1
%%c<>
 71
     5
 42
143.0
  3
Standard
100
AcDbAlignedDimension
 13
100.7381462273496
 23
280.3921255965297
 33
0.0
 14
243.7381462273496
 24
280.3921255965297
 34
0.0
100
AcDbRotatedDimension
1001
ACAD
1000
DSTYLE
1002
{
1070
    40
1040
2.0
1070
    41
1040
3.5
1070
    42
1040
1.0
1070
    43
1040
7.0
1070
    44
1040
1.0
1070
    73
1070
     0
1070
    74
1070
     0
1070
    77
1070
     1
1070
    78
1070
     8
1070
    79
1070
     2
1070
   140
1040
3.5
1070
   141
1040
1.5
1070
   146
1040
0.5142857142857144
1070
   147
1040
1.5
1070
   172
1070
     1
1070
   178
1070
     1
1070
   179
1070
     2
1070
   271
1070
     2
1070
   272
1070
     2
1070
   284
1070
     8
1070
   285
1070
     8
1070
   286
1070
     8
1002
}
  0
DIMENSION
  5
982
330
1E
100
AcDbEntity
  8
BEM
100
AcDbDimension
  2
*D6
 10
250.2381462273496
 20
229.5839680410843
 30
0.0
 11
172.2381462273496
 21
236.0839680410843
 31
0.0
 70
    32
  1
%%c<>
 71
     5
 42
156.0
  3
Standard
100
AcDbAlignedDimension
 13
94.2381462273496
 23
290.3921255965297
 33
0.0
 14
250.2381462273496
 24
290.3921255965297
 34
0.0
100
AcDbRotatedDimension
1001
ACAD
1000
DSTYLE
1002
{
1070
    40
1040
2.0
1070
    41
1040
3.5
1070
    42
1040
1.0
1070
    43
1040
7.0
1070
    44
1040
1.0
1070
    73
1070
     0
1070
    74
1070
     0
1070
    77
1070
     1
1070
    78
1070
     8
1070
    79
1070
     2
1070
   140
1040
3.5
1070
   141
1040
1.5
1070
   146
1040
0.5142857142857144
1070
   147
1040
1.5
1070
   172
1070
     1
1070
   178
1070
     1
1070
   179
1070
     2
1070
   271
1070
     2
1070
   272
1070
     2
1070
   284
1070
     8
1070
   285
1070
     8
1070
   286
1070
     8
1002
}
  0
LINE
  5
983
102
{ACAD_REACTORS
330
B26
102
}
330
1E
100
AcDbEntity
  8
STEMPEL
100
AcDbLine
 10
234.2381462273497
 20
435.3921255965299
 30
0.0
 11
236.7381462273497
 21
293.3921255965298
 31
0.0
  0
LINE
  5
984
330
1E
100
AcDbEntity
  8
MITTEL
100
AcDbLine
 10
172.2381462273496
 20
448.3921255965297
 30
0.0
 11
172.2381462273496
 21
269.3921255965297
 31
0.0
  0
LINE
  5
985
102
{ACAD_REACTORS
330
B26
102
}
330
1E
100
AcDbEntity
  8
STEMPEL
100
AcDbLine
 10
110.2381462273495
 20
435.3921255965299
 30
0.0
 11
107.7381462273495
 21
293.3921255965298
 31
0.0
  0
DIMENSION
  5
987
330
1E
100
AcDbEntity
  8
BEM
100
AcDbDimension
  2
*D7
 10
70.62633862758395
 20
274.3921255965297
 30
0.0
 11
64.12633862758392
 21
358.8921255965297
 31
0.0
 70
    32
 71
     5
 42
169.0000000000001
  3
Standard
100
AcDbAlignedDimension
 13
97.23814622734948
 23
443.3921255965298
 33
0.0
 14
103.7381462273496
 24
274.3921255965297
 34
0.0
 50
90.0
100
AcDbRotatedDimension
1001
ACAD
1000
DSTYLE
1002
{
1070
    40
1040
2.0
1070
    41
1040
3.5
1070
    42
1040
1.0
1070
    43
1040
7.0
1070
    44
1040
1.0
1070
    73
1070
     0
1070
    74
1070
     0
1070
    77
1070
     1
1070
    78
1070
     8
1070
    79
1070
     2
1070
   140
1040
3.5
1070
   141
1040
1.5
1070
   146
1040
0.5142857142857144
1070
   147
1040
1.5
1070
   172
1070
     1
1070
   178
1070
     1
1070
   179
1070
     2
1070
   271
1070
     2
1070
   272
1070
     2
1070
   284
1070
     8
1070
   285
1070
     8
1070
   286
1070
     8
1002
}
  0
LINE
  5
988
102
{ACAD_REACTORS
330
B26
102
}
330
1E
100
AcDbEntity
  8
STEMPEL
100
AcDbLine
 10
105.7381462273496
 20
322.3921255965298
 30
0.0
 11
105.7381462273496
 21
310.3921255965298
 31
0.0
  0
LINE
  5
989
102
{ACAD_REACTORS
330
B26
102
}
330
1E
100
AcDbEntity
  8
STEMPEL
100
AcDbLine
 10
238.7381462273496
 20
322.3921255965298
 30
0.0
 11
238.7381462273496
 21
310.3921255965298
 31
0.0
  0
HATCH
  5
AD5
330
1E
100
AcDbEntity
  8
SCHRAFF
100
AcDbHatch
 10
0.0
 20
0.0
 30
0.0
210
0.0
220
0.0
230
1.0
  2
NET
 70
     0
 71
     1
 91
        2
 92
        7
 72
     1
 73
     1
 93
       13
 10
250.2381462273496
 20
298.3921255965297
 42
0.4142135623730951
 10
245.2381462273496
 20
303.3921255965297
 42
0.0
 10
238.9381462273497
 20
303.3921255965297
 42
0.0
 10
238.9381462273497
 20
293.3921255965298
 42
0.0
 10
236.2381462273496
 20
293.3921255965298
 42
0.0
 10
236.2381462273496
 20
274.3921255965297
 42
0.0
 10
240.7381462273496
 20
274.3921255965297
 42
0.0
 10
240.7381462273496
 20
278.8921255965296
 42
-0.4142135623730729
 10
242.2381462273495
 20
280.3921255965296
 42
0.0
 10
243.7381462273496
 20
280.3921255965297
 42
0.0
 10
243.7381462273496
 20
287.8921255965296
 42
-0.4142135623730885
 10
246.2381462273496
 20
290.3921255965296
 42
0.0
 10
250.2381462273496
 20
290.3921255965297
 42
0.0
 97
       13
330
955
330
952
330
95F
330
97F
330
95C
330
95B
330
958
330
959
330
95A
330
95D
330
95E
330
956
330
961
 92
        7
 72
     1
 73
     1
 93
       13
 10
105.5381462273495
 20
303.3921255965297
 42
0.0
 10
99.2381462273496
 20
303.3921255965297
 42
0.4142135623730951
 10
94.2381462273496
 20
298.3921255965297
 42
0.0
 10
94.2381462273496
 20
290.3921255965297
 42
0.0
 10
98.23814622734971
 20
290.3921255965297
 42
-0.4142135623730951
 10
100.7381462273497
 20
287.8921255965297
 42
0.0
 10
100.7381462273496
 20
280.3921255965297
 42
0.0
 10
102.2381462273496
 20
280.3921255965297
 42
-0.4142135623730951
 10
103.7381462273496
 20
278.8921255965297
 42
0.0
 10
103.7381462273496
 20
274.3921255965298
 42
0.0
 10
108.2381462273496
 20
274.3921255965296
 42
0.0
 10
108.2381462273496
 20
293.3921255965297
 42
0.0
 10
105.5381462273497
 20
293.3921255965296
 42
0.0
 97
       13
330
96F
330
96C
330
97C
330
972
330
973
330
979
330
977
330
976
330
974
330
975
330
978
330
97F
330
97A
 75
     0
 76
     1
 52
45.0
 41
20.0
 77
     0
 78
     2
 53
45.0
 43
0.0
 44
0.0
 45
-1.767766952966368
 46
1.767766952966368
 79
     0
 53
135.0
 43
0.0
 44
0.0
 45
-1.767766952966368
 46
-1.767766952966368
 79
     0
 47
0.4751618954334436
 98
        2
 10
242.4410852873602
 20
297.9037413246215
 10
97.88970336264355
 20
297.9037413246215
  0
HATCH
  5
B26
330
1E
100
AcDbEntity
  8
SCHRAFF
100
AcDbHatch
 10
0.0
 20
0.0
 30
0.0
210
0.0
220
0.0
230
1.0
  2
NET
 70
     0
 71
     1
 91
        2
 92
        7
 72
     0
 73
     1
 93
       40
 10
238.7381462273497
 20
382.3921255965298
 10
238.2381462273496
 20
382.3921255965298
 10
238.2381462273496
 20
385.3921255965298
 10
238.7381462273497
 20
385.3921255965299
 10
238.7381462273497
 20
397.3921255965299
 10
238.2381462273496
 20
397.3921255965298
 10
238.2381462273496
 20
400.3921255965297
 10
238.7381462273497
 20
400.3921255965297
 10
238.7381462273497
 20
412.3921255965298
 10
238.2381462273496
 20
412.3921255965298
 10
238.2381462273496
 20
415.3921255965298
 10
238.7381462273497
 20
415.3921255965298
 10
238.7381462273497
 20
432.3921255965298
 10
247.2381462273497
 20
432.3921255965299
 10
247.2381462273497
 20
443.3921255965299
 10
244.2381462273497
 20
443.3921255965299
 10
244.2381462273497
 20
435.3921255965299
 10
234.2381462273498
 20
435.39212559653
 10
236.7381462273497
 20
293.3921255965298
 10
238.7381462273496
 20
293.3921255965298
 10
238.7381462273496
 20
307.3921255965298
 10
238.2381462273496
 20
307.3921255965298
 10
238.2381462273496
 20
310.3921255965298
 10
238.7381462273496
 20
310.3921255965298
 10
238.7381462273496
 20
322.3921255965298
 10
238.2381462273496
 20
322.3921255965298
 10
238.2381462273496
 20
325.3921255965298
 10
238.7381462273496
 20
325.3921255965298
 10
238.7381462273497
 20
337.3921255965298
 10
238.2381462273496
 20
337.3921255965298
 10
238.2381462273496
 20
340.3921255965298
 10
238.7381462273497
 20
340.3921255965298
 10
238.7381462273497
 20
352.3921255965298
 10
238.2381462273496
 20
352.3921255965298
 10
238.2381462273496
 20
355.3921255965298
 10
238.7381462273497
 20
355.3921255965298
 10
238.7381462273497
 20
367.3921255965297
 10
238.2381462273496
 20
367.3921255965297
 10
238.2381462273497
 20
370.3921255965298
 10
238.7381462273497
 20
370.3921255965298
 97
       40
330
8F7
330
8F6
330
8F8
330
8FC
330
8F3
330
8F4
330
8F2
330
8F5
330
8F0
330
8EF
330
8F1
330
90C
330
8DE
330
8D3
330
948
330
8D4
330
949
330
983
330
97F
330
960
330
953
330
954
330
950
330
989
330
906
330
905
330
907
330
908
330
903
330
902
330
904
330
909
330
8FF
330
900
330
8FE
330
901
330
8FD
330
90B
330
8F9
330
8FB
 92
        7
 72
     0
 73
     1
 93
       40
 10
110.2381462273495
 20
435.3921255965298
 10
100.2381462273495
 20
435.39212559653
 10
100.2381462273495
 20
443.3921255965298
 10
97.2381462273495
 20
443.3921255965298
 10
97.23814622734948
 20
432.3921255965299
 10
105.7381462273495
 20
432.3921255965298
 10
105.7381462273495
 20
415.3921255965298
 10
106.2381462273496
 20
415.3921255965298
 10
106.2381462273496
 20
412.3921255965298
 10
105.7381462273495
 20
412.3921255965298
 10
105.7381462273495
 20
400.3921255965298
 10
106.2381462273496
 20
400.3921255965297
 10
106.2381462273496
 20
397.3921255965298
 10
105.7381462273495
 20
397.3921255965298
 10
105.7381462273495
 20
385.3921255965298
 10
106.2381462273496
 20
385.3921255965298
 10
106.2381462273496
 20
382.3921255965298
 10
105.7381462273495
 20
382.3921255965298
 10
105.7381462273495
 20
370.3921255965298
 10
106.2381462273495
 20
370.3921255965298
 10
106.2381462273496
 20
367.3921255965296
 10
105.7381462273495
 20
367.3921255965297
 10
105.7381462273495
 20
355.3921255965298
 10
106.2381462273496
 20
355.3921255965298
 10
106.2381462273496
 20
352.3921255965298
 10
105.7381462273495
 20
352.3921255965298
 10
105.7381462273495
 20
340.3921255965298
 10
106.2381462273496
 20
340.3921255965298
 10
106.2381462273496
 20
337.3921255965298
 10
105.7381462273495
 20
337.3921255965298
 10
105.7381462273496
 20
325.3921255965298
 10
106.2381462273496
 20
325.3921255965298
 10
106.2381462273496
 20
322.3921255965298
 10
105.7381462273496
 20
322.3921255965298
 10
105.7381462273496
 20
310.3921255965298
 10
106.2381462273496
 20
310.3921255965298
 10
106.2381462273496
 20
307.3921255965298
 10
105.7381462273496
 20
307.3921255965298
 10
105.7381462273496
 20
293.3921255965296
 10
107.7381462273494
 20
293.3921255965296
 97
       40
330
949
330
91E
330
948
330
925
330
926
330
947
330
92D
330
92B
330
92C
330
931
330
930
330
92E
330
92F
330
937
330
932
330
934
330
933
330
936
330
935
330
945
330
938
330
93C
330
93B
330
939
330
93A
330
944
330
93D
330
93F
330
93E
330
943
330
942
330
940
330
941
330
988
330
969
330
970
330
96B
330
97B
330
97F
330
985
 75
     0
 76
     1
 52
45.0
 41
15.0
 77
     0
 78
     2
 53
45.0
 43
0.0
 44
0.0
 45
-1.325825214724776
 46
1.325825214724776
 79
     0
 53
135.0
 43
0.0
 44
0.0
 45
-1.325825214724776
 46
-1.325825214724776
 79
     0
 47
0.4751618954334436
 98
        2
 10
237.2106059641487
 20
372.9793218333977
 10
107.8751593236134
 20
373.4544843376402
  0
HATCH
  5
B9C
330
1E
100
AcDbEntity
  8
SCHRAFF
100
AcDbHatch
 10
0.0
 20
0.0
 30
0.0
210
0.0
220
0.0
230
1.0
  2
_USER
 70
     0
 71
     0
 91
        8
 92
        7
 72
     1
 73
     1
 93
       12
 10
240.7381462273496
 20
441.8921255965299
 42
-0.4142135623730951
 10
242.2381462273496
 20
440.3921255965299
 42
0.0
 10
242.2381462273496
 20
435.3921255965299
 42
0.0
 10
243.7381462273496
 20
435.3921255965299
 42
0.0
 10
243.7381462273496
 20
440.3921255965299
 42
0.4142135623730951
 10
240.7381462273496
 20
443.3921255965299
 42
0.0
 10
211.2381462273496
 20
443.3921255965299
 42
0.4142135623730951
 10
208.2381462273496
 20
440.3921255965299
 42
0.0
 10
208.2381462273496
 20
439.3921255965299
 42
0.0
 10
209.7381462273496
 20
439.3921255965299
 42
0.0
 10
209.7381462273496
 20
440.3921255965299
 42
-0.4142135623730951
 10
211.2381462273496
 20
441.8921255965299
 42
0.0
 97
        0
 92
        7
 72
     1
 73
     1
 93
        8
 10
195.2381462273496
 20
440.3921255965299
 42
0.0
 10
195.2381462273496
 20
439.3921255965299
 42
0.0
 10
196.7381462273496
 20
439.3921255965299
 42
0.0
 10
196.7381462273496
 20
440.3921255965299
 42
-1.0
 10
199.7381462273496
 20
440.3921255965299
 42
0.0
 10
199.7381462273496
 20
439.3921255965299
 42
0.0
 10
201.2381462273496
 20
439.3921255965299
 42
0.0
 10
201.2381462273496
 20
440.3921255965299
 42
1.0
 97
        0
 92
        7
 72
     1
 73
     1
 93
        8
 10
182.2381462273496
 20
440.3921255965299
 42
0.0
 10
182.2381462273496
 20
439.3921255965299
 42
0.0
 10
183.7381462273496
 20
439.3921255965299
 42
0.0
 10
183.7381462273496
 20
440.3921255965299
 42
-1.0
 10
186.7381462273496
 20
440.3921255965299
 42
0.0
 10
186.7381462273496
 20
439.3921255965299
 42
0.0
 10
188.2381462273496
 20
439.3921255965299
 42
0.0
 10
188.2381462273496
 20
440.3921255965299
 42
1.0
 97
        0
 92
        7
 72
     1
 73
     1
 93
        6
 10
173.7381462273496
 20
440.3921255965299
 42
0.0
 10
173.7381462273495
 20
439.3921255965298
 42
0.0
 10
175.2381462273496
 20
439.3921255965298
 42
0.0
 10
175.2381462273496
 20
440.3921255965299
 42
0.4142135623730951
 10
172.2381462273496
 20
443.3921255965299
 42
0.0
 10
172.2381462273496
 20
441.8921255965299
 42
-0.4142135623731063
 97
        0
 92
        7
 72
     1
 73
     1
 93
        6
 10
170.7381462273496
 20
440.3921255965299
 42
-0.4142135623730951
 10
172.2381462273496
 20
441.8921255965299
 42
0.0
 10
172.2381462273496
 20
443.3921255965299
 42
0.4142135623730951
 10
169.2381462273496
 20
440.3921255965299
 42
0.0
 10
169.2381462273496
 20
439.3921255965299
 42
0.0
 10
170.7381462273496
 20
439.3921255965299
 42
0.0
 97
        0
 92
        7
 72
     1
 73
     1
 93
        8
 10
156.2381462273496
 20
440.39212559653
 42
0.0
 10
156.2381462273495
 20
439.3921255965299
 42
0.0
 10
157.7381462273496
 20
439.39212559653
 42
0.0
 10
157.7381462273496
 20
440.3921255965299
 42
-1.0
 10
160.7381462273496
 20
440.3921255965299
 42
0.0
 10
160.7381462273496
 20
439.3921255965299
 42
0.0
 10
162.2381462273496
 20
439.3921255965299
 42
0.0
 10
162.2381462273496
 20
440.3921255965299
 42
1.0
 97
        0
 92
        7
 72
     1
 73
     1
 93
        8
 10
147.7381462273496
 20
440.39212559653
 42
0.0
 10
147.7381462273496
 20
439.3921255965299
 42
0.0
 10
149.2381462273496
 20
439.3921255965299
 42
0.0
 10
149.2381462273496
 20
440.3921255965299
 42
1.0
 10
143.2381462273496
 20
440.3921255965299
 42
0.0
 10
143.2381462273496
 20
439.3921255965299
 42
0.0
 10
144.7381462273496
 20
439.3921255965299
 42
0.0
 10
144.7381462273496
 20
440.3921255965299
 42
-1.0
 97
        0
 92
        7
 72
     1
 73
     1
 93
       12
 10
133.2381462273495
 20
443.3921255965299
 42
0.0
 10
103.7381462273496
 20
443.3921255965299
 42
0.4142135623730951
 10
100.7381462273496
 20
440.3921255965299
 42
0.0
 10
100.7381462273496
 20
435.3921255965299
 42
0.0
 10
102.2381462273496
 20
435.3921255965299
 42
0.0
 10
102.2381462273496
 20
440.3921255965299
 42
-0.4142135623730951
 10
103.7381462273496
 20
441.8921255965299
 42
0.0
 10
133.2381462273496
 20
441.8921255965299
 42
-0.4142135623730951
 10
134.7381462273496
 20
440.3921255965299
 42
0.0
 10
134.7381462273496
 20
439.3921255965299
 42
0.0
 10
136.2381462273496
 20
439.3921255965299
 42
0.0
 10
136.2381462273496
 20
440.3921255965299
 42
0.4142135623730979
 97
        0
 75
     0
 76
     0
 52
45.0
 41
2.0
 77
     0
 78
     1
 53
45.0
 43
-59.84752686666064
 44
-61.27790820119031
 45
-1.414213562373094
 46
1.414213562373095
 79
     0
 47
0.2345433472151938
 98
        8
 10
219.0665434389144
 20
442.3943703725321
 10
197.9427116547509
 20
442.1598265377446
 10
185.7378309713131
 20
442.6289128079599
 10
174.4717879352848
 20
440.518023892312
 10
170.2470228883854
 20
440.518023892312
 10
156.8685951456855
 20
440.518023892312
 10
148.184353456812
 20
440.7525663277398
 10
124.0093036850108
 20
442.1598265377446
  0
LINE
  5
B9E
330
1E
100
AcDbEntity
  8
STEMPEL
100
AcDbLine
 10
103.7381462273496
 20
441.8921255965299
 30
0.0
 11
133.2381462273496
 21
441.8921255965299
 31
0.0
  0
ARC
  5
BA0
330
1E
100
AcDbEntity
  8
STEMPEL
100
AcDbCircle
 10
103.7381462273496
 20
440.3921255965299
 30
0.0
 40
1.5
100
AcDbArc
 50
90.0
 51
180.0
  0
LINE
  5
BA1
330
1E
100
AcDbEntity
  8
STEMPEL
100
AcDbLine
 10
100.7381462273496
 20
435.3921255965299
 30
0.0
 11
100.7381462273496
 21
440.3921255965299
 31
0.0
  0
LINE
  5
BA2
330
1E
100
AcDbEntity
  8
STEMPEL
100
AcDbLine
 10
102.2381462273496
 20
435.3921255965299
 30
0.0
 11
102.2381462273496
 21
440.3921255965299
 31
0.0
  0
POINT
  5
BA3
330
1E
100
AcDbEntity
  8
STEMPEL
100
AcDbPoint
 10
101.4239649100008
 20
442.3011999351647
 30
0.0
  0
ARC
  5
BA4
330
1E
100
AcDbEntity
  8
STEMPEL
100
AcDbCircle
 10
103.7381462273496
 20
440.3921255965299
 30
0.0
 40
3.0
100
AcDbArc
 50
90.0
 51
180.0
  0
ARC
  5
BA5
330
1E
100
AcDbEntity
  8
STEMPEL
100
AcDbCircle
 10
240.7381462273496
 20
440.3921255965299
 30
0.0
 40
3.0
100
AcDbArc
 50
0.0
 51
90.0
  0
LINE
  5
BA6
330
1E
100
AcDbEntity
  8
STEMPEL
100
AcDbLine
 10
173.7381462273496
 20
439.3921255965299
 30
0.0
 11
183.7381462273496
 21
439.3921255965299
 31
0.0
  0
ARC
  5
BA7
330
1E
100
AcDbEntity
  8
STEMPEL
100
AcDbCircle
 10
172.2381462273496
 20
440.3921255965299
 30
0.0
 40
3.0
100
AcDbArc
 50
0.0
 51
180.0
  0
LINE
  5
BA8
330
1E
100
AcDbEntity
  8
STEMPEL
100
AcDbLine
 10
134.7381462273496
 20
439.3921255965299
 30
0.0
 11
144.7381462273496
 21
439.3921255965299
 31
0.0
  0
LINE
  5
BA9
330
1E
100
AcDbEntity
  8
STEMPEL
100
AcDbLine
 10
134.7381462273496
 20
439.3921255965299
 30
0.0
 11
134.7381462273496
 21
440.3921255965299
 31
0.0
  0
POINT
  5
BAA
330
1E
100
AcDbEntity
  8
STEMPEL
100
AcDbPoint
 10
135.1356175983638
 20
442.7158300519591
 30
0.0
  0
LINE
  5
BAB
330
1E
100
AcDbEntity
  8
STEMPEL
100
AcDbLine
 10
136.2381462273496
 20
439.3921255965299
 30
0.0
 11
136.2381462273496
 21
440.3921255965299
 31
0.0
  0
ARC
  5
BAC
330
1E
100
AcDbEntity
  8
STEMPEL
100
AcDbCircle
 10
133.2381462273496
 20
440.3921255965299
 30
0.0
 40
1.5
100
AcDbArc
 50
0.0
 51
90.0
  0
ARC
  5
BAD
330
1E
100
AcDbEntity
  8
STEMPEL
100
AcDbCircle
 10
133.2381462273496
 20
440.3921255965299
 30
0.0
 40
3.0
100
AcDbArc
 50
0.0
 51
90.0
  0
ARC
  5
BAE
330
1E
100
AcDbEntity
  8
STEMPEL
100
AcDbCircle
 10
159.2381462273496
 20
440.3921255965299
 30
0.0
 40
1.5
100
AcDbArc
 50
0.0
 51
180.0
  0
ARC
  5
BAF
330
1E
100
AcDbEntity
  8
STEMPEL
100
AcDbCircle
 10
159.2381462273496
 20
440.3921255965299
 30
0.0
 40
3.0
100
AcDbArc
 50
0.0
 51
180.0
  0
LINE
  5
BB0
330
1E
100
AcDbEntity
  8
STEMPEL
100
AcDbLine
 10
147.7381462273496
 20
439.3921255965299
 30
0.0
 11
157.7381462273496
 21
439.3921255965299
 31
0.0
  0
ARC
  5
BB1
330
1E
100
AcDbEntity
  8
STEMPEL
100
AcDbCircle
 10
146.2381462273496
 20
440.3921255965299
 30
0.0
 40
3.0
100
AcDbArc
 50
0.0
 51
180.0
  0
LINE
  5
BB2
330
1E
100
AcDbEntity
  8
STEMPEL
100
AcDbLine
 10
143.2381462273496
 20
439.3921255965299
 30
0.0
 11
143.2381462273496
 21
440.3921255965299
 31
0.0
  0
ARC
  5
BB3
330
1E
100
AcDbEntity
  8
STEMPEL
100
AcDbCircle
 10
146.2381462273496
 20
440.3921255965299
 30
0.0
 40
1.5
100
AcDbArc
 50
0.0
 51
180.0
  0
LINE
  5
BB4
330
1E
100
AcDbEntity
  8
STEMPEL
100
AcDbLine
 10
144.7381462273496
 20
439.3921255965299
 30
0.0
 11
144.7381462273496
 21
440.3921255965299
 31
0.0
  0
LINE
  5
BB5
330
1E
100
AcDbEntity
  8
STEMPEL
100
AcDbLine
 10
147.7381462273496
 20
439.3921255965299
 30
0.0
 11
147.7381462273496
 21
440.3921255965299
 31
0.0
  0
LINE
  5
BB6
330
1E
100
AcDbEntity
  8
STEMPEL
100
AcDbLine
 10
156.2381462273496
 20
439.3921255965299
 30
0.0
 11
156.2381462273496
 21
440.3921255965299
 31
0.0
  0
LINE
  5
BB7
330
1E
100
AcDbEntity
  8
STEMPEL
100
AcDbLine
 10
157.7381462273496
 20
439.3921255965299
 30
0.0
 11
157.7381462273496
 21
440.3921255965299
 31
0.0
  0
LINE
  5
BB8
330
1E
100
AcDbEntity
  8
STEMPEL
100
AcDbLine
 10
149.2381462273496
 20
439.3921255965299
 30
0.0
 11
149.2381462273496
 21
440.3921255965299
 31
0.0
  0
LINE
  5
BB9
330
1E
100
AcDbEntity
  8
STEMPEL
100
AcDbLine
 10
160.7381462273496
 20
439.3921255965299
 30
0.0
 11
170.7381462273496
 21
439.3921255965299
 31
0.0
  0
LINE
  5
BBA
330
1E
100
AcDbEntity
  8
STEMPEL
100
AcDbLine
 10
160.7381462273496
 20
439.3921255965299
 30
0.0
 11
160.7381462273496
 21
440.3921255965299
 31
0.0
  0
LINE
  5
BBB
330
1E
100
AcDbEntity
  8
STEMPEL
100
AcDbLine
 10
162.2381462273496
 20
439.3921255965299
 30
0.0
 11
162.2381462273496
 21
440.3921255965299
 31
0.0
  0
ARC
  5
BBC
330
1E
100
AcDbEntity
  8
STEMPEL
100
AcDbCircle
 10
172.2381462273496
 20
440.3921255965299
 30
0.0
 40
1.5
100
AcDbArc
 50
0.0
 51
180.0
  0
LINE
  5
BBD
330
1E
100
AcDbEntity
  8
STEMPEL
100
AcDbLine
 10
169.2381462273496
 20
439.3921255965299
 30
0.0
 11
169.2381462273496
 21
440.3921255965299
 31
0.0
  0
LINE
  5
BBE
330
1E
100
AcDbEntity
  8
STEMPEL
100
AcDbLine
 10
170.7381462273496
 20
439.3921255965299
 30
0.0
 11
170.7381462273496
 21
440.3921255965299
 31
0.0
  0
LINE
  5
BBF
330
1E
100
AcDbEntity
  8
STEMPEL
100
AcDbLine
 10
173.7381462273496
 20
439.3921255965299
 30
0.0
 11
173.7381462273496
 21
440.3921255965299
 31
0.0
  0
LINE
  5
BC0
330
1E
100
AcDbEntity
  8
STEMPEL
100
AcDbLine
 10
199.7381462273496
 20
439.3921255965299
 30
0.0
 11
209.7381462273496
 21
439.3921255965299
 31
0.0
  0
ARC
  5
BC1
330
1E
100
AcDbEntity
  8
STEMPEL
100
AcDbCircle
 10
211.2381462273496
 20
440.3921255965299
 30
0.0
 40
1.5
100
AcDbArc
 50
90.0
 51
180.0
  0
ARC
  5
BC2
330
1E
100
AcDbEntity
  8
STEMPEL
100
AcDbCircle
 10
211.2381462273496
 20
440.3921255965299
 30
0.0
 40
3.0
100
AcDbArc
 50
90.0
 51
180.0
  0
LINE
  5
BC3
330
1E
100
AcDbEntity
  8
STEMPEL
100
AcDbLine
 10
186.7381462273496
 20
439.3921255965299
 30
0.0
 11
196.7381462273496
 21
439.3921255965299
 31
0.0
  0
ARC
  5
BC4
330
1E
100
AcDbEntity
  8
STEMPEL
100
AcDbCircle
 10
185.2381462273496
 20
440.3921255965299
 30
0.0
 40
3.0
100
AcDbArc
 50
0.0
 51
180.0
  0
LINE
  5
BC5
330
1E
100
AcDbEntity
  8
STEMPEL
100
AcDbLine
 10
182.2381462273496
 20
439.3921255965299
 30
0.0
 11
182.2381462273496
 21
440.3921255965299
 31
0.0
  0
LINE
  5
BC6
330
1E
100
AcDbEntity
  8
STEMPEL
100
AcDbLine
 10
175.2381462273496
 20
439.3921255965299
 30
0.0
 11
175.2381462273496
 21
440.3921255965299
 31
0.0
  0
LINE
  5
BC7
330
1E
100
AcDbEntity
  8
STEMPEL
100
AcDbLine
 10
186.7381462273496
 20
439.3921255965299
 30
0.0
 11
186.7381462273496
 21
440.3921255965299
 31
0.0
  0
LINE
  5
BC8
330
1E
100
AcDbEntity
  8
STEMPEL
100
AcDbLine
 10
188.2381462273496
 20
439.3921255965299
 30
0.0
 11
188.2381462273496
 21
440.3921255965299
 31
0.0
  0
LINE
  5
BC9
330
1E
100
AcDbEntity
  8
STEMPEL
100
AcDbLine
 10
183.7381462273496
 20
439.3921255965299
 30
0.0
 11
183.7381462273496
 21
440.3921255965299
 31
0.0
  0
ARC
  5
BCA
330
1E
100
AcDbEntity
  8
STEMPEL
100
AcDbCircle
 10
185.2381462273496
 20
440.3921255965299
 30
0.0
 40
1.5
100
AcDbArc
 50
0.0
 51
180.0
  0
ARC
  5
BCB
330
1E
100
AcDbEntity
  8
STEMPEL
100
AcDbCircle
 10
198.2381462273496
 20
440.3921255965299
 30
0.0
 40
3.0
100
AcDbArc
 50
0.0
 51
180.0
  0
ARC
  5
BCC
330
1E
100
AcDbEntity
  8
STEMPEL
100
AcDbCircle
 10
198.2381462273496
 20
440.3921255965299
 30
0.0
 40
1.5
100
AcDbArc
 50
0.0
 51
180.0
  0
LINE
  5
BCD
330
1E
100
AcDbEntity
  8
STEMPEL
100
AcDbLine
 10
195.2381462273496
 20
439.3921255965299
 30
0.0
 11
195.2381462273496
 21
440.3921255965299
 31
0.0
  0
LINE
  5
BCE
330
1E
100
AcDbEntity
  8
STEMPEL
100
AcDbLine
 10
196.7381462273496
 20
439.3921255965299
 30
0.0
 11
196.7381462273496
 21
440.3921255965299
 31
0.0
  0
LINE
  5
BCF
330
1E
100
AcDbEntity
  8
STEMPEL
100
AcDbLine
 10
199.7381462273496
 20
439.3921255965299
 30
0.0
 11
199.7381462273496
 21
440.3921255965299
 31
0.0
  0
LINE
  5
BD0
330
1E
100
AcDbEntity
  8
STEMPEL
100
AcDbLine
 10
208.2381462273496
 20
439.3921255965299
 30
0.0
 11
208.2381462273496
 21
440.3921255965299
 31
0.0
  0
LINE
  5
BD1
330
1E
100
AcDbEntity
  8
STEMPEL
100
AcDbLine
 10
201.2381462273496
 20
439.3921255965299
 30
0.0
 11
201.2381462273496
 21
440.3921255965299
 31
0.0
  0
LINE
  5
BD2
330
1E
100
AcDbEntity
  8
STEMPEL
100
AcDbLine
 10
240.7381462273496
 20
441.8921255965299
 30
0.0
 11
211.2381462273496
 21
441.8921255965299
 31
0.0
  0
LINE
  5
BD3
330
1E
100
AcDbEntity
  8
STEMPEL
100
AcDbLine
 10
209.7381462273496
 20
439.3921255965299
 30
0.0
 11
209.7381462273496
 21
440.3921255965299
 31
0.0
  0
ARC
  5
BD4
330
1E
100
AcDbEntity
  8
STEMPEL
100
AcDbCircle
 10
240.7381462273496
 20
440.3921255965299
 30
0.0
 40
1.5
100
AcDbArc
 50
0.0
 51
90.0
  0
LINE
  5
BD5
330
1E
100
AcDbEntity
  8
STEMPEL
100
AcDbLine
 10
242.2381462273496
 20
435.3921255965299
 30
0.0
 11
242.2381462273496
 21
440.3921255965299
 31
0.0
  0
LINE
  5
BD6
330
1E
100
AcDbEntity
  8
STEMPEL
100
AcDbLine
 10
243.7381462273496
 20
435.3921255965299
 30
0.0
 11
243.7381462273496
 21
440.3921255965299
 31
0.0
  0
ENDSEC
  0
SECTION
  2
OBJECTS
  0
DICTIONARY
  5
C
330
0
100
AcDbDictionary
281
     1
  3
ACAD_COLOR
350
DF
  3
ACAD_GROUP
350
D
  3
ACAD_LAYOUT
350
19
  3
ACAD_MATERIAL
350
DE
  3
ACAD_MLINESTYLE
350
16
  3
ACAD_PLOTSETTINGS
350
18
  3
ACAD_PLOTSTYLENAME
350
E
  3
AcDbVariableDictionary
350
EA
  0
DICTIONARY
  5
A0
330
1E
100
AcDbDictionary
280
     1
281
     1
  3
ACAD_LAYOUTSELFREF
360
D4
  0
DICTIONARY
  5
A2
330
1A
100
AcDbDictionary
280
     1
281
     1
  3
ACAD_LAYOUTSELFREF
360
D3
  0
DICTIONARY
  5
DF
102
{ACAD_REACTORS
330
C
102
}
330
C
100
AcDbDictionary
281
     1
  0
DICTIONARY
  5
D
102
{ACAD_REACTORS
330
C
102
}
330
C
100
AcDbDictionary
281
     1
  0
DICTIONARY
  5
19
102
{ACAD_REACTORS
330
C
102
}
330
C
100
AcDbDictionary
281
     1
  3
Layout1
350
1D
  3
Model
350
21
  0
DICTIONARY
  5
DE
102
{ACAD_REACTORS
330
C
102
}
330
C
100
AcDbDictionary
281
     1
  0
DICTIONARY
  5
16
102
{ACAD_REACTORS
330
C
102
}
330
C
100
AcDbDictionary
281
     1
  3
Standard
350
17
  0
DICTIONARY
  5
18
102
{ACAD_REACTORS
330
C
102
}
330
C
100
AcDbDictionary
281
     1
  0
ACDBDICTIONARYWDFLT
  5
E
102
{ACAD_REACTORS
330
C
102
}
330
C
100
AcDbDictionary
281
     1
  3
Normal
350
F
100
AcDbDictionaryWithDefault
340
F
  0
DICTIONARY
  5
EA
102
{ACAD_REACTORS
330
C
102
}
330
C
100
AcDbDictionary
281
     1
  3
DIMASSOC
350
EB
  3
PROJECTNAME
350
EC
  0
XRECORD
  5
D4
102
{ACAD_REACTORS
330
A0
102
}
330
A0
100
AcDbXrecord
280
     1
340
1E
  0
XRECORD
  5
D3
102
{ACAD_REACTORS
330
A2
102
}
330
A2
100
AcDbXrecord
280
     1
340
1A
  0
LAYOUT
  5
1D
102
{ACAD_REACTORS
330
19
102
}
330
19
100
AcDbPlotSettings
  1

  2
\\NT_WORK01\HP LaserJet 5000 PCL 6
  4

  6

 40
0.0
 41
0.0
 42
0.0
 43
0.0
 44
0.0
 45
0.0
 46
0.0
 47
0.0
 48
0.0
 49
0.0
140
0.0
141
0.0
142
1.0
143
1.0
 70
   688
 72
     0
 73
     0
 74
     5
  7

 75
    16
147
1.0
 76
     0
 77
     2
 78
   300
148
0.0
149
0.0
100
AcDbLayout
  1
Layout1
 70
     0
 71
     1
 10
0.0
 20
0.0
 11
12.0
 21
9.0
 12
0.0
 22
0.0
 32
0.0
 14
1.000000000000000E+20
 24
1.000000000000000E+20
 34
1.000000000000000E+20
 15
-1.000000000000000E+20
 25
-1.000000000000000E+20
 35
-1.000000000000000E+20
146
0.0
 13
0.0
 23
0.0
 33
0.0
 16
1.0
 26
0.0
 36
0.0
 17
0.0
 27
1.0
 37
0.0
 76
     0
330
1A
  0
LAYOUT
  5
21
102
{ACAD_REACTORS
330
19
102
}
330
19
100
AcDbPlotSettings
  1

  2
none_device
  4
Letter_(8.50_x_11.00_Inches)
  6

 40
6.349999904632568
 41
6.349999904632568
 42
6.350006103515625
 43
6.350006103515625
 44
215.8999938964844
 45
279.3999938964844
 46
0.0
 47
0.0
 48
0.0
 49
0.0
140
0.0
141
0.0
142
1.0
143
1.0
 70
 11952
 72
     0
 73
     1
 74
     0
  7

 75
     0
147
1.0
 76
     0
 77
     2
 78
   300
148
2271.182927525775
149
61.38286835354393
100
AcDbLayout
  1
Model
 70
     1
 71
     0
 10
0.0
 20
0.0
 11
12.0
 21
9.0
 12
0.0
 22
0.0
 32
0.0
 14
0.0
 24
0.0
 34
0.0
 15
0.0
 25
0.0
 35
0.0
146
0.0
 13
0.0
 23
0.0
 33
0.0
 16
1.0
 26
0.0
 36
0.0
 17
0.0
 27
1.0
 37
0.0
 76
     0
330
1E
  0
MLINESTYLE
  5
17
102
{ACAD_REACTORS
330
16
102
}
330
16
100
AcDbMlineStyle
  2
STANDARD
 70
     0
  3

 62
   256
 51
90.0
 52
90.0
 71
     2
 49
0.5
 62
   256
  6
BYLAYER
 49
-0.5
 62
   256
  6
BYLAYER
  0
ACDBPLACEHOLDER
  5
F
102
{ACAD_REACTORS
330
E
102
}
330
E
  0
DICTIONARYVAR
  5
EB
102
{ACAD_REACTORS
330
EA
102
}
330
EA
100
DictionaryVariables
280
     0
  1
1
  0
DICTIONARYVAR
  5
EC
102
{ACAD_REACTORS
330
EA
102
}
330
EA
100
DictionaryVariables
280
     0
  1

  0
ENDSEC
  0
EOF
