  0
SECTION
  2
HEADER
  9
$ACADVER
  1
AC1018
  9
$ACADMAINTVER
 70
     2
  9
$DWGCODEPAGE
  3
ANSI_1252
  9
$INSBASE
 10
0.0
 20
0.0
 30
0.0
  9
$EXTMIN
 10
-0.0128100481844058
 20
-0.0181170681471485
 30
-0.0000000000000053
  9
$EXTMAX
 10
420.0128212946063
 20
594.0181329738
 30
0.0000000000000099
  9
$LIMMIN
 10
0.0
 20
0.0
  9
$LIMMAX
 10
419.9999999999999
 20
594.0
  9
$ORTHOMODE
 70
     1
  9
$REGENMODE
 70
     1
  9
$FILLMODE
 70
     1
  9
$QTEXTMODE
 70
     0
  9
$MIRRTEXT
 70
     1
  9
$LTSCALE
 40
20.0
  9
$ATTMODE
 70
     1
  9
$TEXTSIZE
 40
3.5
  9
$TRACEWID
 40
0.5
  9
$TEXTSTYLE
  7
STANDARD
  9
$CLAYER
  8
SCHRAFF
  9
$CELTYPE
  6
ByLayer
  9
$CECOLOR
 62
   256
  9
$CELTSCALE
 40
1.0
  9
$DISPSILH
 70
     0
  9
$DIMSCALE
 40
2.0
  9
$DIMASZ
 40
3.5
  9
$DIMEXO
 40
1.0
  9
$DIMDLI
 40
7.0
  9
$DIMRND
 40
0.0
  9
$DIMDLE
 40
0.0
  9
$DIMEXE
 40
1.0
  9
$DIMTP
 40
0.0
  9
$DIMTM
 40
0.0
  9
$DIMTXT
 40
3.5
  9
$DIMCEN
 40
1.5
  9
$DIMTSZ
 40
0.0
  9
$DIMTOL
 70
     0
  9
$DIMLIM
 70
     0
  9
$DIMTIH
 70
     0
  9
$DIMTOH
 70
     0
  9
$DIMSE1
 70
     0
  9
$DIMSE2
 70
     0
  9
$DIMTAD
 70
     1
  9
$DIMZIN
 70
     8
  9
$DIMBLK
  1

  9
$DIMASO
 70
     1
  9
$DIMSHO
 70
     0
  9
$DIMPOST
  1

  9
$DIMAPOST
  1

  9
$DIMALT
 70
     0
  9
$DIMALTD
 70
     2
  9
$DIMALTF
 40
25.4
  9
$DIMLFAC
 40
1.0
  9
$DIMTOFL
 70
     1
  9
$DIMTVP
 40
0.0
  9
$DIMTIX
 70
     0
  9
$DIMSOXD
 70
     0
  9
$DIMSAH
 70
     0
  9
$DIMBLK1
  1

  9
$DIMBLK2
  1

  9
$DIMSTYLE
  2
Standard
  9
$DIMCLRD
 70
     0
  9
$DIMCLRE
 70
     0
  9
$DIMCLRT
 70
     1
  9
$DIMTFAC
 40
0.5142857142857144
  9
$DIMGAP
 40
1.5
  9
$DIMJUST
 70
     0
  9
$DIMSD1
 70
     0
  9
$DIMSD2
 70
     0
  9
$DIMTOLJ
 70
     1
  9
$DIMTZIN
 70
     8
  9
$DIMALTZ
 70
     8
  9
$DIMALTTZ
 70
     8
  9
$DIMUPT
 70
     0
  9
$DIMDEC
 70
     2
  9
$DIMTDEC
 70
     2
  9
$DIMALTU
 70
     2
  9
$DIMALTTD
 70
     2
  9
$DIMTXSTY
  7
STANDARD
  9
$DIMAUNIT
 70
     0
  9
$DIMADEC
 70
     2
  9
$DIMALTRND
 40
0.0
  9
$DIMAZIN
 70
     2
  9
$DIMDSEP
 70
    46
  9
$DIMATFIT
 70
     3
  9
$DIMFRAC
 70
     0
  9
$DIMLDRBLK
  1

  9
$DIMLUNIT
 70
     2
  9
$DIMLWD
 70
    -2
  9
$DIMLWE
 70
    -2
  9
$DIMTMOVE
 70
     0
  9
$LUNITS
 70
     2
  9
$LUPREC
 70
     2
  9
$SKETCHINC
 40
1.0
  9
$FILLETRAD
 40
0.0
  9
$AUNITS
 70
     0
  9
$AUPREC
 70
     0
  9
$MENU
  1
ACAD
  9
$ELEVATION
 40
0.0
  9
$PELEVATION
 40
0.0
  9
$THICKNESS
 40
0.0
  9
$LIMCHECK
 70
     0
  9
$CHAMFERA
 40
0.0
  9
$CHAMFERB
 40
0.0
  9
$CHAMFERC
 40
0.0
  9
$CHAMFERD
 40
0.0
  9
$SKPOLY
 70
     0
  9
$TDCREATE
 40
2455397.864709028
  9
$TDUCREATE
 40
2455397.781375695
  9
$TDUPDATE
 40
2455462.340647558
  9
$TDUUPDATE
 40
2455462.257314225
  9
$TDINDWG
 40
0.0257338079
  9
$TDUSRTIMER
 40
0.0257338079
  9
$USRTIMER
 70
     1
  9
$ANGBASE
 50
0.0
  9
$ANGDIR
 70
     0
  9
$PDMODE
 70
     0
  9
$PDSIZE
 40
0.0
  9
$PLINEWID
 40
0.0
  9
$SPLFRAME
 70
     0
  9
$SPLINETYPE
 70
     6
  9
$SPLINESEGS
 70
     8
  9
$HANDSEED
  5
677
  9
$SURFTAB1
 70
     6
  9
$SURFTAB2
 70
     6
  9
$SURFTYPE
 70
     6
  9
$SURFU
 70
     6
  9
$SURFV
 70
     6
  9
$UCSBASE
  2

  9
$UCSNAME
  2

  9
$UCSORG
 10
0.0
 20
0.0
 30
0.0
  9
$UCSXDIR
 10
1.0
 20
0.0
 30
0.0
  9
$UCSYDIR
 10
0.0
 20
1.0
 30
0.0
  9
$UCSORTHOREF
  2

  9
$UCSORTHOVIEW
 70
     0
  9
$UCSORGTOP
 10
0.0
 20
0.0
 30
0.0
  9
$UCSORGBOTTOM
 10
0.0
 20
0.0
 30
0.0
  9
$UCSORGLEFT
 10
0.0
 20
0.0
 30
0.0
  9
$UCSORGRIGHT
 10
0.0
 20
0.0
 30
0.0
  9
$UCSORGFRONT
 10
0.0
 20
0.0
 30
0.0
  9
$UCSORGBACK
 10
0.0
 20
0.0
 30
0.0
  9
$PUCSBASE
  2

  9
$PUCSNAME
  2

  9
$PUCSORG
 10
0.0
 20
0.0
 30
0.0
  9
$PUCSXDIR
 10
1.0
 20
0.0
 30
0.0
  9
$PUCSYDIR
 10
0.0
 20
1.0
 30
0.0
  9
$PUCSORTHOREF
  2

  9
$PUCSORTHOVIEW
 70
     0
  9
$PUCSORGTOP
 10
0.0
 20
0.0
 30
0.0
  9
$PUCSORGBOTTOM
 10
0.0
 20
0.0
 30
0.0
  9
$PUCSORGLEFT
 10
0.0
 20
0.0
 30
0.0
  9
$PUCSORGRIGHT
 10
0.0
 20
0.0
 30
0.0
  9
$PUCSORGFRONT
 10
0.0
 20
0.0
 30
0.0
  9
$PUCSORGBACK
 10
0.0
 20
0.0
 30
0.0
  9
$USERI1
 70
     0
  9
$USERI2
 70
     0
  9
$USERI3
 70
     0
  9
$USERI4
 70
     0
  9
$USERI5
 70
     0
  9
$USERR1
 40
0.0
  9
$USERR2
 40
0.0
  9
$USERR3
 40
0.0
  9
$USERR4
 40
0.0
  9
$USERR5
 40
0.0
  9
$WORLDVIEW
 70
     1
  9
$SHADEDGE
 70
     3
  9
$SHADEDIF
 70
    70
  9
$TILEMODE
 70
     1
  9
$MAXACTVP
 70
    16
  9
$PINSBASE
 10
0.0
 20
0.0
 30
0.0
  9
$PLIMCHECK
 70
     0
  9
$PEXTMIN
 10
1.000000000000000E+20
 20
1.000000000000000E+20
 30
1.000000000000000E+20
  9
$PEXTMAX
 10
-1.000000000000000E+20
 20
-1.000000000000000E+20
 30
-1.000000000000000E+20
  9
$PLIMMIN
 10
0.0
 20
0.0
  9
$PLIMMAX
 10
12.0
 20
9.0
  9
$UNITMODE
 70
     0
  9
$VISRETAIN
 70
     0
  9
$PLINEGEN
 70
     0
  9
$PSLTSCALE
 70
     0
  9
$TREEDEPTH
 70
  3020
  9
$CMLSTYLE
  2
Standard
  9
$CMLJUST
 70
     0
  9
$CMLSCALE
 40
1.0
  9
$PROXYGRAPHICS
 70
     1
  9
$MEASUREMENT
 70
     0
  9
$CELWEIGHT
370
    -1
  9
$ENDCAPS
280
     0
  9
$JOINSTYLE
280
     0
  9
$LWDISPLAY
290
     0
  9
$INSUNITS
 70
     0
  9
$HYPERLINKBASE
  1

  9
$STYLESHEET
  1
monochrome 1.ctb
  9
$XEDIT
290
     1
  9
$CEPSNTYPE
380
     0
  9
$PSTYLEMODE
290
     1
  9
$FINGERPRINTGUID
  2
{D68B0D02-A558-11D7-B632-000102183313}
  9
$VERSIONGUID
  2
{A329DEEB-4A59-4B4E-88F2-11D69895F151}
  9
$EXTNAMES
290
     1
  9
$PSVPSCALE
 40
0.0
  9
$OLESTARTUP
290
     0
  9
$SORTENTS
280
   127
  9
$INDEXCTL
280
     0
  9
$HIDETEXT
280
     0
  9
$XCLIPFRAME
290
     0
  9
$HALOGAP
280
     0
  9
$OBSCOLOR
 70
   257
  9
$OBSLTYPE
280
     0
  9
$INTERSECTIONDISPLAY
280
     0
  9
$INTERSECTIONCOLOR
 70
   257
  9
$DIMASSOC
280
     1
  9
$PROJECTNAME
  1

  0
ENDSEC
  0
SECTION
  2
CLASSES
  0
CLASS
  1
ACDBDICTIONARYWDFLT
  2
AcDbDictionaryWithDefault
  3
ObjectDBX Classes
 90
        0
 91
        1
280
     0
281
     0
  0
CLASS
  1
DICTIONARYVAR
  2
AcDbDictionaryVar
  3
ObjectDBX Classes
 90
        0
 91
        2
280
     0
281
     0
  0
ENDSEC
  0
SECTION
  2
TABLES
  0
TABLE
  2
VPORT
  5
8
330
0
100
AcDbSymbolTable
 70
     2
  0
VPORT
  5
676
330
8
100
AcDbSymbolTableRecord
100
AcDbViewportTableRecord
  2
*Active
 70
     0
 10
0.0
 20
0.0
 11
1.0
 21
1.0
 12
210.000005623211
 22
297.0000079528264
 13
0.0
 23
0.0
 14
1.0
 24
1.0
 15
10.0
 25
10.0
 16
0.0
 26
0.0
 36
1.0
 17
0.0
 27
0.0
 37
0.0
 40
598.8333126264042
 41
1.336927223719676
 42
50.0
 43
0.0
 44
0.0
 50
0.0
 51
0.0
 71
     0
 72
  1500
 73
     1
 74
     0
 75
     0
 76
     0
 77
     0
 78
     0
281
     0
 65
     1
110
0.0
120
0.0
130
0.0
111
1.0
121
0.0
131
0.0
112
0.0
122
1.0
132
0.0
 79
     0
146
0.0
  0
ENDTAB
  0
TABLE
  2
LTYPE
  5
5
330
0
100
AcDbSymbolTable
 70
     3
  0
LTYPE
  5
13
330
5
100
AcDbSymbolTableRecord
100
AcDbLinetypeTableRecord
  2
ByBlock
 70
     0
  3

 72
    65
 73
     0
 40
0.0
  0
LTYPE
  5
14
330
5
100
AcDbSymbolTableRecord
100
AcDbLinetypeTableRecord
  2
ByLayer
 70
     0
  3

 72
    65
 73
     0
 40
0.0
  0
LTYPE
  5
15
330
5
100
AcDbSymbolTableRecord
100
AcDbLinetypeTableRecord
  2
Continuous
 70
     0
  3
Solid line
 72
    65
 73
     0
 40
0.0
  0
LTYPE
  5
25
330
5
100
AcDbSymbolTableRecord
100
AcDbLinetypeTableRecord
  2
STRICHPUNKT
 70
     0
  3
__ . __ . __ . __ . __ . __ . __ . __ . __ . __
 72
    65
 73
     4
 40
1.0
 49
0.5
 74
     0
 49
-0.25
 74
     0
 49
0.0
 74
     0
 49
-0.25
 74
     0
  0
LTYPE
  5
27
330
5
100
AcDbSymbolTableRecord
100
AcDbLinetypeTableRecord
  2
RAND
 70
     0
  3
__ __ . __ __ . __ __ . __ __ . __ __ . __ __
 72
    65
 73
     6
 40
1.75
 49
0.5
 74
     0
 49
-0.25
 74
     0
 49
0.5
 74
     0
 49
-0.25
 74
     0
 49
0.0
 74
     0
 49
-0.25
 74
     0
  0
ENDTAB
  0
TABLE
  2
LAYER
  5
2
330
0
100
AcDbSymbolTable
 70
     9
  0
LAYER
  5
10
330
2
100
AcDbSymbolTableRecord
100
AcDbLayerTableRecord
  2
0
 70
     0
 62
     7
  6
Continuous
370
    -3
390
F
  0
LAYER
  5
2A
330
2
100
AcDbSymbolTableRecord
100
AcDbLayerTableRecord
  2
VOLL
 70
     0
 62
     1
  6
Continuous
370
    -3
390
F
  0
LAYER
  5
2B
330
2
100
AcDbSymbolTableRecord
100
AcDbLayerTableRecord
  2
HILF
 70
     0
 62
     2
  6
Continuous
370
    -3
390
F
  0
LAYER
  5
2C
330
2
100
AcDbSymbolTableRecord
100
AcDbLayerTableRecord
  2
MITTEL
 70
     0
 62
     2
  6
STRICHPUNKT
370
    -3
390
F
  0
LAYER
  5
2F
330
2
100
AcDbSymbolTableRecord
100
AcDbLayerTableRecord
  2
BEM
 70
     0
 62
     7
  6
Continuous
370
    -3
390
F
  0
LAYER
  5
30
330
2
100
AcDbSymbolTableRecord
100
AcDbLayerTableRecord
  2
STEMPEL
 70
     0
 62
     3
  6
Continuous
370
    -3
390
F
  0
LAYER
  5
31
330
2
100
AcDbSymbolTableRecord
100
AcDbLayerTableRecord
  2
TEXT
 70
     0
 62
     7
  6
Continuous
370
    -3
390
F
  0
LAYER
  5
318
330
2
100
AcDbSymbolTableRecord
100
AcDbLayerTableRecord
  2
DEFPOINTS
 70
     0
 62
     4
  6
RAND
290
     0
370
    -3
390
F
  0
LAYER
  5
319
330
2
100
AcDbSymbolTableRecord
100
AcDbLayerTableRecord
  2
SCHRAFF
 70
     0
 62
     7
  6
Continuous
370
    -3
390
F
  0
ENDTAB
  0
TABLE
  2
STYLE
  5
3
330
0
100
AcDbSymbolTable
 70
     2
  0
STYLE
  5
11
330
3
100
AcDbSymbolTableRecord
100
AcDbTextStyleTableRecord
  2
STANDARD
 70
     0
 40
0.0
 41
0.8
 50
0.0
 71
     0
 42
3.5
  3
simplex.shx
  4

  0
STYLE
  5
24
330
3
100
AcDbSymbolTableRecord
100
AcDbTextStyleTableRecord
  2
GREEKS
 70
     0
 40
0.0
 41
0.8
 50
0.0
 71
     0
 42
2.5
  3
SIMPLEX.shx
  4

  0
ENDTAB
  0
TABLE
  2
VIEW
  5
6
330
0
100
AcDbSymbolTable
 70
     0
  0
ENDTAB
  0
TABLE
  2
UCS
  5
7
330
0
100
AcDbSymbolTable
 70
     0
  0
ENDTAB
  0
TABLE
  2
APPID
  5
9
330
0
100
AcDbSymbolTable
 70
     1
  0
APPID
  5
12
330
9
100
AcDbSymbolTableRecord
100
AcDbRegAppTableRecord
  2
ACAD
 70
     0
  0
ENDTAB
  0
TABLE
  2
DIMSTYLE
  5
A
330
0
100
AcDbSymbolTable
 70
     1
100
AcDbDimStyleTable
 71
     1
340
9D
  0
DIMSTYLE
105
9D
102
{ACAD_REACTORS
330
499
330
496
330
495
330
494
330
493
330
460
330
45E
102
}
330
A
100
AcDbSymbolTableRecord
100
AcDbDimStyleTableRecord
  2
Standard
 70
     0
340
11
  0
ENDTAB
  0
TABLE
  2
BLOCK_RECORD
  5
1
330
0
100
AcDbSymbolTable
 70
     8
  0
BLOCK_RECORD
  5
1E
102
{ACAD_XDICTIONARY
360
A0
102
}
330
1
100
AcDbSymbolTableRecord
100
AcDbBlockTableRecord
  2
*Model_Space
340
21
  0
BLOCK_RECORD
  5
1A
102
{ACAD_XDICTIONARY
360
A2
102
}
330
1
100
AcDbSymbolTableRecord
100
AcDbBlockTableRecord
  2
*Paper_Space
340
1D
  0
BLOCK_RECORD
  5
22
330
1
100
AcDbSymbolTableRecord
100
AcDbBlockTableRecord
  2
LOGO
340
0
102
{BLKREFS
331
9B
102
}
  0
BLOCK_RECORD
  5
4A0
330
1
100
AcDbSymbolTableRecord
100
AcDbBlockTableRecord
  2
*D1
340
0
  0
BLOCK_RECORD
  5
4AD
330
1
100
AcDbSymbolTableRecord
100
AcDbBlockTableRecord
  2
*D2
340
0
  0
BLOCK_RECORD
  5
4BA
330
1
100
AcDbSymbolTableRecord
100
AcDbBlockTableRecord
  2
*D3
340
0
  0
BLOCK_RECORD
  5
4C7
330
1
100
AcDbSymbolTableRecord
100
AcDbBlockTableRecord
  2
*D4
340
0
  0
BLOCK_RECORD
  5
4D4
330
1
100
AcDbSymbolTableRecord
100
AcDbBlockTableRecord
  2
*D5
340
0
  0
BLOCK_RECORD
  5
4E1
330
1
100
AcDbSymbolTableRecord
100
AcDbBlockTableRecord
  2
*D6
340
0
  0
BLOCK_RECORD
  5
4EE
330
1
100
AcDbSymbolTableRecord
100
AcDbBlockTableRecord
  2
*D7
340
0
  0
ENDTAB
  0
ENDSEC
  0
SECTION
  2
BLOCKS
  0
BLOCK
  5
35
330
1E
100
AcDbEntity
  8
0
100
AcDbBlockBegin
  2
*Model_Space
 70
     0
 10
0.0
 20
0.0
 30
0.0
  3
*Model_Space
  1

  0
ENDBLK
  5
36
330
1E
100
AcDbEntity
  8
0
100
AcDbBlockEnd
  0
BLOCK
  5
33
330
1A
100
AcDbEntity
 67
     1
  8
0
100
AcDbBlockBegin
  2
*Paper_Space
 70
     0
 10
0.0
 20
0.0
 30
0.0
  3
*Paper_Space
  1

  0
ENDBLK
  5
34
330
1A
100
AcDbEntity
 67
     1
  8
0
100
AcDbBlockEnd
  0
BLOCK
  5
37
330
22
100
AcDbEntity
  8
0
100
AcDbBlockBegin
  2
LOGO
 70
     0
 10
0.0
 20
0.0
 30
0.0
  3
LOGO
  1

  0
ARC
  5
38
330
22
100
AcDbEntity
  8
0
100
AcDbCircle
 10
11.59973089678112
 20
-9.271599258481501
 30
0.0
 40
4.5
100
AcDbArc
 50
270.0
 51
231.0575587310159
  0
LINE
  5
39
330
22
100
AcDbEntity
  8
0
100
AcDbLine
 10
3.599730896781125
 20
-4.771599258481529
 30
0.0
 11
3.599730896781153
 21
-11.77159925848133
 31
0.0
  0
LINE
  5
3A
330
22
100
AcDbEntity
  8
0
100
AcDbLine
 10
2.599730896781125
 20
-4.771599258481529
 30
0.0
 11
2.599730896781153
 21
-11.77159925848133
 31
0.0
  0
CIRCLE
  5
3B
330
22
100
AcDbEntity
  8
0
100
AcDbCircle
 10
11.59973089678112
 20
-9.271599258481501
 30
0.0
 40
3.5
  0
ARC
  5
3C
330
22
100
AcDbEntity
  8
0
100
AcDbCircle
 10
31.59973089678115
 20
-9.271599258481472
 30
0.0
 40
4.5
100
AcDbArc
 50
270.0
 51
231.0575587310182
  0
LINE
  5
3D
330
22
100
AcDbEntity
  8
0
100
AcDbLine
 10
17.59973089678112
 20
-4.771599258481472
 30
0.0
 11
17.59973089678115
 21
-13.77159925848147
 31
0.0
  0
ARC
  5
3E
330
22
100
AcDbEntity
  8
0
100
AcDbCircle
 10
22.59973089678116
 20
-7.271599258481472
 30
0.0
 40
2.5
100
AcDbArc
 50
293.1161887722295
 51
90.0
  0
CIRCLE
  5
3F
330
22
100
AcDbEntity
  8
0
100
AcDbCircle
 10
31.59973089678115
 20
-9.271599258481472
 30
0.0
 40
3.5
  0
ARC
  5
40
330
22
100
AcDbEntity
  8
0
100
AcDbCircle
 10
4.599730896781153
 20
-11.77159925848133
 30
0.0
 40
1.0
100
AcDbArc
 50
180.0
 51
270.0
  0
ARC
  5
41
330
22
100
AcDbEntity
  8
0
100
AcDbCircle
 10
4.599730896781153
 20
-11.77159925848133
 30
0.0
 40
2.0
100
AcDbArc
 50
179.9999999999992
 51
270.0
  0
LINE
  5
42
330
22
100
AcDbEntity
  8
0
100
AcDbLine
 10
11.59973089678115
 20
-13.77159925848144
 30
0.0
 11
4.599730896781153
 21
-13.77159925848147
 31
0.0
  0
LINE
  5
43
330
22
100
AcDbEntity
  8
0
100
AcDbLine
 10
8.771303772034769
 20
-12.77159925848136
 30
0.0
 11
4.599730896781153
 21
-12.77159925848133
 31
0.0
  0
LINE
  5
44
330
22
100
AcDbEntity
  8
0
100
AcDbLine
 10
31.59973089678115
 20
-13.77159925848147
 30
0.0
 11
23.6715276665056
 21
-13.77159925848144
 31
0.0
  0
LINE
  5
45
330
22
100
AcDbEntity
  8
0
100
AcDbLine
 10
23.56565672307022
 20
-9.51278021337896
 30
0.0
 11
24.4388546544846
 21
-12.77159925848144
 31
0.0
  0
LINE
  5
46
330
22
100
AcDbEntity
  8
0
100
AcDbLine
 10
22.59973089678116
 20
-9.771599258481472
 30
0.0
 11
18.59973089678112
 21
-9.771599258481472
 31
0.0
  0
LINE
  5
47
330
22
100
AcDbEntity
  8
0
100
AcDbLine
 10
18.59973089678115
 20
-13.77159925848144
 30
0.0
 11
17.59973089678115
 21
-13.77159925848144
 31
0.0
  0
LINE
  5
48
330
22
100
AcDbEntity
  8
0
100
AcDbLine
 10
18.59973089678115
 20
-9.771599258481472
 30
0.0
 11
18.59973089678115
 21
-13.77159925848144
 31
0.0
  0
LINE
  5
49
330
22
100
AcDbEntity
  8
0
100
AcDbLine
 10
22.59973089678116
 20
-9.771599258481472
 30
0.0
 11
23.67152766650562
 21
-13.77159925848147
 31
0.0
  0
ARC
  5
4A
330
22
100
AcDbEntity
  8
0
100
AcDbCircle
 10
22.59973089678116
 20
-7.271599258481472
 30
0.0
 40
2.5
100
AcDbArc
 50
270.0
 51
270.0000000000007
  0
LINE
  5
4B
330
22
100
AcDbEntity
  8
0
100
AcDbLine
 10
28.77130377203494
 20
-12.77159925848147
 30
0.0
 11
24.43885465448463
 21
-12.77159925848144
 31
0.0
  0
LINE
  5
4C
330
22
100
AcDbEntity
  8
0
100
AcDbLine
 10
3.599730896781125
 20
-4.771599258481472
 30
0.0
 11
2.599730896781125
 21
-4.771599258481472
 31
0.0
  0
LINE
  5
4D
330
22
100
AcDbEntity
  8
0
100
AcDbLine
 10
22.59973089678116
 20
-8.771599258481472
 30
0.0
 11
18.59973089678115
 21
-8.771599258481472
 31
0.0
  0
LINE
  5
4E
330
22
100
AcDbEntity
  8
0
100
AcDbLine
 10
22.59973089678116
 20
-5.771599258481472
 30
0.0
 11
18.59973089678115
 21
-5.771599258481472
 31
0.0
  0
LINE
  5
4F
330
22
100
AcDbEntity
  8
0
100
AcDbLine
 10
22.59973089678116
 20
-4.771599258481472
 30
0.0
 11
17.59973089678115
 21
-4.771599258481472
 31
0.0
  0
LINE
  5
50
330
22
100
AcDbEntity
  8
0
100
AcDbLine
 10
18.59973089678115
 20
-5.771599258481472
 30
0.0
 11
18.59973089678115
 21
-8.771599258481472
 31
0.0
  0
ARC
  5
51
330
22
100
AcDbEntity
  8
0
100
AcDbCircle
 10
22.59973089678116
 20
-7.271599258481472
 30
0.0
 40
1.5
100
AcDbArc
 50
270.0
 51
90.0
  0
ENDBLK
  5
52
330
22
100
AcDbEntity
  8
0
100
AcDbBlockEnd
  0
BLOCK
  5
4AB
330
4A0
100
AcDbEntity
  8
0
100
AcDbBlockBegin
  2
*D1
 70
     1
 10
0.0
 20
0.0
 30
0.0
  3
*D1
  1

  0
LINE
  5
577
330
4A0
100
AcDbEntity
  8
BEM
 62
     0
370
    -2
100
AcDbLine
 10
118.4719687339499
 20
440.0475160750043
 30
0.0
 11
105.6684965534613
 21
440.0475160750043
 31
0.0
  0
LINE
  5
578
330
4A0
100
AcDbEntity
  8
BEM
 62
     0
370
    -2
100
AcDbLine
 10
118.47196873395
 20
429.0475160750045
 30
0.0
 11
105.6684965534613
 21
429.0475160750045
 31
0.0
  0
LINE
  5
579
330
4A0
100
AcDbEntity
  8
BEM
 62
     0
370
    -2
100
AcDbLine
 10
107.6684965534613
 20
447.0475160750043
 30
0.0
 11
107.6684965534613
 21
454.0475160750043
 31
0.0
  0
LINE
  5
57A
330
4A0
100
AcDbEntity
  8
BEM
 62
     0
370
    -2
100
AcDbLine
 10
107.6684965534613
 20
422.0475160750045
 30
0.0
 11
107.6684965534613
 21
403.4475160750045
 31
0.0
  0
LINE
  5
57B
330
4A0
100
AcDbEntity
  8
BEM
 62
     0
370
    -2
100
AcDbLine
 10
107.6684965534613
 20
440.0475160750043
 30
0.0
 11
107.6684965534613
 21
429.0475160750045
 31
0.0
  0
SOLID
  5
57C
330
4A0
100
AcDbEntity
  8
BEM
 62
     0
100
AcDbTrace
 10
106.5018298867946
 20
447.0475160750043
 30
0.0
 11
108.8351632201279
 21
447.0475160750043
 31
0.0
 12
107.6684965534613
 22
440.0475160750043
 32
0.0
 13
107.6684965534613
 23
440.0475160750043
 33
0.0
  0
SOLID
  5
57D
330
4A0
100
AcDbEntity
  8
BEM
 62
     0
100
AcDbTrace
 10
106.5018298867946
 20
422.0475160750045
 30
0.0
 11
108.8351632201279
 21
422.0475160750045
 31
0.0
 12
107.6684965534613
 22
429.0475160750045
 32
0.0
 13
107.6684965534613
 23
429.0475160750045
 33
0.0
  0
MTEXT
  5
57E
330
4A0
100
AcDbEntity
  8
BEM
 62
     1
100
AcDbMText
 10
101.1684965534612
 20
409.2475160750045
 30
0.0
 40
7.0
 41
0.0
 71
     5
 72
     1
  1
\A1;11
 11
0.0000000000000001
 21
1.0
 31
0.0
 73
     1
 44
1.0
  0
POINT
  5
57F
330
4A0
100
AcDbEntity
  8
DEFPOINTS
 62
     0
100
AcDbPoint
 10
120.4719687339499
 20
440.0475160750043
 30
0.0
  0
POINT
  5
580
330
4A0
100
AcDbEntity
  8
DEFPOINTS
 62
     0
100
AcDbPoint
 10
120.47196873395
 20
429.0475160750045
 30
0.0
  0
POINT
  5
581
330
4A0
100
AcDbEntity
  8
DEFPOINTS
 62
     0
100
AcDbPoint
 10
107.6684965534613
 20
429.0475160750045
 30
0.0
  0
ENDBLK
  5
4AC
330
4A0
100
AcDbEntity
  8
0
100
AcDbBlockEnd
  0
BLOCK
  5
4B8
330
4AD
100
AcDbEntity
  8
0
100
AcDbBlockBegin
  2
*D2
 70
     1
 10
0.0
 20
0.0
 30
0.0
  3
*D2
  1

  0
LINE
  5
594
330
4AD
100
AcDbEntity
  8
BEM
 62
     0
370
    -2
100
AcDbLine
 10
120.4719687339499
 20
442.0475160750043
 30
0.0
 11
120.4719687339499
 21
453.7063201695645
 31
0.0
  0
LINE
  5
595
330
4AD
100
AcDbEntity
  8
BEM
 62
     0
370
    -2
100
AcDbLine
 10
270.4719687339501
 20
442.0475160750045
 30
0.0
 11
270.4719687339501
 21
453.7063201695645
 31
0.0
  0
LINE
  5
596
330
4AD
100
AcDbEntity
  8
BEM
 62
     0
370
    -2
100
AcDbLine
 10
127.4719687339499
 20
451.7063201695646
 30
0.0
 11
263.4719687339501
 21
451.7063201695646
 31
0.0
  0
SOLID
  5
597
330
4AD
100
AcDbEntity
  8
BEM
 62
     0
100
AcDbTrace
 10
127.4719687339499
 20
452.8729868362312
 30
0.0
 11
127.4719687339499
 21
450.5396535028979
 31
0.0
 12
120.4719687339499
 22
451.7063201695646
 32
0.0
 13
120.4719687339499
 23
451.7063201695646
 33
0.0
  0
SOLID
  5
598
330
4AD
100
AcDbEntity
  8
BEM
 62
     0
100
AcDbTrace
 10
263.4719687339501
 20
452.8729868362312
 30
0.0
 11
263.4719687339501
 21
450.5396535028979
 31
0.0
 12
270.4719687339501
 22
451.7063201695646
 32
0.0
 13
270.4719687339501
 23
451.7063201695646
 33
0.0
  0
MTEXT
  5
599
330
4AD
100
AcDbEntity
  8
BEM
 62
     1
100
AcDbMText
 10
198.7276668994041
 20
458.2063201695645
 30
0.0
 40
7.0
 41
0.0
 71
     5
 72
     1
  1
\A1;150
 73
     1
 44
1.0
  0
POINT
  5
59A
330
4AD
100
AcDbEntity
  8
DEFPOINTS
 62
     0
100
AcDbPoint
 10
120.4719687339499
 20
440.0475160750043
 30
0.0
  0
POINT
  5
59B
330
4AD
100
AcDbEntity
  8
DEFPOINTS
 62
     0
100
AcDbPoint
 10
270.4719687339501
 20
440.0475160750046
 30
0.0
  0
POINT
  5
59C
330
4AD
100
AcDbEntity
  8
DEFPOINTS
 62
     0
100
AcDbPoint
 10
270.4719687339501
 20
451.7063201695646
 30
0.0
  0
ENDBLK
  5
4B9
330
4AD
100
AcDbEntity
  8
0
100
AcDbBlockEnd
  0
BLOCK
  5
4C5
330
4BA
100
AcDbEntity
  8
0
100
AcDbBlockBegin
  2
*D3
 70
     1
 10
0.0
 20
0.0
 30
0.0
  3
*D3
  1

  0
LINE
  5
565
330
4BA
100
AcDbEntity
  8
BEM
 62
     0
370
    -2
100
AcDbLine
 10
140.47196873395
 20
271.0475160750045
 30
0.0
 11
105.6684965534613
 21
271.0475160750045
 31
0.0
  0
LINE
  5
566
330
4BA
100
AcDbEntity
  8
BEM
 62
     0
370
    -2
100
AcDbLine
 10
136.47196873395
 20
300.0475160750045
 30
0.0
 11
105.6684965534613
 21
300.0475160750045
 31
0.0
  0
LINE
  5
567
330
4BA
100
AcDbEntity
  8
BEM
 62
     0
370
    -2
100
AcDbLine
 10
107.6684965534613
 20
278.0475160750045
 30
0.0
 11
107.6684965534613
 21
293.0475160750045
 31
0.0
  0
SOLID
  5
568
330
4BA
100
AcDbEntity
  8
BEM
 62
     0
100
AcDbTrace
 10
106.5018298867946
 20
278.0475160750045
 30
0.0
 11
108.8351632201279
 21
278.0475160750045
 31
0.0
 12
107.6684965534613
 22
271.0475160750045
 32
0.0
 13
107.6684965534613
 23
271.0475160750045
 33
0.0
  0
SOLID
  5
569
330
4BA
100
AcDbEntity
  8
BEM
 62
     0
100
AcDbTrace
 10
106.5018298867946
 20
293.0475160750045
 30
0.0
 11
108.8351632201279
 21
293.0475160750045
 31
0.0
 12
107.6684965534613
 22
300.0475160750045
 32
0.0
 13
107.6684965534613
 23
300.0475160750045
 33
0.0
  0
MTEXT
  5
56A
330
4BA
100
AcDbEntity
  8
BEM
 62
     1
100
AcDbMText
 10
101.1684965534612
 20
285.5475160750046
 30
0.0
 40
7.0
 41
0.0
 71
     5
 72
     1
  1
\A1;29
 11
0.0000000000000001
 21
1.0
 31
0.0
 73
     1
 44
1.0
  0
POINT
  5
56B
330
4BA
100
AcDbEntity
  8
DEFPOINTS
 62
     0
100
AcDbPoint
 10
142.47196873395
 20
271.0475160750045
 30
0.0
  0
POINT
  5
56C
330
4BA
100
AcDbEntity
  8
DEFPOINTS
 62
     0
100
AcDbPoint
 10
138.47196873395
 20
300.0475160750045
 30
0.0
  0
POINT
  5
56D
330
4BA
100
AcDbEntity
  8
DEFPOINTS
 62
     0
100
AcDbPoint
 10
107.6684965534613
 20
300.0475160750045
 30
0.0
  0
ENDBLK
  5
4C6
330
4BA
100
AcDbEntity
  8
0
100
AcDbBlockEnd
  0
BLOCK
  5
4D2
330
4C7
100
AcDbEntity
  8
0
100
AcDbBlockBegin
  2
*D4
 70
     1
 10
0.0
 20
0.0
 30
0.0
  3
*D4
  1

  0
LINE
  5
55C
330
4C7
100
AcDbEntity
  8
BEM
 62
     0
370
    -2
100
AcDbLine
 10
133.47196873395
 20
285.0475160750045
 30
0.0
 11
133.47196873395
 21
217.4287070003986
 31
0.0
  0
LINE
  5
55D
330
4C7
100
AcDbEntity
  8
BEM
 62
     0
370
    -2
100
AcDbLine
 10
257.4719687339499
 20
285.0475160750045
 30
0.0
 11
257.4719687339499
 21
217.4287070003986
 31
0.0
  0
LINE
  5
55E
330
4C7
100
AcDbEntity
  8
BEM
 62
     0
370
    -2
100
AcDbLine
 10
140.47196873395
 20
219.4287070003986
 30
0.0
 11
250.4719687339499
 21
219.4287070003986
 31
0.0
  0
SOLID
  5
55F
330
4C7
100
AcDbEntity
  8
BEM
 62
     0
100
AcDbTrace
 10
140.47196873395
 20
220.5953736670653
 30
0.0
 11
140.47196873395
 21
218.2620403337319
 31
0.0
 12
133.47196873395
 22
219.4287070003986
 32
0.0
 13
133.47196873395
 23
219.4287070003986
 33
0.0
  0
SOLID
  5
560
330
4C7
100
AcDbEntity
  8
BEM
 62
     0
100
AcDbTrace
 10
250.4719687339499
 20
220.5953736670653
 30
0.0
 11
250.4719687339499
 21
218.2620403337319
 31
0.0
 12
257.4719687339499
 22
219.4287070003986
 32
0.0
 13
257.4719687339499
 23
219.4287070003986
 33
0.0
  0
MTEXT
  5
561
330
4C7
100
AcDbEntity
  8
BEM
 62
     1
100
AcDbMText
 10
195.4719687339499
 20
225.9287070003986
 30
0.0
 40
7.0
 41
0.0
 71
     5
 72
     1
  1
\A1;%%c124
 73
     1
 44
1.0
  0
POINT
  5
562
330
4C7
100
AcDbEntity
  8
DEFPOINTS
 62
     0
100
AcDbPoint
 10
133.47196873395
 20
287.0475160750045
 30
0.0
  0
POINT
  5
563
330
4C7
100
AcDbEntity
  8
DEFPOINTS
 62
     0
100
AcDbPoint
 10
257.4719687339499
 20
287.0475160750045
 30
0.0
  0
POINT
  5
564
330
4C7
100
AcDbEntity
  8
DEFPOINTS
 62
     0
100
AcDbPoint
 10
257.4719687339499
 20
219.4287070003986
 30
0.0
  0
ENDBLK
  5
4D3
330
4C7
100
AcDbEntity
  8
0
100
AcDbBlockEnd
  0
BLOCK
  5
4DF
330
4D4
100
AcDbEntity
  8
0
100
AcDbBlockBegin
  2
*D5
 70
     1
 10
0.0
 20
0.0
 30
0.0
  3
*D5
  1

  0
LINE
  5
553
330
4D4
100
AcDbEntity
  8
BEM
 62
     0
370
    -2
100
AcDbLine
 10
139.97196873395
 20
275.0475160750045
 30
0.0
 11
139.97196873395
 21
231.0117664497676
 31
0.0
  0
LINE
  5
554
330
4D4
100
AcDbEntity
  8
BEM
 62
     0
370
    -2
100
AcDbLine
 10
250.9719687339499
 20
275.0475160750045
 30
0.0
 11
250.9719687339499
 21
231.0117664497676
 31
0.0
  0
LINE
  5
555
330
4D4
100
AcDbEntity
  8
BEM
 62
     0
370
    -2
100
AcDbLine
 10
146.97196873395
 20
233.0117664497676
 30
0.0
 11
243.9719687339499
 21
233.0117664497676
 31
0.0
  0
SOLID
  5
556
330
4D4
100
AcDbEntity
  8
BEM
 62
     0
100
AcDbTrace
 10
146.97196873395
 20
234.1784331164343
 30
0.0
 11
146.97196873395
 21
231.845099783101
 31
0.0
 12
139.97196873395
 22
233.0117664497676
 32
0.0
 13
139.97196873395
 23
233.0117664497676
 33
0.0
  0
SOLID
  5
557
330
4D4
100
AcDbEntity
  8
BEM
 62
     0
100
AcDbTrace
 10
243.9719687339499
 20
234.1784331164343
 30
0.0
 11
243.9719687339499
 21
231.845099783101
 31
0.0
 12
250.9719687339499
 22
233.0117664497676
 32
0.0
 13
250.9719687339499
 23
233.0117664497676
 33
0.0
  0
MTEXT
  5
558
330
4D4
100
AcDbEntity
  8
BEM
 62
     1
100
AcDbMText
 10
195.4719687339499
 20
239.5117664497676
 30
0.0
 40
7.0
 41
0.0
 71
     5
 72
     1
  1
\A1;%%c111
 73
     1
 44
1.0
  0
POINT
  5
559
330
4D4
100
AcDbEntity
  8
DEFPOINTS
 62
     0
100
AcDbPoint
 10
139.97196873395
 20
277.0475160750045
 30
0.0
  0
POINT
  5
55A
330
4D4
100
AcDbEntity
  8
DEFPOINTS
 62
     0
100
AcDbPoint
 10
250.9719687339499
 20
277.0475160750045
 30
0.0
  0
POINT
  5
55B
330
4D4
100
AcDbEntity
  8
DEFPOINTS
 62
     0
100
AcDbPoint
 10
250.9719687339499
 20
233.0117664497676
 30
0.0
  0
ENDBLK
  5
4E0
330
4D4
100
AcDbEntity
  8
0
100
AcDbBlockEnd
  0
BLOCK
  5
4EC
330
4E1
100
AcDbEntity
  8
0
100
AcDbBlockBegin
  2
*D6
 70
     1
 10
0.0
 20
0.0
 30
0.0
  3
*D6
  1

  0
LINE
  5
54A
330
4E1
100
AcDbEntity
  8
BEM
 62
     0
370
    -2
100
AcDbLine
 10
142.47196873395
 20
269.0475160750045
 30
0.0
 11
142.47196873395
 21
244.2789473848418
 31
0.0
  0
LINE
  5
54B
330
4E1
100
AcDbEntity
  8
BEM
 62
     0
370
    -2
100
AcDbLine
 10
248.47196873395
 20
269.0475160750045
 30
0.0
 11
248.47196873395
 21
244.2789473848418
 31
0.0
  0
LINE
  5
54C
330
4E1
100
AcDbEntity
  8
BEM
 62
     0
370
    -2
100
AcDbLine
 10
149.47196873395
 20
246.2789473848418
 30
0.0
 11
241.47196873395
 21
246.2789473848418
 31
0.0
  0
SOLID
  5
54D
330
4E1
100
AcDbEntity
  8
BEM
 62
     0
100
AcDbTrace
 10
149.47196873395
 20
247.4456140515084
 30
0.0
 11
149.47196873395
 21
245.1122807181751
 31
0.0
 12
142.47196873395
 22
246.2789473848418
 32
0.0
 13
142.47196873395
 23
246.2789473848418
 33
0.0
  0
SOLID
  5
54E
330
4E1
100
AcDbEntity
  8
BEM
 62
     0
100
AcDbTrace
 10
241.47196873395
 20
247.4456140515084
 30
0.0
 11
241.47196873395
 21
245.1122807181751
 31
0.0
 12
248.47196873395
 22
246.2789473848418
 32
0.0
 13
248.47196873395
 23
246.2789473848418
 33
0.0
  0
MTEXT
  5
54F
330
4E1
100
AcDbEntity
  8
BEM
 62
     1
100
AcDbMText
 10
195.47196873395
 20
252.7789473848418
 30
0.0
 40
7.0
 41
0.0
 71
     5
 72
     1
  1
\A1;%%c106
 73
     1
 44
1.0
  0
POINT
  5
550
330
4E1
100
AcDbEntity
  8
DEFPOINTS
 62
     0
100
AcDbPoint
 10
142.47196873395
 20
271.0475160750045
 30
0.0
  0
POINT
  5
551
330
4E1
100
AcDbEntity
  8
DEFPOINTS
 62
     0
100
AcDbPoint
 10
248.47196873395
 20
271.0475160750045
 30
0.0
  0
POINT
  5
552
330
4E1
100
AcDbEntity
  8
DEFPOINTS
 62
     0
100
AcDbPoint
 10
248.47196873395
 20
246.2789473848418
 30
0.0
  0
ENDBLK
  5
4ED
330
4E1
100
AcDbEntity
  8
0
100
AcDbBlockEnd
  0
BLOCK
  5
4F9
330
4EE
100
AcDbEntity
  8
0
100
AcDbBlockBegin
  2
*D7
 70
     1
 10
0.0
 20
0.0
 30
0.0
  3
*D7
  1

  0
LINE
  5
541
330
4EE
100
AcDbEntity
  8
BEM
 62
     0
370
    -2
100
AcDbLine
 10
140.47196873395
 20
271.0475160750045
 30
0.0
 11
90.41629555221057
 21
271.0475160750045
 31
0.0
  0
LINE
  5
542
330
4EE
100
AcDbEntity
  8
BEM
 62
     0
370
    -2
100
AcDbLine
 10
118.4719687339499
 20
440.0475160750043
 30
0.0
 11
90.41629555221062
 21
440.0475160750043
 31
0.0
  0
LINE
  5
543
330
4EE
100
AcDbEntity
  8
BEM
 62
     0
370
    -2
100
AcDbLine
 10
92.41629555221058
 20
278.0475160750045
 30
0.0
 11
92.41629555221061
 21
433.0475160750043
 31
0.0
  0
SOLID
  5
544
330
4EE
100
AcDbEntity
  8
BEM
 62
     0
100
AcDbTrace
 10
91.2496288855439
 20
278.0475160750045
 30
0.0
 11
93.58296221887725
 21
278.0475160750045
 31
0.0
 12
92.41629555221058
 22
271.0475160750045
 32
0.0
 13
92.41629555221058
 23
271.0475160750045
 33
0.0
  0
SOLID
  5
545
330
4EE
100
AcDbEntity
  8
BEM
 62
     0
100
AcDbTrace
 10
91.24962888554394
 20
433.0475160750043
 30
0.0
 11
93.58296221887728
 21
433.0475160750043
 31
0.0
 12
92.41629555221061
 22
440.0475160750043
 32
0.0
 13
92.41629555221061
 23
440.0475160750043
 33
0.0
  0
MTEXT
  5
546
330
4EE
100
AcDbEntity
  8
BEM
 62
     1
100
AcDbMText
 10
85.91629555221054
 20
355.5475160750044
 30
0.0
 40
7.0
 41
0.0
 71
     5
 72
     1
  1
\A1;169
 11
0.0000000000000001
 21
1.0
 31
0.0
 73
     1
 44
1.0
  0
POINT
  5
547
330
4EE
100
AcDbEntity
  8
DEFPOINTS
 62
     0
100
AcDbPoint
 10
142.47196873395
 20
271.0475160750045
 30
0.0
  0
POINT
  5
548
330
4EE
100
AcDbEntity
  8
DEFPOINTS
 62
     0
100
AcDbPoint
 10
120.4719687339499
 20
440.0475160750043
 30
0.0
  0
POINT
  5
549
330
4EE
100
AcDbEntity
  8
DEFPOINTS
 62
     0
100
AcDbPoint
 10
92.41629555221061
 20
440.0475160750043
 30
0.0
  0
ENDBLK
  5
4FA
330
4EE
100
AcDbEntity
  8
0
100
AcDbBlockEnd
  0
ENDSEC
  0
SECTION
  2
ENTITIES
  0
LINE
  5
57
330
1E
100
AcDbEntity
  8
STEMPEL
100
AcDbLine
 10
410.0
 20
110.0
 30
0.0
 11
39.99999999999997
 21
110.0
 31
0.0
  0
LINE
  5
58
330
1E
100
AcDbEntity
  8
STEMPEL
100
AcDbLine
 10
136.0000000000001
 20
109.9999999999999
 30
0.0
 11
136.0
 21
9.999999999999971
 31
0.0
  0
LINE
  5
59
330
1E
100
AcDbEntity
  8
STEMPEL
100
AcDbLine
 10
220.0
 20
110.0
 30
0.0
 11
220.0
 21
9.999999999999971
 31
0.0
  0
LINE
  5
5A
330
1E
100
AcDbEntity
  8
STEMPEL
100
AcDbLine
 10
332.0
 20
109.9999999999997
 30
0.0
 11
332.0
 21
40.0
 31
0.0
  0
LINE
  5
5B
330
1E
100
AcDbEntity
  8
STEMPEL
100
AcDbLine
 10
135.9999999999999
 20
29.99999999999997
 30
0.0
 11
39.99999999999997
 21
29.99999999999997
 31
0.0
  0
LINE
  5
5C
330
1E
100
AcDbEntity
  8
STEMPEL
100
AcDbLine
 10
410.0
 20
40.0
 30
0.0
 11
136.0000000000001
 21
39.99999999999997
 31
0.0
  0
LINE
  5
5D
330
1E
100
AcDbEntity
  8
STEMPEL
100
AcDbLine
 10
410.0
 20
80.0
 30
0.0
 11
136.0000000000001
 21
79.99999999999994
 31
0.0
  0
LINE
  5
5E
330
1E
100
AcDbEntity
  8
VOLL
100
AcDbLine
 10
54.00000000000009
 20
110.0
 30
0.0
 11
53.99999999999997
 21
9.999999999999971
 31
0.0
  0
LINE
  5
5F
330
1E
100
AcDbEntity
  8
VOLL
100
AcDbLine
 10
94.00000000000011
 20
109.9999999999999
 30
0.0
 11
94.0
 21
9.999999999999971
 31
0.0
  0
LINE
  5
60
330
1E
100
AcDbEntity
  8
VOLL
100
AcDbLine
 10
114.0000000000001
 20
109.9999999999999
 30
0.0
 11
114.0
 21
9.999999999999971
 31
0.0
  0
LINE
  5
61
330
1E
100
AcDbEntity
  8
VOLL
100
AcDbLine
 10
154.0000000000001
 20
79.99999999999994
 30
0.0
 11
154.0000000000001
 21
39.99999999999997
 31
0.0
  0
LINE
  5
62
330
1E
100
AcDbEntity
  8
VOLL
100
AcDbLine
 10
180.0000000000001
 20
109.9999999999998
 30
0.0
 11
180.0
 21
39.99999999999997
 31
0.0
  0
LINE
  5
63
330
1E
100
AcDbEntity
  8
HILF
100
AcDbLine
 10
40.00000000000008
 20
100.0
 30
0.0
 11
136.0000000000001
 21
100.0
 31
0.0
  0
LINE
  5
64
330
1E
100
AcDbEntity
  8
HILF
100
AcDbLine
 10
40.00000000000008
 20
90.00000000000005
 30
0.0
 11
136.0000000000001
 21
90.00000000000005
 31
0.0
  0
LINE
  5
65
330
1E
100
AcDbEntity
  8
HILF
100
AcDbLine
 10
40.00000000000008
 20
79.99999999999994
 30
0.0
 11
136.0000000000001
 21
79.99999999999994
 31
0.0
  0
LINE
  5
66
330
1E
100
AcDbEntity
  8
HILF
100
AcDbLine
 10
40.00000000000008
 20
69.99999999999994
 30
0.0
 11
136.0000000000001
 21
69.99999999999994
 31
0.0
  0
LINE
  5
67
330
1E
100
AcDbEntity
  8
HILF
100
AcDbLine
 10
40.00000000000008
 20
59.99999999999997
 30
0.0
 11
136.0000000000001
 21
59.99999999999997
 31
0.0
  0
LINE
  5
68
330
1E
100
AcDbEntity
  8
HILF
100
AcDbLine
 10
40.00000000000008
 20
49.99999999999997
 30
0.0
 11
136.0000000000001
 21
49.99999999999997
 31
0.0
  0
LINE
  5
69
330
1E
100
AcDbEntity
  8
HILF
100
AcDbLine
 10
40.00000000000008
 20
39.99999999999997
 30
0.0
 11
136.0000000000001
 21
39.99999999999997
 31
0.0
  0
LINE
  5
6A
330
1E
100
AcDbEntity
  8
HILF
100
AcDbLine
 10
136.0000000000001
 20
69.99999999999994
 30
0.0
 11
220.0
 21
69.99999999999994
 31
0.0
  0
LINE
  5
6B
330
1E
100
AcDbEntity
  8
HILF
100
AcDbLine
 10
136.0000000000001
 20
59.99999999999997
 30
0.0
 11
220.0
 21
59.99999999999997
 31
0.0
  0
LINE
  5
6C
330
1E
100
AcDbEntity
  8
HILF
100
AcDbLine
 10
136.0000000000001
 20
49.99999999999997
 30
0.0
 11
220.0
 21
49.99999999999997
 31
0.0
  0
LINE
  5
6D
330
1E
100
AcDbEntity
  8
HILF
100
AcDbLine
 10
224.7736801096948
 20
84.03758247564139
 30
0.0
 11
324.8353916556311
 21
84.03758247564139
 31
0.0
  0
LINE
  5
6E
330
1E
100
AcDbEntity
  8
HILF
100
AcDbLine
 10
224.7736801096948
 20
69.99999999999994
 30
0.0
 11
324.835391655631
 21
69.99999999999994
 31
0.0
  0
LINE
  5
6F
330
1E
100
AcDbEntity
  8
HILF
100
AcDbLine
 10
224.7736801096948
 20
59.99999999999997
 30
0.0
 11
324.835391655631
 21
59.99999999999997
 31
0.0
  0
LINE
  5
70
330
1E
100
AcDbEntity
  8
HILF
100
AcDbLine
 10
224.7736801096948
 20
49.99999999999997
 30
0.0
 11
324.835391655631
 21
49.99999999999997
 31
0.0
  0
LINE
  5
71
330
1E
100
AcDbEntity
  8
VOLL
100
AcDbLine
 10
332.0
 20
60.0
 30
0.0
 11
410.0
 21
60.0
 31
0.0
  0
LINE
  5
72
330
1E
100
AcDbEntity
  8
HILF
100
AcDbLine
 10
336.7238616296993
 20
83.77983636955827
 30
0.0
 11
404.8588839326728
 21
83.77983636955827
 31
0.0
  0
LINE
  5
73
330
1E
100
AcDbEntity
  8
HILF
100
AcDbLine
 10
223.4909699289885
 20
14.89398258028314
 30
0.0
 11
404.8588839326728
 21
14.89398258028314
 31
0.0
  0
TEXT
  5
74
330
1E
100
AcDbEntity
  8
TEXT
100
AcDbText
 10
63.86165979631819
 20
18.67381894984132
 30
0.0
 40
4.0
  1
Änderung
 41
0.8
  7
GREEKS
 72
     1
 11
74.60451693917534
 21
18.67381894984132
 31
0.0
100
AcDbText
  0
TEXT
  5
75
330
1E
100
AcDbEntity
  8
TEXT
100
AcDbText
 10
143.5163572150377
 20
102.4620895087088
 30
0.0
 40
5.0
  1
Maßstab
 41
0.8
  7
GREEKS
100
AcDbText
  0
TEXT
  5
76
330
1E
100
AcDbEntity
  8
TEXT
100
AcDbText
 10
184.2858954734051
 20
102.4184168434819
 30
0.0
 40
5.0
  1
Zul. Abw.
 41
0.8
  7
GREEKS
100
AcDbText
  0
TEXT
  5
77
330
1E
100
AcDbEntity
  8
TEXT
100
AcDbText
 10
224.877940380901
 20
102.5489328011779
 30
0.0
 40
5.0
  1
Benennung
 41
0.8
  7
GREEKS
100
AcDbText
  0
TEXT
  5
78
330
1E
100
AcDbEntity
  8
TEXT
100
AcDbText
 10
336.178754957634
 20
102.3132034537136
 30
0.0
 40
5.0
  1
Zeichnungs Nr.
 41
0.8
  7
GREEKS
100
AcDbText
  0
TEXT
  5
79
330
1E
100
AcDbEntity
  8
TEXT
100
AcDbText
 10
224.742238391136
 20
30.84560570193057
 30
0.0
 40
5.0
  1
Bauvorhaben
 41
0.8
  7
GREEKS
100
AcDbText
  0
TEXT
  5
7A
330
1E
100
AcDbEntity
  8
TEXT
100
AcDbText
 10
336.7238616296993
 20
73.1811823709997
 30
0.0
 40
5.0
  1
Ersatz für:
 41
0.8
  7
GREEKS
100
AcDbText
  0
TEXT
  5
7B
330
1E
100
AcDbEntity
  8
TEXT
100
AcDbText
 10
48.26641107045756
 20
13.65465846027192
 30
0.0
 40
4.0
  1
Index
 50
90.0
 41
0.8
  7
GREEKS
100
AcDbText
  0
TEXT
  5
7C
330
1E
100
AcDbEntity
  8
TEXT
100
AcDbText
 10
100.0934676075481
 20
18.6715626933981
 30
0.0
 40
4.0
  1
Tag
 41
0.8
  7
GREEKS
 72
     1
 11
103.8268009408814
 21
18.6715626933981
 31
0.0
100
AcDbText
  0
TEXT
  5
7D
330
1E
100
AcDbEntity
  8
TEXT
100
AcDbText
 10
119.0122744386592
 20
18.59324216966408
 30
0.0
 40
4.0
  1
Name
 41
0.8
  7
GREEKS
 72
     1
 11
125.3360839624688
 21
18.59324216966408
 31
0.0
100
AcDbText
  0
TEXT
  5
7E
330
1E
100
AcDbEntity
  8
TEXT
100
AcDbText
 10
162.3311673153651
 20
73.31880501229926
 30
0.0
 40
4.0
  1
Tag
 41
0.8
  7
GREEKS
100
AcDbText
  0
TEXT
  5
7F
330
1E
100
AcDbEntity
  8
TEXT
100
AcDbText
 10
192.4626584226295
 20
73.30961091915225
 30
0.0
 40
4.0
  1
Name
 41
0.8
  7
GREEKS
100
AcDbText
  0
TEXT
  5
80
330
1E
100
AcDbEntity
  8
TEXT
100
AcDbText
 10
137.5836127167615
 20
63.62990369617964
 30
0.0
 40
4.0
  1
Gez.
 41
0.8
  7
GREEKS
100
AcDbText
  0
TEXT
  5
81
330
1E
100
AcDbEntity
  8
TEXT
100
AcDbText
 10
137.5515086571672
 20
53.68926291428377
 30
0.0
 40
4.0
  1
Gepr.
 41
0.8
  7
GREEKS
100
AcDbText
  0
TEXT
  5
82
330
1E
100
AcDbEntity
  8
TEXT
100
AcDbText
 10
137.6006777387304
 20
43.52946389649807
 30
0.0
 40
4.0
  1
Norm.
 41
0.8
  7
GREEKS
100
AcDbText
  0
LINE
  5
83
330
1E
100
AcDbEntity
  8
STEMPEL
100
AcDbLine
 10
49.99999999999989
 20
10.0
 30
0.0
 11
410.0
 21
10.0
 31
0.0
  0
TEXT
  5
84
330
1E
100
AcDbEntity
  8
TEXT
100
AcDbText
 10
337.2400861497006
 20
52.07416177878602
 30
0.0
 40
5.0
  1
ersetzt durch:
 41
0.8
  7
GREEKS
100
AcDbText
  0
LINE
  5
85
330
1E
100
AcDbEntity
  8
STEMPEL
100
AcDbLine
 10
410.0
 20
10.0
 30
0.0
 11
39.99999999999989
 21
10.0
 31
0.0
  0
LINE
  5
86
330
1E
100
AcDbEntity
  8
STEMPEL
100
AcDbLine
 10
410.0
 20
10.0
 30
0.0
 11
410.0
 21
584.0
 31
0.0
  0
LINE
  5
87
330
1E
100
AcDbEntity
  8
STEMPEL
100
AcDbLine
 10
40.0
 20
10.0
 30
0.0
 11
39.99999999999989
 21
584.0
 31
0.0
  0
LINE
  5
88
330
1E
100
AcDbEntity
  8
STEMPEL
100
AcDbLine
 10
410.0
 20
584.0
 30
0.0
 11
39.99999999999989
 21
584.0
 31
0.0
  0
LINE
  5
89
330
1E
100
AcDbEntity
  8
HILF
100
AcDbLine
 10
0.0
 20
0.0
 30
0.0
 11
-0.0000000000001137
 21
594.0
 31
0.0
  0
LINE
  5
8A
330
1E
100
AcDbEntity
  8
HILF
100
AcDbLine
 10
419.9999999999999
 20
594.0000000000002
 30
0.0
 11
0.0
 21
594.0
 31
0.0
  0
LINE
  5
8B
330
1E
100
AcDbEntity
  8
HILF
100
AcDbLine
 10
420.0
 20
0.0
 30
0.0
 11
0.0
 21
0.0
 31
0.0
  0
LINE
  5
8C
330
1E
100
AcDbEntity
  8
HILF
100
AcDbLine
 10
31.08767135713856
 20
297.0
 30
0.0
 11
0.0000000000001137
 21
297.0
 31
0.0
  0
TEXT
  5
8D
330
1E
100
AcDbEntity
  8
TEXT
100
AcDbText
 10
138.622109822104
 20
73.14025471151666
 30
0.0
 40
4.0
  1
2008
 41
0.8
  7
GREEKS
100
AcDbText
  0
LINE
  5
8E
330
1E
100
AcDbEntity
  8
HILF
100
AcDbLine
 10
420.0
 20
-0.0000000000001137
 30
0.0
 11
419.9999999999999
 21
594.0
 31
0.0
  0
TEXT
  5
8F
330
1E
100
AcDbEntity
  8
VOLL
100
AcDbText
 10
78.07675471698113
 20
31.02594776470585
 30
0.0
 40
1.8
  1

  7
GREEKS
100
AcDbText
  0
TEXT
  5
90
330
1E
100
AcDbEntity
  8
TEXT
100
AcDbText
 10
41.85509950977674
 20
111.6719999999999
 30
0.0
 40
5.0
  1
Erstellt mit AUTOCAD 2004
 41
0.8
  7
GREEKS
100
AcDbText
  0
TEXT
  5
91
330
1E
100
AcDbEntity
  8
TEXT
100
AcDbText
 10
194.4216048581257
 20
63.0896391972351
 30
0.0
 40
4.0
  1
Koeh
 41
0.8
  7
GREEKS
 72
     1
 11
199.6787477152685
 21
63.0896391972351
 31
0.0
100
AcDbText
  0
TEXT
  5
92
330
1E
100
AcDbEntity
  8
TEXT
 62
     1
100
AcDbText
 10
347.2687109268119
 20
88.14901428913959
 30
0.0
 40
7.0
  1
16303070W
 41
0.8
  7
GREEKS
 72
     1
 11
370.7353775934786
 21
88.14901428913959
 31
0.0
100
AcDbText
  0
TEXT
  5
93
330
1E
100
AcDbEntity
  8
TEXT
 62
     1
100
AcDbText
 10
150.5006306481887
 20
88.14901428913959
 30
0.0
 40
7.0
  1
1:2
 41
0.8
  7
GREEKS
100
AcDbText
  0
TEXT
  5
94
330
1E
100
AcDbEntity
  8
TEXT
100
AcDbText
 10
160.398997108236
 20
63.10765040825732
 30
0.0
 40
4.0
  1
03.06.
 41
0.8
  7
GREEKS
 72
     1
 11
167.4085209177598
 21
63.10765040825732
 31
0.0
100
AcDbText
  0
TEXT
  5
95
330
1E
100
AcDbEntity
  8
TEXT
 62
     1
100
AcDbText
 10
226.8935731057402
 20
87.41748789253779
 30
0.0
 40
7.0
  1
Siebeinheit DN70
 41
0.8
  7
GREEKS
100
AcDbText
  0
TEXT
  5
96
330
1E
100
AcDbEntity
  8
TEXT
100
AcDbText
 10
225.1296391125315
 20
71.50334417585288
 30
0.0
 40
5.0
  1
für Balkongeschosse
 41
0.8
  7
GREEKS
100
AcDbText
  0
TEXT
  5
98
330
1E
100
AcDbEntity
  8
TEXT
100
AcDbText
 10
225.1296391125315
 20
51.64011943042158
 30
0.0
 40
5.0
  1
EDV-Art.Nr. 16303.070X
 41
0.8
  7
GREEKS
100
AcDbText
  0
TEXT
  5
99
330
1E
100
AcDbEntity
  8
TEXT
100
AcDbText
 10
224.9837501577827
 20
42.62974153022632
 30
0.0
 40
4.0
  1
16303070W.DWG
 41
0.8
  7
GREEKS
100
AcDbText
  0
TEXT
  5
9A
330
1E
100
AcDbEntity
  8
TEXT
100
AcDbText
 10
182.626132208084
 20
90.76363841023022
 30
0.0
 40
4.0
  1
DIN EN1123-2
 41
0.8
  7
GREEKS
 72
     1
 11
199.6166083985602
 21
90.76363841023022
 31
0.0
100
AcDbText
  0
INSERT
  5
9B
330
1E
100
AcDbEntity
  8
STEMPEL
100
AcDbBlockReference
  2
LOGO
 10
140.9955485457794
 20
45.02105276448322
 30
0.0
 41
2.0
 42
2.0
 43
2.0
  0
TEXT
  5
118
330
1E
100
AcDbEntity
  8
BEM
100
AcDbText
 10
417.3022923857165
 20
10.16790107998849
 30
0.0
 40
4.0
  1
Diese Zeichnung ist urheberrechtlich geschützt und bleibt unser Eigentum. Sie darf weder ganz noch teilweise verfielfältigt und nicht an Dritte weitergegeben werden.
 50
90.0
 41
0.8
  7
GREEKS
100
AcDbText
  0
LINE
  5
3DF
330
1E
100
AcDbEntity
  8
TEXT
 62
     1
100
AcDbLine
 10
318.5917425984951
 20
457.5608845858732
 30
0.0
 11
318.5917425984951
 21
450.5608845858732
 31
0.0
  0
LINE
  5
3E0
330
1E
100
AcDbEntity
  8
TEXT
 62
     1
100
AcDbLine
 10
311.5917425984951
 20
450.5608845858732
 30
0.0
 11
311.5917425984951
 21
457.5608845858732
 31
0.0
  0
LINE
  5
3E1
330
1E
100
AcDbEntity
  8
TEXT
 62
     1
100
AcDbLine
 10
311.5917425984951
 20
457.5608845858732
 30
0.0
 11
318.5917425984951
 21
457.5608845858732
 31
0.0
  0
LINE
  5
3E2
330
1E
100
AcDbEntity
  8
TEXT
 62
     1
100
AcDbLine
 10
318.5917425984951
 20
450.5608845858732
 30
0.0
 11
311.5917425984951
 21
450.5608845858732
 31
0.0
  0
LINE
  5
3E3
102
{ACAD_REACTORS
330
5CE
102
}
330
1E
100
AcDbEntity
  8
STEMPEL
100
AcDbLine
 10
265.47196873395
 20
432.0475160750046
 30
0.0
 11
265.47196873395
 21
437.0475160750046
 31
0.0
  0
LINE
  5
3E4
102
{ACAD_REACTORS
330
5CE
102
}
330
1E
100
AcDbEntity
  8
STEMPEL
100
AcDbLine
 10
266.97196873395
 20
432.0475160750046
 30
0.0
 11
266.97196873395
 21
437.0475160750046
 31
0.0
  0
LINE
  5
3E5
102
{ACAD_REACTORS
330
62A
102
}
330
1E
100
AcDbEntity
  8
STEMPEL
100
AcDbLine
 10
270.4719687339501
 20
440.0475160750046
 30
0.0
 11
270.47196873395
 21
429.0475160750045
 31
0.0
  0
LINE
  5
3E6
102
{ACAD_REACTORS
330
62A
102
}
330
1E
100
AcDbEntity
  8
STEMPEL
100
AcDbLine
 10
267.4719687339501
 20
440.0475160750046
 30
0.0
 11
267.47196873395
 21
432.0475160750046
 31
0.0
  0
ARC
  5
3E7
102
{ACAD_REACTORS
330
5CE
102
}
330
1E
100
AcDbEntity
  8
STEMPEL
100
AcDbCircle
 10
250.47196873395
 20
437.0475160750046
 30
0.0
 40
1.5
100
AcDbArc
 50
90.0
 51
180.0
  0
LINE
  5
3E8
330
1E
100
AcDbEntity
  8
STEMPEL
100
AcDbLine
 10
253.2853074088308
 20
432.0475160750046
 30
0.0
 11
253.2853074088309
 21
436.0475160750046
 31
0.0
  0
LINE
  5
3E9
102
{ACAD_REACTORS
330
5CE
102
}
330
1E
100
AcDbEntity
  8
STEMPEL
100
AcDbLine
 10
248.97196873395
 20
436.0475160750047
 30
0.0
 11
248.97196873395
 21
437.0475160750046
 31
0.0
  0
LINE
  5
3EA
102
{ACAD_REACTORS
330
5CE
102
}
330
1E
100
AcDbEntity
  8
STEMPEL
100
AcDbLine
 10
250.47196873395
 20
438.5475160750046
 30
0.0
 11
263.97196873395
 21
438.5475160750046
 31
0.0
  0
LINE
  5
3EB
330
1E
100
AcDbEntity
  8
STEMPEL
100
AcDbLine
 10
244.7853074088309
 20
432.0475160750046
 30
0.0
 11
244.7853074088309
 21
436.0475160750046
 31
0.0
  0
LINE
  5
3EC
102
{ACAD_REACTORS
330
5CE
102
}
330
1E
100
AcDbEntity
  8
STEMPEL
100
AcDbLine
 10
247.47196873395
 20
436.0475160750047
 30
0.0
 11
247.47196873395
 21
437.0475160750046
 31
0.0
  0
ARC
  5
3ED
102
{ACAD_REACTORS
330
5CE
102
}
330
1E
100
AcDbEntity
  8
STEMPEL
100
AcDbCircle
 10
235.97196873395
 20
437.0475160750046
 30
0.0
 40
1.5
100
AcDbArc
 50
90.0
 51
180.0
  0
LINE
  5
3EE
102
{ACAD_REACTORS
330
5CE
102
}
330
1E
100
AcDbEntity
  8
STEMPEL
100
AcDbLine
 10
235.97196873395
 20
438.5475160750046
 30
0.0
 11
236.47196873395
 21
438.5475160750046
 31
0.0
  0
ARC
  5
3EF
102
{ACAD_REACTORS
330
5CE
102
}
330
1E
100
AcDbEntity
  8
STEMPEL
100
AcDbCircle
 10
236.47196873395
 20
437.0475160750046
 30
0.0
 40
1.5
100
AcDbArc
 50
0.0
 51
90.0
  0
LINE
  5
3F0
102
{ACAD_REACTORS
330
5CE
102
}
330
1E
100
AcDbEntity
  8
STEMPEL
100
AcDbLine
 10
237.97196873395
 20
436.0475160750047
 30
0.0
 11
237.97196873395
 21
437.0475160750046
 31
0.0
  0
LINE
  5
3F1
102
{ACAD_REACTORS
330
5CE
102
}
330
1E
100
AcDbEntity
  8
STEMPEL
100
AcDbLine
 10
239.47196873395
 20
436.0475160750047
 30
0.0
 11
239.47196873395
 21
437.0475160750046
 31
0.0
  0
LINE
  5
3F2
102
{ACAD_REACTORS
330
5CE
102
}
330
1E
100
AcDbEntity
  8
STEMPEL
100
AcDbLine
 10
234.47196873395
 20
436.0475160750047
 30
0.0
 11
234.47196873395
 21
437.0475160750046
 31
0.0
  0
LINE
  5
3F3
102
{ACAD_REACTORS
330
5CE
102
}
330
1E
100
AcDbEntity
  8
STEMPEL
100
AcDbLine
 10
232.97196873395
 20
436.0475160750047
 30
0.0
 11
232.97196873395
 21
437.0475160750046
 31
0.0
  0
POINT
  5
3F5
330
1E
100
AcDbEntity
  8
DEFPOINTS
  6
ByBlock
 62
     0
100
AcDbPoint
 10
242.37196873395
 20
418.9475160750045
 30
0.0
  0
POINT
  5
3F6
330
1E
100
AcDbEntity
  8
DEFPOINTS
  6
ByBlock
 62
     0
100
AcDbPoint
 10
242.37196873395
 20
418.9475160750045
 30
0.0
  0
LINE
  5
3F7
330
1E
100
AcDbEntity
  8
STEMPEL
100
AcDbLine
 10
244.7853074088309
 20
436.0475160750046
 30
0.0
 11
253.2853074088309
 21
436.0475160750046
 31
0.0
  0
LINE
  5
3F8
102
{ACAD_REACTORS
330
62A
102
}
330
1E
100
AcDbEntity
  8
STEMPEL
100
AcDbLine
 10
255.97196873395
 20
429.0475160750045
 30
0.0
 11
246.47196873395
 21
419.5475160750045
 31
0.0
  0
LINE
  5
3F9
102
{ACAD_REACTORS
330
62A
102
}
330
1E
100
AcDbEntity
  8
STEMPEL
100
AcDbLine
 10
255.47196873395
 20
432.0475160750046
 30
0.0
 11
242.37196873395
 21
418.9475160750045
 31
0.0
  0
ARC
  5
3FA
102
{ACAD_REACTORS
330
5CE
102
}
330
1E
100
AcDbEntity
  8
STEMPEL
100
AcDbCircle
 10
250.47196873395
 20
437.0475160750046
 30
0.0
 40
3.0
100
AcDbArc
 50
90.0
 51
180.0
  0
LINE
  5
3FB
102
{ACAD_REACTORS
330
5CE
102
}
330
1E
100
AcDbEntity
  8
MITTEL
100
AcDbLine
 10
249.0353074088308
 20
424.0475160750046
 30
0.0
 11
249.0353074088309
 21
441.0475160750046
 31
0.0
  0
ARC
  5
3FC
102
{ACAD_REACTORS
330
5CE
102
}
330
1E
100
AcDbEntity
  8
STEMPEL
100
AcDbCircle
 10
236.47196873395
 20
437.0475160750046
 30
0.0
 40
3.0
100
AcDbArc
 50
0.0
 51
90.0
  0
ARC
  5
3FD
102
{ACAD_REACTORS
330
5CE
102
}
330
1E
100
AcDbEntity
  8
STEMPEL
100
AcDbCircle
 10
235.97196873395
 20
437.0475160750046
 30
0.0
 40
3.0
100
AcDbArc
 50
90.0
 51
180.0
  0
ARC
  5
3FE
102
{ACAD_REACTORS
330
5CE
102
}
330
1E
100
AcDbEntity
  8
STEMPEL
100
AcDbCircle
 10
263.97196873395
 20
437.0475160750046
 30
0.0
 40
1.5
100
AcDbArc
 50
0.0
 51
90.0
  0
ARC
  5
3FF
102
{ACAD_REACTORS
330
5CE
102
}
330
1E
100
AcDbEntity
  8
STEMPEL
100
AcDbCircle
 10
263.97196873395
 20
437.0475160750046
 30
0.0
 40
3.0
100
AcDbArc
 50
0.0
 51
90.0
  0
LINE
  5
400
102
{ACAD_REACTORS
330
62A
102
}
330
1E
100
AcDbEntity
  8
STEMPEL
100
AcDbLine
 10
255.9719687339499
 20
429.0475160750045
 30
0.0
 11
270.47196873395
 21
429.0475160750045
 31
0.0
  0
LINE
  5
401
330
1E
100
AcDbEntity
  8
TEXT
 62
     2
100
AcDbLine
 10
290.8487110271888
 20
447.1088575641149
 30
0.0
 11
264.2930626919405
 21
439.321189257431
 31
0.0
  0
LINE
  5
402
330
1E
100
AcDbEntity
  8
BEM
 62
     1
100
AcDbLine
 10
190.0193341714527
 20
461.7374136077993
 30
0.0
 11
190.0193341714527
 21
454.7374136077993
 31
0.0
  0
LINE
  5
403
330
1E
100
AcDbEntity
  8
BEM
 62
     1
100
AcDbLine
 10
183.0193341714527
 20
454.7374136077993
 30
0.0
 11
183.0193341714527
 21
461.7374136077993
 31
0.0
  0
LINE
  5
404
330
1E
100
AcDbEntity
  8
BEM
 62
     1
100
AcDbLine
 10
183.0193341714527
 20
461.7374136077993
 30
0.0
 11
190.0193341714527
 21
461.7374136077993
 31
0.0
  0
LINE
  5
405
330
1E
100
AcDbEntity
  8
BEM
 62
     1
100
AcDbLine
 10
190.0193341714527
 20
454.7374136077993
 30
0.0
 11
183.0193341714527
 21
454.7374136077993
 31
0.0
  0
LINE
  5
406
102
{ACAD_REACTORS
330
62A
102
}
330
1E
100
AcDbEntity
  8
STEMPEL
100
AcDbLine
 10
245.9719687339499
 20
412.0475160750045
 30
0.0
 11
245.9719687339499
 21
409.0475160750044
 31
0.0
  0
LINE
  5
407
102
{ACAD_REACTORS
330
62A
102
}
330
1E
100
AcDbEntity
  8
STEMPEL
100
AcDbLine
 10
245.9719687339499
 20
412.0475160750045
 30
0.0
 11
246.4719687339499
 21
412.0475160750045
 31
0.0
  0
LINE
  5
408
102
{ACAD_REACTORS
330
62A
102
}
330
1E
100
AcDbEntity
  8
STEMPEL
100
AcDbLine
 10
245.9719687339499
 20
409.0475160750044
 30
0.0
 11
246.4719687339499
 21
409.0475160750044
 31
0.0
  0
LINE
  5
409
102
{ACAD_REACTORS
330
62A
102
}
330
1E
100
AcDbEntity
  8
STEMPEL
100
AcDbLine
 10
245.9719687339499
 20
397.0475160750045
 30
0.0
 11
245.9719687339499
 21
394.0475160750045
 31
0.0
  0
LINE
  5
40A
102
{ACAD_REACTORS
330
62A
102
}
330
1E
100
AcDbEntity
  8
STEMPEL
100
AcDbLine
 10
245.9719687339499
 20
394.0475160750045
 30
0.0
 11
246.4719687339499
 21
394.0475160750045
 31
0.0
  0
LINE
  5
40B
102
{ACAD_REACTORS
330
62A
102
}
330
1E
100
AcDbEntity
  8
STEMPEL
100
AcDbLine
 10
245.9719687339499
 20
397.0475160750045
 30
0.0
 11
246.4719687339499
 21
397.0475160750045
 31
0.0
  0
LINE
  5
40C
102
{ACAD_REACTORS
330
62A
102
}
330
1E
100
AcDbEntity
  8
STEMPEL
100
AcDbLine
 10
246.47196873395
 20
409.0475160750044
 30
0.0
 11
246.47196873395
 21
397.0475160750045
 31
0.0
  0
LINE
  5
40D
102
{ACAD_REACTORS
330
62A
102
}
330
1E
100
AcDbEntity
  8
STEMPEL
100
AcDbLine
 10
245.9719687339499
 20
382.0475160750045
 30
0.0
 11
245.9719687339499
 21
379.0475160750045
 31
0.0
  0
LINE
  5
40E
102
{ACAD_REACTORS
330
62A
102
}
330
1E
100
AcDbEntity
  8
STEMPEL
100
AcDbLine
 10
245.9719687339499
 20
379.0475160750046
 30
0.0
 11
246.4719687339499
 21
379.0475160750045
 31
0.0
  0
LINE
  5
40F
102
{ACAD_REACTORS
330
62A
102
}
330
1E
100
AcDbEntity
  8
STEMPEL
100
AcDbLine
 10
245.9719687339499
 20
382.0475160750045
 30
0.0
 11
246.4719687339499
 21
382.0475160750045
 31
0.0
  0
LINE
  5
411
102
{ACAD_REACTORS
330
62A
102
}
330
1E
100
AcDbEntity
  8
STEMPEL
100
AcDbLine
 10
245.97196873395
 20
367.0475160750045
 30
0.0
 11
246.4719687339499
 21
367.0475160750045
 31
0.0
  0
LINE
  5
412
102
{ACAD_REACTORS
330
62A
102
}
330
1E
100
AcDbEntity
  8
STEMPEL
100
AcDbLine
 10
246.47196873395
 20
379.0475160750046
 30
0.0
 11
246.47196873395
 21
367.0475160750045
 31
0.0
  0
LINE
  5
413
102
{ACAD_REACTORS
330
62A
102
}
330
1E
100
AcDbEntity
  8
STEMPEL
100
AcDbLine
 10
246.47196873395
 20
394.0475160750045
 30
0.0
 11
246.47196873395
 21
382.0475160750045
 31
0.0
  0
LINE
  5
414
102
{ACAD_REACTORS
330
62A
102
}
330
1E
100
AcDbEntity
  8
STEMPEL
100
AcDbLine
 10
245.9719687339499
 20
364.0475160750045
 30
0.0
 11
246.4719687339499
 21
364.0475160750045
 31
0.0
  0
LINE
  5
415
102
{ACAD_REACTORS
330
62A
102
}
330
1E
100
AcDbEntity
  8
STEMPEL
100
AcDbLine
 10
245.9719687339499
 20
352.0475160750045
 30
0.0
 11
245.9719687339499
 21
349.0475160750045
 31
0.0
  0
LINE
  5
416
102
{ACAD_REACTORS
330
62A
102
}
330
1E
100
AcDbEntity
  8
STEMPEL
100
AcDbLine
 10
245.9719687339499
 20
352.0475160750045
 30
0.0
 11
246.4719687339499
 21
352.0475160750045
 31
0.0
  0
LINE
  5
417
102
{ACAD_REACTORS
330
62A
102
}
330
1E
100
AcDbEntity
  8
STEMPEL
100
AcDbLine
 10
245.9719687339499
 20
349.0475160750045
 30
0.0
 11
246.4719687339499
 21
349.0475160750045
 31
0.0
  0
LINE
  5
418
102
{ACAD_REACTORS
330
62A
102
}
330
1E
100
AcDbEntity
  8
STEMPEL
100
AcDbLine
 10
246.47196873395
 20
364.0475160750045
 30
0.0
 11
246.47196873395
 21
352.0475160750045
 31
0.0
  0
LINE
  5
419
102
{ACAD_REACTORS
330
62A
102
}
330
1E
100
AcDbEntity
  8
STEMPEL
100
AcDbLine
 10
245.9719687339499
 20
337.0475160750045
 30
0.0
 11
245.9719687339499
 21
334.0475160750045
 31
0.0
  0
LINE
  5
41A
102
{ACAD_REACTORS
330
62A
102
}
330
1E
100
AcDbEntity
  8
STEMPEL
100
AcDbLine
 10
245.9719687339499
 20
334.0475160750045
 30
0.0
 11
246.4719687339499
 21
334.0475160750045
 31
0.0
  0
LINE
  5
41B
102
{ACAD_REACTORS
330
62A
102
}
330
1E
100
AcDbEntity
  8
STEMPEL
100
AcDbLine
 10
245.9719687339499
 20
337.0475160750045
 30
0.0
 11
246.4719687339499
 21
337.0475160750045
 31
0.0
  0
LINE
  5
41C
102
{ACAD_REACTORS
330
62A
102
}
330
1E
100
AcDbEntity
  8
STEMPEL
100
AcDbLine
 10
245.9719687339499
 20
322.0475160750045
 30
0.0
 11
246.4719687339499
 21
322.0475160750045
 31
0.0
  0
LINE
  5
41D
102
{ACAD_REACTORS
330
62A
102
}
330
1E
100
AcDbEntity
  8
STEMPEL
100
AcDbLine
 10
245.9719687339499
 20
319.0475160750045
 30
0.0
 11
246.4719687339499
 21
319.0475160750045
 31
0.0
  0
LINE
  5
41E
102
{ACAD_REACTORS
330
62A
102
}
330
1E
100
AcDbEntity
  8
STEMPEL
100
AcDbLine
 10
245.9719687339499
 20
322.0475160750045
 30
0.0
 11
245.9719687339499
 21
319.0475160750045
 31
0.0
  0
LINE
  5
41F
102
{ACAD_REACTORS
330
62A
102
}
330
1E
100
AcDbEntity
  8
STEMPEL
100
AcDbLine
 10
246.47196873395
 20
334.0475160750045
 30
0.0
 11
246.4719687339499
 21
322.0475160750045
 31
0.0
  0
LINE
  5
420
102
{ACAD_REACTORS
330
62A
102
}
330
1E
100
AcDbEntity
  8
STEMPEL
100
AcDbLine
 10
246.47196873395
 20
349.0475160750046
 30
0.0
 11
246.47196873395
 21
337.0475160750045
 31
0.0
  0
LINE
  5
421
330
1E
100
AcDbEntity
  8
TEXT
 62
     2
100
AcDbLine
 10
290.8487110271888
 20
360.4319605979735
 30
0.0
 11
245.5399690893604
 21
352.6442922912895
 31
0.0
  0
LINE
  5
422
102
{ACAD_REACTORS
330
62A
102
}
330
1E
100
AcDbEntity
  8
STEMPEL
100
AcDbLine
 10
245.97196873395
 20
367.0475160750046
 30
0.0
 11
245.9719687339499
 21
364.0475160750045
 31
0.0
  0
LINE
  5
423
102
{ACAD_REACTORS
330
62A
102
}
330
1E
100
AcDbEntity
  8
STEMPEL
100
AcDbLine
 10
246.47196873395
 20
419.5475160750045
 30
0.0
 11
246.47196873395
 21
412.0475160750045
 31
0.0
  0
TEXT
  5
424
330
1E
100
AcDbEntity
  8
TEXT
 62
     1
100
AcDbText
 10
292.9686040232343
 20
437.5963828427004
 30
0.0
 40
7.0
  1
EDV-Art.Nr. 16196.070X
 41
0.8
  7
GREEKS
100
AcDbText
  0
LINE
  5
425
330
1E
100
AcDbEntity
  8
TEXT
 62
     2
100
AcDbLine
 10
290.8487110271888
 20
447.1088575641149
 30
0.0
 11
396.4737898461919
 21
447.1088575641149
 31
0.0
  0
TEXT
  5
426
330
1E
100
AcDbEntity
  8
TEXT
 62
     1
100
AcDbText
 10
292.9686040232343
 20
450.4887629810113
 30
0.0
 40
7.0
  1
Sieb  143
 41
0.8
  7
GREEKS
100
AcDbText
  0
LINE
  5
427
330
1E
100
AcDbEntity
  8
TEXT
 62
     2
100
AcDbLine
 10
290.8487110271888
 20
360.4319605979735
 30
0.0
 11
396.4737898461919
 21
360.4319605979735
 31
0.0
  0
TEXT
  5
428
330
1E
100
AcDbEntity
  8
TEXT
 62
     1
100
AcDbText
 10
292.9686040232343
 20
363.8118660148699
 30
0.0
 40
7.0
  1
Siebaufnahme DN70
 41
0.8
  7
GREEKS
100
AcDbText
  0
TEXT
  5
429
330
1E
100
AcDbEntity
  8
TEXT
 62
     1
100
AcDbText
 10
292.9686040232343
 20
350.919485876559
 30
0.0
 40
7.0
  1
EDV-Art.Nr. 16290.070X
 41
0.8
  7
GREEKS
100
AcDbText
  0
ARC
  5
42A
102
{ACAD_REACTORS
330
5CE
102
}
330
1E
100
AcDbEntity
  8
STEMPEL
100
AcDbCircle
 10
154.97196873395
 20
437.0475160750046
 30
0.0
 40
1.5
100
AcDbArc
 50
0.0
 51
90.0
  0
LINE
  5
42B
102
{ACAD_REACTORS
330
5CE
102
}
330
1E
100
AcDbEntity
  8
STEMPEL
100
AcDbLine
 10
156.47196873395
 20
436.0475160750047
 30
0.0
 11
156.47196873395
 21
437.0475160750046
 31
0.0
  0
LINE
  5
42C
102
{ACAD_REACTORS
330
5CE
102
}
330
1E
100
AcDbEntity
  8
STEMPEL
100
AcDbLine
 10
157.97196873395
 20
436.0475160750047
 30
0.0
 11
157.97196873395
 21
437.0475160750046
 31
0.0
  0
LINE
  5
430
330
1E
100
AcDbEntity
  8
STEMPEL
100
AcDbLine
 10
146.1586300590691
 20
432.0475160750046
 30
0.0
 11
146.1586300590691
 21
436.0475160750046
 31
0.0
  0
LINE
  5
433
330
1E
100
AcDbEntity
  8
STEMPEL
100
AcDbLine
 10
137.6586300590692
 20
432.0475160750046
 30
0.0
 11
137.6586300590691
 21
436.0475160750046
 31
0.0
  0
LINE
  5
434
330
1E
100
AcDbEntity
  8
STEMPEL
100
AcDbLine
 10
146.1586300590691
 20
436.0475160750046
 30
0.0
 11
137.6586300590691
 21
436.0475160750046
 31
0.0
  0
LINE
  5
435
102
{ACAD_REACTORS
330
62A
102
}
330
1E
100
AcDbEntity
  8
STEMPEL
100
AcDbLine
 10
134.97196873395
 20
429.0475160750045
 30
0.0
 11
144.47196873395
 21
419.5475160750045
 31
0.0
  0
LINE
  5
436
102
{ACAD_REACTORS
330
62A
102
}
330
1E
100
AcDbEntity
  8
STEMPEL
100
AcDbLine
 10
135.47196873395
 20
432.0475160750046
 30
0.0
 11
148.57196873395
 21
418.9475160750045
 31
0.0
  0
ARC
  5
437
102
{ACAD_REACTORS
330
5CE
102
}
330
1E
100
AcDbEntity
  8
STEMPEL
100
AcDbCircle
 10
154.97196873395
 20
437.0475160750046
 30
0.0
 40
3.0
100
AcDbArc
 50
0.0
 51
90.0
  0
LINE
  5
438
102
{ACAD_REACTORS
330
5CE
102
}
330
1E
100
AcDbEntity
  8
MITTEL
100
AcDbLine
 10
141.9086300590692
 20
424.0475160750046
 30
0.0
 11
141.9086300590691
 21
441.0475160750046
 31
0.0
  0
POINT
  5
439
330
1E
100
AcDbEntity
  8
DEFPOINTS
  6
ByBlock
 62
     0
100
AcDbPoint
 10
124.6577874166012
 20
438.9565904136394
 30
0.0
  0
ARC
  5
43A
102
{ACAD_REACTORS
330
5CE
102
}
330
1E
100
AcDbEntity
  8
STEMPEL
100
AcDbCircle
 10
126.9719687339499
 20
437.0475160750046
 30
0.0
 40
1.5
100
AcDbArc
 50
90.0
 51
180.0
  0
LINE
  5
43B
102
{ACAD_REACTORS
330
5CE
102
}
330
1E
100
AcDbEntity
  8
STEMPEL
100
AcDbLine
 10
123.97196873395
 20
432.0475160750047
 30
0.0
 11
123.9719687339499
 21
437.0475160750046
 31
0.0
  0
LINE
  5
43C
102
{ACAD_REACTORS
330
5CE
102
}
330
1E
100
AcDbEntity
  8
STEMPEL
100
AcDbLine
 10
125.47196873395
 20
432.0475160750047
 30
0.0
 11
125.47196873395
 21
437.0475160750046
 31
0.0
  0
LINE
  5
43D
102
{ACAD_REACTORS
330
62A
102
}
330
1E
100
AcDbEntity
  8
STEMPEL
100
AcDbLine
 10
123.4719687339499
 20
440.0475160750046
 30
0.0
 11
123.47196873395
 21
432.0475160750046
 31
0.0
  0
LINE
  5
43E
102
{ACAD_REACTORS
330
62A
102
}
330
1E
100
AcDbEntity
  8
STEMPEL
100
AcDbLine
 10
120.4719687339499
 20
440.0475160750046
 30
0.0
 11
120.47196873395
 21
429.0475160750045
 31
0.0
  0
ARC
  5
43F
102
{ACAD_REACTORS
330
5CE
102
}
330
1E
100
AcDbEntity
  8
STEMPEL
100
AcDbCircle
 10
126.9719687339499
 20
437.0475160750046
 30
0.0
 40
3.0
100
AcDbArc
 50
90.0
 51
180.0
  0
LINE
  5
440
102
{ACAD_REACTORS
330
62A
102
}
330
1E
100
AcDbEntity
  8
STEMPEL
100
AcDbLine
 10
134.9719687339501
 20
429.0475160750045
 30
0.0
 11
120.47196873395
 21
429.0475160750045
 31
0.0
  0
LINE
  5
441
102
{ACAD_REACTORS
330
5CE
102
}
330
1E
100
AcDbEntity
  8
STEMPEL
100
AcDbLine
 10
126.9719687339499
 20
438.5475160750046
 30
0.0
 11
154.97196873395
 21
438.5475160750046
 31
0.0
  0
LINE
  5
442
102
{ACAD_REACTORS
330
62A
102
}
330
1E
100
AcDbEntity
  8
STEMPEL
100
AcDbLine
 10
144.9719687339501
 20
412.0475160750045
 30
0.0
 11
144.9719687339501
 21
409.0475160750044
 31
0.0
  0
LINE
  5
443
102
{ACAD_REACTORS
330
62A
102
}
330
1E
100
AcDbEntity
  8
STEMPEL
100
AcDbLine
 10
144.9719687339501
 20
409.0475160750044
 30
0.0
 11
144.4719687339501
 21
409.0475160750044
 31
0.0
  0
LINE
  5
444
102
{ACAD_REACTORS
330
62A
102
}
330
1E
100
AcDbEntity
  8
STEMPEL
100
AcDbLine
 10
144.9719687339501
 20
412.0475160750045
 30
0.0
 11
144.4719687339501
 21
412.0475160750045
 31
0.0
  0
LINE
  5
445
102
{ACAD_REACTORS
330
62A
102
}
330
1E
100
AcDbEntity
  8
STEMPEL
100
AcDbLine
 10
144.9719687339501
 20
397.0475160750045
 30
0.0
 11
144.4719687339501
 21
397.0475160750045
 31
0.0
  0
LINE
  5
446
102
{ACAD_REACTORS
330
62A
102
}
330
1E
100
AcDbEntity
  8
STEMPEL
100
AcDbLine
 10
144.9719687339501
 20
394.0475160750045
 30
0.0
 11
144.4719687339501
 21
394.0475160750045
 31
0.0
  0
LINE
  5
447
102
{ACAD_REACTORS
330
62A
102
}
330
1E
100
AcDbEntity
  8
STEMPEL
100
AcDbLine
 10
144.9719687339501
 20
397.0475160750045
 30
0.0
 11
144.9719687339501
 21
394.0475160750045
 31
0.0
  0
LINE
  5
448
102
{ACAD_REACTORS
330
62A
102
}
330
1E
100
AcDbEntity
  8
STEMPEL
100
AcDbLine
 10
144.47196873395
 20
409.0475160750044
 30
0.0
 11
144.47196873395
 21
397.0475160750045
 31
0.0
  0
LINE
  5
44A
102
{ACAD_REACTORS
330
62A
102
}
330
1E
100
AcDbEntity
  8
STEMPEL
100
AcDbLine
 10
144.9719687339501
 20
382.0475160750045
 30
0.0
 11
144.4719687339501
 21
382.0475160750045
 31
0.0
  0
LINE
  5
44B
102
{ACAD_REACTORS
330
62A
102
}
330
1E
100
AcDbEntity
  8
STEMPEL
100
AcDbLine
 10
144.9719687339501
 20
379.0475160750046
 30
0.0
 11
144.4719687339501
 21
379.0475160750045
 31
0.0
  0
LINE
  5
44C
102
{ACAD_REACTORS
330
62A
102
}
330
1E
100
AcDbEntity
  8
STEMPEL
100
AcDbLine
 10
144.9719687339501
 20
382.0475160750045
 30
0.0
 11
144.9719687339501
 21
379.0475160750045
 31
0.0
  0
LINE
  5
44D
102
{ACAD_REACTORS
330
62A
102
}
330
1E
100
AcDbEntity
  8
STEMPEL
100
AcDbLine
 10
144.97196873395
 20
367.0475160750045
 30
0.0
 11
144.4719687339501
 21
367.0475160750045
 31
0.0
  0
LINE
  5
44E
102
{ACAD_REACTORS
330
62A
102
}
330
1E
100
AcDbEntity
  8
STEMPEL
100
AcDbLine
 10
144.47196873395
 20
379.0475160750046
 30
0.0
 11
144.47196873395
 21
367.0475160750045
 31
0.0
  0
LINE
  5
44F
102
{ACAD_REACTORS
330
62A
102
}
330
1E
100
AcDbEntity
  8
STEMPEL
100
AcDbLine
 10
144.47196873395
 20
394.0475160750045
 30
0.0
 11
144.47196873395
 21
382.0475160750045
 31
0.0
  0
LINE
  5
450
102
{ACAD_REACTORS
330
62A
102
}
330
1E
100
AcDbEntity
  8
STEMPEL
100
AcDbLine
 10
144.9719687339501
 20
364.0475160750045
 30
0.0
 11
144.4719687339501
 21
364.0475160750045
 31
0.0
  0
LINE
  5
451
102
{ACAD_REACTORS
330
62A
102
}
330
1E
100
AcDbEntity
  8
STEMPEL
100
AcDbLine
 10
144.9719687339501
 20
352.0475160750045
 30
0.0
 11
144.4719687339501
 21
352.0475160750045
 31
0.0
  0
LINE
  5
452
102
{ACAD_REACTORS
330
62A
102
}
330
1E
100
AcDbEntity
  8
STEMPEL
100
AcDbLine
 10
144.9719687339501
 20
349.0475160750045
 30
0.0
 11
144.4719687339501
 21
349.0475160750045
 31
0.0
  0
LINE
  5
453
102
{ACAD_REACTORS
330
62A
102
}
330
1E
100
AcDbEntity
  8
STEMPEL
100
AcDbLine
 10
144.9719687339501
 20
352.0475160750045
 30
0.0
 11
144.9719687339501
 21
349.0475160750045
 31
0.0
  0
LINE
  5
454
102
{ACAD_REACTORS
330
62A
102
}
330
1E
100
AcDbEntity
  8
STEMPEL
100
AcDbLine
 10
144.47196873395
 20
364.0475160750045
 30
0.0
 11
144.47196873395
 21
352.0475160750045
 31
0.0
  0
LINE
  5
455
102
{ACAD_REACTORS
330
62A
102
}
330
1E
100
AcDbEntity
  8
STEMPEL
100
AcDbLine
 10
144.9719687339501
 20
337.0475160750045
 30
0.0
 11
144.4719687339501
 21
337.0475160750045
 31
0.0
  0
LINE
  5
456
102
{ACAD_REACTORS
330
62A
102
}
330
1E
100
AcDbEntity
  8
STEMPEL
100
AcDbLine
 10
144.9719687339501
 20
334.0475160750045
 30
0.0
 11
144.4719687339501
 21
334.0475160750045
 31
0.0
  0
LINE
  5
457
102
{ACAD_REACTORS
330
62A
102
}
330
1E
100
AcDbEntity
  8
STEMPEL
100
AcDbLine
 10
144.9719687339501
 20
337.0475160750045
 30
0.0
 11
144.9719687339501
 21
334.0475160750045
 31
0.0
  0
LINE
  5
458
102
{ACAD_REACTORS
330
62A
102
}
330
1E
100
AcDbEntity
  8
STEMPEL
100
AcDbLine
 10
144.9719687339501
 20
322.0475160750045
 30
0.0
 11
144.4719687339501
 21
322.0475160750045
 31
0.0
  0
LINE
  5
459
102
{ACAD_REACTORS
330
62A
102
}
330
1E
100
AcDbEntity
  8
STEMPEL
100
AcDbLine
 10
144.9719687339501
 20
319.0475160750045
 30
0.0
 11
144.4719687339501
 21
319.0475160750045
 31
0.0
  0
LINE
  5
45A
102
{ACAD_REACTORS
330
62A
102
}
330
1E
100
AcDbEntity
  8
STEMPEL
100
AcDbLine
 10
144.9719687339501
 20
322.0475160750045
 30
0.0
 11
144.9719687339501
 21
319.0475160750045
 31
0.0
  0
LINE
  5
45B
102
{ACAD_REACTORS
330
62A
102
}
330
1E
100
AcDbEntity
  8
STEMPEL
100
AcDbLine
 10
144.47196873395
 20
334.0475160750045
 30
0.0
 11
144.4719687339501
 21
322.0475160750045
 31
0.0
  0
LINE
  5
45C
102
{ACAD_REACTORS
330
62A
102
}
330
1E
100
AcDbEntity
  8
STEMPEL
100
AcDbLine
 10
144.47196873395
 20
349.0475160750046
 30
0.0
 11
144.47196873395
 21
337.0475160750045
 31
0.0
  0
LINE
  5
45D
102
{ACAD_REACTORS
330
62A
102
}
330
1E
100
AcDbEntity
  8
STEMPEL
100
AcDbLine
 10
144.97196873395
 20
367.0475160750046
 30
0.0
 11
144.9719687339501
 21
364.0475160750045
 31
0.0
  0
DIMENSION
  5
45E
330
1E
100
AcDbEntity
  8
BEM
100
AcDbDimension
  2
*D1
 10
107.6684965534613
 20
429.0475160750045
 30
0.0
 11
101.1684965534612
 21
409.2475160750045
 31
0.0
 70
    32
 71
     5
 42
10.99999999999977
  3
Standard
100
AcDbAlignedDimension
 13
120.4719687339499
 23
440.0475160750043
 33
0.0
 14
120.47196873395
 24
429.0475160750045
 34
0.0
 50
90.0
100
AcDbRotatedDimension
1001
ACAD
1000
DSTYLE
1002
{
1070
    40
1040
2.0
1070
    41
1040
3.5
1070
    42
1040
1.0
1070
    43
1040
7.0
1070
    44
1040
1.0
1070
    73
1070
     0
1070
    74
1070
     0
1070
    77
1070
     1
1070
    78
1070
     8
1070
    79
1070
     2
1070
   140
1040
3.5
1070
   141
1040
1.5
1070
   146
1040
0.5142857142857144
1070
   147
1040
1.5
1070
   172
1070
     1
1070
   178
1070
     1
1070
   179
1070
     2
1070
   271
1070
     2
1070
   272
1070
     2
1070
   284
1070
     8
1070
   285
1070
     8
1070
   286
1070
     8
1002
}
  0
LINE
  5
45F
102
{ACAD_REACTORS
330
62A
102
}
330
1E
100
AcDbEntity
  8
STEMPEL
100
AcDbLine
 10
144.47196873395
 20
419.5475160750045
 30
0.0
 11
144.47196873395
 21
412.0475160750045
 31
0.0
  0
DIMENSION
  5
460
330
1E
100
AcDbEntity
  8
BEM
100
AcDbDimension
  2
*D2
 10
270.4719687339501
 20
451.7063201695646
 30
0.0
 11
198.7276668994041
 21
451.7063201695646
 31
0.0
 70
   160
 71
     5
 42
150.0000000000002
  3
Standard
100
AcDbAlignedDimension
 13
120.4719687339499
 23
440.0475160750043
 33
0.0
 14
270.4719687339501
 24
440.0475160750046
 34
0.0
100
AcDbRotatedDimension
1001
ACAD
1000
DSTYLE
1002
{
1070
    40
1040
2.0
1070
    41
1040
3.5
1070
    42
1040
1.0
1070
    43
1040
7.0
1070
    44
1040
1.0
1070
    73
1070
     0
1070
    74
1070
     0
1070
    77
1070
     1
1070
    78
1070
     8
1070
    79
1070
     2
1070
   140
1040
3.5
1070
   141
1040
1.5
1070
   146
1040
0.5142857142857144
1070
   147
1040
1.5
1070
   172
1070
     1
1070
   178
1070
     1
1070
   179
1070
     2
1070
   271
1070
     2
1070
   272
1070
     2
1070
   284
1070
     8
1070
   285
1070
     8
1070
   286
1070
     8
1002
}
  0
LINE
  5
462
102
{ACAD_REACTORS
330
5CE
330
62A
102
}
330
1E
100
AcDbEntity
  8
STEMPEL
100
AcDbLine
 10
120.4719687339499
 20
440.0475160750043
 30
0.0
 11
270.4719687339501
 21
440.0475160750046
 31
0.0
  0
LINE
  5
463
102
{ACAD_REACTORS
330
5CE
330
62A
102
}
330
1E
100
AcDbEntity
  8
STEMPEL
100
AcDbLine
 10
123.47196873395
 20
432.0475160750048
 30
0.0
 11
267.47196873395
 21
432.0475160750046
 31
0.0
  0
LINE
  5
464
102
{ACAD_REACTORS
330
5CE
102
}
330
1E
100
AcDbEntity
  8
STEMPEL
100
AcDbLine
 10
142.3297534551665
 20
436.0475160750047
 30
0.0
 11
248.97196873395
 21
436.0475160750047
 31
0.0
  0
LINE
  5
465
330
1E
100
AcDbEntity
  8
STEMPEL
100
AcDbLine
 10
148.5719687339501
 20
418.9475160750044
 30
0.0
 11
242.37196873395
 21
418.9475160750045
 31
0.0
  0
ARC
  5
466
102
{ACAD_REACTORS
330
64C
102
}
330
1E
100
AcDbEntity
  8
STEMPEL
100
AcDbCircle
 10
252.47196873395
 20
295.0475160750045
 30
0.0
 40
5.0
100
AcDbArc
 50
0.0
 51
90.0
  0
LINE
  5
467
102
{ACAD_REACTORS
330
62A
102
}
330
1E
100
AcDbEntity
  8
STEMPEL
100
AcDbLine
 10
245.9719687339499
 20
307.0475160750045
 30
0.0
 11
246.4719687339499
 21
307.0475160750045
 31
0.0
  0
LINE
  5
468
102
{ACAD_REACTORS
330
62A
102
}
330
1E
100
AcDbEntity
  8
STEMPEL
100
AcDbLine
 10
245.9719687339499
 20
304.0475160750045
 30
0.0
 11
246.4719687339499
 21
304.0475160750045
 31
0.0
  0
LINE
  5
469
330
1E
100
AcDbEntity
  8
STEMPEL
100
AcDbLine
 10
246.4719687339499
 20
295.0475160750045
 30
0.0
 11
246.6719687339501
 21
295.0475160750045
 31
0.0
  0
LINE
  5
46A
102
{ACAD_REACTORS
330
62A
102
}
330
1E
100
AcDbEntity
  8
STEMPEL
100
AcDbLine
 10
245.9719687339499
 20
307.0475160750045
 30
0.0
 11
245.9719687339499
 21
304.0475160750045
 31
0.0
  0
LINE
  5
46B
102
{ACAD_REACTORS
330
64C
102
}
330
1E
100
AcDbEntity
  8
STEMPEL
100
AcDbLine
 10
246.4719687339499
 20
300.0475160750045
 30
0.0
 11
252.47196873395
 21
300.0475160750045
 31
0.0
  0
ARC
  5
46C
102
{ACAD_REACTORS
330
64C
102
}
330
1E
100
AcDbEntity
  8
STEMPEL
100
AcDbCircle
 10
253.47196873395
 20
284.5475160750045
 30
0.0
 40
2.5
100
AcDbArc
 50
90.0
 51
180.0
  0
LINE
  5
46D
102
{ACAD_REACTORS
330
64C
102
}
330
1E
100
AcDbEntity
  8
STEMPEL
100
AcDbLine
 10
253.47196873395
 20
287.0475160750045
 30
0.0
 11
257.4719687339499
 21
287.0475160750045
 31
0.0
  0
LINE
  5
46E
102
{ACAD_REACTORS
330
64C
102
}
330
1E
100
AcDbEntity
  8
STEMPEL
100
AcDbLine
 10
248.47196873395
 20
271.0475160750045
 30
0.0
 11
248.47196873395
 21
275.5475160750044
 31
0.0
  0
LINE
  5
46F
102
{ACAD_REACTORS
330
64C
102
}
330
1E
100
AcDbEntity
  8
STEMPEL
100
AcDbLine
 10
249.97196873395
 20
277.0475160750045
 30
0.0
 11
250.9719687339499
 21
277.0475160750045
 31
0.0
  0
LINE
  5
470
102
{ACAD_REACTORS
330
64C
102
}
330
1E
100
AcDbEntity
  8
STEMPEL
100
AcDbLine
 10
250.9719687339499
 20
277.0475160750045
 30
0.0
 11
250.97196873395
 21
284.5475160750045
 31
0.0
  0
POINT
  5
471
330
1E
100
AcDbEntity
  8
DEFPOINTS
  6
ByBlock
 62
     0
100
AcDbPoint
 10
244.6219266031973
 20
290.0475160750046
 30
0.0
  0
LINE
  5
472
102
{ACAD_REACTORS
330
64C
102
}
330
1E
100
AcDbEntity
  8
STEMPEL
100
AcDbLine
 10
243.97196873395
 20
271.0475160750045
 30
0.0
 11
243.97196873395
 21
290.0475160750044
 31
0.0
  0
ARC
  5
473
102
{ACAD_REACTORS
330
64C
102
}
330
1E
100
AcDbEntity
  8
STEMPEL
100
AcDbCircle
 10
249.97196873395
 20
275.5475160750044
 30
0.0
 40
1.5
100
AcDbArc
 50
90.0
 51
180.0
  0
LINE
  5
474
102
{ACAD_REACTORS
330
64C
102
}
330
1E
100
AcDbEntity
  8
STEMPEL
100
AcDbLine
 10
243.97196873395
 20
271.0475160750045
 30
0.0
 11
248.47196873395
 21
271.0475160750045
 31
0.0
  0
LINE
  5
475
102
{ACAD_REACTORS
330
64C
102
}
330
1E
100
AcDbEntity
  8
STEMPEL
100
AcDbLine
 10
257.4719687339499
 20
287.0475160750045
 30
0.0
 11
257.4719687339499
 21
295.0475160750045
 31
0.0
  0
LINE
  5
476
102
{ACAD_REACTORS
330
64C
102
}
330
1E
100
AcDbEntity
  8
STEMPEL
100
AcDbLine
 10
246.6719687339499
 20
290.0475160750045
 30
0.0
 11
246.6719687339499
 21
300.0475160750045
 31
0.0
  0
LINE
  5
477
102
{ACAD_REACTORS
330
62A
102
}
330
1E
100
AcDbEntity
  8
STEMPEL
100
AcDbLine
 10
246.4719687339499
 20
304.0475160750045
 30
0.0
 11
246.4719687339499
 21
290.0475160750045
 31
0.0
  0
LINE
  5
478
330
1E
100
AcDbEntity
  8
TEXT
 62
     2
100
AcDbLine
 10
290.8487110271888
 20
304.6241856157863
 30
0.0
 11
255.4784493453917
 21
296.8365173091022
 31
0.0
  0
LINE
  5
479
330
1E
100
AcDbEntity
  8
STEMPEL
100
AcDbLine
 10
202.97196873395
 20
271.0475160750045
 30
0.0
 11
202.97196873395
 21
290.0475160750044
 31
0.0
  0
LINE
  5
47A
330
1E
100
AcDbEntity
  8
STEMPEL
100
AcDbLine
 10
187.97196873395
 20
271.0475160750045
 30
0.0
 11
187.97196873395
 21
290.0475160750044
 31
0.0
  0
LINE
  5
47B
330
1E
100
AcDbEntity
  8
STEMPEL
100
AcDbLine
 10
187.97196873395
 20
271.0475160750045
 30
0.0
 11
202.97196873395
 21
271.0475160750045
 31
0.0
  0
LINE
  5
47C
330
1E
100
AcDbEntity
  8
TEXT
 62
     2
100
AcDbLine
 10
290.8487110271888
 20
304.6241856157863
 30
0.0
 11
396.4737898461919
 21
304.6241856157863
 31
0.0
  0
TEXT
  5
47D
330
1E
100
AcDbEntity
  8
TEXT
 62
     1
100
AcDbText
 10
292.9686040232343
 20
308.0040910326826
 30
0.0
 40
7.0
  1
Entw„sserungsring DN70
 41
0.8
  7
GREEKS
100
AcDbText
  0
TEXT
  5
47E
330
1E
100
AcDbEntity
  8
TEXT
 62
     1
100
AcDbText
 10
292.9686040232343
 20
295.1117108943718
 30
0.0
 40
7.0
  1
EDV-Art.Nr. 16097.070X
 41
0.8
  7
GREEKS
100
AcDbText
  0
LINE
  5
47F
102
{ACAD_REACTORS
330
62A
102
}
330
1E
100
AcDbEntity
  8
STEMPEL
100
AcDbLine
 10
144.9719687339501
 20
307.0475160750045
 30
0.0
 11
144.4719687339501
 21
307.0475160750045
 31
0.0
  0
LINE
  5
480
102
{ACAD_REACTORS
330
62A
102
}
330
1E
100
AcDbEntity
  8
STEMPEL
100
AcDbLine
 10
144.9719687339501
 20
304.0475160750045
 30
0.0
 11
144.4719687339501
 21
304.0475160750045
 31
0.0
  0
LINE
  5
481
102
{ACAD_REACTORS
330
64C
102
}
330
1E
100
AcDbEntity
  8
STEMPEL
100
AcDbLine
 10
138.47196873395
 20
300.0475160750045
 30
0.0
 11
144.4719687339501
 21
300.0475160750045
 31
0.0
  0
LINE
  5
482
330
1E
100
AcDbEntity
  8
STEMPEL
100
AcDbLine
 10
144.2719687339499
 20
295.0475160750045
 30
0.0
 11
144.4719687339501
 21
295.0475160750045
 31
0.0
  0
POINT
  5
483
330
1E
100
AcDbEntity
  8
DEFPOINTS
  6
ByBlock
 62
     0
100
AcDbPoint
 10
134.577658698357
 20
298.1834926926913
 30
0.0
  0
POINT
  5
484
330
1E
100
AcDbEntity
  8
DEFPOINTS
  6
ByBlock
 62
     0
100
AcDbPoint
 10
134.0914577722437
 20
297.4581433200118
 30
0.0
  0
ARC
  5
485
102
{ACAD_REACTORS
330
64C
102
}
330
1E
100
AcDbEntity
  8
STEMPEL
100
AcDbCircle
 10
138.47196873395
 20
295.0475160750045
 30
0.0
 40
5.0
100
AcDbArc
 50
90.0
 51
180.0
  0
LINE
  5
486
102
{ACAD_REACTORS
330
62A
102
}
330
1E
100
AcDbEntity
  8
STEMPEL
100
AcDbLine
 10
144.9719687339501
 20
307.0475160750045
 30
0.0
 11
144.9719687339501
 21
304.0475160750045
 31
0.0
  0
POINT
  5
487
330
1E
100
AcDbEntity
  8
DEFPOINTS
  6
ByBlock
 62
     0
100
AcDbPoint
 10
146.3220108647027
 20
290.0475160750046
 30
0.0
  0
LINE
  5
488
102
{ACAD_REACTORS
330
64C
102
}
330
1E
100
AcDbEntity
  8
STEMPEL
100
AcDbLine
 10
146.97196873395
 20
271.0475160750045
 30
0.0
 11
146.97196873395
 21
290.0475160750044
 31
0.0
  0
LINE
  5
489
102
{ACAD_REACTORS
330
64C
102
}
330
1E
100
AcDbEntity
  8
STEMPEL
100
AcDbLine
 10
137.47196873395
 20
287.0475160750045
 30
0.0
 11
133.47196873395
 21
287.0475160750045
 31
0.0
  0
ARC
  5
48A
102
{ACAD_REACTORS
330
64C
102
}
330
1E
100
AcDbEntity
  8
STEMPEL
100
AcDbCircle
 10
137.47196873395
 20
284.5475160750045
 30
0.0
 40
2.5
100
AcDbArc
 50
0.0
 51
90.0
  0
LINE
  5
48B
102
{ACAD_REACTORS
330
64C
102
}
330
1E
100
AcDbEntity
  8
STEMPEL
100
AcDbLine
 10
140.97196873395
 20
277.0475160750045
 30
0.0
 11
139.97196873395
 21
277.0475160750045
 31
0.0
  0
ARC
  5
48C
102
{ACAD_REACTORS
330
64C
102
}
330
1E
100
AcDbEntity
  8
STEMPEL
100
AcDbCircle
 10
140.97196873395
 20
275.5475160750044
 30
0.0
 40
1.5
100
AcDbArc
 50
0.0
 51
90.0
  0
LINE
  5
48D
102
{ACAD_REACTORS
330
64C
102
}
330
1E
100
AcDbEntity
  8
STEMPEL
100
AcDbLine
 10
142.47196873395
 20
271.0475160750045
 30
0.0
 11
142.47196873395
 21
275.5475160750044
 31
0.0
  0
LINE
  5
48E
102
{ACAD_REACTORS
330
64C
102
}
330
1E
100
AcDbEntity
  8
STEMPEL
100
AcDbLine
 10
139.97196873395
 20
277.0475160750045
 30
0.0
 11
139.97196873395
 21
284.5475160750045
 31
0.0
  0
LINE
  5
48F
102
{ACAD_REACTORS
330
64C
102
}
330
1E
100
AcDbEntity
  8
STEMPEL
100
AcDbLine
 10
142.47196873395
 20
271.0475160750045
 30
0.0
 11
146.97196873395
 21
271.0475160750045
 31
0.0
  0
LINE
  5
490
102
{ACAD_REACTORS
330
64C
102
}
330
1E
100
AcDbEntity
  8
STEMPEL
100
AcDbLine
 10
133.47196873395
 20
287.0475160750045
 30
0.0
 11
133.47196873395
 21
295.0475160750045
 31
0.0
  0
LINE
  5
491
102
{ACAD_REACTORS
330
64C
102
}
330
1E
100
AcDbEntity
  8
STEMPEL
100
AcDbLine
 10
144.2719687339499
 20
290.0475160750044
 30
0.0
 11
144.2719687339499
 21
300.0475160750045
 31
0.0
  0
LINE
  5
492
102
{ACAD_REACTORS
330
62A
102
}
330
1E
100
AcDbEntity
  8
STEMPEL
100
AcDbLine
 10
144.4719687339501
 20
304.0475160750045
 30
0.0
 11
144.4719687339501
 21
290.0475160750045
 31
0.0
  0
DIMENSION
  5
493
330
1E
100
AcDbEntity
  8
BEM
100
AcDbDimension
  2
*D3
 10
107.6684965534613
 20
300.0475160750045
 30
0.0
 11
101.1684965534612
 21
285.5475160750046
 31
0.0
 70
    32
 71
     5
 42
29.0
  3
Standard
100
AcDbAlignedDimension
 13
142.47196873395
 23
271.0475160750045
 33
0.0
 14
138.47196873395
 24
300.0475160750045
 34
0.0
 50
90.0
100
AcDbRotatedDimension
1001
ACAD
1000
DSTYLE
1002
{
1070
    40
1040
2.0
1070
    41
1040
3.5
1070
    42
1040
1.0
1070
    43
1040
7.0
1070
    44
1040
1.0
1070
    73
1070
     0
1070
    74
1070
     0
1070
    77
1070
     1
1070
    78
1070
     8
1070
    79
1070
     2
1070
   140
1040
3.5
1070
   141
1040
1.5
1070
   146
1040
0.5142857142857144
1070
   147
1040
1.5
1070
   172
1070
     1
1070
   178
1070
     1
1070
   179
1070
     2
1070
   271
1070
     2
1070
   272
1070
     2
1070
   284
1070
     8
1070
   285
1070
     8
1070
   286
1070
     8
1002
}
  0
DIMENSION
  5
494
330
1E
100
AcDbEntity
  8
BEM
100
AcDbDimension
  2
*D4
 10
257.4719687339499
 20
219.4287070003986
 30
0.0
 11
195.4719687339499
 21
225.9287070003986
 31
0.0
 70
    32
  1
%%c<>
 71
     5
 42
123.9999999999999
  3
Standard
100
AcDbAlignedDimension
 13
133.47196873395
 23
287.0475160750045
 33
0.0
 14
257.4719687339499
 24
287.0475160750045
 34
0.0
100
AcDbRotatedDimension
1001
ACAD
1000
DSTYLE
1002
{
1070
    40
1040
2.0
1070
    41
1040
3.5
1070
    42
1040
1.0
1070
    43
1040
7.0
1070
    44
1040
1.0
1070
    73
1070
     0
1070
    74
1070
     0
1070
    77
1070
     1
1070
    78
1070
     8
1070
    79
1070
     2
1070
   140
1040
3.5
1070
   141
1040
1.5
1070
   146
1040
0.5142857142857144
1070
   147
1040
1.5
1070
   172
1070
     1
1070
   178
1070
     1
1070
   179
1070
     2
1070
   271
1070
     2
1070
   272
1070
     2
1070
   284
1070
     8
1070
   285
1070
     8
1070
   286
1070
     8
1002
}
  0
DIMENSION
  5
495
330
1E
100
AcDbEntity
  8
BEM
100
AcDbDimension
  2
*D5
 10
250.9719687339499
 20
233.0117664497676
 30
0.0
 11
195.4719687339499
 21
239.5117664497676
 31
0.0
 70
    32
  1
%%c<>
 71
     5
 42
110.9999999999999
  3
Standard
100
AcDbAlignedDimension
 13
139.97196873395
 23
277.0475160750045
 33
0.0
 14
250.9719687339499
 24
277.0475160750045
 34
0.0
100
AcDbRotatedDimension
1001
ACAD
1000
DSTYLE
1002
{
1070
    40
1040
2.0
1070
    41
1040
3.5
1070
    42
1040
1.0
1070
    43
1040
7.0
1070
    44
1040
1.0
1070
    73
1070
     0
1070
    74
1070
     0
1070
    77
1070
     1
1070
    78
1070
     8
1070
    79
1070
     2
1070
   140
1040
3.5
1070
   141
1040
1.5
1070
   146
1040
0.5142857142857144
1070
   147
1040
1.5
1070
   172
1070
     1
1070
   178
1070
     1
1070
   179
1070
     2
1070
   271
1070
     2
1070
   272
1070
     2
1070
   284
1070
     8
1070
   285
1070
     8
1070
   286
1070
     8
1002
}
  0
DIMENSION
  5
496
330
1E
100
AcDbEntity
  8
BEM
100
AcDbDimension
  2
*D6
 10
248.47196873395
 20
246.2789473848418
 30
0.0
 11
195.47196873395
 21
252.7789473848418
 31
0.0
 70
    32
  1
%%c<>
 71
     5
 42
106.0
  3
Standard
100
AcDbAlignedDimension
 13
142.47196873395
 23
271.0475160750045
 33
0.0
 14
248.47196873395
 24
271.0475160750045
 34
0.0
100
AcDbRotatedDimension
1001
ACAD
1000
DSTYLE
1002
{
1070
    40
1040
2.0
1070
    41
1040
3.5
1070
    42
1040
1.0
1070
    43
1040
7.0
1070
    44
1040
1.0
1070
    73
1070
     0
1070
    74
1070
     0
1070
    77
1070
     1
1070
    78
1070
     8
1070
    79
1070
     2
1070
   140
1040
3.5
1070
   141
1040
1.5
1070
   146
1040
0.5142857142857144
1070
   147
1040
1.5
1070
   172
1070
     1
1070
   178
1070
     1
1070
   179
1070
     2
1070
   271
1070
     2
1070
   272
1070
     2
1070
   284
1070
     8
1070
   285
1070
     8
1070
   286
1070
     8
1002
}
  0
LINE
  5
498
102
{ACAD_REACTORS
330
62A
330
64C
102
}
330
1E
100
AcDbEntity
  8
STEMPEL
100
AcDbLine
 10
144.2719687339499
 20
290.0475160750044
 30
0.0
 11
246.6719687339499
 21
290.0475160750045
 31
0.0
  0
DIMENSION
  5
499
330
1E
100
AcDbEntity
  8
BEM
100
AcDbDimension
  2
*D7
 10
92.41629555221061
 20
440.0475160750043
 30
0.0
 11
85.91629555221054
 21
355.5475160750044
 31
0.0
 70
    32
 71
     5
 42
168.9999999999998
  3
Standard
100
AcDbAlignedDimension
 13
142.47196873395
 23
271.0475160750045
 33
0.0
 14
120.4719687339499
 24
440.0475160750043
 34
0.0
 50
90.0
100
AcDbRotatedDimension
1001
ACAD
1000
DSTYLE
1002
{
1070
    40
1040
2.0
1070
    41
1040
3.5
1070
    42
1040
1.0
1070
    43
1040
7.0
1070
    44
1040
1.0
1070
    73
1070
     0
1070
    74
1070
     0
1070
    77
1070
     1
1070
    78
1070
     8
1070
    79
1070
     2
1070
   140
1040
3.5
1070
   141
1040
1.5
1070
   146
1040
0.5142857142857144
1070
   147
1040
1.5
1070
   172
1070
     1
1070
   178
1070
     1
1070
   179
1070
     2
1070
   271
1070
     2
1070
   272
1070
     2
1070
   284
1070
     8
1070
   285
1070
     8
1070
   286
1070
     8
1002
}
  0
LINE
  5
49A
102
{ACAD_REACTORS
330
62A
102
}
330
1E
100
AcDbEntity
  8
STEMPEL
100
AcDbLine
 10
246.4719687339499
 20
319.0475160750045
 30
0.0
 11
246.4719687339499
 21
307.0475160750045
 31
0.0
  0
LINE
  5
49B
330
1E
100
AcDbEntity
  8
MITTEL
100
AcDbLine
 10
195.47196873395
 20
445.0475160750043
 30
0.0
 11
195.47196873395
 21
266.0475160750045
 31
0.0
  0
LINE
  5
49C
102
{ACAD_REACTORS
330
62A
102
}
330
1E
100
AcDbEntity
  8
STEMPEL
100
AcDbLine
 10
242.37196873395
 20
418.9475160750045
 30
0.0
 11
244.6219266031973
 21
290.0475160750046
 31
0.0
  0
LINE
  5
49D
102
{ACAD_REACTORS
330
62A
102
}
330
1E
100
AcDbEntity
  8
STEMPEL
100
AcDbLine
 10
144.4719687339501
 20
319.0475160750045
 30
0.0
 11
144.4719687339501
 21
307.0475160750045
 31
0.0
  0
LINE
  5
49E
102
{ACAD_REACTORS
330
62A
102
}
330
1E
100
AcDbEntity
  8
STEMPEL
100
AcDbLine
 10
148.57196873395
 20
418.9475160750045
 30
0.0
 11
146.3220108647027
 21
290.0475160750046
 31
0.0
  0
HATCH
  5
5CE
330
1E
100
AcDbEntity
  8
SCHRAFF
100
AcDbHatch
 10
0.0
 20
0.0
 30
0.0
210
0.0
220
0.0
230
1.0
  2
_USER
 70
     0
 71
     1
 91
        5
 92
        7
 72
     1
 73
     1
 93
       10
 10
263.97196873395
 20
440.0475160750046
 42
0.0
 10
250.47196873395
 20
440.0475160750046
 42
0.1254993593534531
 10
249.0353074088309
 20
439.6811455548113
 42
0.0
 10
249.0353074088309
 20
437.4787981600801
 42
-0.3311559109895197
 10
250.47196873395
 20
438.5475160750046
 42
0.0
 10
263.97196873395
 20
438.5475160750046
 42
-0.4142135623730951
 10
265.47196873395
 20
437.0475160750046
 42
0.0
 10
265.47196873395
 20
432.0475160750046
 42
0.0
 10
266.97196873395
 20
432.0475160750046
 42
0.0
 10
266.97196873395
 20
437.0475160750046
 42
0.4142135623730841
 97
       10
330
462
330
3FA
330
3FB
330
3E7
330
3EA
330
3FE
330
3E3
330
463
330
3E4
330
3FF
 92
        7
 72
     1
 73
     1
 93
        6
 10
248.97196873395
 20
437.0475160750046
 42
-0.0730389517238509
 10
249.0353074088309
 20
437.4787981600801
 42
0.0
 10
249.0353074088309
 20
439.6811455548114
 42
0.2744474537326508
 10
247.47196873395
 20
437.0475160750046
 42
0.0
 10
247.47196873395
 20
436.0475160750047
 42
0.0
 10
248.97196873395
 20
436.0475160750047
 42
0.0
 97
        6
330
3E7
330
3FB
330
3FA
330
3EC
330
464
330
3E9
 92
        7
 72
     1
 73
     1
 93
       12
 10
239.47196873395
 20
437.0475160750046
 42
0.4142135623730784
 10
236.47196873395
 20
440.0475160750045
 42
0.0
 10
235.97196873395
 20
440.0475160750045
 42
0.4142135623730784
 10
232.97196873395
 20
437.0475160750046
 42
0.0
 10
232.97196873395
 20
436.0475160750047
 42
0.0
 10
234.47196873395
 20
436.0475160750047
 42
0.0
 10
234.47196873395
 20
437.0475160750046
 42
-0.4142135623730951
 10
235.97196873395
 20
438.5475160750046
 42
0.0
 10
236.47196873395
 20
438.5475160750046
 42
-0.4142135623730951
 10
237.97196873395
 20
437.0475160750046
 42
0.0
 10
237.97196873395
 20
436.0475160750047
 42
0.0
 10
239.47196873395
 20
436.0475160750047
 42
0.0
 97
       11
330
3FC
330
462
330
3FD
330
3F3
330
464
330
3F2
330
3ED
330
3EE
330
3EF
330
3F0
330
3F1
 92
        7
 72
     1
 73
     1
 93
        8
 10
154.97196873395
 20
440.0475160750044
 42
0.0
 10
141.9086300590691
 20
440.0475160750045
 42
0.0
 10
141.9086300590691
 20
438.5475160750047
 42
0.0
 10
154.97196873395
 20
438.5475160750046
 42
-0.4142135623730951
 10
156.47196873395
 20
437.0475160750046
 42
0.0
 10
156.4719687339499
 20
436.0475160750047
 42
0.0
 10
157.97196873395
 20
436.0475160750048
 42
0.0
 10
157.97196873395
 20
437.0475160750046
 42
0.4142135623730702
 97
        8
330
462
330
438
330
441
330
42A
330
42B
330
464
330
42C
330
437
 92
        7
 72
     1
 73
     1
 93
        8
 10
125.47196873395
 20
437.0475160750046
 42
-0.4142135623730952
 10
126.97196873395
 20
438.5475160750046
 42
0.0
 10
141.9086300590691
 20
438.5475160750046
 42
0.0
 10
141.9086300590691
 20
440.0475160750044
 42
0.0
 10
126.9719687339499
 20
440.0475160750043
 42
0.4142135623730605
 10
123.9719687339499
 20
437.0475160750046
 42
0.0
 10
123.97196873395
 20
432.0475160750048
 42
0.0
 10
125.47196873395
 20
432.0475160750048
 42
0.0
 97
        8
330
43A
330
441
330
438
330
462
330
43F
330
43B
330
463
330
43C
 75
     0
 76
     0
 52
45.0
 41
2.0
 77
     0
 78
     1
 53
45.0
 43
0.0
 44
0.0
 45
-1.414213562373094
 46
1.414213562373095
 79
     0
 47
0.1960136941979477
 98
        5
 10
258.2337035177516
 20
439.2732159480203
 10
248.0337826080627
 20
436.5290247526595
 10
238.8146216028267
 20
436.9210510666866
 10
157.4114054328693
 20
437.1170656231345
 10
124.6539652373249
 20
435.7449693257369
  0
HATCH
  5
62A
330
1E
100
AcDbEntity
  8
SCHRAFF
100
AcDbHatch
 10
0.0
 20
0.0
 30
0.0
210
0.0
220
0.0
230
1.0
  2
NET
 70
     0
 71
     1
 91
        2
 92
        7
 72
     0
 73
     1
 93
       42
 10
246.47196873395
 20
394.0475160750045
 10
245.9719687339499
 20
394.0475160750045
 10
245.9719687339499
 20
397.0475160750045
 10
246.47196873395
 20
397.0475160750045
 10
246.47196873395
 20
409.0475160750044
 10
245.9719687339499
 20
409.0475160750044
 10
245.9719687339499
 20
412.0475160750045
 10
246.47196873395
 20
412.0475160750045
 10
246.47196873395
 20
419.5475160750046
 10
255.97196873395
 20
429.0475160750046
 10
270.4719687339499
 20
429.0475160750045
 10
270.4719687339501
 20
440.0475160750045
 10
267.4719687339501
 20
440.0475160750045
 10
267.47196873395
 20
432.0475160750046
 10
255.47196873395
 20
432.0475160750046
 10
242.37196873395
 20
418.9475160750045
 10
244.6219266031973
 20
290.0475160750045
 10
246.4719687339499
 20
290.0475160750045
 10
246.4719687339499
 20
304.0475160750045
 10
245.9719687339499
 20
304.0475160750045
 10
245.9719687339499
 20
307.0475160750045
 10
246.4719687339499
 20
307.0475160750045
 10
246.4719687339499
 20
319.0475160750045
 10
245.9719687339499
 20
319.0475160750045
 10
245.9719687339499
 20
322.0475160750045
 10
246.4719687339499
 20
322.0475160750045
 10
246.47196873395
 20
334.0475160750045
 10
245.9719687339499
 20
334.0475160750045
 10
245.9719687339499
 20
337.0475160750045
 10
246.47196873395
 20
337.0475160750045
 10
246.47196873395
 20
349.0475160750045
 10
245.9719687339499
 20
349.0475160750045
 10
245.9719687339499
 20
352.0475160750045
 10
246.47196873395
 20
352.0475160750045
 10
246.47196873395
 20
364.0475160750045
 10
245.9719687339499
 20
364.0475160750044
 10
245.97196873395
 20
367.0475160750044
 10
246.47196873395
 20
367.0475160750045
 10
246.47196873395
 20
379.0475160750045
 10
245.9719687339499
 20
379.0475160750046
 10
245.9719687339499
 20
382.0475160750045
 10
246.47196873395
 20
382.0475160750045
 97
       42
330
40A
330
409
330
40B
330
40C
330
408
330
406
330
407
330
423
330
3F8
330
400
330
3E5
330
462
330
3E6
330
463
330
3F9
330
49C
330
498
330
477
330
468
330
46A
330
467
330
49A
330
41D
330
41E
330
41C
330
41F
330
41A
330
419
330
41B
330
420
330
417
330
415
330
416
330
418
330
414
330
422
330
411
330
412
330
40E
330
40D
330
40F
330
413
 92
        7
 72
     0
 73
     1
 93
       42
 10
148.57196873395
 20
418.9475160750045
 10
135.4719687339497
 20
432.0475160750048
 10
123.47196873395
 20
432.0475160750048
 10
123.4719687339499
 20
440.0475160750043
 10
120.4719687339499
 20
440.0475160750042
 10
120.47196873395
 20
429.0475160750045
 10
134.97196873395
 20
429.0475160750045
 10
144.47196873395
 20
419.5475160750046
 10
144.47196873395
 20
412.0475160750046
 10
144.9719687339501
 20
412.0475160750046
 10
144.9719687339501
 20
409.0475160750044
 10
144.47196873395
 20
409.0475160750045
 10
144.47196873395
 20
397.0475160750045
 10
144.9719687339501
 20
397.0475160750045
 10
144.9719687339501
 20
394.0475160750045
 10
144.47196873395
 20
394.0475160750045
 10
144.47196873395
 20
382.0475160750045
 10
144.9719687339501
 20
382.0475160750045
 10
144.9719687339501
 20
379.0475160750045
 10
144.47196873395
 20
379.0475160750046
 10
144.47196873395
 20
367.0475160750045
 10
144.97196873395
 20
367.0475160750046
 10
144.9719687339501
 20
364.0475160750045
 10
144.47196873395
 20
364.0475160750045
 10
144.47196873395
 20
352.0475160750045
 10
144.9719687339501
 20
352.0475160750045
 10
144.9719687339501
 20
349.0475160750045
 10
144.47196873395
 20
349.0475160750045
 10
144.47196873395
 20
337.0475160750045
 10
144.9719687339501
 20
337.0475160750045
 10
144.9719687339501
 20
334.0475160750045
 10
144.47196873395
 20
334.0475160750045
 10
144.4719687339501
 20
322.0475160750045
 10
144.9719687339501
 20
322.0475160750045
 10
144.9719687339501
 20
319.0475160750045
 10
144.4719687339501
 20
319.0475160750045
 10
144.4719687339501
 20
307.0475160750045
 10
144.9719687339501
 20
307.0475160750045
 10
144.9719687339501
 20
304.0475160750045
 10
144.4719687339501
 20
304.0475160750045
 10
144.4719687339501
 20
290.0475160750044
 10
146.3220108647027
 20
290.0475160750044
 97
       42
330
436
330
463
330
43D
330
462
330
43E
330
440
330
435
330
45F
330
444
330
442
330
443
330
448
330
445
330
447
330
446
330
44F
330
44A
330
44C
330
44B
330
44E
330
44D
330
45D
330
450
330
454
330
451
330
453
330
452
330
45C
330
455
330
457
330
456
330
45B
330
458
330
45A
330
459
330
49D
330
47F
330
486
330
480
330
492
330
498
330
49E
 75
     0
 76
     1
 52
45.0
 41
15.0
 77
     0
 78
     2
 53
45.0
 43
0.0
 44
0.0
 45
-1.325825214724776
 46
1.325825214724776
 79
     0
 53
135.0
 43
0.0
 44
0.0
 45
-1.325825214724776
 46
-1.325825214724776
 79
     0
 47
0.3680175484887397
 98
        2
 10
243.9305127851458
 20
389.691512532334
 10
145.9686083129013
 20
405.8842836190176
  0
HATCH
  5
64C
330
1E
100
AcDbEntity
  8
SCHRAFF
100
AcDbHatch
 10
0.0
 20
0.0
 30
0.0
210
0.0
220
0.0
230
1.0
  2
NET
 70
     0
 71
     1
 91
        2
 92
        7
 72
     1
 73
     1
 93
       13
 10
252.47196873395
 20
300.0475160750045
 42
0.0
 10
246.6719687339499
 20
300.0475160750045
 42
0.0
 10
246.67196873395
 20
290.0475160750046
 42
0.0
 10
243.97196873395
 20
290.0475160750046
 42
0.0
 10
243.97196873395
 20
271.0475160750044
 42
0.0
 10
248.47196873395
 20
271.0475160750045
 42
0.0
 10
248.47196873395
 20
275.5475160750044
 42
-0.4142135623730951
 10
249.97196873395
 20
277.0475160750045
 42
0.0
 10
250.9719687339499
 20
277.0475160750045
 42
0.0
 10
250.97196873395
 20
284.5475160750045
 42
-0.4142135623730951
 10
253.47196873395
 20
287.0475160750045
 42
0.0
 10
257.4719687339499
 20
287.0475160750045
 42
0.0
 10
257.4719687339499
 20
295.0475160750045
 42
0.4142135623730885
 97
       13
330
46B
330
476
330
498
330
472
330
474
330
46E
330
473
330
46F
330
470
330
46C
330
46D
330
475
330
466
 92
        7
 72
     1
 73
     1
 93
       13
 10
144.2719687339499
 20
300.0475160750045
 42
0.0
 10
138.47196873395
 20
300.0475160750045
 42
0.4142135623730951
 10
133.47196873395
 20
295.0475160750045
 42
0.0
 10
133.47196873395
 20
287.0475160750045
 42
0.0
 10
137.47196873395
 20
287.0475160750045
 42
-0.4142135623730951
 10
139.97196873395
 20
284.5475160750045
 42
0.0
 10
139.97196873395
 20
277.0475160750045
 42
0.0
 10
140.97196873395
 20
277.0475160750045
 42
-0.4142135623730951
 10
142.47196873395
 20
275.5475160750044
 42
0.0
 10
142.47196873395
 20
271.0475160750045
 42
0.0
 10
146.97196873395
 20
271.0475160750045
 42
0.0
 10
146.97196873395
 20
290.0475160750044
 42
0.0
 10
144.2719687339499
 20
290.0475160750044
 42
0.0
 97
       13
330
481
330
485
330
490
330
489
330
48A
330
48E
330
48B
330
48C
330
48D
330
48F
330
488
330
498
330
491
 75
     0
 76
     1
 52
45.0
 41
20.0
 77
     0
 78
     2
 53
45.0
 43
0.0
 44
0.0
 45
-1.767766952966368
 46
1.767766952966368
 79
     0
 53
135.0
 43
0.0
 44
0.0
 45
-1.767766952966368
 46
-1.767766952966368
 79
     0
 47
0.3680175484887397
 98
        2
 10
249.0864027240363
 20
296.21505381676
 10
137.8664955517874
 20
292.1668613949476
  0
ENDSEC
  0
SECTION
  2
OBJECTS
  0
DICTIONARY
  5
C
330
0
100
AcDbDictionary
281
     1
  3
ACAD_COLOR
350
DF
  3
ACAD_GROUP
350
D
  3
ACAD_LAYOUT
350
19
  3
ACAD_MATERIAL
350
DE
  3
ACAD_MLINESTYLE
350
16
  3
ACAD_PLOTSETTINGS
350
18
  3
ACAD_PLOTSTYLENAME
350
E
  3
AcDbVariableDictionary
350
EA
  0
DICTIONARY
  5
A0
330
1E
100
AcDbDictionary
280
     1
281
     1
  3
ACAD_LAYOUTSELFREF
360
D4
  0
DICTIONARY
  5
A2
330
1A
100
AcDbDictionary
280
     1
281
     1
  3
ACAD_LAYOUTSELFREF
360
D3
  0
DICTIONARY
  5
DF
102
{ACAD_REACTORS
330
C
102
}
330
C
100
AcDbDictionary
281
     1
  0
DICTIONARY
  5
D
102
{ACAD_REACTORS
330
C
102
}
330
C
100
AcDbDictionary
281
     1
  0
DICTIONARY
  5
19
102
{ACAD_REACTORS
330
C
102
}
330
C
100
AcDbDictionary
281
     1
  3
Layout1
350
1D
  3
Model
350
21
  0
DICTIONARY
  5
DE
102
{ACAD_REACTORS
330
C
102
}
330
C
100
AcDbDictionary
281
     1
  0
DICTIONARY
  5
16
102
{ACAD_REACTORS
330
C
102
}
330
C
100
AcDbDictionary
281
     1
  3
Standard
350
17
  0
DICTIONARY
  5
18
102
{ACAD_REACTORS
330
C
102
}
330
C
100
AcDbDictionary
281
     1
  0
ACDBDICTIONARYWDFLT
  5
E
102
{ACAD_REACTORS
330
C
102
}
330
C
100
AcDbDictionary
281
     1
  3
Normal
350
F
100
AcDbDictionaryWithDefault
340
F
  0
DICTIONARY
  5
EA
102
{ACAD_REACTORS
330
C
102
}
330
C
100
AcDbDictionary
281
     1
  3
DIMASSOC
350
EB
  3
PROJECTNAME
350
EC
  0
XRECORD
  5
D4
102
{ACAD_REACTORS
330
A0
102
}
330
A0
100
AcDbXrecord
280
     1
340
1E
  0
XRECORD
  5
D3
102
{ACAD_REACTORS
330
A2
102
}
330
A2
100
AcDbXrecord
280
     1
340
1A
  0
LAYOUT
  5
1D
102
{ACAD_REACTORS
330
19
102
}
330
19
100
AcDbPlotSettings
  1

  2
\\NT_WORK01\HP LaserJet 5000 PCL 6
  4

  6

 40
0.0
 41
0.0
 42
0.0
 43
0.0
 44
0.0
 45
0.0
 46
0.0
 47
0.0
 48
0.0
 49
0.0
140
0.0
141
0.0
142
1.0
143
1.0
 70
   688
 72
     0
 73
     0
 74
     5
  7

 75
    16
147
1.0
 76
     0
 77
     2
 78
   300
148
0.0
149
0.0
100
AcDbLayout
  1
Layout1
 70
     0
 71
     1
 10
0.0
 20
0.0
 11
12.0
 21
9.0
 12
0.0
 22
0.0
 32
0.0
 14
1.000000000000000E+20
 24
1.000000000000000E+20
 34
1.000000000000000E+20
 15
-1.000000000000000E+20
 25
-1.000000000000000E+20
 35
-1.000000000000000E+20
146
0.0
 13
0.0
 23
0.0
 33
0.0
 16
1.0
 26
0.0
 36
0.0
 17
0.0
 27
1.0
 37
0.0
 76
     0
330
1A
  0
LAYOUT
  5
21
102
{ACAD_REACTORS
330
19
102
}
330
19
100
AcDbPlotSettings
  1

  2
none_device
  4
Letter_(8.50_x_11.00_Inches)
  6

 40
6.349999904632568
 41
6.349999904632568
 42
6.350006103515625
 43
6.350006103515625
 44
215.8999938964844
 45
279.3999938964844
 46
0.0
 47
0.0
 48
0.0
 49
0.0
140
0.0
141
0.0
142
1.0
143
1.0
 70
 11952
 72
     0
 73
     1
 74
     0
  7

 75
     0
147
1.0
 76
     0
 77
     2
 78
   300
148
2271.182927525775
149
61.38286835354393
100
AcDbLayout
  1
Model
 70
     1
 71
     0
 10
0.0
 20
0.0
 11
12.0
 21
9.0
 12
0.0
 22
0.0
 32
0.0
 14
0.0
 24
0.0
 34
0.0
 15
0.0
 25
0.0
 35
0.0
146
0.0
 13
0.0
 23
0.0
 33
0.0
 16
1.0
 26
0.0
 36
0.0
 17
0.0
 27
1.0
 37
0.0
 76
     0
330
1E
  0
MLINESTYLE
  5
17
102
{ACAD_REACTORS
330
16
102
}
330
16
100
AcDbMlineStyle
  2
STANDARD
 70
     0
  3

 62
   256
 51
90.0
 52
90.0
 71
     2
 49
0.5
 62
   256
  6
BYLAYER
 49
-0.5
 62
   256
  6
BYLAYER
  0
ACDBPLACEHOLDER
  5
F
102
{ACAD_REACTORS
330
E
102
}
330
E
  0
DICTIONARYVAR
  5
EB
102
{ACAD_REACTORS
330
EA
102
}
330
EA
100
DictionaryVariables
280
     0
  1
1
  0
DICTIONARYVAR
  5
EC
102
{ACAD_REACTORS
330
EA
102
}
330
EA
100
DictionaryVariables
280
     0
  1

  0
ENDSEC
  0
EOF
