  0
SECTION
  2
HEADER
  9
$ACADVER
  1
AC1018
  9
$ACADMAINTVER
 70
     2
  9
$DWGCODEPAGE
  3
ANSI_1252
  9
$INSBASE
 10
0.0
 20
0.0
 30
0.0
  9
$EXTMIN
 10
-0.0128072607766967
 20
-0.0181131259560061
 30
-0.0000000000000129
  9
$EXTMAX
 10
210.0128231525799
 20
297.0181356015053
 30
0.0000000000000023
  9
$LIMMIN
 10
0.0
 20
0.0
  9
$LIMMAX
 10
210.0
 20
297.0
  9
$ORTHOMODE
 70
     1
  9
$REGENMODE
 70
     1
  9
$FILLMODE
 70
     1
  9
$QTEXTMODE
 70
     0
  9
$MIRRTEXT
 70
     1
  9
$LTSCALE
 40
10.0
  9
$ATTMODE
 70
     1
  9
$TEXTSIZE
 40
3.5
  9
$TRACEWID
 40
0.5
  9
$TEXTSTYLE
  7
STANDARD
  9
$CLAYER
  8
SCHRAFF
  9
$CELTYPE
  6
ByLayer
  9
$CECOLOR
 62
   256
  9
$CELTSCALE
 40
1.0
  9
$DISPSILH
 70
     0
  9
$DIMSCALE
 40
1.0
  9
$DIMASZ
 40
3.5
  9
$DIMEXO
 40
1.0
  9
$DIMDLI
 40
7.0
  9
$DIMRND
 40
0.0
  9
$DIMDLE
 40
0.0
  9
$DIMEXE
 40
1.0
  9
$DIMTP
 40
0.5
  9
$DIMTM
 40
0.000000001
  9
$DIMTXT
 40
3.5
  9
$DIMCEN
 40
1.5
  9
$DIMTSZ
 40
0.0
  9
$DIMTOL
 70
     0
  9
$DIMLIM
 70
     0
  9
$DIMTIH
 70
     0
  9
$DIMTOH
 70
     0
  9
$DIMSE1
 70
     0
  9
$DIMSE2
 70
     0
  9
$DIMTAD
 70
     1
  9
$DIMZIN
 70
     8
  9
$DIMBLK
  1

  9
$DIMASO
 70
     1
  9
$DIMSHO
 70
     0
  9
$DIMPOST
  1

  9
$DIMAPOST
  1

  9
$DIMALT
 70
     0
  9
$DIMALTD
 70
     2
  9
$DIMALTF
 40
25.4
  9
$DIMLFAC
 40
1.0
  9
$DIMTOFL
 70
     1
  9
$DIMTVP
 40
0.0
  9
$DIMTIX
 70
     0
  9
$DIMSOXD
 70
     0
  9
$DIMSAH
 70
     0
  9
$DIMBLK1
  1

  9
$DIMBLK2
  1

  9
$DIMSTYLE
  2
Standard
  9
$DIMCLRD
 70
     0
  9
$DIMCLRE
 70
     0
  9
$DIMCLRT
 70
     1
  9
$DIMTFAC
 40
0.5
  9
$DIMGAP
 40
1.5
  9
$DIMJUST
 70
     0
  9
$DIMSD1
 70
     0
  9
$DIMSD2
 70
     0
  9
$DIMTOLJ
 70
     1
  9
$DIMTZIN
 70
     8
  9
$DIMALTZ
 70
     8
  9
$DIMALTTZ
 70
     8
  9
$DIMUPT
 70
     0
  9
$DIMDEC
 70
     2
  9
$DIMTDEC
 70
     2
  9
$DIMALTU
 70
     2
  9
$DIMALTTD
 70
     2
  9
$DIMTXSTY
  7
STANDARD
  9
$DIMAUNIT
 70
     0
  9
$DIMADEC
 70
     2
  9
$DIMALTRND
 40
0.0
  9
$DIMAZIN
 70
     2
  9
$DIMDSEP
 70
    46
  9
$DIMATFIT
 70
     3
  9
$DIMFRAC
 70
     0
  9
$DIMLDRBLK
  1

  9
$DIMLUNIT
 70
     2
  9
$DIMLWD
 70
    -2
  9
$DIMLWE
 70
    -2
  9
$DIMTMOVE
 70
     0
  9
$LUNITS
 70
     2
  9
$LUPREC
 70
     2
  9
$SKETCHINC
 40
1.0
  9
$FILLETRAD
 40
0.0
  9
$AUNITS
 70
     0
  9
$AUPREC
 70
     0
  9
$MENU
  1
ACAD
  9
$ELEVATION
 40
0.0
  9
$PELEVATION
 40
0.0
  9
$THICKNESS
 40
0.0
  9
$LIMCHECK
 70
     0
  9
$CHAMFERA
 40
0.0
  9
$CHAMFERB
 40
0.0
  9
$CHAMFERC
 40
0.0
  9
$CHAMFERD
 40
0.0
  9
$SKPOLY
 70
     0
  9
$TDCREATE
 40
2455397.864709028
  9
$TDUCREATE
 40
2455397.781375695
  9
$TDUPDATE
 40
2455803.546304514
  9
$TDUUPDATE
 40
2455803.462971181
  9
$TDINDWG
 40
0.1261399769
  9
$TDUSRTIMER
 40
0.1261399769
  9
$USRTIMER
 70
     1
  9
$ANGBASE
 50
0.0
  9
$ANGDIR
 70
     0
  9
$PDMODE
 70
     0
  9
$PDSIZE
 40
0.0
  9
$PLINEWID
 40
0.0
  9
$SPLFRAME
 70
     0
  9
$SPLINETYPE
 70
     6
  9
$SPLINESEGS
 70
     8
  9
$HANDSEED
  5
94A
  9
$SURFTAB1
 70
     6
  9
$SURFTAB2
 70
     6
  9
$SURFTYPE
 70
     6
  9
$SURFU
 70
     6
  9
$SURFV
 70
     6
  9
$UCSBASE
  2

  9
$UCSNAME
  2

  9
$UCSORG
 10
0.0
 20
0.0
 30
0.0
  9
$UCSXDIR
 10
1.0
 20
0.0
 30
0.0
  9
$UCSYDIR
 10
0.0
 20
1.0
 30
0.0
  9
$UCSORTHOREF
  2

  9
$UCSORTHOVIEW
 70
     0
  9
$UCSORGTOP
 10
0.0
 20
0.0
 30
0.0
  9
$UCSORGBOTTOM
 10
0.0
 20
0.0
 30
0.0
  9
$UCSORGLEFT
 10
0.0
 20
0.0
 30
0.0
  9
$UCSORGRIGHT
 10
0.0
 20
0.0
 30
0.0
  9
$UCSORGFRONT
 10
0.0
 20
0.0
 30
0.0
  9
$UCSORGBACK
 10
0.0
 20
0.0
 30
0.0
  9
$PUCSBASE
  2

  9
$PUCSNAME
  2

  9
$PUCSORG
 10
0.0
 20
0.0
 30
0.0
  9
$PUCSXDIR
 10
1.0
 20
0.0
 30
0.0
  9
$PUCSYDIR
 10
0.0
 20
1.0
 30
0.0
  9
$PUCSORTHOREF
  2

  9
$PUCSORTHOVIEW
 70
     0
  9
$PUCSORGTOP
 10
0.0
 20
0.0
 30
0.0
  9
$PUCSORGBOTTOM
 10
0.0
 20
0.0
 30
0.0
  9
$PUCSORGLEFT
 10
0.0
 20
0.0
 30
0.0
  9
$PUCSORGRIGHT
 10
0.0
 20
0.0
 30
0.0
  9
$PUCSORGFRONT
 10
0.0
 20
0.0
 30
0.0
  9
$PUCSORGBACK
 10
0.0
 20
0.0
 30
0.0
  9
$USERI1
 70
     0
  9
$USERI2
 70
     0
  9
$USERI3
 70
     0
  9
$USERI4
 70
     0
  9
$USERI5
 70
     0
  9
$USERR1
 40
0.0
  9
$USERR2
 40
0.0
  9
$USERR3
 40
0.0
  9
$USERR4
 40
0.0
  9
$USERR5
 40
0.0
  9
$WORLDVIEW
 70
     1
  9
$SHADEDGE
 70
     3
  9
$SHADEDIF
 70
    70
  9
$TILEMODE
 70
     1
  9
$MAXACTVP
 70
    16
  9
$PINSBASE
 10
0.0
 20
0.0
 30
0.0
  9
$PLIMCHECK
 70
     0
  9
$PEXTMIN
 10
1.000000000000000E+20
 20
1.000000000000000E+20
 30
1.000000000000000E+20
  9
$PEXTMAX
 10
-1.000000000000000E+20
 20
-1.000000000000000E+20
 30
-1.000000000000000E+20
  9
$PLIMMIN
 10
0.0
 20
0.0
  9
$PLIMMAX
 10
12.0
 20
9.0
  9
$UNITMODE
 70
     0
  9
$VISRETAIN
 70
     0
  9
$PLINEGEN
 70
     0
  9
$PSLTSCALE
 70
     0
  9
$TREEDEPTH
 70
  3020
  9
$CMLSTYLE
  2
Standard
  9
$CMLJUST
 70
     0
  9
$CMLSCALE
 40
1.0
  9
$PROXYGRAPHICS
 70
     1
  9
$MEASUREMENT
 70
     0
  9
$CELWEIGHT
370
    -1
  9
$ENDCAPS
280
     0
  9
$JOINSTYLE
280
     0
  9
$LWDISPLAY
290
     0
  9
$INSUNITS
 70
     0
  9
$HYPERLINKBASE
  1

  9
$STYLESHEET
  1
monochrome 1.ctb
  9
$XEDIT
290
     1
  9
$CEPSNTYPE
380
     0
  9
$PSTYLEMODE
290
     1
  9
$FINGERPRINTGUID
  2
{D68B0D02-A558-11D7-B632-000102183313}
  9
$VERSIONGUID
  2
{0FDC49F3-7B5D-4D31-9B00-7BDCE9D05D6C}
  9
$EXTNAMES
290
     1
  9
$PSVPSCALE
 40
0.0
  9
$OLESTARTUP
290
     0
  9
$SORTENTS
280
   127
  9
$INDEXCTL
280
     0
  9
$HIDETEXT
280
     0
  9
$XCLIPFRAME
290
     0
  9
$HALOGAP
280
     0
  9
$OBSCOLOR
 70
   257
  9
$OBSLTYPE
280
     0
  9
$INTERSECTIONDISPLAY
280
     0
  9
$INTERSECTIONCOLOR
 70
   257
  9
$DIMASSOC
280
     1
  9
$PROJECTNAME
  1

  0
ENDSEC
  0
SECTION
  2
CLASSES
  0
CLASS
  1
ACDBDICTIONARYWDFLT
  2
AcDbDictionaryWithDefault
  3
ObjectDBX Classes
 90
        0
 91
        1
280
     0
281
     0
  0
CLASS
  1
DICTIONARYVAR
  2
AcDbDictionaryVar
  3
ObjectDBX Classes
 90
        0
 91
        2
280
     0
281
     0
  0
CLASS
  1
DIMASSOC
  2
AcDbDimAssoc
  3
"AcDbDimAssoc|Product Desc:     AcDim ARX App For Dimension|Company:          Autodesk, Inc.|WEB Address:      www.autodesk.com"
 90
        0
 91
        1
280
     0
281
     0
  0
ENDSEC
  0
SECTION
  2
TABLES
  0
TABLE
  2
VPORT
  5
8
330
0
100
AcDbSymbolTable
 70
     3
  0
VPORT
  5
949
330
8
100
AcDbSymbolTableRecord
100
AcDbViewportTableRecord
  2
*Active
 70
     0
 10
0.0
 20
0.0
 11
1.0
 21
1.0
 12
105.0
 22
148.5
 13
0.0
 23
0.0
 14
1.0
 24
1.0
 15
10.0
 25
10.0
 16
0.0
 26
0.0
 36
1.0
 17
0.0
 27
0.0
 37
0.0
 40
297.0
 41
1.339622641509433
 42
50.0
 43
0.0
 44
0.0
 50
0.0
 51
0.0
 71
     0
 72
  1500
 73
     1
 74
     0
 75
     0
 76
     0
 77
     0
 78
     0
281
     0
 65
     1
110
0.0
120
0.0
130
0.0
111
1.0
121
0.0
131
0.0
112
0.0
122
1.0
132
0.0
 79
     0
146
0.0
  0
ENDTAB
  0
TABLE
  2
LTYPE
  5
5
330
0
100
AcDbSymbolTable
 70
     2
  0
LTYPE
  5
13
330
5
100
AcDbSymbolTableRecord
100
AcDbLinetypeTableRecord
  2
ByBlock
 70
     0
  3

 72
    65
 73
     0
 40
0.0
  0
LTYPE
  5
14
330
5
100
AcDbSymbolTableRecord
100
AcDbLinetypeTableRecord
  2
ByLayer
 70
     0
  3

 72
    65
 73
     0
 40
0.0
  0
LTYPE
  5
15
330
5
100
AcDbSymbolTableRecord
100
AcDbLinetypeTableRecord
  2
Continuous
 70
     0
  3
Solid line
 72
    65
 73
     0
 40
0.0
  0
LTYPE
  5
25
330
5
100
AcDbSymbolTableRecord
100
AcDbLinetypeTableRecord
  2
STRICHPUNKT
 70
     0
  3
__ . __ . __ . __ . __ . __ . __ . __ . __ . __
 72
    65
 73
     4
 40
1.0
 49
0.5
 74
     0
 49
-0.25
 74
     0
 49
0.0
 74
     0
 49
-0.25
 74
     0
  0
ENDTAB
  0
TABLE
  2
LAYER
  5
2
330
0
100
AcDbSymbolTable
 70
     9
  0
LAYER
  5
10
330
2
100
AcDbSymbolTableRecord
100
AcDbLayerTableRecord
  2
0
 70
     0
 62
     7
  6
Continuous
370
    -3
390
F
  0
LAYER
  5
2A
330
2
100
AcDbSymbolTableRecord
100
AcDbLayerTableRecord
  2
VOLL
 70
     0
 62
     1
  6
Continuous
370
    -3
390
F
  0
LAYER
  5
2B
330
2
100
AcDbSymbolTableRecord
100
AcDbLayerTableRecord
  2
HILF
 70
     0
 62
     2
  6
Continuous
370
    -3
390
F
  0
LAYER
  5
2C
330
2
100
AcDbSymbolTableRecord
100
AcDbLayerTableRecord
  2
MITTEL
 70
     0
 62
     2
  6
STRICHPUNKT
370
    -3
390
F
  0
LAYER
  5
2F
330
2
100
AcDbSymbolTableRecord
100
AcDbLayerTableRecord
  2
BEM
 70
     0
 62
     7
  6
Continuous
370
    -3
390
F
  0
LAYER
  5
30
330
2
100
AcDbSymbolTableRecord
100
AcDbLayerTableRecord
  2
STEMPEL
 70
     0
 62
     3
  6
Continuous
370
    -3
390
F
  0
LAYER
  5
31
330
2
100
AcDbSymbolTableRecord
100
AcDbLayerTableRecord
  2
TEXT
 70
     0
 62
     7
  6
Continuous
370
    -3
390
F
  0
LAYER
  5
4A2
330
2
100
AcDbSymbolTableRecord
100
AcDbLayerTableRecord
  2
SCHRAFF
 70
     0
 62
     7
  6
Continuous
370
    -3
390
F
  0
LAYER
  5
4CD
330
2
100
AcDbSymbolTableRecord
100
AcDbLayerTableRecord
  2
Defpoints
 70
     0
 62
     7
  6
Continuous
290
     0
370
    -3
390
F
  0
ENDTAB
  0
TABLE
  2
STYLE
  5
3
330
0
100
AcDbSymbolTable
 70
     2
  0
STYLE
  5
11
330
3
100
AcDbSymbolTableRecord
100
AcDbTextStyleTableRecord
  2
STANDARD
 70
     0
 40
0.0
 41
0.8
 50
0.0
 71
     0
 42
3.5
  3
simplex.shx
  4

  0
STYLE
  5
24
330
3
100
AcDbSymbolTableRecord
100
AcDbTextStyleTableRecord
  2
GREEKS
 70
     0
 40
0.0
 41
0.8
 50
0.0
 71
     0
 42
2.5
  3
SIMPLEX.shx
  4

  0
ENDTAB
  0
TABLE
  2
VIEW
  5
6
330
0
100
AcDbSymbolTable
 70
     0
  0
ENDTAB
  0
TABLE
  2
UCS
  5
7
330
0
100
AcDbSymbolTable
 70
     0
  0
ENDTAB
  0
TABLE
  2
APPID
  5
9
330
0
100
AcDbSymbolTable
 70
     1
  0
APPID
  5
12
330
9
100
AcDbSymbolTableRecord
100
AcDbRegAppTableRecord
  2
ACAD
 70
     0
  0
ENDTAB
  0
TABLE
  2
DIMSTYLE
  5
A
330
0
100
AcDbSymbolTable
 70
     1
100
AcDbDimStyleTable
 71
     1
340
9D
  0
DIMSTYLE
105
9D
102
{ACAD_REACTORS
330
4E3
330
513
330
718
330
711
330
5CC
102
}
330
A
100
AcDbSymbolTableRecord
100
AcDbDimStyleTableRecord
  2
Standard
 70
     0
340
11
  0
ENDTAB
  0
TABLE
  2
BLOCK_RECORD
  5
1
330
0
100
AcDbSymbolTable
 70
     9
  0
BLOCK_RECORD
  5
1E
102
{ACAD_XDICTIONARY
360
A0
102
}
330
1
100
AcDbSymbolTableRecord
100
AcDbBlockTableRecord
  2
*Model_Space
340
21
  0
BLOCK_RECORD
  5
1A
102
{ACAD_XDICTIONARY
360
A2
102
}
330
1
100
AcDbSymbolTableRecord
100
AcDbBlockTableRecord
  2
*Paper_Space
340
1D
  0
BLOCK_RECORD
  5
22
330
1
100
AcDbSymbolTableRecord
100
AcDbBlockTableRecord
  2
LOGO
340
0
102
{BLKREFS
331
9B
102
}
  0
BLOCK_RECORD
  5
4E4
330
1
100
AcDbSymbolTableRecord
100
AcDbBlockTableRecord
  2
*D1
340
0
  0
BLOCK_RECORD
  5
514
330
1
100
AcDbSymbolTableRecord
100
AcDbBlockTableRecord
  2
*D4
340
0
  0
BLOCK_RECORD
  5
5CD
330
1
100
AcDbSymbolTableRecord
100
AcDbBlockTableRecord
  2
*D5
340
0
  0
BLOCK_RECORD
  5
74A
330
1
100
AcDbSymbolTableRecord
100
AcDbBlockTableRecord
  2
*D6
340
0
  0
BLOCK_RECORD
  5
761
330
1
100
AcDbSymbolTableRecord
100
AcDbBlockTableRecord
  2
*D7
340
0
  0
ENDTAB
  0
ENDSEC
  0
SECTION
  2
BLOCKS
  0
BLOCK
  5
35
330
1E
100
AcDbEntity
  8
0
100
AcDbBlockBegin
  2
*Model_Space
 70
     0
 10
0.0
 20
0.0
 30
0.0
  3
*Model_Space
  1

  0
ENDBLK
  5
36
330
1E
100
AcDbEntity
  8
0
100
AcDbBlockEnd
  0
BLOCK
  5
33
330
1A
100
AcDbEntity
 67
     1
  8
0
100
AcDbBlockBegin
  2
*Paper_Space
 70
     0
 10
0.0
 20
0.0
 30
0.0
  3
*Paper_Space
  1

  0
ENDBLK
  5
34
330
1A
100
AcDbEntity
 67
     1
  8
0
100
AcDbBlockEnd
  0
BLOCK
  5
37
330
22
100
AcDbEntity
  8
0
100
AcDbBlockBegin
  2
LOGO
 70
     0
 10
0.0
 20
0.0
 30
0.0
  3
LOGO
  1

  0
ARC
  5
38
330
22
100
AcDbEntity
  8
0
100
AcDbCircle
 10
11.59973089678112
 20
-9.271599258481501
 30
0.0
 40
4.5
100
AcDbArc
 50
270.0
 51
231.0575587310159
  0
LINE
  5
39
330
22
100
AcDbEntity
  8
0
100
AcDbLine
 10
3.599730896781125
 20
-4.771599258481529
 30
0.0
 11
3.599730896781153
 21
-11.77159925848133
 31
0.0
  0
LINE
  5
3A
330
22
100
AcDbEntity
  8
0
100
AcDbLine
 10
2.599730896781125
 20
-4.771599258481529
 30
0.0
 11
2.599730896781153
 21
-11.77159925848133
 31
0.0
  0
CIRCLE
  5
3B
330
22
100
AcDbEntity
  8
0
100
AcDbCircle
 10
11.59973089678112
 20
-9.271599258481501
 30
0.0
 40
3.5
  0
ARC
  5
3C
330
22
100
AcDbEntity
  8
0
100
AcDbCircle
 10
31.59973089678115
 20
-9.271599258481472
 30
0.0
 40
4.5
100
AcDbArc
 50
270.0
 51
231.0575587310182
  0
LINE
  5
3D
330
22
100
AcDbEntity
  8
0
100
AcDbLine
 10
17.59973089678112
 20
-4.771599258481472
 30
0.0
 11
17.59973089678115
 21
-13.77159925848147
 31
0.0
  0
ARC
  5
3E
330
22
100
AcDbEntity
  8
0
100
AcDbCircle
 10
22.59973089678116
 20
-7.271599258481472
 30
0.0
 40
2.5
100
AcDbArc
 50
293.1161887722295
 51
90.0
  0
CIRCLE
  5
3F
330
22
100
AcDbEntity
  8
0
100
AcDbCircle
 10
31.59973089678115
 20
-9.271599258481472
 30
0.0
 40
3.5
  0
ARC
  5
40
330
22
100
AcDbEntity
  8
0
100
AcDbCircle
 10
4.599730896781153
 20
-11.77159925848133
 30
0.0
 40
1.0
100
AcDbArc
 50
180.0
 51
270.0
  0
ARC
  5
41
330
22
100
AcDbEntity
  8
0
100
AcDbCircle
 10
4.599730896781153
 20
-11.77159925848133
 30
0.0
 40
2.0
100
AcDbArc
 50
179.9999999999992
 51
270.0
  0
LINE
  5
42
330
22
100
AcDbEntity
  8
0
100
AcDbLine
 10
11.59973089678115
 20
-13.77159925848144
 30
0.0
 11
4.599730896781153
 21
-13.77159925848147
 31
0.0
  0
LINE
  5
43
330
22
100
AcDbEntity
  8
0
100
AcDbLine
 10
8.771303772034769
 20
-12.77159925848136
 30
0.0
 11
4.599730896781153
 21
-12.77159925848133
 31
0.0
  0
LINE
  5
44
330
22
100
AcDbEntity
  8
0
100
AcDbLine
 10
31.59973089678115
 20
-13.77159925848147
 30
0.0
 11
23.6715276665056
 21
-13.77159925848144
 31
0.0
  0
LINE
  5
45
330
22
100
AcDbEntity
  8
0
100
AcDbLine
 10
23.56565672307022
 20
-9.51278021337896
 30
0.0
 11
24.4388546544846
 21
-12.77159925848144
 31
0.0
  0
LINE
  5
46
330
22
100
AcDbEntity
  8
0
100
AcDbLine
 10
22.59973089678116
 20
-9.771599258481472
 30
0.0
 11
18.59973089678112
 21
-9.771599258481472
 31
0.0
  0
LINE
  5
47
330
22
100
AcDbEntity
  8
0
100
AcDbLine
 10
18.59973089678115
 20
-13.77159925848144
 30
0.0
 11
17.59973089678115
 21
-13.77159925848144
 31
0.0
  0
LINE
  5
48
330
22
100
AcDbEntity
  8
0
100
AcDbLine
 10
18.59973089678115
 20
-9.771599258481472
 30
0.0
 11
18.59973089678115
 21
-13.77159925848144
 31
0.0
  0
LINE
  5
49
330
22
100
AcDbEntity
  8
0
100
AcDbLine
 10
22.59973089678116
 20
-9.771599258481472
 30
0.0
 11
23.67152766650562
 21
-13.77159925848147
 31
0.0
  0
ARC
  5
4A
330
22
100
AcDbEntity
  8
0
100
AcDbCircle
 10
22.59973089678116
 20
-7.271599258481472
 30
0.0
 40
2.5
100
AcDbArc
 50
270.0
 51
270.0000000000007
  0
LINE
  5
4B
330
22
100
AcDbEntity
  8
0
100
AcDbLine
 10
28.77130377203494
 20
-12.77159925848147
 30
0.0
 11
24.43885465448463
 21
-12.77159925848144
 31
0.0
  0
LINE
  5
4C
330
22
100
AcDbEntity
  8
0
100
AcDbLine
 10
3.599730896781125
 20
-4.771599258481472
 30
0.0
 11
2.599730896781125
 21
-4.771599258481472
 31
0.0
  0
LINE
  5
4D
330
22
100
AcDbEntity
  8
0
100
AcDbLine
 10
22.59973089678116
 20
-8.771599258481472
 30
0.0
 11
18.59973089678115
 21
-8.771599258481472
 31
0.0
  0
LINE
  5
4E
330
22
100
AcDbEntity
  8
0
100
AcDbLine
 10
22.59973089678116
 20
-5.771599258481472
 30
0.0
 11
18.59973089678115
 21
-5.771599258481472
 31
0.0
  0
LINE
  5
4F
330
22
100
AcDbEntity
  8
0
100
AcDbLine
 10
22.59973089678116
 20
-4.771599258481472
 30
0.0
 11
17.59973089678115
 21
-4.771599258481472
 31
0.0
  0
LINE
  5
50
330
22
100
AcDbEntity
  8
0
100
AcDbLine
 10
18.59973089678115
 20
-5.771599258481472
 30
0.0
 11
18.59973089678115
 21
-8.771599258481472
 31
0.0
  0
ARC
  5
51
330
22
100
AcDbEntity
  8
0
100
AcDbCircle
 10
22.59973089678116
 20
-7.271599258481472
 30
0.0
 40
1.5
100
AcDbArc
 50
270.0
 51
90.0
  0
ENDBLK
  5
52
330
22
100
AcDbEntity
  8
0
100
AcDbBlockEnd
  0
BLOCK
  5
4EE
330
4E4
100
AcDbEntity
  8
0
100
AcDbBlockBegin
  2
*D1
 70
     1
 10
0.0
 20
0.0
 30
0.0
  3
*D1
  1

  0
LINE
  5
8E1
330
4E4
100
AcDbEntity
  8
BEM
 62
     0
370
    -2
100
AcDbLine
 10
61.49999999999997
 20
117.808614604173
 30
0.0
 11
61.49999999999997
 21
103.593827665528
 31
0.0
  0
LINE
  5
8E2
330
4E4
100
AcDbEntity
  8
BEM
 62
     0
370
    -2
100
AcDbLine
 10
163.5
 20
117.808614604173
 30
0.0
 11
163.5
 21
103.593827665528
 31
0.0
  0
LINE
  5
8E3
330
4E4
100
AcDbEntity
  8
BEM
 62
     0
370
    -2
100
AcDbLine
 10
64.99999999999997
 20
104.593827665528
 30
0.0
 11
160.0
 21
104.593827665528
 31
0.0
  0
SOLID
  5
8E4
330
4E4
100
AcDbEntity
  8
BEM
 62
     0
100
AcDbTrace
 10
64.99999999999997
 20
105.1771609988613
 30
0.0
 11
64.99999999999997
 21
104.0104943321947
 31
0.0
 12
61.49999999999997
 22
104.593827665528
 32
0.0
 13
61.49999999999997
 23
104.593827665528
 33
0.0
  0
SOLID
  5
8E5
330
4E4
100
AcDbEntity
  8
BEM
 62
     0
100
AcDbTrace
 10
160.0
 20
105.1771609988613
 30
0.0
 11
160.0
 21
104.0104943321947
 31
0.0
 12
163.5
 22
104.593827665528
 32
0.0
 13
163.5
 23
104.593827665528
 33
0.0
  0
MTEXT
  5
8E6
330
4E4
100
AcDbEntity
  8
BEM
 62
     1
100
AcDbMText
 10
112.5
 20
107.843827665528
 30
0.0
 40
3.5
 41
0.0
 71
     5
 72
     1
  1
\A1;%%c102
 73
     1
 44
1.0
  0
POINT
  5
8E7
330
4E4
100
AcDbEntity
  8
Defpoints
 62
     0
100
AcDbPoint
 10
61.49999999999997
 20
118.808614604173
 30
0.0
  0
POINT
  5
8E8
330
4E4
100
AcDbEntity
  8
Defpoints
 62
     0
100
AcDbPoint
 10
163.5
 20
118.808614604173
 30
0.0
  0
POINT
  5
8E9
330
4E4
100
AcDbEntity
  8
Defpoints
 62
     0
100
AcDbPoint
 10
163.5
 20
104.593827665528
 30
0.0
  0
ENDBLK
  5
4EF
330
4E4
100
AcDbEntity
  8
0
100
AcDbBlockEnd
  0
BLOCK
  5
51E
330
514
100
AcDbEntity
  8
0
100
AcDbBlockBegin
  2
*D4
 70
     1
 10
0.0
 20
0.0
 30
0.0
  3
*D4
  1

  0
LINE
  5
90A
330
514
100
AcDbEntity
  8
BEM
 62
     0
370
    -2
100
AcDbLine
 10
174.5
 20
238.8086146041731
 30
0.0
 11
184.1374130535185
 21
238.8086146041731
 31
0.0
  0
LINE
  5
90B
330
514
100
AcDbEntity
  8
BEM
 62
     0
370
    -2
100
AcDbLine
 10
164.5
 20
118.808614604173
 30
0.0
 11
184.1374130535184
 21
118.808614604173
 31
0.0
  0
LINE
  5
90C
330
514
100
AcDbEntity
  8
BEM
 62
     0
370
    -2
100
AcDbLine
 10
183.1374130535185
 20
235.308614604173
 30
0.0
 11
183.1374130535184
 21
122.308614604173
 31
0.0
  0
SOLID
  5
90D
330
514
100
AcDbEntity
  8
BEM
 62
     0
100
AcDbTrace
 10
182.5540797201851
 20
235.308614604173
 30
0.0
 11
183.7207463868518
 21
235.308614604173
 31
0.0
 12
183.1374130535185
 22
238.8086146041731
 32
0.0
 13
183.1374130535185
 23
238.8086146041731
 33
0.0
  0
SOLID
  5
90E
330
514
100
AcDbEntity
  8
BEM
 62
     0
100
AcDbTrace
 10
182.5540797201851
 20
122.308614604173
 30
0.0
 11
183.7207463868518
 21
122.308614604173
 31
0.0
 12
183.1374130535184
 22
118.808614604173
 32
0.0
 13
183.1374130535184
 23
118.808614604173
 33
0.0
  0
MTEXT
  5
90F
330
514
100
AcDbEntity
  8
BEM
 62
     1
100
AcDbMText
 10
179.8874130535184
 20
178.808614604173
 30
0.0
 40
3.5
 41
0.0
 71
     5
 72
     1
  1
\A1;120
 11
0.0000000000000001
 21
1.0
 31
0.0
 73
     1
 44
1.0
  0
POINT
  5
910
330
514
100
AcDbEntity
  8
Defpoints
 62
     0
100
AcDbPoint
 10
173.5
 20
238.8086146041731
 30
0.0
  0
POINT
  5
911
330
514
100
AcDbEntity
  8
Defpoints
 62
     0
100
AcDbPoint
 10
163.5
 20
118.808614604173
 30
0.0
  0
POINT
  5
912
330
514
100
AcDbEntity
  8
Defpoints
 62
     0
100
AcDbPoint
 10
183.1374130535184
 20
118.808614604173
 30
0.0
  0
ENDBLK
  5
51F
330
514
100
AcDbEntity
  8
0
100
AcDbBlockEnd
  0
BLOCK
  5
5D7
330
5CD
100
AcDbEntity
  8
0
100
AcDbBlockBegin
  2
*D5
 70
     1
 10
0.0
 20
0.0
 30
0.0
  3
*D5
  1

  0
LINE
  5
929
330
5CD
100
AcDbEntity
  8
BEM
 62
     0
370
    -2
100
AcDbLine
 10
53.49999999999999
 20
239.808614604173
 30
0.0
 11
53.49999999999999
 21
247.3831982762098
 31
0.0
  0
LINE
  5
92A
330
5CD
100
AcDbEntity
  8
BEM
 62
     0
370
    -2
100
AcDbLine
 10
171.5
 20
239.808614604173
 30
0.0
 11
171.5
 21
247.3831982762098
 31
0.0
  0
LINE
  5
92B
330
5CD
100
AcDbEntity
  8
BEM
 62
     0
370
    -2
100
AcDbLine
 10
56.99999999999999
 20
246.3831982762098
 30
0.0
 11
168.0
 21
246.3831982762098
 31
0.0
  0
SOLID
  5
92C
330
5CD
100
AcDbEntity
  8
BEM
 62
     0
100
AcDbTrace
 10
56.99999999999999
 20
246.9665316095431
 30
0.0
 11
56.99999999999999
 21
245.7998649428764
 31
0.0
 12
53.49999999999999
 22
246.3831982762098
 32
0.0
 13
53.49999999999999
 23
246.3831982762098
 33
0.0
  0
SOLID
  5
92D
330
5CD
100
AcDbEntity
  8
BEM
 62
     0
100
AcDbTrace
 10
168.0
 20
246.9665316095431
 30
0.0
 11
168.0
 21
245.7998649428764
 31
0.0
 12
171.5
 22
246.3831982762098
 32
0.0
 13
171.5
 23
246.3831982762098
 33
0.0
  0
MTEXT
  5
92E
330
5CD
100
AcDbEntity
  8
BEM
 62
     1
100
AcDbMText
 10
112.5
 20
249.6331982762098
 30
0.0
 40
3.5
 41
0.0
 71
     5
 72
     1
  1
\A1;%%c118
 73
     1
 44
1.0
  0
POINT
  5
92F
330
5CD
100
AcDbEntity
  8
Defpoints
 62
     0
100
AcDbPoint
 10
53.49999999999999
 20
238.8086146041731
 30
0.0
  0
POINT
  5
930
330
5CD
100
AcDbEntity
  8
Defpoints
 62
     0
100
AcDbPoint
 10
171.5
 20
238.8086146041731
 30
0.0
  0
POINT
  5
931
330
5CD
100
AcDbEntity
  8
Defpoints
 62
     0
100
AcDbPoint
 10
171.5
 20
246.3831982762098
 30
0.0
  0
ENDBLK
  5
5D8
330
5CD
100
AcDbEntity
  8
0
100
AcDbBlockEnd
  0
BLOCK
  5
756
330
74A
100
AcDbEntity
  8
0
100
AcDbBlockBegin
  2
*D6
 70
     1
 10
0.0
 20
0.0
 30
0.0
  3
*D6
  1

  0
LINE
  5
93D
330
74A
100
AcDbEntity
  8
BEM
 62
     0
370
    -2
100
AcDbLine
 10
55.70397561986272
 20
230.8086146041731
 30
0.0
 11
42.28682580658714
 21
230.8086146041731
 31
0.0
  0
LINE
  5
93E
330
74A
100
AcDbEntity
  8
BEM
 62
     0
370
    -2
100
AcDbLine
 10
50.50000000000006
 20
238.8086146041731
 30
0.0
 11
42.28682580658714
 21
238.8086146041731
 31
0.0
  0
LINE
  5
93F
330
74A
100
AcDbEntity
  8
BEM
 62
     0
370
    -2
100
AcDbLine
 10
43.28682580658713
 20
227.308614604173
 30
0.0
 11
43.28682580658713
 21
223.808614604173
 31
0.0
  0
LINE
  5
940
330
74A
100
AcDbEntity
  8
BEM
 62
     0
370
    -2
100
AcDbLine
 10
43.28682580658714
 20
242.308614604173
 30
0.0
 11
43.28682580658714
 21
255.7419479375064
 31
0.0
  0
LINE
  5
941
330
74A
100
AcDbEntity
  8
BEM
 62
     0
370
    -2
100
AcDbLine
 10
43.28682580658713
 20
230.8086146041731
 30
0.0
 11
43.28682580658713
 21
238.8086146041731
 31
0.0
  0
SOLID
  5
942
330
74A
100
AcDbEntity
  8
BEM
 62
     0
100
AcDbTrace
 10
42.7034924732538
 20
227.308614604173
 30
0.0
 11
43.87015913992047
 21
227.308614604173
 31
0.0
 12
43.28682580658713
 22
230.8086146041731
 32
0.0
 13
43.28682580658713
 23
230.8086146041731
 33
0.0
  0
SOLID
  5
943
330
74A
100
AcDbEntity
  8
BEM
 62
     0
100
AcDbTrace
 10
42.70349247325381
 20
242.308614604173
 30
0.0
 11
43.87015913992048
 21
242.308614604173
 31
0.0
 12
43.28682580658713
 22
238.8086146041731
 32
0.0
 13
43.28682580658713
 23
238.8086146041731
 33
0.0
  0
MTEXT
  5
944
330
74A
100
AcDbEntity
  8
BEM
 62
     1
100
AcDbMText
 10
40.0368258065871
 20
253.3086146041731
 30
0.0
 40
3.5
 41
0.0
 71
     5
 72
     1
  1
\A1;8
 11
0.0000000000000001
 21
1.0
 31
0.0
 73
     1
 44
1.0
  0
POINT
  5
945
330
74A
100
AcDbEntity
  8
Defpoints
 62
     0
100
AcDbPoint
 10
56.70397561986272
 20
230.8086146041731
 30
0.0
  0
POINT
  5
946
330
74A
100
AcDbEntity
  8
Defpoints
 62
     0
100
AcDbPoint
 10
51.50000000000005
 20
238.8086146041731
 30
0.0
  0
POINT
  5
947
330
74A
100
AcDbEntity
  8
Defpoints
 62
     0
100
AcDbPoint
 10
43.28682580658713
 20
238.8086146041731
 30
0.0
  0
ENDBLK
  5
757
330
74A
100
AcDbEntity
  8
0
100
AcDbBlockEnd
  0
BLOCK
  5
76D
330
761
100
AcDbEntity
  8
0
100
AcDbBlockBegin
  2
*D7
 70
     1
 10
0.0
 20
0.0
 30
0.0
  3
*D7
  1

  0
LINE
  5
91E
330
761
100
AcDbEntity
  8
BEM
 62
     0
370
    -2
100
AcDbLine
 10
171.5
 20
239.808614604173
 30
0.0
 11
171.5
 21
247.3831982762098
 31
0.0
  0
LINE
  5
91F
330
761
100
AcDbEntity
  8
BEM
 62
     0
370
    -2
100
AcDbLine
 10
173.5
 20
239.808614604173
 30
0.0
 11
173.5
 21
247.3831982762098
 31
0.0
  0
LINE
  5
920
330
761
100
AcDbEntity
  8
BEM
 62
     0
370
    -2
100
AcDbLine
 10
168.0
 20
246.3831982762098
 30
0.0
 11
164.5
 21
246.3831982762098
 31
0.0
  0
LINE
  5
921
330
761
100
AcDbEntity
  8
BEM
 62
     0
370
    -2
100
AcDbLine
 10
177.0
 20
246.3831982762098
 30
0.0
 11
185.3666666666667
 21
246.3831982762098
 31
0.0
  0
LINE
  5
922
330
761
100
AcDbEntity
  8
BEM
 62
     0
370
    -2
100
AcDbLine
 10
171.5
 20
246.3831982762098
 30
0.0
 11
173.5
 21
246.3831982762098
 31
0.0
  0
SOLID
  5
923
330
761
100
AcDbEntity
  8
BEM
 62
     0
100
AcDbTrace
 10
168.0
 20
246.9665316095431
 30
0.0
 11
168.0
 21
245.7998649428764
 31
0.0
 12
171.5
 22
246.3831982762098
 32
0.0
 13
171.5
 23
246.3831982762098
 33
0.0
  0
SOLID
  5
924
330
761
100
AcDbEntity
  8
BEM
 62
     0
100
AcDbTrace
 10
177.0
 20
246.9665316095431
 30
0.0
 11
177.0
 21
245.7998649428764
 31
0.0
 12
173.5
 22
246.3831982762098
 32
0.0
 13
173.5
 23
246.3831982762098
 33
0.0
  0
MTEXT
  5
925
330
761
100
AcDbEntity
  8
BEM
 62
     1
100
AcDbMText
 10
182.9333333333333
 20
249.6331982762098
 30
0.0
 40
3.5
 41
0.0
 71
     5
 72
     1
  1
\A1;2
 73
     1
 44
1.0
  0
POINT
  5
926
330
761
100
AcDbEntity
  8
Defpoints
 62
     0
100
AcDbPoint
 10
171.5
 20
238.8086146041731
 30
0.0
  0
POINT
  5
927
330
761
100
AcDbEntity
  8
Defpoints
 62
     0
100
AcDbPoint
 10
173.5
 20
238.8086146041731
 30
0.0
  0
POINT
  5
928
330
761
100
AcDbEntity
  8
Defpoints
 62
     0
100
AcDbPoint
 10
173.5
 20
246.3831982762098
 30
0.0
  0
ENDBLK
  5
76E
330
761
100
AcDbEntity
  8
0
100
AcDbBlockEnd
  0
ENDSEC
  0
SECTION
  2
ENTITIES
  0
LINE
  5
57
330
1E
100
AcDbEntity
  8
STEMPEL
100
AcDbLine
 10
205.0
 20
55.00000000000003
 30
0.0
 11
19.99999999999998
 21
55.0
 31
0.0
  0
LINE
  5
58
330
1E
100
AcDbEntity
  8
STEMPEL
100
AcDbLine
 10
68.00000000000006
 20
54.99999999999997
 30
0.0
 11
68.0
 21
4.999999999999985
 31
0.0
  0
LINE
  5
59
330
1E
100
AcDbEntity
  8
STEMPEL
100
AcDbLine
 10
110.0
 20
55.00000000000003
 30
0.0
 11
110.0
 21
4.999999999999985
 31
0.0
  0
LINE
  5
5A
330
1E
100
AcDbEntity
  8
STEMPEL
100
AcDbLine
 10
166.0
 20
54.99999999999989
 30
0.0
 11
166.0
 21
20.0
 31
0.0
  0
LINE
  5
5B
330
1E
100
AcDbEntity
  8
STEMPEL
100
AcDbLine
 10
67.99999999999994
 20
14.99999999999998
 30
0.0
 11
19.99999999999998
 21
14.99999999999998
 31
0.0
  0
LINE
  5
5C
330
1E
100
AcDbEntity
  8
STEMPEL
100
AcDbLine
 10
205.0
 20
20.0
 30
0.0
 11
68.00000000000006
 21
19.99999999999998
 31
0.0
  0
LINE
  5
5D
330
1E
100
AcDbEntity
  8
STEMPEL
100
AcDbLine
 10
205.0
 20
40.0
 30
0.0
 11
68.00000000000006
 21
39.99999999999997
 31
0.0
  0
LINE
  5
5E
330
1E
100
AcDbEntity
  8
VOLL
100
AcDbLine
 10
27.00000000000005
 20
55.00000000000003
 30
0.0
 11
26.99999999999999
 21
4.999999999999985
 31
0.0
  0
LINE
  5
5F
330
1E
100
AcDbEntity
  8
VOLL
100
AcDbLine
 10
47.00000000000005
 20
54.99999999999997
 30
0.0
 11
47.0
 21
4.999999999999985
 31
0.0
  0
LINE
  5
60
330
1E
100
AcDbEntity
  8
VOLL
100
AcDbLine
 10
57.00000000000006
 20
54.99999999999997
 30
0.0
 11
57.0
 21
4.999999999999985
 31
0.0
  0
LINE
  5
61
330
1E
100
AcDbEntity
  8
VOLL
100
AcDbLine
 10
77.00000000000006
 20
39.99999999999997
 30
0.0
 11
77.00000000000006
 21
19.99999999999998
 31
0.0
  0
LINE
  5
62
330
1E
100
AcDbEntity
  8
VOLL
100
AcDbLine
 10
90.00000000000005
 20
54.99999999999992
 30
0.0
 11
90.0
 21
19.99999999999998
 31
0.0
  0
LINE
  5
63
330
1E
100
AcDbEntity
  8
HILF
100
AcDbLine
 10
20.00000000000004
 20
50.00000000000003
 30
0.0
 11
68.00000000000006
 21
50.00000000000003
 31
0.0
  0
LINE
  5
64
330
1E
100
AcDbEntity
  8
HILF
100
AcDbLine
 10
20.00000000000004
 20
45.00000000000002
 30
0.0
 11
68.00000000000006
 21
45.00000000000002
 31
0.0
  0
LINE
  5
65
330
1E
100
AcDbEntity
  8
HILF
100
AcDbLine
 10
20.00000000000004
 20
39.99999999999997
 30
0.0
 11
68.00000000000006
 21
39.99999999999997
 31
0.0
  0
LINE
  5
66
330
1E
100
AcDbEntity
  8
HILF
100
AcDbLine
 10
20.00000000000004
 20
34.99999999999997
 30
0.0
 11
68.00000000000006
 21
34.99999999999997
 31
0.0
  0
LINE
  5
67
330
1E
100
AcDbEntity
  8
HILF
100
AcDbLine
 10
20.00000000000004
 20
29.99999999999999
 30
0.0
 11
68.00000000000006
 21
29.99999999999999
 31
0.0
  0
LINE
  5
68
330
1E
100
AcDbEntity
  8
HILF
100
AcDbLine
 10
20.00000000000004
 20
24.99999999999999
 30
0.0
 11
68.00000000000006
 21
24.99999999999999
 31
0.0
  0
LINE
  5
69
330
1E
100
AcDbEntity
  8
HILF
100
AcDbLine
 10
20.00000000000004
 20
19.99999999999998
 30
0.0
 11
68.00000000000006
 21
19.99999999999998
 31
0.0
  0
LINE
  5
6A
330
1E
100
AcDbEntity
  8
HILF
100
AcDbLine
 10
68.00000000000006
 20
34.99999999999997
 30
0.0
 11
110.0
 21
34.99999999999997
 31
0.0
  0
LINE
  5
6B
330
1E
100
AcDbEntity
  8
HILF
100
AcDbLine
 10
68.00000000000006
 20
29.99999999999999
 30
0.0
 11
110.0
 21
29.99999999999999
 31
0.0
  0
LINE
  5
6C
330
1E
100
AcDbEntity
  8
HILF
100
AcDbLine
 10
68.00000000000006
 20
24.99999999999999
 30
0.0
 11
110.0
 21
24.99999999999999
 31
0.0
  0
LINE
  5
6D
330
1E
100
AcDbEntity
  8
HILF
100
AcDbLine
 10
112.3868400548474
 20
42.01879123782069
 30
0.0
 11
162.4176958278155
 21
42.01879123782069
 31
0.0
  0
LINE
  5
6E
330
1E
100
AcDbEntity
  8
HILF
100
AcDbLine
 10
112.3868400548474
 20
34.99999999999997
 30
0.0
 11
162.4176958278155
 21
34.99999999999997
 31
0.0
  0
LINE
  5
6F
330
1E
100
AcDbEntity
  8
HILF
100
AcDbLine
 10
112.3868400548474
 20
29.99999999999999
 30
0.0
 11
162.4176958278155
 21
29.99999999999999
 31
0.0
  0
LINE
  5
70
330
1E
100
AcDbEntity
  8
HILF
100
AcDbLine
 10
112.3868400548474
 20
24.99999999999999
 30
0.0
 11
162.4176958278155
 21
24.99999999999999
 31
0.0
  0
LINE
  5
71
330
1E
100
AcDbEntity
  8
VOLL
100
AcDbLine
 10
166.0
 20
30.0
 30
0.0
 11
205.0
 21
30.0
 31
0.0
  0
LINE
  5
72
330
1E
100
AcDbEntity
  8
HILF
100
AcDbLine
 10
168.3619308148496
 20
41.88991818477913
 30
0.0
 11
202.4294419663364
 21
41.88991818477913
 31
0.0
  0
LINE
  5
73
330
1E
100
AcDbEntity
  8
HILF
100
AcDbLine
 10
111.7454849644942
 20
7.446991290141568
 30
0.0
 11
202.4294419663364
 21
7.446991290141568
 31
0.0
  0
TEXT
  5
74
330
1E
100
AcDbEntity
  8
TEXT
100
AcDbText
 10
31.9308298981591
 20
9.336909474920659
 30
0.0
 40
2.0
  1
Änderung
 41
0.8
  7
GREEKS
 72
     1
 11
37.30225846958767
 21
9.336909474920659
 31
0.0
100
AcDbText
  0
TEXT
  5
75
330
1E
100
AcDbEntity
  8
TEXT
100
AcDbText
 10
71.75817860751886
 20
51.23104475435443
 30
0.0
 40
2.5
  1
Maßstab
 41
0.8
  7
GREEKS
100
AcDbText
  0
TEXT
  5
76
330
1E
100
AcDbEntity
  8
TEXT
100
AcDbText
 10
92.14294773670257
 20
51.20920842174095
 30
0.0
 40
2.5
  1
Zul. Abw.
 41
0.8
  7
GREEKS
100
AcDbText
  0
TEXT
  5
77
330
1E
100
AcDbEntity
  8
TEXT
100
AcDbText
 10
112.4389701904505
 20
51.27446640058898
 30
0.0
 40
2.5
  1
Benennung
 41
0.8
  7
GREEKS
100
AcDbText
  0
TEXT
  5
78
330
1E
100
AcDbEntity
  8
TEXT
100
AcDbText
 10
168.089377478817
 20
51.15660172685682
 30
0.0
 40
2.5
  1
Zeichnungs Nr.
 41
0.8
  7
GREEKS
100
AcDbText
  0
TEXT
  5
79
330
1E
100
AcDbEntity
  8
TEXT
100
AcDbText
 10
112.371119195568
 20
15.42280285096528
 30
0.0
 40
2.5
  1
Bauvorhaben
 41
0.8
  7
GREEKS
100
AcDbText
  0
TEXT
  5
7A
330
1E
100
AcDbEntity
  8
TEXT
100
AcDbText
 10
168.3619308148496
 20
36.59059118549985
 30
0.0
 40
2.5
  1
Ersatz für:
 41
0.8
  7
GREEKS
100
AcDbText
  0
TEXT
  5
7B
330
1E
100
AcDbEntity
  8
TEXT
100
AcDbText
 10
24.13320553522878
 20
6.827329230135958
 30
0.0
 40
2.0
  1
Index
 50
90.0
 41
0.8
  7
GREEKS
100
AcDbText
  0
TEXT
  5
7C
330
1E
100
AcDbEntity
  8
TEXT
100
AcDbText
 10
50.04673380377405
 20
9.33578134669905
 30
0.0
 40
2.0
  1
Tag
 41
0.8
  7
GREEKS
 72
     1
 11
51.91340047044072
 21
9.33578134669905
 31
0.0
100
AcDbText
  0
TEXT
  5
7D
330
1E
100
AcDbEntity
  8
TEXT
100
AcDbText
 10
59.50613721932963
 20
9.29662108483204
 30
0.0
 40
2.0
  1
Name
 41
0.8
  7
GREEKS
 72
     1
 11
62.66804198123439
 21
9.29662108483204
 31
0.0
100
AcDbText
  0
TEXT
  5
7E
330
1E
100
AcDbEntity
  8
TEXT
100
AcDbText
 10
81.16558365768254
 20
36.65940250614963
 30
0.0
 40
2.0
  1
Tag
 41
0.8
  7
GREEKS
100
AcDbText
  0
TEXT
  5
7F
330
1E
100
AcDbEntity
  8
TEXT
100
AcDbText
 10
96.23132921131475
 20
36.65480545957612
 30
0.0
 40
2.0
  1
Name
 41
0.8
  7
GREEKS
100
AcDbText
  0
TEXT
  5
80
330
1E
100
AcDbEntity
  8
TEXT
100
AcDbText
 10
68.79180635838077
 20
31.81495184808982
 30
0.0
 40
2.0
  1
Gez.
 41
0.8
  7
GREEKS
100
AcDbText
  0
TEXT
  5
81
330
1E
100
AcDbEntity
  8
TEXT
100
AcDbText
 10
68.77575432858361
 20
26.84463145714189
 30
0.0
 40
2.0
  1
Gepr.
 41
0.8
  7
GREEKS
100
AcDbText
  0
TEXT
  5
82
330
1E
100
AcDbEntity
  8
TEXT
100
AcDbText
 10
68.80033886936519
 20
21.76473194824904
 30
0.0
 40
2.0
  1
Norm.
 41
0.8
  7
GREEKS
100
AcDbText
  0
LINE
  5
83
330
1E
100
AcDbEntity
  8
STEMPEL
100
AcDbLine
 10
24.99999999999995
 20
5.0
 30
0.0
 11
205.0
 21
5.0
 31
0.0
  0
TEXT
  5
84
330
1E
100
AcDbEntity
  8
TEXT
100
AcDbText
 10
168.6200430748503
 20
26.03708088939301
 30
0.0
 40
2.5
  1
ersetzt durch:
 41
0.8
  7
GREEKS
100
AcDbText
  0
LINE
  5
85
330
1E
100
AcDbEntity
  8
STEMPEL
100
AcDbLine
 10
205.0
 20
5.0
 30
0.0
 11
19.99999999999994
 21
5.0
 31
0.0
  0
LINE
  5
86
330
1E
100
AcDbEntity
  8
STEMPEL
100
AcDbLine
 10
205.0
 20
5.0
 30
0.0
 11
205.0
 21
292.0
 31
0.0
  0
LINE
  5
87
330
1E
100
AcDbEntity
  8
STEMPEL
100
AcDbLine
 10
20.0
 20
5.0
 30
0.0
 11
19.99999999999994
 21
292.0
 31
0.0
  0
LINE
  5
88
330
1E
100
AcDbEntity
  8
STEMPEL
100
AcDbLine
 10
205.0
 20
292.0
 30
0.0
 11
19.99999999999994
 21
292.0
 31
0.0
  0
LINE
  5
89
330
1E
100
AcDbEntity
  8
HILF
100
AcDbLine
 10
0.0
 20
0.0
 30
0.0
 11
-0.0000000000000568
 21
297.0
 31
0.0
  0
LINE
  5
8A
330
1E
100
AcDbEntity
  8
HILF
100
AcDbLine
 10
210.0
 20
297.0000000000001
 30
0.0
 11
0.0
 21
297.0
 31
0.0
  0
LINE
  5
8B
330
1E
100
AcDbEntity
  8
HILF
100
AcDbLine
 10
210.0
 20
0.0
 30
0.0
 11
0.0
 21
0.0
 31
0.0
  0
LINE
  5
8C
330
1E
100
AcDbEntity
  8
HILF
100
AcDbLine
 10
15.54383567856928
 20
148.5
 30
0.0
 11
0.0000000000000568
 21
148.5
 31
0.0
  0
TEXT
  5
8D
330
1E
100
AcDbEntity
  8
TEXT
100
AcDbText
 10
69.31105491105199
 20
36.57012735575833
 30
0.0
 40
2.0
  1
2011
 41
0.8
  7
GREEKS
100
AcDbText
  0
LINE
  5
8E
330
1E
100
AcDbEntity
  8
HILF
100
AcDbLine
 10
210.0
 20
-0.0000000000000568
 30
0.0
 11
210.0
 21
297.0
 31
0.0
  0
TEXT
  5
8F
330
1E
100
AcDbEntity
  8
VOLL
100
AcDbText
 10
78.07675471698113
 20
31.02594776470585
 30
0.0
 40
1.8
  1

  7
GREEKS
100
AcDbText
  0
TEXT
  5
90
330
1E
100
AcDbEntity
  8
TEXT
100
AcDbText
 10
20.92754975488837
 20
55.83599999999997
 30
0.0
 40
2.5
  1
Erstellt mit AUTOCAD 2004
 41
0.8
  7
GREEKS
100
AcDbText
  0
TEXT
  5
91
330
1E
100
AcDbEntity
  8
TEXT
100
AcDbText
 10
97.21080242906285
 20
31.54481959861755
 30
0.0
 40
2.0
  1
Koeh
 41
0.8
  7
GREEKS
 72
     1
 11
99.83937385763429
 21
31.54481959861755
 31
0.0
100
AcDbText
  0
TEXT
  5
92
330
1E
100
AcDbEntity
  8
TEXT
 62
     1
100
AcDbText
 10
171.8905253938001
 20
44.07450714456979
 30
0.0
 40
3.5
  1
16292070W
 41
0.8
  7
GREEKS
 72
     1
 11
183.6238587271335
 21
44.07450714456979
 31
0.0
100
AcDbText
  0
TEXT
  5
93
330
1E
100
AcDbEntity
  8
TEXT
 62
     1
100
AcDbText
 10
75.25031532409435
 20
44.07450714456979
 30
0.0
 40
3.5
  1
1:1
 41
0.8
  7
GREEKS
100
AcDbText
  0
TEXT
  5
94
330
1E
100
AcDbEntity
  8
TEXT
100
AcDbText
 10
80.19949855411802
 20
31.55382520412866
 30
0.0
 40
2.0
  1
29.08.
 41
0.8
  7
GREEKS
 72
     1
 11
83.70426045887993
 21
31.55382520412866
 31
0.0
100
AcDbText
  0
TEXT
  5
95
330
1E
100
AcDbEntity
  8
TEXT
 62
     1
100
AcDbText
 10
113.4467865528701
 20
43.70874394626889
 30
0.0
 40
3.5
  1
Siebaufnahme DN70
 41
0.8
  7
GREEKS
100
AcDbText
  0
TEXT
  5
96
330
1E
100
AcDbEntity
  8
TEXT
100
AcDbText
 10
112.5648195562657
 20
35.75167208792644
 30
0.0
 40
2.5
  1

 41
0.8
  7
GREEKS
100
AcDbText
  0
TEXT
  5
97
330
1E
100
AcDbEntity
  8
TEXT
100
AcDbText
 10
112.5648195562657
 20
31.05790353387428
 30
0.0
 40
2.5
  1

 41
0.8
  7
GREEKS
100
AcDbText
  0
TEXT
  5
98
330
1E
100
AcDbEntity
  8
TEXT
100
AcDbText
 10
112.5648195562657
 20
25.82005971521079
 30
0.0
 40
2.5
  1
EDV-Art.Nr. 16292.070X
 41
0.8
  7
GREEKS
100
AcDbText
  0
TEXT
  5
99
330
1E
100
AcDbEntity
  8
TEXT
100
AcDbText
 10
112.4918750788913
 20
21.31487076511316
 30
0.0
 40
2.0
  1
16292070W.DWG
 41
0.8
  7
GREEKS
100
AcDbText
  0
TEXT
  5
9A
330
1E
100
AcDbEntity
  8
TEXT
100
AcDbText
 10
91.31306610404202
 20
45.38181920511511
 30
0.0
 40
2.0
  1
DIN EN1123-2
 41
0.8
  7
GREEKS
 72
     1
 11
99.80830419928011
 21
45.38181920511511
 31
0.0
100
AcDbText
  0
INSERT
  5
9B
330
1E
100
AcDbEntity
  8
STEMPEL
100
AcDbBlockReference
  2
LOGO
 10
70.4977742728897
 20
22.51052638224161
 30
0.0
  0
TEXT
  5
118
330
1E
100
AcDbEntity
  8
BEM
100
AcDbText
 10
208.6511461928583
 20
5.083950539994247
 30
0.0
 40
2.0
  1
Diese Zeichnung ist urheberrechtlich geschützt und bleibt unser Eigentum. Sie darf weder ganz noch teilweise verfielfältigt und nicht an Dritte weitergegeben werden.
 50
90.0
 41
0.8
  7
GREEKS
100
AcDbText
  0
LINE
  5
165
330
1E
100
AcDbEntity
  8
MITTEL
100
AcDbLine
 10
112.5
 20
243.8086146041731
 30
0.0
 11
112.4999999999999
 21
113.808614604173
 31
0.0
  0
LINE
  5
166
330
1E
100
AcDbEntity
  8
STEMPEL
100
AcDbLine
 10
163.5
 20
118.808614604173
 30
0.0
 11
61.49999999999997
 21
118.808614604173
 31
0.0
  0
LINE
  5
168
102
{ACAD_REACTORS
330
4C1
330
80A
102
}
330
1E
100
AcDbEntity
  8
STEMPEL
100
AcDbLine
 10
61.49999999999996
 20
225.9888107014546
 30
0.0
 11
61.49999999999997
 21
118.808614604173
 31
0.0
  0
LINE
  5
169
102
{ACAD_REACTORS
330
80A
102
}
330
1E
100
AcDbEntity
  8
STEMPEL
100
AcDbLine
 10
163.4999999999999
 20
225.9888107014546
 30
0.0
 11
163.5
 21
118.808614604173
 31
0.0
  0
LINE
  5
17B
102
{ACAD_REACTORS
330
80A
102
}
330
1E
100
AcDbEntity
  8
STEMPEL
100
AcDbLine
 10
63.49999999999996
 20
225.9888107014544
 30
0.0
 11
63.49999999999994
 21
220.3533140347314
 31
0.0
  0
LINE
  5
17E
102
{ACAD_REACTORS
330
80A
102
}
330
1E
100
AcDbEntity
  8
STEMPEL
100
AcDbLine
 10
161.5
 20
225.9888107014544
 30
0.0
 11
161.4999999999999
 21
219.6689405623508
 31
0.0
  0
LINE
  5
484
330
1E
100
AcDbEntity
  8
STEMPEL
100
AcDbLine
 10
163.5
 20
212.8086146041731
 30
0.0
 11
61.49999999999997
 21
212.808614604173
 31
0.0
  0
POLYLINE
  5
489
102
{ACAD_REACTORS
330
80A
102
}
330
1E
100
AcDbEntity
  8
HILF
100
AcDb2dPolyline
 66
     1
 10
0.0
 20
0.0
 30
0.0
 70
     4
 75
     6
  0
VERTEX
  5
48A
330
489
100
AcDbEntity
  8
HILF
100
AcDbVertex
100
AcDb2dVertex
 10
61.49999999999997
 20
220.0111272985411
 30
0.0
 70
    16
  0
VERTEX
  5
490
330
489
100
AcDbEntity
  8
HILF
100
AcDbVertex
100
AcDb2dVertex
 10
61.49999999999997
 20
220.0111272985411
 30
0.0
 70
     8
  0
VERTEX
  5
492
330
489
100
AcDbEntity
  8
HILF
100
AcDbVertex
100
AcDb2dVertex
 10
70.48974609374997
 20
221.5492132360411
 30
0.0
 70
     8
  0
VERTEX
  5
493
330
489
100
AcDbEntity
  8
HILF
100
AcDbVertex
100
AcDb2dVertex
 10
78.43359374999997
 20
222.4720647985411
 30
0.0
 70
     8
  0
VERTEX
  5
494
330
489
100
AcDbEntity
  8
HILF
100
AcDbVertex
100
AcDb2dVertex
 10
85.48095703124998
 20
222.8675726110411
 30
0.0
 70
     8
  0
VERTEX
  5
495
330
489
100
AcDbEntity
  8
HILF
100
AcDbVertex
100
AcDb2dVertex
 10
91.78124999999997
 20
222.8236272985411
 30
0.0
 70
     8
  0
VERTEX
  5
496
330
489
100
AcDbEntity
  8
HILF
100
AcDbVertex
100
AcDb2dVertex
 10
97.48388671874998
 20
222.4281194860411
 30
0.0
 70
     8
  0
VERTEX
  5
497
330
489
100
AcDbEntity
  8
HILF
100
AcDbVertex
100
AcDb2dVertex
 10
102.7382812499999
 20
221.768939798541
 30
0.0
 70
     8
  0
VERTEX
  5
498
330
489
100
AcDbEntity
  8
HILF
100
AcDbVertex
100
AcDb2dVertex
 10
107.6938476562499
 20
220.9339788610411
 30
0.0
 70
     8
  0
VERTEX
  5
499
330
489
100
AcDbEntity
  8
HILF
100
AcDbVertex
100
AcDb2dVertex
 10
112.5
 20
220.0111272985412
 30
0.0
 70
     8
  0
VERTEX
  5
49A
330
489
100
AcDbEntity
  8
HILF
100
AcDbVertex
100
AcDb2dVertex
 10
117.30615234375
 20
219.0882757360412
 30
0.0
 70
     8
  0
VERTEX
  5
49B
330
489
100
AcDbEntity
  8
HILF
100
AcDbVertex
100
AcDb2dVertex
 10
122.26171875
 20
218.2533147985412
 30
0.0
 70
     8
  0
VERTEX
  5
49C
330
489
100
AcDbEntity
  8
HILF
100
AcDbVertex
100
AcDb2dVertex
 10
127.51611328125
 20
217.5941351110412
 30
0.0
 70
     8
  0
VERTEX
  5
49D
330
489
100
AcDbEntity
  8
HILF
100
AcDbVertex
100
AcDb2dVertex
 10
133.21875
 20
217.1986272985412
 30
0.0
 70
     8
  0
VERTEX
  5
49E
330
489
100
AcDbEntity
  8
HILF
100
AcDbVertex
100
AcDb2dVertex
 10
139.51904296875
 20
217.1546819860412
 30
0.0
 70
     8
  0
VERTEX
  5
49F
330
489
100
AcDbEntity
  8
HILF
100
AcDbVertex
100
AcDb2dVertex
 10
146.56640625
 20
217.5501897985412
 30
0.0
 70
     8
  0
VERTEX
  5
4A0
330
489
100
AcDbEntity
  8
HILF
100
AcDbVertex
100
AcDb2dVertex
 10
154.51025390625
 20
218.4730413610412
 30
0.0
 70
     8
  0
VERTEX
  5
4A1
330
489
100
AcDbEntity
  8
HILF
100
AcDbVertex
100
AcDb2dVertex
 10
163.5
 20
220.0111272985412
 30
0.0
 70
     8
  0
VERTEX
  5
48B
330
489
100
AcDbEntity
  8
HILF
100
AcDbVertex
100
AcDb2dVertex
 10
86.99999999999997
 20
225.0111272985411
 30
0.0
 70
    16
  0
VERTEX
  5
48C
330
489
100
AcDbEntity
  8
HILF
100
AcDbVertex
100
AcDb2dVertex
 10
112.5
 20
220.0111272985412
 30
0.0
 70
    16
  0
VERTEX
  5
48D
330
489
100
AcDbEntity
  8
HILF
100
AcDbVertex
100
AcDb2dVertex
 10
138.0
 20
215.0111272985412
 30
0.0
 70
    16
  0
VERTEX
  5
48E
330
489
100
AcDbEntity
  8
HILF
100
AcDbVertex
100
AcDb2dVertex
 10
163.5
 20
220.0111272985412
 30
0.0
 70
    16
  0
SEQEND
  5
48F
330
489
100
AcDbEntity
  8
HILF
  0
ARC
  5
4BE
102
{ACAD_REACTORS
330
4C1
102
}
330
1E
100
AcDbEntity
  8
SCHRAFF
100
AcDbCircle
 10
63.18927113581608
 20
212.808614604173
 30
0.0
 40
3.442911118559617
100
AcDbArc
 50
119.383442929331
 51
240.616557070669
  0
HATCH
  5
4C1
330
1E
100
AcDbEntity
  8
SCHRAFF
100
AcDbHatch
 10
0.0
 20
0.0
 30
0.0
210
0.0
220
0.0
230
1.0
  2
_USER
 70
     0
 71
     1
 91
        1
 92
        7
 72
     1
 73
     1
 93
        2
 10
61.49999999999997
 20
215.808614604173
 42
0.5845466609145039
 10
61.49999999999996
 20
209.808614604173
 42
0.0
 97
        2
330
4BE
330
168
 75
     0
 76
     0
 52
0.0
 41
0.1
 77
     0
 78
     1
 53
0.0
 43
0.0
 44
-28.77087823229988
 45
0.0
 46
0.1
 79
     0
 47
0.0458520816289192
 98
        1
 10
61.14846768519988
 20
213.1412222795316
  0
HATCH
  5
4C2
330
1E
100
AcDbEntity
  8
SCHRAFF
100
AcDbHatch
 10
0.0
 20
0.0
 30
0.0
210
0.0
220
0.0
230
1.0
  2
_USER
 70
     0
 71
     0
 91
        1
 92
        7
 72
     1
 73
     1
 93
        2
 10
163.5
 20
215.8086146041729
 42
-0.5845466609145039
 10
163.5
 20
209.8086146041729
 42
0.0
 97
        0
 75
     0
 76
     0
 52
0.0
 41
0.1
 77
     0
 78
     1
 53
179.9999999999999
 43
224.9999999999996
 44
-28.77087823230002
 45
0.0000000000000001
 46
0.1
 79
     0
 47
0.0458520816289192
 98
        1
 10
163.8515323148001
 20
213.1412222795315
  0
ARC
  5
4C3
330
1E
100
AcDbEntity
  8
SCHRAFF
100
AcDbCircle
 10
161.8107288641839
 20
212.8086146041729
 30
0.0
 40
3.442911118559617
100
AcDbArc
 50
299.3834429293309
 51
60.61655707066887
  0
DIMENSION
  5
4E3
330
1E
100
AcDbEntity
  8
BEM
100
AcDbDimension
  2
*D1
 10
163.5
 20
104.593827665528
 30
0.0
 11
112.5
 21
107.843827665528
 31
0.0
 70
    32
  1
%%c<>
 71
     5
 42
102.0
  3
Standard
100
AcDbAlignedDimension
 13
61.49999999999997
 23
118.808614604173
 33
0.0
 14
163.5
 24
118.808614604173
 34
0.0
100
AcDbRotatedDimension
1001
ACAD
1000
DSTYLE
1002
{
1070
    41
1040
3.5
1070
    42
1040
1.0
1070
    43
1040
7.0
1070
    44
1040
1.0
1070
    73
1070
     0
1070
    74
1070
     0
1070
    77
1070
     1
1070
    78
1070
     8
1070
    79
1070
     2
1070
   140
1040
3.5
1070
   141
1040
1.5
1070
   146
1040
0.5
1070
   147
1040
1.5
1070
   172
1070
     1
1070
   178
1070
     1
1070
   179
1070
     2
1070
   271
1070
     2
1070
   272
1070
     2
1070
   284
1070
     8
1070
   285
1070
     8
1070
   286
1070
     8
1002
}
  0
DIMENSION
  5
513
330
1E
100
AcDbEntity
  8
BEM
100
AcDbDimension
  2
*D4
 10
183.1374130535184
 20
118.808614604173
 30
0.0
 11
179.8874130535184
 21
178.808614604173
 31
0.0
 70
    32
 71
     5
 42
120.0
  3
Standard
100
AcDbAlignedDimension
 13
173.5
 23
238.8086146041731
 33
0.0
 14
163.5
 24
118.808614604173
 34
0.0
 50
90.0
100
AcDbRotatedDimension
1001
ACAD
1000
DSTYLE
1002
{
1070
    41
1040
3.5
1070
    42
1040
1.0
1070
    43
1040
7.0
1070
    44
1040
1.0
1070
    73
1070
     0
1070
    74
1070
     0
1070
    77
1070
     1
1070
    78
1070
     8
1070
    79
1070
     2
1070
   140
1040
3.5
1070
   141
1040
1.5
1070
   146
1040
0.5
1070
   147
1040
1.5
1070
   172
1070
     1
1070
   178
1070
     1
1070
   179
1070
     2
1070
   271
1070
     2
1070
   272
1070
     2
1070
   284
1070
     8
1070
   285
1070
     8
1070
   286
1070
     8
1002
}
  0
TEXT
  5
5CB
330
1E
100
AcDbEntity
  8
TEXT
 62
     1
100
AcDbText
 10
220.5996560953863
 20
79.86008876197274
 30
0.0
 40
3.5
  1

 41
0.8
100
AcDbText
  0
DIMENSION
  5
5CC
330
1E
100
AcDbEntity
  8
BEM
100
AcDbDimension
  2
*D5
 10
171.5
 20
246.3831982762098
 30
0.0
 11
112.5
 21
249.6331982762098
 31
0.0
 70
    32
  1
%%c<>
 71
     5
 42
118.0
  3
Standard
100
AcDbAlignedDimension
 13
53.49999999999999
 23
238.8086146041731
 33
0.0
 14
171.5
 24
238.8086146041731
 34
0.0
100
AcDbRotatedDimension
1001
ACAD
1000
DSTYLE
1002
{
1070
    41
1040
3.5
1070
    42
1040
1.0
1070
    43
1040
7.0
1070
    44
1040
1.0
1070
    47
1040
0.5
1070
    48
1040
0.000000001
1070
    73
1070
     0
1070
    74
1070
     0
1070
    77
1070
     1
1070
    78
1070
     8
1070
    79
1070
     2
1070
   140
1040
3.5
1070
   141
1040
1.5
1070
   146
1040
0.5
1070
   147
1040
1.5
1070
   172
1070
     1
1070
   178
1070
     1
1070
   179
1070
     2
1070
   271
1070
     2
1070
   272
1070
     2
1070
   284
1070
     8
1070
   285
1070
     8
1070
   286
1070
     8
1002
}
  0
DIMENSION
  5
711
102
{ACAD_XDICTIONARY
360
712
102
}
102
{ACAD_REACTORS
330
713
102
}
330
1E
100
AcDbEntity
  8
BEM
100
AcDbDimension
  2
*D7
 10
173.5
 20
246.3831982762098
 30
0.0
 11
182.9333333333333
 21
249.6331982762098
 31
0.0
 70
    32
 71
     5
 42
2.0
  3
Standard
100
AcDbAlignedDimension
 13
171.5
 23
238.8086146041731
 33
0.0
 14
173.5
 24
238.8086146041731
 34
0.0
100
AcDbRotatedDimension
1001
ACAD
1000
DSTYLE
1002
{
1070
    41
1040
3.5
1070
    42
1040
1.0
1070
    43
1040
7.0
1070
    44
1040
1.0
1070
    47
1040
0.5
1070
    48
1040
0.000000001
1070
    73
1070
     0
1070
    74
1070
     0
1070
    77
1070
     1
1070
    78
1070
     8
1070
    79
1070
     2
1070
   140
1040
3.5
1070
   141
1040
1.5
1070
   146
1040
0.5
1070
   147
1040
1.5
1070
   172
1070
     1
1070
   178
1070
     1
1070
   179
1070
     2
1070
   271
1070
     2
1070
   272
1070
     2
1070
   284
1070
     8
1070
   285
1070
     8
1070
   286
1070
     8
1002
}
  0
DIMENSION
  5
718
330
1E
100
AcDbEntity
  8
BEM
100
AcDbDimension
  2
*D6
 10
43.28682580658713
 20
238.8086146041731
 30
0.0
 11
43.2868258065871
 21
253.3086146041731
 31
0.0
 70
   160
 71
     5
 42
8.0
  3
Standard
100
AcDbAlignedDimension
 13
56.70397561986272
 23
230.8086146041731
 33
0.0
 14
51.50000000000005
 24
238.8086146041731
 34
0.0
 50
270.0
100
AcDbRotatedDimension
1001
ACAD
1000
DSTYLE
1002
{
1070
    41
1040
3.5
1070
    42
1040
1.0
1070
    43
1040
7.0
1070
    44
1040
1.0
1070
    47
1040
0.5
1070
    48
1040
0.000000001
1070
    73
1070
     0
1070
    74
1070
     0
1070
    77
1070
     1
1070
    78
1070
     8
1070
    79
1070
     2
1070
   140
1040
3.5
1070
   141
1040
1.5
1070
   146
1040
0.5
1070
   147
1040
1.5
1070
   172
1070
     1
1070
   178
1070
     1
1070
   179
1070
     2
1070
   271
1070
     2
1070
   272
1070
     2
1070
   284
1070
     8
1070
   285
1070
     8
1070
   286
1070
     8
1002
}
  0
LINE
  5
71A
330
1E
100
AcDbEntity
  8
HILF
100
AcDbLine
 10
56.70397561986272
 20
230.8086146041731
 30
0.0
 11
167.6811674010724
 21
230.8086146041731
 31
0.0
  0
ARC
  5
71B
102
{ACAD_REACTORS
330
80A
102
}
330
1E
100
AcDbEntity
  8
STEMPEL
100
AcDbCircle
 10
170.4999999999999
 20
231.2680263123289
 30
0.0
 40
3.0
100
AcDbArc
 50
281.3099324740193
 51
0.0
  0
LINE
  5
71C
102
{ACAD_REACTORS
330
80A
102
}
330
1E
100
AcDbEntity
  8
STEMPEL
100
AcDbLine
 10
51.50000000000005
 20
238.8086146041731
 30
0.0
 11
173.5
 21
238.8086146041731
 31
0.0
  0
LINE
  5
71D
330
1E
100
AcDbEntity
  8
HILF
100
AcDbLine
 10
63.80146208866017
 20
228.2472057238412
 30
0.0
 11
161.1985379113398
 21
228.2472057238412
 31
0.0
  0
LINE
  5
721
102
{ACAD_REACTORS
330
80A
102
}
330
1E
100
AcDbEntity
  8
STEMPEL
100
AcDbLine
 10
53.91165159458563
 20
228.3262842852561
 30
0.0
 11
60.69611613513837
 21
226.9693913771455
 31
0.0
  0
LINE
  5
722
102
{ACAD_REACTORS
330
80A
102
}
330
1E
100
AcDbEntity
  8
STEMPEL
100
AcDbLine
 10
54.30388386486197
 20
230.2874456366378
 30
0.0
 11
61.08834840541482
 21
228.9305527285272
 31
0.0
  0
ARC
  5
723
102
{ACAD_REACTORS
330
80A
102
}
330
1E
100
AcDbEntity
  8
STEMPEL
100
AcDbCircle
 10
54.50000000000017
 20
231.2680263123287
 30
0.0
 40
1.0
100
AcDbArc
 50
180.0
 51
258.6900675259808
  0
LINE
  5
724
102
{ACAD_REACTORS
330
80A
102
}
330
1E
100
AcDbEntity
  8
STEMPEL
100
AcDbLine
 10
53.50000000000012
 20
238.8086146041731
 30
0.0
 11
53.50000000000017
 21
231.2680263123287
 31
0.0
  0
LINE
  5
725
102
{ACAD_REACTORS
330
80A
102
}
330
1E
100
AcDbEntity
  8
STEMPEL
100
AcDbLine
 10
51.50000000000005
 20
238.8086146041731
 30
0.0
 11
51.50000000000017
 21
231.2680263123287
 31
0.0
  0
ARC
  5
726
102
{ACAD_REACTORS
330
80A
102
}
330
1E
100
AcDbEntity
  8
STEMPEL
100
AcDbCircle
 10
54.50000000000017
 20
231.2680263123289
 30
0.0
 40
3.0
100
AcDbArc
 50
180.0
 51
258.6900675259808
  0
ARC
  5
727
102
{ACAD_REACTORS
330
80A
102
}
330
1E
100
AcDbEntity
  8
STEMPEL
100
AcDbCircle
 10
60.50000000000029
 20
225.9888107014544
 30
0.0
 40
3.0
100
AcDbArc
 50
0.0
 51
78.69006752598075
  0
ARC
  5
728
102
{ACAD_REACTORS
330
80A
102
}
330
1E
100
AcDbEntity
  8
STEMPEL
100
AcDbCircle
 10
60.50000000000017
 20
225.9888107014546
 30
0.0
 40
1.0
100
AcDbArc
 50
0.0
 51
78.69006752598075
  0
ARC
  5
72B
102
{ACAD_REACTORS
330
80A
102
}
330
1E
100
AcDbEntity
  8
STEMPEL
100
AcDbCircle
 10
164.4999999999997
 20
225.9888107014544
 30
0.0
 40
3.0
100
AcDbArc
 50
101.3099324740192
 51
180.0
  0
LINE
  5
72C
102
{ACAD_REACTORS
330
80A
102
}
330
1E
100
AcDbEntity
  8
STEMPEL
100
AcDbLine
 10
171.0883484054144
 20
228.3262842852561
 30
0.0
 11
164.3038838648617
 21
226.9693913771455
 31
0.0
  0
ARC
  5
72D
102
{ACAD_REACTORS
330
80A
102
}
330
1E
100
AcDbEntity
  8
STEMPEL
100
AcDbCircle
 10
164.4999999999999
 20
225.9888107014546
 30
0.0
 40
1.0
100
AcDbArc
 50
101.3099324740192
 51
180.0
  0
LINE
  5
72E
102
{ACAD_REACTORS
330
80A
102
}
330
1E
100
AcDbEntity
  8
STEMPEL
100
AcDbLine
 10
170.6961161351381
 20
230.2874456366378
 30
0.0
 11
163.9116515945852
 21
228.9305527285272
 31
0.0
  0
LINE
  5
72F
102
{ACAD_REACTORS
330
713
330
80A
102
}
330
1E
100
AcDbEntity
  8
STEMPEL
100
AcDbLine
 10
171.5
 20
238.8086146041731
 30
0.0
 11
171.4999999999999
 21
231.2680263123287
 31
0.0
  0
ARC
  5
730
102
{ACAD_REACTORS
330
80A
102
}
330
1E
100
AcDbEntity
  8
STEMPEL
100
AcDbCircle
 10
170.4999999999999
 20
231.2680263123287
 30
0.0
 40
1.0
100
AcDbArc
 50
281.3099324740193
 51
0.0
  0
LINE
  5
731
102
{ACAD_REACTORS
330
713
330
80A
102
}
330
1E
100
AcDbEntity
  8
STEMPEL
100
AcDbLine
 10
173.5
 20
238.8086146041731
 30
0.0
 11
173.4999999999999
 21
231.2680263123287
 31
0.0
  0
HATCH
  5
80A
330
1E
100
AcDbEntity
  8
BEM
100
AcDbHatch
 10
0.0
 20
0.0
 30
0.0
210
0.0
220
0.0
230
1.0
  2
_USER
 70
     0
 71
     1
 91
        2
 92
        7
 72
     1
 73
     1
 93
       12
 10
171.4999999999999
 20
231.2680263123287
 42
-0.3575107650276929
 10
170.696116135138
 20
230.2874456366378
 42
0.0
 10
163.9116515945852
 20
228.9305527285272
 42
0.3575107650276674
 10
161.5
 20
225.9888107014545
 42
0.0
 10
161.4999999999999
 20
219.6689405623508
 42
0.0
 10
163.5
 20
220.0111272985412
 42
0.0
 10
163.4999999999999
 20
225.9888107014546
 42
-0.3575107650276719
 10
164.3038838648617
 20
226.9693913771455
 42
0.0
 10
171.0883484054144
 20
228.3262842852561
 42
0.3575107650276747
 10
173.4999999999999
 20
231.2680263123287
 42
0.0
 10
173.4999999999999
 20
238.8086146041731
 42
0.0
 10
171.5
 20
238.8086146041731
 42
0.0
 97
       12
330
71C
330
72F
330
730
330
72E
330
72B
330
17E
330
489
330
169
330
72D
330
72C
330
71B
330
731
 92
        7
 72
     1
 73
     1
 93
       12
 10
63.49999999999996
 20
225.9888107014544
 42
0.3575107650276598
 10
61.08834840541482
 20
228.9305527285272
 42
0.0
 10
54.30388386486197
 20
230.2874456366378
 42
-0.3575107650276785
 10
53.50000000000017
 20
231.2680263123287
 42
0.0
 10
53.50000000000012
 20
238.8086146041731
 42
0.0
 10
51.50000000000005
 20
238.8086146041731
 42
0.0
 10
51.50000000000017
 20
231.2680263123287
 42
0.3575107650276711
 10
53.91165159458559
 20
228.3262842852561
 42
0.0
 10
60.69611613513837
 20
226.9693913771455
 42
-0.3575107650276308
 10
61.49999999999996
 20
225.9888107014546
 42
0.0
 10
61.49999999999997
 20
220.0111272985411
 42
0.0
 10
63.49999999999995
 20
220.3533140347314
 42
0.0
 97
       12
330
727
330
722
330
723
330
724
330
71C
330
725
330
726
330
721
330
728
330
168
330
489
330
17B
 75
     0
 76
     0
 52
45.0
 41
2.0
 77
     0
 78
     1
 53
45.0
 43
0.0
 44
-36.3859433123879
 45
-1.414213562373094
 46
1.414213562373095
 79
     0
 47
0.1930152268506752
 98
        2
 10
172.1592231522563
 20
237.0657069616265
 10
62.84664785161158
 20
223.5546413183646
  0
TEXT
  5
870
330
1E
100
AcDbEntity
  8
TEXT
 62
     1
100
AcDbText
 10
112.9120610443354
 20
62.64774700287545
 30
0.0
 40
3.5
  1
innen und außen beschichtet
 41
0.8
  7
GREEKS
100
AcDbText
  0
TEXT
  5
871
330
1E
100
AcDbEntity
  8
TEXT
 62
     1
100
AcDbText
 10
88.93720232563651
 20
68.00880291037718
 30
0.0
 40
3.5
  1
Werkstoff: E195 EN10305 feuerverzinkt
 41
0.8
  7
GREEKS
100
AcDbText
  0
ARC
  5
8F0
330
1E
100
AcDbEntity
  8
SCHRAFF
100
AcDbCircle
 10
61.49999999999997
 20
212.808614604173
 30
0.0
 40
5.0
100
AcDbArc
 50
323.1301023541555
 51
36.86989764584357
  0
ARC
  5
8F1
330
1E
100
AcDbEntity
  8
SCHRAFF
100
AcDbCircle
 10
66.49999999999997
 20
212.808614604173
 30
0.0
 40
5.0
100
AcDbArc
 50
323.1301023541555
 51
36.86989764584357
  0
ARC
  5
8F2
330
1E
100
AcDbEntity
  8
SCHRAFF
100
AcDbCircle
 10
76.49999999999997
 20
212.808614604173
 30
0.0
 40
5.0
100
AcDbArc
 50
323.1301023541555
 51
36.86989764584357
  0
ARC
  5
8F3
330
1E
100
AcDbEntity
  8
SCHRAFF
100
AcDbCircle
 10
71.49999999999997
 20
212.808614604173
 30
0.0
 40
5.0
100
AcDbArc
 50
323.1301023541555
 51
36.86989764584357
  0
ARC
  5
8F4
330
1E
100
AcDbEntity
  8
SCHRAFF
100
AcDbCircle
 10
91.49999999999996
 20
212.808614604173
 30
0.0
 40
5.0
100
AcDbArc
 50
323.1301023541555
 51
36.86989764584357
  0
ARC
  5
8F5
330
1E
100
AcDbEntity
  8
SCHRAFF
100
AcDbCircle
 10
96.49999999999998
 20
212.808614604173
 30
0.0
 40
5.0
100
AcDbArc
 50
323.1301023541555
 51
36.86989764584357
  0
ARC
  5
8F6
330
1E
100
AcDbEntity
  8
SCHRAFF
100
AcDbCircle
 10
86.49999999999996
 20
212.808614604173
 30
0.0
 40
5.0
100
AcDbArc
 50
323.1301023541555
 51
36.86989764584357
  0
ARC
  5
8F7
330
1E
100
AcDbEntity
  8
SCHRAFF
100
AcDbCircle
 10
81.49999999999996
 20
212.808614604173
 30
0.0
 40
5.0
100
AcDbArc
 50
323.1301023541555
 51
36.86989764584357
  0
ARC
  5
8F8
330
1E
100
AcDbEntity
  8
SCHRAFF
100
AcDbCircle
 10
121.4999999999999
 20
212.808614604173
 30
0.0
 40
5.0
100
AcDbArc
 50
323.1301023541555
 51
36.86989764584357
  0
ARC
  5
8F9
330
1E
100
AcDbEntity
  8
SCHRAFF
100
AcDbCircle
 10
126.4999999999999
 20
212.808614604173
 30
0.0
 40
5.0
100
AcDbArc
 50
323.1301023541555
 51
36.86989764584357
  0
ARC
  5
8FA
330
1E
100
AcDbEntity
  8
SCHRAFF
100
AcDbCircle
 10
136.4999999999999
 20
212.808614604173
 30
0.0
 40
5.0
100
AcDbArc
 50
323.1301023541555
 51
36.86989764584357
  0
ARC
  5
8FB
330
1E
100
AcDbEntity
  8
SCHRAFF
100
AcDbCircle
 10
131.4999999999999
 20
212.808614604173
 30
0.0
 40
5.0
100
AcDbArc
 50
323.1301023541555
 51
36.86989764584357
  0
ARC
  5
8FC
330
1E
100
AcDbEntity
  8
SCHRAFF
100
AcDbCircle
 10
111.4999999999999
 20
212.808614604173
 30
0.0
 40
5.0
100
AcDbArc
 50
323.1301023541555
 51
36.86989764584357
  0
ARC
  5
8FD
330
1E
100
AcDbEntity
  8
SCHRAFF
100
AcDbCircle
 10
116.5
 20
212.808614604173
 30
0.0
 40
5.0
100
AcDbArc
 50
323.1301023541555
 51
36.86989764584357
  0
ARC
  5
8FE
330
1E
100
AcDbEntity
  8
SCHRAFF
100
AcDbCircle
 10
106.4999999999999
 20
212.808614604173
 30
0.0
 40
5.0
100
AcDbArc
 50
323.1301023541555
 51
36.86989764584357
  0
ARC
  5
8FF
330
1E
100
AcDbEntity
  8
SCHRAFF
100
AcDbCircle
 10
101.4999999999999
 20
212.808614604173
 30
0.0
 40
5.0
100
AcDbArc
 50
323.1301023541555
 51
36.86989764584357
  0
ARC
  5
900
330
1E
100
AcDbEntity
  8
SCHRAFF
100
AcDbCircle
 10
151.4999999999999
 20
212.808614604173
 30
0.0
 40
5.0
100
AcDbArc
 50
323.1301023541555
 51
36.86989764584357
  0
ARC
  5
901
330
1E
100
AcDbEntity
  8
SCHRAFF
100
AcDbCircle
 10
156.4999999999999
 20
212.808614604173
 30
0.0
 40
5.0
100
AcDbArc
 50
323.1301023541555
 51
36.86989764584357
  0
ARC
  5
902
330
1E
100
AcDbEntity
  8
SCHRAFF
100
AcDbCircle
 10
146.4999999999999
 20
212.808614604173
 30
0.0
 40
5.0
100
AcDbArc
 50
323.1301023541555
 51
36.86989764584357
  0
ARC
  5
903
330
1E
100
AcDbEntity
  8
SCHRAFF
100
AcDbCircle
 10
141.5
 20
212.808614604173
 30
0.0
 40
5.0
100
AcDbArc
 50
323.1301023541555
 51
36.86989764584357
  0
ENDSEC
  0
SECTION
  2
OBJECTS
  0
DICTIONARY
  5
C
330
0
100
AcDbDictionary
281
     1
  3
ACAD_COLOR
350
DF
  3
ACAD_GROUP
350
D
  3
ACAD_LAYOUT
350
19
  3
ACAD_MATERIAL
350
DE
  3
ACAD_MLINESTYLE
350
16
  3
ACAD_PLOTSETTINGS
350
18
  3
ACAD_PLOTSTYLENAME
350
E
  3
AcDbVariableDictionary
350
EA
  0
DICTIONARY
  5
A0
330
1E
100
AcDbDictionary
280
     1
281
     1
  3
ACAD_LAYOUTSELFREF
360
D4
  0
DICTIONARY
  5
A2
330
1A
100
AcDbDictionary
280
     1
281
     1
  3
ACAD_LAYOUTSELFREF
360
D3
  0
DICTIONARY
  5
712
330
711
100
AcDbDictionary
280
     1
281
     1
  3
ACAD_DIMASSOC
360
713
  0
DICTIONARY
  5
DF
102
{ACAD_REACTORS
330
C
102
}
330
C
100
AcDbDictionary
281
     1
  0
DICTIONARY
  5
D
102
{ACAD_REACTORS
330
C
102
}
330
C
100
AcDbDictionary
281
     1
  0
DICTIONARY
  5
19
102
{ACAD_REACTORS
330
C
102
}
330
C
100
AcDbDictionary
281
     1
  3
Layout1
350
1D
  3
Model
350
21
  0
DICTIONARY
  5
DE
102
{ACAD_REACTORS
330
C
102
}
330
C
100
AcDbDictionary
281
     1
  0
DICTIONARY
  5
16
102
{ACAD_REACTORS
330
C
102
}
330
C
100
AcDbDictionary
281
     1
  3
Standard
350
17
  0
DICTIONARY
  5
18
102
{ACAD_REACTORS
330
C
102
}
330
C
100
AcDbDictionary
281
     1
  0
ACDBDICTIONARYWDFLT
  5
E
102
{ACAD_REACTORS
330
C
102
}
330
C
100
AcDbDictionary
281
     1
  3
Normal
350
F
100
AcDbDictionaryWithDefault
340
F
  0
DICTIONARY
  5
EA
102
{ACAD_REACTORS
330
C
102
}
330
C
100
AcDbDictionary
281
     1
  3
DIMASSOC
350
EB
  3
PROJECTNAME
350
EC
  0
XRECORD
  5
D4
102
{ACAD_REACTORS
330
A0
102
}
330
A0
100
AcDbXrecord
280
     1
340
1E
  0
XRECORD
  5
D3
102
{ACAD_REACTORS
330
A2
102
}
330
A2
100
AcDbXrecord
280
     1
340
1A
  0
DIMASSOC
  5
713
102
{ACAD_REACTORS
330
712
102
}
330
712
100
AcDbDimAssoc
330
711
 90
        3
 70
     0
 71
     0
  1
AcDbOsnapPointRef
 72
    13
331
72F
 73
     2
 91
        0
 40
0.0
 10
0.0
 20
0.0
 30
2.000000000000000E+50
 75
     0
  1
AcDbOsnapPointRef
 72
    13
331
731
 73
     2
 91
        0
 40
0.0
 10
0.0
 20
0.0
 30
2.000000000000000E+50
 75
     0
  0
LAYOUT
  5
1D
102
{ACAD_REACTORS
330
19
102
}
330
19
100
AcDbPlotSettings
  1

  2
\\NT_WORK01\HP LaserJet 5000 PCL 6
  4

  6

 40
0.0
 41
0.0
 42
0.0
 43
0.0
 44
0.0
 45
0.0
 46
0.0
 47
0.0
 48
0.0
 49
0.0
140
0.0
141
0.0
142
1.0
143
1.0
 70
   688
 72
     0
 73
     0
 74
     5
  7

 75
    16
147
1.0
 76
     0
 77
     2
 78
   300
148
0.0
149
0.0
100
AcDbLayout
  1
Layout1
 70
     0
 71
     1
 10
0.0
 20
0.0
 11
12.0
 21
9.0
 12
0.0
 22
0.0
 32
0.0
 14
1.000000000000000E+20
 24
1.000000000000000E+20
 34
1.000000000000000E+20
 15
-1.000000000000000E+20
 25
-1.000000000000000E+20
 35
-1.000000000000000E+20
146
0.0
 13
0.0
 23
0.0
 33
0.0
 16
1.0
 26
0.0
 36
0.0
 17
0.0
 27
1.0
 37
0.0
 76
     0
330
1A
  0
LAYOUT
  5
21
102
{ACAD_REACTORS
330
19
102
}
330
19
100
AcDbPlotSettings
  1

  2
none_device
  4
Letter_(8.50_x_11.00_Inches)
  6

 40
6.349999904632568
 41
6.349999904632568
 42
6.350006103515625
 43
6.350006103515625
 44
215.8999938964844
 45
279.3999938964844
 46
0.0
 47
0.0
 48
0.0
 49
0.0
140
0.0
141
0.0
142
1.0
143
1.0
 70
 11952
 72
     0
 73
     1
 74
     0
  7

 75
     0
147
1.0
 76
     0
 77
     2
 78
   300
148
1104.900000000001
149
0.0
100
AcDbLayout
  1
Model
 70
     1
 71
     0
 10
0.0
 20
0.0
 11
12.0
 21
9.0
 12
0.0
 22
0.0
 32
0.0
 14
0.0
 24
0.0
 34
0.0
 15
0.0
 25
0.0
 35
0.0
146
0.0
 13
0.0
 23
0.0
 33
0.0
 16
1.0
 26
0.0
 36
0.0
 17
0.0
 27
1.0
 37
0.0
 76
     0
330
1E
  0
MLINESTYLE
  5
17
102
{ACAD_REACTORS
330
16
102
}
330
16
100
AcDbMlineStyle
  2
STANDARD
 70
     0
  3

 62
   256
 51
90.0
 52
90.0
 71
     2
 49
0.5
 62
   256
  6
BYLAYER
 49
-0.5
 62
   256
  6
BYLAYER
  0
ACDBPLACEHOLDER
  5
F
102
{ACAD_REACTORS
330
E
102
}
330
E
  0
DICTIONARYVAR
  5
EB
102
{ACAD_REACTORS
330
EA
102
}
330
EA
100
DictionaryVariables
280
     0
  1
1
  0
DICTIONARYVAR
  5
EC
102
{ACAD_REACTORS
330
EA
102
}
330
EA
100
DictionaryVariables
280
     0
  1

  0
ENDSEC
  0
EOF
